  0
SECTION
  2
HEADER
  9
$ACADVER
  1
AC1024
  9
$ACADMAINTVER
 70
   108
  9
$DWGCODEPAGE
  3
ANSI_1252
  9
$TITLE
  1
Tischverbinder Einheit      2 Stück verpackt
  9
$AUTHOR
  1
Sechi
  9
$CUSTOMPROPERTYTAG
  1
Manager
  9
$CUSTOMPROPERTY
  1

  9
$CUSTOMPROPERTYTAG
  1
Firma
  9
$CUSTOMPROPERTY
  1

  9
$CUSTOMPROPERTYTAG
  1
Kategorie
  9
$CUSTOMPROPERTY
  1

  9
$CUSTOMPROPERTYTAG
  1
Bauteilnummer
  9
$CUSTOMPROPERTY
  1
60012
  9
$CUSTOMPROPERTYTAG
  1
Bezeichnung
  9
$CUSTOMPROPERTY
  1
Tischverbinder Einheit      2 Stück verpackt
  9
$CUSTOMPROPERTYTAG
  1
Projekt
  9
$CUSTOMPROPERTY
  1
Merkt
  9
$CUSTOMPROPERTYTAG
  1
Konstrukteur
  9
$CUSTOMPROPERTY
  1
Sechi
  9
$CUSTOMPROPERTYTAG
  1
Ingenieur
  9
$CUSTOMPROPERTY
  1

  9
$CUSTOMPROPERTYTAG
  1
Bevollmächtigter
  9
$CUSTOMPROPERTY
  1

  9
$CUSTOMPROPERTYTAG
  1
Kostenstelle
  9
$CUSTOMPROPERTY
  1

  9
$CUSTOMPROPERTYTAG
  1
Zulieferer
  9
$CUSTOMPROPERTY
  1
60012
  9
$CUSTOMPROPERTYTAG
  1
Benutzerstatus
  9
$CUSTOMPROPERTY
  1

  9
$CUSTOMPROPERTYTAG
  1
Konstruktionsstatus
  9
$CUSTOMPROPERTY
  1
InBearbeitung
  9
$CUSTOMPROPERTYTAG
  1
Kontrolliert von
  9
$CUSTOMPROPERTY
  1
Klaiber
  9
$CUSTOMPROPERTYTAG
  1
Konstruktion genehmigt von
  9
$CUSTOMPROPERTY
  1

  9
$CUSTOMPROPERTYTAG
  1
Fertigung genehmigt von
  9
$CUSTOMPROPERTY
  1

  9
$CUSTOMPROPERTYTAG
  1
1AIMD_REVISION_DATE
  9
$CUSTOMPROPERTY
  1

  9
$CUSTOMPROPERTYTAG
  1
1AIMD_REVISION_DESCRIPTION
  9
$CUSTOMPROPERTY
  1

  9
$CUSTOMPROPERTYTAG
  1
1AIMD_REVISION_INDEX
  9
$CUSTOMPROPERTY
  1

  9
$CUSTOMPROPERTYTAG
  1
1AIMD_REVISION_USERNAME
  9
$CUSTOMPROPERTY
  1

  9
$CUSTOMPROPERTYTAG
  1
2AIMD_REVISION_DATE
  9
$CUSTOMPROPERTY
  1

  9
$CUSTOMPROPERTYTAG
  1
2AIMD_REVISION_DESCRIPTION
  9
$CUSTOMPROPERTY
  1

  9
$CUSTOMPROPERTYTAG
  1
2AIMD_REVISION_INDEX
  9
$CUSTOMPROPERTY
  1

  9
$CUSTOMPROPERTYTAG
  1
2AIMD_REVISION_USERNAME
  9
$CUSTOMPROPERTY
  1

  9
$CUSTOMPROPERTYTAG
  1
3AIMD_REVISION_DATE
  9
$CUSTOMPROPERTY
  1

  9
$CUSTOMPROPERTYTAG
  1
3AIMD_REVISION_DESCRIPTION
  9
$CUSTOMPROPERTY
  1

  9
$CUSTOMPROPERTYTAG
  1
3AIMD_REVISION_INDEX
  9
$CUSTOMPROPERTY
  1

  9
$CUSTOMPROPERTYTAG
  1
3AIMD_REVISION_USERNAME
  9
$CUSTOMPROPERTY
  1

  9
$CUSTOMPROPERTYTAG
  1
4AIMD_REVISION_DATE
  9
$CUSTOMPROPERTY
  1

  9
$CUSTOMPROPERTYTAG
  1
4AIMD_REVISION_DESCRIPTION
  9
$CUSTOMPROPERTY
  1

  9
$CUSTOMPROPERTYTAG
  1
4AIMD_REVISION_INDEX
  9
$CUSTOMPROPERTY
  1

  9
$CUSTOMPROPERTYTAG
  1
4AIMD_REVISION_USERNAME
  9
$CUSTOMPROPERTY
  1

  9
$CUSTOMPROPERTYTAG
  1
5AIMD_REVISION_DATE
  9
$CUSTOMPROPERTY
  1

  9
$CUSTOMPROPERTYTAG
  1
5AIMD_REVISION_DESCRIPTION
  9
$CUSTOMPROPERTY
  1

  9
$CUSTOMPROPERTYTAG
  1
5AIMD_REVISION_INDEX
  9
$CUSTOMPROPERTY
  1

  9
$CUSTOMPROPERTYTAG
  1
5AIMD_REVISION_USERNAME
  9
$CUSTOMPROPERTY
  1

  9
$CUSTOMPROPERTYTAG
  1
6AIMD_REVISION_DATE
  9
$CUSTOMPROPERTY
  1

  9
$CUSTOMPROPERTYTAG
  1
6AIMD_REVISION_DESCRIPTION
  9
$CUSTOMPROPERTY
  1

  9
$CUSTOMPROPERTYTAG
  1
6AIMD_REVISION_INDEX
  9
$CUSTOMPROPERTY
  1

  9
$CUSTOMPROPERTYTAG
  1
6AIMD_REVISION_USERNAME
  9
$CUSTOMPROPERTY
  1

  9
$CUSTOMPROPERTYTAG
  1
7AIMD_REVISION_DATE
  9
$CUSTOMPROPERTY
  1

  9
$CUSTOMPROPERTYTAG
  1
7AIMD_REVISION_DESCRIPTION
  9
$CUSTOMPROPERTY
  1

  9
$CUSTOMPROPERTYTAG
  1
7AIMD_REVISION_INDEX
  9
$CUSTOMPROPERTY
  1

  9
$CUSTOMPROPERTYTAG
  1
7AIMD_REVISION_USERNAME
  9
$CUSTOMPROPERTY
  1

  9
$CUSTOMPROPERTYTAG
  1
8AIMD_REVISION_DATE
  9
$CUSTOMPROPERTY
  1

  9
$CUSTOMPROPERTYTAG
  1
8AIMD_REVISION_DESCRIPTION
  9
$CUSTOMPROPERTY
  1

  9
$CUSTOMPROPERTYTAG
  1
8AIMD_REVISION_INDEX
  9
$CUSTOMPROPERTY
  1

  9
$CUSTOMPROPERTYTAG
  1
8AIMD_REVISION_USERNAME
  9
$CUSTOMPROPERTY
  1

  9
$CUSTOMPROPERTYTAG
  1
AIMD_MATERIAL
  9
$CUSTOMPROPERTY
  1

  9
$CUSTOMPROPERTYTAG
  1
AIMD_ORIGIN
  9
$CUSTOMPROPERTY
  1
60012.
  9
$CUSTOMPROPERTYTAG
  1
AIMD_PARTNO
  9
$CUSTOMPROPERTY
  1
 / 
  9
$CUSTOMPROPERTYTAG
  1
AIMD_REPLACED
  9
$CUSTOMPROPERTY
  1

  9
$CUSTOMPROPERTYTAG
  1
AIMD_REPLACEMENT
  9
$CUSTOMPROPERTY
  1

  9
$CUSTOMPROPERTYTAG
  1
AIMD_SCALE
  9
$CUSTOMPROPERTY
  1
1:1
  9
$CUSTOMPROPERTYTAG
  1
AIMD_WEIGHT
  9
$CUSTOMPROPERTY
  1
0.245
  9
$CUSTOMPROPERTYTAG
  1
AIMD_WEIGHT_UNIT
  9
$CUSTOMPROPERTY
  1

  9
$CUSTOMPROPERTYTAG
  1
FirstViewScale
  9
$CUSTOMPROPERTY
  1
1:1
  9
$CUSTOMPROPERTYTAG
  1
AllViewScales
  9
$CUSTOMPROPERTY
  1
(1:1)
  9
$CUSTOMPROPERTYTAG
  1
AmdtFileType
  9
$CUSTOMPROPERTY
  1
84
  9
$CUSTOMPROPERTYTAG
  1
PaperSize
  9
$CUSTOMPROPERTY
  1
A3
  9
$CUSTOMPROPERTYTAG
  1
AIMD_DESCRIPTION
  9
$CUSTOMPROPERTY
  1

  9
$CUSTOMPROPERTYTAG
  1
AIMD_CHANGE_USER
  9
$CUSTOMPROPERTY
  1
Sechi
  9
$CUSTOMPROPERTYTAG
  1
AIMD_CHANGE_DATE
  9
$CUSTOMPROPERTY
  1
02.11.2009
  9
$CUSTOMPROPERTYTAG
  1
AIMD_USERNAME
  9
$CUSTOMPROPERTY
  1
Sechi
  9
$CUSTOMPROPERTYTAG
  1
Dateidatum
  9
$CUSTOMPROPERTY
  1
05.09.2012
  9
$CUSTOMPROPERTYTAG
  1
Erstserie
  9
$CUSTOMPROPERTY
  1

  9
$CUSTOMPROPERTYTAG
  1
SaveDate
  9
$CUSTOMPROPERTY
  1
11/02/2009
  9
$CUSTOMPROPERTYTAG
  1
SaveTime
  9
$CUSTOMPROPERTY
  1
13:48
  9
$INSBASE
 10
0.0
 20
0.0
 30
0.0
  9
$EXTMIN
 10
0.0
 20
0.0
 30
0.0
  9
$EXTMAX
 10
210.0
 20
297.0
 30
0.0
  9
$LIMMIN
 10
0.0
 20
0.0
  9
$LIMMAX
 10
210.0
 20
297.0
  9
$ORTHOMODE
 70
     0
  9
$REGENMODE
 70
     1
  9
$FILLMODE
 70
     1
  9
$QTEXTMODE
 70
     0
  9
$MIRRTEXT
 70
     0
  9
$LTSCALE
 40
1.0
  9
$ATTMODE
 70
     1
  9
$TEXTSIZE
 40
0.2
  9
$TRACEWID
 40
0.05
  9
$TEXTSTYLE
  7
Standard
  9
$CLAYER
  8
0
  9
$CELTYPE
  6
ByLayer
  9
$CECOLOR
 62
   256
  9
$CELTSCALE
 40
1.0
  9
$DISPSILH
 70
     0
  9
$DIMSCALE
 40
1.0
  9
$DIMASZ
 40
1.799999999999999
  9
$DIMEXO
 40
0.0625
  9
$DIMDLI
 40
0.38
  9
$DIMRND
 40
0.0
  9
$DIMDLE
 40
0.0
  9
$DIMEXE
 40
0.18
  9
$DIMTP
 40
0.0
  9
$DIMTM
 40
0.0
  9
$DIMTXT
 40
0.3499999940395355
  9
$DIMCEN
 40
0.09
  9
$DIMTSZ
 40
0.0
  9
$DIMTOL
 70
     0
  9
$DIMLIM
 70
     0
  9
$DIMTIH
 70
     1
  9
$DIMTOH
 70
     1
  9
$DIMSE1
 70
     0
  9
$DIMSE2
 70
     0
  9
$DIMTAD
 70
     0
  9
$DIMZIN
 70
     0
  9
$DIMBLK
  1

  9
$DIMASO
 70
     1
  9
$DIMSHO
 70
     1
  9
$DIMPOST
  1

  9
$DIMAPOST
  1

  9
$DIMALT
 70
     0
  9
$DIMALTD
 70
     2
  9
$DIMALTF
 40
25.4
  9
$DIMLFAC
 40
1.0
  9
$DIMTOFL
 70
     0
  9
$DIMTVP
 40
0.0
  9
$DIMTIX
 70
     0
  9
$DIMSOXD
 70
     0
  9
$DIMSAH
 70
     0
  9
$DIMBLK1
  1

  9
$DIMBLK2
  1

  9
$DIMSTYLE
  2
Standard
  9
$DIMCLRD
 70
     0
  9
$DIMCLRE
 70
     0
  9
$DIMCLRT
 70
     0
  9
$DIMTFAC
 40
1.0
  9
$DIMGAP
 40
0.09
  9
$DIMJUST
 70
     0
  9
$DIMSD1
 70
     0
  9
$DIMSD2
 70
     0
  9
$DIMTOLJ
 70
     1
  9
$DIMTZIN
 70
     0
  9
$DIMALTZ
 70
     0
  9
$DIMALTTZ
 70
     0
  9
$DIMUPT
 70
     0
  9
$DIMDEC
 70
     4
  9
$DIMTDEC
 70
     4
  9
$DIMALTU
 70
     2
  9
$DIMALTTD
 70
     2
  9
$DIMTXSTY
  7
Standard
  9
$DIMAUNIT
 70
     0
  9
$DIMADEC
 70
     0
  9
$DIMALTRND
 40
0.0
  9
$DIMAZIN
 70
     0
  9
$DIMDSEP
 70
    46
  9
$DIMATFIT
 70
     3
  9
$DIMFRAC
 70
     0
  9
$DIMLDRBLK
  1

  9
$DIMLUNIT
 70
     2
  9
$DIMLWD
 70
    -2
  9
$DIMLWE
 70
    -2
  9
$DIMTMOVE
 70
     0
  9
$DIMFXL
 40
1.0
  9
$DIMFXLON
 70
     0
  9
$DIMJOGANG
 40
0.7853981633974483
  9
$DIMTFILL
 70
     0
  9
$DIMTFILLCLR
 70
     0
  9
$DIMARCSYM
 70
     0
  9
$DIMLTYPE
  6

  9
$DIMLTEX1
  6

  9
$DIMLTEX2
  6

  9
$DIMTXTDIRECTION
 70
     0
  9
$LUNITS
 70
     2
  9
$LUPREC
 70
     4
  9
$SKETCHINC
 40
0.1
  9
$FILLETRAD
 40
0.0
  9
$AUNITS
 70
     0
  9
$AUPREC
 70
     0
  9
$MENU
  1
.
  9
$ELEVATION
 40
0.0
  9
$PELEVATION
 40
0.0
  9
$THICKNESS
 40
0.0
  9
$LIMCHECK
 70
     0
  9
$CHAMFERA
 40
0.0
  9
$CHAMFERB
 40
0.0
  9
$CHAMFERC
 40
0.0
  9
$CHAMFERD
 40
0.0
  9
$SKPOLY
 70
     0
  9
$TDCREATE
 40
2457242.387543855
  9
$TDUCREATE
 40
2457242.304210521
  9
$TDUPDATE
 40
2457242.387543855
  9
$TDUUPDATE
 40
2457242.304210521
  9
$TDINDWG
 40
0.0000209838
  9
$TDUSRTIMER
 40
0.0000209838
  9
$USRTIMER
 70
     1
  9
$ANGBASE
 50
0.0
  9
$ANGDIR
 70
     0
  9
$PDMODE
 70
     0
  9
$PDSIZE
 40
0.0
  9
$PLINEWID
 40
0.0
  9
$SPLFRAME
 70
     0
  9
$SPLINETYPE
 70
     6
  9
$SPLINESEGS
 70
     8
  9
$HANDSEED
  5
810
  9
$SURFTAB1
 70
     6
  9
$SURFTAB2
 70
     6
  9
$SURFTYPE
 70
     6
  9
$SURFU
 70
     6
  9
$SURFV
 70
     6
  9
$UCSBASE
  2

  9
$UCSNAME
  2

  9
$UCSORG
 10
0.0
 20
0.0
 30
0.0
  9
$UCSXDIR
 10
1.0
 20
0.0
 30
0.0
  9
$UCSYDIR
 10
0.0
 20
1.0
 30
0.0
  9
$UCSORTHOREF
  2

  9
$UCSORTHOVIEW
 70
     0
  9
$UCSORGTOP
 10
0.0
 20
0.0
 30
0.0
  9
$UCSORGBOTTOM
 10
0.0
 20
0.0
 30
0.0
  9
$UCSORGLEFT
 10
0.0
 20
0.0
 30
0.0
  9
$UCSORGRIGHT
 10
0.0
 20
0.0
 30
0.0
  9
$UCSORGFRONT
 10
0.0
 20
0.0
 30
0.0
  9
$UCSORGBACK
 10
0.0
 20
0.0
 30
0.0
  9
$PUCSBASE
  2

  9
$PUCSNAME
  2

  9
$PUCSORG
 10
0.0
 20
0.0
 30
0.0
  9
$PUCSXDIR
 10
1.0
 20
0.0
 30
0.0
  9
$PUCSYDIR
 10
0.0
 20
1.0
 30
0.0
  9
$PUCSORTHOREF
  2

  9
$PUCSORTHOVIEW
 70
     0
  9
$PUCSORGTOP
 10
0.0
 20
0.0
 30
0.0
  9
$PUCSORGBOTTOM
 10
0.0
 20
0.0
 30
0.0
  9
$PUCSORGLEFT
 10
0.0
 20
0.0
 30
0.0
  9
$PUCSORGRIGHT
 10
0.0
 20
0.0
 30
0.0
  9
$PUCSORGFRONT
 10
0.0
 20
0.0
 30
0.0
  9
$PUCSORGBACK
 10
0.0
 20
0.0
 30
0.0
  9
$USERI1
 70
     0
  9
$USERI2
 70
     0
  9
$USERI3
 70
     0
  9
$USERI4
 70
     0
  9
$USERI5
 70
     0
  9
$USERR1
 40
0.0
  9
$USERR2
 40
0.0
  9
$USERR3
 40
0.0
  9
$USERR4
 40
0.0
  9
$USERR5
 40
0.0
  9
$WORLDVIEW
 70
     1
  9
$SHADEDGE
 70
     3
  9
$SHADEDIF
 70
    70
  9
$TILEMODE
 70
     1
  9
$MAXACTVP
 70
    64
  9
$PINSBASE
 10
0.0
 20
0.0
 30
0.0
  9
$PLIMCHECK
 70
     0
  9
$PEXTMIN
 10
0.0
 20
0.0
 30
0.0
  9
$PEXTMAX
 10
210.0
 20
297.0
 30
0.0
  9
$PLIMMIN
 10
0.0
 20
0.0
  9
$PLIMMAX
 10
210.0
 20
297.0
  9
$UNITMODE
 70
     0
  9
$VISRETAIN
 70
     1
  9
$PLINEGEN
 70
     0
  9
$PSLTSCALE
 70
     1
  9
$TREEDEPTH
 70
  3020
  9
$CMLSTYLE
  2
Standard
  9
$CMLJUST
 70
     0
  9
$CMLSCALE
 40
1.0
  9
$PROXYGRAPHICS
 70
     1
  9
$MEASUREMENT
 70
     1
  9
$CELWEIGHT
370
    -1
  9
$ENDCAPS
280
     0
  9
$JOINSTYLE
280
     0
  9
$LWDISPLAY
290
     0
  9
$INSUNITS
 70
     4
  9
$HYPERLINKBASE
  1

  9
$STYLESHEET
  1

  9
$XEDIT
290
     1
  9
$CEPSNTYPE
380
     0
  9
$PSTYLEMODE
290
     1
  9
$FINGERPRINTGUID
  2
{8BA646B8-05F7-48BE-B0F5-10104934F2E5}
  9
$VERSIONGUID
  2
{D038DDB2-CE8F-4CF1-B8D1-366DB1BFC0A5}
  9
$EXTNAMES
290
     1
  9
$PSVPSCALE
 40
0.0
  9
$OLESTARTUP
290
     0
  9
$SORTENTS
280
   127
  9
$INDEXCTL
280
     0
  9
$HIDETEXT
280
     1
  9
$XCLIPFRAME
280
     2
  9
$HALOGAP
280
     0
  9
$OBSCOLOR
 70
   257
  9
$OBSLTYPE
280
     0
  9
$INTERSECTIONDISPLAY
280
     0
  9
$INTERSECTIONCOLOR
 70
   257
  9
$DIMASSOC
280
     1
  9
$PROJECTNAME
  1

  9
$CAMERADISPLAY
290
     0
  9
$LENSLENGTH
 40
50.0
  9
$CAMERAHEIGHT
 40
0.0
  9
$STEPSPERSEC
 40
2.0
  9
$STEPSIZE
 40
6.0
  9
$3DDWFPREC
 40
2.0
  9
$PSOLWIDTH
 40
0.25
  9
$PSOLHEIGHT
 40
4.0
  9
$LOFTANG1
 40
1.570796326794896
  9
$LOFTANG2
 40
1.570796326794896
  9
$LOFTMAG1
 40
0.0
  9
$LOFTMAG2
 40
0.0
  9
$LOFTPARAM
 70
     7
  9
$LOFTNORMALS
280
     1
  9
$LATITUDE
 40
37.795
  9
$LONGITUDE
 40
-122.394
  9
$NORTHDIRECTION
 40
0.0
  9
$TIMEZONE
 70
 -8000
  9
$LIGHTGLYPHDISPLAY
280
     1
  9
$TILEMODELIGHTSYNCH
280
     1
  9
$CMATERIAL
347
11
  9
$SOLIDHIST
280
     0
  9
$SHOWHIST
280
     1
  9
$DWFFRAME
280
     2
  9
$DGNFRAME
280
     0
  9
$REALWORLDSCALE
290
     1
  9
$INTERFERECOLOR
 62
     1
  9
$INTERFEREOBJVS
345
33
  9
$INTERFEREVPVS
346
30
  9
$CSHADOW
280
     0
  9
$SHADOWPLANELOCATION
 40
0.0
  0
ENDSEC
  0
SECTION
  2
CLASSES
  0
CLASS
  1
ACDBDICTIONARYWDFLT
  2
AcDbDictionaryWithDefault
  3
ObjectDBX Classes
 90
        0
 91
        1
280
     0
281
     0
  0
CLASS
  1
MATERIAL
  2
AcDbMaterial
  3
ObjectDBX Classes
 90
     1153
 91
        3
280
     0
281
     0
  0
CLASS
  1
VISUALSTYLE
  2
AcDbVisualStyle
  3
ObjectDBX Classes
 90
     4095
 91
       24
280
     0
281
     0
  0
CLASS
  1
SCALE
  2
AcDbScale
  3
ObjectDBX Classes
 90
     1153
 91
       17
280
     0
281
     0
  0
CLASS
  1
TABLESTYLE
  2
AcDbTableStyle
  3
ObjectDBX Classes
 90
     4095
 91
        1
280
     0
281
     0
  0
CLASS
  1
MLEADERSTYLE
  2
AcDbMLeaderStyle
  3
ACDB_MLEADERSTYLE_CLASS
 90
     4095
 91
        1
280
     0
281
     0
  0
CLASS
  1
ACDBSECTIONVIEWSTYLE
  2
AcDbSectionViewStyle
  3
ObjectDBX Classes
 90
     1025
 91
        1
280
     0
281
     0
  0
CLASS
  1
ACDBDETAILVIEWSTYLE
  2
AcDbDetailViewStyle
  3
ObjectDBX Classes
 90
     1025
 91
        1
280
     0
281
     0
  0
CLASS
  1
DICTIONARYVAR
  2
AcDbDictionaryVar
  3
ObjectDBX Classes
 90
        0
 91
        5
280
     0
281
     0
  0
CLASS
  1
CELLSTYLEMAP
  2
AcDbCellStyleMap
  3
ObjectDBX Classes
 90
     1152
 91
        1
280
     0
281
     0
  0
ENDSEC
  0
SECTION
  2
TABLES
  0
TABLE
  2
VPORT
  5
8
330
0
100
AcDbSymbolTable
 70
     1
  0
VPORT
  5
57
330
8
100
AcDbSymbolTableRecord
100
AcDbViewportTableRecord
  2
*Active
 70
     0
 10
0.0
 20
0.0
 11
1.0
 21
1.0
 12
105.0
 22
148.5
 13
0.0
 23
0.0
 14
1.0
 24
1.0
 15
0.0
 25
0.0
 16
0.0
 26
0.0
 36
1.0
 17
0.0
 27
0.0
 37
0.0
 40
297.0
 41
0.7070707070707071
 42
50.0
 43
0.0
 44
0.0
 50
0.0
 51
0.0
 71
     0
 72
   100
 73
     1
 74
     1
 75
     0
 76
     0
 77
     0
 78
     0
281
     0
 65
     1
110
0.0
120
0.0
130
0.0
111
1.0
121
0.0
131
0.0
112
0.0
122
1.0
132
0.0
 79
     0
146
0.0
 60
     3
 61
     5
292
     1
282
     1
141
0.0
142
0.0
 63
   250
421
  3355443
  0
ENDTAB
  0
TABLE
  2
LTYPE
  5
5
330
0
100
AcDbSymbolTable
 70
    59
  0
LTYPE
  5
5B
330
5
100
AcDbSymbolTableRecord
100
AcDbLinetypeTableRecord
  2
ByBlock
 70
     0
  3

 72
    65
 73
     0
 40
0.0
  0
LTYPE
  5
5C
330
5
100
AcDbSymbolTableRecord
100
AcDbLinetypeTableRecord
  2
ByLayer
 70
     0
  3

 72
    65
 73
     0
 40
0.0
  0
LTYPE
  5
5D
330
5
100
AcDbSymbolTableRecord
100
AcDbLinetypeTableRecord
  2
Continuous
 70
     0
  3
Solid line
 72
    65
 73
     0
 40
0.0
  0
LTYPE
  5
69
330
5
100
AcDbSymbolTableRecord
100
AcDbLinetypeTableRecord
  2
PHANTOM2
 70
     0
  3
Phantom (.5x) ___ _ _ ___ _ _ ___ _ _ ___ _ _
 72
    65
 73
     6
 40
1.25
 49
0.625
 74
     0
 49
-0.125
 74
     0
 49
0.125
 74
     0
 49
-0.125
 74
     0
 49
0.125
 74
     0
 49
-0.125
 74
     0
  0
LTYPE
  5
79
330
5
100
AcDbSymbolTableRecord
100
AcDbLinetypeTableRecord
  2
Section_View_Lines
 70
     0
  3
Section View Lines
 72
    65
 73
     4
 40
0.8406
 49
0.6614
 74
     0
 49
-0.0827
 74
     0
 49
0.0138
 74
     0
 49
-0.0827
 74
     0
  0
LTYPE
  5
7A
330
5
100
AcDbSymbolTableRecord
100
AcDbLinetypeTableRecord
  2
CHAIN
 70
     0
  3
Chain ____ _ ____ _ ____ _ ____ _ ____ _ ____
 72
    65
 73
     4
 40
0.3543
 49
0.2362
 74
     0
 49
-0.0295
 74
     0
 49
0.0591
 74
     0
 49
-0.0295
 74
     0
  0
LTYPE
  5
7B
330
5
100
AcDbSymbolTableRecord
100
AcDbLinetypeTableRecord
  2
DASH_DOT
 70
     0
  3
Dash dot _._._._._._._._._._._._._._._.
 72
    65
 73
     4
 40
0.37
 49
0.24
 74
     0
 49
-0.06
 74
     0
 49
0.01
 74
     0
 49
-0.06
 74
     0
  0
LTYPE
  5
7C
330
5
100
AcDbSymbolTableRecord
100
AcDbLinetypeTableRecord
  2
DASH_DOUBLE_DOT
 70
     0
  3
Dash Double Dot __ __ . __ __ . __ __ . __ _
 72
    65
 73
     6
 40
0.4398
 49
0.24
 74
     0
 49
-0.06
 74
     0
 49
0.0098
 74
     0
 49
-0.06
 74
     0
 49
0.01
 74
     0
 49
-0.06
 74
     0
  0
LTYPE
  5
7D
330
5
100
AcDbSymbolTableRecord
100
AcDbLinetypeTableRecord
  2
DASH_TRIPLE_DOT
 70
     0
  3
Dash Triple-Dot _ . . . _ . . . _ . . . _
 72
    65
 73
     8
 40
0.51
 49
0.24
 74
     0
 49
-0.06
 74
     0
 49
0.01
 74
     0
 49
-0.06
 74
     0
 49
0.01
 74
     0
 49
-0.06
 74
     0
 49
0.01
 74
     0
 49
-0.06
 74
     0
  0
LTYPE
  5
7E
330
5
100
AcDbSymbolTableRecord
100
AcDbLinetypeTableRecord
  2
DASHED
 70
     0
  3
Dashed __ __ __ __ __ __ __ __ __ __ __ __ __ _
 72
    65
 73
     2
 40
0.2067
 49
0.1654
 74
     0
 49
-0.0413
 74
     0
  0
LTYPE
  5
7F
330
5
100
AcDbSymbolTableRecord
100
AcDbLinetypeTableRecord
  2
DASHED_SPACE
 70
     0
  3
Dashed Space _._._._._._._._._._._._._._._.
 72
    65
 73
     2
 40
0.2067
 49
0.1654
 74
     0
 49
-0.0413
 74
     0
  0
LTYPE
  5
80
330
5
100
AcDbSymbolTableRecord
100
AcDbLinetypeTableRecord
  2
DOTTED
 70
     0
  3
Dotted . . . . . . . . . . . . . . . . . . . . 
 72
    65
 73
     2
 40
0.0482
 49
0.0069
 74
     0
 49
-0.0413
 74
     0
  0
LTYPE
  5
81
330
5
100
AcDbSymbolTableRecord
100
AcDbLinetypeTableRecord
  2
DOUBLE_DASH_CHAIN
 70
     0
  3
Double Dash Chain ___ _ _ ___ _ _ ___ _ _ ___ _
 72
    65
 73
     6
 40
1.240299999999999
 49
0.6614
 74
     0
 49
-0.0827
 74
     0
 49
0.1654
 74
     0
 49
-0.0827
 74
     0
 49
0.1654
 74
     0
 49
-0.0827
 74
     0
  0
LTYPE
  5
82
330
5
100
AcDbSymbolTableRecord
100
AcDbLinetypeTableRecord
  2
DOUBLE_DASH_DOT
 70
     0
  3
Double Dash Dot __ __ . __ __ . __ __ . __ _
 72
    65
 73
     6
 40
0.67
 49
0.24
 74
     0
 49
-0.06
 74
     0
 49
0.24
 74
     0
 49
-0.06
 74
     0
 49
0.01
 74
     0
 49
-0.06
 74
     0
  0
LTYPE
  5
83
330
5
100
AcDbSymbolTableRecord
100
AcDbLinetypeTableRecord
  2
DOUBLE_DASH_DOUBLE_DOT
 70
     0
  3
Double-dash double-dot _ _ . . _ _ . . _
 72
    65
 73
     8
 40
0.7400000000000001
 49
0.24
 74
     0
 49
-0.06
 74
     0
 49
0.24
 74
     0
 49
-0.06
 74
     0
 49
0.01
 74
     0
 49
-0.06
 74
     0
 49
0.01
 74
     0
 49
-0.06
 74
     0
  0
LTYPE
  5
84
330
5
100
AcDbSymbolTableRecord
100
AcDbLinetypeTableRecord
  2
DOUBLE_DASH_TRIPLE_DOT
 70
     0
  3
Double Dash Triple Dot __ __ . . . __ __ . . .
 72
    65
 73
    10
 40
0.8100000000000001
 49
0.24
 74
     0
 49
-0.06
 74
     0
 49
0.24
 74
     0
 49
-0.06
 74
     0
 49
0.01
 74
     0
 49
-0.06
 74
     0
 49
0.01
 74
     0
 49
-0.06
 74
     0
 49
0.01
 74
     0
 49
-0.06
 74
     0
  0
LTYPE
  5
85
330
5
100
AcDbSymbolTableRecord
100
AcDbLinetypeTableRecord
  2
LONG_DASH_DOTTED
 70
     0
  3
Long-Dash Dot ____ . ____ . ____ . ____ . _
 72
    65
 73
     4
 40
0.3001
 49
0.2362
 74
     0
 49
-0.0295
 74
     0
 49
0.0049
 74
     0
 49
-0.0295
 74
     0
  0
LTYPE
  5
86
330
5
100
AcDbSymbolTableRecord
100
AcDbLinetypeTableRecord
  2
LONG_DASH_DOUBLE_DOT
 70
     0
  3
Long Dash Double Dot ____ . . ____ . . ____ . .
 72
    65
 73
     6
 40
0.3345
 49
0.2362
 74
     0
 49
-0.0295
 74
     0
 49
0.0049
 74
     0
 49
-0.0295
 74
     0
 49
0.0049
 74
     0
 49
-0.0295
 74
     0
  0
LTYPE
  5
87
330
5
100
AcDbSymbolTableRecord
100
AcDbLinetypeTableRecord
  2
LONG_DASH_TRIPLE_DOT
 70
     0
  3
Long Dash Triple Dot ____ ... ____ ... ____
 72
    65
 73
     8
 40
0.75
 49
0.48
 74
     0
 49
-0.06
 74
     0
 49
0.01
 74
     0
 49
-0.06
 74
     0
 49
0.01
 74
     0
 49
-0.06
 74
     0
 49
0.01
 74
     0
 49
-0.06
 74
     0
  0
LTYPE
  5
88
330
5
100
AcDbSymbolTableRecord
100
AcDbLinetypeTableRecord
  2
BORDER
 70
     0
  3
Border __ __ . __ __ . __ __ . __ __ . __ __ .
 72
    65
 73
     6
 40
44.45
 49
12.7
 74
     0
 49
-6.349999999999999
 74
     0
 49
12.7
 74
     0
 49
-6.349999999999999
 74
     0
 49
0.0
 74
     0
 49
-6.349999999999999
 74
     0
  0
LTYPE
  5
89
330
5
100
AcDbSymbolTableRecord
100
AcDbLinetypeTableRecord
  2
BORDER2
 70
     0
  3
Border (.5x) __.__.__.__.__.__.__.__.__.__.__.
 72
    65
 73
     6
 40
22.225
 49
6.349999999999999
 74
     0
 49
-3.174999999999999
 74
     0
 49
6.349999999999999
 74
     0
 49
-3.174999999999999
 74
     0
 49
0.0
 74
     0
 49
-3.174999999999999
 74
     0
  0
LTYPE
  5
8A
330
5
100
AcDbSymbolTableRecord
100
AcDbLinetypeTableRecord
  2
BORDERX2
 70
     0
  3
Border (2x) ____  ____  .  ____  ____  .  ___
 72
    65
 73
     6
 40
88.9
 49
25.4
 74
     0
 49
-12.7
 74
     0
 49
25.4
 74
     0
 49
-12.7
 74
     0
 49
0.0
 74
     0
 49
-12.7
 74
     0
  0
LTYPE
  5
8B
330
5
100
AcDbSymbolTableRecord
100
AcDbLinetypeTableRecord
  2
CENTER
 70
     0
  3
Center ____ _ ____ _ ____ _ ____ _ ____ _ ____
 72
    65
 73
     4
 40
50.8
 49
31.75
 74
     0
 49
-6.349999999999999
 74
     0
 49
6.349999999999999
 74
     0
 49
-6.349999999999999
 74
     0
  0
LTYPE
  5
8C
330
5
100
AcDbSymbolTableRecord
100
AcDbLinetypeTableRecord
  2
CENTER2
 70
     0
  3
Center (.5x) ___ _ ___ _ ___ _ ___ _ ___ _ ___
 72
    65
 73
     4
 40
28.575
 49
19.05
 74
     0
 49
-3.174999999999999
 74
     0
 49
3.174999999999999
 74
     0
 49
-3.174999999999999
 74
     0
  0
LTYPE
  5
8D
330
5
100
AcDbSymbolTableRecord
100
AcDbLinetypeTableRecord
  2
CENTERX2
 70
     0
  3
Center (2x) ________  __  ________  __  _____
 72
    65
 73
     4
 40
101.6
 49
63.5
 74
     0
 49
-12.7
 74
     0
 49
12.7
 74
     0
 49
-12.7
 74
     0
  0
LTYPE
  5
8E
330
5
100
AcDbSymbolTableRecord
100
AcDbLinetypeTableRecord
  2
DASHDOT2
 70
     0
  3
Dash dot (.5x) _._._._._._._._._._._._._._._.
 72
    65
 73
     4
 40
12.7
 49
6.349999999999999
 74
     0
 49
-3.174999999999999
 74
     0
 49
0.0
 74
     0
 49
-3.174999999999999
 74
     0
  0
LTYPE
  5
8F
330
5
100
AcDbSymbolTableRecord
100
AcDbLinetypeTableRecord
  2
DASHDOTX2
 70
     0
  3
Dash dot (2x) ____  .  ____  .  ____  .  ___
 72
    65
 73
     4
 40
50.8
 49
25.4
 74
     0
 49
-12.7
 74
     0
 49
0.0
 74
     0
 49
-12.7
 74
     0
  0
LTYPE
  5
90
330
5
100
AcDbSymbolTableRecord
100
AcDbLinetypeTableRecord
  2
DASHED2
 70
     0
  3
Dashed (.5x) _ _ _ _ _ _ _ _ _ _ _ _ _ _ _ _ _
 72
    65
 73
     2
 40
9.524999999999998
 49
6.349999999999999
 74
     0
 49
-3.174999999999999
 74
     0
  0
LTYPE
  5
91
330
5
100
AcDbSymbolTableRecord
100
AcDbLinetypeTableRecord
  2
DASHEDX2
 70
     0
  3
Dashed (2x) ____  ____  ____  ____  ____  ___
 72
    65
 73
     2
 40
38.1
 49
25.4
 74
     0
 49
-12.7
 74
     0
  0
LTYPE
  5
92
330
5
100
AcDbSymbolTableRecord
100
AcDbLinetypeTableRecord
  2
DIVIDE
 70
     0
  3
Divide ____ . . ____ . . ____ . . ____ . . ____
 72
    65
 73
     6
 40
31.75
 49
12.7
 74
     0
 49
-6.349999999999999
 74
     0
 49
0.0
 74
     0
 49
-6.349999999999999
 74
     0
 49
0.0
 74
     0
 49
-6.349999999999999
 74
     0
  0
LTYPE
  5
93
330
5
100
AcDbSymbolTableRecord
100
AcDbLinetypeTableRecord
  2
DIVIDE2
 70
     0
  3
Divide (.5x) __..__..__..__..__..__..__..__.._
 72
    65
 73
     6
 40
15.875
 49
6.349999999999999
 74
     0
 49
-3.174999999999999
 74
     0
 49
0.0
 74
     0
 49
-3.174999999999999
 74
     0
 49
0.0
 74
     0
 49
-3.174999999999999
 74
     0
  0
LTYPE
  5
94
330
5
100
AcDbSymbolTableRecord
100
AcDbLinetypeTableRecord
  2
DIVIDEX2
 70
     0
  3
Divide (2x) ________  .  .  ________  .  .  _
 72
    65
 73
     6
 40
63.49999999999999
 49
25.4
 74
     0
 49
-12.7
 74
     0
 49
0.0
 74
     0
 49
-12.7
 74
     0
 49
0.0
 74
     0
 49
-12.7
 74
     0
  0
LTYPE
  5
95
330
5
100
AcDbSymbolTableRecord
100
AcDbLinetypeTableRecord
  2
DOT
 70
     0
  3
Dot . . . . . . . . . . . . . . . . . . . . . .
 72
    65
 73
     2
 40
6.349999999999999
 49
0.0
 74
     0
 49
-6.349999999999999
 74
     0
  0
LTYPE
  5
96
330
5
100
AcDbSymbolTableRecord
100
AcDbLinetypeTableRecord
  2
DOT2
 70
     0
  3
Dot (.5x) .....................................
 72
    65
 73
     2
 40
3.174999999999999
 49
0.0
 74
     0
 49
-3.174999999999999
 74
     0
  0
LTYPE
  5
97
330
5
100
AcDbSymbolTableRecord
100
AcDbLinetypeTableRecord
  2
DOTX2
 70
     0
  3
Dot (2x) .  .  .  .  .  .  .  .  .  .  .  .  . 
 72
    65
 73
     2
 40
12.7
 49
0.0
 74
     0
 49
-12.7
 74
     0
  0
LTYPE
  5
98
330
5
100
AcDbSymbolTableRecord
100
AcDbLinetypeTableRecord
  2
HIDDEN
 70
     0
  3
Hidden __ __ __ __ __ __ __ __ __ __ __ __ __ _
 72
    65
 73
     2
 40
9.524999999999998
 49
6.349999999999999
 74
     0
 49
-3.174999999999999
 74
     0
  0
LTYPE
  5
99
330
5
100
AcDbSymbolTableRecord
100
AcDbLinetypeTableRecord
  2
HIDDEN2
 70
     0
  3
Hidden (.5x) _ _ _ _ _ _ _ _ _ _ _ _ _ _ _ _ _
 72
    65
 73
     2
 40
4.762499999999999
 49
3.174999999999999
 74
     0
 49
-1.587499999999999
 74
     0
  0
LTYPE
  5
9A
330
5
100
AcDbSymbolTableRecord
100
AcDbLinetypeTableRecord
  2
HIDDENX2
 70
     0
  3
Hidden (2x) ____ ____ ____ ____ ____ ____ ____
 72
    65
 73
     2
 40
19.05
 49
12.7
 74
     0
 49
-6.349999999999999
 74
     0
  0
LTYPE
  5
9B
330
5
100
AcDbSymbolTableRecord
100
AcDbLinetypeTableRecord
  2
PHANTOM
 70
     0
  3
Phantom ______  __  __  ______  __  __  ______
 72
    65
 73
     6
 40
63.5
 49
31.75
 74
     0
 49
-6.349999999999999
 74
     0
 49
6.349999999999999
 74
     0
 49
-6.349999999999999
 74
     0
 49
6.349999999999999
 74
     0
 49
-6.349999999999999
 74
     0
  0
LTYPE
  5
9D
330
5
100
AcDbSymbolTableRecord
100
AcDbLinetypeTableRecord
  2
PHANTOMX2
 70
     0
  3
Phantom (2x) ____________    ____    ____   _
 72
    65
 73
     6
 40
127.0
 49
63.5
 74
     0
 49
-12.7
 74
     0
 49
12.7
 74
     0
 49
-12.7
 74
     0
 49
12.7
 74
     0
 49
-12.7
 74
     0
  0
LTYPE
  5
9E
330
5
100
AcDbSymbolTableRecord
100
AcDbLinetypeTableRecord
  2
ACAD_ISO02W100
 70
     0
  3
ISO dash __ __ __ __ __ __ __ __ __ __ __ __ __
 72
    65
 73
     2
 40
15.0
 49
12.0
 74
     0
 49
-3.0
 74
     0
  0
LTYPE
  5
9F
330
5
100
AcDbSymbolTableRecord
100
AcDbLinetypeTableRecord
  2
ACAD_ISO03W100
 70
     0
  3
ISO dash space __    __    __    __    __    __
 72
    65
 73
     2
 40
30.0
 49
12.0
 74
     0
 49
-18.0
 74
     0
  0
LTYPE
  5
A0
330
5
100
AcDbSymbolTableRecord
100
AcDbLinetypeTableRecord
  2
ACAD_ISO04W100
 70
     0
  3
ISO long-dash dot ____ . ____ . ____ . ____ . _
 72
    65
 73
     4
 40
30.0
 49
24.0
 74
     0
 49
-3.0
 74
     0
 49
0.0
 74
     0
 49
-3.0
 74
     0
  0
LTYPE
  5
A1
330
5
100
AcDbSymbolTableRecord
100
AcDbLinetypeTableRecord
  2
ACAD_ISO05W100
 70
     0
  3
ISO long-dash double-dot ____ .. ____ .. ____ .
 72
    65
 73
     6
 40
33.0
 49
24.0
 74
     0
 49
-3.0
 74
     0
 49
0.0
 74
     0
 49
-3.0
 74
     0
 49
0.0
 74
     0
 49
-3.0
 74
     0
  0
LTYPE
  5
A2
330
5
100
AcDbSymbolTableRecord
100
AcDbLinetypeTableRecord
  2
ACAD_ISO06W100
 70
     0
  3
ISO long-dash triple-dot ____ ... ____ ... ____
 72
    65
 73
     8
 40
36.0
 49
24.0
 74
     0
 49
-3.0
 74
     0
 49
0.0
 74
     0
 49
-3.0
 74
     0
 49
0.0
 74
     0
 49
-3.0
 74
     0
 49
0.0
 74
     0
 49
-3.0
 74
     0
  0
LTYPE
  5
A3
330
5
100
AcDbSymbolTableRecord
100
AcDbLinetypeTableRecord
  2
ACAD_ISO07W100
 70
     0
  3
ISO dot . . . . . . . . . . . . . . . . . . . .
 72
    65
 73
     2
 40
3.0
 49
0.0
 74
     0
 49
-3.0
 74
     0
  0
LTYPE
  5
A4
330
5
100
AcDbSymbolTableRecord
100
AcDbLinetypeTableRecord
  2
ACAD_ISO08W100
 70
     0
  3
ISO long-dash short-dash ____ __ ____ __ ____ _
 72
    65
 73
     4
 40
36.0
 49
24.0
 74
     0
 49
-3.0
 74
     0
 49
6.0
 74
     0
 49
-3.0
 74
     0
  0
LTYPE
  5
A5
330
5
100
AcDbSymbolTableRecord
100
AcDbLinetypeTableRecord
  2
ACAD_ISO09W100
 70
     0
  3
ISO long-dash double-short-dash ____ __ __ ____
 72
    65
 73
     6
 40
45.0
 49
24.0
 74
     0
 49
-3.0
 74
     0
 49
6.0
 74
     0
 49
-3.0
 74
     0
 49
6.0
 74
     0
 49
-3.0
 74
     0
  0
LTYPE
  5
A6
330
5
100
AcDbSymbolTableRecord
100
AcDbLinetypeTableRecord
  2
ACAD_ISO10W100
 70
     0
  3
ISO dash dot __ . __ . __ . __ . __ . __ . __ .
 72
    65
 73
     4
 40
18.0
 49
12.0
 74
     0
 49
-3.0
 74
     0
 49
0.0
 74
     0
 49
-3.0
 74
     0
  0
LTYPE
  5
A7
330
5
100
AcDbSymbolTableRecord
100
AcDbLinetypeTableRecord
  2
ACAD_ISO11W100
 70
     0
  3
ISO double-dash dot __ __ . __ __ . __ __ . __ 
 72
    65
 73
     6
 40
33.0
 49
12.0
 74
     0
 49
-3.0
 74
     0
 49
12.0
 74
     0
 49
-3.0
 74
     0
 49
0.0
 74
     0
 49
-3.0
 74
     0
  0
LTYPE
  5
A8
330
5
100
AcDbSymbolTableRecord
100
AcDbLinetypeTableRecord
  2
ACAD_ISO12W100
 70
     0
  3
ISO dash double-dot __ . . __ . . __ . . __ . .
 72
    65
 73
     6
 40
21.0
 49
12.0
 74
     0
 49
-3.0
 74
     0
 49
0.0
 74
     0
 49
-3.0
 74
     0
 49
0.0
 74
     0
 49
-3.0
 74
     0
  0
LTYPE
  5
A9
330
5
100
AcDbSymbolTableRecord
100
AcDbLinetypeTableRecord
  2
ACAD_ISO13W100
 70
     0
  3
ISO double-dash double-dot __ __ . . __ __ . . 
 72
    65
 73
     8
 40
36.0
 49
12.0
 74
     0
 49
-3.0
 74
     0
 49
12.0
 74
     0
 49
-3.0
 74
     0
 49
0.0
 74
     0
 49
-3.0
 74
     0
 49
0.0
 74
     0
 49
-3.0
 74
     0
  0
LTYPE
  5
AA
330
5
100
AcDbSymbolTableRecord
100
AcDbLinetypeTableRecord
  2
ACAD_ISO14W100
 70
     0
  3
ISO dash triple-dot __ . . . __ . . . __ . . . 
 72
    65
 73
     8
 40
24.0
 49
12.0
 74
     0
 49
-3.0
 74
     0
 49
0.0
 74
     0
 49
-3.0
 74
     0
 49
0.0
 74
     0
 49
-3.0
 74
     0
 49
0.0
 74
     0
 49
-3.0
 74
     0
  0
LTYPE
  5
AB
330
5
100
AcDbSymbolTableRecord
100
AcDbLinetypeTableRecord
  2
ACAD_ISO15W100
 70
     0
  3
ISO double-dash triple-dot __ __ . . . __ __ . 
 72
    65
 73
    10
 40
39.0
 49
12.0
 74
     0
 49
-3.0
 74
     0
 49
12.0
 74
     0
 49
-3.0
 74
     0
 49
0.0
 74
     0
 49
-3.0
 74
     0
 49
0.0
 74
     0
 49
-3.0
 74
     0
 49
0.0
 74
     0
 49
-3.0
 74
     0
  0
LTYPE
  5
AE
330
5
100
AcDbSymbolTableRecord
100
AcDbLinetypeTableRecord
  2
FENCELINE1
 70
     0
  3
Fenceline circle ----0-----0----0-----0----0---
 72
    65
 73
     4
 40
36.83
 49
6.349999999999999
 74
     0
 49
-2.54
 74
     4
 75
   133
340
AD
 46
2.54
 50
0.0
 44
-2.54
 45
0.0
 49
-2.54
 74
     0
 49
25.4
 74
     0
  0
LTYPE
  5
AF
330
5
100
AcDbSymbolTableRecord
100
AcDbLinetypeTableRecord
  2
FENCELINE2
 70
     0
  3
Fenceline square ----[]-----[]----[]-----[]----
 72
    65
 73
     4
 40
36.83
 49
6.349999999999999
 74
     0
 49
-2.54
 74
     4
 75
   132
340
AD
 46
2.54
 50
0.0
 44
-2.54
 45
0.0
 49
-2.54
 74
     0
 49
25.4
 74
     0
  0
LTYPE
  5
B0
330
5
100
AcDbSymbolTableRecord
100
AcDbLinetypeTableRecord
  2
TRACKS
 70
     0
  3
Tracks -|-|-|-|-|-|-|-|-|-|-|-|-|-|-|-|-|-|-|-|
 72
    65
 73
     2
 40
7.62
 49
3.81
 74
     4
 75
   130
340
AD
 46
6.349999999999999
 50
0.0
 44
0.0
 45
0.0
 49
3.81
 74
     0
  0
LTYPE
  5
B1
330
5
100
AcDbSymbolTableRecord
100
AcDbLinetypeTableRecord
  2
BATTING
 70
     0
  3
Batting SSSSSSSSSSSSSSSSSSSSSSSSSSSSSSSSSSSSSSS
 72
    65
 73
     4
 40
10.16254
 49
0.00254
 74
     0
 49
-2.54
 74
     4
 75
   134
340
AD
 46
2.54
 50
0.0
 44
-2.54
 45
0.0
 49
-5.08
 74
     4
 75
   134
340
AD
 46
2.54
 50
180.0
 44
2.54
 45
0.0
 49
-2.54
 74
     0
  0
LTYPE
  5
B2
330
5
100
AcDbSymbolTableRecord
100
AcDbLinetypeTableRecord
  2
HOT_WATER_SUPPLY
 70
     0
  3
Hot water supply ---- HW ---- HW ---- HW ----
 72
    65
 73
     3
 40
22.86
 49
12.7
 74
     0
 49
-5.08
 74
     2
 75
     0
340
55
 46
2.54
 50
0.0
 44
-2.54
 45
-1.27
  9
HW
 49
-5.08
 74
     0
  0
LTYPE
  5
B3
330
5
100
AcDbSymbolTableRecord
100
AcDbLinetypeTableRecord
  2
GAS_LINE
 70
     0
  3
Gas line ----GAS----GAS----GAS----GAS----GAS---
 72
    65
 73
     3
 40
24.13
 49
12.7
 74
     0
 49
-5.08
 74
     2
 75
     0
340
55
 46
2.54
 50
0.0
 44
-2.54
 45
-1.27
  9
GAS
 49
-6.349999999999999
 74
     0
  0
LTYPE
  5
B4
330
5
100
AcDbSymbolTableRecord
100
AcDbLinetypeTableRecord
  2
ZIGZAG
 70
     0
  3
Zig zag /\/\/\/\/\/\/\/\/\/\/\/\/\/\/\/\/\/\/\/
 72
    65
 73
     4
 40
20.32254
 49
0.00254
 74
     0
 49
-5.08
 74
     4
 75
   131
340
AD
 46
5.08
 50
0.0
 44
-5.08
 45
0.0
 49
-10.16
 74
     4
 75
   131
340
AD
 46
5.08
 50
180.0
 44
5.08
 45
0.0
 49
-5.08
 74
     0
  0
ENDTAB
  0
TABLE
  2
LAYER
  5
2
330
0
100
AcDbSymbolTable
 70
    62
  0
LAYER
  5
54
330
2
100
AcDbSymbolTableRecord
100
AcDbLayerTableRecord
  2
0
 70
     0
 62
     7
  6
Continuous
370
    25
390
F
347
21
  0
LAYER
  5
B7
330
2
100
AcDbSymbolTableRecord
100
AcDbLayerTableRecord
  2
65920-0
 70
     0
 62
     7
  6
Continuous
370
    25
390
F
347
21
  0
LAYER
  5
BE
330
2
100
AcDbSymbolTableRecord
100
AcDbLayerTableRecord
  2
Bemaßung (ISO)
 70
     0
 62
     7
  6
Continuous
370
    25
390
F
347
21
  0
LAYER
  5
BF
330
2
100
AcDbSymbolTableRecord
100
AcDbLayerTableRecord
  2
Bemaßungen(DIN)
 70
     0
 62
   156
420
    16256
  6
Continuous
370
    25
390
F
347
21
  0
LAYER
  5
C3
330
2
100
AcDbSymbolTableRecord
100
AcDbLayerTableRecord
  2
Blechbiegung - Mittellinien(DIN)
 70
     0
 62
     7
  6
CHAIN
370
    25
390
F
347
21
  0
LAYER
  5
CE
330
2
100
AcDbSymbolTableRecord
100
AcDbLayerTableRecord
  2
Mittellinie(DIN)
 70
     0
 62
     5
420
      255
  6
CHAIN
370
    25
390
F
347
21
  0
LAYER
  5
D0
330
2
100
AcDbSymbolTableRecord
100
AcDbLayerTableRecord
  2
Mittelpunktmarkierung(DIN)
 70
     0
 62
     5
420
      255
  6
LONG_DASH_DOTTED
370
    25
390
F
347
21
  0
LAYER
  5
DB
330
2
100
AcDbSymbolTableRecord
100
AcDbLayerTableRecord
  2
Schraffur
 70
     0
 62
     1
420
 16711680
  6
Continuous
370
     9
390
F
347
21
  0
LAYER
  5
DF
330
2
100
AcDbSymbolTableRecord
100
AcDbLayerTableRecord
  2
Sichtbare Kanten(DIN)
 70
     0
 62
     7
  6
Continuous
370
    50
390
F
347
21
  0
LAYER
  5
E1
330
2
100
AcDbSymbolTableRecord
100
AcDbLayerTableRecord
  2
Skizziergeometrie (ISO)
 70
     0
 62
     7
  6
Continuous
370
    25
390
F
347
21
  0
LAYER
  5
E2
330
2
100
AcDbSymbolTableRecord
100
AcDbLayerTableRecord
  2
Skizziergeometrie(DIN)
 70
     0
 62
     7
  6
Continuous
370
    50
390
F
347
21
  0
LAYER
  5
E6
330
2
100
AcDbSymbolTableRecord
100
AcDbLayerTableRecord
  2
Symbol (ISO)
 70
     0
 62
     7
  6
Continuous
370
    25
390
F
347
21
  0
LAYER
  5
E7
330
2
100
AcDbSymbolTableRecord
100
AcDbLayerTableRecord
  2
Symbole(DIN)
 70
     0
 62
     7
  6
Continuous
370
    25
390
F
347
21
  0
LAYER
  5
210
330
2
100
AcDbSymbolTableRecord
100
AcDbLayerTableRecord
  2
Defpoints
 70
     0
 62
     7
  6
Continuous
290
     0
370
    -3
390
F
347
21
  0
ENDTAB
  0
TABLE
  2
STYLE
  5
3
330
0
100
AcDbSymbolTable
 70
    14
  0
STYLE
  5
55
330
3
100
AcDbSymbolTableRecord
100
AcDbTextStyleTableRecord
  2
Standard
 70
     0
 40
0.0
 41
1.0
 50
0.0
 71
     0
 42
0.2
  3
isocpeur.ttf
  4

1001
ACAD
1000
ISOCPEUR
1071
      256
  0
STYLE
  5
5A
330
3
100
AcDbSymbolTableRecord
100
AcDbTextStyleTableRecord
  2
Annotative
 70
     0
 40
0.0
 41
1.0
 50
0.0
 71
     0
 42
0.2
  3
txt
  4

1001
AcadAnnotative
1000
AnnotativeData
1002
{
1070
     1
1070
     1
1002
}
  0
STYLE
  5
AD
330
3
100
AcDbSymbolTableRecord
100
AcDbTextStyleTableRecord
  2

 70
     1
 40
0.0
 41
1.0
 50
0.0
 71
     0
 42
0.2
  3
ltypeshp.shx
  4

  0
STYLE
  5
F1
330
3
100
AcDbSymbolTableRecord
100
AcDbTextStyleTableRecord
  2
Aktuell-DIN
 70
     0
 40
0.0
 41
1.0
 50
0.0
 71
     0
 42
0.2
  3
isocpeur.ttf
  4

1001
ACAD
1000
ISOCPEUR
1071
      256
  0
STYLE
  5
F2
330
3
100
AcDbSymbolTableRecord
100
AcDbTextStyleTableRecord
  2
Aktuell-DINGroßer Text
 70
     0
 40
0.0
 41
1.0
 50
0.0
 71
     0
 42
0.2
  3
isocpeur.ttf
  4

1001
ACAD
1000
ISOCPEUR
1071
      256
  0
STYLE
  5
F3
330
3
100
AcDbSymbolTableRecord
100
AcDbTextStyleTableRecord
  2
Aktuell-DINNach Layer
 70
     0
 40
0.0
 41
1.0
 50
0.0
 71
     0
 42
0.2
  3
isocpeur.ttf
  4

1001
ACAD
1000
ISOCPEUR
1071
      256
  0
STYLE
  5
F4
330
3
100
AcDbSymbolTableRecord
100
AcDbTextStyleTableRecord
  2
Bezeichnungstext (DIN)
 70
     0
 40
0.0
 41
1.0
 50
0.0
 71
     0
 42
0.2
  3
isocpeur.ttf
  4

1001
ACAD
1000
ISOCPEUR
1071
      256
  0
STYLE
  5
F5
330
3
100
AcDbSymbolTableRecord
100
AcDbTextStyleTableRecord
  2
Notiztext (DIN)
 70
     0
 40
0.0
 41
1.0
 50
0.0
 71
     0
 42
0.2
  3
isocpeur.ttf
  4

1001
ACAD
1000
ISOCPEUR
1071
      256
  0
STYLE
  5
F6
330
3
100
AcDbSymbolTableRecord
100
AcDbTextStyleTableRecord
  2
Rahmen_1
 70
     0
 40
0.0
 41
1.0
 50
0.0
 71
     0
 42
0.2
  3
isocpeur.ttf
  4

1001
ACAD
1000
ISOCPEUR
1071
      256
  0
STYLE
  5
F7
330
3
100
AcDbSymbolTableRecord
100
AcDbTextStyleTableRecord
  2
STANDARD-MERKT
 70
     0
 40
0.0
 41
1.0
 50
0.0
 71
     0
 42
0.2
  3
isocpeur.ttf
  4

1001
ACAD
1000
ISOCPEUR
1071
      256
  0
STYLE
  5
F8
330
3
100
AcDbSymbolTableRecord
100
AcDbTextStyleTableRecord
  2
STANDARD-MERKT (klein)
 70
     0
 40
0.0
 41
1.0
 50
0.0
 71
     0
 42
0.2
  3
isocpeur.ttf
  4

1001
ACAD
1000
ISOCPEUR
1071
      256
  0
STYLE
  5
134
330
3
100
AcDbSymbolTableRecord
100
AcDbTextStyleTableRecord
  2
Textstil44
 70
     0
 40
0.0
 41
1.0
 50
0.0
 71
     0
 42
0.2
  3
arial.ttf
  4

1001
ACAD
1000
Arial
1071
      256
  0
STYLE
  5
174
330
3
100
AcDbSymbolTableRecord
100
AcDbTextStyleTableRecord
  2
Textstil43
 70
     0
 40
0.0
 41
1.0
 50
0.0
 71
     0
 42
0.2
  3
isocpeur.ttf
  4

1001
ACAD
1000
ISOCPEUR
1071
      256
  0
STYLE
  5
17D
330
3
100
AcDbSymbolTableRecord
100
AcDbTextStyleTableRecord
  2
Textstil69
 70
     0
 40
0.0
 41
1.0
 50
0.0
 71
     0
 42
0.2
  3
isocpeur.ttf
  4

1001
ACAD
1000
ISOCPEUR
1071
      256
  0
ENDTAB
  0
TABLE
  2
VIEW
  5
6
330
0
100
AcDbSymbolTable
 70
     0
  0
ENDTAB
  0
TABLE
  2
UCS
  5
7
330
0
100
AcDbSymbolTable
 70
     0
  0
ENDTAB
  0
TABLE
  2
APPID
  5
9
330
0
100
AcDbSymbolTable
 70
     4
  0
APPID
  5
56
330
9
100
AcDbSymbolTableRecord
100
AcDbRegAppTableRecord
  2
ACAD
 70
     0
  0
APPID
  5
5E
330
9
100
AcDbSymbolTableRecord
100
AcDbRegAppTableRecord
  2
AcadAnnotative
 70
     0
  0
APPID
  5
138
330
9
100
AcDbSymbolTableRecord
100
AcDbRegAppTableRecord
  2
AcadAnnoPO
 70
     0
  0
APPID
  5
707
330
9
100
AcDbSymbolTableRecord
100
AcDbRegAppTableRecord
  2
ACAD_DSTYLE_DIMRADIAL_EXTENSION
 70
     0
  0
ENDTAB
  0
TABLE
  2
DIMSTYLE
  5
A
330
0
100
AcDbSymbolTable
 70
    24
100
AcDbDimStyleTable
 71
     2
340
10E
340
58
  0
DIMSTYLE
105
58
330
A
100
AcDbSymbolTableRecord
100
AcDbDimStyleTableRecord
  2
Standard
 70
     0
340
55
  0
DIMSTYLE
105
59
330
A
100
AcDbSymbolTableRecord
100
AcDbDimStyleTableRecord
  2
Annotative
 70
     0
340
55
1001
AcadAnnotative
1000
AnnotativeData
1002
{
1070
     1
1070
     1
1002
}
  0
DIMSTYLE
105
108
330
A
100
AcDbSymbolTableRecord
100
AcDbDimStyleTableRecord
  2
Sonstiges Objekt (DIN)
 70
     0
 41
5.0
 42
0.0
 43
5.999999999999999
 44
3.174999999999999
 45
0.00000001
 46
10.0
 77
     1
 78
     8
 79
     2
140
5.25
143
0.03937
146
0.6666666865348816
147
0.8
171
     3
172
     1
176
   256
177
   256
178
   256
271
     2
272
     1
274
     3
278
    44
284
     8
286
     8
340
F4
341
F9
371
    -1
372
    -1
  0
DIMSTYLE
105
109
330
A
100
AcDbSymbolTableRecord
100
AcDbDimStyleTableRecord
  2
Sonstiges Objekt (DIN)$7
 70
     0
 41
5.0
 42
0.0
 43
5.999999999999999
 44
3.174999999999999
 45
0.00000001
 46
10.0
 77
     1
 78
     8
 79
     2
140
5.25
143
0.03937
146
0.6666666865348816
147
0.8
171
     3
172
     1
176
   256
177
   256
178
   256
271
     2
272
     1
274
     3
278
    44
284
     8
286
     8
340
F4
341
F9
371
    25
372
    -1
  0
DIMSTYLE
105
10A
330
A
100
AcDbSymbolTableRecord
100
AcDbDimStyleTableRecord
  2
STANDARD-DIN
 70
     0
 41
2.5
 42
0.0
 43
5.999999999999999
 44
3.174999999999999
 45
0.00000001
 46
10.0
 73
     0
 74
     0
 77
     1
140
3.5
143
0.03937
147
0.8
171
     3
172
     1
176
   250
177
   250
178
   256
271
     2
272
     1
274
     3
278
    44
340
F7
371
    25
372
    25
  0
DIMSTYLE
105
10B
330
A
100
AcDbSymbolTableRecord
100
AcDbDimStyleTableRecord
  2
STANDARD-DIN$7
 70
     0
 41
2.5
 42
0.0
 43
5.999999999999999
 44
3.174999999999999
 45
0.00000001
 46
10.0
 73
     0
 74
     0
 77
     1
140
3.5
143
0.03937
147
0.8
171
     3
172
     1
176
   179
177
   250
178
   256
271
     2
272
     1
274
     3
278
    44
340
F7
371
    25
372
    25
  0
DIMSTYLE
105
10C
330
A
100
AcDbSymbolTableRecord
100
AcDbDimStyleTableRecord
  2
STANDARD-DINGroßer Text
 70
     0
 41
5.0
 42
0.0
 43
5.999999999999999
 44
3.174999999999999
 45
0.00000001
 46
10.0
 73
     0
 74
     0
 77
     1
140
5.25
143
0.03937
146
0.6666666865348816
147
0.8
171
     3
172
     1
176
   250
177
   250
178
     7
271
     2
272
     1
274
     3
278
    44
340
F2
371
    25
372
    25
  0
DIMSTYLE
105
10D
330
A
100
AcDbSymbolTableRecord
100
AcDbDimStyleTableRecord
  2
STANDARD-DINGroßer Text$7
 70
     0
 41
5.0
 42
0.0
 43
5.999999999999999
 44
3.174999999999999
 45
0.00000001
 46
10.0
 73
     0
 74
     0
 77
     1
140
5.25
143
0.03937
146
0.6666666865348816
147
0.8
171
     3
172
     1
176
   179
177
   250
178
     7
271
     2
272
     1
274
     3
278
    44
340
F2
371
    25
372
    25
  0
DIMSTYLE
105
10E
102
{ACAD_REACTORS
330
20F
330
2F5
330
3CC
330
4AA
330
58C
330
66E
330
718
102
}
330
A
100
AcDbSymbolTableRecord
100
AcDbDimStyleTableRecord
  2
STANDARD-MERKT
 70
     0
 41
2.5
 42
0.0
 43
5.999999999999999
 44
3.174999999999999
 45
0.00000001
 46
10.0
 73
     0
 74
     0
 77
     1
 78
     8
 79
     2
140
3.5
143
0.03937
146
0.7142857313156128
147
0.8
171
     3
172
     1
176
   256
177
   256
178
   256
271
     2
272
     1
274
     3
278
    44
340
F7
371
    25
372
    25
  0
DIMSTYLE
105
10F
330
A
100
AcDbSymbolTableRecord
100
AcDbDimStyleTableRecord
  2
STANDARD-MERKT$7
 70
     0
 41
2.5
 42
0.0
 43
5.999999999999999
 44
3.174999999999999
 45
0.00000001
 46
10.0
 73
     0
 74
     0
 77
     1
 78
     8
 79
     2
140
3.5
143
0.03937
146
0.7142857313156128
147
0.8
171
     3
172
     1
176
   179
177
   256
178
   256
271
     2
272
     1
274
     3
278
    44
340
F7
371
    25
372
    25
  0
DIMSTYLE
105
110
330
A
100
AcDbSymbolTableRecord
100
AcDbDimStyleTableRecord
  2
STANDARD-MERKT (klein)
 70
     0
 41
1.799999952316284
 42
0.0
 43
5.999999999999999
 44
1.499999999999999
 45
0.00000001
 46
10.0
 73
     0
 74
     0
 77
     1
 78
     8
 79
     2
140
2.0
143
0.03937
147
0.4
171
     3
172
     1
176
   256
177
   256
178
   256
179
     2
271
     2
272
     2
274
     3
278
    44
340
F8
371
    25
372
    25
  0
DIMSTYLE
105
111
330
A
100
AcDbSymbolTableRecord
100
AcDbDimStyleTableRecord
  2
STANDARD-MERKT (klein)$7
 70
     0
 41
2.5
 42
0.0
 43
5.999999999999999
 44
1.499999999999999
 45
0.00000001
 46
10.0
 73
     0
 74
     0
 77
     1
 78
     8
 79
     2
140
2.0
143
0.03937
147
0.4
171
     3
172
     1
176
   179
177
   256
178
   256
179
     2
271
     2
272
     2
274
     3
278
    44
340
F8
371
    25
372
    25
  0
DIMSTYLE
105
112
330
A
100
AcDbSymbolTableRecord
100
AcDbDimStyleTableRecord
  2
Standard - Methode 2a (DIN)
 70
     0
 41
2.5
 42
0.8
 43
5.999999999999999
 44
3.174999999999999
 45
0.00000001
 46
10.0
 77
     1
 78
     8
 79
     2
140
3.5
143
0.03937
147
0.8
170
     1
171
     3
172
     1
176
   256
177
   256
178
   256
179
     2
271
     2
272
     1
274
     3
278
    44
284
     8
286
     8
340
F5
371
    -1
372
    -1
  0
DIMSTYLE
105
113
330
A
100
AcDbSymbolTableRecord
100
AcDbDimStyleTableRecord
  2
Standard - Methode 2a (DIN)$7
 70
     0
 41
2.5
 42
0.8
 43
5.999999999999999
 44
3.174999999999999
 45
0.00000001
 46
10.0
 77
     1
 78
     8
 79
     2
140
3.5
143
0.03937
147
0.8
170
     1
171
     3
172
     1
176
   256
177
   256
178
   256
179
     2
271
     2
272
     1
274
     3
278
    44
284
     8
286
     8
340
F5
371
    -1
372
    -1
  0
DIMSTYLE
105
114
330
A
100
AcDbSymbolTableRecord
100
AcDbDimStyleTableRecord
  2
Standard - Methode 2b (DIN)
 70
     0
 41
2.5
 42
0.0
 43
5.999999999999999
 44
3.174999999999999
 45
0.00000001
 46
10.0
 77
     1
 78
     8
 79
     2
140
3.5
143
0.03937
147
0.8
171
     3
172
     1
176
   256
177
   256
178
   256
271
     2
272
     1
274
     3
278
    44
284
     8
286
     8
340
F5
371
    -1
372
    -1
  0
DIMSTYLE
105
115
330
A
100
AcDbSymbolTableRecord
100
AcDbDimStyleTableRecord
  2
Standard - Methode 2b (DIN)$7
 70
     0
 41
2.5
 42
0.0
 43
5.999999999999999
 44
3.174999999999999
 45
0.00000001
 46
10.0
 77
     1
 78
     8
 79
     2
140
3.5
143
0.03937
147
0.8
171
     3
172
     1
176
   256
177
   256
178
   256
271
     2
272
     1
274
     3
278
    44
284
     8
286
     8
340
F5
371
    -1
372
    -1
  0
DIMSTYLE
105
116
330
A
100
AcDbSymbolTableRecord
100
AcDbDimStyleTableRecord
  2
Standard (DIN)
 70
     0
 41
2.5
 42
0.8
 43
5.999999999999999
 44
3.174999999999999
 45
0.00000001
 46
10.0
 73
     0
 74
     0
 77
     1
140
3.5
143
0.03937
147
0.8
171
     3
172
     1
176
   256
177
   256
178
   256
271
     2
272
     1
274
     3
278
    44
340
F5
371
    -1
372
    -1
  0
DIMSTYLE
105
117
330
A
100
AcDbSymbolTableRecord
100
AcDbDimStyleTableRecord
  2
Standard (DIN)$7
 70
     0
 41
2.5
 42
0.8
 43
5.999999999999999
 44
3.174999999999999
 45
0.00000001
 46
10.0
 73
     0
 74
     0
 77
     1
140
3.5
143
0.03937
147
0.8
171
     3
172
     1
176
   256
177
   256
178
   256
271
     2
272
     1
274
     3
278
    44
340
F5
371
    -1
372
    -1
  0
DIMSTYLE
105
118
330
A
100
AcDbSymbolTableRecord
100
AcDbDimStyleTableRecord
  2
Alternativ (ISO)
 70
     0
 41
2.5
340
55
  0
DIMSTYLE
105
123
330
A
100
AcDbSymbolTableRecord
100
AcDbDimStyleTableRecord
  2
Bezug (ISO)
 70
     0
 41
2.5
340
55
  0
DIMSTYLE
105
124
330
A
100
AcDbSymbolTableRecord
100
AcDbDimStyleTableRecord
  2
Führungslinie-Ursprungsindikator(DIN)
 70
     0
 41
2.5
340
55
  0
DIMSTYLE
105
125
330
A
100
AcDbSymbolTableRecord
100
AcDbDimStyleTableRecord
  2
Führungslinie - Bezugsstelle(DIN)
 70
     0
 41
2.5
340
55
  0
DIMSTYLE
105
126
330
A
100
AcDbSymbolTableRecord
100
AcDbDimStyleTableRecord
  2
Führungslinie - Punkt(DIN)
 70
     0
 41
2.5
340
55
  0
DIMSTYLE
105
127
330
A
100
AcDbSymbolTableRecord
100
AcDbDimStyleTableRecord
  2
Führungslinie(DIN)
 70
     0
 41
2.5
340
55
  0
ENDTAB
  0
TABLE
  2
BLOCK_RECORD
  5
1
330
0
100
AcDbSymbolTable
 70
    22
  0
BLOCK_RECORD
  5
71
330
1
100
AcDbSymbolTableRecord
100
AcDbBlockTableRecord
  2
*Model_Space
340
74
 70
     0
280
     1
281
     0
  0
BLOCK_RECORD
  5
6D
330
1
100
AcDbSymbolTableRecord
100
AcDbBlockTableRecord
  2
*Paper_Space
340
70
 70
     0
280
     1
281
     0
  0
BLOCK_RECORD
  5
75
330
1
100
AcDbSymbolTableRecord
100
AcDbBlockTableRecord
  2
*Paper_Space0
340
78
 70
     0
280
     1
281
     0
  0
BLOCK_RECORD
  5
F9
330
1
100
AcDbSymbolTableRecord
100
AcDbBlockTableRecord
  2
Filled-1
340
0
 70
     0
280
     1
281
     0
  0
BLOCK_RECORD
  5
119
330
1
100
AcDbSymbolTableRecord
100
AcDbBlockTableRecord
  2
DatumFilled45
340
0
 70
     0
280
     1
281
     0
  0
BLOCK_RECORD
  5
128
330
1
100
AcDbSymbolTableRecord
100
AcDbBlockTableRecord
  2
Erstserie
340
0
 70
     0
280
     1
281
     0
  0
BLOCK_RECORD
  5
131
330
1
100
AcDbSymbolTableRecord
100
AcDbBlockTableRecord
  2
Etikette
340
0
 70
     0
280
     1
281
     0
  0
BLOCK_RECORD
  5
13B
330
1
100
AcDbSymbolTableRecord
100
AcDbBlockTableRecord
  2
Fehlende Maße
340
0
 70
     0
280
     1
281
     0
  0
BLOCK_RECORD
  5
13F
330
1
100
AcDbSymbolTableRecord
100
AcDbBlockTableRecord
  2
Funktionsmaße
340
0
 70
     0
280
     1
281
     0
  0
BLOCK_RECORD
  5
14A
330
1
100
AcDbSymbolTableRecord
100
AcDbBlockTableRecord
  2
Gew.gängigkeit
340
0
 70
     0
280
     1
281
     0
  0
BLOCK_RECORD
  5
14E
330
1
100
AcDbSymbolTableRecord
100
AcDbBlockTableRecord
  2
Grat_ Späne_ Öl
340
0
 70
     0
280
     1
281
     0
  0
BLOCK_RECORD
  5
152
330
1
100
AcDbSymbolTableRecord
100
AcDbBlockTableRecord
  2
gratfrei
340
0
 70
     0
280
     1
281
     0
  0
BLOCK_RECORD
  5
164
330
1
100
AcDbSymbolTableRecord
100
AcDbBlockTableRecord
  2
Hilfsmaße
340
0
 70
     0
280
     1
281
     0
  0
BLOCK_RECORD
  5
168
330
1
100
AcDbSymbolTableRecord
100
AcDbBlockTableRecord
  2
Sichtfläche
340
0
 70
     0
280
     1
281
     0
  0
BLOCK_RECORD
  5
16D
330
1
100
AcDbSymbolTableRecord
100
AcDbBlockTableRecord
  2
unbemaßte Radien
340
0
 70
     0
280
     1
281
     0
  0
BLOCK_RECORD
  5
171
330
1
100
AcDbSymbolTableRecord
100
AcDbBlockTableRecord
  2
Änderungs-Index
340
0
 70
     0
280
     1
281
     0
  0
BLOCK_RECORD
  5
179
330
1
100
AcDbSymbolTableRecord
100
AcDbBlockTableRecord
  2
Änderungs-Index-Symbol
340
0
 70
     0
280
     1
281
     0
  0
BLOCK_RECORD
  5
211
330
1
100
AcDbSymbolTableRecord
100
AcDbBlockTableRecord
  2
*D15
340
0
 70
     0
280
     1
281
     0
  0
BLOCK_RECORD
  5
2F6
330
1
100
AcDbSymbolTableRecord
100
AcDbBlockTableRecord
  2
*D16
340
0
 70
     0
280
     1
281
     0
  0
BLOCK_RECORD
  5
3CD
330
1
100
AcDbSymbolTableRecord
100
AcDbBlockTableRecord
  2
*D17
340
0
 70
     0
280
     1
281
     0
  0
BLOCK_RECORD
  5
4AB
330
1
100
AcDbSymbolTableRecord
100
AcDbBlockTableRecord
  2
*D18
340
0
 70
     0
280
     1
281
     0
  0
BLOCK_RECORD
  5
58D
330
1
100
AcDbSymbolTableRecord
100
AcDbBlockTableRecord
  2
*D19
340
0
 70
     0
280
     1
281
     0
  0
BLOCK_RECORD
  5
66F
330
1
100
AcDbSymbolTableRecord
100
AcDbBlockTableRecord
  2
*D20
340
0
 70
     0
280
     1
281
     0
  0
BLOCK_RECORD
  5
719
330
1
100
AcDbSymbolTableRecord
100
AcDbBlockTableRecord
  2
*D21
340
0
 70
     0
280
     1
281
     0
  0
ENDTAB
  0
ENDSEC
  0
SECTION
  2
BLOCKS
  0
BLOCK
  5
72
330
71
100
AcDbEntity
  8
0
100
AcDbBlockBegin
  2
*Model_Space
 70
     0
 10
0.0
 20
0.0
 30
0.0
  3
*Model_Space
  1

  0
ENDBLK
  5
73
330
71
100
AcDbEntity
  8
0
100
AcDbBlockEnd
  0
BLOCK
  5
6E
330
6D
100
AcDbEntity
 67
     1
  8
0
100
AcDbBlockBegin
  2
*Paper_Space
 70
     0
 10
0.0
 20
0.0
 30
0.0
  3
*Paper_Space
  1

  0
ENDBLK
  5
6F
330
6D
100
AcDbEntity
 67
     1
  8
0
100
AcDbBlockEnd
  0
BLOCK
  5
76
330
75
100
AcDbEntity
 67
     1
  8
0
100
AcDbBlockBegin
  2
*Paper_Space0
 70
     0
 10
0.0
 20
0.0
 30
0.0
  3
*Paper_Space0
  1

  0
ENDBLK
  5
77
330
75
100
AcDbEntity
 67
     1
  8
0
100
AcDbBlockEnd
  0
BLOCK
  5
FA
330
F9
100
AcDbEntity
  8
0
100
AcDbBlockBegin
  2
Filled-1
 70
     0
 10
0.0
 20
0.0
 30
0.0
  3
Filled-1
  1

  0
LINE
  5
FC
330
F9
100
AcDbEntity
  8
0
 62
     0
100
AcDbLine
 10
-1.0
 20
0.0
 30
0.0
 11
0.0
 21
0.0
 31
0.0
  0
POLYLINE
  5
FE
330
F9
100
AcDbEntity
  8
0
 62
     0
100
AcDb2dPolyline
 66
     1
 10
0.0
 20
0.0
 30
0.0
 70
   128
  0
VERTEX
  5
FF
330
FE
100
AcDbEntity
  8
0
 62
     0
100
AcDbVertex
100
AcDb2dVertex
 10
-1.0
 20
-0.1
 30
0.0
  0
VERTEX
  5
100
330
FE
100
AcDbEntity
  8
0
 62
     0
100
AcDbVertex
100
AcDb2dVertex
 10
0.0
 20
0.0
 30
0.0
  0
VERTEX
  5
102
330
FE
100
AcDbEntity
  8
0
 62
     0
100
AcDbVertex
100
AcDb2dVertex
 10
-1.0
 20
0.1
 30
0.0
  0
VERTEX
  5
103
330
FE
100
AcDbEntity
  8
0
 62
     0
100
AcDbVertex
100
AcDb2dVertex
 10
-1.0
 20
-0.1
 30
0.0
  0
SEQEND
  5
101
330
FE
100
AcDbEntity
  8
0
 62
     0
  0
SOLID
  5
104
330
F9
100
AcDbEntity
  8
0
 62
     0
100
AcDbTrace
 10
-1.0
 20
-0.1
 30
0.0
 11
0.0
 21
0.0
 31
0.0
 12
-1.0
 22
0.1
 32
0.0
 13
-1.0
 23
-0.1
 33
0.0
  0
LINE
  5
105
330
F9
100
AcDbEntity
  8
0
 62
     0
100
AcDbLine
 10
-1.0
 20
-0.1
 30
0.0
 11
0.0
 21
0.0
 31
0.0
  0
LINE
  5
106
330
F9
100
AcDbEntity
  8
0
 62
     0
100
AcDbLine
 10
0.0
 20
0.0
 30
0.0
 11
-1.0
 21
0.1
 31
0.0
  0
LINE
  5
107
330
F9
100
AcDbEntity
  8
0
 62
     0
100
AcDbLine
 10
-1.0
 20
0.1
 30
0.0
 11
-1.0
 21
-0.1
 31
0.0
  0
ENDBLK
  5
FB
330
F9
100
AcDbEntity
  8
0
100
AcDbBlockEnd
  0
BLOCK
  5
11A
330
119
100
AcDbEntity
  8
0
100
AcDbBlockBegin
  2
DatumFilled45
 70
     0
 10
0.0
 20
0.0
 30
0.0
  3
DatumFilled45
  1

  0
POLYLINE
  5
11C
330
119
100
AcDbEntity
  8
0
 62
     0
100
AcDb2dPolyline
 66
     1
 10
0.0
 20
0.0
 30
0.0
 70
   128
  0
VERTEX
  5
11D
330
11C
100
AcDbEntity
  8
0
 62
     0
100
AcDbVertex
100
AcDb2dVertex
 10
0.0
 20
1.0
 30
0.0
  0
VERTEX
  5
11E
330
11C
100
AcDbEntity
  8
0
 62
     0
100
AcDbVertex
100
AcDb2dVertex
 10
0.0
 20
-1.0
 30
0.0
  0
VERTEX
  5
120
330
11C
100
AcDbEntity
  8
0
 62
     0
100
AcDbVertex
100
AcDb2dVertex
 10
-1.0
 20
0.0
 30
0.0
  0
VERTEX
  5
121
330
11C
100
AcDbEntity
  8
0
 62
     0
100
AcDbVertex
100
AcDb2dVertex
 10
0.0
 20
1.0
 30
0.0
  0
SEQEND
  5
11F
330
11C
100
AcDbEntity
  8
0
 62
     0
  0
SOLID
  5
122
330
119
100
AcDbEntity
  8
0
 62
     0
100
AcDbTrace
 10
0.0
 20
1.0
 30
0.0
 11
0.0
 21
-1.0
 31
0.0
 12
-1.0
 22
0.0
 32
0.0
 13
0.0
 23
1.0
 33
0.0
  0
ENDBLK
  5
11B
330
119
100
AcDbEntity
  8
0
100
AcDbBlockEnd
  0
BLOCK
  5
129
330
128
100
AcDbEntity
  8
0
100
AcDbBlockBegin
  2
Erstserie
 70
     0
 10
0.0
 20
0.0
 30
0.0
  3
Erstserie
  1

  0
LINE
  5
12B
330
128
100
AcDbEntity
  8
Skizziergeometrie(DIN)
100
AcDbLine
 10
18.49999999999999
 20
-5.999999999999996
 30
0.0
 11
-18.50000000000001
 21
-5.999999999999996
 31
0.0
  0
LINE
  5
12C
330
128
100
AcDbEntity
  8
Skizziergeometrie(DIN)
100
AcDbLine
 10
-18.50000000000001
 20
-5.999999999999996
 30
0.0
 11
-18.50000000000001
 21
5.999999999999996
 31
0.0
  0
LINE
  5
12D
330
128
100
AcDbEntity
  8
Skizziergeometrie(DIN)
100
AcDbLine
 10
-18.50000000000001
 20
5.999999999999996
 30
0.0
 11
18.49999999999999
 21
5.999999999999996
 31
0.0
  0
LINE
  5
12E
330
128
100
AcDbEntity
  8
Skizziergeometrie(DIN)
100
AcDbLine
 10
18.49999999999999
 20
5.999999999999996
 30
0.0
 11
18.49999999999999
 21
-5.999999999999996
 31
0.0
  0
MTEXT
  5
12F
330
128
100
AcDbEntity
  8
Symbole(DIN)
 62
     7
100
AcDbMText
 10
-13.40167565286516
 20
2.641581672197848
 30
0.0
 40
5.0
 41
0.0
 46
0.0
 71
     1
 72
     1
  1
\fISOCPEUR|b0|i0;\H5.0000;Erstserie
  7
Aktuell-DIN
 73
     1
 44
1.0
  0
ENDBLK
  5
12A
330
128
100
AcDbEntity
  8
0
100
AcDbBlockEnd
  0
BLOCK
  5
132
330
131
100
AcDbEntity
  8
0
100
AcDbBlockBegin
  2
Etikette
 70
     2
 10
0.0
 20
0.0
 30
0.0
  3
Etikette
  1

  0
ATTDEF
  5
135
102
{ACAD_XDICTIONARY
360
7CB
102
}
330
131
100
AcDbEntity
  8
Symbole(DIN)
 62
     7
100
AcDbText
 10
-36.7914250549367
 20
-5.778240338919076
 30
0.0
 40
5.0
  1

  7
Textstil44
 11
-36.7914250549367
 21
-3.278240338919076
 31
0.0
100
AcDbAttributeDefinition
280
     0
  3
Index
  2
Index
 70
     0
 74
     2
280
     0
  0
MTEXT
  5
139
330
131
100
AcDbEntity
  8
Symbole(DIN)
 62
     7
100
AcDbMText
 10
-36.79306387901306
 20
6.777439102530475
 30
0.0
 40
5.0
 41
29.11585330963135
 46
0.0
 71
     1
 72
     1
  1
\fArial|b0|i0;\H5.0000;Etiketten:
  7
Aktuell-DIN
 73
     1
 44
1.0
  0
MTEXT
  5
13A
330
131
100
AcDbEntity
  8
Symbole(DIN)
 62
     7
100
AcDbMText
 10
0.7069361209869385
 20
-0.2225611954927409
 30
0.0
 40
5.0
 41
46.48561400820053
 46
0.0
 71
     1
 72
     1
  1
\fArial|b0|i0;\H5.0000;(Häfele Nr.)
  7
Aktuell-DIN
 73
     1
 44
1.0
  0
ENDBLK
  5
133
330
131
100
AcDbEntity
  8
0
100
AcDbBlockEnd
  0
BLOCK
  5
13C
330
13B
100
AcDbEntity
  8
0
100
AcDbBlockBegin
  2
Fehlende Maße
 70
     0
 10
0.0
 20
0.0
 30
0.0
  3
Fehlende Maße
  1

  0
MTEXT
  5
13E
330
13B
100
AcDbEntity
  8
Symbole(DIN)
 62
     7
100
AcDbMText
 10
-64.36850547790526
 20
2.274350598454475
 30
0.0
 40
3.499999940395355
 41
135.5385545425078
 46
0.0
 71
     1
 72
     1
  1
Fehlende Maße und Angabe nach Erfahrung des Herstellers
  7
Aktuell-DIN
 73
     1
 44
1.0
  0
ENDBLK
  5
13D
330
13B
100
AcDbEntity
  8
0
100
AcDbBlockEnd
  0
BLOCK
  5
140
330
13F
100
AcDbEntity
  8
0
100
AcDbBlockBegin
  2
Funktionsmaße
 70
     0
 10
0.0
 20
0.0
 30
0.0
  3
Funktionsmaße
  1

  0
LINE
  5
142
330
13F
100
AcDbEntity
  8
Bemaßung (ISO)
100
AcDbLine
 10
-6.640674506917321
 20
3.000000000000007
 30
0.0
 11
5.640674606917421
 21
3.000000000000007
 31
0.0
  0
LINE
  5
143
330
13F
100
AcDbEntity
  8
Bemaßung (ISO)
100
AcDbLine
 10
9.640674606917372
 20
-0.4289303871484141
 30
0.0
 11
9.640674606917372
 21
0.3692458296598033
 31
0.0
  0
LINE
  5
144
330
13F
100
AcDbEntity
  8
Bemaßung (ISO)
100
AcDbLine
 10
5.640674606917457
 20
-3.000000000000007
 30
0.0
 11
-6.640674506917321
 21
-2.999999999999989
 31
0.0
  0
ARC
  5
145
330
13F
100
AcDbEntity
  8
Skizziergeometrie (ISO)
100
AcDbCircle
 10
-6.640674506917321
 20
0.0000000000000089
 30
0.0
 40
3.000000000000007
100
AcDbArc
 50
90.0
 51
180.0
  0
ARC
  5
146
330
13F
100
AcDbEntity
  8
Skizziergeometrie (ISO)
100
AcDbCircle
 10
-6.640674506917321
 20
0.0
 30
0.0
 40
3.000000000000007
100
AcDbArc
 50
180.0
 51
270.0
  0
ARC
  5
147
330
13F
100
AcDbEntity
  8
Skizziergeometrie (ISO)
100
AcDbCircle
 10
5.640674606917421
 20
0.0
 30
0.0
 40
3.0
100
AcDbArc
 50
270.0
 51
90.0
  0
MTEXT
  5
148
330
13F
100
AcDbEntity
  8
Symbol (ISO)
100
AcDbMText
 10
-3.491852203980485
 20
1.964042734552231
 30
0.0
 40
3.499999940395355
 41
7.190078199734983
 46
0.0
 71
     1
 72
     1
  1
XX
  7
Notiztext (DIN)
 73
     1
 44
1.0
  0
MTEXT
  5
149
330
13F
100
AcDbEntity
  8
Symbol (ISO)
100
AcDbMText
 10
12.38108462102065
 20
1.648884277515483
 30
0.0
 40
3.499999940395355
 41
38.36131750582588
 46
0.0
 71
     1
 72
     1
  1
... Funktionsmaße
  7
Notiztext (DIN)
 73
     1
 44
1.0
  0
ENDBLK
  5
141
330
13F
100
AcDbEntity
  8
0
100
AcDbBlockEnd
  0
BLOCK
  5
14B
330
14A
100
AcDbEntity
  8
0
100
AcDbBlockBegin
  2
Gew.gängigkeit
 70
     0
 10
0.0
 20
0.0
 30
0.0
  3
Gew.gängigkeit
  1

  0
MTEXT
  5
14D
330
14A
100
AcDbEntity
  8
Symbole(DIN)
 62
     7
100
AcDbMText
 10
-72.76136398315429
 20
2.274350598454475
 30
0.0
 40
3.499999940395355
 41
0.0
 46
0.0
 71
     1
 72
     1
  1
Gewindegängigkeit nach Pulverbeschichtung muß gewährleistet sein!
  7
Aktuell-DIN
 73
     1
 44
1.0
  0
ENDBLK
  5
14C
330
14A
100
AcDbEntity
  8
0
100
AcDbBlockEnd
  0
BLOCK
  5
14F
330
14E
100
AcDbEntity
  8
0
100
AcDbBlockBegin
  2
Grat_ Späne_ Öl
 70
     0
 10
0.0
 20
0.0
 30
0.0
  3
Grat_ Späne_ Öl
  1

  0
MTEXT
  5
151
330
14E
100
AcDbEntity
  8
Symbole(DIN)
 62
     7
100
AcDbMText
 10
-73.28896045684814
 20
2.798701301217079
 30
0.0
 40
3.499999940395355
 41
0.0
 46
0.0
 71
     1
 72
     1
  1
Teile gratfrei, frei von Spänen, Öl oder sonstigen Verunreinigungen
  7
Aktuell-DIN
 73
     1
 44
1.0
  0
ENDBLK
  5
150
330
14E
100
AcDbEntity
  8
0
100
AcDbBlockEnd
  0
BLOCK
  5
153
330
152
100
AcDbEntity
  8
0
100
AcDbBlockBegin
  2
gratfrei
 70
     0
 10
0.0
 20
0.0
 30
0.0
  3
gratfrei
  1

  0
HATCH
  5
158
330
152
100
AcDbEntity
  8
65920-0
100
AcDbHatch
 10
0.0
 20
0.0
 30
0.0
210
0.0
220
0.0
230
1.0
  2
SOLID
 70
     1
 71
     0
 91
        1
 92
        1
 93
        3
 72
     1
 10
-3.168171411588693
 20
-4.522775555842386
 11
-5.876024239705412
 21
-6.405926907179058
 72
     1
 10
-5.876024239705412
 20
-6.405926907179058
 11
-4.491695897806353
 21
-3.412206647603035
 72
     1
 10
-4.491695897806353
 20
-3.412206647603035
 11
-3.168171411588693
 21
-4.522775555842386
 97
        0
 75
     0
 76
     1
 98
        1
 10
0.0
 20
0.0
450
        0
451
        0
460
0.0
461
0.0
452
        0
462
0.0
453
        0
470

  0
HATCH
  5
15C
330
152
100
AcDbEntity
  8
Schraffur
 62
   156
420
    16512
100
AcDbHatch
 10
0.0
 20
0.0
 30
0.0
210
0.0
220
0.0
230
1.0
  2
SOLID
 70
     1
 71
     0
 91
        1
 92
        1
 93
        3
 72
     1
 10
-3.168171411588693
 20
-4.522775555842386
 11
-4.491695897806353
 21
-3.412206647603035
 72
     1
 10
-4.491695897806353
 20
-3.412206647603035
 11
-5.876024239705412
 21
-6.405926907179058
 72
     1
 10
-5.876024239705412
 20
-6.405926907179058
 11
-3.168171411588693
 21
-4.522775555842386
 97
        0
 75
     0
 76
     1
 98
        1
 10
0.0
 20
0.0
450
        0
451
        0
460
0.0
461
0.0
452
        0
462
0.0
453
        0
470

  0
LINE
  5
15D
330
152
100
AcDbEntity
  8
Bemaßungen(DIN)
100
AcDbLine
 10
-0.3491117025826096
 20
0.1807909648910311
 30
0.0
 11
-3.829933654697517
 21
-3.967491101722693
 31
0.0
  0
LINE
  5
15E
330
152
100
AcDbEntity
  8
Bemaßungen(DIN)
100
AcDbLine
 10
-4.491695897806353
 20
-3.412206647603035
 30
0.0
 11
-3.168171411588693
 21
-4.522775555842386
 31
0.0
  0
LINE
  5
15F
330
152
100
AcDbEntity
  8
Bemaßungen(DIN)
100
AcDbLine
 10
-3.168171411588693
 20
-4.522775555842386
 30
0.0
 11
-5.876024239705412
 21
-6.405926907179058
 31
0.0
  0
LINE
  5
160
330
152
100
AcDbEntity
  8
Bemaßungen(DIN)
100
AcDbLine
 10
-5.876024239705412
 20
-6.405926907179058
 30
0.0
 11
-4.491695897806353
 21
-3.412206647603035
 31
0.0
  0
LINE
  5
161
330
152
100
AcDbEntity
  8
Bemaßungen(DIN)
100
AcDbLine
 10
-0.3491117025826096
 20
6.405926907179058
 30
0.0
 11
-0.3491117025826096
 21
0.1807909648910311
 31
0.0
  0
LINE
  5
162
330
152
100
AcDbEntity
  8
Bemaßungen(DIN)
100
AcDbLine
 10
-0.3491117025826096
 20
0.1807909648910311
 30
0.0
 11
5.876024239705417
 21
0.1807909648909955
 31
0.0
  0
MTEXT
  5
163
330
152
100
AcDbEntity
  8
Bemaßungen(DIN)
 62
     7
100
AcDbMText
 10
1.637486884513084
 20
7.5566250433803
 30
0.0
 40
5.0
 41
0.0
 46
0.0
 71
     1
 72
     1
  1
\fISOCPEUR|b0|i0;\H5.0000;-
  7
Aktuell-DIN
 73
     1
 44
1.0
  0
ENDBLK
  5
154
330
152
100
AcDbEntity
  8
0
100
AcDbBlockEnd
  0
BLOCK
  5
165
330
164
100
AcDbEntity
  8
0
100
AcDbBlockBegin
  2
Hilfsmaße
 70
     0
 10
0.0
 20
0.0
 30
0.0
  3
Hilfsmaße
  1

  0
MTEXT
  5
167
330
164
100
AcDbEntity
  8
Symbol (ISO)
100
AcDbMText
 10
-43.64123344421386
 20
2.448051944375038
 30
0.0
 40
3.499999940395355
 41
89.38584409565908
 46
0.0
 71
     1
 72
     1
  1
( ... )  .... Hilfsmaße, doppellte Bemaßung
  7
Notiztext (DIN)
 73
     1
 44
1.0
  0
ENDBLK
  5
166
330
164
100
AcDbEntity
  8
0
100
AcDbBlockEnd
  0
BLOCK
  5
169
330
168
100
AcDbEntity
  8
0
100
AcDbBlockBegin
  2
Sichtfläche
 70
     0
 10
0.0
 20
0.0
 30
0.0
  3
Sichtfläche
  1

  0
LINE
  5
16B
330
168
100
AcDbEntity
  8
Blechbiegung - Mittellinien(DIN)
 48
30.67534255981446
100
AcDbLine
 10
-10.86827355782908
 20
0.0
 30
0.0
 11
10.86827355782905
 21
0.0
 31
0.0
  0
MTEXT
  5
16C
330
168
100
AcDbEntity
  8
Symbole(DIN)
 62
     7
100
AcDbMText
 10
14.3316295125015
 20
2.077047847097226
 30
0.0
 40
3.000000119209289
 41
0.0
 46
0.0
 71
     1
 72
     1
  1
\fISOCPEUR|b0|i0;\H3.0000;Sichtfläche, keine Oberflächenfehler zulässig
  7
Aktuell-DIN
 73
     1
 44
1.0
  0
ENDBLK
  5
16A
330
168
100
AcDbEntity
  8
0
100
AcDbBlockEnd
  0
BLOCK
  5
16E
330
16D
100
AcDbEntity
  8
0
100
AcDbBlockBegin
  2
unbemaßte Radien
 70
     0
 10
0.0
 20
0.0
 30
0.0
  3
unbemaßte Radien
  1

  0
MTEXT
  5
170
330
16D
100
AcDbEntity
  8
Symbole(DIN)
 62
     7
100
AcDbMText
 10
-29.03409004211426
 20
1.749999970197677
 30
0.0
 40
3.499999940395355
 41
0.0
 46
0.0
 71
     1
 72
     1
  1
alle unbemaßte Radien R=3
  7
Aktuell-DIN
 73
     1
 44
1.0
  0
ENDBLK
  5
16F
330
16D
100
AcDbEntity
  8
0
100
AcDbBlockEnd
  0
BLOCK
  5
172
330
171
100
AcDbEntity
  8
0
100
AcDbBlockBegin
  2
Änderungs-Index
 70
     2
 10
0.0
 20
0.0
 30
0.0
  3
Änderungs-Index
  1

  0
ATTDEF
  5
175
102
{ACAD_XDICTIONARY
360
7CE
102
}
330
171
100
AcDbEntity
  8
Symbole(DIN)
 62
     7
100
AcDbText
 10
-25.3097212063056
 20
-1.000000014901161
 30
0.0
 40
2.000000029802322
  1
a
  7
Textstil43
100
AcDbAttributeDefinition
280
     0
  3
Index
  2
Index_001
 70
     0
280
     0
  0
ATTDEF
  5
176
102
{ACAD_XDICTIONARY
360
7D1
102
}
330
171
100
AcDbEntity
  8
Symbole(DIN)
 62
     7
100
AcDbText
 10
-20.36824557696684
 20
-0.9992424391562853
 30
0.0
 40
2.000000029802322
  1
2219 / Klaiber
  7
Textstil43
100
AcDbAttributeDefinition
280
     0
  3
Änderung
  2
Änderung_001
 70
     0
280
     0
  0
ATTDEF
  5
177
102
{ACAD_XDICTIONARY
360
7D4
102
}
330
171
100
AcDbEntity
  8
Symbole(DIN)
 62
     7
100
AcDbText
 10
7.493656753236979
 20
-1.000000014901161
 30
0.0
 40
2.000000029802322
  1
02.11.09
  7
Textstil43
100
AcDbAttributeDefinition
280
     0
  3
Datum
  2
Datum_001
 70
     0
280
     0
  0
ATTDEF
  5
178
102
{ACAD_XDICTIONARY
360
7D7
102
}
330
171
100
AcDbEntity
  8
Symbole(DIN)
 62
     7
100
AcDbText
 10
19.11083451489923
 20
-1.000000014901161
 30
0.0
 40
2.000000029802322
  1
Sechi
  7
Textstil43
100
AcDbAttributeDefinition
280
     0
  3
Initialen
  2
Initialen_001
 70
     0
280
     0
  0
ENDBLK
  5
173
330
171
100
AcDbEntity
  8
0
100
AcDbBlockEnd
  0
BLOCK
  5
17A
330
179
100
AcDbEntity
  8
0
100
AcDbBlockBegin
  2
Änderungs-Index-Symbol
 70
     2
 10
0.0
 20
0.0
 30
0.0
  3
Änderungs-Index-Symbol
  1

  0
CIRCLE
  5
17C
330
179
100
AcDbEntity
  8
Skizziergeometrie(DIN)
370
    18
100
AcDbCircle
 10
0.0
 20
0.0
 30
0.0
 40
1.293480534856832
  0
ATTDEF
  5
17E
102
{ACAD_XDICTIONARY
360
7DA
102
}
330
179
100
AcDbEntity
  8
Symbole(DIN)
 62
     7
100
AcDbText
 10
-0.4564232063518838
 20
-0.6515913219735126
 30
0.0
 40
1.500000059604644
  1
a
  7
Textstil69
100
AcDbAttributeDefinition
280
     0
  3
Index
  2
Index_001
 70
     0
280
     0
  0
ENDBLK
  5
17B
330
179
100
AcDbEntity
  8
0
100
AcDbBlockEnd
  0
BLOCK
  5
212
330
211
100
AcDbEntity
  8
0
100
AcDbBlockBegin
  2
*D15
 70
     1
 10
0.0
 20
0.0
 30
0.0
  3
*D15
  1

  0
LINE
  5
2EC
330
211
100
AcDbEntity
  8
Bemaßungen(DIN)
  6
Continuous
440
 16777216
370
    25
100
AcDbLine
 10
53.85795893932178
 20
162.2496224803237
 30
0.0
 11
84.77405732739176
 21
109.4615984080099
 31
0.0
  0
LINE
  5
2ED
330
211
100
AcDbEntity
  8
Bemaßungen(DIN)
  6
Continuous
440
 16777216
370
    25
100
AcDbLine
 10
133.7515788048942
 20
209.0405197671681
 30
0.0
 11
164.6676771929642
 21
156.2524956948543
 31
0.0
  0
LINE
  5
2EE
330
211
100
AcDbEntity
  8
Bemaßungen(DIN)
  6
Continuous
440
 16777216
370
    25
100
AcDbLine
 10
85.32675774093751
 20
113.4647405804623
 30
0.0
 11
160.905868078736
 21
157.7287806226749
 31
0.0
  0
SOLID
  5
2EF
330
211
100
AcDbEntity
  8
Bemaßungen(DIN)
  6
Continuous
440
 16777216
100
AcDbTrace
 10
85.11618630388488
 20
113.8242830411101
 30
0.0
 11
85.53732917799017
 21
113.1051981198144
 31
0.0
 12
83.16950297705057
 22
112.2013119581464
 32
0.0
 13
83.16950297705057
 23
112.2013119581464
 33
0.0
  0
SOLID
  5
2F0
330
211
100
AcDbEntity
  8
Bemaßungen(DIN)
  6
Continuous
440
 16777216
100
AcDbTrace
 10
160.6952966416834
 20
158.0883230833227
 30
0.0
 11
161.1164395157887
 21
157.369238162027
 31
0.0
 12
163.063122842623
 22
158.9922092449908
 32
0.0
 13
163.063122842623
 23
158.9922092449908
 33
0.0
  0
MTEXT
  5
2F1
330
211
100
AcDbEntity
  8
Bemaßungen(DIN)
  6
Continuous
440
 16777216
370
    25
100
AcDbMText
 10
119.1311217351683
 20
138.2459587863142
 30
0.0
 40
3.5
 41
0.0
 46
0.0
 71
     1
 72
     1
  1
\A1;93
  7
STANDARD-MERKT
 11
0.8629019055547813
 21
0.5053714489263588
 31
0.0
 73
     1
 44
1.0
  0
POINT
  5
2F2
330
211
100
AcDbEntity
  8
Defpoints
  6
Continuous
 62
     0
440
 16777216
100
AcDbPoint
 10
53.85795893932178
 20
162.2496224803237
 30
0.0
  0
POINT
  5
2F3
330
211
100
AcDbEntity
  8
Defpoints
  6
Continuous
 62
     0
440
 16777216
100
AcDbPoint
 10
133.7515788048942
 20
209.0405197671681
 30
0.0
  0
POINT
  5
2F4
330
211
100
AcDbEntity
  8
Defpoints
  6
Continuous
 62
     0
440
 16777216
100
AcDbPoint
 10
163.063122842623
 20
158.9922092449908
 30
0.0
  0
ENDBLK
  5
213
330
211
100
AcDbEntity
  8
0
100
AcDbBlockEnd
  0
BLOCK
  5
2F7
330
2F6
100
AcDbEntity
  8
0
100
AcDbBlockBegin
  2
*D16
 70
     1
 10
0.0
 20
0.0
 30
0.0
  3
*D16
  1

  0
LINE
  5
3C2
330
2F6
100
AcDbEntity
  8
Bemaßungen(DIN)
  6
Continuous
440
 16777216
370
    25
100
AcDbLine
 10
121.3364378491988
 20
146.3257729516779
 30
0.0
 11
186.1928009558622
 21
191.7386872996541
 31
0.0
  0
LINE
  5
3C3
330
2F6
100
AcDbEntity
  8
Bemaßungen(DIN)
  6
Continuous
440
 16777216
370
    25
100
AcDbLine
 10
66.27309989501717
 20
224.964369295814
 30
0.0
 11
131.1294630016806
 21
270.3772836437902
 31
0.0
  0
LINE
  5
3C4
330
2F6
100
AcDbEntity
  8
Bemaßungen(DIN)
  6
Continuous
440
 16777216
370
    25
100
AcDbLine
 10
182.1580521243675
 20
191.9654622249693
 30
0.0
 11
129.9625963519337
 21
266.5082983476552
 31
0.0
  0
SOLID
  5
3C5
330
2F6
100
AcDbEntity
  8
Bemaßungen(DIN)
  6
Continuous
440
 16777216
100
AcDbTrace
 10
182.499365476155
 20
192.2044524067816
 30
0.0
 11
181.8167387725799
 21
191.726472043157
 31
0.0
 12
183.5919932152414
 22
189.9175821142442
 32
0.0
 13
183.5919932152414
 23
189.9175821142442
 33
0.0
  0
SOLID
  5
3C6
330
2F6
100
AcDbEntity
  8
Bemaßungen(DIN)
  6
Continuous
440
 16777216
100
AcDbTrace
 10
130.3039097037212
 20
266.7472885294675
 30
0.0
 11
129.6212830001461
 21
266.2693081658429
 31
0.0
 12
128.5286552610598
 22
268.5561784583803
 32
0.0
 13
128.5286552610598
 23
268.5561784583803
 33
0.0
  0
MTEXT
  5
3C7
330
2F6
100
AcDbEntity
  8
Bemaßungen(DIN)
  6
Continuous
440
 16777216
370
    25
100
AcDbMText
 10
158.3781675504044
 20
233.4234782011538
 30
0.0
 40
3.5
 41
0.0
 46
0.0
 71
     1
 72
     1
  1
\A1;96
  7
STANDARD-MERKT
 11
0.5735764363495574
 21
-0.819152044290034
 31
0.0
 73
     1
 44
1.0
  0
POINT
  5
3C8
330
2F6
100
AcDbEntity
  8
Defpoints
  6
Continuous
 62
     0
440
 16777216
100
AcDbPoint
 10
121.3364378491988
 20
146.3257729516779
 30
0.0
  0
POINT
  5
3C9
330
2F6
100
AcDbEntity
  8
Defpoints
  6
Continuous
 62
     0
440
 16777216
100
AcDbPoint
 10
66.27309989501717
 20
224.964369295814
 30
0.0
  0
POINT
  5
3CA
330
2F6
100
AcDbEntity
  8
Defpoints
  6
Continuous
 62
     0
440
 16777216
100
AcDbPoint
 10
128.5286552610598
 20
268.5561784583803
 30
0.0
  0
ENDBLK
  5
2F8
330
2F6
100
AcDbEntity
  8
0
100
AcDbBlockEnd
  0
BLOCK
  5
3CE
330
3CD
100
AcDbEntity
  8
0
100
AcDbBlockBegin
  2
*D17
 70
     1
 10
0.0
 20
0.0
 30
0.0
  3
*D17
  1

  0
LINE
  5
499
330
3CD
100
AcDbEntity
  8
Bemaßungen(DIN)
  6
Continuous
440
 16777216
370
    25
100
AcDbLine
 10
58.80476887208786
 20
211.6450711238978
 30
0.0
 11
58.80476887208786
 21
232.3221562376037
 31
0.0
  0
LINE
  5
49A
330
3CD
100
AcDbEntity
  8
Bemaßungen(DIN)
  6
Continuous
440
 16777216
370
    25
100
AcDbLine
 10
128.8047688721281
 20
211.6450711238978
 30
0.0
 11
128.8047688721281
 21
232.3221562376037
 31
0.0
  0
LINE
  5
49B
330
3CD
100
AcDbEntity
  8
Bemaßungen(DIN)
  6
Continuous
440
 16777216
370
    25
100
AcDbLine
 10
61.30476887208786
 20
229.1471562376037
 30
0.0
 11
126.3047688721281
 21
229.1471562376037
 31
0.0
  0
SOLID
  5
49C
330
3CD
100
AcDbEntity
  8
Bemaßungen(DIN)
  6
Continuous
440
 16777216
100
AcDbTrace
 10
61.30476887208786
 20
229.5638229042704
 30
0.0
 11
61.30476887208786
 21
228.7304895709371
 31
0.0
 12
58.80476887208786
 22
229.1471562376037
 32
0.0
 13
58.80476887208786
 23
229.1471562376037
 33
0.0
  0
SOLID
  5
49D
330
3CD
100
AcDbEntity
  8
Bemaßungen(DIN)
  6
Continuous
440
 16777216
100
AcDbTrace
 10
126.3047688721281
 20
229.5638229042704
 30
0.0
 11
126.3047688721281
 21
228.7304895709371
 31
0.0
 12
128.8047688721281
 22
229.1471562376037
 32
0.0
 13
128.8047688721281
 23
229.1471562376037
 33
0.0
  0
MTEXT
  5
49E
330
3CD
100
AcDbEntity
  8
Bemaßungen(DIN)
  6
Continuous
440
 16777216
370
    25
100
AcDbMText
 10
91.70476893860444
 20
233.4471562376037
 30
0.0
 40
3.5
 41
0.0
 46
0.0
 71
     1
 72
     1
  1
\A1;70
  7
STANDARD-MERKT
 73
     1
 44
1.0
  0
POINT
  5
49F
330
3CD
100
AcDbEntity
  8
Defpoints
  6
Continuous
 62
     0
440
 16777216
100
AcDbPoint
 10
58.80476887208786
 20
211.6450711238978
 30
0.0
  0
POINT
  5
4A0
330
3CD
100
AcDbEntity
  8
Defpoints
  6
Continuous
 62
     0
440
 16777216
100
AcDbPoint
 10
128.8047688721281
 20
211.6450711238978
 30
0.0
  0
POINT
  5
4A1
330
3CD
100
AcDbEntity
  8
Defpoints
  6
Continuous
 62
     0
440
 16777216
100
AcDbPoint
 10
128.8047688721281
 20
229.1471562376037
 30
0.0
  0
ENDBLK
  5
3CF
330
3CD
100
AcDbEntity
  8
0
100
AcDbBlockEnd
  0
BLOCK
  5
4AC
330
4AB
100
AcDbEntity
  8
0
100
AcDbBlockBegin
  2
*D18
 70
     1
 10
0.0
 20
0.0
 30
0.0
  3
*D18
  1

  0
LINE
  5
583
330
4AB
100
AcDbEntity
  8
Bemaßungen(DIN)
  6
Continuous
440
 16777216
370
    25
100
AcDbLine
 10
119.0421321037948
 20
145.6023811288339
 30
0.0
 11
41.21208234719062
 21
145.6023811288339
 31
0.0
  0
LINE
  5
584
330
4AB
100
AcDbEntity
  8
Bemaßungen(DIN)
  6
Continuous
440
 16777216
370
    25
100
AcDbLine
 10
57.02646507499757
 20
185.6450711237459
 30
0.0
 11
41.21208234719063
 21
185.6450711237459
 31
0.0
  0
LINE
  5
585
330
4AB
100
AcDbEntity
  8
Bemaßungen(DIN)
  6
Continuous
440
 16777216
370
    25
100
AcDbLine
 10
44.38708234719062
 20
148.102381128834
 30
0.0
 11
44.38708234719062
 21
183.1450711237459
 31
0.0
  0
SOLID
  5
586
330
4AB
100
AcDbEntity
  8
Bemaßungen(DIN)
  6
Continuous
440
 16777216
100
AcDbTrace
 10
43.97041568052395
 20
148.102381128834
 30
0.0
 11
44.80374901385729
 21
148.102381128834
 31
0.0
 12
44.38708234719062
 22
145.6023811288339
 32
0.0
 13
44.38708234719062
 23
145.6023811288339
 33
0.0
  0
SOLID
  5
587
330
4AB
100
AcDbEntity
  8
Bemaßungen(DIN)
  6
Continuous
440
 16777216
100
AcDbTrace
 10
43.97041568052396
 20
183.1450711237459
 30
0.0
 11
44.80374901385729
 21
183.1450711237459
 31
0.0
 12
44.38708234719062
 22
185.6450711237459
 32
0.0
 13
44.38708234719062
 23
185.6450711237459
 33
0.0
  0
MTEXT
  5
588
330
4AB
100
AcDbEntity
  8
Bemaßungen(DIN)
  6
Continuous
440
 16777216
370
    25
100
AcDbMText
 10
40.08708234719059
 20
165.7719709546957
 30
0.0
 40
3.5
 41
0.0
 46
0.0
 71
     1
 72
     1
  1
\A1;40
  7
STANDARD-MERKT
 11
0.0000000000000001
 21
1.0
 31
0.0
 73
     1
 44
1.0
  0
POINT
  5
589
330
4AB
100
AcDbEntity
  8
Defpoints
  6
Continuous
 62
     0
440
 16777216
100
AcDbPoint
 10
119.0421321037948
 20
145.6023811288339
 30
0.0
  0
POINT
  5
58A
330
4AB
100
AcDbEntity
  8
Defpoints
  6
Continuous
 62
     0
440
 16777216
100
AcDbPoint
 10
57.02646507499757
 20
185.6450711237459
 30
0.0
  0
POINT
  5
58B
330
4AB
100
AcDbEntity
  8
Defpoints
  6
Continuous
 62
     0
440
 16777216
100
AcDbPoint
 10
44.38708234719062
 20
185.6450711237459
 30
0.0
  0
ENDBLK
  5
4AD
330
4AB
100
AcDbEntity
  8
0
100
AcDbBlockEnd
  0
BLOCK
  5
58E
330
58D
100
AcDbEntity
  8
0
100
AcDbBlockBegin
  2
*D19
 70
     1
 10
0.0
 20
0.0
 30
0.0
  3
*D19
  1

  0
LINE
  5
665
330
58D
100
AcDbEntity
  8
Bemaßungen(DIN)
  6
Continuous
440
 16777216
370
    25
100
AcDbLine
 10
131.3047688721078
 20
165.645071123594
 30
0.0
 11
149.18792577714
 21
165.645071123594
 31
0.0
  0
LINE
  5
666
330
58D
100
AcDbEntity
  8
Bemaßungen(DIN)
  6
Continuous
440
 16777216
370
    25
100
AcDbLine
 10
131.3047688721078
 20
205.6450711238978
 30
0.0
 11
149.18792577714
 21
205.6450711238978
 31
0.0
  0
LINE
  5
667
330
58D
100
AcDbEntity
  8
Bemaßungen(DIN)
  6
Continuous
440
 16777216
370
    25
100
AcDbLine
 10
146.01292577714
 20
168.1450711235941
 30
0.0
 11
146.01292577714
 21
203.1450711238978
 31
0.0
  0
SOLID
  5
668
330
58D
100
AcDbEntity
  8
Bemaßungen(DIN)
  6
Continuous
440
 16777216
100
AcDbTrace
 10
145.5962591104733
 20
168.1450711235941
 30
0.0
 11
146.4295924438066
 21
168.1450711235941
 31
0.0
 12
146.01292577714
 22
165.645071123594
 32
0.0
 13
146.01292577714
 23
165.645071123594
 33
0.0
  0
SOLID
  5
669
330
58D
100
AcDbEntity
  8
Bemaßungen(DIN)
  6
Continuous
440
 16777216
100
AcDbTrace
 10
145.5962591104734
 20
203.1450711238978
 30
0.0
 11
146.4295924438067
 21
203.1450711238978
 31
0.0
 12
146.01292577714
 22
205.6450711238978
 32
0.0
 13
146.01292577714
 23
205.6450711238978
 33
0.0
  0
MTEXT
  5
66A
330
58D
100
AcDbEntity
  8
Bemaßungen(DIN)
  6
Continuous
440
 16777216
370
    25
100
AcDbMText
 10
141.7129257771399
 20
183.3700711957807
 30
0.0
 40
3.5
 41
0.0
 46
0.0
 71
     1
 72
     1
  1
\A1;40
  7
STANDARD-MERKT
 11
0.0000000000000001
 21
1.0
 31
0.0
 73
     1
 44
1.0
  0
POINT
  5
66B
330
58D
100
AcDbEntity
  8
Defpoints
  6
Continuous
 62
     0
440
 16777216
100
AcDbPoint
 10
131.3047688721078
 20
165.645071123594
 30
0.0
  0
POINT
  5
66C
330
58D
100
AcDbEntity
  8
Defpoints
  6
Continuous
 62
     0
440
 16777216
100
AcDbPoint
 10
131.3047688721078
 20
205.6450711238978
 30
0.0
  0
POINT
  5
66D
330
58D
100
AcDbEntity
  8
Defpoints
  6
Continuous
 62
     0
440
 16777216
100
AcDbPoint
 10
146.01292577714
 20
205.6450711238978
 30
0.0
  0
ENDBLK
  5
58F
330
58D
100
AcDbEntity
  8
0
100
AcDbBlockEnd
  0
BLOCK
  5
670
330
66F
100
AcDbEntity
  8
0
100
AcDbBlockBegin
  2
*D20
 70
     1
 10
0.0
 20
0.0
 30
0.0
  3
*D20
  1

  0
LINE
  5
710
330
66F
100
AcDbEntity
  8
Bemaßungen(DIN)
  6
Continuous
440
 16777216
370
    25
100
AcDbLine
 10
143.4101550596006
 20
224.4728295722368
 30
0.0
 11
139.6749802805189
 21
224.4728295722368
 31
0.0
  0
LINE
  5
711
330
66F
100
AcDbEntity
  8
Bemaßungen(DIN)
  6
Continuous
440
 16777216
370
    25
100
AcDbLine
 10
139.6749802805189
 20
224.4728295722368
 30
0.0
 11
132.5547688721292
 21
212.1402616522801
 31
0.0
  0
MTEXT
  5
712
330
66F
100
AcDbEntity
  8
Bemaßungen(DIN)
  6
Continuous
440
 16777216
370
    25
100
AcDbMText
 10
144.2101550596006
 20
226.2228295722368
 30
0.0
 40
3.5
 41
0.0
 46
0.0
 71
     1
 72
     1
  1
\A1;∅10
  7
STANDARD-MERKT
 73
     1
 44
1.0
  0
SOLID
  5
713
330
66F
100
AcDbEntity
  8
Bemaßungen(DIN)
  6
Continuous
440
 16777216
100
AcDbTrace
 10
132.1939249538857
 20
212.3485949856135
 30
0.0
 11
132.9156127903727
 21
211.9319283189467
 31
0.0
 12
131.3047688721288
 22
209.9751981428193
 32
0.0
 13
131.3047688721288
 23
209.9751981428193
 33
0.0
  0
LINE
  5
714
330
66F
100
AcDbEntity
  8
Bemaßungen(DIN)
  6
Continuous
440
 16777216
370
    25
100
AcDbLine
 10
128.714768872128
 20
205.6450711238976
 30
0.0
 11
128.894768872128
 21
205.6450711238976
 31
0.0
  0
LINE
  5
715
330
66F
100
AcDbEntity
  8
Bemaßungen(DIN)
  6
Continuous
440
 16777216
370
    25
100
AcDbLine
 10
128.804768872128
 20
205.5550711238976
 30
0.0
 11
128.8047688721279
 21
205.7350711238976
 31
0.0
  0
POINT
  5
716
330
66F
100
AcDbEntity
  8
Defpoints
  6
Continuous
 62
     0
440
 16777216
100
AcDbPoint
 10
131.3047688721288
 20
209.9751981428193
 30
0.0
  0
POINT
  5
717
330
66F
100
AcDbEntity
  8
Defpoints
  6
Continuous
 62
     0
440
 16777216
100
AcDbPoint
 10
126.3047688721271
 20
201.3149441049759
 30
0.0
  0
ENDBLK
  5
671
330
66F
100
AcDbEntity
  8
0
100
AcDbBlockEnd
  0
BLOCK
  5
71A
330
719
100
AcDbEntity
  8
0
100
AcDbBlockBegin
  2
*D21
 70
     1
 10
0.0
 20
0.0
 30
0.0
  3
*D21
  1

  0
LINE
  5
7B9
330
719
100
AcDbEntity
  8
Bemaßungen(DIN)
  6
Continuous
440
 16777216
370
    25
100
AcDbLine
 10
146.0304807129828
 20
213.4338363784443
 30
0.0
 11
142.2953060212125
 21
213.4338363784443
 31
0.0
  0
LINE
  5
7BA
330
719
100
AcDbEntity
  8
Bemaßungen(DIN)
  6
Continuous
440
 16777216
370
    25
100
AcDbLine
 10
142.2953060212125
 20
213.4338363784443
 30
0.0
 11
134.0009212948148
 21
208.6450711238973
 31
0.0
  0
MTEXT
  5
7BB
330
719
100
AcDbEntity
  8
Bemaßungen(DIN)
  6
Continuous
440
 16777216
370
    25
100
AcDbMText
 10
146.8304807129828
 20
215.1838363784443
 30
0.0
 40
3.5
 41
0.0
 46
0.0
 71
     1
 72
     1
  1
\A1;∅7
  7
STANDARD-MERKT
 73
     1
 44
1.0
  0
SOLID
  5
7BC
330
719
100
AcDbEntity
  8
Bemaßungen(DIN)
  6
Continuous
440
 16777216
100
AcDbTrace
 10
133.7925879614815
 20
209.0059150421409
 30
0.0
 11
134.2092546281481
 21
208.2842272056538
 31
0.0
 12
131.8358577853535
 22
207.3950711238975
 32
0.0
 13
131.8358577853535
 23
207.3950711238975
 33
0.0
  0
LINE
  5
7BD
330
719
100
AcDbEntity
  8
Bemaßungen(DIN)
  6
Continuous
440
 16777216
370
    25
100
AcDbLine
 10
128.7147688721078
 20
205.6450711238978
 30
0.0
 11
128.8947688721078
 21
205.6450711238978
 31
0.0
  0
LINE
  5
7BE
330
719
100
AcDbEntity
  8
Bemaßungen(DIN)
  6
Continuous
440
 16777216
370
    25
100
AcDbLine
 10
128.8047688721078
 20
205.5550711238978
 30
0.0
 11
128.8047688721079
 21
205.7350711238978
 31
0.0
  0
POINT
  5
7BF
330
719
100
AcDbEntity
  8
Defpoints
  6
Continuous
 62
     0
440
 16777216
100
AcDbPoint
 10
131.8358577853535
 20
207.3950711238975
 30
0.0
  0
POINT
  5
7C0
330
719
100
AcDbEntity
  8
Defpoints
  6
Continuous
 62
     0
440
 16777216
100
AcDbPoint
 10
125.7736799588621
 20
203.8950711238982
 30
0.0
  0
ENDBLK
  5
71B
330
719
100
AcDbEntity
  8
0
100
AcDbBlockEnd
  0
ENDSEC
  0
SECTION
  2
ENTITIES
  0
SPLINE
  5
17F
330
71
100
AcDbEntity
  8
Sichtbare Kanten(DIN)
100
AcDbSpline
210
0.0
220
0.0
230
1.0
 70
     8
 71
     3
 72
    14
 73
    10
 74
     0
 42
0.000000001
 43
0.0000000001
 40
0.0000000000000008
 40
0.0000000000000008
 40
0.0000000000000008
 40
0.0000000000000008
 40
0.0027022591592578
 40
0.0027022591592578
 40
0.007025873814069
 40
0.007025873814069
 40
0.013943657261767
 40
0.013943657261767
 40
0.021618073274057
 40
0.021618073274057
 40
0.021618073274057
 40
0.021618073274057
 10
115.1935506804507
 20
191.5914996953264
 30
0.0
 10
115.1959418695984
 20
191.5828987977748
 30
0.0
 10
115.1983302612796
 20
191.5742878498191
 30
0.0
 10
115.2045281901694
 20
191.5518896974409
 30
0.0
 10
115.208330587987
 20
191.5380966597831
 30
0.0
 10
115.2181674210042
 20
191.5022790817687
 30
0.0
 10
115.2241720928444
 20
191.4802813136245
 30
0.0
 10
115.2366743023002
 20
191.4342040567444
 30
0.0
 10
115.2431536919455
 20
191.4101607844101
 30
0.0
 10
115.2495016429911
 20
191.3864504342561
 30
0.0
  0
ARC
  5
180
330
71
100
AcDbEntity
  8
Sichtbare Kanten(DIN)
100
AcDbCircle
 10
93.80476887210802
 20
185.6450711238979
 30
0.0
 40
22.19999999999991
100
AcDbArc
 50
15.53679406815112
 51
164.4632059318489
  0
SPLINE
  5
181
330
71
100
AcDbEntity
  8
Sichtbare Kanten(DIN)
100
AcDbSpline
210
0.0
220
0.0
230
1.0
 70
     8
 71
     3
 72
    14
 73
    10
 74
     0
 42
0.000000001
 43
0.0000000001
 40
0.0
 40
0.0
 40
0.0
 40
0.0
 40
0.00767441601229
 40
0.00767441601229
 40
0.014592199459988
 40
0.014592199459988
 40
0.0189158141147993
 40
0.0189158141147993
 40
0.0216180732740564
 40
0.0216180732740564
 40
0.0216180732740564
 40
0.0216180732740564
 10
72.36003610122492
 20
191.3864504342561
 30
0.0
 10
72.36638405227053
 20
191.4101607844101
 30
0.0
 10
72.37286344191578
 20
191.4342040567443
 30
0.0
 10
72.38536565137159
 20
191.4802813136245
 30
0.0
 10
72.39137032321183
 20
191.5022790817687
 30
0.0
 10
72.40120715622905
 20
191.5380966597831
 30
0.0
 10
72.40500955404661
 20
191.5518896974409
 30
0.0
 10
72.41120748293643
 20
191.5742878498191
 30
0.0
 10
72.41359587461762
 20
191.5828987977748
 30
0.0
 10
72.41598706376523
 20
191.5914996953264
 30
0.0
  0
ARC
  5
182
330
71
100
AcDbEntity
  8
Sichtbare Kanten(DIN)
100
AcDbCircle
 10
116.2154805966382
 20
191.6450711238979
 30
0.0
 40
0.9999999999999966
100
AcDbArc
 50
194.9882344818915
 51
270.0
  0
ARC
  5
183
330
71
100
AcDbEntity
  8
Sichtbare Kanten(DIN)
100
AcDbCircle
 10
71.39405714757778
 20
191.6450711238979
 30
0.0
 40
0.9999999999999969
100
AcDbArc
 50
270.0
 51
345.0117655181085
  0
SPLINE
  5
184
330
71
100
AcDbEntity
  8
Sichtbare Kanten(DIN)
100
AcDbSpline
210
0.0
220
0.0
230
1.0
 70
     8
 71
     3
 72
    14
 73
    10
 74
     0
 42
0.000000001
 43
0.0000000001
 40
-0.1519294576754402
 40
-0.1519294576754402
 40
-0.1519294576754402
 40
-0.1519294576754402
 40
-0.113589327424216
 40
-0.113589327424216
 40
-0.0752491971729917
 40
-0.0752491971729917
 40
-0.0376245985864958
 40
-0.0376245985864958
 40
0.0
 40
0.0
 40
0.0
 40
0.0
 10
63.39095622061702
 20
191.6450711238979
 30
0.0
 10
63.36622065271301
 20
191.5196873025543
 30
0.0
 10
63.34065603012621
 20
191.3855965015443
 30
0.0
 10
63.29510139400565
 20
191.1383391161728
 30
0.0
 10
63.27506898732213
 20
191.0251883396281
 30
0.0
 10
63.24438048103588
 20
190.8480119405388
 30
0.0
 10
63.23155498626461
 20
190.7715941087873
 30
0.0
 10
63.2147126433329
 20
190.6701188985601
 30
0.0
 10
63.21065179055141
 20
190.6450711238979
 30
0.0
 10
63.21065179055141
 20
190.6450711238979
 30
0.0
  0
LINE
  5
185
330
71
100
AcDbEntity
  8
Sichtbare Kanten(DIN)
100
AcDbLine
 10
63.21065179055141
 20
190.6450711238979
 30
0.0
 11
71.39405714757778
 21
190.6450711238979
 31
0.0
  0
LINE
  5
186
330
71
100
AcDbEntity
  8
Sichtbare Kanten(DIN)
100
AcDbLine
 10
124.3988859536646
 20
190.6450711238979
 30
0.0
 11
128.0830726692184
 21
190.6450711238979
 31
0.0
  0
LINE
  5
187
330
71
100
AcDbEntity
  8
Sichtbare Kanten(DIN)
100
AcDbLine
 10
116.2154805966382
 20
190.6450711238979
 30
0.0
 11
124.3988859536646
 21
190.6450711238979
 31
0.0
  0
ARC
  5
188
330
71
100
AcDbEntity
  8
Sichtbare Kanten(DIN)
100
AcDbCircle
 10
119.8815784929185
 20
214.6450711238979
 30
0.0
 40
2.999999999999991
100
AcDbArc
 50
228.038111171649
 51
269.9999999999997
  0
LINE
  5
189
330
71
100
AcDbEntity
  8
Sichtbare Kanten(DIN)
100
AcDbLine
 10
59.52646507499756
 20
190.6450711238979
 30
0.0
 11
63.21065179055141
 21
190.6450711238979
 31
0.0
  0
ARC
  5
18A
330
71
100
AcDbEntity
  8
Sichtbare Kanten(DIN)
100
AcDbCircle
 10
67.72795925129753
 20
214.6450711238977
 30
0.0
 40
2.999999999999922
100
AcDbArc
 50
269.9999999999995
 51
311.9618888283518
  0
ARC
  5
18B
330
71
100
AcDbEntity
  8
Sichtbare Kanten(DIN)
100
AcDbCircle
 10
128.0830726692185
 20
192.6450711238978
 30
0.0
 40
1.999999999999988
100
AcDbArc
 50
270.0
 51
338.9307513663155
  0
LINE
  5
18C
330
71
100
AcDbEntity
  8
Sichtbare Kanten(DIN)
100
AcDbLine
 10
129.9493658997436
 20
191.9260790671297
 30
0.0
 11
134.4036485637038
 21
203.4880949535934
 31
0.0
  0
ARC
  5
18D
330
71
100
AcDbEntity
  8
Sichtbare Kanten(DIN)
100
AcDbCircle
 10
128.8047688721281
 20
205.6450711238978
 30
0.0
 40
5.999999999999975
100
AcDbArc
 50
338.9307513663148
 51
89.99999999999984
  0
LINE
  5
18E
330
71
100
AcDbEntity
  8
Sichtbare Kanten(DIN)
100
AcDbLine
 10
128.8047688721281
 20
211.6450711238978
 30
0.0
 11
119.8815784929185
 21
211.6450711238978
 31
0.0
  0
ARC
  5
18F
330
71
100
AcDbEntity
  8
Sichtbare Kanten(DIN)
100
AcDbCircle
 10
93.80476887210802
 20
185.6450711238979
 30
0.0
 40
35.99999999999984
100
AcDbArc
 50
48.03811117164848
 51
131.9618888283515
  0
SPLINE
  5
190
330
71
100
AcDbEntity
  8
Sichtbare Kanten(DIN)
100
AcDbSpline
210
0.0
220
0.0
230
1.0
 70
     8
 71
     3
 72
    14
 73
    10
 74
     0
 42
0.000000001
 43
0.0000000001
 40
0.0
 40
0.0
 40
0.0
 40
0.0
 40
0.0376245985864958
 40
0.0376245985864958
 40
0.0752491971729916
 40
0.0752491971729916
 40
0.1135893274242159
 40
0.1135893274242159
 40
0.1519294576754402
 40
0.1519294576754402
 40
0.1519294576754402
 40
0.1519294576754402
 10
124.3988859536646
 20
190.6450711238979
 30
0.0
 10
124.3988859536646
 20
190.6450711238979
 30
0.0
 10
124.3948251008831
 20
190.6701188985601
 30
0.0
 10
124.3779827579514
 20
190.7715941087873
 30
0.0
 10
124.3651572631801
 20
190.8480119405388
 30
0.0
 10
124.3344687568938
 20
191.0251883396281
 30
0.0
 10
124.3144363502103
 20
191.1383391161729
 30
0.0
 10
124.2688817140898
 20
191.3855965015443
 30
0.0
 10
124.243317091503
 20
191.5196873025544
 30
0.0
 10
124.218581523599
 20
191.6450711238979
 30
0.0
  0
ARC
  5
191
330
71
100
AcDbEntity
  8
Sichtbare Kanten(DIN)
100
AcDbCircle
 10
59.52646507499757
 20
192.6450711238978
 30
0.0
 40
2.000000000000001
100
AcDbArc
 50
201.0692486336854
 51
270.0000000000002
  0
LINE
  5
192
330
71
100
AcDbEntity
  8
Sichtbare Kanten(DIN)
100
AcDbLine
 10
53.20588918051221
 20
203.4880949535933
 30
0.0
 11
57.66017184447234
 21
191.9260790671297
 31
0.0
  0
ARC
  5
193
330
71
100
AcDbEntity
  8
Sichtbare Kanten(DIN)
100
AcDbCircle
 10
58.80476887208787
 20
205.6450711238978
 30
0.0
 40
5.999999999999983
100
AcDbArc
 50
90.0
 51
201.0692486336848
  0
LINE
  5
194
330
71
100
AcDbEntity
  8
Sichtbare Kanten(DIN)
100
AcDbLine
 10
67.7279592512975
 20
211.6450711238978
 30
0.0
 11
58.80476887208787
 21
211.6450711238978
 31
0.0
  0
ARC
  5
195
330
71
100
AcDbEntity
  8
Sichtbare Kanten(DIN)
100
AcDbCircle
 10
93.80476887210802
 20
185.6450711238979
 30
0.0
 40
30.99999999999988
100
AcDbArc
 50
11.15993687218544
 51
168.8400631278147
  0
LINE
  5
196
330
71
100
AcDbEntity
  8
Sichtbare Kanten(DIN)
100
AcDbLine
 10
113.4006868143733
 20
194.6450711238978
 30
0.0
 11
114.0986103024532
 21
194.6450711238978
 31
0.0
  0
SPLINE
  5
197
330
71
100
AcDbEntity
  8
Sichtbare Kanten(DIN)
100
AcDbSpline
210
0.0
220
0.0
230
1.0
 70
     8
 71
     3
 72
    14
 73
    10
 74
     0
 42
0.000000001
 43
0.0000000001
 40
0.0714837482440795
 40
0.0714837482440795
 40
0.0714837482440795
 40
0.0714837482440795
 40
0.0771862247172938
 40
0.0771862247172938
 40
0.081751636437925
 40
0.081751636437925
 40
0.0855448590086144
 40
0.0855448590086144
 40
0.0889378282242529
 40
0.0889378282242529
 40
0.0889378282242529
 40
0.0889378282242529
 10
97.54272440949385
 20
206.4113343505962
 30
0.0
 10
97.55157784288286
 20
206.3945138133879
 30
0.0
 10
97.55996653468873
 20
206.377350794105
 30
0.0
 10
97.57316059818835
 20
206.3484883756903
 30
0.0
 10
97.57829869495651
 20
206.3365034552619
 30
0.0
 10
97.58585563010456
 20
206.3181603818942
 30
0.0
 10
97.58851642875869
 20
206.3113849963543
 30
0.0
 10
97.59185200085719
 20
206.3027757812181
 30
0.0
 10
97.5926619025949
 20
206.3006240428973
 30
0.0
 10
97.5926619025949
 20
206.3006240428973
 30
0.0
  0
ARC
  5
198
330
71
100
AcDbEntity
  8
Sichtbare Kanten(DIN)
100
AcDbCircle
 10
93.80476887210798
 20
185.6450711238978
 30
0.0
 40
20.99999999999998
100
AcDbArc
 50
57.3916532618082
 51
79.60834673551332
  0
SPLINE
  5
199
330
71
100
AcDbEntity
  8
Sichtbare Kanten(DIN)
100
AcDbSpline
210
0.0
220
0.0
230
1.0
 70
     8
 71
     3
 72
    16
 73
    12
 74
     0
 42
0.000000001
 43
0.0000000001
 40
0.0570497367153795
 40
0.0570497367153795
 40
0.0570497367153795
 40
0.0570497367153795
 40
0.0591271003785527
 40
0.0591271003785527
 40
0.0626657622584228
 40
0.0626657622584228
 40
0.0666024243937222
 40
0.0666024243937222
 40
0.0706052688826415
 40
0.0706052688826415
 40
0.0747936549852495
 40
0.0747936549852495
 40
0.0747936549852495
 40
0.0747936549852495
 10
105.1215325006926
 20
203.334923044554
 30
0.0
 10
105.1215325006926
 20
203.334923044554
 30
0.0
 10
105.1222325332392
 20
203.3352685687876
 30
0.0
 10
105.1260249898875
 20
203.3371239159707
 30
0.0
 10
105.13037575158
 20
203.3392457437464
 30
0.0
 10
105.143093144787
 20
203.3452457389196
 30
0.0
 10
105.1516731524586
 20
203.3492011868193
 30
0.0
 10
105.1716194462323
 20
203.3579459559783
 30
0.0
 10
105.1828875107729
 20
203.3626818503344
 30
0.0
 10
105.207275194537
 20
203.372342354847
 30
0.0
 10
105.2203772239797
 20
203.37723352737
 30
0.0
 10
105.2335587188825
 20
203.3818341498353
 30
0.0
  0
SPLINE
  5
19A
330
71
100
AcDbEntity
  8
Sichtbare Kanten(DIN)
100
AcDbSpline
210
0.0
220
0.0
230
1.0
 70
     8
 71
     3
 72
    16
 73
    12
 74
     0
 42
0.000000001
 43
0.0000000001
 40
0.057049520567393
 40
0.057049520567393
 40
0.057049520567393
 40
0.057049520567393
 40
0.0591248782916429
 40
0.0591248782916429
 40
0.0626632051685731
 40
0.0626632051685731
 40
0.0665990504821223
 40
0.0665990504821223
 40
0.0706038575677823
 40
0.0706038575677823
 40
0.0747933975592283
 40
0.0747933975592283
 40
0.0747933975592283
 40
0.0747933975592283
 10
95.85705438353734
 20
206.5445477723591
 30
0.0
 10
95.85705438353734
 20
206.5445477723591
 30
0.0
 10
95.85752035229019
 20
206.5451722357483
 30
0.0
 10
95.86005370289596
 20
206.5485425523735
 30
0.0
 10
95.86296517113352
 20
206.5524060006781
 30
0.0
 10
95.8715681429083
 20
206.5635202674458
 30
0.0
 10
95.87741442413278
 20
206.5709365453612
 30
0.0
 10
95.89121569750217
 20
206.5877833243229
 30
0.0
 10
95.89910870381936
 20
206.5971227631968
 30
0.0
 10
95.91645846753591
 20
206.6168093092766
 30
0.0
 10
95.92591445996921
 20
206.6271184759276
 30
0.0
 10
95.93557327932428
 20
206.6372047119395
 30
0.0
  0
ARC
  5
19B
330
71
100
AcDbEntity
  8
Sichtbare Kanten(DIN)
100
AcDbCircle
 10
74.20885092984265
 20
195.6450711238979
 30
0.0
 40
1.000000000000004
100
AcDbArc
 50
269.9999999999995
 51
332.9643082105869
  0
ARC
  5
19C
330
71
100
AcDbEntity
  8
Sichtbare Kanten(DIN)
100
AcDbCircle
 10
93.80476887210795
 20
185.6450711238979
 30
0.0
 40
20.99999999999985
100
AcDbArc
 50
135.6865407331792
 51
152.9643082105877
  0
LINE
  5
19D
330
71
100
AcDbEntity
  8
Sichtbare Kanten(DIN)
100
AcDbLine
 10
73.51092744176276
 20
194.6450711238978
 30
0.0
 11
74.20885092984265
 21
194.6450711238978
 31
0.0
  0
ARC
  5
19E
330
71
100
AcDbEntity
  8
Sichtbare Kanten(DIN)
100
AcDbCircle
 10
113.4006868143733
 20
195.6450711238979
 30
0.0
 40
0.9999999999999952
100
AcDbArc
 50
207.0356917894131
 51
270.000000000001
  0
SPLINE
  5
19F
330
71
100
AcDbEntity
  8
Sichtbare Kanten(DIN)
100
AcDbSpline
210
0.0
220
0.0
230
1.0
 70
     8
 71
     3
 72
    14
 73
    10
 74
     0
 42
0.000000001
 43
0.0000000001
 40
0.0714834252451404
 40
0.0714834252451404
 40
0.0714834252451404
 40
0.0714834252451404
 40
0.0771860099248881
 40
0.0771860099248881
 40
0.0817514870459534
 40
0.0817514870459534
 40
0.0855447012664578
 40
0.0855447012664578
 40
0.0889374659531248
 40
0.0889374659531248
 40
0.0889374659531248
 40
0.0889374659531248
 10
106.5629978672765
 20
202.4509508362735
 30
0.0
 10
106.5632499747886
 20
202.4319438925739
 30
0.0
 10
106.5629324882044
 20
202.4128427674217
 30
0.0
 10
106.56158516857
 20
202.3811357228719
 30
0.0
 10
106.5607221801773
 20
202.3681243206844
 30
0.0
 10
106.5591278649989
 20
202.3483499125513
 30
0.0
 10
106.5584227040568
 20
202.3411052179112
 30
0.0
 10
106.5574862833682
 20
202.3319207332094
 30
0.0
 10
106.5572310709797
 20
202.3296360827556
 30
0.0
 10
106.5572310709797
 20
202.3296360827556
 30
0.0
  0
ARC
  5
1A0
330
71
100
AcDbEntity
  8
Sichtbare Kanten(DIN)
100
AcDbCircle
 10
93.80476887210802
 20
185.6450711238979
 30
0.0
 40
20.99999999999991
100
AcDbArc
 50
27.03569178941227
 51
52.60834672285175
  0
ARC
  5
1A1
330
71
100
AcDbEntity
  8
Sichtbare Kanten(DIN)
100
AcDbCircle
 10
93.80476887210802
 20
185.6450711238979
 30
0.0
 40
20.99999999999993
100
AcDbArc
 50
84.39165326334334
 51
114.1143580317575
  0
CIRCLE
  5
1A2
330
71
100
AcDbEntity
  8
Sichtbare Kanten(DIN)
100
AcDbCircle
 10
58.80476887210814
 20
205.6450711238978
 30
0.0
 40
3.499999999999987
  0
ARC
  5
1A3
330
71
100
AcDbEntity
  8
Sichtbare Kanten(DIN)
100
AcDbCircle
 10
58.80476887210814
 20
205.6450711238978
 30
0.0
 40
4.999999999999981
100
AcDbArc
 50
201.0694817568437
 51
90.00000000023236
  0
ARC
  5
1A4
330
71
100
AcDbEntity
  8
Sichtbare Kanten(DIN)
100
AcDbCircle
 10
58.80476887208788
 20
205.6450711238978
 30
0.0
 40
4.999999999999985
100
AcDbArc
 50
90.00000000000019
 51
201.0692486336849
  0
LINE
  5
1A5
330
71
100
AcDbEntity
  8
Sichtbare Kanten(DIN)
100
AcDbLine
 10
54.13904310936104
 20
203.847571998213
 30
0.0
 11
54.13903579577482
 21
203.8475909819774
 31
0.0
  0
CIRCLE
  5
1A6
330
71
100
AcDbEntity
  8
Sichtbare Kanten(DIN)
100
AcDbCircle
 10
128.8047688721078
 20
205.6450711238978
 30
0.0
 40
3.499999999999987
  0
ARC
  5
1A7
330
71
100
AcDbEntity
  8
Sichtbare Kanten(DIN)
100
AcDbCircle
 10
128.8047688721281
 20
205.6450711238978
 30
0.0
 40
4.999999999999983
100
AcDbArc
 50
338.9307513663151
 51
90.0
  0
ARC
  5
1A8
330
71
100
AcDbEntity
  8
Sichtbare Kanten(DIN)
100
AcDbCircle
 10
128.8047688721078
 20
205.6450711238978
 30
0.0
 40
4.999999999999981
100
AcDbArc
 50
89.99999999976754
 51
338.9307513663985
  0
ARC
  5
1A9
330
71
100
AcDbEntity
  8
Sichtbare Kanten(DIN)
100
AcDbCircle
 10
96.65781744210802
 20
205.9455665338978
 30
0.0
 40
0.9999999999999968
100
AcDbArc
 50
27.75992515052476
 51
136.240074848333
  0
ARC
  5
1AA
330
71
100
AcDbEntity
  8
Sichtbare Kanten(DIN)
100
AcDbCircle
 10
105.5630858221079
 20
202.4376880338978
 30
0.0
 40
0.9999999999999955
100
AcDbArc
 50
0.7599248804606919
 51
109.2400751041989
  0
SPLINE
  5
1AB
330
71
100
AcDbEntity
  8
Sichtbare Kanten(DIN)
100
AcDbSpline
210
0.0
220
0.0
230
1.0
 70
     8
 71
     3
 72
    14
 73
    10
 74
     0
 42
0.000000001
 43
0.0000000001
 40
0.0000000000000008
 40
0.0000000000000008
 40
0.0000000000000008
 40
0.0000000000000008
 40
0.0027022591592578
 40
0.0027022591592578
 40
0.007025873814069
 40
0.007025873814069
 40
0.013943657261767
 40
0.013943657261767
 40
0.021618073274057
 40
0.021618073274057
 40
0.021618073274057
 40
0.021618073274057
 10
72.41598706376525
 20
179.6986425521654
 30
0.0
 10
72.41359587461762
 20
179.7072434497171
 30
0.0
 10
72.41120748293645
 20
179.7158543976728
 30
0.0
 10
72.40500955404662
 20
179.7382525500509
 30
0.0
 10
72.40120715622905
 20
179.7520455877088
 30
0.0
 10
72.39137032321183
 20
179.7878631657232
 30
0.0
 10
72.3853656513716
 20
179.8098609338674
 30
0.0
 10
72.3728634419158
 20
179.8559381907475
 30
0.0
 10
72.36638405227053
 20
179.8799814630817
 30
0.0
 10
72.36003610122494
 20
179.9036918132358
 30
0.0
  0
ARC
  5
1AC
330
71
100
AcDbEntity
  8
Sichtbare Kanten(DIN)
100
AcDbCircle
 10
93.80476887210802
 20
185.645071123594
 30
0.0
 40
22.1999999999999
100
AcDbArc
 50
195.5367940681511
 51
344.4632059318491
  0
SPLINE
  5
1AD
330
71
100
AcDbEntity
  8
Sichtbare Kanten(DIN)
100
AcDbSpline
210
0.0
220
0.0
230
1.0
 70
     8
 71
     3
 72
    14
 73
    10
 74
     0
 42
0.000000001
 43
0.0000000001
 40
0.0
 40
0.0
 40
0.0
 40
0.0
 40
0.00767441601229
 40
0.00767441601229
 40
0.014592199459988
 40
0.014592199459988
 40
0.0189158141147993
 40
0.0189158141147993
 40
0.0216180732740564
 40
0.0216180732740564
 40
0.0216180732740564
 40
0.0216180732740564
 10
115.2495016429911
 20
179.9036918132358
 30
0.0
 10
115.2431536919455
 20
179.8799814630817
 30
0.0
 10
115.2366743023002
 20
179.8559381907475
 30
0.0
 10
115.2241720928444
 20
179.8098609338675
 30
0.0
 10
115.2181674210042
 20
179.7878631657232
 30
0.0
 10
115.208330587987
 20
179.7520455877088
 30
0.0
 10
115.2045281901694
 20
179.7382525500509
 30
0.0
 10
115.1983302612795
 20
179.7158543976728
 30
0.0
 10
115.1959418695984
 20
179.7072434497171
 30
0.0
 10
115.1935506804507
 20
179.6986425521655
 30
0.0
  0
ARC
  5
1AE
330
71
100
AcDbEntity
  8
Sichtbare Kanten(DIN)
100
AcDbCircle
 10
71.3940571475778
 20
179.645071123594
 30
0.0
 40
0.9999999999999962
100
AcDbArc
 50
14.98823448189148
 51
90.0
  0
ARC
  5
1AF
330
71
100
AcDbEntity
  8
Sichtbare Kanten(DIN)
100
AcDbCircle
 10
116.2154805966382
 20
179.645071123594
 30
0.0
 40
0.9999999999999964
100
AcDbArc
 50
90.0
 51
165.0117655181085
  0
SPLINE
  5
1B0
330
71
100
AcDbEntity
  8
Sichtbare Kanten(DIN)
100
AcDbSpline
210
0.0
220
0.0
230
1.0
 70
     8
 71
     3
 72
    14
 73
    10
 74
     0
 42
0.000000001
 43
0.0000000001
 40
-0.1519294576754402
 40
-0.1519294576754402
 40
-0.1519294576754402
 40
-0.1519294576754402
 40
-0.113589327424216
 40
-0.113589327424216
 40
-0.0752491971729917
 40
-0.0752491971729917
 40
-0.0376245985864958
 40
-0.0376245985864958
 40
0.0
 40
0.0
 40
0.0
 40
0.0
 10
124.2185815235989
 20
179.645071123594
 30
0.0
 10
124.243317091503
 20
179.7704549449375
 30
0.0
 10
124.2688817140898
 20
179.9045457459476
 30
0.0
 10
124.3144363502103
 20
180.151803131319
 30
0.0
 10
124.3344687568938
 20
180.2649539078637
 30
0.0
 10
124.3651572631801
 20
180.4421303069531
 30
0.0
 10
124.3779827579514
 20
180.5185481387046
 30
0.0
 10
124.3948251008831
 20
180.6200233489317
 30
0.0
 10
124.3988859536645
 20
180.645071123594
 30
0.0
 10
124.3988859536645
 20
180.645071123594
 30
0.0
  0
LINE
  5
1B1
330
71
100
AcDbEntity
  8
Sichtbare Kanten(DIN)
100
AcDbLine
 10
124.3988859536645
 20
180.645071123594
 30
0.0
 11
116.2154805966382
 21
180.645071123594
 31
0.0
  0
LINE
  5
1B2
330
71
100
AcDbEntity
  8
Sichtbare Kanten(DIN)
100
AcDbLine
 10
63.21065179055143
 20
180.645071123594
 30
0.0
 11
59.52646507499757
 21
180.645071123594
 31
0.0
  0
LINE
  5
1B3
330
71
100
AcDbEntity
  8
Sichtbare Kanten(DIN)
100
AcDbLine
 10
71.39405714757778
 20
180.645071123594
 30
0.0
 11
63.21065179055143
 21
180.645071123594
 31
0.0
  0
ARC
  5
1B4
330
71
100
AcDbEntity
  8
Sichtbare Kanten(DIN)
100
AcDbCircle
 10
67.72795925129749
 20
156.645071123594
 30
0.0
 40
2.999999999999989
100
AcDbArc
 50
48.03811117164912
 51
89.99999999999968
  0
LINE
  5
1B5
330
71
100
AcDbEntity
  8
Sichtbare Kanten(DIN)
100
AcDbLine
 10
128.0830726692184
 20
180.645071123594
 30
0.0
 11
124.3988859536645
 21
180.645071123594
 31
0.0
  0
ARC
  5
1B6
330
71
100
AcDbEntity
  8
Sichtbare Kanten(DIN)
100
AcDbCircle
 10
119.8815784929184
 20
156.6450711235942
 30
0.0
 40
2.99999999999992
100
AcDbArc
 50
89.99999999999968
 51
131.9618888283521
  0
ARC
  5
1B7
330
71
100
AcDbEntity
  8
Sichtbare Kanten(DIN)
100
AcDbCircle
 10
59.52646507499757
 20
178.645071123594
 30
0.0
 40
1.999999999999987
100
AcDbArc
 50
90.0
 51
158.9307513663154
  0
LINE
  5
1B8
330
71
100
AcDbEntity
  8
Sichtbare Kanten(DIN)
100
AcDbLine
 10
57.66017184447235
 20
179.3640631803622
 30
0.0
 11
53.20588918051222
 21
167.8020472938985
 31
0.0
  0
ARC
  5
1B9
330
71
100
AcDbEntity
  8
Sichtbare Kanten(DIN)
100
AcDbCircle
 10
58.80476887208788
 20
165.645071123594
 30
0.0
 40
5.99999999999997
100
AcDbArc
 50
158.9307513663148
 51
269.9999999999998
  0
LINE
  5
1BA
330
71
100
AcDbEntity
  8
Sichtbare Kanten(DIN)
100
AcDbLine
 10
58.80476887208788
 20
159.6450711235941
 30
0.0
 11
67.7279592512975
 21
159.6450711235941
 31
0.0
  0
ARC
  5
1BB
330
71
100
AcDbEntity
  8
Sichtbare Kanten(DIN)
100
AcDbCircle
 10
93.80476887210802
 20
185.645071123594
 30
0.0
 40
35.99999999999983
100
AcDbArc
 50
228.0381111716485
 51
311.9618888283515
  0
SPLINE
  5
1BC
330
71
100
AcDbEntity
  8
Sichtbare Kanten(DIN)
100
AcDbSpline
210
0.0
220
0.0
230
1.0
 70
     8
 71
     3
 72
    14
 73
    10
 74
     0
 42
0.000000001
 43
0.0000000001
 40
0.0
 40
0.0
 40
0.0
 40
0.0
 40
0.0376245985864958
 40
0.0376245985864958
 40
0.0752491971729916
 40
0.0752491971729916
 40
0.1135893274242159
 40
0.1135893274242159
 40
0.1519294576754402
 40
0.1519294576754402
 40
0.1519294576754402
 40
0.1519294576754402
 10
63.21065179055143
 20
180.645071123594
 30
0.0
 10
63.21065179055143
 20
180.645071123594
 30
0.0
 10
63.21471264333291
 20
180.6200233489317
 30
0.0
 10
63.23155498626462
 20
180.5185481387046
 30
0.0
 10
63.24438048103589
 20
180.4421303069531
 30
0.0
 10
63.27506898732216
 20
180.2649539078637
 30
0.0
 10
63.29510139400568
 20
180.151803131319
 30
0.0
 10
63.34065603012621
 20
179.9045457459476
 30
0.0
 10
63.36622065271303
 20
179.7704549449375
 30
0.0
 10
63.39095622061704
 20
179.645071123594
 30
0.0
  0
ARC
  5
1BD
330
71
100
AcDbEntity
  8
Sichtbare Kanten(DIN)
100
AcDbCircle
 10
128.0830726692184
 20
178.645071123594
 30
0.0
 40
2.000000000000001
100
AcDbArc
 50
21.06924863368531
 51
90.0
  0
LINE
  5
1BE
330
71
100
AcDbEntity
  8
Sichtbare Kanten(DIN)
100
AcDbLine
 10
134.4036485637037
 20
167.8020472938985
 30
0.0
 11
129.9493658997436
 21
179.3640631803622
 31
0.0
  0
ARC
  5
1BF
330
71
100
AcDbEntity
  8
Sichtbare Kanten(DIN)
100
AcDbCircle
 10
128.8047688721281
 20
165.6450711235941
 30
0.0
 40
5.999999999999979
100
AcDbArc
 50
270.0
 51
21.06924863368481
  0
LINE
  5
1C0
330
71
100
AcDbEntity
  8
Sichtbare Kanten(DIN)
100
AcDbLine
 10
119.8815784929185
 20
159.6450711235941
 30
0.0
 11
128.8047688721281
 21
159.6450711235941
 31
0.0
  0
ARC
  5
1C1
330
71
100
AcDbEntity
  8
Sichtbare Kanten(DIN)
100
AcDbCircle
 10
93.80476887210802
 20
185.645071123594
 30
0.0
 40
30.99999999999987
100
AcDbArc
 50
191.1599368721854
 51
348.8400631278147
  0
LINE
  5
1C2
330
71
100
AcDbEntity
  8
Sichtbare Kanten(DIN)
100
AcDbLine
 10
74.20885092984267
 20
176.645071123594
 30
0.0
 11
73.51092744176277
 21
176.645071123594
 31
0.0
  0
SPLINE
  5
1C3
330
71
100
AcDbEntity
  8
Sichtbare Kanten(DIN)
100
AcDbSpline
210
0.0
220
0.0
230
1.0
 70
     8
 71
     3
 72
    14
 73
    10
 74
     0
 42
0.000000001
 43
0.0000000001
 40
0.0714837482440795
 40
0.0714837482440795
 40
0.0714837482440795
 40
0.0714837482440795
 40
0.0771862247172938
 40
0.0771862247172938
 40
0.081751636437925
 40
0.081751636437925
 40
0.0855448590086144
 40
0.0855448590086144
 40
0.0889378282242529
 40
0.0889378282242529
 40
0.0889378282242529
 40
0.0889378282242529
 10
90.06681333472219
 20
164.8788078968957
 30
0.0
 10
90.05795990133316
 20
164.895628434104
 30
0.0
 10
90.04957120952727
 20
164.9127914533869
 30
0.0
 10
90.03637714602765
 20
164.9416538718016
 30
0.0
 10
90.03123904925949
 20
164.95363879223
 30
0.0
 10
90.02368211411146
 20
164.9719818655977
 30
0.0
 10
90.02102131545731
 20
164.9787572511375
 30
0.0
 10
90.01768574335882
 20
164.9873664662738
 30
0.0
 10
90.01687584162111
 20
164.9895182045946
 30
0.0
 10
90.01687584162111
 20
164.9895182045946
 30
0.0
  0
ARC
  5
1C4
330
71
100
AcDbEntity
  8
Sichtbare Kanten(DIN)
100
AcDbCircle
 10
93.80476887210802
 20
185.645071123594
 30
0.0
 40
20.99999999999997
100
AcDbArc
 50
237.3916532618082
 51
259.6083467355133
  0
SPLINE
  5
1C5
330
71
100
AcDbEntity
  8
Sichtbare Kanten(DIN)
100
AcDbSpline
210
0.0
220
0.0
230
1.0
 70
     8
 71
     3
 72
    16
 73
    12
 74
     0
 42
0.000000001
 43
0.0000000001
 40
0.0570497367153795
 40
0.0570497367153795
 40
0.0570497367153795
 40
0.0570497367153795
 40
0.0591271003785527
 40
0.0591271003785527
 40
0.0626657622584228
 40
0.0626657622584228
 40
0.0666024243937222
 40
0.0666024243937222
 40
0.0706052688826415
 40
0.0706052688826415
 40
0.0747936549852495
 40
0.0747936549852495
 40
0.0747936549852495
 40
0.0747936549852495
 10
82.48800524352333
 20
167.9552192029379
 30
0.0
 10
82.48800524352333
 20
167.9552192029379
 30
0.0
 10
82.48730521097677
 20
167.9548736787043
 30
0.0
 10
82.48351275432845
 20
167.9530183315211
 30
0.0
 10
82.47916199263601
 20
167.9508965037455
 30
0.0
 10
82.46644459942897
 20
167.9448965085723
 30
0.0
 10
82.45786459175741
 20
167.9409410606726
 30
0.0
 10
82.43791829798372
 20
167.9321962915136
 30
0.0
 10
82.4266502334431
 20
167.9274603971575
 30
0.0
 10
82.40226254967906
 20
167.917799892645
 30
0.0
 10
82.38916052023625
 20
167.9129087201218
 30
0.0
 10
82.37597902533352
 20
167.9083080976566
 30
0.0
  0
SPLINE
  5
1C6
330
71
100
AcDbEntity
  8
Sichtbare Kanten(DIN)
100
AcDbSpline
210
0.0
220
0.0
230
1.0
 70
     8
 71
     3
 72
    16
 73
    12
 74
     0
 42
0.000000001
 43
0.0000000001
 40
0.057049520567393
 40
0.057049520567393
 40
0.057049520567393
 40
0.057049520567393
 40
0.0591248782916429
 40
0.0591248782916429
 40
0.0626632051685731
 40
0.0626632051685731
 40
0.0665990504821223
 40
0.0665990504821223
 40
0.0706038575677823
 40
0.0706038575677823
 40
0.0747933975592283
 40
0.0747933975592283
 40
0.0747933975592283
 40
0.0747933975592283
 10
91.75248336067866
 20
164.7455944751328
 30
0.0
 10
91.75248336067866
 20
164.7455944751328
 30
0.0
 10
91.75201739192582
 20
164.7449700117437
 30
0.0
 10
91.74948404132004
 20
164.7415996951184
 30
0.0
 10
91.74657257308252
 20
164.7377362468138
 30
0.0
 10
91.73796960130772
 20
164.7266219800461
 30
0.0
 10
91.73212332008322
 20
164.7192057021307
 30
0.0
 10
91.71832204671387
 20
164.702358923169
 30
0.0
 10
91.71042904039664
 20
164.6930194842951
 30
0.0
 10
91.69307927668009
 20
164.6733329382153
 30
0.0
 10
91.68362328424679
 20
164.6630237715643
 30
0.0
 10
91.67396446489176
 20
164.6529375355524
 30
0.0
  0
ARC
  5
1C7
330
71
100
AcDbEntity
  8
Sichtbare Kanten(DIN)
100
AcDbCircle
 10
113.4006868143733
 20
175.645071123594
 30
0.0
 40
1.000000000000004
100
AcDbArc
 50
90.0
 51
152.9643082105869
  0
ARC
  5
1C8
330
71
100
AcDbEntity
  8
Sichtbare Kanten(DIN)
100
AcDbCircle
 10
93.80476887210802
 20
185.6450711235939
 30
0.0
 40
20.99999999999988
100
AcDbArc
 50
315.6865407331792
 51
332.9643082105878
  0
LINE
  5
1C9
330
71
100
AcDbEntity
  8
Sichtbare Kanten(DIN)
100
AcDbLine
 10
114.0986103024532
 20
176.645071123594
 30
0.0
 11
113.4006868143733
 21
176.645071123594
 31
0.0
  0
ARC
  5
1CA
330
71
100
AcDbEntity
  8
Sichtbare Kanten(DIN)
100
AcDbCircle
 10
74.20885092984265
 20
175.645071123594
 30
0.0
 40
0.9999999999999948
100
AcDbArc
 50
27.03569178941333
 51
90.00000000000047
  0
SPLINE
  5
1CB
330
71
100
AcDbEntity
  8
Sichtbare Kanten(DIN)
100
AcDbSpline
210
0.0
220
0.0
230
1.0
 70
     8
 71
     3
 72
    14
 73
    10
 74
     0
 42
0.000000001
 43
0.0000000001
 40
0.0714834252451404
 40
0.0714834252451404
 40
0.0714834252451404
 40
0.0714834252451404
 40
0.0771860099248881
 40
0.0771860099248881
 40
0.0817514870459534
 40
0.0817514870459534
 40
0.0855447012664578
 40
0.0855447012664578
 40
0.0889374659531248
 40
0.0889374659531248
 40
0.0889374659531248
 40
0.0889374659531248
 10
81.04653987693952
 20
168.8391914112184
 30
0.0
 10
81.04628776942739
 20
168.858198354918
 30
0.0
 10
81.04660525601159
 20
168.8772994800701
 30
0.0
 10
81.04795257564596
 20
168.90900652462
 30
0.0
 10
81.04881556403871
 20
168.9220179268075
 30
0.0
 10
81.05040987921706
 20
168.9417923349407
 30
0.0
 10
81.05111504015916
 20
168.9490370295807
 30
0.0
 10
81.05205146084779
 20
168.9582215142825
 30
0.0
 10
81.05230667323626
 20
168.9605061647363
 30
0.0
 10
81.05230667323626
 20
168.9605061647363
 30
0.0
  0
ARC
  5
1CC
330
71
100
AcDbEntity
  8
Sichtbare Kanten(DIN)
100
AcDbCircle
 10
93.80476887210802
 20
185.645071123594
 30
0.0
 40
20.9999999999999
100
AcDbArc
 50
207.0356917894123
 51
232.6083467228517
  0
ARC
  5
1CD
330
71
100
AcDbEntity
  8
Sichtbare Kanten(DIN)
100
AcDbCircle
 10
93.80476887210802
 20
185.645071123594
 30
0.0
 40
20.99999999999992
100
AcDbArc
 50
264.3916532633433
 51
294.1143580317575
  0
CIRCLE
  5
1CE
330
71
100
AcDbEntity
  8
Sichtbare Kanten(DIN)
100
AcDbCircle
 10
128.8047688721078
 20
165.6450711235941
 30
0.0
 40
3.499999999999985
  0
ARC
  5
1CF
330
71
100
AcDbEntity
  8
Sichtbare Kanten(DIN)
100
AcDbCircle
 10
128.8047688721078
 20
165.6450711235941
 30
0.0
 40
4.999999999999978
100
AcDbArc
 50
21.06948175684371
 51
270.000000000232
  0
ARC
  5
1D0
330
71
100
AcDbEntity
  8
Sichtbare Kanten(DIN)
100
AcDbCircle
 10
128.8047688721281
 20
165.6450711235941
 30
0.0
 40
4.999999999999983
100
AcDbArc
 50
270.0
 51
21.06924863368481
  0
LINE
  5
1D1
330
71
100
AcDbEntity
  8
Sichtbare Kanten(DIN)
100
AcDbLine
 10
133.4704946348549
 20
167.4425702492789
 30
0.0
 11
133.4705019484412
 21
167.4425512655145
 31
0.0
  0
CIRCLE
  5
1D2
330
71
100
AcDbEntity
  8
Sichtbare Kanten(DIN)
100
AcDbCircle
 10
58.80476887210817
 20
165.645071123594
 30
0.0
 40
3.499999999999985
  0
ARC
  5
1D3
330
71
100
AcDbEntity
  8
Sichtbare Kanten(DIN)
100
AcDbCircle
 10
58.80476887208789
 20
165.645071123594
 30
0.0
 40
4.999999999999981
100
AcDbArc
 50
158.9307513663151
 51
270.0
  0
ARC
  5
1D4
330
71
100
AcDbEntity
  8
Sichtbare Kanten(DIN)
100
AcDbCircle
 10
58.80476887210817
 20
165.645071123594
 30
0.0
 40
4.999999999999979
100
AcDbArc
 50
269.9999999997676
 51
158.9307513663985
  0
ARC
  5
1D5
330
71
100
AcDbEntity
  8
Sichtbare Kanten(DIN)
100
AcDbCircle
 10
90.95172030210802
 20
165.3445757135941
 30
0.0
 40
0.9999999999999964
100
AcDbArc
 50
207.7599251505247
 51
316.240074848333
  0
ARC
  5
1D6
330
71
100
AcDbEntity
  8
Sichtbare Kanten(DIN)
100
AcDbCircle
 10
82.04645192210804
 20
168.852454213594
 30
0.0
 40
0.9999999999999952
100
AcDbArc
 50
180.7599248804607
 51
289.2400751041989
  0
ARC
  5
1D7
330
71
100
AcDbEntity
  8
Sichtbare Kanten(DIN)
100
AcDbCircle
 10
93.80476887210795
 20
185.6450711238979
 30
0.0
 40
26.04999999999839
100
AcDbArc
 50
168.934060846096
 51
191.0659391545852
  0
ARC
  5
1D8
330
71
100
AcDbEntity
  8
Sichtbare Kanten(DIN)
100
AcDbCircle
 10
93.80476887210793
 20
185.6450711238979
 30
0.0
 40
30.94999999907759
100
AcDbArc
 50
170.7030731944045
 51
189.2969268061655
  0
ARC
  5
1D9
330
71
100
AcDbEntity
  8
Sichtbare Kanten(DIN)
100
AcDbCircle
 10
93.80476887210802
 20
185.6450711238979
 30
0.0
 40
20.94999999999875
100
AcDbArc
 50
87.50276834796107
 51
232.4972316520389
  0
ARC
  5
1DA
330
71
100
AcDbEntity
  8
Sichtbare Kanten(DIN)
100
AcDbCircle
 10
94.67401264657327
 20
205.5761251667854
 30
0.0
 40
1.000000000000014
100
AcDbArc
 50
70.00000000000063
 51
87.5027683479603
  0
ARC
  5
1DB
330
71
100
AcDbEntity
  8
Sichtbare Kanten(DIN)
100
AcDbCircle
 10
81.65921364849197
 20
169.8182588008164
 30
0.0
 40
0.999999999999998
100
AcDbArc
 50
232.4972316520392
 51
249.9999999999987
  0
ARC
  5
1DC
330
71
100
AcDbEntity
  8
Sichtbare Kanten(DIN)
100
AcDbCircle
 10
94.67401264657327
 20
205.5761251667855
 30
0.0
 40
0.9999999999999406
100
AcDbArc
 50
340.0000000000002
 51
69.99999999999833
  0
ARC
  5
1DD
330
71
100
AcDbEntity
  8
Sichtbare Kanten(DIN)
100
AcDbCircle
 10
81.65921364849195
 20
169.8182588008164
 30
0.0
 40
0.9999999999999429
100
AcDbArc
 50
250.0000000000002
 51
340.0000000000005
  0
LINE
  5
1DE
330
71
100
AcDbEntity
  8
Sichtbare Kanten(DIN)
100
AcDbLine
 10
82.59890626927777
 20
169.4762386574907
 30
0.0
 11
95.61370526735913
 21
205.2341050234598
 31
0.0
  0
LINE
  5
1DF
330
71
100
AcDbEntity
  8
Sichtbare Kanten(DIN)
100
AcDbLine
 10
82.0081639472254
 20
167.8531874669356
 30
0.0
 11
82.59890626927779
 21
169.4762386574907
 31
0.0
  0
LINE
  5
1E0
330
71
100
AcDbEntity
  8
Sichtbare Kanten(DIN)
100
AcDbLine
 10
95.61370526735913
 20
205.2341050234598
 30
0.0
 11
96.19536887132676
 21
206.8322126410795
 31
0.0
  0
LINE
  5
1E1
330
71
100
AcDbEntity
  8
Sichtbare Kanten(DIN)
100
AcDbLine
 10
69.05193232638968
 20
212.9574150026664
 30
0.0
 11
69.48740457936209
 21
212.2151838554091
 31
0.0
  0
LINE
  5
1E2
330
71
100
AcDbEntity
  8
Sichtbare Kanten(DIN)
100
AcDbLine
 10
77.16587061572721
 20
217.5691539582356
 30
0.0
 11
76.6055295759456
 21
218.2465007374055
 31
0.0
  0
LINE
  5
1E3
330
71
100
AcDbEntity
  8
Sichtbare Kanten(DIN)
100
AcDbLine
 10
65.11736683940203
 20
219.6635990027544
 30
0.0
 11
69.05193232638968
 21
212.9574150026664
 31
0.0
  0
ARC
  5
1E4
330
71
100
AcDbEntity
  8
Sichtbare Kanten(DIN)
100
AcDbCircle
 10
69.31068523646612
 20
213.1092271613592
 30
0.0
 40
0.2999999999999817
100
AcDbArc
 50
210.4004493824717
 51
311.7283798173251
  0
SPLINE
  5
1E5
330
71
100
AcDbEntity
  8
Sichtbare Kanten(DIN)
100
AcDbSpline
210
0.0
220
0.0
230
1.0
 70
     8
 71
     3
 72
    14
 73
    10
 74
     0
 42
0.000000001
 43
0.0000000001
 40
0.0
 40
0.0
 40
0.0
 40
0.0
 40
0.0334628080721487
 40
0.0334628080721487
 40
0.0870033009875866
 40
0.0870033009875866
 40
0.1726680896522873
 40
0.1726680896522873
 40
0.2677024645771896
 40
0.2677024645771896
 40
0.2677024645771896
 40
0.2677024645771896
 10
69.51036526610451
 20
212.8853345849668
 30
0.0
 10
69.51036526610451
 20
212.8853345849668
 30
0.0
 10
69.51873607825456
 20
212.8928070359179
 30
0.0
 10
69.56221228699677
 20
212.9315097569975
 30
0.0
 10
69.6097569376295
 20
212.9737980189639
 30
0.0
 10
69.78333399909785
 20
213.1267183116396
 30
0.0
 10
69.93804278064603
 20
213.2618928361029
 30
0.0
 10
70.329435271224
 20
213.5955967961871
 30
0.0
 10
70.57043329473076
 20
213.7967028911642
 30
0.0
 10
70.81447138198504
 20
213.9946076512468
 30
0.0
  0
SPLINE
  5
1E6
330
71
100
AcDbEntity
  8
Sichtbare Kanten(DIN)
100
AcDbSpline
210
0.0
220
0.0
230
1.0
 70
     8
 71
     3
 72
    14
 73
    10
 74
     0
 42
0.000000001
 43
0.0000000001
 40
-0.2676842110644549
 40
-0.2676842110644549
 40
-0.2676842110644549
 40
-0.2676842110644549
 40
-0.1726563161365735
 40
-0.1726563161365735
 40
-0.0869973685959479
 40
-0.0869973685959479
 40
-0.0334605263830569
 40
-0.0334605263830569
 40
0.0
 40
0.0
 40
0.0
 40
0.0
 10
75.02806343732942
 20
216.9449965713394
 30
0.0
 10
75.29748064989011
 20
217.1066189256101
 30
0.0
 10
75.56893369056715
 20
217.2643282469252
 30
0.0
 10
76.01617067442669
 20
217.5178679156323
 30
0.0
 10
76.19617161753057
 20
217.6170524045765
 30
0.0
 10
76.39933040515754
 20
217.7279113242653
 30
0.0
 10
76.45532971448244
 20
217.7581252436117
 30
0.0
 10
76.50658646859962
 20
217.7857523097327
 30
0.0
 10
76.51646971281457
 20
217.7910617320378
 30
0.0
 10
76.51646971281457
 20
217.7910617320378
 30
0.0
  0
ARC
  5
1E7
330
71
100
AcDbEntity
  8
Sichtbare Kanten(DIN)
100
AcDbCircle
 10
76.37437410328613
 20
218.0552753534745
 30
0.0
 40
0.2999999999999834
100
AcDbArc
 50
298.2716201826795
 51
39.59955061752416
  0
LINE
  5
1E8
330
71
100
AcDbEntity
  8
Sichtbare Kanten(DIN)
100
AcDbLine
 10
76.6055295759456
 20
218.2465007374055
 30
0.0
 11
71.64947860921413
 21
224.2374329044052
 31
0.0
  0
ARC
  5
1E9
330
71
100
AcDbEntity
  8
Sichtbare Kanten(DIN)
100
AcDbCircle
 10
68.56740564042121
 20
221.6877611186582
 30
0.0
 40
3.999999999999761
100
AcDbArc
 50
39.59955061753138
 51
210.4004493824683
  0
ARC
  5
1EA
330
71
100
AcDbEntity
  8
Sichtbare Kanten(DIN)
100
AcDbCircle
 10
93.80476887210768
 20
185.6450711238983
 30
0.0
 40
36.49999999999727
100
AcDbArc
 50
120.9593821022854
 51
129.0406178977144
  0
ARC
  5
1EB
330
71
100
AcDbEntity
  8
Sichtbare Kanten(DIN)
100
AcDbCircle
 10
93.80476887210804
 20
185.645071123594
 30
0.0
 40
26.04999999999838
100
AcDbArc
 50
348.934060846096
 51
11.06593915458512
  0
ARC
  5
1EC
330
71
100
AcDbEntity
  8
Sichtbare Kanten(DIN)
100
AcDbCircle
 10
93.80476887210825
 20
185.645071123594
 30
0.0
 40
30.94999999907738
100
AcDbArc
 50
350.7030731944046
 51
9.296926806165563
  0
ARC
  5
1ED
330
71
100
AcDbEntity
  8
Sichtbare Kanten(DIN)
100
AcDbCircle
 10
93.80476887210798
 20
185.645071123594
 30
0.0
 40
20.94999999999874
100
AcDbArc
 50
267.502768347961
 51
52.49723165203895
  0
ARC
  5
1EE
330
71
100
AcDbEntity
  8
Sichtbare Kanten(DIN)
100
AcDbCircle
 10
92.93552509764271
 20
165.7140170807065
 30
0.0
 40
1.000000000000014
100
AcDbArc
 50
250.0000000000006
 51
267.5027683479603
  0
ARC
  5
1EF
330
71
100
AcDbEntity
  8
Sichtbare Kanten(DIN)
100
AcDbCircle
 10
105.950324095724
 20
201.4718834466755
 30
0.0
 40
0.9999999999999975
100
AcDbArc
 50
52.49723165203921
 51
69.99999999999871
  0
ARC
  5
1F0
330
71
100
AcDbEntity
  8
Sichtbare Kanten(DIN)
100
AcDbCircle
 10
92.93552509764271
 20
165.7140170807064
 30
0.0
 40
0.9999999999999399
100
AcDbArc
 50
160.0000000000002
 51
249.9999999999983
  0
ARC
  5
1F1
330
71
100
AcDbEntity
  8
Sichtbare Kanten(DIN)
100
AcDbCircle
 10
105.950324095724
 20
201.4718834466755
 30
0.0
 40
0.9999999999999426
100
AcDbArc
 50
70.00000000000018
 51
160.0000000000005
  0
LINE
  5
1F2
330
71
100
AcDbEntity
  8
Sichtbare Kanten(DIN)
100
AcDbLine
 10
105.0106314749382
 20
201.8139035900012
 30
0.0
 11
91.99583247685685
 21
166.0560372240321
 31
0.0
  0
LINE
  5
1F3
330
71
100
AcDbEntity
  8
Sichtbare Kanten(DIN)
100
AcDbLine
 10
105.6013737969906
 20
203.4369547805563
 30
0.0
 11
105.0106314749382
 21
201.8139035900012
 31
0.0
  0
LINE
  5
1F4
330
71
100
AcDbEntity
  8
Sichtbare Kanten(DIN)
100
AcDbLine
 10
91.99583247685685
 20
166.056037224032
 30
0.0
 11
91.41416887288924
 21
164.4579296064124
 31
0.0
  0
LINE
  5
1F5
330
71
100
AcDbEntity
  8
Sichtbare Kanten(DIN)
100
AcDbLine
 10
118.5576054178263
 20
158.3327272448255
 30
0.0
 11
118.1221331648539
 21
159.0749583920828
 31
0.0
  0
LINE
  5
1F6
330
71
100
AcDbEntity
  8
Sichtbare Kanten(DIN)
100
AcDbLine
 10
110.4436671284887
 20
153.7209882892563
 30
0.0
 11
111.0040081682704
 21
153.0436415100863
 31
0.0
  0
LINE
  5
1F7
330
71
100
AcDbEntity
  8
Sichtbare Kanten(DIN)
100
AcDbLine
 10
122.4921709048139
 20
151.6265432447375
 30
0.0
 11
118.5576054178263
 21
158.3327272448255
 31
0.0
  0
ARC
  5
1F8
330
71
100
AcDbEntity
  8
Sichtbare Kanten(DIN)
100
AcDbCircle
 10
118.2988525077498
 20
158.1809150861327
 30
0.0
 40
0.2999999999999816
100
AcDbArc
 50
30.40044938246795
 51
131.7283798173203
  0
SPLINE
  5
1F9
330
71
100
AcDbEntity
  8
Sichtbare Kanten(DIN)
100
AcDbSpline
210
0.0
220
0.0
230
1.0
 70
     8
 71
     3
 72
    14
 73
    10
 74
     0
 42
0.000000001
 43
0.0000000001
 40
0.0
 40
0.0
 40
0.0
 40
0.0
 40
0.0334628080721487
 40
0.0334628080721487
 40
0.0870033009875866
 40
0.0870033009875866
 40
0.1726680896522873
 40
0.1726680896522873
 40
0.2677024645771896
 40
0.2677024645771896
 40
0.2677024645771896
 40
0.2677024645771896
 10
118.0991724781114
 20
158.4048076625251
 30
0.0
 10
118.0991724781114
 20
158.4048076625251
 30
0.0
 10
118.0908016659614
 20
158.3973352115741
 30
0.0
 10
118.0473254572192
 20
158.3586324904944
 30
0.0
 10
117.9997808065865
 20
158.316344228528
 30
0.0
 10
117.8262037451181
 20
158.1634239358523
 30
0.0
 10
117.6714949635699
 20
158.028249411389
 30
0.0
 10
117.280102472992
 20
157.6945454513048
 30
0.0
 10
117.0391044494852
 20
157.4934393563277
 30
0.0
 10
116.7950663622309
 20
157.2955345962452
 30
0.0
  0
SPLINE
  5
1FA
330
71
100
AcDbEntity
  8
Sichtbare Kanten(DIN)
100
AcDbSpline
210
0.0
220
0.0
230
1.0
 70
     8
 71
     3
 72
    14
 73
    10
 74
     0
 42
0.000000001
 43
0.0000000001
 40
-0.2676842110644549
 40
-0.2676842110644549
 40
-0.2676842110644549
 40
-0.2676842110644549
 40
-0.1726563161365735
 40
-0.1726563161365735
 40
-0.0869973685959479
 40
-0.0869973685959479
 40
-0.0334605263830569
 40
-0.0334605263830569
 40
0.0
 40
0.0
 40
0.0
 40
0.0
 10
112.5814743068866
 20
154.3451456761525
 30
0.0
 10
112.3120570943259
 20
154.1835233218819
 30
0.0
 10
112.0406040536488
 20
154.0258140005667
 30
0.0
 10
111.5933670697893
 20
153.7722743318596
 30
0.0
 10
111.4133661266854
 20
153.6730898429154
 30
0.0
 10
111.2102073390584
 20
153.5622309232266
 30
0.0
 10
111.1542080297335
 20
153.5320170038802
 30
0.0
 10
111.1029512756163
 20
153.5043899377592
 30
0.0
 10
111.0930680314014
 20
153.4990805154541
 30
0.0
 10
111.0930680314014
 20
153.4990805154541
 30
0.0
  0
ARC
  5
1FB
330
71
100
AcDbEntity
  8
Sichtbare Kanten(DIN)
100
AcDbCircle
 10
111.2351636409298
 20
153.2348668940174
 30
0.0
 40
0.2999999999999833
100
AcDbArc
 50
118.2716201826794
 51
219.5995506175304
  0
LINE
  5
1FC
330
71
100
AcDbEntity
  8
Sichtbare Kanten(DIN)
100
AcDbLine
 10
111.0040081682704
 20
153.0436415100863
 30
0.0
 11
115.9600591350018
 21
147.0527093430867
 31
0.0
  0
ARC
  5
1FD
330
71
100
AcDbEntity
  8
Sichtbare Kanten(DIN)
100
AcDbCircle
 10
119.0421321037947
 20
149.6023811288337
 30
0.0
 40
3.999999999999759
100
AcDbArc
 50
219.5995506175314
 51
30.40044938246855
  0
ARC
  5
1FE
330
71
100
AcDbEntity
  8
Sichtbare Kanten(DIN)
100
AcDbCircle
 10
93.8047688721083
 20
185.6450711235935
 30
0.0
 40
36.49999999999725
100
AcDbArc
 50
300.9593821022855
 51
309.0406178977145
  0
SPLINE
  5
1FF
330
71
100
AcDbEntity
  8
Sichtbare Kanten(DIN)
100
AcDbSpline
210
0.0
220
0.0
230
1.0
 70
    24
 71
     3
 72
    10
 73
     6
 74
     0
 42
0.000000001
 43
0.0000000001
 40
0.0
 40
0.0
 40
0.0
 40
0.0
 40
0.0025124440643325
 40
0.0025124440643325
 40
0.005024888128665
 40
0.005024888128665
 40
0.005024888128665
 40
0.005024888128665
 10
84.86425920642405
 20
205.3295773894294
 30
0.0
 10
84.85946753753999
 20
205.3364459708888
 30
0.0
 10
84.8546673950182
 20
205.3433266988201
 30
0.0
 10
84.84510095708829
 20
205.357039636794
 30
0.0
 10
84.84033477685699
 20
205.3638716817372
 30
0.0
 10
84.83561068532813
 20
205.3706433949489
 30
0.0
  0
LINE
  5
200
330
71
100
AcDbEntity
  8
Sichtbare Kanten(DIN)
100
AcDbLine
 10
85.25414907520501
 20
204.7706927108882
 30
0.0
 11
84.86425920642405
 21
205.3295773894294
 31
0.0
  0
LINE
  5
201
330
71
100
AcDbEntity
  8
Sichtbare Kanten(DIN)
100
AcDbLine
 10
78.41790073366396
 20
200.8324602639071
 30
0.0
 11
78.80779060244491
 21
200.273575585366
 31
0.0
  0
SPLINE
  5
202
330
71
100
AcDbEntity
  8
Sichtbare Kanten(DIN)
100
AcDbSpline
210
0.0
220
0.0
230
1.0
 70
    24
 71
     3
 72
    10
 73
     6
 74
     0
 42
0.000000001
 43
0.0000000001
 40
0.0
 40
0.0
 40
0.0
 40
0.0
 40
0.0025124440643325
 40
0.0025124440643325
 40
0.005024888128665
 40
0.005024888128665
 40
0.005024888128665
 40
0.005024888128665
 10
78.38925221256804
 20
200.8735262694267
 30
0.0
 10
78.39397630409692
 20
200.866754556215
 30
0.0
 10
78.3987424843282
 20
200.8599225112718
 30
0.0
 10
78.40830892225811
 20
200.8462095732979
 30
0.0
 10
78.4131090647799
 20
200.8393288453666
 30
0.0
 10
78.41790073366396
 20
200.8324602639071
 30
0.0
  0
SPLINE
  5
203
330
71
100
AcDbEntity
  8
Sichtbare Kanten(DIN)
100
AcDbSpline
210
0.0
220
0.0
230
1.0
 70
     8
 71
     3
 72
    18
 73
    14
 74
     0
 42
0.000000001
 43
0.0000000001
 40
-0.0003334227258055
 40
-0.0003334227258055
 40
-0.0003334227258055
 40
-0.0003334227258055
 40
0.0110806536443804
 40
0.0110806536443804
 40
0.0228063454692431
 40
0.0228063454692431
 40
0.0304916837607566
 40
0.0304916837607566
 40
0.0388627408495082
 40
0.0388627408495082
 40
0.0457211973299736
 40
0.0457211973299736
 40
0.0500077326302645
 40
0.0500077326302645
 40
0.0500077326302645
 40
0.0500077326302645
 10
78.43791380303253
 20
201.388633785696
 30
0.0
 10
78.41127037965953
 20
201.362627878754
 30
0.0
 10
78.3880702007713
 20
201.3327149572681
 30
0.0
 10
78.35000699113431
 20
201.2655387061358
 30
0.0
 10
78.33527241601892
 20
201.2280459722139
 30
0.0
 10
78.32060857472306
 20
201.1604917156101
 30
0.0
 10
78.31739444939209
 20
201.1324556495324
 30
0.0
 10
78.31722378500552
 20
201.0719948113613
 30
0.0
 10
78.32090479755724
 20
201.0387416903776
 30
0.0
 10
78.33613058613718
 20
200.9778908710432
 30
0.0
 10
78.34612247264335
 20
200.9502622409081
 30
0.0
 10
78.36825072642034
 20
200.9061287553876
 30
0.0
 10
78.37813514360401
 20
200.8894619477086
 30
0.0
 10
78.38925221256804
 20
200.8735262694267
 30
0.0
  0
SPLINE
  5
204
330
71
100
AcDbEntity
  8
Sichtbare Kanten(DIN)
100
AcDbSpline
210
0.0
220
0.0
230
1.0
 70
     8
 71
     3
 72
    18
 73
    14
 74
     0
 42
0.000000001
 43
0.0000000001
 40
0.0
 40
0.0
 40
0.0
 40
0.0
 40
0.0042867211828172
 40
0.0042867211828172
 40
0.0111454750753246
 40
0.0111454750753246
 40
0.0195175467052085
 40
0.0195175467052085
 40
0.0272040845939384
 40
0.0272040845939384
 40
0.0389312385719408
 40
0.0389312385719408
 40
0.0503411479858135
 40
0.0503411479858135
 40
0.0503411479858135
 40
0.0503411479858135
 10
84.83561068532811
 20
205.3706433949489
 30
0.0
 10
84.82449313428038
 20
205.3865797642701
 30
0.0
 10
84.81226370670539
 20
205.401611661602
 30
0.0
 10
84.7784833651146
 20
205.4376188724223
 30
0.0
 10
84.7560028488613
 20
205.4565364603191
 30
0.0
 10
84.70414691576403
 20
205.4918387107259
 30
0.0
 10
84.67420602219219
 20
205.5067758566724
 30
0.0
 10
84.61739677297741
 20
205.5274919464482
 30
0.0
 10
84.58997094083201
 20
205.5341552088933
 30
0.0
 10
84.52149932261235
 20
205.5437147741166
 30
0.0
 10
84.48122051528466
 20
205.5428283265146
 30
0.0
 10
84.40504449554834
 20
205.5302945800188
 30
0.0
 10
84.36897481048545
 20
205.5188522335373
 30
0.0
 10
84.33538104215406
 20
205.5028326826903
 30
0.0
  0
ARC
  5
205
330
71
100
AcDbEntity
  8
Sichtbare Kanten(DIN)
100
AcDbCircle
 10
93.80476887210793
 20
185.645071123898
 30
0.0
 40
21.99999999999835
100
AcDbArc
 50
115.4946438818819
 51
134.3062548830547
  0
SPLINE
  5
206
330
71
100
AcDbEntity
  8
Sichtbare Kanten(DIN)
100
AcDbSpline
210
0.0
220
0.0
230
1.0
 70
    24
 71
     3
 72
    10
 73
     6
 74
     0
 42
0.000000001
 43
0.0000000001
 40
0.0
 40
0.0
 40
0.0
 40
0.0
 40
0.0025124440643325
 40
0.0025124440643325
 40
0.005024888128665
 40
0.005024888128665
 40
0.005024888128665
 40
0.005024888128665
 10
102.7452785377919
 20
165.9605648580625
 30
0.0
 10
102.750070206676
 20
165.9536962766031
 30
0.0
 10
102.7548703491978
 20
165.9468155486718
 30
0.0
 10
102.7644367871277
 20
165.9331026106979
 30
0.0
 10
102.769202967359
 20
165.9262705657546
 30
0.0
 10
102.7739270588878
 20
165.919498852543
 30
0.0
  0
LINE
  5
207
330
71
100
AcDbEntity
  8
Sichtbare Kanten(DIN)
100
AcDbLine
 10
102.3553886690109
 20
166.5194495366037
 30
0.0
 11
102.7452785377919
 21
165.9605648580625
 31
0.0
  0
LINE
  5
208
330
71
100
AcDbEntity
  8
Sichtbare Kanten(DIN)
100
AcDbLine
 10
109.191637010552
 20
170.4576819835848
 30
0.0
 11
108.801747141771
 21
171.0165666621259
 31
0.0
  0
SPLINE
  5
209
330
71
100
AcDbEntity
  8
Sichtbare Kanten(DIN)
100
AcDbSpline
210
0.0
220
0.0
230
1.0
 70
    24
 71
     3
 72
    10
 73
     6
 74
     0
 42
0.000000001
 43
0.0000000001
 40
0.0
 40
0.0
 40
0.0
 40
0.0
 40
0.0025124440643325
 40
0.0025124440643325
 40
0.005024888128665
 40
0.005024888128665
 40
0.005024888128665
 40
0.005024888128665
 10
109.2202855316479
 20
170.4166159780652
 30
0.0
 10
109.2155614401191
 20
170.4233876912769
 30
0.0
 10
109.2107952598878
 20
170.4302197362201
 30
0.0
 10
109.2012288219578
 20
170.443932674194
 30
0.0
 10
109.1964286794361
 20
170.4508134021253
 30
0.0
 10
109.191637010552
 20
170.4576819835848
 30
0.0
  0
SPLINE
  5
20A
330
71
100
AcDbEntity
  8
Sichtbare Kanten(DIN)
100
AcDbSpline
210
0.0
220
0.0
230
1.0
 70
     8
 71
     3
 72
    18
 73
    14
 74
     0
 42
0.000000001
 43
0.0000000001
 40
-0.0003334227258055
 40
-0.0003334227258055
 40
-0.0003334227258055
 40
-0.0003334227258055
 40
0.0110806536443804
 40
0.0110806536443804
 40
0.0228063454692431
 40
0.0228063454692431
 40
0.0304916837607566
 40
0.0304916837607566
 40
0.0388627408495082
 40
0.0388627408495082
 40
0.0457211973299736
 40
0.0457211973299736
 40
0.0500077326302645
 40
0.0500077326302645
 40
0.0500077326302645
 40
0.0500077326302645
 10
109.1716239411834
 20
169.9015084617959
 30
0.0
 10
109.1982673645564
 20
169.9275143687379
 30
0.0
 10
109.2214675434447
 20
169.9574272902238
 30
0.0
 10
109.2595307530817
 20
170.024603541356
 30
0.0
 10
109.274265328197
 20
170.062096275278
 30
0.0
 10
109.2889291694929
 20
170.1296505318817
 30
0.0
 10
109.2921432948239
 20
170.1576865979595
 30
0.0
 10
109.2923139592105
 20
170.2181474361306
 30
0.0
 10
109.2886329466587
 20
170.2514005571144
 30
0.0
 10
109.2734071580788
 20
170.3122513764486
 30
0.0
 10
109.2634152715726
 20
170.3398800065838
 30
0.0
 10
109.2412870177956
 20
170.3840134921043
 30
0.0
 10
109.2314026006119
 20
170.4006802997833
 30
0.0
 10
109.2202855316479
 20
170.4166159780652
 30
0.0
  0
SPLINE
  5
20B
330
71
100
AcDbEntity
  8
Sichtbare Kanten(DIN)
100
AcDbSpline
210
0.0
220
0.0
230
1.0
 70
     8
 71
     3
 72
    18
 73
    14
 74
     0
 42
0.000000001
 43
0.0000000001
 40
0.0
 40
0.0
 40
0.0
 40
0.0
 40
0.0042867211828172
 40
0.0042867211828172
 40
0.0111454750753246
 40
0.0111454750753246
 40
0.0195175467052085
 40
0.0195175467052085
 40
0.0272040845939384
 40
0.0272040845939384
 40
0.0389312385719408
 40
0.0389312385719408
 40
0.0503411479858135
 40
0.0503411479858135
 40
0.0503411479858135
 40
0.0503411479858135
 10
102.7739270588878
 20
165.9194988525429
 30
0.0
 10
102.7850446099356
 20
165.9035624832218
 30
0.0
 10
102.7972740375106
 20
165.8885305858899
 30
0.0
 10
102.8310543791014
 20
165.8525233750696
 30
0.0
 10
102.8535348953546
 20
165.8336057871728
 30
0.0
 10
102.905390828452
 20
165.798303536766
 30
0.0
 10
102.9353317220238
 20
165.7833663908195
 30
0.0
 10
102.9921409712386
 20
165.7626503010437
 30
0.0
 10
103.0195668033839
 20
165.7559870385986
 30
0.0
 10
103.0880384216036
 20
165.7464274733753
 30
0.0
 10
103.1283172289313
 20
165.7473139209772
 30
0.0
 10
103.2044932486676
 20
165.7598476674731
 30
0.0
 10
103.2405629337305
 20
165.7712900139546
 30
0.0
 10
103.2741567020619
 20
165.7873095648016
 30
0.0
  0
ARC
  5
20C
330
71
100
AcDbEntity
  8
Sichtbare Kanten(DIN)
100
AcDbCircle
 10
93.80476887210805
 20
185.6450711235939
 30
0.0
 40
21.99999999999834
100
AcDbArc
 50
295.494643881882
 51
314.3062548830547
  0
CIRCLE
  5
20D
330
71
100
AcDbEntity
  8
Sichtbare Kanten(DIN)
100
AcDbCircle
 10
81.58876480155814
 20
190.0913329920775
 30
0.0
 40
6.0
  0
CIRCLE
  5
20E
330
71
100
AcDbEntity
  8
Sichtbare Kanten(DIN)
100
AcDbCircle
 10
106.0207729426578
 20
181.1988092554144
 30
0.0
 40
5.999999999999996
  0
DIMENSION
  5
20F
330
71
100
AcDbEntity
  8
Bemaßungen(DIN)
  6
Continuous
370
    25
100
AcDbDimension
280
     0
  2
*D15
 10
163.063122842623
 20
158.9922092449908
 30
0.0
 11
123.1163129098368
 21
135.5967606015686
 31
0.0
 70
   160
  1
<>
 42
92.99999999999998
 73
     0
 74
     0
 75
     0
  3
STANDARD-MERKT
100
AcDbAlignedDimension
 13
53.85795893932179
 23
162.2496224803237
 33
0.0
 14
133.7515788048942
 24
209.0405197671682
 34
0.0
 50
210.3560130741128
100
AcDbRotatedDimension
1001
ACAD
1000
DSTYLE
1002
{
1070
   172
1070
     0
1070
   289
1070
     1
1070
   271
1070
     2
1070
   144
1040
1.004459146445255
1070
   272
1070
     1
1070
    48
1040
0.0
1070
    47
1040
0.0
1002
}
  0
DIMENSION
  5
2F5
330
71
100
AcDbEntity
  8
Bemaßungen(DIN)
  6
Continuous
370
    25
100
AcDbDimension
280
     0
  2
*D16
 10
128.5286552610598
 20
268.5561784583803
 30
0.0
 11
156.0603242381505
 21
229.2368802863123
 31
0.0
 70
   160
  1
<>
 42
96.00000011266867
 73
     0
 74
     0
 75
     0
  3
STANDARD-MERKT
100
AcDbAlignedDimension
 13
121.3364378491988
 23
146.3257729516779
 33
0.0
 14
66.27309989501718
 24
224.964369295814
 34
0.0
 50
304.9999999998959
100
AcDbRotatedDimension
1001
ACAD
1000
DSTYLE
1002
{
1070
   172
1070
     0
1070
   289
1070
     1
1070
   271
1070
     0
1070
   272
1070
     0
1070
    48
1040
0.0
1070
    47
1040
0.0
1002
}
  0
LINE
  5
3CB
330
71
100
AcDbEntity
  8
Mittellinie(DIN)
  6
CHAIN
 48
9.649832725524902
100
AcDbLine
 10
65.71065179055141
 20
185.6450711237459
 30
0.0
 11
57.02646507499757
 21
185.6450711237459
 31
0.0
  0
DIMENSION
  5
3CC
330
71
100
AcDbEntity
  8
Bemaßungen(DIN)
  6
Continuous
370
    25
100
AcDbDimension
280
     0
  2
*D17
 10
128.8047688721281
 20
229.1471562376037
 30
0.0
 11
93.80476887210802
 21
229.1471562376037
 31
0.0
 70
   160
  1
<>
 42
70.00000000004027
 73
     0
 74
     0
 75
     0
  3
STANDARD-MERKT
100
AcDbAlignedDimension
 13
58.80476887208786
 23
211.6450711238978
 33
0.0
 14
128.8047688721281
 24
211.6450711238978
 34
0.0
 50
180.0
100
AcDbRotatedDimension
1001
ACAD
1000
DSTYLE
1002
{
1070
   172
1070
     0
1070
   289
1070
     1
1070
   271
1070
     2
1070
   272
1070
     1
1070
    48
1040
0.0
1070
    47
1040
0.0
1002
}
  0
LINE
  5
4A2
330
71
100
AcDbEntity
  8
Mittelpunktmarkierung(DIN)
  6
CHAIN
 48
11.11197376251221
100
AcDbLine
 10
131.3047688721078
 20
165.645071123594
 30
0.0
 11
121.3047688721079
 21
165.645071123594
 31
0.0
  0
LINE
  5
4A3
330
71
100
AcDbEntity
  8
Mittelpunktmarkierung(DIN)
  6
CHAIN
 48
23.99096870422363
100
AcDbLine
 10
128.8047688721078
 20
173.145071123594
 30
0.0
 11
128.8047688721078
 21
158.1450711235941
 31
0.0
  0
LINE
  5
4A4
330
71
100
AcDbEntity
  8
Mittelpunktmarkierung(DIN)
  6
CHAIN
 48
11.11197376251221
100
AcDbLine
 10
66.30476887210813
 20
165.645071123594
 30
0.0
 11
56.30476887210814
 21
165.645071123594
 31
0.0
  0
LINE
  5
4A5
330
71
100
AcDbEntity
  8
Mittelpunktmarkierung(DIN)
  6
CHAIN
 48
23.99096870422363
100
AcDbLine
 10
58.80476887210814
 20
173.145071123594
 30
0.0
 11
58.80476887210814
 21
158.1450711235941
 31
0.0
  0
LINE
  5
4A6
330
71
100
AcDbEntity
  8
Mittelpunktmarkierung(DIN)
  6
CHAIN
 48
11.11197376251221
100
AcDbLine
 10
131.3047688721078
 20
205.6450711238978
 30
0.0
 11
121.3047688721079
 21
205.6450711238978
 31
0.0
  0
LINE
  5
4A7
330
71
100
AcDbEntity
  8
Mittelpunktmarkierung(DIN)
  6
CHAIN
 48
23.99096870422363
100
AcDbLine
 10
128.8047688721078
 20
213.1450711238978
 30
0.0
 11
128.8047688721078
 21
198.1450711238979
 31
0.0
  0
LINE
  5
4A8
330
71
100
AcDbEntity
  8
Mittelpunktmarkierung(DIN)
  6
CHAIN
 48
11.11197376251221
100
AcDbLine
 10
66.30476887210813
 20
205.6450711238978
 30
0.0
 11
56.30476887210814
 21
205.6450711238978
 31
0.0
  0
LINE
  5
4A9
330
71
100
AcDbEntity
  8
Mittelpunktmarkierung(DIN)
  6
CHAIN
 48
23.99096870422363
100
AcDbLine
 10
58.80476887210814
 20
213.1450711238978
 30
0.0
 11
58.80476887210814
 21
198.1450711238979
 31
0.0
  0
DIMENSION
  5
4AA
330
71
100
AcDbEntity
  8
Bemaßungen(DIN)
  6
Continuous
370
    25
100
AcDbDimension
280
     0
  2
*D18
 10
44.38708234719062
 20
185.6450711237459
 30
0.0
 11
44.38708234719059
 21
168.0469708826579
 31
0.0
 70
   160
  1
<>
 42
40.04268999491197
 73
     0
 74
     0
 75
     0
  3
STANDARD-MERKT
100
AcDbAlignedDimension
 13
119.0421321037948
 23
145.6023811288339
 33
0.0
 14
57.02646507499757
 24
185.6450711237459
 34
0.0
 50
90.0
100
AcDbRotatedDimension
1001
ACAD
1000
DSTYLE
1002
{
1070
   172
1070
     0
1070
   289
1070
     1
1070
   271
1070
     0
1070
   272
1070
     0
1070
    48
1040
0.0
1070
    47
1040
0.0
1002
}
  0
DIMENSION
  5
58C
330
71
100
AcDbEntity
  8
Bemaßungen(DIN)
  6
Continuous
370
    25
100
AcDbDimension
280
     0
  2
*D19
 10
146.01292577714
 20
205.6450711238978
 30
0.0
 11
146.01292577714
 21
185.6450711237429
 31
0.0
 70
   160
  1
<>
 42
40.00000000030374
 73
     0
 74
     0
 75
     0
  3
STANDARD-MERKT
100
AcDbAlignedDimension
 13
131.3047688721078
 23
165.645071123594
 33
0.0
 14
131.3047688721078
 24
205.6450711238978
 34
0.0
 50
90.0
100
AcDbRotatedDimension
1001
ACAD
1000
DSTYLE
1002
{
1070
   172
1070
     0
1070
   289
1070
     1
1070
   271
1070
     2
1070
   272
1070
     1
1070
    48
1040
0.0
1070
    47
1040
0.0
1002
}
  0
DIMENSION
  5
66E
330
71
100
AcDbEntity
  8
Bemaßungen(DIN)
  6
Continuous
370
    25
100
AcDbDimension
280
     0
  2
*D20
 10
126.3047688721271
 20
201.3149441049759
 30
0.0
 11
147.5351549543145
 21
224.4728295722368
 31
0.0
 70
   163
  1
<>
 42
10.0
 73
     0
 74
     0
 75
     0
  3
STANDARD-MERKT
100
AcDbDiametricDimension
 15
131.3047688721288
 25
209.9751981428193
 35
0.0
 40
0.0
1001
ACAD
1000
DSTYLE
1002
{
1070
   144
1040
1.000000000000005
1070
   172
1070
     0
1070
    77
1070
     0
1070
    73
1070
     1
1070
    74
1070
     1
1070
   271
1070
     2
1070
   272
1070
     1
1070
    48
1040
0.0
1070
    47
1040
0.0
1002
}
1001
ACAD_DSTYLE_DIMRADIAL_EXTENSION
1070
   387
1070
     1
1070
   388
1040
5.915457547600467
1070
   390
1040
7.853981633974482
  0
DIMENSION
  5
718
330
71
100
AcDbEntity
  8
Bemaßungen(DIN)
  6
Continuous
370
    25
100
AcDbDimension
280
     0
  2
*D21
 10
125.7736799588621
 20
203.8950711238982
 30
0.0
 11
149.2804806354036
 21
213.4338363784443
 31
0.0
 70
   163
  1
<>
 42
7.0
 73
     0
 74
     0
 75
     0
  3
STANDARD-MERKT
100
AcDbDiametricDimension
 15
131.8358577853535
 25
207.3950711238975
 35
0.0
 40
0.0
1001
ACAD
1000
DSTYLE
1002
{
1070
   144
1040
1.000000000000008
1070
   172
1070
     0
1070
    77
1070
     0
1070
    73
1070
     1
1070
    74
1070
     1
1070
   271
1070
     2
1070
   272
1070
     1
1070
    48
1040
0.0
1070
    47
1040
0.0
1002
}
1001
ACAD_DSTYLE_DIMRADIAL_EXTENSION
1070
   387
1070
     1
1070
   388
1040
0.0
1070
   390
1040
0.0
  0
ENDSEC
  0
SECTION
  2
OBJECTS
  0
DICTIONARY
  5
C
330
0
100
AcDbDictionary
281
     1
  3
ACAD_CIP_PREVIOUS_PRODUCT_INFO
350
7C1
  3
ACAD_COLOR
350
63
  3
ACAD_DETAILVIEWSTYLE
350
6B
  3
ACAD_GROUP
350
D
  3
ACAD_LAYOUT
350
62
  3
ACAD_MATERIAL
350
10
  3
ACAD_MLEADERSTYLE
350
66
  3
ACAD_MLINESTYLE
350
5F
  3
ACAD_PLOTSETTINGS
350
61
  3
ACAD_PLOTSTYLENAME
350
E
  3
ACAD_SCALELIST
350
42
  3
ACAD_SECTIONVIEWSTYLE
350
68
  3
ACAD_TABLESTYLE
350
64
  3
ACAD_VISUALSTYLE
350
29
  3
ACDB_RECOMPOSE_DATA
350
7DD
  3
AcDbVariableDictionary
350
7C2
  0
DICTIONARY
  5
7CB
330
135
100
AcDbDictionary
280
     1
281
     1
  3
ACAD_MLATT
360
7CD
  3
ACAD_XREC_ROUNDTRIP
360
7CC
  0
DICTIONARY
  5
7CE
330
175
100
AcDbDictionary
280
     1
281
     1
  3
ACAD_MLATT
360
7D0
  3
ACAD_XREC_ROUNDTRIP
360
7CF
  0
DICTIONARY
  5
7D1
330
176
100
AcDbDictionary
280
     1
281
     1
  3
ACAD_MLATT
360
7D3
  3
ACAD_XREC_ROUNDTRIP
360
7D2
  0
DICTIONARY
  5
7D4
330
177
100
AcDbDictionary
280
     1
281
     1
  3
ACAD_MLATT
360
7D6
  3
ACAD_XREC_ROUNDTRIP
360
7D5
  0
DICTIONARY
  5
7D7
330
178
100
AcDbDictionary
280
     1
281
     1
  3
ACAD_MLATT
360
7D9
  3
ACAD_XREC_ROUNDTRIP
360
7D8
  0
DICTIONARY
  5
7DA
330
17E
100
AcDbDictionary
280
     1
281
     1
  3
ACAD_MLATT
360
7DC
  3
ACAD_XREC_ROUNDTRIP
360
7DB
  0
XRECORD
  5
7C1
102
{ACAD_REACTORS
330
C
102
}
330
C
100
AcDbXrecord
280
     1
300
INVPROSA
300
2013
300
PDSU_F_S
  0
DICTIONARY
  5
63
102
{ACAD_REACTORS
330
C
102
}
330
C
100
AcDbDictionary
281
     1
  0
DICTIONARY
  5
6B
102
{ACAD_REACTORS
330
C
102
}
330
C
100
AcDbDictionary
281
     1
  3
Imperial24
350
6C
  0
DICTIONARY
  5
D
102
{ACAD_REACTORS
330
C
102
}
330
C
100
AcDbDictionary
281
     1
  0
DICTIONARY
  5
62
102
{ACAD_REACTORS
330
C
102
}
330
C
100
AcDbDictionary
281
     1
  3
Layout1
350
70
  3
Layout2
350
78
  3
Model
350
74
  0
DICTIONARY
  5
10
102
{ACAD_REACTORS
330
C
102
}
330
C
100
AcDbDictionary
281
     1
  3
ByBlock
350
19
  3
ByLayer
350
11
  3
Global
350
21
  0
DICTIONARY
  5
66
102
{ACAD_REACTORS
330
C
102
}
330
C
100
AcDbDictionary
281
     1
  3
Standard
350
67
  0
DICTIONARY
  5
5F
102
{ACAD_REACTORS
330
C
102
}
330
C
100
AcDbDictionary
281
     1
  3
Standard
350
60
  0
DICTIONARY
  5
61
102
{ACAD_REACTORS
330
C
102
}
330
C
100
AcDbDictionary
281
     1
  0
ACDBDICTIONARYWDFLT
  5
E
102
{ACAD_REACTORS
330
C
102
}
330
C
100
AcDbDictionary
281
     1
  3
Normal
350
F
100
AcDbDictionaryWithDefault
340
F
  0
DICTIONARY
  5
42
102
{ACAD_REACTORS
330
C
102
}
330
C
100
AcDbDictionary
281
     1
  3
A0
350
43
  3
A1
350
44
  3
A2
350
45
  3
A3
350
46
  3
A4
350
47
  3
A5
350
48
  3
A6
350
49
  3
A7
350
4A
  3
A8
350
4B
  3
A9
350
4C
  3
B0
350
4D
  3
B1
350
4E
  3
B2
350
4F
  3
B3
350
50
  3
B4
350
51
  3
B5
350
52
  3
B6
350
53
  0
DICTIONARY
  5
68
102
{ACAD_REACTORS
330
C
102
}
330
C
100
AcDbDictionary
281
     1
  3
Imperial24
350
6A
  0
DICTIONARY
  5
64
102
{ACAD_REACTORS
330
C
102
}
330
C
100
AcDbDictionary
281
     1
  3
Standard
350
65
  0
DICTIONARY
  5
29
102
{ACAD_REACTORS
330
C
102
}
330
C
100
AcDbDictionary
281
     1
  3
2dWireframe
350
2F
  3
Basic
350
2E
  3
Brighten
350
35
  3
ColorChange
350
39
  3
Conceptual
350
32
  3
Dim
350
34
  3
EdgeColorOff
350
41
  3
Facepattern
350
38
  3
Flat
350
2A
  3
FlatWithEdges
350
2B
  3
Gouraud
350
2C
  3
GouraudWithEdges
350
2D
  3
Hidden
350
31
  3
JitterOff
350
3F
  3
Linepattern
350
37
  3
OverhangOff
350
40
  3
Realistic
350
33
  3
Shaded
350
3E
  3
Shaded with edges
350
3D
  3
Shades of Gray
350
3A
  3
Sketchy
350
3B
  3
Thicken
350
36
  3
Wireframe
350
30
  3
X-Ray
350
3C
  0
XRECORD
  5
7DD
102
{ACAD_REACTORS
330
C
102
}
330
C
100
AcDbXrecord
280
     1
 90
        1
330
65
330
135
330
175
330
176
330
177
330
178
330
17E
  0
DICTIONARY
  5
7C2
102
{ACAD_REACTORS
330
C
102
}
330
C
100
AcDbDictionary
281
     1
  3
CANNOSCALE
350
7C7
  3
CMLEADERSTYLE
350
7C4
  3
CTABLESTYLE
350
7C3
  3
CVIEWDETAILSTYLE
350
7C5
  3
CVIEWSECTIONSTYLE
350
7C6
  0
XRECORD
  5
7CD
102
{ACAD_REACTORS
330
7CB
102
}
330
7CB
100
AcDbXrecord
280
     1
 70
     4
 70
     0
 70
     0
 40
1.0
  2
Index
  1
Embedded Object
 10
-36.7914250549367
 20
-3.278240338919076
 30
0.0
 40
5.0
 41
18.71487955429179
 46
0.0
 71
     4
 72
     5
  1

  7
Textstil44
 73
     1
 44
1.0
  0
XRECORD
  5
7CC
102
{ACAD_REACTORS
330
7CB
102
}
330
7CB
100
AcDbXrecord
280
     1
102
ACAD_MATT_HEIGHT
140
5.0
  0
XRECORD
  5
7D0
102
{ACAD_REACTORS
330
7CE
102
}
330
7CE
100
AcDbXrecord
280
     1
 70
     4
 70
     0
 70
     0
 40
1.0
  2
Index
  1
Embedded Object
 10
-24.60972121804026
 20
0.0
 30
0.0
 40
2.000000029802322
 41
5.551844547150786
 46
0.0
 71
     5
 72
     5
  1
a
  7
Textstil43
 73
     1
 44
1.0
  0
XRECORD
  5
7CF
102
{ACAD_REACTORS
330
7CE
102
}
330
7CE
100
AcDbXrecord
280
     1
102
ACAD_MATT_HEIGHT
140
2.000000029802322
  0
XRECORD
  5
7D3
102
{ACAD_REACTORS
330
7D1
102
}
330
7D1
100
AcDbXrecord
280
     1
 70
     4
 70
     0
 70
     0
 40
1.0
  2
Änderung
  1
Embedded Object
 10
-20.1682455803196
 20
0.0
 30
0.0
 40
2.000000029802322
 41
24.79823897727353
 46
0.0
 71
     4
 72
     5
  1
2219 / Klaiber
  7
Textstil43
 73
     1
 44
1.0
  0
XRECORD
  5
7D2
102
{ACAD_REACTORS
330
7D1
102
}
330
7D1
100
AcDbXrecord
280
     1
102
ACAD_MATT_HEIGHT
140
2.000000029802322
  0
XRECORD
  5
7D6
102
{ACAD_REACTORS
330
7D4
102
}
330
7D4
100
AcDbXrecord
280
     1
 70
     4
 70
     0
 70
     0
 40
1.0
  2
Datum
  1
Embedded Object
 10
11.89365667947623
 20
0.0
 30
0.0
 40
2.000000029802322
 41
10.82609686694404
 46
0.0
 71
     5
 72
     5
  1
02.11.09
  7
Textstil43
 73
     1
 44
1.0
  0
XRECORD
  5
7D5
102
{ACAD_REACTORS
330
7D4
102
}
330
7D4
100
AcDbXrecord
280
     1
102
ACAD_MATT_HEIGHT
140
2.000000029802322
  0
XRECORD
  5
7D9
102
{ACAD_REACTORS
330
7D7
102
}
330
7D7
100
AcDbXrecord
280
     1
 70
     4
 70
     0
 70
     0
 40
1.0
  2
Initialen
  1
Embedded Object
 10
22.21083446293143
 20
0.0
 30
0.0
 40
2.000000029802322
 41
6.662213456580978
 46
0.0
 71
     5
 72
     5
  1
Sechi
  7
Textstil43
 73
     1
 44
1.0
  0
XRECORD
  5
7D8
102
{ACAD_REACTORS
330
7D7
102
}
330
7D7
100
AcDbXrecord
280
     1
102
ACAD_MATT_HEIGHT
140
2.000000029802322
  0
XRECORD
  5
7DC
102
{ACAD_REACTORS
330
7DA
102
}
330
7DA
100
AcDbXrecord
280
     1
 70
     4
 70
     0
 70
     0
 40
1.0
  2
Index
  1
Embedded Object
 10
0.0685767978856333
 20
0.0984087078288099
 30
0.0
 40
1.500000059604644
 41
4.646104276180267
 46
0.0
 71
     5
 72
     5
  1
a
  7
Textstil69
 73
     1
 44
1.0
  0
XRECORD
  5
7DB
102
{ACAD_REACTORS
330
7DA
102
}
330
7DA
100
AcDbXrecord
280
     1
102
ACAD_MATT_HEIGHT
140
1.500000059604644
  0
ACDBDETAILVIEWSTYLE
  5
6C
102
{ACAD_REACTORS
330
6B
102
}
330
6B
100
AcDbModelDocViewStyle
 70
     0
  3
Imperial24
290
     0
100
AcDbDetailViewStyle
 70
     0
 71
     0
 90
        3
 71
     1
340
55
 62
   256
 40
0.24
340
0
 62
   256
 40
0.24
300

 40
0.36
280
     3
 71
     2
340
5D
 90
       25
 62
   256
 71
     3
340
55
 62
   256
 40
0.24
 90
        1
 40
0.75
 90
        1
300
%<\AcVar ViewType \f "%tc1">% %<\AcVar ViewDetailId>%\PVARIA %<\AcVar ViewScale \f "%sn">%
 71
     4
340
5D
 90
       25
 62
   256
340
5D
 90
       25
 62
   256
280
     0
  0
LAYOUT
  5
70
102
{ACAD_REACTORS
330
62
102
}
330
62
100
AcDbPlotSettings
  1

  2

  4

  6

 40
0.0
 41
0.0
 42
0.0
 43
0.0
 44
0.0
 45
0.0
 46
0.0
 47
0.0
 48
0.0
 49
0.0
140
0.0
141
0.0
142
1.0
143
1.0
 70
   688
 72
     0
 73
     0
 74
     5
  7

 75
    16
147
1.0
 76
     0
 77
     2
 78
   300
148
0.0
149
0.0
100
AcDbLayout
  1
Layout1
 70
     1
 71
     1
 10
0.0
 20
0.0
 11
12.0
 21
9.0
 12
0.0
 22
0.0
 32
0.0
 14
0.0
 24
0.0
 34
0.0
 15
0.0
 25
0.0
 35
0.0
146
0.0
 13
0.0
 23
0.0
 33
0.0
 16
1.0
 26
0.0
 36
0.0
 17
0.0
 27
1.0
 37
0.0
 76
     0
330
6D
  0
LAYOUT
  5
78
102
{ACAD_REACTORS
330
62
102
}
330
62
100
AcDbPlotSettings
  1

  2

  4

  6

 40
0.0
 41
0.0
 42
0.0
 43
0.0
 44
0.0
 45
0.0
 46
0.0
 47
0.0
 48
0.0
 49
0.0
140
0.0
141
0.0
142
1.0
143
1.0
 70
   688
 72
     0
 73
     0
 74
     5
  7

 75
    16
147
1.0
 76
     0
 77
     2
 78
   300
148
0.0
149
0.0
100
AcDbLayout
  1
Layout2
 70
     1
 71
     2
 10
0.0
 20
0.0
 11
12.0
 21
9.0
 12
0.0
 22
0.0
 32
0.0
 14
0.0
 24
0.0
 34
0.0
 15
0.0
 25
0.0
 35
0.0
146
0.0
 13
0.0
 23
0.0
 33
0.0
 16
1.0
 26
0.0
 36
0.0
 17
0.0
 27
1.0
 37
0.0
 76
     0
330
75
  0
LAYOUT
  5
74
102
{ACAD_REACTORS
330
62
102
}
330
62
100
AcDbPlotSettings
  1

  2

  4

  6

 40
0.0
 41
0.0
 42
0.0
 43
0.0
 44
0.0
 45
0.0
 46
0.0
 47
0.0
 48
0.0
 49
0.0
140
0.0
141
0.0
142
1.0
143
1.0
 70
  1712
 72
     0
 73
     0
 74
     0
  7

 75
     0
147
1.0
 76
     0
 77
     2
 78
   300
148
0.0
149
0.0
100
AcDbLayout
  1
Model
 70
     1
 71
     0
 10
0.0
 20
0.0
 11
12.0
 21
9.0
 12
0.0
 22
0.0
 32
0.0
 14
0.0
 24
0.0
 34
0.0
 15
0.0
 25
0.0
 35
0.0
146
0.0
 13
0.0
 23
0.0
 33
0.0
 16
1.0
 26
0.0
 36
0.0
 17
0.0
 27
1.0
 37
0.0
 76
     0
330
71
  0
MATERIAL
  5
19
102
{ACAD_XDICTIONARY
360
1A
102
}
102
{ACAD_REACTORS
330
10
102
}
330
10
100
AcDbMaterial
  1
ByBlock
 72
     0
 43
0.0208333333333333
 43
0.0
 43
0.0
 43
0.0
 43
0.0
 43
0.0208333333333333
 43
0.0
 43
0.0
 43
0.0
 43
0.0
 43
1.0
 43
0.0
 43
0.0
 43
0.0
 43
0.0
 43
1.0
 77
     0
 47
0.0208333333333333
 47
0.0
 47
0.0
 47
0.0
 47
0.0
 47
0.0208333333333333
 47
0.0
 47
0.0
 47
0.0
 47
0.0
 47
1.0
 47
0.0
 47
0.0
 47
0.0
 47
0.0
 47
1.0
171
     0
 49
0.0208333333333333
 49
0.0
 49
0.0
 49
0.0
 49
0.0
 49
0.0208333333333333
 49
0.0
 49
0.0
 49
0.0
 49
0.0
 49
1.0
 49
0.0
 49
0.0
 49
0.0
 49
0.0
 49
1.0
175
     0
142
0.0208333333333333
142
0.0
142
0.0
142
0.0
142
0.0
142
0.0208333333333333
142
0.0
142
0.0
142
0.0
142
0.0
142
1.0
142
0.0
142
0.0
142
0.0
142
0.0
142
1.0
179
     0
144
0.0208333333333333
144
0.0
144
0.0
144
0.0
144
0.0
144
0.0208333333333333
144
0.0
144
0.0
144
0.0
144
0.0
144
1.0
144
0.0
144
0.0
144
0.0
144
0.0
144
1.0
147
0.0208333333333333
147
0.0
147
0.0
147
0.0
147
0.0
147
0.0208333333333333
147
0.0
147
0.0
147
0.0
147
0.0
147
1.0
147
0.0
147
0.0
147
0.0
147
0.0
147
1.0
  0
MATERIAL
  5
11
102
{ACAD_XDICTIONARY
360
12
102
}
102
{ACAD_REACTORS
330
10
102
}
330
10
100
AcDbMaterial
  1
ByLayer
 72
     0
 43
0.0208333333333333
 43
0.0
 43
0.0
 43
0.0
 43
0.0
 43
0.0208333333333333
 43
0.0
 43
0.0
 43
0.0
 43
0.0
 43
1.0
 43
0.0
 43
0.0
 43
0.0
 43
0.0
 43
1.0
 77
     0
 47
0.0208333333333333
 47
0.0
 47
0.0
 47
0.0
 47
0.0
 47
0.0208333333333333
 47
0.0
 47
0.0
 47
0.0
 47
0.0
 47
1.0
 47
0.0
 47
0.0
 47
0.0
 47
0.0
 47
1.0
171
     0
 49
0.0208333333333333
 49
0.0
 49
0.0
 49
0.0
 49
0.0
 49
0.0208333333333333
 49
0.0
 49
0.0
 49
0.0
 49
0.0
 49
1.0
 49
0.0
 49
0.0
 49
0.0
 49
0.0
 49
1.0
175
     0
142
0.0208333333333333
142
0.0
142
0.0
142
0.0
142
0.0
142
0.0208333333333333
142
0.0
142
0.0
142
0.0
142
0.0
142
1.0
142
0.0
142
0.0
142
0.0
142
0.0
142
1.0
179
     0
144
0.0208333333333333
144
0.0
144
0.0
144
0.0
144
0.0
144
0.0208333333333333
144
0.0
144
0.0
144
0.0
144
0.0
144
1.0
144
0.0
144
0.0
144
0.0
144
0.0
144
1.0
147
0.0208333333333333
147
0.0
147
0.0
147
0.0
147
0.0
147
0.0208333333333333
147
0.0
147
0.0
147
0.0
147
0.0
147
1.0
147
0.0
147
0.0
147
0.0
147
0.0
147
1.0
  0
MATERIAL
  5
21
102
{ACAD_XDICTIONARY
360
22
102
}
102
{ACAD_REACTORS
330
10
102
}
330
10
100
AcDbMaterial
  1
Global
 72
     0
 43
0.0208333333333333
 43
0.0
 43
0.0
 43
0.0
 43
0.0
 43
0.0208333333333333
 43
0.0
 43
0.0
 43
0.0
 43
0.0
 43
1.0
 43
0.0
 43
0.0
 43
0.0
 43
0.0
 43
1.0
 77
     0
 47
0.0208333333333333
 47
0.0
 47
0.0
 47
0.0
 47
0.0
 47
0.0208333333333333
 47
0.0
 47
0.0
 47
0.0
 47
0.0
 47
1.0
 47
0.0
 47
0.0
 47
0.0
 47
0.0
 47
1.0
171
     0
 49
0.0208333333333333
 49
0.0
 49
0.0
 49
0.0
 49
0.0
 49
0.0208333333333333
 49
0.0
 49
0.0
 49
0.0
 49
0.0
 49
1.0
 49
0.0
 49
0.0
 49
0.0
 49
0.0
 49
1.0
175
     0
142
0.0208333333333333
142
0.0
142
0.0
142
0.0
142
0.0
142
0.0208333333333333
142
0.0
142
0.0
142
0.0
142
0.0
142
1.0
142
0.0
142
0.0
142
0.0
142
0.0
142
1.0
179
     0
144
0.0208333333333333
144
0.0
144
0.0
144
0.0
144
0.0
144
0.0208333333333333
144
0.0
144
0.0
144
0.0
144
0.0
144
1.0
144
0.0
144
0.0
144
0.0
144
0.0
144
1.0
147
0.0208333333333333
147
0.0
147
0.0
147
0.0
147
0.0
147
0.0208333333333333
147
0.0
147
0.0
147
0.0
147
0.0
147
1.0
147
0.0
147
0.0
147
0.0
147
0.0
147
1.0
  0
MLEADERSTYLE
  5
67
102
{ACAD_XDICTIONARY
360
80E
102
}
102
{ACAD_REACTORS
330
66
102
}
330
66
100
AcDbMLeaderStyle
179
     2
170
     2
171
     1
172
     0
 90
        2
 40
0.0
 41
0.0
173
     1
 91
-1056964608
340
5B
 92
       -2
290
     1
 42
0.09
291
     1
 43
0.36
  3
Standard
 44
0.18
300

342
55
174
     1
178
     6
175
     1
176
     0
 93
-1056964608
 45
0.18
292
     0
297
     0
 46
0.18
 94
-1056964608
 47
1.0
 49
1.0
140
1.0
293
     1
141
0.0
294
     1
177
     0
142
1.0
295
     0
296
     0
143
0.125
271
     0
272
     9
273
     9
  0
MLINESTYLE
  5
60
102
{ACAD_REACTORS
330
5F
102
}
330
5F
100
AcDbMlineStyle
  2
STANDARD
 70
     0
  3

 62
   256
 51
90.0
 52
90.0
 71
     2
 49
0.5
 62
   256
  6
BYLAYER
 49
-0.5
 62
   256
  6
BYLAYER
  0
ACDBPLACEHOLDER
  5
F
102
{ACAD_REACTORS
330
E
102
}
330
E
  0
SCALE
  5
43
102
{ACAD_REACTORS
330
42
102
}
330
42
100
AcDbScale
 70
     0
300
1:1
140
1.0
141
1.0
290
     1
  0
SCALE
  5
44
102
{ACAD_REACTORS
330
42
102
}
330
42
100
AcDbScale
 70
     0
300
1/128" = 1'-0"
140
0.0078125
141
12.0
290
     0
  0
SCALE
  5
45
102
{ACAD_REACTORS
330
42
102
}
330
42
100
AcDbScale
 70
     0
300
1/64" = 1'-0"
140
0.015625
141
12.0
290
     0
  0
SCALE
  5
46
102
{ACAD_REACTORS
330
42
102
}
330
42
100
AcDbScale
 70
     0
300
1/32" = 1'-0"
140
0.03125
141
12.0
290
     0
  0
SCALE
  5
47
102
{ACAD_REACTORS
330
42
102
}
330
42
100
AcDbScale
 70
     0
300
1/16" = 1'-0"
140
0.0625
141
12.0
290
     0
  0
SCALE
  5
48
102
{ACAD_REACTORS
330
42
102
}
330
42
100
AcDbScale
 70
     0
300
3/32" = 1'-0"
140
0.09375
141
12.0
290
     0
  0
SCALE
  5
49
102
{ACAD_REACTORS
330
42
102
}
330
42
100
AcDbScale
 70
     0
300
1/8" = 1'-0"
140
0.125
141
12.0
290
     0
  0
SCALE
  5
4A
102
{ACAD_REACTORS
330
42
102
}
330
42
100
AcDbScale
 70
     0
300
3/16" = 1'-0"
140
0.1875
141
12.0
290
     0
  0
SCALE
  5
4B
102
{ACAD_REACTORS
330
42
102
}
330
42
100
AcDbScale
 70
     0
300
1/4" = 1'-0"
140
0.25
141
12.0
290
     0
  0
SCALE
  5
4C
102
{ACAD_REACTORS
330
42
102
}
330
42
100
AcDbScale
 70
     0
300
3/8" = 1'-0"
140
0.375
141
12.0
290
     0
  0
SCALE
  5
4D
102
{ACAD_REACTORS
330
42
102
}
330
42
100
AcDbScale
 70
     0
300
1/2" = 1'-0"
140
0.5
141
12.0
290
     0
  0
SCALE
  5
4E
102
{ACAD_REACTORS
330
42
102
}
330
42
100
AcDbScale
 70
     0
300
3/4" = 1'-0"
140
0.75
141
12.0
290
     0
  0
SCALE
  5
4F
102
{ACAD_REACTORS
330
42
102
}
330
42
100
AcDbScale
 70
     0
300
1" = 1'-0"
140
1.0
141
12.0
290
     0
  0
SCALE
  5
50
102
{ACAD_REACTORS
330
42
102
}
330
42
100
AcDbScale
 70
     0
300
1-1/2" = 1'-0"
140
1.5
141
12.0
290
     0
  0
SCALE
  5
51
102
{ACAD_REACTORS
330
42
102
}
330
42
100
AcDbScale
 70
     0
300
3" = 1'-0"
140
3.0
141
12.0
290
     0
  0
SCALE
  5
52
102
{ACAD_REACTORS
330
42
102
}
330
42
100
AcDbScale
 70
     0
300
6" = 1'-0"
140
6.0
141
12.0
290
     0
  0
SCALE
  5
53
102
{ACAD_REACTORS
330
42
102
}
330
42
100
AcDbScale
 70
     0
300
1'-0" = 1'-0"
140
12.0
141
12.0
290
     0
  0
ACDBSECTIONVIEWSTYLE
  5
6A
102
{ACAD_REACTORS
330
68
102
}
330
68
100
AcDbModelDocViewStyle
 70
     0
  3
Imperial24
290
     0
100
AcDbSectionViewStyle
 70
     0
 71
     0
 90
       78
 71
     1
340
55
 62
   256
 40
0.24
340
0
340
0
 62
   256
 40
0.24
300
I, O, Q, S, X, Z
 40
0.48
 90
        3
 40
0.18
 90
        1
 71
     2
340
69
 90
       25
 62
   256
340
5D
 90
       50
 62
   256
 40
0.24
 40
0.0
 40
0.24
 71
     3
340
55
 62
   256
 40
0.24
 90
        1
 40
0.75
 90
        1
300
%<\AcVar ViewType \f "%tc1">% %<\AcVar ViewSectionStartId>%-%<\AcVar ViewSectionEndId>%\PVARIA %<\AcVar ViewScale \f "%sn">%
 71
     4
 62
   256
 62
   257
300
ANSI31
 40
1.0
 90
        0
290
     0
290
     0
 90
        6
 40
0.0
 40
1.570796326794896
 40
0.2617993877991494
 40
1.308996938995747
 40
-0.2617993877991494
 40
1.832595714594046
  0
TABLESTYLE
  5
65
102
{ACAD_XDICTIONARY
360
7C8
102
}
102
{ACAD_REACTORS
330
64
102
}
330
64
100
AcDbTableStyle
280
     0
  3
Standard
 70
     0
 71
     0
 40
0.06
 41
0.06
280
     0
281
     0
  7
Standard
140
0.18
170
     2
 62
     0
 63
     7
283
     0
 90
      512
 91
        0
  1

274
    -2
284
     1
 64
     0
275
    -2
285
     1
 65
     0
276
    -2
286
     1
 66
     0
277
    -2
287
     1
 67
     0
278
    -2
288
     1
 68
     0
279
    -2
289
     1
 69
     0
  7
Standard
140
0.25
170
     5
 62
     0
 63
     7
283
     0
 90
      512
 91
        0
  1

274
    -2
284
     1
 64
     0
275
    -2
285
     1
 65
     0
276
    -2
286
     1
 66
     0
277
    -2
287
     1
 67
     0
278
    -2
288
     1
 68
     0
279
    -2
289
     1
 69
     0
  7
Standard
140
0.18
170
     5
 62
     0
 63
     7
283
     0
 90
      512
 91
        0
  1

274
    -2
284
     1
 64
     0
275
    -2
285
     1
 65
     0
276
    -2
286
     1
 66
     0
277
    -2
287
     1
 67
     0
278
    -2
288
     1
 68
     0
279
    -2
289
     1
 69
     0
  0
VISUALSTYLE
  5
2F
102
{ACAD_XDICTIONARY
360
7E8
102
}
102
{ACAD_REACTORS
330
29
102
}
330
29
100
AcDbVisualStyle
  2
2dWireframe
 70
     4
177
     2
291
     0
 71
     0
176
     1
 72
     2
176
     1
 73
     0
176
     1
 90
        0
176
     1
 40
0.6
176
     1
 41
30.0
176
     1
 63
     7
421
 16777215
176
     1
 74
     1
176
     1
 91
        4
176
     1
 64
     7
176
     1
 65
   257
176
     1
 75
     1
176
     1
175
     1
176
     1
 42
1.0
176
     1
 92
        0
176
     1
 66
   257
176
     1
 43
1.0
176
     1
 76
     1
176
     1
 77
     6
176
     1
 78
     2
176
     1
 67
     7
176
     1
 79
     5
176
     1
170
     0
176
     1
171
     0
176
     1
290
     0
176
     1
 93
        1
176
     1
 44
0.0
176
     1
173
     0
176
     1
1001
ACAD
1000
AcDbSavedByObjectVersion
1070
     0
  0
VISUALSTYLE
  5
2E
102
{ACAD_XDICTIONARY
360
7E6
102
}
102
{ACAD_REACTORS
330
29
102
}
330
29
100
AcDbVisualStyle
  2
Basic
 70
     7
177
     2
291
     1
 71
     1
176
     1
 72
     0
176
     1
 73
     1
176
     1
 90
        0
176
     1
 40
0.6
176
     1
 41
30.0
176
     1
 63
     7
421
 16777215
176
     1
 74
     0
176
     1
 91
        4
176
     1
 64
     7
176
     1
 65
   257
176
     1
 75
     1
176
     1
175
     1
176
     1
 42
1.0
176
     1
 92
        8
176
     1
 66
     7
176
     1
 43
1.0
176
     1
 76
     1
176
     1
 77
     6
176
     1
 78
     2
176
     1
 67
     7
176
     1
 79
     5
176
     1
170
     0
176
     1
171
     0
176
     1
290
     0
176
     1
 93
        1
176
     1
 44
0.0
176
     1
173
     0
176
     1
1001
ACAD
1000
AcDbSavedByObjectVersion
1070
     0
  0
VISUALSTYLE
  5
35
102
{ACAD_XDICTIONARY
360
7F4
102
}
102
{ACAD_REACTORS
330
29
102
}
330
29
100
AcDbVisualStyle
  2
Brighten
 70
    12
177
     2
291
     1
 71
     2
176
     1
 72
     2
176
     1
 73
     0
176
     1
 90
        0
176
     1
 40
0.6
176
     1
 41
30.0
176
     1
 63
     7
421
 16777215
176
     1
 74
     1
176
     1
 91
        4
176
     1
 64
     7
176
     1
 65
   257
176
     1
 75
     1
176
     1
175
     1
176
     1
 42
1.0
176
     1
 92
        8
176
     1
 66
     7
176
     1
 43
1.0
176
     1
 76
     1
176
     1
 77
     6
176
     1
 78
     2
176
     1
 67
     7
176
     1
 79
     5
176
     1
170
     0
176
     1
171
     0
176
     1
290
     0
176
     1
 93
        1
176
     1
 44
50.0
176
     1
173
     0
176
     1
1001
ACAD
1000
AcDbSavedByObjectVersion
1070
     0
  0
VISUALSTYLE
  5
39
102
{ACAD_XDICTIONARY
360
7FC
102
}
102
{ACAD_REACTORS
330
29
102
}
330
29
100
AcDbVisualStyle
  2
ColorChange
 70
    16
177
     2
291
     1
 71
     2
176
     1
 72
     2
176
     1
 73
     3
176
     1
 90
        0
176
     1
 40
0.6
176
     1
 41
30.0
176
     1
 63
     8
421
  8421504
176
     1
 74
     1
176
     1
 91
        4
176
     1
 64
     7
176
     1
 65
   257
176
     1
 75
     1
176
     1
175
     1
176
     1
 42
1.0
176
     1
 92
        8
176
     1
 66
     8
424
  8421504
176
     1
 43
1.0
176
     1
 76
     1
176
     1
 77
     6
176
     1
 78
     2
176
     1
 67
     7
176
     1
 79
     5
176
     1
170
     0
176
     1
171
     0
176
     1
290
     0
176
     1
 93
        1
176
     1
 44
0.0
176
     1
173
     0
176
     1
1001
ACAD
1000
AcDbSavedByObjectVersion
1070
     0
  0
VISUALSTYLE
  5
32
102
{ACAD_XDICTIONARY
360
7EE
102
}
102
{ACAD_REACTORS
330
29
102
}
330
29
100
AcDbVisualStyle
  2
Conceptual
 70
     9
177
     2
291
     0
 71
     3
176
     1
 72
     2
176
     1
 73
     0
176
     1
 90
        0
176
     1
 40
0.6
176
     1
 41
30.0
176
     1
 63
     7
421
 16777215
176
     1
 74
     2
176
     1
 91
        2
176
     1
 64
     7
176
     1
 65
   257
176
     1
 75
     1
176
     1
175
     1
176
     1
 42
179.0
176
     1
 92
        8
176
     1
 66
     7
176
     1
 43
1.0
176
     1
 76
     1
176
     1
 77
     6
176
     1
 78
     2
176
     1
 67
     7
176
     1
 79
     3
176
     1
170
     0
176
     1
171
     0
176
     1
290
     0
176
     1
 93
        1
176
     1
 44
0.0
176
     1
173
     0
176
     1
1001
ACAD
1000
AcDbSavedByObjectVersion
1070
     0
  0
VISUALSTYLE
  5
34
102
{ACAD_XDICTIONARY
360
7F2
102
}
102
{ACAD_REACTORS
330
29
102
}
330
29
100
AcDbVisualStyle
  2
Dim
 70
    11
177
     2
291
     1
 71
     2
176
     1
 72
     2
176
     1
 73
     0
176
     1
 90
        0
176
     1
 40
0.6
176
     1
 41
30.0
176
     1
 63
     7
421
 16777215
176
     1
 74
     1
176
     1
 91
        4
176
     1
 64
     7
176
     1
 65
   257
176
     1
 75
     1
176
     1
175
     1
176
     1
 42
1.0
176
     1
 92
        8
176
     1
 66
     7
176
     1
 43
1.0
176
     1
 76
     1
176
     1
 77
     6
176
     1
 78
     2
176
     1
 67
     7
176
     1
 79
     5
176
     1
170
     0
176
     1
171
     0
176
     1
290
     0
176
     1
 93
        1
176
     1
 44
-50.0
176
     1
173
     0
176
     1
1001
ACAD
1000
AcDbSavedByObjectVersion
1070
     0
  0
VISUALSTYLE
  5
41
102
{ACAD_XDICTIONARY
360
80C
102
}
102
{ACAD_REACTORS
330
29
102
}
330
29
100
AcDbVisualStyle
  2
EdgeColorOff
 70
    22
177
     2
291
     1
 71
     2
176
     0
 72
     2
176
     0
 73
     0
176
     0
 90
        0
176
     0
 40
0.6
176
     0
 41
30.0
176
     0
 63
     7
421
 16777215
176
     0
 74
     1
176
     0
 91
        4
176
     0
 64
     7
176
     0
 65
   257
176
     0
 75
     1
176
     0
175
     1
176
     0
 42
1.0
176
     0
 92
        8
176
     2
 66
     7
176
     0
 43
1.0
176
     0
 76
     1
176
     0
 77
     6
176
     0
 78
     2
176
     0
 67
     7
176
     0
 79
     5
176
     0
170
     0
176
     0
171
     0
176
     0
290
     0
176
     0
 93
        1
176
     0
 44
0.0
176
     0
173
     0
176
     0
1001
ACAD
1000
AcDbSavedByObjectVersion
1070
     0
  0
VISUALSTYLE
  5
38
102
{ACAD_XDICTIONARY
360
7FA
102
}
102
{ACAD_REACTORS
330
29
102
}
330
29
100
AcDbVisualStyle
  2
Facepattern
 70
    15
177
     2
291
     1
 71
     2
176
     1
 72
     2
176
     1
 73
     0
176
     1
 90
        0
176
     1
 40
0.6
176
     1
 41
30.0
176
     1
 63
     7
421
 16777215
176
     1
 74
     1
176
     1
 91
        4
176
     1
 64
     7
176
     1
 65
   257
176
     1
 75
     1
176
     1
175
     1
176
     1
 42
1.0
176
     1
 92
        8
176
     1
 66
     7
176
     1
 43
1.0
176
     1
 76
     1
176
     1
 77
     6
176
     1
 78
     2
176
     1
 67
     7
176
     1
 79
     5
176
     1
170
     0
176
     1
171
     0
176
     1
290
     0
176
     1
 93
        1
176
     1
 44
0.0
176
     1
173
     0
176
     1
1001
ACAD
1000
AcDbSavedByObjectVersion
1070
     0
  0
VISUALSTYLE
  5
2A
102
{ACAD_XDICTIONARY
360
7DE
102
}
102
{ACAD_REACTORS
330
29
102
}
330
29
100
AcDbVisualStyle
  2
Flat
 70
     0
177
     2
291
     1
 71
     2
176
     1
 72
     1
176
     1
 73
     1
176
     1
 90
        2
176
     1
 40
0.6
176
     1
 41
30.0
176
     1
 63
     7
421
 16777215
176
     1
 74
     0
176
     1
 91
        0
176
     1
 64
     7
176
     1
 65
   257
176
     1
 75
     1
176
     1
175
     1
176
     1
 42
1.0
176
     1
 92
        8
176
     1
 66
     7
176
     1
 43
1.0
176
     1
 76
     1
176
     1
 77
     6
176
     1
 78
     2
176
     1
 67
     7
176
     1
 79
     5
176
     1
170
     0
176
     1
171
     0
176
     1
290
     0
176
     1
 93
       13
176
     1
 44
0.0
176
     1
173
     0
176
     1
1001
ACAD
1000
AcDbSavedByObjectVersion
1070
     0
  0
VISUALSTYLE
  5
2B
102
{ACAD_XDICTIONARY
360
7E0
102
}
102
{ACAD_REACTORS
330
29
102
}
330
29
100
AcDbVisualStyle
  2
FlatWithEdges
 70
     1
177
     2
291
     1
 71
     2
176
     1
 72
     1
176
     1
 73
     1
176
     1
 90
        2
176
     1
 40
0.6
176
     1
 41
30.0
176
     1
 63
     7
421
 16777215
176
     1
 74
     1
176
     1
 91
        0
176
     1
 64
     7
176
     1
 65
   257
176
     1
 75
     1
176
     1
175
     1
176
     1
 42
1.0
176
     1
 92
        0
176
     1
 66
   257
176
     1
 43
1.0
176
     1
 76
     1
176
     1
 77
     6
176
     1
 78
     2
176
     1
 67
     7
176
     1
 79
     5
176
     1
170
     0
176
     1
171
     0
176
     1
290
     0
176
     1
 93
       13
176
     1
 44
0.0
176
     1
173
     0
176
     1
1001
ACAD
1000
AcDbSavedByObjectVersion
1070
     0
  0
VISUALSTYLE
  5
2C
102
{ACAD_XDICTIONARY
360
7E2
102
}
102
{ACAD_REACTORS
330
29
102
}
330
29
100
AcDbVisualStyle
  2
Gouraud
 70
     2
177
     2
291
     1
 71
     2
176
     1
 72
     2
176
     1
 73
     1
176
     1
 90
        2
176
     1
 40
0.6
176
     1
 41
30.0
176
     1
 63
     7
421
 16777215
176
     1
 74
     0
176
     1
 91
        0
176
     1
 64
     7
176
     1
 65
   257
176
     1
 75
     1
176
     1
175
     1
176
     1
 42
1.0
176
     1
 92
        0
176
     1
 66
     7
176
     1
 43
1.0
176
     1
 76
     1
176
     1
 77
     6
176
     1
 78
     2
176
     1
 67
     7
176
     1
 79
     5
176
     1
170
     0
176
     1
171
     0
176
     1
290
     0
176
     1
 93
       13
176
     1
 44
0.0
176
     1
173
     0
176
     1
1001
ACAD
1000
AcDbSavedByObjectVersion
1070
     0
  0
VISUALSTYLE
  5
2D
102
{ACAD_XDICTIONARY
360
7E4
102
}
102
{ACAD_REACTORS
330
29
102
}
330
29
100
AcDbVisualStyle
  2
GouraudWithEdges
 70
     3
177
     2
291
     1
 71
     2
176
     1
 72
     2
176
     1
 73
     1
176
     1
 90
        2
176
     1
 40
0.6
176
     1
 41
30.0
176
     1
 63
     7
421
 16777215
176
     1
 74
     1
176
     1
 91
        0
176
     1
 64
     7
176
     1
 65
   257
176
     1
 75
     1
176
     1
175
     1
176
     1
 42
1.0
176
     1
 92
        0
176
     1
 66
   257
176
     1
 43
1.0
176
     1
 76
     1
176
     1
 77
     6
176
     1
 78
     2
176
     1
 67
     7
176
     1
 79
     5
176
     1
170
     0
176
     1
171
     0
176
     1
290
     0
176
     1
 93
       13
176
     1
 44
0.0
176
     1
173
     0
176
     1
1001
ACAD
1000
AcDbSavedByObjectVersion
1070
     0
  0
VISUALSTYLE
  5
31
102
{ACAD_XDICTIONARY
360
7EC
102
}
102
{ACAD_REACTORS
330
29
102
}
330
29
100
AcDbVisualStyle
  2
Hidden
 70
     6
177
     2
291
     0
 71
     1
176
     1
 72
     2
176
     1
 73
     2
176
     1
 90
        0
176
     1
 40
0.6
176
     1
 41
30.0
176
     1
 63
     7
421
 16777215
176
     1
 74
     2
176
     1
 91
        2
176
     1
 64
     7
176
     1
 65
   257
176
     1
 75
     2
176
     1
175
     1
176
     1
 42
40.0
176
     1
 92
        0
176
     1
 66
   257
176
     1
 43
1.0
176
     1
 76
     1
176
     1
 77
     6
176
     1
 78
     2
176
     1
 67
     7
176
     1
 79
     3
176
     1
170
     0
176
     1
171
     0
176
     1
290
     0
176
     1
 93
        1
176
     1
 44
0.0
176
     1
173
     0
176
     1
1001
ACAD
1000
AcDbSavedByObjectVersion
1070
     0
  0
VISUALSTYLE
  5
3F
102
{ACAD_XDICTIONARY
360
808
102
}
102
{ACAD_REACTORS
330
29
102
}
330
29
100
AcDbVisualStyle
  2
JitterOff
 70
    20
177
     2
291
     1
 71
     2
176
     0
 72
     2
176
     0
 73
     0
176
     0
 90
        0
176
     0
 40
0.6
176
     0
 41
30.0
176
     0
 63
     7
421
 16777215
176
     0
 74
     1
176
     0
 91
        4
176
     0
 64
     7
176
     0
 65
   257
176
     0
 75
     1
176
     0
175
     1
176
     0
 42
1.0
176
     0
 92
       10
176
     2
 66
     7
176
     0
 43
1.0
176
     0
 76
     1
176
     0
 77
     6
176
     0
 78
     2
176
     0
 67
     7
176
     0
 79
     5
176
     0
170
     0
176
     0
171
     0
176
     0
290
     0
176
     0
 93
        1
176
     0
 44
0.0
176
     0
173
     0
176
     0
1001
ACAD
1000
AcDbSavedByObjectVersion
1070
     0
  0
VISUALSTYLE
  5
37
102
{ACAD_XDICTIONARY
360
7F8
102
}
102
{ACAD_REACTORS
330
29
102
}
330
29
100
AcDbVisualStyle
  2
Linepattern
 70
    14
177
     2
291
     1
 71
     2
176
     1
 72
     2
176
     1
 73
     0
176
     1
 90
        0
176
     1
 40
0.6
176
     1
 41
30.0
176
     1
 63
     7
421
 16777215
176
     1
 74
     1
176
     1
 91
        4
176
     1
 64
     7
176
     1
 65
   257
176
     1
 75
     7
176
     1
175
     7
176
     1
 42
1.0
176
     1
 92
        8
176
     1
 66
     7
176
     1
 43
1.0
176
     1
 76
     1
176
     1
 77
     6
176
     1
 78
     2
176
     1
 67
     7
176
     1
 79
     5
176
     1
170
     0
176
     1
171
     0
176
     1
290
     0
176
     1
 93
        1
176
     1
 44
0.0
176
     1
173
     0
176
     1
1001
ACAD
1000
AcDbSavedByObjectVersion
1070
     0
  0
VISUALSTYLE
  5
40
102
{ACAD_XDICTIONARY
360
80A
102
}
102
{ACAD_REACTORS
330
29
102
}
330
29
100
AcDbVisualStyle
  2
OverhangOff
 70
    21
177
     2
291
     1
 71
     2
176
     0
 72
     2
176
     0
 73
     0
176
     0
 90
        0
176
     0
 40
0.6
176
     0
 41
30.0
176
     0
 63
     7
421
 16777215
176
     0
 74
     1
176
     0
 91
        4
176
     0
 64
     7
176
     0
 65
   257
176
     0
 75
     1
176
     0
175
     1
176
     0
 42
1.0
176
     0
 92
        9
176
     2
 66
     7
176
     0
 43
1.0
176
     0
 76
     1
176
     0
 77
     6
176
     0
 78
     2
176
     0
 67
     7
176
     0
 79
     5
176
     0
170
     0
176
     0
171
     0
176
     0
290
     0
176
     0
 93
        1
176
     0
 44
0.0
176
     0
173
     0
176
     0
1001
ACAD
1000
AcDbSavedByObjectVersion
1070
     0
  0
VISUALSTYLE
  5
33
102
{ACAD_XDICTIONARY
360
7F0
102
}
102
{ACAD_REACTORS
330
29
102
}
330
29
100
AcDbVisualStyle
  2
Realistic
 70
     8
177
     2
291
     0
 71
     2
176
     1
 72
     3
176
     1
 73
     0
176
     1
 90
        2
176
     1
 40
0.6
176
     1
 41
30.0
176
     1
 63
     7
421
 16777215
176
     1
 74
     0
176
     1
 91
        0
176
     1
 64
     7
176
     1
 65
   257
176
     1
 75
     1
176
     1
175
     1
176
     1
 42
1.0
176
     1
 92
        8
176
     1
 66
   257
176
     1
 43
1.0
176
     1
 76
     1
176
     1
 77
     6
176
     1
 78
     2
176
     1
 67
     7
176
     1
 79
     3
176
     1
170
     0
176
     1
171
     0
176
     1
290
     0
176
     1
 93
       13
176
     1
 44
0.0
176
     1
173
     0
176
     1
1001
ACAD
1000
AcDbSavedByObjectVersion
1070
     0
  0
VISUALSTYLE
  5
3E
102
{ACAD_XDICTIONARY
360
806
102
}
102
{ACAD_REACTORS
330
29
102
}
330
29
100
AcDbVisualStyle
  2
Shaded
 70
    27
177
     2
291
     0
 71
     2
176
     1
 72
     2
176
     1
 73
     1
176
     1
 90
        2
176
     1
 40
0.6
176
     1
 41
30.0
176
     1
 63
     7
421
 16777215
176
     1
 74
     0
176
     1
 91
        4
176
     1
 64
     7
176
     1
 65
   257
176
     1
 75
     1
176
     1
175
     1
176
     1
 42
1.0
176
     1
 92
        8
176
     1
 66
   257
176
     1
 43
1.0
176
     1
 76
     1
176
     1
 77
     6
176
     1
 78
     2
176
     1
 67
     8
425
  7895160
176
     1
 79
     3
176
     1
170
     0
176
     1
171
     0
176
     1
290
     0
176
     1
 93
        5
176
     1
 44
0.0
176
     1
173
     0
176
     1
1001
ACAD
1000
AcDbSavedByObjectVersion
1070
     0
  0
VISUALSTYLE
  5
3D
102
{ACAD_XDICTIONARY
360
804
102
}
102
{ACAD_REACTORS
330
29
102
}
330
29
100
AcDbVisualStyle
  2
Shaded with edges
 70
    26
177
     2
291
     0
 71
     2
176
     1
 72
     2
176
     1
 73
     1
176
     1
 90
        2
176
     1
 40
0.6
176
     1
 41
30.0
176
     1
 63
     7
421
 16777215
176
     1
 74
     1
176
     1
 91
       10
176
     1
 64
     7
176
     1
 65
   257
176
     1
 75
     2
176
     1
175
     1
176
     1
 42
1.0
176
     1
 92
        8
176
     1
 66
   257
176
     1
 43
1.0
176
     1
 76
     1
176
     1
 77
     6
176
     1
 78
     2
176
     1
 67
     7
176
     1
 79
     3
176
     1
170
     0
176
     1
171
     0
176
     1
290
     0
176
     1
 93
        5
176
     1
 44
0.0
176
     1
173
     0
176
     1
1001
ACAD
1000
AcDbSavedByObjectVersion
1070
     0
  0
VISUALSTYLE
  5
3A
102
{ACAD_XDICTIONARY
360
7FE
102
}
102
{ACAD_REACTORS
330
29
102
}
330
29
100
AcDbVisualStyle
  2
Shades of Gray
 70
    23
177
     2
291
     0
 71
     2
176
     1
 72
     2
176
     1
 73
     3
176
     1
 90
        0
176
     1
 40
0.6
176
     1
 41
30.0
176
     1
 63
     7
421
 16777215
176
     1
 74
     2
176
     1
 91
        2
176
     1
 64
     7
176
     1
 65
     7
176
     1
 75
     1
176
     1
175
     1
176
     1
 42
40.0
176
     1
 92
        8
176
     1
 66
     7
176
     1
 43
1.0
176
     1
 76
     1
176
     1
 77
     6
176
     1
 78
     2
176
     1
 67
     7
176
     1
 79
     3
176
     1
170
     0
176
     1
171
     0
176
     1
290
     0
176
     1
 93
        1
176
     1
 44
0.0
176
     1
173
     0
176
     1
1001
ACAD
1000
AcDbSavedByObjectVersion
1070
     0
  0
VISUALSTYLE
  5
3B
102
{ACAD_XDICTIONARY
360
800
102
}
102
{ACAD_REACTORS
330
29
102
}
330
29
100
AcDbVisualStyle
  2
Sketchy
 70
    24
177
     2
291
     0
 71
     1
176
     1
 72
     2
176
     1
 73
     2
176
     1
 90
        0
176
     1
 40
0.6
176
     1
 41
30.0
176
     1
 63
     7
421
 16777215
176
     1
 74
     2
176
     1
 91
        2
176
     1
 64
     7
176
     1
 65
     7
176
     1
 75
     1
176
     1
175
     1
176
     1
 42
40.0
176
     1
 92
       11
176
     1
 66
     7
176
     1
 43
1.0
176
     1
 76
     1
176
     1
 77
     6
176
     1
 78
     2
176
     1
 67
     7
176
     1
 79
     6
176
     1
170
     0
176
     1
171
     0
176
     1
290
     0
176
     1
 93
        1
176
     1
 44
0.0
176
     1
173
     0
176
     1
1001
ACAD
1000
AcDbSavedByObjectVersion
1070
     0
  0
VISUALSTYLE
  5
36
102
{ACAD_XDICTIONARY
360
7F6
102
}
102
{ACAD_REACTORS
330
29
102
}
330
29
100
AcDbVisualStyle
  2
Thicken
 70
    13
177
     2
291
     1
 71
     2
176
     1
 72
     2
176
     1
 73
     0
176
     1
 90
        0
176
     1
 40
0.6
176
     1
 41
30.0
176
     1
 63
     7
421
 16777215
176
     1
 74
     1
176
     1
 91
        4
176
     1
 64
     7
176
     1
 65
   257
176
     1
 75
     1
176
     1
175
     1
176
     1
 42
1.0
176
     1
 92
       12
176
     1
 66
     7
176
     1
 43
1.0
176
     1
 76
     1
176
     1
 77
     6
176
     1
 78
     2
176
     1
 67
     7
176
     1
 79
     5
176
     1
170
     0
176
     1
171
     0
176
     1
290
     0
176
     1
 93
        1
176
     1
 44
0.0
176
     1
173
     0
176
     1
1001
ACAD
1000
AcDbSavedByObjectVersion
1070
     0
  0
VISUALSTYLE
  5
30
102
{ACAD_XDICTIONARY
360
7EA
102
}
102
{ACAD_REACTORS
330
29
102
}
330
29
100
AcDbVisualStyle
  2
Wireframe
 70
     5
177
     2
291
     0
 71
     0
176
     1
 72
     2
176
     1
 73
     0
176
     1
 90
        0
176
     1
 40
0.6
176
     1
 41
30.0
176
     1
 63
     7
421
 16777215
176
     1
 74
     1
176
     1
 91
        4
176
     1
 64
     7
176
     1
 65
   257
176
     1
 75
     1
176
     1
175
     1
176
     1
 42
1.0
176
     1
 92
        0
176
     1
 66
   257
176
     1
 43
1.0
176
     1
 76
     1
176
     1
 77
     6
176
     1
 78
     2
176
     1
 67
     7
176
     1
 79
     3
176
     1
170
     0
176
     1
171
     0
176
     1
290
     0
176
     1
 93
        1
176
     1
 44
0.0
176
     1
173
     0
176
     1
1001
ACAD
1000
AcDbSavedByObjectVersion
1070
     0
  0
VISUALSTYLE
  5
3C
102
{ACAD_XDICTIONARY
360
802
102
}
102
{ACAD_REACTORS
330
29
102
}
330
29
100
AcDbVisualStyle
  2
X-Ray
 70
    25
177
     2
291
     0
 71
     2
176
     1
 72
     2
176
     1
 73
     1
176
     1
 90
        1
176
     1
 40
0.5
176
     1
 41
30.0
176
     1
 63
     7
421
 16777215
176
     1
 74
     1
176
     1
 91
        0
176
     1
 64
     7
176
     1
 65
   257
176
     1
 75
     1
176
     1
175
     1
176
     1
 42
1.0
176
     1
 92
        8
176
     1
 66
     7
176
     1
 43
1.0
176
     1
 76
     1
176
     1
 77
     6
176
     1
 78
     2
176
     1
 67
     7
176
     1
 79
     3
176
     1
170
     0
176
     1
171
     0
176
     1
290
     0
176
     1
 93
       13
176
     1
 44
0.0
176
     1
173
     0
176
     1
1001
ACAD
1000
AcDbSavedByObjectVersion
1070
     0
  0
DICTIONARYVAR
  5
7C7
102
{ACAD_REACTORS
330
7C2
102
}
330
7C2
100
DictionaryVariables
280
     0
  1
1:1
  0
DICTIONARYVAR
  5
7C4
102
{ACAD_REACTORS
330
7C2
102
}
330
7C2
100
DictionaryVariables
280
     0
  1
STANDARD
  0
DICTIONARYVAR
  5
7C3
102
{ACAD_REACTORS
330
7C2
102
}
330
7C2
100
DictionaryVariables
280
     0
  1
STANDARD
  0
DICTIONARYVAR
  5
7C5
102
{ACAD_REACTORS
330
7C2
102
}
330
7C2
100
DictionaryVariables
280
     0
  1
Imperial24
  0
DICTIONARYVAR
  5
7C6
102
{ACAD_REACTORS
330
7C2
102
}
330
7C2
100
DictionaryVariables
280
     0
  1
Imperial24
  0
DICTIONARY
  5
1A
330
19
100
AcDbDictionary
280
     1
281
     1
  3
BUMPTILE
360
1C
  3
DIFFUSETILE
360
1B
  3
OPACITYTILE
360
1F
  3
REFLECTIONTILE
360
1E
  3
REFRACTIONTILE
360
20
  3
SPECULARTILE
360
1D
  0
DICTIONARY
  5
12
330
11
100
AcDbDictionary
280
     1
281
     1
  3
BUMPTILE
360
14
  3
DIFFUSETILE
360
13
  3
FBXASSET
360
FD
  3
OPACITYTILE
360
17
  3
REFLECTIONTILE
360
16
  3
REFRACTIONTILE
360
18
  3
SPECULARTILE
360
15
  0
DICTIONARY
  5
22
330
21
100
AcDbDictionary
280
     1
281
     1
  3
BUMPTILE
360
24
  3
DIFFUSETILE
360
23
  3
OPACITYTILE
360
27
  3
REFLECTIONTILE
360
26
  3
REFRACTIONTILE
360
28
  3
SPECULARTILE
360
25
  0
DICTIONARY
  5
80E
330
67
100
AcDbDictionary
280
     1
281
     1
  3
ACAD_XREC_ROUNDTRIP
360
80F
  0
DICTIONARY
  5
7C8
330
65
100
AcDbDictionary
280
     1
281
     1
  3
ACAD_ROUNDTRIP_2008_TABLESTYLE_CELLSTYLEMAP
360
7C9
  0
DICTIONARY
  5
7E8
330
2F
100
AcDbDictionary
280
     1
281
     1
  3
ACAD_XREC_ROUNDTRIP
360
7E9
  0
DICTIONARY
  5
7E6
330
2E
100
AcDbDictionary
280
     1
281
     1
  3
ACAD_XREC_ROUNDTRIP
360
7E7
  0
DICTIONARY
  5
7F4
330
35
100
AcDbDictionary
280
     1
281
     1
  3
ACAD_XREC_ROUNDTRIP
360
7F5
  0
DICTIONARY
  5
7FC
330
39
100
AcDbDictionary
280
     1
281
     1
  3
ACAD_XREC_ROUNDTRIP
360
7FD
  0
DICTIONARY
  5
7EE
330
32
100
AcDbDictionary
280
     1
281
     1
  3
ACAD_XREC_ROUNDTRIP
360
7EF
  0
DICTIONARY
  5
7F2
330
34
100
AcDbDictionary
280
     1
281
     1
  3
ACAD_XREC_ROUNDTRIP
360
7F3
  0
DICTIONARY
  5
80C
330
41
100
AcDbDictionary
280
     1
281
     1
  3
ACAD_XREC_ROUNDTRIP
360
80D
  0
DICTIONARY
  5
7FA
330
38
100
AcDbDictionary
280
     1
281
     1
  3
ACAD_XREC_ROUNDTRIP
360
7FB
  0
DICTIONARY
  5
7DE
330
2A
100
AcDbDictionary
280
     1
281
     1
  3
ACAD_XREC_ROUNDTRIP
360
7DF
  0
DICTIONARY
  5
7E0
330
2B
100
AcDbDictionary
280
     1
281
     1
  3
ACAD_XREC_ROUNDTRIP
360
7E1
  0
DICTIONARY
  5
7E2
330
2C
100
AcDbDictionary
280
     1
281
     1
  3
ACAD_XREC_ROUNDTRIP
360
7E3
  0
DICTIONARY
  5
7E4
330
2D
100
AcDbDictionary
280
     1
281
     1
  3
ACAD_XREC_ROUNDTRIP
360
7E5
  0
DICTIONARY
  5
7EC
330
31
100
AcDbDictionary
280
     1
281
     1
  3
ACAD_XREC_ROUNDTRIP
360
7ED
  0
DICTIONARY
  5
808
330
3F
100
AcDbDictionary
280
     1
281
     1
  3
ACAD_XREC_ROUNDTRIP
360
809
  0
DICTIONARY
  5
7F8
330
37
100
AcDbDictionary
280
     1
281
     1
  3
ACAD_XREC_ROUNDTRIP
360
7F9
  0
DICTIONARY
  5
80A
330
40
100
AcDbDictionary
280
     1
281
     1
  3
ACAD_XREC_ROUNDTRIP
360
80B
  0
DICTIONARY
  5
7F0
330
33
100
AcDbDictionary
280
     1
281
     1
  3
ACAD_XREC_ROUNDTRIP
360
7F1
  0
DICTIONARY
  5
806
330
3E
100
AcDbDictionary
280
     1
281
     1
  3
ACAD_XREC_ROUNDTRIP
360
807
  0
DICTIONARY
  5
804
330
3D
100
AcDbDictionary
280
     1
281
     1
  3
ACAD_XREC_ROUNDTRIP
360
805
  0
DICTIONARY
  5
7FE
330
3A
100
AcDbDictionary
280
     1
281
     1
  3
ACAD_XREC_ROUNDTRIP
360
7FF
  0
DICTIONARY
  5
800
330
3B
100
AcDbDictionary
280
     1
281
     1
  3
ACAD_XREC_ROUNDTRIP
360
801
  0
DICTIONARY
  5
7F6
330
36
100
AcDbDictionary
280
     1
281
     1
  3
ACAD_XREC_ROUNDTRIP
360
7F7
  0
DICTIONARY
  5
7EA
330
30
100
AcDbDictionary
280
     1
281
     1
  3
ACAD_XREC_ROUNDTRIP
360
7EB
  0
DICTIONARY
  5
802
330
3C
100
AcDbDictionary
280
     1
281
     1
  3
ACAD_XREC_ROUNDTRIP
360
803
  0
XRECORD
  5
1C
102
{ACAD_REACTORS
330
1A
102
}
330
1A
100
AcDbXrecord
280
     1
270
     1
271
     1
  0
XRECORD
  5
1B
102
{ACAD_REACTORS
330
1A
102
}
330
1A
100
AcDbXrecord
280
     1
270
     1
271
     1
  0
XRECORD
  5
1F
102
{ACAD_REACTORS
330
1A
102
}
330
1A
100
AcDbXrecord
280
     1
270
     1
271
     1
  0
XRECORD
  5
1E
102
{ACAD_REACTORS
330
1A
102
}
330
1A
100
AcDbXrecord
280
     1
270
     1
271
     1
  0
XRECORD
  5
20
102
{ACAD_REACTORS
330
1A
102
}
330
1A
100
AcDbXrecord
280
     1
270
     1
271
     1
  0
XRECORD
  5
1D
102
{ACAD_REACTORS
330
1A
102
}
330
1A
100
AcDbXrecord
280
     1
270
     1
271
     1
  0
XRECORD
  5
14
102
{ACAD_REACTORS
330
12
102
}
330
12
100
AcDbXrecord
280
     1
270
     1
271
     1
  0
XRECORD
  5
13
102
{ACAD_REACTORS
330
12
102
}
330
12
100
AcDbXrecord
280
     1
270
     1
271
     1
  0
XRECORD
  5
FD
102
{ACAD_REACTORS
330
12
102
}
330
12
100
AcDbXrecord
280
     1
 70
     1
 90
1959938040
 71
     1
  1
AC02139F-2956-4570-95F5-F9787F9B3A02
311
504B03040A0000080000424A07473DEE336E79000000790000001B0000006175746F6465736B2D64657369676E2D7061636B6167652E786D6C3C3F786D6C2076657273696F6E3D22312E302220656E636F64696E673D227574662D3822203F3E3C666F726D6174733E3C666F726D61743E687474703A2F2F736368656D612E
311
6175746F6465736B2E636F6D2F64657369676E2D7061636B6167652F323030393C2F666F726D61743E3C2F666F726D6174733E504B0304140006080800424A0747FAA28935A700000035010000130000005B436F6E74656E745F54797065735D2E786D6CA58FC10E823010447FA5D93B143D1863281ED43FE0076ADD4223DD
311
36ED62F0EF2DE16ABC78DC9DC99B99F6BCF849BC30651748C1AE6E402099F070342898D9564710E7AEEDDF11B3285ECA0A46E67892329B11BDCE75884845B12179CDE54C838CDA3CF58072DF34076902311257BC32A06BAF68F53CB1B82DE5BDE5DE1D81B86CBEBED814E818276734975A321846AE3227D41EE4578023FB1F
311
A00CF80158D5122CD76EB9FB00504B0304140006080800424A07476C582168FB0000009701000008000000636F72652E786D6C8D905D6EC2301084AF62ED6BE5C40E0984C83182404ED00B588E492D881DF907F5F8752048ED5B9F76359ECF3B1A76F89EEEE8A19CD7D6B4403302481969076DC61662B8E21AD08133676DF8
311
650364C4A45A5864E06C7436CEAB24AD09CA84A41A3BA85514DEAB0048DED3D282975F6A1299882139FC2D9B85BC895165F4BD2538463DA0D7113DA4FFF4552B07BC3BEF48DD95677C399E0A5CF6BB0A9FB6C71ED3BABC6C48B9DD7745CFF205E62CE8E97D5F3A25821A8017845698D498EC3EC9BEA17543AA0F421B4258BE
311
D8FF40711EFE09456DC2A658E3BE300F9CA620CF07CE7C70A9D0D5904A08C88B47CA9373962F35A5F1EC30CDA552FE03504B0304140006080800424A07476B995E6D7D0000009D00000007000000636E782E786D6C4DCCD10A83201886E15B91FFDCE520E90FD4286DF711CB42663A9C8E5DFE6A74B0A30F1E3E5ED17D364F
311
DE36BD5C0C12AE1706C4867B9C5D582594BC5004D2299162CC7F372061DAAC8483418935C5F23C69B6CB547CDED5BBF03871E899697953D39123D2BAD1036D0D32DA1B6E6E236AD49C41A544F52BED7B84D517504B0304140006080800424A0747E5BD83062A0100001E0200002D00000042413044393537342D453538382D
311
343743422D394438302D4144354446453843384335302F636F72652E786D6C8D515B72C22014DD0AC3979D4E1262A5A24370D4D815740311AE96D1408647C7E5179A68DBBFFE84CCB9F73CE0F0CDADBFA24F705E5BD3E0BA241881915669736E700CA78261B411DC591B7EAD6164BA1E1A9C612CF8D9D9384C90B426800909
311
3556C10476DE43C0485ED34F83BDFC80BE2BBB18D286BF9443272FDD19CABA4CE3B427B80F2E0540A349FE62B1DB927645978BE240192B16CBFDAE58B58C14DB96B66F07B6677B4A783512058F51AB89AE558AA34F1ADC7F453259F0A0FB7B7CE9A00BA0B098939A16841564F94E56EB9AAD097D26F59A24E7BCFE871407F5
311
4F52D426BCCCA7B823CD6351F36A1C08AE6C3C5EEF61E036581750F69B79904FB84AD74D0AAF8B49C107EBD273CE2EC7C7ECA10EFD1114B243487563417F2CAADC96E0D57795E9CCCD8A2F504B0304140006080800424A07476A77868595000000F50000002C00000042413044393537342D453538382D343743422D394438
311
302D4144354446453843384335302F636E782E786D6C5D8E4B0EC2300C44AF12795F023B164E2A246EC00942E396887C503E88E313438550375EBC9979328EAFE0C5937271292A38ECF620284EC9BAB82868751E8E20468D39A5FA5703114D20058C41E392537BACC8D26C9AAF9D7A17EF2B3C9542F56CAAE99897C2A7C9F8
311
2EA038B402FA97A3E458A3E4B146BEABE232DD2898DE456E6C0514AE642D5951BEB58D477E3EEC5A7E58BF01504B0304140006080800424A07471F7B3A65FE000000A00100003700000042413044393537342D453538382D343743422D394438302D4144354446453843384335302F4173736574446174612F636F72652E78
311
6D6C8D504B6E833010BD0A9A6D65B00910828C2342C2097A010B1C6A25D8C89FAAC7AF1DA8D4EEBAF158EF33F3F4E8F96B79269FC258A9550B24C5900835EA49AAB905EFEEA886E4CCA8D1DAFD9241A2F8225A8830303A1BEDD71D1AB57242B9802A3D891DE4D60A07C9F80C9F16ECF821169E72EF82C23ED2958F0F3E8B94
311
A4810E3A46AD332140B21D892FB02EAEB872C769B6B18C7A2FA75D23A77053DEA530C0FAEB11D77DD1A35B77C951311C4B74A9BA0191BAB81D70519DFA7CA0593433EAE4F2937134823B3101CB312911AE113EBEE35343EA06976F983418D32CCAFF98FC3AFDD3E4A572877C8FBBD92CB02A0479118C66B1AF305E658619BB
311
65DF504B0304140006080800424A07479DCE87ED77010000860500003600000042413044393537342D453538382D343743422D394438302D4144354446453843384335302F4173736574446174612F636E782E786D6CD554B16EC32010FD15C45AD9C695A2A61126AADA25532A35EA4EF03945C160C1B96AFFBE603B72A42A
311
5386360BA0E3BD77C7D3717CFDD51AF2093E68672B5AE68C12B0CAD5DA1E2ADA63932D29590BEE9DC333182556B650D114A6821FBCEBBB295443237B83316AB43D4EC11768B4D518736C10BC44E75FBDEBC0A38640893232848A06F501ADCC658FAE8670CC6B89322F730FC1F55E41544C4989714A9A981B6CD6072A666972
311
D226B3382F1247F0DE6B924E154DEB39EB449A39F95E5B5E4486E0017D346262E277178B905D67B492E92D855308984510C89617718F60C151B73051940789505371CFCA45C696197BD8B1C755B95CB1C51D2B578CF122C105DF3B672692B6D123D711E5E2C122151194AE052F92A582A775C26E6C406915CCD5FF899DBFCB
311
B825139F4200DCC9BD816DF33C9A7E6D570E9264D024DB869C542FB5E3001FD07305B7E4E01BC6466FDFC73132BCE3CA361C05C9A41846272FB9378227EC903DD7B6F9D75FB8184666FCD13E0E56F103504B0304140006080800424A0747BC1BE11384000000200100004F00000042413044393537342D453538382D343743
311
422D394438302D4144354446453843384335302F4173736574446174612F446566696E6974696F6E4974657261746F7250726F706572746965732E62696EEB604866F90F050C40C008C40D0C8C0CBC40DA3D352FB5283339383923353791811D28E254E99358995A046242259980A220AE4B6A5A62694E09489B6F6671726A
311
4E4E625E6A7E69B120501EAA542137B104685E628E1E481327500226500C32211D621B23505C828101E424492093C137B1A438C61D2217930EA1F50AF2D2417274C000504B0304140006080800424A0747EBC22C59F4000000300200004500000042413044393537342D453538382D343743422D394438302D414435444645
311
3843384335302F4173736574446174612F496E7374616E636550726F706572746965732E62696EEB604866F90F050C40C008C40D0C8C0CBC40DA3D352FB52833393839233537510528E0E86C6064686CE9A66B64696AA66B626A6EA06B69EA66AAEB66696E61EE66E964EC6860C40E5407D508D2626C68E2E26A646AA96B6A
311
6262AC6B626664A8EBE4E6E4A26B686E6CE06CE6EC6CE9E86A09B2934133A6FFD0578D2BF6509A09684C030303038C6F0F6403D1077BA0DB8034038380038300031CA83830E007408D10057006848B49C2158019CC40050D0C60F000EA061E300F9D00852142E603542DBA2A0686949D0E0C780176AD20E341E109D2FAC19E
311
05483102311F10079727962467E83A1525E6A5A4A680DC0B14A4190200504B0304140006080800424A074749300E9D51000000570000004700000042413044393537342D453538382D343743422D394438302D4144354446453843384335302F4173736574446174612F41737365745461626C654F66436F6E74656E74732E
311
62696E53616060707436303234B674D335B23435D335313537D0B5347533D575B334B73077B374327634301202AACB4D2C492DCA4CCC492C28484D2C4ACC4B4E050A82112F90744FCD03CA26072767A4E6260200504B0304140006080800424A0747F865834058000000680000004500000042413044393537342D45353838
311
2D343743422D394438302D4144354446453843384335302F4173736574446174612F53747265616D56657273696F6E5461626C652E696E66558CBD0A80300C06F73E4B117FB66E451741D041DC5BF98480A492E4FDD18EAEC7DD4555D89EF28DF51A0B1BD8340C4DE7DD848B988C0ACF0649566493F2408C508DDEBB99D512
311
9FF8F1AF8CF5B9503E20FAE5A16B5AF702504B0304140006080800424A0747AD1D2AF1FD0000009E0100003500000042413044393537342D453538382D343743422D394438302D4144354446453843384335302F536368656D61732F636F72652E786D6C8D504B6E833010BD0A9A6D65B00924041947090917682F60618758
311
0936C276D5E3D7062AB5BB6E6646EFA3797AF4F435BE924F395B65740324C59048DD1BA1F4D0807777544172627436C6FD9241A2F9281B8830303ACCC64F1BD41BEDA47601D546C80DE4D64A0749FF0A4703B67FC891A7DCBBA0B0CF74E2FD930F322569A0838E51EBE61020599FC409EC7D31599AAD1CA3DE2BB12994081F
311
D55DC919587B3DE0AA2DAEE876BEE4A8E80E25BAECCF1D225571DBE1627F6CF38E66D1CCA853E34FC27E96DC49012CC7A444B842F8F0818F35A96A5CBE6152634CB328FF63F293F8A7C92BED76F91677B559602404590846B3D856584B9561C766D937504B0304140006080800424A0747535D442228010000D30300003400
311
000042413044393537342D453538382D343743422D394438302D4144354446453843384335302F536368656D61732F636E782E786D6CD593CF4EC42010C65F8570356DA9C9C6BAA1B3070F9EBCB8BE00D2D95DB29469F863F4ED852E8735F1AAD10B6186DFF0653E18B97B9F2D7B431F0CB991F7ADE00C9DA6C9B8E3C8533C
311
3403673B909E285E619C3935E3C84B9A833C7A4A4B4D4D7850C9C69CB5C69D6BF281E699DC5E9F70569C69AB42187958C356A5481386733BA9A8DABEF51828798DF98622C22C6965B316BA26050EFBB58A1D8C45D9150064F2A6EA9498C3B55A9BFB935D264086E87357958C1F4B5650CB628D563137DFADE0850119CD8C95
311
D41E55C489C3ADE8378D181A71F722EEB7FDB0159B1BD16F85905DC141BE12D95A645C444F0BD394372E72C8503906D9155B4096B5B28FE8D01B7D69ECE7DDF922F70FEC794637A17FCA6FE08DB2BFE5D277AA7FD5AC6E9DBFFCB57C9E52F804504B0304140006080800424A07472F7B2A8D8D0100005E0600003D00000042
311
413044393537342D453538382D343743422D394438302D4144354446453843384335302F536368656D61732F436F6D6D6F6E536368656D612E786D6CC5944D6EC2301085F79C22F20550BB4E90A0486D24D44551BA1FE201AC3A76E43841B97D9D716A151228B448CD2A9267BE37CF3F2F9E5715DA75BEC702669388BE384B
311
97510332614FBA28B4F2AB6C3689A76E2554ADAD116A17099EB00554D8574565BD91224FD81664852CE2B8154A58A1556AD180D566091612664DED569B4E85C89E16E0A9B2B84343744F7E4753390A3B1530085C2BD91E211F89D94302D46B10936CAFC4265D326F95451236E83C7F5BE91CFB9E3104743B67DBD2D938F13C
311
3A124D749E26750EF22A1A551EB9BD06ADA0F879D09BD159FA3AC6BD7CE837AB7C607BD0860F8E1EA4D487A296569412DD55AAB1FADA973B4F9083BB8EDAB4FF3802C72A37A2EC5ED2608A7BB8CDDE56F432ECBE2E360A841CA8FC7ABBDDD1248C2EA913094F69A1B5445024FA2238473550BCEC8BB05B8A99EEA5F6BCC0CF
311
6AC109DE27C7B30BAFDF28F8C11D2C90FB5C21787326969A2ED91EA8B72F1F6D37D888D158BBD0EF3691A49D9F10AE0363E733C8B58751DC3FA1E6BC019523FF2B329ECEBB54F4893D9B7C02504B0304140006080800424A07477229482E27050000001600003E00000042413044393537342D453538382D343743422D3944
311
38302D4144354446453843384335302F536368656D61732F47656E65726963536368656D612E786D6CDD586D4FE33810FECEAFB0F27D4BCB1DAB5BA9456A41F4FA0171A2705F2D37718AEF9CA4B29D42EFD7DF783C3549CBB601F676B587549197F1CC3CF3F278E2E1D85AE9E6E9A32CC4C509C3BFE1C3EC8AAD851E255359
311
4AA3D2F03AB938199EC2AB2836115606B93B5966D2DC0807D24237C4BD4894779B15C9172429562B298C285389CABD40949E954E2EA5612A1B2541E39FD2585595095BD50BADD251920B6D65C28C145955EACD2871A686FBB5777D801A4949543A7746954BD4A9AB54686FF1A83E946C291FB7FD0E5ABF6AA414057875C4E9
311
7D23147CC4B1636152555A8A1271A495AE0C5F6C78B5F84BA62E0919C94368B45848C8E3A59761930DBB0D323E93A4237A1D647CB49721EB3C53795EFB000BADABA7B42A4BD02F33E12BC68E120B91D4006C2DF4DD28E9F77E199CA3F169F366D2BC198F9241C29A3E2138B41CFDB8D69570886CC70FAE0AB1943C1799443B
311
4D6533FF8A5DFB57172754C68C0D27555D6696ADA44965E960F5368BAA4C8D2CE09955FF485454A852157501EE268CAE15204C756DD51A44426915E23948010EBADE970AD1F59623A85344156FF1AE85D1C85C4374D55AB90D178EF733B94CD8D1C0A3BB14D0BB860A8C2B5A7983CD2FDFC3E8525716E22AADED06AF771E2B
311
66FAB2D487B80D8FCAB915546579219DD0542E79AB277E57CB470D3F673158B4FE40B81C10955D0923CB74D3CDF7E8F97D73E9CF59A0AE01E1FFDE8946A40E361AAE60577BA6E219F4CECF623EA1D548066AE720DD50CD1DE29B5EDF9349A09F7D32614433A3041A81AEF7A57C3F04B28B05DC85720804C7E4EA1A4832DDF0
311
27E9BBE23D154E1A8EC52450E9A190FC100A4E6B57D58E572B91020977C20F8923F2BDC4C5814A8E13D342A47FE722953CADF5EBEC34210976E925427A71CF8FF9452B2DBAB352E75C695D171C7EAAC4B92A8C03FD58BA731062332F0402BECA215BC3A3B5626115A94EFD2CC19D2C605715AE36921AE4F379FFC5CAA51762
311
F70D210F015D8E00824C73E06858C9958661921762D5211177B883AF8586D10352021793ED93D6C8718D4A191A46D878151D42F75A115DD4C58A8B02A60898ABBA6CC6BDB32F3B7F31F0E3A0E608FBE7618F3AD01C9F06FD7EBF5B8304C130B2BC8733303CFB01E99C1470738D490917909470D14ACA0462FC4A32683F6E59
311
1715AF60FC079D71F6A7F61B170B05D31CBB4D716003295F6FA4232698BE0676755A51ACB4847904150F3EC794CDE9C58773063B478799F2EC1C4CBF89E2095004B85FC110B24C59D7A0825F23BC1BF1CCAEB62F7DBC70795446D1DB8D56061395D2DB68052EA72C3CC0F760A8996B5315ECD63DC2F7DB0D7DEB056E24A5D1
311
089A6C9930D06D595A19F8F2B4DC884CD560AB4BEF455C775E037439AAC0D2422BD126F9F075AB680D3F7F244C7B0E5808B848416712D5E57009B447A8275A96197B52EEB11362CA59DB3A8CEE3C932BF74816A04F483B8C1AF8615095CCE7EBDEC0B6C1AE50F4C3650956BA94A5177B0B8910C2186FBADF456C5A883F0171
311
13E4DBB534466592017680EB37A96F85D85BF9819029937CE9BF6436DC12BF843D7A002C411100E024CAA628CAE624FA9D723E38FB0DB698FF22E9345A2F11D6C1086C533F45D19F3B0245150F2D1AFCEB1F7ADEA506890D532BEC15386B93397C17F806387A48B5F6875EC0B5F6741A8E6FB6FF1F66BDE742230DD66AD7C4
311
385BFBAD21FB36A65EB4BD6652F95DD69FB9080F0811CE5A8F6E600787B324015FD7470ECBF6C186B5780C146DAB96F608BDFDF8153F6EA7F377841B567DD8F21F46AE957C7A87755A89BBEF413786A7637F7E174E542F4EFE05504B0304140006080800424A07470A3355BE74010000170400004500000042413044393537
311
342D453538382D343743422D394438302D4144354446453843384335302F536368656D61732F52656E6465724D6174657269616C536368656D612E786D6CAD93DF6AC23014C6EF7D8A90075895B1BB54D00EA430D968A7B725B6C73690269244C5B75FFED955866C0C7B9593F3E577724EBE9285D660CABA839ECE27C87F64
311
93BFA213E5292E4034A0D6D480629407159E4F486215837A4935047926FB5E8A91CCA5065D2E0CB4A0106B521C345B509A4981D1E1B8E3AC4EF19E720D1829A08D14FC9262A38E363EB9BBCC7CE10819A09BE2CD03F3FEC0A10761A8B1C4B55BF0825EFE86F6644BFA85FABE2A1FCAFB507062707E287305C2BE55FD4F6669
311
1413AD1FA83E5353773F38FE29FCBC82761859D64956833F5A7B1B54654715349537180E068919ED331871BA03EBB2D286B6ACA546032244026E4BF9F186A9AD149A489BDE10ECB673E6E8E0F56EF771CCDAFBE03C2E4C64CE06663ECADD01932454BB16224B293950319EC22713A632B26DF9D5C8FB60F2D8BCCBDBCE4912
311
CF0EAC4C72197E963835A7AC6AB7EBEF5AA478FAF43C7BF1C16A1C2CC7C122C5DF3D3904CA3CC2B7E456A12049FC3B85FF723EF902504B010214000A0000080000424A07473DEE336E79000000790000001B00000000000000000000000000000000006175746F6465736B2D64657369676E2D7061636B6167652E786D6C50
311
4B01021400140006080800424A0747FAA28935A7000000350100001300000000000000000000000000B20000005B436F6E74656E745F54797065735D2E786D6C504B01021400140006080800424A07476C582168FB0000009701000008000000000000000000000000008A010000636F72652E786D6C504B01021400140006
311
080800424A07476B995E6D7D0000009D0000000700000000000000000000000000AB020000636E782E786D6C504B01021400140006080800424A0747E5BD83062A0100001E0200002D000000000000000000000000004D03000042413044393537342D453538382D343743422D394438302D4144354446453843384335302F
311
636F72652E786D6C504B01021400140006080800424A07476A77868595000000F50000002C00000000000000000000000000C204000042413044393537342D453538382D343743422D394438302D4144354446453843384335302F636E782E786D6C504B01021400140006080800424A07471F7B3A65FE000000A001000037
311
00000000000000000000000000A105000042413044393537342D453538382D343743422D394438302D4144354446453843384335302F4173736574446174612F636F72652E786D6C504B01021400140006080800424A07479DCE87ED77010000860500003600000000000000000000000000F406000042413044393537342D
311
453538382D343743422D394438302D4144354446453843384335302F4173736574446174612F636E782E786D6C504B01021400140006080800424A0747BC1BE11384000000200100004F00000000000000000000000000BF08000042413044393537342D453538382D343743422D394438302D414435444645384338433530
311
2F4173736574446174612F446566696E6974696F6E4974657261746F7250726F706572746965732E62696E504B01021400140006080800424A0747EBC22C59F4000000300200004500000000000000000000000000B009000042413044393537342D453538382D343743422D394438302D4144354446453843384335302F41
311
73736574446174612F496E7374616E636550726F706572746965732E62696E504B01021400140006080800424A074749300E9D51000000570000004700000000000000000000000000070B000042413044393537342D453538382D343743422D394438302D4144354446453843384335302F4173736574446174612F417373
311
65745461626C654F66436F6E74656E74732E62696E504B01021400140006080800424A0747F865834058000000680000004500000000000000000000000000BD0B000042413044393537342D453538382D343743422D394438302D4144354446453843384335302F4173736574446174612F53747265616D56657273696F6E
311
5461626C652E696E66504B01021400140006080800424A0747AD1D2AF1FD0000009E0100003500000000000000000000000000780C000042413044393537342D453538382D343743422D394438302D4144354446453843384335302F536368656D61732F636F72652E786D6C504B01021400140006080800424A0747535D44
311
2228010000D30300003400000000000000000000000000C80D000042413044393537342D453538382D343743422D394438302D4144354446453843384335302F536368656D61732F636E782E786D6C504B01021400140006080800424A07472F7B2A8D8D0100005E0600003D00000000000000000000000000420F00004241
311
3044393537342D453538382D343743422D394438302D4144354446453843384335302F536368656D61732F436F6D6D6F6E536368656D612E786D6C504B01021400140006080800424A07477229482E27050000001600003E000000000000000000000000002A11000042413044393537342D453538382D343743422D394438
311
302D4144354446453843384335302F536368656D61732F47656E65726963536368656D612E786D6C504B01021400140006080800424A07470A3355BE74010000170400004500000000000000000000000000AD16000042413044393537342D453538382D343743422D394438302D4144354446453843384335302F53636865
311
6D61732F52656E6465724D6174657269616C536368656D612E786D6C504B050600000000110011005A060000841800000000
310
504B03040A0000080000424A07473DEE336E79000000790000001B0000006175746F6465736B2D64657369676E2D7061636B6167652E786D6C3C3F786D6C2076657273696F6E3D22312E302220656E636F64696E673D227574662D3822203F3E3C666F726D6174733E3C666F726D61743E687474703A2F2F736368656D612E
310
6175746F6465736B2E636F6D2F64657369676E2D7061636B6167652F323030393C2F666F726D61743E3C2F666F726D6174733E504B0304140006080800424A0747D486FD9CA0000000F4000000130000005B436F6E74656E745F54797065735D2E786D6C7D8EC10E82300C865F65E91D8A1E8C310C0EEA1BF002731658846E
310
D98AC1B77784ABF1D8FE5FBFBF75BBCE937A534CCEB38643598122B6FEE978D0B0485F9C41B54DDD7D022595594E1A469170414C76A4D9A4D207E29CF43ECE46F218070CC6BECC4078ACAA135ACF422C856C0E68EA1BF5669944DDD7BCDE7B1F8E415D77AECB980613C2E4AC91FC167A2B244592486606FC29C8FD7F045B9A
310
EF7053A7E60B504B0304140006080800424A07474E2FDDE2EC0000007C01000008000000636F72652E786D6C8D90D18E832010457F85CCEB06055BAD35486363FD82FD0102D4925630029BFDFCC5D626BB6FFB34933BF7CC4C2E3B7D4F0FF4A5176F9C6D81660490B6D22963C71662B8E21AD089B3C5B9F0CB06C88A49B7B0
310
CAC0D9B8B8386F927436681B926A9DD29B28BCD701907CA4A6052F6F7A1299882139FC3D9B85BC8B5167F4DD253846A3D0EB8851699FB91ABD00AFFBE17C1CAA120F7D75C17B72D8E3BA28065C5DBAEEDC0F35E97605CB5798B360A6F77DB96811B4025E105A62526372F824C786D60D293F086D0861F96AFF03C559FD138A
310
C6865DB1BDFBC23C709A1E790E38CBD72C52790695EA9A1BFF01504B0304140006080800424A074755019EA25F0000007C00000007000000636E782E786D6C4DCB3B0E80201045D1AD90E915ED2CF8AC45050C11660C8261F98AB1B07AC9C97D42D718D865D3E909258CFD00CCE24AC6E326A164D74DC0B4128928FF326038
310
472BA13128B1252AC747C6BAB984FC68F0B87FE8960A5C09FE86CFB69FBA01504B0304140006080800424A074741D64F3F67010000020300000C0000006662782F636F72652E786D6C8D52ED8E8230107C95A67F2FA505BFD0941A8DF204F702152A4784969496F8F8B77C18CE8B3186A434333BBBB3037C7FAF2BD429DB96
310
4627380C18464A67262F759160EFAE24C6682FB835C6FD29C348CB5A25B887B1E08535BE99A0CC68A7B403549B5C4DA06C5BE530CA2AB824B8CD7E542D03E91D54B4B7A091D94D162A0803A0A14EF0D6593080C621FD89C5F572E774C405F7BECC27B6CC615A792D95C5223EA5C76DBA5E91F4B43E9325DB2C491C4529599F
310
0F87E3298DD9611171DA8B057765FD709759259DCAB18858B8222C266CF3CDB6BB30DEB1D5170B778C71DA973F897C937F28F2A5768B68B23BCA5A2C42303210FFB685881C6A65077EA8E0B40F115E43C2CF41432010B29397EAB1C70DA04E65CED82530B9F133D5C9CA2B98CAD0F0703AB2D07968009BBDEC13BDE9F3BE07
310
7C40A90BB0261D5C2FDEF5D3F938758AA2519674EE8EB4B1B5AC6673A3C5F99C07BD9467A632F613359D56A55398B4FF7BC52F504B0304140006080800424A0747B7FF37927D0000009D0000000B0000006662782F636E782E786D6C4DCCD10A83201886E15B91FFDCA5E1CA811A46751FB12C64A6C3E9E8F2ABD1C18E3E78
310
F87845B3AD0E7D4DFCD8E025D01B0164FC334CD62F12729A3107D4281143487F37407E5C8D849341892586FCBE6832F3985D3AD459FFBA906BDDB5ACAA71AFD903335D7698F703C394B4554DEFE5C009834289E2573AF60CAB1D504B0304140006080800424A074788EF6FBF2C01000015020000310000006662782F384141
310
44423436372D454134392D344132442D384546342D3130423637313532463830342F636F72652E786D6C8D515B6EC23010BC8AE52FAA2AC93AE405728C828013F402C1366041ECC88F8AE3D76982D4FEF1E3B566676647BB74F71C1EE85B5AA78C6E31490123A9B9114A5F5B1CFC256930DA316A8DF17F6818E97E902D9E60
310
CCE8D59A302E1037DA4BED23AA8D900BD83B273D46FC113F2D76FC26873EED838F0C774FC79EDFFBAB4C491ADB91C7A8F3360640F390E9C5ACE9BAC3BEA8EAE4D8159BA4E8F243D21C4F4542605FD5A4CC4F0D14349B858C86A0C4225722C6511725EDBB26939851AF86577C6E65EFA5C02C075226D024507FC1664B9A2D94
310
9F40B600349BE8FF4461146F8A82D27E9D2F716799C38CD06C6E302A4C383F5E61E47334D6A369DECA49FE8119A4005593D78494349BB97103D1B42A1653E78D8D1B5EDDCF91BE5E9CAB82D16C3A522CBF178C753A28FB01504B0304140006080800424A07477B66BFC55601000033030000300000006662782F3841414442
310
3436372D454134392D344132442D384546342D3130423637313532463830342F636E782E786D6CBD93CD6EC32010845F0571AD6CE3FCD58D30917AE813F4D02B814D4283C1025C356FDF2521692E3D54AA7A41D6EC30B3FA84F9E673B0E4034234DEF5B4AD1925E094D7C6ED7B3AA55DD551B2113C789FEE6C943839404FB3
310
4C05DF073F8D45D2B093934DA85AE38E450C10FD14144494F34D62BD921603C055138A306C416BD0E466C4AF1D045C05C5ED89A4039097E737E2B7EFA052E44D4E11BCC91D82E7B334DD99285156C6D8D3A80E30C85A4EC96B88C75ACB24EBB6BE76FDB0D37712C917AE9553302497F7349F54948D6AE4C81B1C0A1E53407A
310
C5944E235021C7D11A2513426ECEC68B47F0C9B8B45A14AF41F001DDF3D9AAEB30EC3C133C99018A43059009341533D62E2BD655ECF1953DADDB6ECD960FAC5D33C69B6C177CEBBD2D973006821F89F22E814B54B4BCC9E39FF0151FD126206B1F4EBF0089004AEB85CE2DE32FF9B4ABF962F18F7C9AF3FB465C01FF02F105
310
504B0304140006080800424A0747CE0CF85F4A0700004F1C0000340000006662782F38414144423436372D454134392D344132442D384546342D3130423637313532463830342F6F626A656374732E786D6CED595B6FA34614FE2B88BEB40FC6E04B12578455E23491B5CDEE6AAD5DF5C1121AC3184F335C340389DD5FDF33
310
17306093E06EFAB60F090666BE73BFCCC1FDB08BA9F18C192769726D3A966D1A3809D29024D1B559E49BC195697CF05C96A6796D99692428C6D7A6786C7A6EC4D222D38F42BC4105CD5B4FEF6FFF327880136C1A01459C5F9B3CD8E21859A8C8D310F3272B4439B2A2CDCE722CB5B0091B31946D5BA0196238C98153789E00
310
8AA198729AB7B639F4DCA178EFB9E2BF5E35EAB56ADCBD6A28A56E7249129EA3243862A90533EAC5D2D899DCFD319ACE06D3C9643C985C8C9CC1EDFDEDDDC0B91CDBF38BF97C76F3C70CD85BA729D5328538C34908F6DB9B9EE30EC59B4A74AD81535C076992E0402A125425C56A0312CC81544D7D76F3D61112D55E4B096B
310
F763F15EB3507BDC3242C7AA9E8A68E082209A5C297179ADCB97AEFF06C1791FA7641C0BA7E63903EB6AF530880AD3B3DDA17AEAB9EB832D0837629463461035285933C4C028B0542CF15CB541C388E06000650809A4E5D4EBA66F4164BE1D3AA7B8DC14948AC8303D19583E841FCEB9E48CFC83D981FBBA668027B0704192
310
FC4A7399EF336C7A3377281F7AAEB88C47FAA552A4B1A12802470131D5DB96A07311FA8B3BD3FB78BFDE2D453A384D3C636986592E9C4ED851F2058EACAF424B9AACD3CB72620308A394AA771E94F21534FF09B2C78115B01B23BBC96EA2D7E60C257C93B2186C63D8C6C0867FB6E1C8FFE277ED973BAC3637ADD7A54F0853
310
A1AAAB1FD7675306A92BCD7F4D9D9EFB0C0E9FB2B17EB50C10057F7E24092848388941537804A97DB3DE99DE021227247AD885A8E780C8C0EE33FC74871AE6609532BC74D425A0514D63D4C748A036E991C046879D1EA07A30121CCC5417B14BBDD37771D79BBBE5C765C13628C08F3AA6EFF086242487AA799AA186CE1B12
310
41B50B18C9C456D3D34255A9C23AA035363DE1FD4BCA42D0CEB191967523C59A3F0E26128612D68A4ACD899B0E0201EC8B5291A3DC372880E4A2C0D7F01F090F30A528C16951D2AD52A2F0EE2A4DE846C3F4C6CA2EE351CBEF197E26A21581483BAC6868E2BBEA551EBE893CD221CCB7C527F05A13EA3D5C5EF1E8871E8AE1
310
2F280FB66F632DE5BAC12DE48A10875A3B9516D687C210A43465FE7AEFAB9C7912F97B23F0209D2ACB0914884519C165728A940C7E48369B8243863E61BFEF8B79DD476C6BEC4C8DFAFF56584F206F4316404C47708B864F6214617F83C22E72756A153697901DD00C6F28C8459E49BEF751EEDB218ECE51CD59E0B377458F
310
68CA39493087CA7752F9756DD816A42465CD926561D596A209F7639C237A8E06044C8772650193DD72004DC8DB3C56DEFB9AC5EAA0FF934730045D699AF8049ADA5D0F5D38D674D48B77F0B6125B8A410B684682BDFF8249B4CD7B50AA42B234A2BAB6CC18C0E1A6C8FD344301B8750FD8A35811466D81AE51F0242A911F14
310
F4BD1C8463BAF109A545ECC31F49E00CD327B4FB69A106AE725F8E6368EF505EB03E442EA6F6111DD57DB453608DD08650E8BDFD18651D5A6F2444D9D91895F2357A4730AD8B38F3519C16492F47B1C66D8FD4F06DB30AD89EFC8AA6131AD01258037A2E74EB55A92D7336B83AF5E160986F3B34D1C84E25A444EA0614991A
310
E25266BEBDCF519C5175403CAAB7CD4AE654E1F93A01A603FF7D09C469AF82356929A1EC6CEBFD26685564FB82116DC67C5BC4EB0491D311D928E78F28E7AB0755B65791BA5A591295640114BAA20A191A9DAAD73C69C26EF00705FE6D61C194A7037E216C17E32447A2237D143FE85774BA4C745352FB16A22FE84DEBF3C3
310
F24C7960476FF42FA295C42F6752D0BBE6A2473B22553A427515871C6832C1ADB4178C7F1E75EAF3919F471D385643FE576720086A99F5B4AF08FF3CE3A8A363F9074F3CB7FB3FD15ECC7C740B2AADD5985B05C2F5CF3A9E547553342BEF713C9183950AB5AA6E275B2C48C465B1E8DD25969950017671FC9FBB89AEEAACC8
310
69EB472A35FBE77513CE5127D4381BCB23717254831B69FB666E8F9CF1EC7E309A4D2F0693E9A53D984DEFA783FBD9E5D5E5FDEC767C6357455A817B6E95F06409847B95F8CAC7E24E8B05A3649E5212C2342134229CC22906660A3D66FE2CC65C762887641AEA2F093D763FABE16C8ED614979C6C114CB529870200621441
310
DE7C6EFC02F35431D2BC3661D2653DC13FED68A60105F8DA7C1603C800736B0DB331318594E0AD1886F04149247A1FB5A9BAAF7609DD344A44B5A44FA9D072A9FCA105801E3183915D63422279D3EF83B3042FD931500E3FD7450E7D9C92E5F0A012469239985FC94649F2A449EF201A5F17CBB1E49A86467A8DF75F750285
310
3AC8118BE4905E30A659BAB9FB3284E1A0B1F86C64B488C096FD91060C833317A22F022F02AFD0981912CDF4FCF7D51796C277A9D8B827E002C6AFBBAB8BDF56F3348ED3443D5ADDC0013084AF5BC6720BDFAAC215B47E587C11E0AB91ED8C577212AF3F0EF86BC4B18542FE040FDC61C148A5E886F9C12F8FAA869EB90E85
310
295A1EBAB833745E84B656011D0DA6D597390362487C03121123E3BC94F6D561FC502E0556198CD1BD7F01504B0304140006080000424A0747000000000000000000000000350000006662782F38414144423436372D454134392D344132442D384546342D3130423637313532463830342F76657274696365732E62696E50
310
4B0304140006080800424A0747F270F1330600000004000000360000006662782F38414144423436372D454134392D344132442D384546342D3130423637313532463830342F747269616E676C65732E62696E636660600000504B0304140006080000424A0747000000000000000000000000370000006662782F38414144
310
423436372D454134392D344132442D384546342D3130423637313532463830342F617474726962757465732E62696E504B0304140006080800424A0747B28BD8DE8F00000041010000360000006662782F38414144423436372D454134392D344132442D384546342D3130423637313532463830342F6469726563746F7279
310
2E786D6C858F410EC2201045AF4266AF15DDB800BA74E7C21B903225242D6328188F2FA5C4183471359997F9FF81E89FF3C41E1816475E02DF1F80A11FC8386F25A438EECEC07A250251FC3803E6F58C12560C4AD840E95E91C151A72936F496F35732D860FE635F62C8F2DA16B505C545B74125BAA2FA9E05D7CC053D0637
310
34D5A7665FD55B6B8D15D5F1BFEAFD8490FFA45E504B0304140006080800424A07475D84F37AFE000000A00100003B0000006662782F38414144423436372D454134392D344132442D384546342D3130423637313532463830342F7265736F75726365732F636F72652E786D6C8D504B6E833010BD0A9A6D65308410828C23
310
22C2097A01CB4CA89560237FAA1EBF2650A9DD7533337A1FCDD36397AFF9997CA275CAE816F29442825A9A51E9A985E0EFA486E4C29935C6FF9241A2C58C2DAC3070365913961D92467BD43EA2DA8CB883C239F490C8673C5A70F20367918AE0A3C23DD245C8879830CDD348471D67CEDB1820D99EAC13B845678295E858B6
310
B19C85A0C65DA3C6F853DD155AE0753F5CCF435592A1AF6EA4A4A792D4453190EAD675D77EA869772858B69A39F36AFEC9282D0A8F23F082E647426B424FEFF4DCE475438F6F346F2865D92AFF630ACBF84F5350DA1F8A3DEE6673C0F318E4457096AD7DC5F52A33EEB55BFE0D504B010214000A0000080000424A07473DEE
310
336E79000000790000001B00000000000000000000000000000000006175746F6465736B2D64657369676E2D7061636B6167652E786D6C504B01021400140006080800424A0747D486FD9CA0000000F40000001300000000000000000000000000B20000005B436F6E74656E745F54797065735D2E786D6C504B0102140014
310
0006080800424A07474E2FDDE2EC0000007C010000080000000000000000000000000083010000636F72652E786D6C504B01021400140006080800424A074755019EA25F0000007C000000070000000000000000000000000095020000636E782E786D6C504B01021400140006080800424A074741D64F3F67010000020300
310
000C00000000000000000000000000190300006662782F636F72652E786D6C504B01021400140006080800424A0747B7FF37927D0000009D0000000B00000000000000000000000000AA0400006662782F636E782E786D6C504B01021400140006080800424A074788EF6FBF2C010000150200003100000000000000000000
310
000000500500006662782F38414144423436372D454134392D344132442D384546342D3130423637313532463830342F636F72652E786D6C504B01021400140006080800424A07477B66BFC556010000330300003000000000000000000000000000CB0600006662782F38414144423436372D454134392D344132442D3845
310
46342D3130423637313532463830342F636E782E786D6C504B01021400140006080800424A0747CE0CF85F4A0700004F1C000034000000000000000000000000006F0800006662782F38414144423436372D454134392D344132442D384546342D3130423637313532463830342F6F626A656374732E786D6C504B01021400
310
140006080000424A074700000000000000000000000035000000000000000000000000000B1000006662782F38414144423436372D454134392D344132442D384546342D3130423637313532463830342F76657274696365732E62696E504B01021400140006080800424A0747F270F1330600000004000000360000000000
310
00000000000000005E1000006662782F38414144423436372D454134392D344132442D384546342D3130423637313532463830342F747269616E676C65732E62696E504B01021400140006080000424A07470000000000000000000000003700000000000000000000000000B81000006662782F38414144423436372D4541
310
34392D344132442D384546342D3130423637313532463830342F617474726962757465732E62696E504B01021400140006080800424A0747B28BD8DE8F0000004101000036000000000000000000000000000D1100006662782F38414144423436372D454134392D344132442D384546342D3130423637313532463830342F
310
6469726563746F72792E786D6C504B01021400140006080800424A07475D84F37AFE000000A00100003B00000000000000000000000000F01100006662782F38414144423436372D454134392D344132442D384546342D3130423637313532463830342F7265736F75726365732F636F72652E786D6C504B0506000000000E
310
000E0080040000471300000000
  0
XRECORD
  5
17
102
{ACAD_REACTORS
330
12
102
}
330
12
100
AcDbXrecord
280
     1
270
     1
271
     1
  0
XRECORD
  5
16
102
{ACAD_REACTORS
330
12
102
}
330
12
100
AcDbXrecord
280
     1
270
     1
271
     1
  0
XRECORD
  5
18
102
{ACAD_REACTORS
330
12
102
}
330
12
100
AcDbXrecord
280
     1
270
     1
271
     1
  0
XRECORD
  5
15
102
{ACAD_REACTORS
330
12
102
}
330
12
100
AcDbXrecord
280
     1
270
     1
271
     1
  0
XRECORD
  5
24
102
{ACAD_REACTORS
330
22
102
}
330
22
100
AcDbXrecord
280
     1
270
     1
271
     1
  0
XRECORD
  5
23
102
{ACAD_REACTORS
330
22
102
}
330
22
100
AcDbXrecord
280
     1
270
     1
271
     1
  0
XRECORD
  5
27
102
{ACAD_REACTORS
330
22
102
}
330
22
100
AcDbXrecord
280
     1
270
     1
271
     1
  0
XRECORD
  5
26
102
{ACAD_REACTORS
330
22
102
}
330
22
100
AcDbXrecord
280
     1
270
     1
271
     1
  0
XRECORD
  5
28
102
{ACAD_REACTORS
330
22
102
}
330
22
100
AcDbXrecord
280
     1
270
     1
271
     1
  0
XRECORD
  5
25
102
{ACAD_REACTORS
330
22
102
}
330
22
100
AcDbXrecord
280
     1
270
     1
271
     1
  0
XRECORD
  5
80F
102
{ACAD_REACTORS
330
80E
102
}
330
80E
100
AcDbXrecord
280
     1
102
ACAD_ROUNDTRIP_2012_MLEADER_STYLE
298
     1
  0
CELLSTYLEMAP
  5
7C9
102
{ACAD_REACTORS
330
7C8
102
}
330
7C8
100
AcDbCellStyleMap
 90
        3
300
CELLSTYLE
  1
TABLEFORMAT_BEGIN
 90
        5
170
     1
 91
        0
 92
    32768
 62
   257
 93
        1
300
CONTENTFORMAT
  1
CONTENTFORMAT_BEGIN
 90
        0
 91
        0
 92
      512
 93
        0
300

 40
0.0
140
1.0
 94
        5
 62
     0
340
55
144
0.25
309
CONTENTFORMAT_END
171
     0
 94
        0
309
TABLEFORMAT_END
  1
CELLSTYLE_BEGIN
 90
        1
 91
        1
300
_TITLE
309
CELLSTYLE_END
300
CELLSTYLE
  1
TABLEFORMAT_BEGIN
 90
        5
170
     1
 91
        0
 92
        0
 62
   257
 93
        1
300
CONTENTFORMAT
  1
CONTENTFORMAT_BEGIN
 90
        0
 91
        0
 92
      512
 93
        0
300

 40
0.0
140
1.0
 94
        5
 62
     0
340
55
144
0.18
309
CONTENTFORMAT_END
171
     0
 94
        0
309
TABLEFORMAT_END
  1
CELLSTYLE_BEGIN
 90
        2
 91
        1
300
_HEADER
309
CELLSTYLE_END
300
CELLSTYLE
  1
TABLEFORMAT_BEGIN
 90
        5
170
     1
 91
        0
 92
        0
 62
   257
 93
        1
300
CONTENTFORMAT
  1
CONTENTFORMAT_BEGIN
 90
        0
 91
        0
 92
      512
 93
        0
300

 40
0.0
140
1.0
 94
        2
 62
     0
340
55
144
0.18
309
CONTENTFORMAT_END
171
     0
 94
        0
309
TABLEFORMAT_END
  1
CELLSTYLE_BEGIN
 90
        3
 91
        2
300
_DATA
309
CELLSTYLE_END
  0
XRECORD
  5
7E9
102
{ACAD_REACTORS
330
7E8
102
}
330
7E8
100
AcDbXrecord
280
     1
102
RTVSPost2010Prop28
280
     1
102
RTVSPost2010PropOp28
 70
     1
102
RTVSPost2010Prop29
280
     1
102
RTVSPost2010PropOp29
 70
     1
102
RTVSPost2010Prop30
280
     0
102
RTVSPost2010PropOp30
 70
     1
102
RTVSPost2010Prop31
280
     0
102
RTVSPost2010PropOp31
 70
     1
102
RTVSPost2010Prop32
280
     0
102
RTVSPost2010PropOp32
 70
     1
102
RTVSPost2010Prop33
280
     0
102
RTVSPost2010PropOp33
 70
     1
102
RTVSPost2010Prop34
280
     0
102
RTVSPost2010PropOp34
 70
     1
102
RTVSPost2010Prop35
280
     0
102
RTVSPost2010PropOp35
 70
     1
102
RTVSPost2010Prop36
280
     0
102
RTVSPost2010PropOp36
 70
     1
102
RTVSPost2010Prop37
 90
       50
102
RTVSPost2010PropOp37
 70
     1
102
RTVSPost2010Prop38
140
0.0
102
RTVSPost2010PropOp38
 70
     1
102
RTVSPost2010Prop39
140
1.0
102
RTVSPost2010PropOp39
 70
     1
102
RTVSPost2010Prop40
 90
        0
102
RTVSPost2010PropOp40
 70
     1
102
RTVSPost2010Prop41ColorIndex
 90
       18
102
RTVSPost2010Prop41ColorRGB
 90
        0
102
RTVSPost2010PropOp41
 70
     1
102
RTVSPost2010Prop42
 90
       50
102
RTVSPost2010PropOp42
 70
     1
102
RTVSPost2010Prop43
 90
        3
102
RTVSPost2010PropOp43
 70
     1
102
RTVSPost2010Prop44ColorIndex
 90
        5
102
RTVSPost2010Prop44ColorRGB
 90
      255
102
RTVSPost2010PropOp44
 70
     1
102
RTVSPost2010Prop45
280
     0
102
RTVSPost2010PropOp45
 70
     1
102
RTVSPost2010Prop46
 90
       50
102
RTVSPost2010PropOp46
 70
     1
102
RTVSPost2010Prop47
 90
       50
102
RTVSPost2010PropOp47
 70
     1
102
RTVSPost2010Prop48
 90
       50
102
RTVSPost2010PropOp48
 70
     1
102
RTVSPost2010Prop49
280
     0
102
RTVSPost2010PropOp49
 70
     1
102
RTVSPost2010Prop50
 90
       50
102
RTVSPost2010PropOp50
 70
     1
102
RTVSPost2010Prop51ColorIndex
 90
      256
102
RTVSPost2010Prop51ColorRGB
 90
-16777216
102
RTVSPost2010PropOp51
 70
     0
102
RTVSPost2010Prop52
140
1.0
102
RTVSPost2010PropOp52
 70
     0
102
RTVSPost2010Prop53
 90
        2
102
RTVSPost2010PropOp53
 70
     1
102
RTVSPost2010Prop54
  1
strokes_ogs.tif
102
RTVSPost2010PropOp54
 70
     1
102
RTVSPost2010Prop55
280
     0
102
RTVSPost2010PropOp55
 70
     1
102
RTVSPost2010Prop56
140
1.0
102
RTVSPost2010PropOp56
 70
     1
102
RTVSPost2010Prop57
140
1.0
102
RTVSPost2010PropOp57
 70
     1
  0
XRECORD
  5
7E7
102
{ACAD_REACTORS
330
7E6
102
}
330
7E6
100
AcDbXrecord
280
     1
102
RTVSPost2010Prop28
280
     0
102
RTVSPost2010PropOp28
 70
     1
102
RTVSPost2010Prop29
280
     1
102
RTVSPost2010PropOp29
 70
     1
102
RTVSPost2010Prop30
280
     1
102
RTVSPost2010PropOp30
 70
     1
102
RTVSPost2010Prop31
280
     0
102
RTVSPost2010PropOp31
 70
     1
102
RTVSPost2010Prop32
280
     0
102
RTVSPost2010PropOp32
 70
     1
102
RTVSPost2010Prop33
280
     0
102
RTVSPost2010PropOp33
 70
     1
102
RTVSPost2010Prop34
280
     0
102
RTVSPost2010PropOp34
 70
     1
102
RTVSPost2010Prop35
280
     0
102
RTVSPost2010PropOp35
 70
     1
102
RTVSPost2010Prop36
280
     0
102
RTVSPost2010PropOp36
 70
     1
102
RTVSPost2010Prop37
 90
       50
102
RTVSPost2010PropOp37
 70
     1
102
RTVSPost2010Prop38
140
0.0
102
RTVSPost2010PropOp38
 70
     1
102
RTVSPost2010Prop39
140
1.0
102
RTVSPost2010PropOp39
 70
     1
102
RTVSPost2010Prop40
 90
        0
102
RTVSPost2010PropOp40
 70
     1
102
RTVSPost2010Prop41ColorIndex
 90
       18
102
RTVSPost2010Prop41ColorRGB
 90
        0
102
RTVSPost2010PropOp41
 70
     1
102
RTVSPost2010Prop42
 90
       50
102
RTVSPost2010PropOp42
 70
     1
102
RTVSPost2010Prop43
 90
        3
102
RTVSPost2010PropOp43
 70
     1
102
RTVSPost2010Prop44ColorIndex
 90
        5
102
RTVSPost2010Prop44ColorRGB
 90
      255
102
RTVSPost2010PropOp44
 70
     1
102
RTVSPost2010Prop45
280
     0
102
RTVSPost2010PropOp45
 70
     1
102
RTVSPost2010Prop46
 90
       50
102
RTVSPost2010PropOp46
 70
     1
102
RTVSPost2010Prop47
 90
       50
102
RTVSPost2010PropOp47
 70
     1
102
RTVSPost2010Prop48
 90
       50
102
RTVSPost2010PropOp48
 70
     1
102
RTVSPost2010Prop49
280
     0
102
RTVSPost2010PropOp49
 70
     1
102
RTVSPost2010Prop50
 90
       50
102
RTVSPost2010PropOp50
 70
     1
102
RTVSPost2010Prop51ColorIndex
 90
      256
102
RTVSPost2010Prop51ColorRGB
 90
-16777216
102
RTVSPost2010PropOp51
 70
     0
102
RTVSPost2010Prop52
140
1.0
102
RTVSPost2010PropOp52
 70
     0
102
RTVSPost2010Prop53
 90
        2
102
RTVSPost2010PropOp53
 70
     1
102
RTVSPost2010Prop54
  1
strokes_ogs.tif
102
RTVSPost2010PropOp54
 70
     1
102
RTVSPost2010Prop55
280
     0
102
RTVSPost2010PropOp55
 70
     1
102
RTVSPost2010Prop56
140
1.0
102
RTVSPost2010PropOp56
 70
     1
102
RTVSPost2010Prop57
140
1.0
102
RTVSPost2010PropOp57
 70
     1
  0
XRECORD
  5
7F5
102
{ACAD_REACTORS
330
7F4
102
}
330
7F4
100
AcDbXrecord
280
     1
102
RTVSPost2010Prop28
280
     0
102
RTVSPost2010PropOp28
 70
     1
102
RTVSPost2010Prop29
280
     1
102
RTVSPost2010PropOp29
 70
     1
102
RTVSPost2010Prop30
280
     1
102
RTVSPost2010PropOp30
 70
     1
102
RTVSPost2010Prop31
280
     0
102
RTVSPost2010PropOp31
 70
     1
102
RTVSPost2010Prop32
280
     0
102
RTVSPost2010PropOp32
 70
     1
102
RTVSPost2010Prop33
280
     0
102
RTVSPost2010PropOp33
 70
     1
102
RTVSPost2010Prop34
280
     0
102
RTVSPost2010PropOp34
 70
     1
102
RTVSPost2010Prop35
280
     0
102
RTVSPost2010PropOp35
 70
     1
102
RTVSPost2010Prop36
280
     0
102
RTVSPost2010PropOp36
 70
     1
102
RTVSPost2010Prop37
 90
       50
102
RTVSPost2010PropOp37
 70
     1
102
RTVSPost2010Prop38
140
0.0
102
RTVSPost2010PropOp38
 70
     1
102
RTVSPost2010Prop39
140
1.0
102
RTVSPost2010PropOp39
 70
     1
102
RTVSPost2010Prop40
 90
        0
102
RTVSPost2010PropOp40
 70
     1
102
RTVSPost2010Prop41ColorIndex
 90
       18
102
RTVSPost2010Prop41ColorRGB
 90
        0
102
RTVSPost2010PropOp41
 70
     1
102
RTVSPost2010Prop42
 90
       50
102
RTVSPost2010PropOp42
 70
     1
102
RTVSPost2010Prop43
 90
        3
102
RTVSPost2010PropOp43
 70
     1
102
RTVSPost2010Prop44ColorIndex
 90
        5
102
RTVSPost2010Prop44ColorRGB
 90
      255
102
RTVSPost2010PropOp44
 70
     1
102
RTVSPost2010Prop45
280
     0
102
RTVSPost2010PropOp45
 70
     1
102
RTVSPost2010Prop46
 90
       50
102
RTVSPost2010PropOp46
 70
     1
102
RTVSPost2010Prop47
 90
       50
102
RTVSPost2010PropOp47
 70
     1
102
RTVSPost2010Prop48
 90
       50
102
RTVSPost2010PropOp48
 70
     1
102
RTVSPost2010Prop49
280
     0
102
RTVSPost2010PropOp49
 70
     1
102
RTVSPost2010Prop50
 90
       50
102
RTVSPost2010PropOp50
 70
     1
102
RTVSPost2010Prop51ColorIndex
 90
      256
102
RTVSPost2010Prop51ColorRGB
 90
-16777216
102
RTVSPost2010PropOp51
 70
     0
102
RTVSPost2010Prop52
140
1.0
102
RTVSPost2010PropOp52
 70
     0
102
RTVSPost2010Prop53
 90
        2
102
RTVSPost2010PropOp53
 70
     1
102
RTVSPost2010Prop54
  1
strokes_ogs.tif
102
RTVSPost2010PropOp54
 70
     1
102
RTVSPost2010Prop55
280
     0
102
RTVSPost2010PropOp55
 70
     1
102
RTVSPost2010Prop56
140
1.0
102
RTVSPost2010PropOp56
 70
     1
102
RTVSPost2010Prop57
140
1.0
102
RTVSPost2010PropOp57
 70
     1
  0
XRECORD
  5
7FD
102
{ACAD_REACTORS
330
7FC
102
}
330
7FC
100
AcDbXrecord
280
     1
102
RTVSPost2010Prop28
280
     0
102
RTVSPost2010PropOp28
 70
     1
102
RTVSPost2010Prop29
280
     1
102
RTVSPost2010PropOp29
 70
     1
102
RTVSPost2010Prop30
280
     1
102
RTVSPost2010PropOp30
 70
     1
102
RTVSPost2010Prop31
280
     0
102
RTVSPost2010PropOp31
 70
     1
102
RTVSPost2010Prop32
280
     0
102
RTVSPost2010PropOp32
 70
     1
102
RTVSPost2010Prop33
280
     0
102
RTVSPost2010PropOp33
 70
     1
102
RTVSPost2010Prop34
280
     0
102
RTVSPost2010PropOp34
 70
     1
102
RTVSPost2010Prop35
280
     0
102
RTVSPost2010PropOp35
 70
     1
102
RTVSPost2010Prop36
280
     0
102
RTVSPost2010PropOp36
 70
     1
102
RTVSPost2010Prop37
 90
       50
102
RTVSPost2010PropOp37
 70
     1
102
RTVSPost2010Prop38
140
0.0
102
RTVSPost2010PropOp38
 70
     1
102
RTVSPost2010Prop39
140
1.0
102
RTVSPost2010PropOp39
 70
     1
102
RTVSPost2010Prop40
 90
        0
102
RTVSPost2010PropOp40
 70
     1
102
RTVSPost2010Prop41ColorIndex
 90
       18
102
RTVSPost2010Prop41ColorRGB
 90
        0
102
RTVSPost2010PropOp41
 70
     1
102
RTVSPost2010Prop42
 90
       50
102
RTVSPost2010PropOp42
 70
     1
102
RTVSPost2010Prop43
 90
        3
102
RTVSPost2010PropOp43
 70
     1
102
RTVSPost2010Prop44ColorIndex
 90
        5
102
RTVSPost2010Prop44ColorRGB
 90
      255
102
RTVSPost2010PropOp44
 70
     1
102
RTVSPost2010Prop45
280
     0
102
RTVSPost2010PropOp45
 70
     1
102
RTVSPost2010Prop46
 90
       50
102
RTVSPost2010PropOp46
 70
     1
102
RTVSPost2010Prop47
 90
       50
102
RTVSPost2010PropOp47
 70
     1
102
RTVSPost2010Prop48
 90
       50
102
RTVSPost2010PropOp48
 70
     1
102
RTVSPost2010Prop49
280
     0
102
RTVSPost2010PropOp49
 70
     1
102
RTVSPost2010Prop50
 90
       50
102
RTVSPost2010PropOp50
 70
     1
102
RTVSPost2010Prop51ColorIndex
 90
      256
102
RTVSPost2010Prop51ColorRGB
 90
-16777216
102
RTVSPost2010PropOp51
 70
     0
102
RTVSPost2010Prop52
140
1.0
102
RTVSPost2010PropOp52
 70
     0
102
RTVSPost2010Prop53
 90
        2
102
RTVSPost2010PropOp53
 70
     1
102
RTVSPost2010Prop54
  1
strokes_ogs.tif
102
RTVSPost2010PropOp54
 70
     1
102
RTVSPost2010Prop55
280
     0
102
RTVSPost2010PropOp55
 70
     1
102
RTVSPost2010Prop56
140
1.0
102
RTVSPost2010PropOp56
 70
     1
102
RTVSPost2010Prop57
140
1.0
102
RTVSPost2010PropOp57
 70
     1
  0
XRECORD
  5
7EF
102
{ACAD_REACTORS
330
7EE
102
}
330
7EE
100
AcDbXrecord
280
     1
102
RTVSPost2010Prop28
280
     0
102
RTVSPost2010PropOp28
 70
     1
102
RTVSPost2010Prop29
280
     1
102
RTVSPost2010PropOp29
 70
     1
102
RTVSPost2010Prop30
280
     1
102
RTVSPost2010PropOp30
 70
     1
102
RTVSPost2010Prop31
280
     0
102
RTVSPost2010PropOp31
 70
     1
102
RTVSPost2010Prop32
280
     0
102
RTVSPost2010PropOp32
 70
     1
102
RTVSPost2010Prop33
280
     0
102
RTVSPost2010PropOp33
 70
     1
102
RTVSPost2010Prop34
280
     0
102
RTVSPost2010PropOp34
 70
     1
102
RTVSPost2010Prop35
280
     0
102
RTVSPost2010PropOp35
 70
     1
102
RTVSPost2010Prop36
280
     0
102
RTVSPost2010PropOp36
 70
     1
102
RTVSPost2010Prop37
 90
       50
102
RTVSPost2010PropOp37
 70
     1
102
RTVSPost2010Prop38
140
0.0
102
RTVSPost2010PropOp38
 70
     1
102
RTVSPost2010Prop39
140
1.0
102
RTVSPost2010PropOp39
 70
     1
102
RTVSPost2010Prop40
 90
        0
102
RTVSPost2010PropOp40
 70
     1
102
RTVSPost2010Prop41ColorIndex
 90
       18
102
RTVSPost2010Prop41ColorRGB
 90
        0
102
RTVSPost2010PropOp41
 70
     1
102
RTVSPost2010Prop42
 90
       50
102
RTVSPost2010PropOp42
 70
     1
102
RTVSPost2010Prop43
 90
        3
102
RTVSPost2010PropOp43
 70
     1
102
RTVSPost2010Prop44ColorIndex
 90
        5
102
RTVSPost2010Prop44ColorRGB
 90
      255
102
RTVSPost2010PropOp44
 70
     1
102
RTVSPost2010Prop45
280
     0
102
RTVSPost2010PropOp45
 70
     1
102
RTVSPost2010Prop46
 90
       50
102
RTVSPost2010PropOp46
 70
     1
102
RTVSPost2010Prop47
 90
       50
102
RTVSPost2010PropOp47
 70
     1
102
RTVSPost2010Prop48
 90
       50
102
RTVSPost2010PropOp48
 70
     1
102
RTVSPost2010Prop49
280
     0
102
RTVSPost2010PropOp49
 70
     1
102
RTVSPost2010Prop50
 90
       50
102
RTVSPost2010PropOp50
 70
     1
102
RTVSPost2010Prop51ColorIndex
 90
      256
102
RTVSPost2010Prop51ColorRGB
 90
-16777216
102
RTVSPost2010PropOp51
 70
     0
102
RTVSPost2010Prop52
140
1.0
102
RTVSPost2010PropOp52
 70
     0
102
RTVSPost2010Prop53
 90
        2
102
RTVSPost2010PropOp53
 70
     1
102
RTVSPost2010Prop54
  1
strokes_ogs.tif
102
RTVSPost2010PropOp54
 70
     1
102
RTVSPost2010Prop55
280
     0
102
RTVSPost2010PropOp55
 70
     1
102
RTVSPost2010Prop56
140
1.0
102
RTVSPost2010PropOp56
 70
     1
102
RTVSPost2010Prop57
140
1.0
102
RTVSPost2010PropOp57
 70
     1
  0
XRECORD
  5
7F3
102
{ACAD_REACTORS
330
7F2
102
}
330
7F2
100
AcDbXrecord
280
     1
102
RTVSPost2010Prop28
280
     0
102
RTVSPost2010PropOp28
 70
     1
102
RTVSPost2010Prop29
280
     1
102
RTVSPost2010PropOp29
 70
     1
102
RTVSPost2010Prop30
280
     1
102
RTVSPost2010PropOp30
 70
     1
102
RTVSPost2010Prop31
280
     0
102
RTVSPost2010PropOp31
 70
     1
102
RTVSPost2010Prop32
280
     0
102
RTVSPost2010PropOp32
 70
     1
102
RTVSPost2010Prop33
280
     0
102
RTVSPost2010PropOp33
 70
     1
102
RTVSPost2010Prop34
280
     0
102
RTVSPost2010PropOp34
 70
     1
102
RTVSPost2010Prop35
280
     0
102
RTVSPost2010PropOp35
 70
     1
102
RTVSPost2010Prop36
280
     0
102
RTVSPost2010PropOp36
 70
     1
102
RTVSPost2010Prop37
 90
       50
102
RTVSPost2010PropOp37
 70
     1
102
RTVSPost2010Prop38
140
0.0
102
RTVSPost2010PropOp38
 70
     1
102
RTVSPost2010Prop39
140
1.0
102
RTVSPost2010PropOp39
 70
     1
102
RTVSPost2010Prop40
 90
        0
102
RTVSPost2010PropOp40
 70
     1
102
RTVSPost2010Prop41ColorIndex
 90
       18
102
RTVSPost2010Prop41ColorRGB
 90
        0
102
RTVSPost2010PropOp41
 70
     1
102
RTVSPost2010Prop42
 90
       50
102
RTVSPost2010PropOp42
 70
     1
102
RTVSPost2010Prop43
 90
        3
102
RTVSPost2010PropOp43
 70
     1
102
RTVSPost2010Prop44ColorIndex
 90
        5
102
RTVSPost2010Prop44ColorRGB
 90
      255
102
RTVSPost2010PropOp44
 70
     1
102
RTVSPost2010Prop45
280
     0
102
RTVSPost2010PropOp45
 70
     1
102
RTVSPost2010Prop46
 90
       50
102
RTVSPost2010PropOp46
 70
     1
102
RTVSPost2010Prop47
 90
       50
102
RTVSPost2010PropOp47
 70
     1
102
RTVSPost2010Prop48
 90
       50
102
RTVSPost2010PropOp48
 70
     1
102
RTVSPost2010Prop49
280
     0
102
RTVSPost2010PropOp49
 70
     1
102
RTVSPost2010Prop50
 90
       50
102
RTVSPost2010PropOp50
 70
     1
102
RTVSPost2010Prop51ColorIndex
 90
      256
102
RTVSPost2010Prop51ColorRGB
 90
-16777216
102
RTVSPost2010PropOp51
 70
     0
102
RTVSPost2010Prop52
140
1.0
102
RTVSPost2010PropOp52
 70
     0
102
RTVSPost2010Prop53
 90
        2
102
RTVSPost2010PropOp53
 70
     1
102
RTVSPost2010Prop54
  1
strokes_ogs.tif
102
RTVSPost2010PropOp54
 70
     1
102
RTVSPost2010Prop55
280
     0
102
RTVSPost2010PropOp55
 70
     1
102
RTVSPost2010Prop56
140
1.0
102
RTVSPost2010PropOp56
 70
     1
102
RTVSPost2010Prop57
140
1.0
102
RTVSPost2010PropOp57
 70
     1
  0
XRECORD
  5
80D
102
{ACAD_REACTORS
330
80C
102
}
330
80C
100
AcDbXrecord
280
     1
102
RTVSPost2010Prop28
280
     0
102
RTVSPost2010PropOp28
 70
     0
102
RTVSPost2010Prop29
280
     1
102
RTVSPost2010PropOp29
 70
     0
102
RTVSPost2010Prop30
280
     1
102
RTVSPost2010PropOp30
 70
     0
102
RTVSPost2010Prop31
280
     0
102
RTVSPost2010PropOp31
 70
     0
102
RTVSPost2010Prop32
280
     0
102
RTVSPost2010PropOp32
 70
     0
102
RTVSPost2010Prop33
280
     0
102
RTVSPost2010PropOp33
 70
     0
102
RTVSPost2010Prop34
280
     0
102
RTVSPost2010PropOp34
 70
     0
102
RTVSPost2010Prop35
280
     0
102
RTVSPost2010PropOp35
 70
     0
102
RTVSPost2010Prop36
280
     0
102
RTVSPost2010PropOp36
 70
     0
102
RTVSPost2010Prop37
 90
       50
102
RTVSPost2010PropOp37
 70
     0
102
RTVSPost2010Prop38
140
0.0
102
RTVSPost2010PropOp38
 70
     0
102
RTVSPost2010Prop39
140
1.0
102
RTVSPost2010PropOp39
 70
     0
102
RTVSPost2010Prop40
 90
        0
102
RTVSPost2010PropOp40
 70
     0
102
RTVSPost2010Prop41ColorIndex
 90
       18
102
RTVSPost2010Prop41ColorRGB
 90
        0
102
RTVSPost2010PropOp41
 70
     0
102
RTVSPost2010Prop42
 90
       50
102
RTVSPost2010PropOp42
 70
     0
102
RTVSPost2010Prop43
 90
        3
102
RTVSPost2010PropOp43
 70
     0
102
RTVSPost2010Prop44ColorIndex
 90
        5
102
RTVSPost2010Prop44ColorRGB
 90
      255
102
RTVSPost2010PropOp44
 70
     0
102
RTVSPost2010Prop45
280
     0
102
RTVSPost2010PropOp45
 70
     0
102
RTVSPost2010Prop46
 90
       50
102
RTVSPost2010PropOp46
 70
     0
102
RTVSPost2010Prop47
 90
       50
102
RTVSPost2010PropOp47
 70
     0
102
RTVSPost2010Prop48
 90
       50
102
RTVSPost2010PropOp48
 70
     0
102
RTVSPost2010Prop49
280
     0
102
RTVSPost2010PropOp49
 70
     0
102
RTVSPost2010Prop50
 90
       50
102
RTVSPost2010PropOp50
 70
     0
102
RTVSPost2010Prop51ColorIndex
 90
      256
102
RTVSPost2010Prop51ColorRGB
 90
-16777216
102
RTVSPost2010PropOp51
 70
     0
102
RTVSPost2010Prop52
140
1.0
102
RTVSPost2010PropOp52
 70
     0
102
RTVSPost2010Prop53
 90
        2
102
RTVSPost2010PropOp53
 70
     0
102
RTVSPost2010Prop54
  1
strokes_ogs.tif
102
RTVSPost2010PropOp54
 70
     0
102
RTVSPost2010Prop55
280
     0
102
RTVSPost2010PropOp55
 70
     0
102
RTVSPost2010Prop56
140
1.0
102
RTVSPost2010PropOp56
 70
     0
102
RTVSPost2010Prop57
140
1.0
102
RTVSPost2010PropOp57
 70
     0
  0
XRECORD
  5
7FB
102
{ACAD_REACTORS
330
7FA
102
}
330
7FA
100
AcDbXrecord
280
     1
102
RTVSPost2010Prop28
280
     0
102
RTVSPost2010PropOp28
 70
     1
102
RTVSPost2010Prop29
280
     1
102
RTVSPost2010PropOp29
 70
     1
102
RTVSPost2010Prop30
280
     1
102
RTVSPost2010PropOp30
 70
     1
102
RTVSPost2010Prop31
280
     0
102
RTVSPost2010PropOp31
 70
     1
102
RTVSPost2010Prop32
280
     0
102
RTVSPost2010PropOp32
 70
     1
102
RTVSPost2010Prop33
280
     0
102
RTVSPost2010PropOp33
 70
     1
102
RTVSPost2010Prop34
280
     0
102
RTVSPost2010PropOp34
 70
     1
102
RTVSPost2010Prop35
280
     0
102
RTVSPost2010PropOp35
 70
     1
102
RTVSPost2010Prop36
280
     0
102
RTVSPost2010PropOp36
 70
     1
102
RTVSPost2010Prop37
 90
       50
102
RTVSPost2010PropOp37
 70
     1
102
RTVSPost2010Prop38
140
0.0
102
RTVSPost2010PropOp38
 70
     1
102
RTVSPost2010Prop39
140
1.0
102
RTVSPost2010PropOp39
 70
     1
102
RTVSPost2010Prop40
 90
        0
102
RTVSPost2010PropOp40
 70
     1
102
RTVSPost2010Prop41ColorIndex
 90
       18
102
RTVSPost2010Prop41ColorRGB
 90
        0
102
RTVSPost2010PropOp41
 70
     1
102
RTVSPost2010Prop42
 90
       50
102
RTVSPost2010PropOp42
 70
     1
102
RTVSPost2010Prop43
 90
        3
102
RTVSPost2010PropOp43
 70
     1
102
RTVSPost2010Prop44ColorIndex
 90
        5
102
RTVSPost2010Prop44ColorRGB
 90
      255
102
RTVSPost2010PropOp44
 70
     1
102
RTVSPost2010Prop45
280
     0
102
RTVSPost2010PropOp45
 70
     1
102
RTVSPost2010Prop46
 90
       50
102
RTVSPost2010PropOp46
 70
     1
102
RTVSPost2010Prop47
 90
       50
102
RTVSPost2010PropOp47
 70
     1
102
RTVSPost2010Prop48
 90
       50
102
RTVSPost2010PropOp48
 70
     1
102
RTVSPost2010Prop49
280
     0
102
RTVSPost2010PropOp49
 70
     1
102
RTVSPost2010Prop50
 90
       50
102
RTVSPost2010PropOp50
 70
     1
102
RTVSPost2010Prop51ColorIndex
 90
      256
102
RTVSPost2010Prop51ColorRGB
 90
-16777216
102
RTVSPost2010PropOp51
 70
     0
102
RTVSPost2010Prop52
140
1.0
102
RTVSPost2010PropOp52
 70
     0
102
RTVSPost2010Prop53
 90
        2
102
RTVSPost2010PropOp53
 70
     1
102
RTVSPost2010Prop54
  1
strokes_ogs.tif
102
RTVSPost2010PropOp54
 70
     1
102
RTVSPost2010Prop55
280
     0
102
RTVSPost2010PropOp55
 70
     1
102
RTVSPost2010Prop56
140
1.0
102
RTVSPost2010PropOp56
 70
     1
102
RTVSPost2010Prop57
140
1.0
102
RTVSPost2010PropOp57
 70
     1
  0
XRECORD
  5
7DF
102
{ACAD_REACTORS
330
7DE
102
}
330
7DE
100
AcDbXrecord
280
     1
102
RTVSPost2010Prop28
280
     0
102
RTVSPost2010PropOp28
 70
     1
102
RTVSPost2010Prop29
280
     1
102
RTVSPost2010PropOp29
 70
     1
102
RTVSPost2010Prop30
280
     1
102
RTVSPost2010PropOp30
 70
     1
102
RTVSPost2010Prop31
280
     0
102
RTVSPost2010PropOp31
 70
     1
102
RTVSPost2010Prop32
280
     0
102
RTVSPost2010PropOp32
 70
     1
102
RTVSPost2010Prop33
280
     0
102
RTVSPost2010PropOp33
 70
     1
102
RTVSPost2010Prop34
280
     0
102
RTVSPost2010PropOp34
 70
     1
102
RTVSPost2010Prop35
280
     0
102
RTVSPost2010PropOp35
 70
     1
102
RTVSPost2010Prop36
280
     0
102
RTVSPost2010PropOp36
 70
     1
102
RTVSPost2010Prop37
 90
       50
102
RTVSPost2010PropOp37
 70
     1
102
RTVSPost2010Prop38
140
0.0
102
RTVSPost2010PropOp38
 70
     1
102
RTVSPost2010Prop39
140
1.0
102
RTVSPost2010PropOp39
 70
     1
102
RTVSPost2010Prop40
 90
        0
102
RTVSPost2010PropOp40
 70
     1
102
RTVSPost2010Prop41ColorIndex
 90
       18
102
RTVSPost2010Prop41ColorRGB
 90
        0
102
RTVSPost2010PropOp41
 70
     1
102
RTVSPost2010Prop42
 90
       50
102
RTVSPost2010PropOp42
 70
     1
102
RTVSPost2010Prop43
 90
        3
102
RTVSPost2010PropOp43
 70
     1
102
RTVSPost2010Prop44ColorIndex
 90
        5
102
RTVSPost2010Prop44ColorRGB
 90
      255
102
RTVSPost2010PropOp44
 70
     1
102
RTVSPost2010Prop45
280
     0
102
RTVSPost2010PropOp45
 70
     1
102
RTVSPost2010Prop46
 90
       50
102
RTVSPost2010PropOp46
 70
     1
102
RTVSPost2010Prop47
 90
       50
102
RTVSPost2010PropOp47
 70
     1
102
RTVSPost2010Prop48
 90
       50
102
RTVSPost2010PropOp48
 70
     1
102
RTVSPost2010Prop49
280
     0
102
RTVSPost2010PropOp49
 70
     1
102
RTVSPost2010Prop50
 90
       50
102
RTVSPost2010PropOp50
 70
     1
102
RTVSPost2010Prop51ColorIndex
 90
      256
102
RTVSPost2010Prop51ColorRGB
 90
-16777216
102
RTVSPost2010PropOp51
 70
     0
102
RTVSPost2010Prop52
140
1.0
102
RTVSPost2010PropOp52
 70
     0
102
RTVSPost2010Prop53
 90
        2
102
RTVSPost2010PropOp53
 70
     1
102
RTVSPost2010Prop54
  1
strokes_ogs.tif
102
RTVSPost2010PropOp54
 70
     1
102
RTVSPost2010Prop55
280
     0
102
RTVSPost2010PropOp55
 70
     1
102
RTVSPost2010Prop56
140
1.0
102
RTVSPost2010PropOp56
 70
     1
102
RTVSPost2010Prop57
140
1.0
102
RTVSPost2010PropOp57
 70
     1
  0
XRECORD
  5
7E1
102
{ACAD_REACTORS
330
7E0
102
}
330
7E0
100
AcDbXrecord
280
     1
102
RTVSPost2010Prop28
280
     0
102
RTVSPost2010PropOp28
 70
     1
102
RTVSPost2010Prop29
280
     1
102
RTVSPost2010PropOp29
 70
     1
102
RTVSPost2010Prop30
280
     1
102
RTVSPost2010PropOp30
 70
     1
102
RTVSPost2010Prop31
280
     0
102
RTVSPost2010PropOp31
 70
     1
102
RTVSPost2010Prop32
280
     0
102
RTVSPost2010PropOp32
 70
     1
102
RTVSPost2010Prop33
280
     0
102
RTVSPost2010PropOp33
 70
     1
102
RTVSPost2010Prop34
280
     0
102
RTVSPost2010PropOp34
 70
     1
102
RTVSPost2010Prop35
280
     0
102
RTVSPost2010PropOp35
 70
     1
102
RTVSPost2010Prop36
280
     0
102
RTVSPost2010PropOp36
 70
     1
102
RTVSPost2010Prop37
 90
       50
102
RTVSPost2010PropOp37
 70
     1
102
RTVSPost2010Prop38
140
0.0
102
RTVSPost2010PropOp38
 70
     1
102
RTVSPost2010Prop39
140
1.0
102
RTVSPost2010PropOp39
 70
     1
102
RTVSPost2010Prop40
 90
        0
102
RTVSPost2010PropOp40
 70
     1
102
RTVSPost2010Prop41ColorIndex
 90
       18
102
RTVSPost2010Prop41ColorRGB
 90
        0
102
RTVSPost2010PropOp41
 70
     1
102
RTVSPost2010Prop42
 90
       50
102
RTVSPost2010PropOp42
 70
     1
102
RTVSPost2010Prop43
 90
        3
102
RTVSPost2010PropOp43
 70
     1
102
RTVSPost2010Prop44ColorIndex
 90
        5
102
RTVSPost2010Prop44ColorRGB
 90
      255
102
RTVSPost2010PropOp44
 70
     1
102
RTVSPost2010Prop45
280
     0
102
RTVSPost2010PropOp45
 70
     1
102
RTVSPost2010Prop46
 90
       50
102
RTVSPost2010PropOp46
 70
     1
102
RTVSPost2010Prop47
 90
       50
102
RTVSPost2010PropOp47
 70
     1
102
RTVSPost2010Prop48
 90
       50
102
RTVSPost2010PropOp48
 70
     1
102
RTVSPost2010Prop49
280
     0
102
RTVSPost2010PropOp49
 70
     1
102
RTVSPost2010Prop50
 90
       50
102
RTVSPost2010PropOp50
 70
     1
102
RTVSPost2010Prop51ColorIndex
 90
      256
102
RTVSPost2010Prop51ColorRGB
 90
-16777216
102
RTVSPost2010PropOp51
 70
     0
102
RTVSPost2010Prop52
140
1.0
102
RTVSPost2010PropOp52
 70
     0
102
RTVSPost2010Prop53
 90
        2
102
RTVSPost2010PropOp53
 70
     1
102
RTVSPost2010Prop54
  1
strokes_ogs.tif
102
RTVSPost2010PropOp54
 70
     1
102
RTVSPost2010Prop55
280
     0
102
RTVSPost2010PropOp55
 70
     1
102
RTVSPost2010Prop56
140
1.0
102
RTVSPost2010PropOp56
 70
     1
102
RTVSPost2010Prop57
140
1.0
102
RTVSPost2010PropOp57
 70
     1
  0
XRECORD
  5
7E3
102
{ACAD_REACTORS
330
7E2
102
}
330
7E2
100
AcDbXrecord
280
     1
102
RTVSPost2010Prop28
280
     0
102
RTVSPost2010PropOp28
 70
     1
102
RTVSPost2010Prop29
280
     1
102
RTVSPost2010PropOp29
 70
     1
102
RTVSPost2010Prop30
280
     1
102
RTVSPost2010PropOp30
 70
     1
102
RTVSPost2010Prop31
280
     0
102
RTVSPost2010PropOp31
 70
     1
102
RTVSPost2010Prop32
280
     0
102
RTVSPost2010PropOp32
 70
     1
102
RTVSPost2010Prop33
280
     0
102
RTVSPost2010PropOp33
 70
     1
102
RTVSPost2010Prop34
280
     0
102
RTVSPost2010PropOp34
 70
     1
102
RTVSPost2010Prop35
280
     0
102
RTVSPost2010PropOp35
 70
     1
102
RTVSPost2010Prop36
280
     0
102
RTVSPost2010PropOp36
 70
     1
102
RTVSPost2010Prop37
 90
       50
102
RTVSPost2010PropOp37
 70
     1
102
RTVSPost2010Prop38
140
0.0
102
RTVSPost2010PropOp38
 70
     1
102
RTVSPost2010Prop39
140
1.0
102
RTVSPost2010PropOp39
 70
     1
102
RTVSPost2010Prop40
 90
        0
102
RTVSPost2010PropOp40
 70
     1
102
RTVSPost2010Prop41ColorIndex
 90
       18
102
RTVSPost2010Prop41ColorRGB
 90
        0
102
RTVSPost2010PropOp41
 70
     1
102
RTVSPost2010Prop42
 90
       50
102
RTVSPost2010PropOp42
 70
     1
102
RTVSPost2010Prop43
 90
        3
102
RTVSPost2010PropOp43
 70
     1
102
RTVSPost2010Prop44ColorIndex
 90
        5
102
RTVSPost2010Prop44ColorRGB
 90
      255
102
RTVSPost2010PropOp44
 70
     1
102
RTVSPost2010Prop45
280
     0
102
RTVSPost2010PropOp45
 70
     1
102
RTVSPost2010Prop46
 90
       50
102
RTVSPost2010PropOp46
 70
     1
102
RTVSPost2010Prop47
 90
       50
102
RTVSPost2010PropOp47
 70
     1
102
RTVSPost2010Prop48
 90
       50
102
RTVSPost2010PropOp48
 70
     1
102
RTVSPost2010Prop49
280
     0
102
RTVSPost2010PropOp49
 70
     1
102
RTVSPost2010Prop50
 90
       50
102
RTVSPost2010PropOp50
 70
     1
102
RTVSPost2010Prop51ColorIndex
 90
      256
102
RTVSPost2010Prop51ColorRGB
 90
-16777216
102
RTVSPost2010PropOp51
 70
     0
102
RTVSPost2010Prop52
140
1.0
102
RTVSPost2010PropOp52
 70
     0
102
RTVSPost2010Prop53
 90
        2
102
RTVSPost2010PropOp53
 70
     1
102
RTVSPost2010Prop54
  1
strokes_ogs.tif
102
RTVSPost2010PropOp54
 70
     1
102
RTVSPost2010Prop55
280
     0
102
RTVSPost2010PropOp55
 70
     1
102
RTVSPost2010Prop56
140
1.0
102
RTVSPost2010PropOp56
 70
     1
102
RTVSPost2010Prop57
140
1.0
102
RTVSPost2010PropOp57
 70
     1
  0
XRECORD
  5
7E5
102
{ACAD_REACTORS
330
7E4
102
}
330
7E4
100
AcDbXrecord
280
     1
102
RTVSPost2010Prop28
280
     0
102
RTVSPost2010PropOp28
 70
     1
102
RTVSPost2010Prop29
280
     1
102
RTVSPost2010PropOp29
 70
     1
102
RTVSPost2010Prop30
280
     1
102
RTVSPost2010PropOp30
 70
     1
102
RTVSPost2010Prop31
280
     0
102
RTVSPost2010PropOp31
 70
     1
102
RTVSPost2010Prop32
280
     0
102
RTVSPost2010PropOp32
 70
     1
102
RTVSPost2010Prop33
280
     0
102
RTVSPost2010PropOp33
 70
     1
102
RTVSPost2010Prop34
280
     0
102
RTVSPost2010PropOp34
 70
     1
102
RTVSPost2010Prop35
280
     0
102
RTVSPost2010PropOp35
 70
     1
102
RTVSPost2010Prop36
280
     0
102
RTVSPost2010PropOp36
 70
     1
102
RTVSPost2010Prop37
 90
       50
102
RTVSPost2010PropOp37
 70
     1
102
RTVSPost2010Prop38
140
0.0
102
RTVSPost2010PropOp38
 70
     1
102
RTVSPost2010Prop39
140
1.0
102
RTVSPost2010PropOp39
 70
     1
102
RTVSPost2010Prop40
 90
        0
102
RTVSPost2010PropOp40
 70
     1
102
RTVSPost2010Prop41ColorIndex
 90
       18
102
RTVSPost2010Prop41ColorRGB
 90
        0
102
RTVSPost2010PropOp41
 70
     1
102
RTVSPost2010Prop42
 90
       50
102
RTVSPost2010PropOp42
 70
     1
102
RTVSPost2010Prop43
 90
        3
102
RTVSPost2010PropOp43
 70
     1
102
RTVSPost2010Prop44ColorIndex
 90
        5
102
RTVSPost2010Prop44ColorRGB
 90
      255
102
RTVSPost2010PropOp44
 70
     1
102
RTVSPost2010Prop45
280
     0
102
RTVSPost2010PropOp45
 70
     1
102
RTVSPost2010Prop46
 90
       50
102
RTVSPost2010PropOp46
 70
     1
102
RTVSPost2010Prop47
 90
       50
102
RTVSPost2010PropOp47
 70
     1
102
RTVSPost2010Prop48
 90
       50
102
RTVSPost2010PropOp48
 70
     1
102
RTVSPost2010Prop49
280
     0
102
RTVSPost2010PropOp49
 70
     1
102
RTVSPost2010Prop50
 90
       50
102
RTVSPost2010PropOp50
 70
     1
102
RTVSPost2010Prop51ColorIndex
 90
      256
102
RTVSPost2010Prop51ColorRGB
 90
-16777216
102
RTVSPost2010PropOp51
 70
     0
102
RTVSPost2010Prop52
140
1.0
102
RTVSPost2010PropOp52
 70
     0
102
RTVSPost2010Prop53
 90
        2
102
RTVSPost2010PropOp53
 70
     1
102
RTVSPost2010Prop54
  1
strokes_ogs.tif
102
RTVSPost2010PropOp54
 70
     1
102
RTVSPost2010Prop55
280
     0
102
RTVSPost2010PropOp55
 70
     1
102
RTVSPost2010Prop56
140
1.0
102
RTVSPost2010PropOp56
 70
     1
102
RTVSPost2010Prop57
140
1.0
102
RTVSPost2010PropOp57
 70
     1
  0
XRECORD
  5
7ED
102
{ACAD_REACTORS
330
7EC
102
}
330
7EC
100
AcDbXrecord
280
     1
102
RTVSPost2010Prop28
280
     0
102
RTVSPost2010PropOp28
 70
     1
102
RTVSPost2010Prop29
280
     1
102
RTVSPost2010PropOp29
 70
     1
102
RTVSPost2010Prop30
280
     1
102
RTVSPost2010PropOp30
 70
     1
102
RTVSPost2010Prop31
280
     0
102
RTVSPost2010PropOp31
 70
     1
102
RTVSPost2010Prop32
280
     0
102
RTVSPost2010PropOp32
 70
     1
102
RTVSPost2010Prop33
280
     0
102
RTVSPost2010PropOp33
 70
     1
102
RTVSPost2010Prop34
280
     0
102
RTVSPost2010PropOp34
 70
     1
102
RTVSPost2010Prop35
280
     0
102
RTVSPost2010PropOp35
 70
     1
102
RTVSPost2010Prop36
280
     0
102
RTVSPost2010PropOp36
 70
     1
102
RTVSPost2010Prop37
 90
       50
102
RTVSPost2010PropOp37
 70
     1
102
RTVSPost2010Prop38
140
0.0
102
RTVSPost2010PropOp38
 70
     1
102
RTVSPost2010Prop39
140
1.0
102
RTVSPost2010PropOp39
 70
     1
102
RTVSPost2010Prop40
 90
        0
102
RTVSPost2010PropOp40
 70
     1
102
RTVSPost2010Prop41ColorIndex
 90
       18
102
RTVSPost2010Prop41ColorRGB
 90
        0
102
RTVSPost2010PropOp41
 70
     1
102
RTVSPost2010Prop42
 90
       50
102
RTVSPost2010PropOp42
 70
     1
102
RTVSPost2010Prop43
 90
        3
102
RTVSPost2010PropOp43
 70
     1
102
RTVSPost2010Prop44ColorIndex
 90
        5
102
RTVSPost2010Prop44ColorRGB
 90
      255
102
RTVSPost2010PropOp44
 70
     1
102
RTVSPost2010Prop45
280
     0
102
RTVSPost2010PropOp45
 70
     1
102
RTVSPost2010Prop46
 90
       50
102
RTVSPost2010PropOp46
 70
     1
102
RTVSPost2010Prop47
 90
       50
102
RTVSPost2010PropOp47
 70
     1
102
RTVSPost2010Prop48
 90
       50
102
RTVSPost2010PropOp48
 70
     1
102
RTVSPost2010Prop49
280
     0
102
RTVSPost2010PropOp49
 70
     1
102
RTVSPost2010Prop50
 90
       50
102
RTVSPost2010PropOp50
 70
     1
102
RTVSPost2010Prop51ColorIndex
 90
      256
102
RTVSPost2010Prop51ColorRGB
 90
-16777216
102
RTVSPost2010PropOp51
 70
     0
102
RTVSPost2010Prop52
140
1.0
102
RTVSPost2010PropOp52
 70
     0
102
RTVSPost2010Prop53
 90
        2
102
RTVSPost2010PropOp53
 70
     1
102
RTVSPost2010Prop54
  1
strokes_ogs.tif
102
RTVSPost2010PropOp54
 70
     1
102
RTVSPost2010Prop55
280
     0
102
RTVSPost2010PropOp55
 70
     1
102
RTVSPost2010Prop56
140
1.0
102
RTVSPost2010PropOp56
 70
     1
102
RTVSPost2010Prop57
140
1.0
102
RTVSPost2010PropOp57
 70
     1
  0
XRECORD
  5
809
102
{ACAD_REACTORS
330
808
102
}
330
808
100
AcDbXrecord
280
     1
102
RTVSPost2010Prop28
280
     0
102
RTVSPost2010PropOp28
 70
     0
102
RTVSPost2010Prop29
280
     1
102
RTVSPost2010PropOp29
 70
     0
102
RTVSPost2010Prop30
280
     1
102
RTVSPost2010PropOp30
 70
     0
102
RTVSPost2010Prop31
280
     0
102
RTVSPost2010PropOp31
 70
     0
102
RTVSPost2010Prop32
280
     0
102
RTVSPost2010PropOp32
 70
     0
102
RTVSPost2010Prop33
280
     0
102
RTVSPost2010PropOp33
 70
     0
102
RTVSPost2010Prop34
280
     0
102
RTVSPost2010PropOp34
 70
     0
102
RTVSPost2010Prop35
280
     0
102
RTVSPost2010PropOp35
 70
     0
102
RTVSPost2010Prop36
280
     0
102
RTVSPost2010PropOp36
 70
     0
102
RTVSPost2010Prop37
 90
       50
102
RTVSPost2010PropOp37
 70
     0
102
RTVSPost2010Prop38
140
0.0
102
RTVSPost2010PropOp38
 70
     0
102
RTVSPost2010Prop39
140
1.0
102
RTVSPost2010PropOp39
 70
     0
102
RTVSPost2010Prop40
 90
        0
102
RTVSPost2010PropOp40
 70
     0
102
RTVSPost2010Prop41ColorIndex
 90
       18
102
RTVSPost2010Prop41ColorRGB
 90
        0
102
RTVSPost2010PropOp41
 70
     0
102
RTVSPost2010Prop42
 90
       50
102
RTVSPost2010PropOp42
 70
     0
102
RTVSPost2010Prop43
 90
        3
102
RTVSPost2010PropOp43
 70
     0
102
RTVSPost2010Prop44ColorIndex
 90
        5
102
RTVSPost2010Prop44ColorRGB
 90
      255
102
RTVSPost2010PropOp44
 70
     0
102
RTVSPost2010Prop45
280
     0
102
RTVSPost2010PropOp45
 70
     0
102
RTVSPost2010Prop46
 90
       50
102
RTVSPost2010PropOp46
 70
     0
102
RTVSPost2010Prop47
 90
       50
102
RTVSPost2010PropOp47
 70
     0
102
RTVSPost2010Prop48
 90
       50
102
RTVSPost2010PropOp48
 70
     0
102
RTVSPost2010Prop49
280
     0
102
RTVSPost2010PropOp49
 70
     0
102
RTVSPost2010Prop50
 90
       50
102
RTVSPost2010PropOp50
 70
     0
102
RTVSPost2010Prop51ColorIndex
 90
      256
102
RTVSPost2010Prop51ColorRGB
 90
-16777216
102
RTVSPost2010PropOp51
 70
     0
102
RTVSPost2010Prop52
140
1.0
102
RTVSPost2010PropOp52
 70
     0
102
RTVSPost2010Prop53
 90
        2
102
RTVSPost2010PropOp53
 70
     0
102
RTVSPost2010Prop54
  1
strokes_ogs.tif
102
RTVSPost2010PropOp54
 70
     0
102
RTVSPost2010Prop55
280
     0
102
RTVSPost2010PropOp55
 70
     0
102
RTVSPost2010Prop56
140
1.0
102
RTVSPost2010PropOp56
 70
     0
102
RTVSPost2010Prop57
140
1.0
102
RTVSPost2010PropOp57
 70
     0
  0
XRECORD
  5
7F9
102
{ACAD_REACTORS
330
7F8
102
}
330
7F8
100
AcDbXrecord
280
     1
102
RTVSPost2010Prop28
280
     0
102
RTVSPost2010PropOp28
 70
     1
102
RTVSPost2010Prop29
280
     1
102
RTVSPost2010PropOp29
 70
     1
102
RTVSPost2010Prop30
280
     1
102
RTVSPost2010PropOp30
 70
     1
102
RTVSPost2010Prop31
280
     0
102
RTVSPost2010PropOp31
 70
     1
102
RTVSPost2010Prop32
280
     0
102
RTVSPost2010PropOp32
 70
     1
102
RTVSPost2010Prop33
280
     0
102
RTVSPost2010PropOp33
 70
     1
102
RTVSPost2010Prop34
280
     0
102
RTVSPost2010PropOp34
 70
     1
102
RTVSPost2010Prop35
280
     0
102
RTVSPost2010PropOp35
 70
     1
102
RTVSPost2010Prop36
280
     0
102
RTVSPost2010PropOp36
 70
     1
102
RTVSPost2010Prop37
 90
       50
102
RTVSPost2010PropOp37
 70
     1
102
RTVSPost2010Prop38
140
0.0
102
RTVSPost2010PropOp38
 70
     1
102
RTVSPost2010Prop39
140
1.0
102
RTVSPost2010PropOp39
 70
     1
102
RTVSPost2010Prop40
 90
        0
102
RTVSPost2010PropOp40
 70
     1
102
RTVSPost2010Prop41ColorIndex
 90
       18
102
RTVSPost2010Prop41ColorRGB
 90
        0
102
RTVSPost2010PropOp41
 70
     1
102
RTVSPost2010Prop42
 90
       50
102
RTVSPost2010PropOp42
 70
     1
102
RTVSPost2010Prop43
 90
        3
102
RTVSPost2010PropOp43
 70
     1
102
RTVSPost2010Prop44ColorIndex
 90
        5
102
RTVSPost2010Prop44ColorRGB
 90
      255
102
RTVSPost2010PropOp44
 70
     1
102
RTVSPost2010Prop45
280
     0
102
RTVSPost2010PropOp45
 70
     1
102
RTVSPost2010Prop46
 90
       50
102
RTVSPost2010PropOp46
 70
     1
102
RTVSPost2010Prop47
 90
       50
102
RTVSPost2010PropOp47
 70
     1
102
RTVSPost2010Prop48
 90
       50
102
RTVSPost2010PropOp48
 70
     1
102
RTVSPost2010Prop49
280
     0
102
RTVSPost2010PropOp49
 70
     1
102
RTVSPost2010Prop50
 90
       50
102
RTVSPost2010PropOp50
 70
     1
102
RTVSPost2010Prop51ColorIndex
 90
      256
102
RTVSPost2010Prop51ColorRGB
 90
-16777216
102
RTVSPost2010PropOp51
 70
     0
102
RTVSPost2010Prop52
140
1.0
102
RTVSPost2010PropOp52
 70
     0
102
RTVSPost2010Prop53
 90
        2
102
RTVSPost2010PropOp53
 70
     1
102
RTVSPost2010Prop54
  1
strokes_ogs.tif
102
RTVSPost2010PropOp54
 70
     1
102
RTVSPost2010Prop55
280
     0
102
RTVSPost2010PropOp55
 70
     1
102
RTVSPost2010Prop56
140
1.0
102
RTVSPost2010PropOp56
 70
     1
102
RTVSPost2010Prop57
140
1.0
102
RTVSPost2010PropOp57
 70
     1
  0
XRECORD
  5
80B
102
{ACAD_REACTORS
330
80A
102
}
330
80A
100
AcDbXrecord
280
     1
102
RTVSPost2010Prop28
280
     0
102
RTVSPost2010PropOp28
 70
     0
102
RTVSPost2010Prop29
280
     1
102
RTVSPost2010PropOp29
 70
     0
102
RTVSPost2010Prop30
280
     1
102
RTVSPost2010PropOp30
 70
     0
102
RTVSPost2010Prop31
280
     0
102
RTVSPost2010PropOp31
 70
     0
102
RTVSPost2010Prop32
280
     0
102
RTVSPost2010PropOp32
 70
     0
102
RTVSPost2010Prop33
280
     0
102
RTVSPost2010PropOp33
 70
     0
102
RTVSPost2010Prop34
280
     0
102
RTVSPost2010PropOp34
 70
     0
102
RTVSPost2010Prop35
280
     0
102
RTVSPost2010PropOp35
 70
     0
102
RTVSPost2010Prop36
280
     0
102
RTVSPost2010PropOp36
 70
     0
102
RTVSPost2010Prop37
 90
       50
102
RTVSPost2010PropOp37
 70
     0
102
RTVSPost2010Prop38
140
0.0
102
RTVSPost2010PropOp38
 70
     0
102
RTVSPost2010Prop39
140
1.0
102
RTVSPost2010PropOp39
 70
     0
102
RTVSPost2010Prop40
 90
        0
102
RTVSPost2010PropOp40
 70
     0
102
RTVSPost2010Prop41ColorIndex
 90
       18
102
RTVSPost2010Prop41ColorRGB
 90
        0
102
RTVSPost2010PropOp41
 70
     0
102
RTVSPost2010Prop42
 90
       50
102
RTVSPost2010PropOp42
 70
     0
102
RTVSPost2010Prop43
 90
        3
102
RTVSPost2010PropOp43
 70
     0
102
RTVSPost2010Prop44ColorIndex
 90
        5
102
RTVSPost2010Prop44ColorRGB
 90
      255
102
RTVSPost2010PropOp44
 70
     0
102
RTVSPost2010Prop45
280
     0
102
RTVSPost2010PropOp45
 70
     0
102
RTVSPost2010Prop46
 90
       50
102
RTVSPost2010PropOp46
 70
     0
102
RTVSPost2010Prop47
 90
       50
102
RTVSPost2010PropOp47
 70
     0
102
RTVSPost2010Prop48
 90
       50
102
RTVSPost2010PropOp48
 70
     0
102
RTVSPost2010Prop49
280
     0
102
RTVSPost2010PropOp49
 70
     0
102
RTVSPost2010Prop50
 90
       50
102
RTVSPost2010PropOp50
 70
     0
102
RTVSPost2010Prop51ColorIndex
 90
      256
102
RTVSPost2010Prop51ColorRGB
 90
-16777216
102
RTVSPost2010PropOp51
 70
     0
102
RTVSPost2010Prop52
140
1.0
102
RTVSPost2010PropOp52
 70
     0
102
RTVSPost2010Prop53
 90
        2
102
RTVSPost2010PropOp53
 70
     0
102
RTVSPost2010Prop54
  1
strokes_ogs.tif
102
RTVSPost2010PropOp54
 70
     0
102
RTVSPost2010Prop55
280
     0
102
RTVSPost2010PropOp55
 70
     0
102
RTVSPost2010Prop56
140
1.0
102
RTVSPost2010PropOp56
 70
     0
102
RTVSPost2010Prop57
140
1.0
102
RTVSPost2010PropOp57
 70
     0
  0
XRECORD
  5
7F1
102
{ACAD_REACTORS
330
7F0
102
}
330
7F0
100
AcDbXrecord
280
     1
102
RTVSPost2010Prop28
280
     0
102
RTVSPost2010PropOp28
 70
     1
102
RTVSPost2010Prop29
280
     1
102
RTVSPost2010PropOp29
 70
     1
102
RTVSPost2010Prop30
280
     1
102
RTVSPost2010PropOp30
 70
     1
102
RTVSPost2010Prop31
280
     0
102
RTVSPost2010PropOp31
 70
     1
102
RTVSPost2010Prop32
280
     0
102
RTVSPost2010PropOp32
 70
     1
102
RTVSPost2010Prop33
280
     0
102
RTVSPost2010PropOp33
 70
     1
102
RTVSPost2010Prop34
280
     0
102
RTVSPost2010PropOp34
 70
     1
102
RTVSPost2010Prop35
280
     0
102
RTVSPost2010PropOp35
 70
     1
102
RTVSPost2010Prop36
280
     0
102
RTVSPost2010PropOp36
 70
     1
102
RTVSPost2010Prop37
 90
       50
102
RTVSPost2010PropOp37
 70
     1
102
RTVSPost2010Prop38
140
0.0
102
RTVSPost2010PropOp38
 70
     1
102
RTVSPost2010Prop39
140
1.0
102
RTVSPost2010PropOp39
 70
     1
102
RTVSPost2010Prop40
 90
        0
102
RTVSPost2010PropOp40
 70
     1
102
RTVSPost2010Prop41ColorIndex
 90
       18
102
RTVSPost2010Prop41ColorRGB
 90
        0
102
RTVSPost2010PropOp41
 70
     1
102
RTVSPost2010Prop42
 90
       50
102
RTVSPost2010PropOp42
 70
     1
102
RTVSPost2010Prop43
 90
        3
102
RTVSPost2010PropOp43
 70
     1
102
RTVSPost2010Prop44ColorIndex
 90
        5
102
RTVSPost2010Prop44ColorRGB
 90
      255
102
RTVSPost2010PropOp44
 70
     1
102
RTVSPost2010Prop45
280
     0
102
RTVSPost2010PropOp45
 70
     1
102
RTVSPost2010Prop46
 90
       50
102
RTVSPost2010PropOp46
 70
     1
102
RTVSPost2010Prop47
 90
       50
102
RTVSPost2010PropOp47
 70
     1
102
RTVSPost2010Prop48
 90
       50
102
RTVSPost2010PropOp48
 70
     1
102
RTVSPost2010Prop49
280
     0
102
RTVSPost2010PropOp49
 70
     1
102
RTVSPost2010Prop50
 90
       50
102
RTVSPost2010PropOp50
 70
     1
102
RTVSPost2010Prop51ColorIndex
 90
      256
102
RTVSPost2010Prop51ColorRGB
 90
-16777216
102
RTVSPost2010PropOp51
 70
     0
102
RTVSPost2010Prop52
140
1.0
102
RTVSPost2010PropOp52
 70
     0
102
RTVSPost2010Prop53
 90
        2
102
RTVSPost2010PropOp53
 70
     1
102
RTVSPost2010Prop54
  1
strokes_ogs.tif
102
RTVSPost2010PropOp54
 70
     1
102
RTVSPost2010Prop55
280
     0
102
RTVSPost2010PropOp55
 70
     1
102
RTVSPost2010Prop56
140
1.0
102
RTVSPost2010PropOp56
 70
     1
102
RTVSPost2010Prop57
140
1.0
102
RTVSPost2010PropOp57
 70
     1
  0
XRECORD
  5
807
102
{ACAD_REACTORS
330
806
102
}
330
806
100
AcDbXrecord
280
     1
102
RTVSPost2010Prop28
280
     0
102
RTVSPost2010PropOp28
 70
     1
102
RTVSPost2010Prop29
280
     1
102
RTVSPost2010PropOp29
 70
     1
102
RTVSPost2010Prop30
280
     1
102
RTVSPost2010PropOp30
 70
     1
102
RTVSPost2010Prop31
280
     0
102
RTVSPost2010PropOp31
 70
     1
102
RTVSPost2010Prop32
280
     0
102
RTVSPost2010PropOp32
 70
     1
102
RTVSPost2010Prop33
280
     0
102
RTVSPost2010PropOp33
 70
     1
102
RTVSPost2010Prop34
280
     0
102
RTVSPost2010PropOp34
 70
     1
102
RTVSPost2010Prop35
280
     0
102
RTVSPost2010PropOp35
 70
     1
102
RTVSPost2010Prop36
280
     0
102
RTVSPost2010PropOp36
 70
     1
102
RTVSPost2010Prop37
 90
       50
102
RTVSPost2010PropOp37
 70
     1
102
RTVSPost2010Prop38
140
0.0
102
RTVSPost2010PropOp38
 70
     1
102
RTVSPost2010Prop39
140
1.0
102
RTVSPost2010PropOp39
 70
     1
102
RTVSPost2010Prop40
 90
        0
102
RTVSPost2010PropOp40
 70
     1
102
RTVSPost2010Prop41ColorIndex
 90
       18
102
RTVSPost2010Prop41ColorRGB
 90
        0
102
RTVSPost2010PropOp41
 70
     1
102
RTVSPost2010Prop42
 90
       50
102
RTVSPost2010PropOp42
 70
     1
102
RTVSPost2010Prop43
 90
        3
102
RTVSPost2010PropOp43
 70
     1
102
RTVSPost2010Prop44ColorIndex
 90
        5
102
RTVSPost2010Prop44ColorRGB
 90
      255
102
RTVSPost2010PropOp44
 70
     1
102
RTVSPost2010Prop45
280
     0
102
RTVSPost2010PropOp45
 70
     1
102
RTVSPost2010Prop46
 90
       50
102
RTVSPost2010PropOp46
 70
     1
102
RTVSPost2010Prop47
 90
       50
102
RTVSPost2010PropOp47
 70
     1
102
RTVSPost2010Prop48
 90
       50
102
RTVSPost2010PropOp48
 70
     1
102
RTVSPost2010Prop49
280
     0
102
RTVSPost2010PropOp49
 70
     1
102
RTVSPost2010Prop50
 90
       50
102
RTVSPost2010PropOp50
 70
     1
102
RTVSPost2010Prop51ColorIndex
 90
      256
102
RTVSPost2010Prop51ColorRGB
 90
-16777216
102
RTVSPost2010PropOp51
 70
     0
102
RTVSPost2010Prop52
140
1.0
102
RTVSPost2010PropOp52
 70
     0
102
RTVSPost2010Prop53
 90
        2
102
RTVSPost2010PropOp53
 70
     1
102
RTVSPost2010Prop54
  1
strokes_ogs.tif
102
RTVSPost2010PropOp54
 70
     1
102
RTVSPost2010Prop55
280
     0
102
RTVSPost2010PropOp55
 70
     1
102
RTVSPost2010Prop56
140
1.0
102
RTVSPost2010PropOp56
 70
     1
102
RTVSPost2010Prop57
140
1.0
102
RTVSPost2010PropOp57
 70
     1
  0
XRECORD
  5
805
102
{ACAD_REACTORS
330
804
102
}
330
804
100
AcDbXrecord
280
     1
102
RTVSPost2010Prop28
280
     0
102
RTVSPost2010PropOp28
 70
     1
102
RTVSPost2010Prop29
280
     1
102
RTVSPost2010PropOp29
 70
     1
102
RTVSPost2010Prop30
280
     1
102
RTVSPost2010PropOp30
 70
     1
102
RTVSPost2010Prop31
280
     0
102
RTVSPost2010PropOp31
 70
     1
102
RTVSPost2010Prop32
280
     0
102
RTVSPost2010PropOp32
 70
     1
102
RTVSPost2010Prop33
280
     0
102
RTVSPost2010PropOp33
 70
     1
102
RTVSPost2010Prop34
280
     0
102
RTVSPost2010PropOp34
 70
     1
102
RTVSPost2010Prop35
280
     0
102
RTVSPost2010PropOp35
 70
     1
102
RTVSPost2010Prop36
280
     0
102
RTVSPost2010PropOp36
 70
     1
102
RTVSPost2010Prop37
 90
       50
102
RTVSPost2010PropOp37
 70
     1
102
RTVSPost2010Prop38
140
0.0
102
RTVSPost2010PropOp38
 70
     1
102
RTVSPost2010Prop39
140
1.0
102
RTVSPost2010PropOp39
 70
     1
102
RTVSPost2010Prop40
 90
        0
102
RTVSPost2010PropOp40
 70
     1
102
RTVSPost2010Prop41ColorIndex
 90
       18
102
RTVSPost2010Prop41ColorRGB
 90
        0
102
RTVSPost2010PropOp41
 70
     1
102
RTVSPost2010Prop42
 90
       50
102
RTVSPost2010PropOp42
 70
     1
102
RTVSPost2010Prop43
 90
        3
102
RTVSPost2010PropOp43
 70
     1
102
RTVSPost2010Prop44ColorIndex
 90
        5
102
RTVSPost2010Prop44ColorRGB
 90
      255
102
RTVSPost2010PropOp44
 70
     1
102
RTVSPost2010Prop45
280
     0
102
RTVSPost2010PropOp45
 70
     1
102
RTVSPost2010Prop46
 90
       50
102
RTVSPost2010PropOp46
 70
     1
102
RTVSPost2010Prop47
 90
       50
102
RTVSPost2010PropOp47
 70
     1
102
RTVSPost2010Prop48
 90
       50
102
RTVSPost2010PropOp48
 70
     1
102
RTVSPost2010Prop49
280
     0
102
RTVSPost2010PropOp49
 70
     1
102
RTVSPost2010Prop50
 90
       50
102
RTVSPost2010PropOp50
 70
     1
102
RTVSPost2010Prop51ColorIndex
 90
      256
102
RTVSPost2010Prop51ColorRGB
 90
-16777216
102
RTVSPost2010PropOp51
 70
     0
102
RTVSPost2010Prop52
140
1.0
102
RTVSPost2010PropOp52
 70
     0
102
RTVSPost2010Prop53
 90
        2
102
RTVSPost2010PropOp53
 70
     1
102
RTVSPost2010Prop54
  1
strokes_ogs.tif
102
RTVSPost2010PropOp54
 70
     1
102
RTVSPost2010Prop55
280
     0
102
RTVSPost2010PropOp55
 70
     1
102
RTVSPost2010Prop56
140
1.0
102
RTVSPost2010PropOp56
 70
     1
102
RTVSPost2010Prop57
140
1.0
102
RTVSPost2010PropOp57
 70
     1
  0
XRECORD
  5
7FF
102
{ACAD_REACTORS
330
7FE
102
}
330
7FE
100
AcDbXrecord
280
     1
102
RTVSPost2010Prop28
280
     0
102
RTVSPost2010PropOp28
 70
     1
102
RTVSPost2010Prop29
280
     1
102
RTVSPost2010PropOp29
 70
     1
102
RTVSPost2010Prop30
280
     1
102
RTVSPost2010PropOp30
 70
     1
102
RTVSPost2010Prop31
280
     0
102
RTVSPost2010PropOp31
 70
     1
102
RTVSPost2010Prop32
280
     0
102
RTVSPost2010PropOp32
 70
     1
102
RTVSPost2010Prop33
280
     0
102
RTVSPost2010PropOp33
 70
     1
102
RTVSPost2010Prop34
280
     0
102
RTVSPost2010PropOp34
 70
     1
102
RTVSPost2010Prop35
280
     0
102
RTVSPost2010PropOp35
 70
     1
102
RTVSPost2010Prop36
280
     0
102
RTVSPost2010PropOp36
 70
     1
102
RTVSPost2010Prop37
 90
       50
102
RTVSPost2010PropOp37
 70
     1
102
RTVSPost2010Prop38
140
0.0
102
RTVSPost2010PropOp38
 70
     1
102
RTVSPost2010Prop39
140
1.0
102
RTVSPost2010PropOp39
 70
     1
102
RTVSPost2010Prop40
 90
        0
102
RTVSPost2010PropOp40
 70
     1
102
RTVSPost2010Prop41ColorIndex
 90
       18
102
RTVSPost2010Prop41ColorRGB
 90
        0
102
RTVSPost2010PropOp41
 70
     1
102
RTVSPost2010Prop42
 90
       50
102
RTVSPost2010PropOp42
 70
     1
102
RTVSPost2010Prop43
 90
        3
102
RTVSPost2010PropOp43
 70
     1
102
RTVSPost2010Prop44ColorIndex
 90
        5
102
RTVSPost2010Prop44ColorRGB
 90
      255
102
RTVSPost2010PropOp44
 70
     1
102
RTVSPost2010Prop45
280
     0
102
RTVSPost2010PropOp45
 70
     1
102
RTVSPost2010Prop46
 90
       50
102
RTVSPost2010PropOp46
 70
     1
102
RTVSPost2010Prop47
 90
       50
102
RTVSPost2010PropOp47
 70
     1
102
RTVSPost2010Prop48
 90
       50
102
RTVSPost2010PropOp48
 70
     1
102
RTVSPost2010Prop49
280
     0
102
RTVSPost2010PropOp49
 70
     1
102
RTVSPost2010Prop50
 90
       50
102
RTVSPost2010PropOp50
 70
     1
102
RTVSPost2010Prop51ColorIndex
 90
      256
102
RTVSPost2010Prop51ColorRGB
 90
-16777216
102
RTVSPost2010PropOp51
 70
     0
102
RTVSPost2010Prop52
140
1.0
102
RTVSPost2010PropOp52
 70
     0
102
RTVSPost2010Prop53
 90
        2
102
RTVSPost2010PropOp53
 70
     1
102
RTVSPost2010Prop54
  1
strokes_ogs.tif
102
RTVSPost2010PropOp54
 70
     1
102
RTVSPost2010Prop55
280
     0
102
RTVSPost2010PropOp55
 70
     1
102
RTVSPost2010Prop56
140
1.0
102
RTVSPost2010PropOp56
 70
     1
102
RTVSPost2010Prop57
140
1.0
102
RTVSPost2010PropOp57
 70
     1
  0
XRECORD
  5
801
102
{ACAD_REACTORS
330
800
102
}
330
800
100
AcDbXrecord
280
     1
102
RTVSPost2010Prop28
280
     0
102
RTVSPost2010PropOp28
 70
     1
102
RTVSPost2010Prop29
280
     1
102
RTVSPost2010PropOp29
 70
     1
102
RTVSPost2010Prop30
280
     1
102
RTVSPost2010PropOp30
 70
     1
102
RTVSPost2010Prop31
280
     0
102
RTVSPost2010PropOp31
 70
     1
102
RTVSPost2010Prop32
280
     0
102
RTVSPost2010PropOp32
 70
     1
102
RTVSPost2010Prop33
280
     0
102
RTVSPost2010PropOp33
 70
     1
102
RTVSPost2010Prop34
280
     0
102
RTVSPost2010PropOp34
 70
     1
102
RTVSPost2010Prop35
280
     0
102
RTVSPost2010PropOp35
 70
     1
102
RTVSPost2010Prop36
280
     0
102
RTVSPost2010PropOp36
 70
     1
102
RTVSPost2010Prop37
 90
       50
102
RTVSPost2010PropOp37
 70
     1
102
RTVSPost2010Prop38
140
0.0
102
RTVSPost2010PropOp38
 70
     1
102
RTVSPost2010Prop39
140
1.0
102
RTVSPost2010PropOp39
 70
     1
102
RTVSPost2010Prop40
 90
        0
102
RTVSPost2010PropOp40
 70
     1
102
RTVSPost2010Prop41ColorIndex
 90
       18
102
RTVSPost2010Prop41ColorRGB
 90
        0
102
RTVSPost2010PropOp41
 70
     1
102
RTVSPost2010Prop42
 90
       50
102
RTVSPost2010PropOp42
 70
     1
102
RTVSPost2010Prop43
 90
        3
102
RTVSPost2010PropOp43
 70
     1
102
RTVSPost2010Prop44ColorIndex
 90
        5
102
RTVSPost2010Prop44ColorRGB
 90
      255
102
RTVSPost2010PropOp44
 70
     1
102
RTVSPost2010Prop45
280
     0
102
RTVSPost2010PropOp45
 70
     1
102
RTVSPost2010Prop46
 90
       50
102
RTVSPost2010PropOp46
 70
     1
102
RTVSPost2010Prop47
 90
       50
102
RTVSPost2010PropOp47
 70
     1
102
RTVSPost2010Prop48
 90
       50
102
RTVSPost2010PropOp48
 70
     1
102
RTVSPost2010Prop49
280
     0
102
RTVSPost2010PropOp49
 70
     1
102
RTVSPost2010Prop50
 90
       50
102
RTVSPost2010PropOp50
 70
     1
102
RTVSPost2010Prop51ColorIndex
 90
      256
102
RTVSPost2010Prop51ColorRGB
 90
-16777216
102
RTVSPost2010PropOp51
 70
     0
102
RTVSPost2010Prop52
140
1.0
102
RTVSPost2010PropOp52
 70
     0
102
RTVSPost2010Prop53
 90
        2
102
RTVSPost2010PropOp53
 70
     1
102
RTVSPost2010Prop54
  1
strokes_ogs.tif
102
RTVSPost2010PropOp54
 70
     1
102
RTVSPost2010Prop55
280
     0
102
RTVSPost2010PropOp55
 70
     1
102
RTVSPost2010Prop56
140
1.0
102
RTVSPost2010PropOp56
 70
     1
102
RTVSPost2010Prop57
140
1.0
102
RTVSPost2010PropOp57
 70
     1
  0
XRECORD
  5
7F7
102
{ACAD_REACTORS
330
7F6
102
}
330
7F6
100
AcDbXrecord
280
     1
102
RTVSPost2010Prop28
280
     0
102
RTVSPost2010PropOp28
 70
     1
102
RTVSPost2010Prop29
280
     1
102
RTVSPost2010PropOp29
 70
     1
102
RTVSPost2010Prop30
280
     1
102
RTVSPost2010PropOp30
 70
     1
102
RTVSPost2010Prop31
280
     0
102
RTVSPost2010PropOp31
 70
     1
102
RTVSPost2010Prop32
280
     0
102
RTVSPost2010PropOp32
 70
     1
102
RTVSPost2010Prop33
280
     0
102
RTVSPost2010PropOp33
 70
     1
102
RTVSPost2010Prop34
280
     0
102
RTVSPost2010PropOp34
 70
     1
102
RTVSPost2010Prop35
280
     0
102
RTVSPost2010PropOp35
 70
     1
102
RTVSPost2010Prop36
280
     0
102
RTVSPost2010PropOp36
 70
     1
102
RTVSPost2010Prop37
 90
       50
102
RTVSPost2010PropOp37
 70
     1
102
RTVSPost2010Prop38
140
0.0
102
RTVSPost2010PropOp38
 70
     1
102
RTVSPost2010Prop39
140
1.0
102
RTVSPost2010PropOp39
 70
     1
102
RTVSPost2010Prop40
 90
        0
102
RTVSPost2010PropOp40
 70
     1
102
RTVSPost2010Prop41ColorIndex
 90
       18
102
RTVSPost2010Prop41ColorRGB
 90
        0
102
RTVSPost2010PropOp41
 70
     1
102
RTVSPost2010Prop42
 90
       50
102
RTVSPost2010PropOp42
 70
     1
102
RTVSPost2010Prop43
 90
        3
102
RTVSPost2010PropOp43
 70
     1
102
RTVSPost2010Prop44ColorIndex
 90
        5
102
RTVSPost2010Prop44ColorRGB
 90
      255
102
RTVSPost2010PropOp44
 70
     1
102
RTVSPost2010Prop45
280
     0
102
RTVSPost2010PropOp45
 70
     1
102
RTVSPost2010Prop46
 90
       50
102
RTVSPost2010PropOp46
 70
     1
102
RTVSPost2010Prop47
 90
       50
102
RTVSPost2010PropOp47
 70
     1
102
RTVSPost2010Prop48
 90
       50
102
RTVSPost2010PropOp48
 70
     1
102
RTVSPost2010Prop49
280
     0
102
RTVSPost2010PropOp49
 70
     1
102
RTVSPost2010Prop50
 90
       50
102
RTVSPost2010PropOp50
 70
     1
102
RTVSPost2010Prop51ColorIndex
 90
      256
102
RTVSPost2010Prop51ColorRGB
 90
-16777216
102
RTVSPost2010PropOp51
 70
     0
102
RTVSPost2010Prop52
140
1.0
102
RTVSPost2010PropOp52
 70
     0
102
RTVSPost2010Prop53
 90
        2
102
RTVSPost2010PropOp53
 70
     1
102
RTVSPost2010Prop54
  1
strokes_ogs.tif
102
RTVSPost2010PropOp54
 70
     1
102
RTVSPost2010Prop55
280
     0
102
RTVSPost2010PropOp55
 70
     1
102
RTVSPost2010Prop56
140
1.0
102
RTVSPost2010PropOp56
 70
     1
102
RTVSPost2010Prop57
140
1.0
102
RTVSPost2010PropOp57
 70
     1
  0
XRECORD
  5
7EB
102
{ACAD_REACTORS
330
7EA
102
}
330
7EA
100
AcDbXrecord
280
     1
102
RTVSPost2010Prop28
280
     0
102
RTVSPost2010PropOp28
 70
     1
102
RTVSPost2010Prop29
280
     1
102
RTVSPost2010PropOp29
 70
     1
102
RTVSPost2010Prop30
280
     1
102
RTVSPost2010PropOp30
 70
     1
102
RTVSPost2010Prop31
280
     0
102
RTVSPost2010PropOp31
 70
     1
102
RTVSPost2010Prop32
280
     0
102
RTVSPost2010PropOp32
 70
     1
102
RTVSPost2010Prop33
280
     0
102
RTVSPost2010PropOp33
 70
     1
102
RTVSPost2010Prop34
280
     0
102
RTVSPost2010PropOp34
 70
     1
102
RTVSPost2010Prop35
280
     0
102
RTVSPost2010PropOp35
 70
     1
102
RTVSPost2010Prop36
280
     0
102
RTVSPost2010PropOp36
 70
     1
102
RTVSPost2010Prop37
 90
       50
102
RTVSPost2010PropOp37
 70
     1
102
RTVSPost2010Prop38
140
0.0
102
RTVSPost2010PropOp38
 70
     1
102
RTVSPost2010Prop39
140
1.0
102
RTVSPost2010PropOp39
 70
     1
102
RTVSPost2010Prop40
 90
        0
102
RTVSPost2010PropOp40
 70
     1
102
RTVSPost2010Prop41ColorIndex
 90
       18
102
RTVSPost2010Prop41ColorRGB
 90
        0
102
RTVSPost2010PropOp41
 70
     1
102
RTVSPost2010Prop42
 90
       50
102
RTVSPost2010PropOp42
 70
     1
102
RTVSPost2010Prop43
 90
        3
102
RTVSPost2010PropOp43
 70
     1
102
RTVSPost2010Prop44ColorIndex
 90
        5
102
RTVSPost2010Prop44ColorRGB
 90
      255
102
RTVSPost2010PropOp44
 70
     1
102
RTVSPost2010Prop45
280
     0
102
RTVSPost2010PropOp45
 70
     1
102
RTVSPost2010Prop46
 90
       50
102
RTVSPost2010PropOp46
 70
     1
102
RTVSPost2010Prop47
 90
       50
102
RTVSPost2010PropOp47
 70
     1
102
RTVSPost2010Prop48
 90
       50
102
RTVSPost2010PropOp48
 70
     1
102
RTVSPost2010Prop49
280
     0
102
RTVSPost2010PropOp49
 70
     1
102
RTVSPost2010Prop50
 90
       50
102
RTVSPost2010PropOp50
 70
     1
102
RTVSPost2010Prop51ColorIndex
 90
      256
102
RTVSPost2010Prop51ColorRGB
 90
-16777216
102
RTVSPost2010PropOp51
 70
     0
102
RTVSPost2010Prop52
140
1.0
102
RTVSPost2010PropOp52
 70
     0
102
RTVSPost2010Prop53
 90
        2
102
RTVSPost2010PropOp53
 70
     1
102
RTVSPost2010Prop54
  1
strokes_ogs.tif
102
RTVSPost2010PropOp54
 70
     1
102
RTVSPost2010Prop55
280
     0
102
RTVSPost2010PropOp55
 70
     1
102
RTVSPost2010Prop56
140
1.0
102
RTVSPost2010PropOp56
 70
     1
102
RTVSPost2010Prop57
140
1.0
102
RTVSPost2010PropOp57
 70
     1
  0
XRECORD
  5
803
102
{ACAD_REACTORS
330
802
102
}
330
802
100
AcDbXrecord
280
     1
102
RTVSPost2010Prop28
280
     0
102
RTVSPost2010PropOp28
 70
     1
102
RTVSPost2010Prop29
280
     1
102
RTVSPost2010PropOp29
 70
     1
102
RTVSPost2010Prop30
280
     1
102
RTVSPost2010PropOp30
 70
     1
102
RTVSPost2010Prop31
280
     0
102
RTVSPost2010PropOp31
 70
     1
102
RTVSPost2010Prop32
280
     0
102
RTVSPost2010PropOp32
 70
     1
102
RTVSPost2010Prop33
280
     0
102
RTVSPost2010PropOp33
 70
     1
102
RTVSPost2010Prop34
280
     0
102
RTVSPost2010PropOp34
 70
     1
102
RTVSPost2010Prop35
280
     0
102
RTVSPost2010PropOp35
 70
     1
102
RTVSPost2010Prop36
280
     0
102
RTVSPost2010PropOp36
 70
     1
102
RTVSPost2010Prop37
 90
       50
102
RTVSPost2010PropOp37
 70
     1
102
RTVSPost2010Prop38
140
0.0
102
RTVSPost2010PropOp38
 70
     1
102
RTVSPost2010Prop39
140
1.0
102
RTVSPost2010PropOp39
 70
     1
102
RTVSPost2010Prop40
 90
        0
102
RTVSPost2010PropOp40
 70
     1
102
RTVSPost2010Prop41ColorIndex
 90
       18
102
RTVSPost2010Prop41ColorRGB
 90
        0
102
RTVSPost2010PropOp41
 70
     1
102
RTVSPost2010Prop42
 90
       50
102
RTVSPost2010PropOp42
 70
     1
102
RTVSPost2010Prop43
 90
        3
102
RTVSPost2010PropOp43
 70
     1
102
RTVSPost2010Prop44ColorIndex
 90
        5
102
RTVSPost2010Prop44ColorRGB
 90
      255
102
RTVSPost2010PropOp44
 70
     1
102
RTVSPost2010Prop45
280
     0
102
RTVSPost2010PropOp45
 70
     1
102
RTVSPost2010Prop46
 90
       50
102
RTVSPost2010PropOp46
 70
     1
102
RTVSPost2010Prop47
 90
       50
102
RTVSPost2010PropOp47
 70
     1
102
RTVSPost2010Prop48
 90
       50
102
RTVSPost2010PropOp48
 70
     1
102
RTVSPost2010Prop49
280
     0
102
RTVSPost2010PropOp49
 70
     1
102
RTVSPost2010Prop50
 90
       50
102
RTVSPost2010PropOp50
 70
     1
102
RTVSPost2010Prop51ColorIndex
 90
      256
102
RTVSPost2010Prop51ColorRGB
 90
-16777216
102
RTVSPost2010PropOp51
 70
     0
102
RTVSPost2010Prop52
140
1.0
102
RTVSPost2010PropOp52
 70
     0
102
RTVSPost2010Prop53
 90
        2
102
RTVSPost2010PropOp53
 70
     1
102
RTVSPost2010Prop54
  1
strokes_ogs.tif
102
RTVSPost2010PropOp54
 70
     1
102
RTVSPost2010Prop55
280
     0
102
RTVSPost2010PropOp55
 70
     1
102
RTVSPost2010Prop56
140
1.0
102
RTVSPost2010PropOp56
 70
     1
102
RTVSPost2010Prop57
140
1.0
102
RTVSPost2010PropOp57
 70
     1
  0
ENDSEC
  0
EOF
