  0
SECTION
  2
HEADER
  9
$ACADVER
  1
AC1015
  9
$ACADMAINTVER
 70
    20
  9
$DWGCODEPAGE
  3
ANSI_1252
  9
$INSBASE
 10
0.0
 20
0.0
 30
0.0
  9
$EXTMIN
 10
-23.78906154980541
 20
23.10342479066855
 30
-0.0000610304997082
  9
$EXTMAX
 10
197.4069221054751
 20
244.3488470657598
 30
0.000091555062788
  9
$LIMMIN
 10
0.0
 20
0.0
  9
$LIMMAX
 10
420.0
 20
297.0
  9
$ORTHOMODE
 70
     0
  9
$REGENMODE
 70
     1
  9
$FILLMODE
 70
     1
  9
$QTEXTMODE
 70
     0
  9
$MIRRTEXT
 70
     1
  9
$LTSCALE
 40
1.0
  9
$ATTMODE
 70
     1
  9
$TEXTSIZE
 40
2.5
  9
$TRACEWID
 40
1.0
  9
$TEXTSTYLE
  7
STANDARD
  9
$CLAYER
  8
HAWA1
  9
$CELTYPE
  6
BYLAYER
  9
$CECOLOR
 62
   256
  9
$CELTSCALE
 40
1.0
  9
$DISPSILH
 70
     0
  9
$DIMSCALE
 40
1.0
  9
$DIMASZ
 40
2.0
  9
$DIMEXO
 40
2.0
  9
$DIMDLI
 40
0.0
  9
$DIMRND
 40
0.0
  9
$DIMDLE
 40
1.0
  9
$DIMEXE
 40
1.0
  9
$DIMTP
 40
0.0
  9
$DIMTM
 40
0.0
  9
$DIMTXT
 40
3.5
  9
$DIMCEN
 40
0.0
  9
$DIMTSZ
 40
0.0
  9
$DIMTOL
 70
     0
  9
$DIMLIM
 70
     0
  9
$DIMTIH
 70
     0
  9
$DIMTOH
 70
     0
  9
$DIMSE1
 70
     0
  9
$DIMSE2
 70
     0
  9
$DIMTAD
 70
     1
  9
$DIMZIN
 70
     8
  9
$DIMBLK
  1

  9
$DIMASO
 70
     1
  9
$DIMSHO
 70
     1
  9
$DIMPOST
  1

  9
$DIMAPOST
  1

  9
$DIMALT
 70
     1
  9
$DIMALTD
 70
     5
  9
$DIMALTF
 40
0.039370078740157
  9
$DIMLFAC
 40
1.0
  9
$DIMTOFL
 70
     1
  9
$DIMTVP
 40
0.0
  9
$DIMTIX
 70
     0
  9
$DIMSOXD
 70
     0
  9
$DIMSAH
 70
     1
  9
$DIMBLK1
  1
Oblique
  9
$DIMBLK2
  1
Oblique
  9
$DIMSTYLE
  2
HAWA-Strich
  9
$DIMCLRD
 70
   256
  9
$DIMCLRE
 70
   256
  9
$DIMCLRT
 70
   256
  9
$DIMTFAC
 40
0.7114285714285719
  9
$DIMGAP
 40
1.0
  9
$DIMJUST
 70
     0
  9
$DIMSD1
 70
     0
  9
$DIMSD2
 70
     0
  9
$DIMTOLJ
 70
     1
  9
$DIMTZIN
 70
     8
  9
$DIMALTZ
 70
     8
  9
$DIMALTTZ
 70
     8
  9
$DIMUPT
 70
     0
  9
$DIMDEC
 70
     1
  9
$DIMTDEC
 70
     1
  9
$DIMALTU
 70
     4
  9
$DIMALTTD
 70
     5
  9
$DIMTXSTY
  7
Beschlag
  9
$DIMAUNIT
 70
     0
  9
$DIMADEC
 70
     1
  9
$DIMALTRND
 40
0.0
  9
$DIMAZIN
 70
     2
  9
$DIMDSEP
 70
    46
  9
$DIMATFIT
 70
     3
  9
$DIMFRAC
 70
     0
  9
$DIMLDRBLK
  1
Oblique
  9
$DIMLUNIT
 70
     2
  9
$DIMLWD
 70
    -2
  9
$DIMLWE
 70
    -2
  9
$DIMTMOVE
 70
     0
  9
$LUNITS
 70
     2
  9
$LUPREC
 70
     4
  9
$SKETCHINC
 40
1.0
  9
$FILLETRAD
 40
2.5
  9
$AUNITS
 70
     0
  9
$AUPREC
 70
     0
  9
$MENU
  1
.
  9
$ELEVATION
 40
0.0
  9
$PELEVATION
 40
0.0
  9
$THICKNESS
 40
0.0
  9
$LIMCHECK
 70
     0
  9
$CHAMFERA
 40
2.5
  9
$CHAMFERB
 40
2.5
  9
$CHAMFERC
 40
0.0
  9
$CHAMFERD
 40
0.0
  9
$SKPOLY
 70
     0
  9
$TDCREATE
 40
2447893.000000000
  9
$TDUCREATE
 40
2447892.958333333
  9
$TDUPDATE
 40
2455260.322768288
  9
$TDUUPDATE
 40
2455260.281101620
  9
$TDINDWG
 40
0.0001785648
  9
$TDUSRTIMER
 40
0.0001785648
  9
$USRTIMER
 70
     1
  9
$ANGBASE
 50
0.0
  9
$ANGDIR
 70
     0
  9
$PDMODE
 70
     0
  9
$PDSIZE
 40
0.0
  9
$PLINEWID
 40
0.0
  9
$SPLFRAME
 70
     0
  9
$SPLINETYPE
 70
     6
  9
$SPLINESEGS
 70
     8
  9
$HANDSEED
  5
263
  9
$SURFTAB1
 70
     6
  9
$SURFTAB2
 70
     6
  9
$SURFTYPE
 70
     6
  9
$SURFU
 70
     6
  9
$SURFV
 70
     6
  9
$UCSBASE
  2

  9
$UCSNAME
  2

  9
$UCSORG
 10
0.0
 20
0.0
 30
0.0
  9
$UCSXDIR
 10
1.0
 20
0.0
 30
0.0
  9
$UCSYDIR
 10
0.0
 20
1.0
 30
0.0
  9
$UCSORTHOREF
  2

  9
$UCSORTHOVIEW
 70
     0
  9
$UCSORGTOP
 10
0.0
 20
0.0
 30
0.0
  9
$UCSORGBOTTOM
 10
0.0
 20
0.0
 30
0.0
  9
$UCSORGLEFT
 10
0.0
 20
0.0
 30
0.0
  9
$UCSORGRIGHT
 10
0.0
 20
0.0
 30
0.0
  9
$UCSORGFRONT
 10
0.0
 20
0.0
 30
0.0
  9
$UCSORGBACK
 10
0.0
 20
0.0
 30
0.0
  9
$PUCSBASE
  2

  9
$PUCSNAME
  2

  9
$PUCSORG
 10
0.0
 20
0.0
 30
0.0
  9
$PUCSXDIR
 10
1.0
 20
0.0
 30
0.0
  9
$PUCSYDIR
 10
0.0
 20
1.0
 30
0.0
  9
$PUCSORTHOREF
  2

  9
$PUCSORTHOVIEW
 70
     0
  9
$PUCSORGTOP
 10
0.0
 20
0.0
 30
0.0
  9
$PUCSORGBOTTOM
 10
0.0
 20
0.0
 30
0.0
  9
$PUCSORGLEFT
 10
0.0
 20
0.0
 30
0.0
  9
$PUCSORGRIGHT
 10
0.0
 20
0.0
 30
0.0
  9
$PUCSORGFRONT
 10
0.0
 20
0.0
 30
0.0
  9
$PUCSORGBACK
 10
0.0
 20
0.0
 30
0.0
  9
$USERI1
 70
     0
  9
$USERI2
 70
     0
  9
$USERI3
 70
     0
  9
$USERI4
 70
     0
  9
$USERI5
 70
     0
  9
$USERR1
 40
0.0
  9
$USERR2
 40
0.0
  9
$USERR3
 40
0.0
  9
$USERR4
 40
0.0
  9
$USERR5
 40
0.0
  9
$WORLDVIEW
 70
     1
  9
$SHADEDGE
 70
     3
  9
$SHADEDIF
 70
    70
  9
$TILEMODE
 70
     1
  9
$MAXACTVP
 70
    48
  9
$PINSBASE
 10
0.0
 20
0.0
 30
0.0
  9
$PLIMCHECK
 70
     0
  9
$PEXTMIN
 10
0.0
 20
0.0
 30
0.0
  9
$PEXTMAX
 10
195.5
 20
269.0
 30
2.0
  9
$PLIMMIN
 10
0.0
 20
0.0
  9
$PLIMMAX
 10
420.0
 20
297.0
  9
$UNITMODE
 70
     0
  9
$VISRETAIN
 70
     0
  9
$PLINEGEN
 70
     0
  9
$PSLTSCALE
 70
     1
  9
$TREEDEPTH
 70
  3020
  9
$CMLSTYLE
  2
STANDARD
  9
$CMLJUST
 70
     0
  9
$CMLSCALE
 40
20.0
  9
$PROXYGRAPHICS
 70
     1
  9
$MEASUREMENT
 70
     1
  9
$CELWEIGHT
370
    -1
  9
$ENDCAPS
280
     0
  9
$JOINSTYLE
280
     0
  9
$LWDISPLAY
290
     0
  9
$INSUNITS
 70
     0
  9
$HYPERLINKBASE
  1

  9
$STYLESHEET
  1

  9
$XEDIT
290
     1
  9
$CEPSNTYPE
380
     0
  9
$PSTYLEMODE
290
     1
  9
$FINGERPRINTGUID
  2
{5956660C-BBED-4B42-B255-FBBE2733D68A}
  9
$VERSIONGUID
  2
{EA9E4227-D6E9-43B4-BEAC-269DCD0D0290}
  9
$EXTNAMES
290
     1
  9
$PSVPSCALE
 40
0.0
  9
$OLESTARTUP
290
     0
  0
ENDSEC
  0
SECTION
  2
CLASSES
  0
CLASS
  1
IMAGE
  2
AcDbRasterImage
  3
ISM
 90
    34943
280
     0
281
     1
  0
CLASS
  1
DICTIONARYVAR
  2
AcDbDictionaryVar
  3
ObjectDBX Classes
 90
        0
280
     0
281
     0
  0
CLASS
  1
RASTERVARIABLES
  2
AcDbRasterVariables
  3
ISM
 90
    32768
280
     0
281
     0
  0
CLASS
  1
IMAGEDEF
  2
AcDbRasterImageDef
  3
ISM
 90
    32768
280
     0
281
     0
  0
CLASS
  1
IMAGEDEF_REACTOR
  2
AcDbRasterImageDefReactor
  3
ISM
 90
    32769
280
     0
281
     0
  0
CLASS
  1
IDBUFFER
  2
AcDbIdBuffer
  3
ObjectDBX Classes
 90
    32768
280
     0
281
     0
  0
CLASS
  1
SPATIAL_FILTER
  2
AcDbSpatialFilter
  3
ObjectDBX Classes
 90
    32768
280
     0
281
     0
  0
CLASS
  1
SORTENTSTABLE
  2
AcDbSortentsTable
  3
ObjectDBX Classes
 90
    32768
280
     0
281
     0
  0
CLASS
  1
LAYER_INDEX
  2
AcDbLayerIndex
  3
ObjectDBX Classes
 90
    32768
280
     0
281
     0
  0
CLASS
  1
SPATIAL_INDEX
  2
AcDbSpatialIndex
  3
ObjectDBX Classes
 90
    32768
280
     0
281
     0
  0
CLASS
  1
OBJECT_PTR
  2
CAseDLPNTableRecord
  3
ASE-LPNTableRecord
 90
    32769
280
     0
281
     0
  0
CLASS
  1
LAYOUT
  2
AcDbLayout
  3
ObjectDBX Classes
 90
        0
280
     0
281
     0
  0
CLASS
  1
PLOTSETTINGS
  2
AcDbPlotSettings
  3
ObjectDBX Classes
 90
    32768
280
     0
281
     0
  0
CLASS
  1
ACDBDICTIONARYWDFLT
  2
AcDbDictionaryWithDefault
  3
ObjectDBX Classes
 90
        0
280
     0
281
     0
  0
CLASS
  1
ACDBPLACEHOLDER
  2
AcDbPlaceHolder
  3
ObjectDBX Classes
 90
        0
280
     0
281
     0
  0
CLASS
  1
VBA_PROJECT
  2
AcDbVbaProject
  3
acad
 90
    32768
280
     0
281
     0
  0
CLASS
  1
WIPEOUT
  2
AcDbWipeout
  3
"WipeOut|Product Desc: Object Enabler for WipeOut entity                        |Company: Autodesk, Inc.                        |WEB Address: www.autodesk.com"
 90
    34943
280
     0
281
     1
  0
CLASS
  1
WIPEOUTVARIABLES
  2
AcDbWipeoutVariables
  3
"WipeOut|Product Desc:     WipeOut Dbx Application|Company:          Autodesk, Inc.|WEB Address:      www.autodesk.com"
 90
    32768
280
     0
281
     0
  0
CLASS
  1
RTEXT
  2
RText
  3
RText|AutoCAD Express Tool|expresstools@autodesk.com
 90
    32768
280
     0
281
     1
  0
CLASS
  1
ARCALIGNEDTEXT
  2
AcDbArcAlignedText
  3
ATEXT|AutoCAD Express Tool|expresstools@autodesk.com
 90
    32768
280
     0
281
     1
  0
CLASS
  1
MATERIAL
  2
AcDbMaterial
  3
ObjectDBX Classes
 90
     1024
280
     0
281
     0
  0
CLASS
  1
VISUALSTYLE
  2
AcDbVisualStyle
  3
ObjectDBX Classes
 90
     4095
280
     0
281
     0
  0
CLASS
  1
TABLESTYLE
  2
AcDbTableStyle
  3
ObjectDBX Classes
 90
     4095
280
     0
281
     0
  0
ENDSEC
  0
SECTION
  2
TABLES
  0
TABLE
  2
VPORT
  5
7
330
0
100
AcDbSymbolTable
 70
     1
  0
VPORT
  5
15
330
7
100
AcDbSymbolTableRecord
100
AcDbViewportTableRecord
  2
*ACTIVE
 70
     0
 10
0.0
 20
0.0
 11
1.0
 21
1.0
 12
86.78308809695057
 22
133.7261359705554
 13
0.0
 23
0.0
 14
1.0
 24
1.0
 15
0.0
 25
0.0
 16
0.0
 26
0.0
 36
1.0
 17
0.0
 27
0.0
 37
0.0
 40
222.6282064727975
 41
1.591240875912408
 42
50.0
 43
0.0
 44
0.0
 50
0.0
 51
0.0
 71
     0
 72
   100
 73
     1
 74
     1
 75
     0
 76
     0
 77
     0
 78
     0
281
     0
 65
     1
110
0.0
120
0.0
130
0.0
111
1.0
121
0.0
131
0.0
112
0.0
122
1.0
132
0.0
 79
     0
146
0.0
  0
ENDTAB
  0
TABLE
  2
LTYPE
  5
4
330
0
100
AcDbSymbolTable
 70
     8
  0
LTYPE
  5
11
330
4
100
AcDbSymbolTableRecord
100
AcDbLinetypeTableRecord
  2
BYBLOCK
 70
     0
  3

 72
    65
 73
     0
 40
0.0
  0
LTYPE
  5
12
330
4
100
AcDbSymbolTableRecord
100
AcDbLinetypeTableRecord
  2
BYLAYER
 70
     0
  3

 72
    65
 73
     0
 40
0.0
  0
LTYPE
  5
13
330
4
100
AcDbSymbolTableRecord
100
AcDbLinetypeTableRecord
  2
CONTINUOUS
 70
     0
  3
Solid line
 72
    65
 73
     0
 40
0.0
  0
LTYPE
  5
1D
330
4
100
AcDbSymbolTableRecord
100
AcDbLinetypeTableRecord
  2
DASHED
 70
     0
  3
__ __ __ __ __ __ __ __ __ __ __ __ __ __ __ __
 72
    65
 73
     2
 40
15.0
 49
12.0
 74
     0
 49
-3.0
 74
     0
  0
LTYPE
  5
1E
330
4
100
AcDbSymbolTableRecord
100
AcDbLinetypeTableRecord
  2
DASHDOT
 70
     0
  3
 __ . __ . __ . __ . __ . __ . __ . 
 72
    65
 73
     4
 40
18.5
 49
12.0
 74
     0
 49
-3.0
 74
     0
 49
0.5
 74
     0
 49
-3.0
 74
     0
  0
LTYPE
  5
1F
330
4
100
AcDbSymbolTableRecord
100
AcDbLinetypeTableRecord
  2
DOT
 70
     0
  3
 . . . . . . . . . . . . . . . .
 72
    65
 73
     2
 40
3.5
 49
0.5
 74
     0
 49
-3.0
 74
     0
  0
LTYPE
  5
20
330
4
100
AcDbSymbolTableRecord
100
AcDbLinetypeTableRecord
  2
DASHSPACE
 70
     0
  3
__    __    __    __    __   
 72
    65
 73
     2
 40
30.0
 49
12.0
 74
     0
 49
-18.0
 74
     0
  0
LTYPE
  5
21
330
4
100
AcDbSymbolTableRecord
100
AcDbLinetypeTableRecord
  2
DASHDOT2
 70
     0
  3
__ . . __ . . __ . . __ 
 72
    65
 73
     6
 40
22.0
 49
12.0
 74
     0
 49
-3.0
 74
     0
 49
0.5
 74
     0
 49
-3.0
 74
     0
 49
0.5
 74
     0
 49
-3.0
 74
     0
  0
LTYPE
  5
22
330
4
100
AcDbSymbolTableRecord
100
AcDbLinetypeTableRecord
  2
PHANTOM
 70
     0
  3
____________    ____    ____   _
 72
    65
 73
     6
 40
20.0
 49
10.0
 74
     0
 49
-2.0
 74
     0
 49
2.0
 74
     0
 49
-2.0
 74
     0
 49
2.0
 74
     0
 49
-2.0
 74
     0
  0
LTYPE
  5
23
330
4
100
AcDbSymbolTableRecord
100
AcDbLinetypeTableRecord
  2
AXES
 70
     0
  3
________  __  ________  __  _____
 72
    65
 73
     4
 40
24.0
 49
15.0
 74
     0
 49
-3.0
 74
     0
 49
3.0
 74
     0
 49
-3.0
 74
     0
  0
ENDTAB
  0
TABLE
  2
LAYER
  5
2
330
0
100
AcDbSymbolTable
 70
     6
  0
LAYER
  5
133
330
2
100
AcDbSymbolTableRecord
100
AcDbLayerTableRecord
  2
0
 70
     0
 62
     7
  6
CONTINUOUS
370
    -3
390
135
  0
LAYER
  5
131
330
2
100
AcDbSymbolTableRecord
100
AcDbLayerTableRecord
  2
Hawa5
 70
     0
 62
     1
  6
CONTINUOUS
370
    -3
390
135
  0
LAYER
  5
14
330
2
100
AcDbSymbolTableRecord
100
AcDbLayerTableRecord
  2
HAWA1
 70
     0
 62
     2
  6
CONTINUOUS
370
     0
390
135
  0
LAYER
  5
15A
330
2
100
AcDbSymbolTableRecord
100
AcDbLayerTableRecord
  2
Defpoints
 70
     0
 62
     7
  6
CONTINUOUS
290
     0
370
    -3
390
135
  0
LAYER
  5
15B
330
2
100
AcDbSymbolTableRecord
100
AcDbLayerTableRecord
  2
Hawa6
 70
     0
 62
     3
  6
CONTINUOUS
370
    35
390
135
  0
LAYER
  5
15C
330
2
100
AcDbSymbolTableRecord
100
AcDbLayerTableRecord
  2
1
 70
     0
 62
     7
  6
CONTINUOUS
370
    -3
390
135
  0
ENDTAB
  0
TABLE
  2
STYLE
  5
3
330
0
100
AcDbSymbolTable
 70
     3
  0
STYLE
  5
17
330
3
100
AcDbSymbolTableRecord
100
AcDbTextStyleTableRecord
  2
STANDARD
 70
     0
 40
0.0
 41
1.0
 50
0.0
 71
     0
 42
2.5
  3
isocp.shx
  4

  0
STYLE
  5
24
330
3
100
AcDbSymbolTableRecord
100
AcDbTextStyleTableRecord
  2
GDT
 70
     0
 40
0.0
 41
1.0
 50
0.0
 71
     0
 42
2.5
  3
amgdt.shx
  4

  0
STYLE
  5
15D
330
3
100
AcDbSymbolTableRecord
100
AcDbTextStyleTableRecord
  2
Beschlag
 70
     0
 40
0.0
 41
0.9
 50
0.0
 71
     0
 42
3.5
  3
ARIAL.TTF
  4

1001
ACAD
1000
Arial
1071
       34
  0
ENDTAB
  0
TABLE
  2
VIEW
  5
5
330
0
100
AcDbSymbolTable
 70
     0
  0
ENDTAB
  0
TABLE
  2
UCS
  5
6
330
0
100
AcDbSymbolTable
 70
     0
  0
ENDTAB
  0
TABLE
  2
APPID
  5
8
330
0
100
AcDbSymbolTable
 70
     2
  0
APPID
  5
16
330
8
100
AcDbSymbolTableRecord
100
AcDbRegAppTableRecord
  2
ACAD
 70
     0
  0
APPID
  5
15F
330
8
100
AcDbSymbolTableRecord
100
AcDbRegAppTableRecord
  2
ACAD_PSEXT
 70
     0
  0
ENDTAB
  0
TABLE
  2
DIMSTYLE
  5
9
330
0
100
AcDbSymbolTable
 70
     2
100
AcDbDimStyleTable
 71
     1
340
15E
  0
DIMSTYLE
105
18
330
9
100
AcDbSymbolTableRecord
100
AcDbDimStyleTableRecord
  2
STANDARD
 70
     0
 41
2.5
 42
0.625
 43
3.75
 44
1.25
 73
     0
 74
     0
 77
     1
 78
     8
140
2.5
141
2.5
143
0.03937
147
0.625
171
     3
172
     1
271
     2
272
     2
274
     3
283
     0
284
     8
289
     0
340
17
  0
DIMSTYLE
105
15E
102
{ACAD_REACTORS
330
3E
330
3C
330
3A
330
38
330
36
330
34
330
32
330
30
330
2E
330
2C
330
2A
330
28
330
26
102
}
330
9
100
AcDbSymbolTableRecord
100
AcDbDimStyleTableRecord
  2
HAWA-Strich
 70
     0
 41
2.0
 42
2.0
 43
0.0
 44
1.0
 46
1.0
 73
     0
 74
     0
 77
     1
 78
     8
 79
     2
140
3.5
141
0.0
143
0.039370078740157
146
0.7114285714285719
147
1.0
170
     1
171
     5
172
     1
173
     1
176
   256
177
   256
178
   256
179
     1
271
     1
272
     1
273
     4
274
     5
284
     8
285
     8
286
     8
340
15D
341
156
343
156
344
156
  0
ENDTAB
  0
TABLE
  2
BLOCK_RECORD
  5
1
330
0
100
AcDbSymbolTable
 70
    15
  0
BLOCK_RECORD
  5
A
330
1
100
AcDbSymbolTableRecord
100
AcDbBlockTableRecord
  2
*MODEL_SPACE
340
12D
  0
BLOCK_RECORD
  5
B
330
1
100
AcDbSymbolTableRecord
100
AcDbBlockTableRecord
  2
*PAPER_SPACE
340
12E
  0
BLOCK_RECORD
  5
25
330
1
100
AcDbSymbolTableRecord
100
AcDbBlockTableRecord
  2
*D0
340
0
  0
BLOCK_RECORD
  5
27
330
1
100
AcDbSymbolTableRecord
100
AcDbBlockTableRecord
  2
*D1
340
0
  0
BLOCK_RECORD
  5
29
330
1
100
AcDbSymbolTableRecord
100
AcDbBlockTableRecord
  2
*D2
340
0
  0
BLOCK_RECORD
  5
2B
330
1
100
AcDbSymbolTableRecord
100
AcDbBlockTableRecord
  2
*D3
340
0
  0
BLOCK_RECORD
  5
2D
330
1
100
AcDbSymbolTableRecord
100
AcDbBlockTableRecord
  2
*D4
340
0
  0
BLOCK_RECORD
  5
2F
330
1
100
AcDbSymbolTableRecord
100
AcDbBlockTableRecord
  2
*D5
340
0
  0
BLOCK_RECORD
  5
31
330
1
100
AcDbSymbolTableRecord
100
AcDbBlockTableRecord
  2
*D6
340
0
  0
BLOCK_RECORD
  5
33
330
1
100
AcDbSymbolTableRecord
100
AcDbBlockTableRecord
  2
*D7
340
0
  0
BLOCK_RECORD
  5
35
330
1
100
AcDbSymbolTableRecord
100
AcDbBlockTableRecord
  2
*D8
340
0
  0
BLOCK_RECORD
  5
37
330
1
100
AcDbSymbolTableRecord
100
AcDbBlockTableRecord
  2
*D9
340
0
  0
BLOCK_RECORD
  5
39
330
1
100
AcDbSymbolTableRecord
100
AcDbBlockTableRecord
  2
*D10
340
0
  0
BLOCK_RECORD
  5
3B
330
1
100
AcDbSymbolTableRecord
100
AcDbBlockTableRecord
  2
*D11
340
0
  0
BLOCK_RECORD
  5
3D
330
1
100
AcDbSymbolTableRecord
100
AcDbBlockTableRecord
  2
*D12
340
0
  0
BLOCK_RECORD
  5
156
330
1
100
AcDbSymbolTableRecord
100
AcDbBlockTableRecord
  2
_Oblique
340
0
102
{BLKREFS
331
1E2
331
1E3
331
1EB
331
1EC
331
1F4
331
1FA
331
1FB
331
204
331
205
331
20D
331
20E
331
216
331
217
331
21D
331
21E
331
224
331
225
331
22D
331
22E
331
236
331
237
331
240
331
241
331
249
331
24A
102
}
  0
BLOCK_RECORD
  5
16B
330
1
100
AcDbSymbolTableRecord
100
AcDbBlockTableRecord
  2
HAWA
340
0
102
{BLKREFS
331
16E
102
}
  0
ENDTAB
  0
ENDSEC
  0
SECTION
  2
BLOCKS
  0
BLOCK
  5
D
330
A
100
AcDbEntity
  8
HAWA1
100
AcDbBlockBegin
  2
*MODEL_SPACE
 70
     0
 10
0.0
 20
0.0
 30
0.0
  3
*MODEL_SPACE
  1

  0
ENDBLK
  5
E
330
A
100
AcDbEntity
  8
HAWA1
100
AcDbBlockEnd
  0
BLOCK
  5
F
330
B
100
AcDbEntity
 67
     1
  8
HAWA1
100
AcDbBlockBegin
  2
*PAPER_SPACE
 70
     0
 10
0.0
 20
0.0
 30
0.0
  3
*PAPER_SPACE
  1

  0
ENDBLK
  5
10
330
B
100
AcDbEntity
 67
     1
  8
HAWA1
100
AcDbBlockEnd
  0
BLOCK
  5
85
330
25
100
AcDbEntity
  8
HAWA1
100
AcDbBlockBegin
  2
*D0
 70
     1
 10
0.0
 20
0.0
 30
0.0
  3
*D0
  1

  0
LINE
  5
246
330
25
100
AcDbEntity
  8
HAWA1
370
    -2
100
AcDbLine
 10
150.3968293008821
 20
221.3928379997228
 30
0.0
 11
150.397086428303
 21
236.8355172596773
 31
0.0
  0
LINE
  5
247
330
25
100
AcDbEntity
  8
HAWA1
370
    -2
100
AcDbLine
 10
99.39683030088211
 20
221.3928719997228
 30
0.0
 11
99.39708744187601
 21
236.8363664321547
 31
0.0
  0
LINE
  5
248
330
25
100
AcDbEntity
  8
HAWA1
370
    -2
100
AcDbLine
 10
151.3970697777233
 20
235.8355006093748
 30
0.0
 11
98.39707079157356
 21
235.8363830827344
 31
0.0
  0
INSERT
  5
249
330
25
100
AcDbEntity
  8
HAWA1
370
    -2
100
AcDbBlockReference
  2
_Oblique
 10
150.397069777862
 20
235.8355172598159
 30
0.0
 41
2.0
 42
2.0
 43
2.0
 50
359.999046
  0
INSERT
  5
24A
330
25
100
AcDbEntity
  8
HAWA1
370
    -2
100
AcDbBlockReference
  2
_Oblique
 10
99.39707079143495
 20
235.8363664322933
 30
0.0
 41
2.0
 42
2.0
 43
2.0
 50
179.999046
  0
MTEXT
  5
24B
330
25
100
AcDbEntity
  8
HAWA1
100
AcDbMText
 10
124.8971242821651
 20
239.0789500311439
 30
0.0
 40
3.5
 41
0.0
 71
     5
 72
     1
  1
\A1;51 [2"]
  7
Beschlag
 11
0.9999999998613814
 21
-0.0000166504410634
 31
0.0
 73
     1
 44
1.0
1001
ACAD
1000
MTEXTBEGIN
1070
    73
1070
     1
1070
    44
1040
1.0
1070
    74
1070
     0
1000
MTEXTEND
  0
POINT
  5
24C
330
25
100
AcDbEntity
  8
Defpoints
 62
     0
100
AcDbPoint
 10
150.396796
 20
219.392838
 30
0.0
  0
POINT
  5
24D
330
25
100
AcDbEntity
  8
Defpoints
 62
     0
100
AcDbPoint
 10
99.39679699999999
 20
219.3928720000001
 30
0.0
  0
POINT
  5
24E
330
25
100
AcDbEntity
  8
Defpoints
 62
     0
100
AcDbPoint
 10
99.39707079143495
 20
235.8363664322933
 30
0.0
  0
ENDBLK
  5
8F
330
25
100
AcDbEntity
  8
HAWA1
100
AcDbBlockEnd
  0
BLOCK
  5
90
330
27
100
AcDbEntity
  8
HAWA1
100
AcDbBlockBegin
  2
*D1
 70
     1
 10
0.0
 20
0.0
 30
0.0
  3
*D1
  1

  0
LINE
  5
23C
330
27
100
AcDbEntity
  8
HAWA1
370
    -2
100
AcDbLine
 10
7.396827300882127
 20
222.8359959997228
 30
0.0
 11
7.39706040406198
 21
236.8358161205756
 31
0.0
  0
LINE
  5
23D
330
27
100
AcDbEntity
  8
HAWA1
370
    -2
100
AcDbLine
 10
-5.103175699117873
 20
222.8360149997228
 30
0.0
 11
-5.102942592788912
 21
236.8360242511388
 31
0.0
  0
LINE
  5
23E
330
27
100
AcDbEntity
  8
HAWA1
370
    -2
100
AcDbLine
 10
8.397043753482297
 20
235.8357994702731
 30
0.0
 11
-5.102959243229975
 21
235.8360242512774
 31
0.0
  0
LINE
  5
23F
330
27
100
AcDbEntity
  8
HAWA1
370
    -2
100
AcDbLine
 10
-5.102959243229975
 20
235.8360242512774
 30
0.0
 11
-23.76682721004936
 21
235.8363350129111
 31
0.0
  0
INSERT
  5
240
330
27
100
AcDbEntity
  8
HAWA1
370
    -2
100
AcDbBlockReference
  2
_Oblique
 10
7.397043753620917
 20
235.8358161207142
 30
0.0
 41
2.0
 42
2.0
 43
2.0
 50
359.999046
  0
INSERT
  5
241
330
27
100
AcDbEntity
  8
HAWA1
370
    -2
100
AcDbBlockReference
  2
_Oblique
 10
-5.102959243229975
 20
235.8360242512774
 30
0.0
 41
2.0
 42
2.0
 43
2.0
 50
179.999046
  0
MTEXT
  5
242
330
27
100
AcDbEntity
  8
HAWA1
100
AcDbMText
 10
-15.43481994726737
 20
240.2372348729894
 30
0.0
 40
3.5
 41
0.0
 71
     5
 72
     1
  1
\A1;12.5 [{\H0.711429x;\S1/2;}"]
  7
Beschlag
 11
0.9999999998613814
 21
-0.0000166504410634
 31
0.0
 73
     1
 44
1.0
1001
ACAD
1000
MTEXTBEGIN
1070
    73
1070
     1
1070
    44
1040
1.0
1070
    74
1070
     0
1000
MTEXTEND
  0
POINT
  5
243
330
27
100
AcDbEntity
  8
Defpoints
 62
     0
100
AcDbPoint
 10
7.396794
 20
220.835996
 30
0.0
  0
POINT
  5
244
330
27
100
AcDbEntity
  8
Defpoints
 62
     0
100
AcDbPoint
 10
-5.103209
 20
220.836015
 30
0.0
  0
POINT
  5
245
330
27
100
AcDbEntity
  8
Defpoints
 62
     0
100
AcDbPoint
 10
-5.102959243229975
 20
235.8360242512774
 30
0.0
  0
ENDBLK
  5
9C
330
27
100
AcDbEntity
  8
HAWA1
100
AcDbBlockEnd
  0
BLOCK
  5
9D
330
29
100
AcDbEntity
  8
HAWA1
100
AcDbBlockBegin
  2
*D2
 70
     1
 10
0.0
 20
0.0
 30
0.0
  3
*D2
  1

  0
LINE
  5
233
330
29
100
AcDbEntity
  8
HAWA1
370
    -2
100
AcDbLine
 10
92.89666269911789
 20
50.83592500027725
 30
0.0
 11
92.89622978375854
 21
24.8356912754131
 31
0.0
  0
LINE
  5
234
330
29
100
AcDbEntity
  8
HAWA1
370
    -2
100
AcDbLine
 10
59.89666969911788
 20
38.83596500027723
 30
0.0
 11
59.8964365975341
 21
24.83624073652473
 31
0.0
  0
LINE
  5
235
330
29
100
AcDbEntity
  8
HAWA1
370
    -2
100
AcDbLine
 10
93.89624643406099
 20
25.83567462483343
 30
0.0
 11
58.89645324811378
 21
25.83625738682718
 31
0.0
  0
INSERT
  5
236
330
29
100
AcDbEntity
  8
HAWA1
370
    -2
100
AcDbBlockReference
  2
_Oblique
 10
92.8962464341996
 20
25.83569127527449
 30
0.0
 41
2.0
 42
2.0
 43
2.0
 50
359.999046
  0
INSERT
  5
237
330
29
100
AcDbEntity
  8
HAWA1
370
    -2
100
AcDbBlockReference
  2
_Oblique
 10
59.89645324797516
 20
25.83624073638612
 30
0.0
 41
2.0
 42
2.0
 43
2.0
 50
179.999046
  0
MTEXT
  5
238
330
29
100
AcDbEntity
  8
HAWA1
100
AcDbMText
 10
76.39642345969043
 20
30.2573866003743
 30
0.0
 40
3.5
 41
0.0
 71
     5
 72
     1
  1
\A1;33 [1{\H0.711429x;\S5/16;}"]
  7
Beschlag
 11
0.9999999998613814
 21
-0.0000166504410634
 31
0.0
 73
     1
 44
1.0
1001
ACAD
1000
MTEXTBEGIN
1070
    73
1070
     1
1070
    44
1040
1.0
1070
    74
1070
     0
1000
MTEXTEND
  0
POINT
  5
239
330
29
100
AcDbEntity
  8
Defpoints
 62
     0
100
AcDbPoint
 10
92.89669600000001
 20
52.83592500000001
 30
0.0
  0
POINT
  5
23A
330
29
100
AcDbEntity
  8
Defpoints
 62
     0
100
AcDbPoint
 10
59.89670300000001
 20
40.835965
 30
0.0
  0
POINT
  5
23B
330
29
100
AcDbEntity
  8
Defpoints
 62
     0
100
AcDbPoint
 10
59.89645324797516
 20
25.83624073638612
 30
0.0
  0
ENDBLK
  5
AA
330
29
100
AcDbEntity
  8
HAWA1
100
AcDbBlockEnd
  0
BLOCK
  5
AB
330
2B
100
AcDbEntity
  8
HAWA1
100
AcDbBlockBegin
  2
*D3
 70
     1
 10
0.0
 20
0.0
 30
0.0
  3
*D3
  1

  0
LINE
  5
22A
330
2B
100
AcDbEntity
  8
HAWA1
370
    -2
100
AcDbLine
 10
156.8966726991179
 20
50.83592500027724
 30
0.0
 11
156.8962397794614
 21
24.83543319342681
 31
0.0
  0
LINE
  5
22B
330
2B
100
AcDbEntity
  8
HAWA1
370
    -2
100
AcDbLine
 10
92.89672930088213
 20
25.12095899972277
 30
0.0
 11
92.89675786537669
 21
26.83649881330588
 31
0.0
  0
LINE
  5
22C
330
2B
100
AcDbEntity
  8
HAWA1
370
    -2
100
AcDbLine
 10
157.8962564297638
 20
25.83541654284712
 30
0.0
 11
91.89674121507422
 21
25.83651546388557
 31
0.0
  0
INSERT
  5
22D
330
2B
100
AcDbEntity
  8
HAWA1
370
    -2
100
AcDbBlockReference
  2
_Oblique
 10
156.8962564299024
 20
25.83543319328819
 30
0.0
 41
2.0
 42
2.0
 43
2.0
 50
359.999046
  0
INSERT
  5
22E
330
2B
100
AcDbEntity
  8
HAWA1
370
    -2
100
AcDbBlockReference
  2
_Oblique
 10
92.89674121493561
 20
25.83649881344451
 30
0.0
 41
2.0
 42
2.0
 43
2.0
 50
179.999046
  0
MTEXT
  5
22F
330
2B
100
AcDbEntity
  8
HAWA1
100
AcDbMText
 10
124.8965724693028
 20
30.25908509825117
 30
0.0
 40
3.5
 41
0.0
 71
     5
 72
     1
  1
\A1;64 [2{\H0.711429x;\S17/32;}"]
  7
Beschlag
 11
0.9999999998613814
 21
-0.0000166504410634
 31
0.0
 73
     1
 44
1.0
1001
ACAD
1000
MTEXTBEGIN
1070
    73
1070
     1
1070
    44
1040
1.0
1070
    74
1070
     0
1000
MTEXTEND
  0
POINT
  5
230
330
2B
100
AcDbEntity
  8
Defpoints
 62
     0
100
AcDbPoint
 10
156.896706
 20
52.83592500000001
 30
0.0
  0
POINT
  5
231
330
2B
100
AcDbEntity
  8
Defpoints
 62
     0
100
AcDbPoint
 10
92.89669599999999
 20
23.120959
 30
0.0
  0
POINT
  5
232
330
2B
100
AcDbEntity
  8
Defpoints
 62
     0
100
AcDbPoint
 10
92.89674121493561
 20
25.83649881344451
 30
0.0
  0
ENDBLK
  5
B8
330
2B
100
AcDbEntity
  8
HAWA1
100
AcDbBlockEnd
  0
BLOCK
  5
B9
330
2D
100
AcDbEntity
  8
HAWA1
100
AcDbBlockBegin
  2
*D4
 70
     1
 10
0.0
 20
0.0
 30
0.0
  3
*D4
  1

  0
LINE
  5
221
330
2D
100
AcDbEntity
  8
HAWA1
370
    -2
100
AcDbLine
 10
124.8967326991178
 20
150.0135510002772
 30
0.0
 11
124.8967260144264
 21
149.6120786690164
 31
0.0
  0
LINE
  5
222
330
2D
100
AcDbEntity
  8
HAWA1
370
    -2
100
AcDbLine
 10
59.89672469911788
 20
150.0136040002773
 30
0.0
 11
59.89671803156443
 21
149.6131609478186
 31
0.0
  0
LINE
  5
223
330
2D
100
AcDbEntity
  8
HAWA1
370
    -2
100
AcDbLine
 10
125.8967426647289
 20
150.6120620184367
 30
0.0
 11
58.89673468214411
 21
150.6131775981211
 31
0.0
  0
INSERT
  5
224
330
2D
100
AcDbEntity
  8
HAWA1
370
    -2
100
AcDbBlockReference
  2
_Oblique
 10
124.8967426648675
 20
150.6120786688778
 30
0.0
 41
2.0
 42
2.0
 43
2.0
 50
359.999046
  0
INSERT
  5
225
330
2D
100
AcDbEntity
  8
HAWA1
370
    -2
100
AcDbBlockReference
  2
_Oblique
 10
59.8967346820055
 20
150.61316094768
 30
0.0
 41
2.0
 42
2.0
 43
2.0
 50
179.999046
  0
MTEXT
  5
226
330
2D
100
AcDbEntity
  8
HAWA1
100
AcDbMText
 10
92.39681265968968
 20
155.0561209072537
 30
0.0
 40
3.5
 41
0.0
 71
     5
 72
     1
  1
\A1;65 [2{\H0.711429x;\S9/16;}"]
  7
Beschlag
 11
0.9999999998613814
 21
-0.0000166504410634
 31
0.0
 73
     1
 44
1.0
1001
ACAD
1000
MTEXTBEGIN
1070
    73
1070
     1
1070
    44
1040
1.0
1070
    74
1070
     0
1000
MTEXTEND
  0
POINT
  5
227
330
2D
100
AcDbEntity
  8
Defpoints
 62
     0
100
AcDbPoint
 10
124.896766
 20
152.013551
 30
0.0
  0
POINT
  5
228
330
2D
100
AcDbEntity
  8
Defpoints
 62
     0
100
AcDbPoint
 10
59.896758
 20
152.013604
 30
0.0
  0
POINT
  5
229
330
2D
100
AcDbEntity
  8
Defpoints
 62
     0
100
AcDbPoint
 10
59.8967346820055
 20
150.61316094768
 30
0.0
  0
ENDBLK
  5
C6
330
2D
100
AcDbEntity
  8
HAWA1
100
AcDbBlockEnd
  0
BLOCK
  5
C7
330
2F
100
AcDbEntity
  8
HAWA1
100
AcDbBlockBegin
  2
*D5
 70
     1
 10
0.0
 20
0.0
 30
0.0
  3
*D5
  1

  0
LINE
  5
21A
330
2F
100
AcDbEntity
  8
HAWA1
370
    -2
100
AcDbLine
 10
146.7824962479721
 20
101.715853513759
 30
0.0
 11
126.620382
 21
89.85031199999999
 31
0.0
  0
MTEXT
  5
21B
330
2F
100
AcDbEntity
  8
HAWA1
100
AcDbMText
 10
136.182154430965
 20
100.6087240606324
 30
0.0
 40
3.5
 41
0.0
 71
     5
 72
     1
  1
\A1;\U+22054 [\U+2205{\H0.711429x;\S5/32;}"]
  7
Beschlag
 11
0.8618319354229349
 21
0.5071939619959593
 31
0.0
 73
     1
 44
1.0
1001
ACAD
1000
MTEXTBEGIN
1070
    73
1070
     1
1070
    44
1040
1.0
1070
    74
1070
     0
1000
MTEXTEND
  0
LINE
  5
21C
330
2F
100
AcDbEntity
  8
HAWA1
370
    -2
100
AcDbLine
 10
123.173054
 20
87.82153599999999
 30
0.0
 11
126.620382
 21
89.85031199999999
 31
0.0
  0
INSERT
  5
21D
330
2F
100
AcDbEntity
  8
HAWA1
370
    -2
100
AcDbBlockReference
  2
_Oblique
 10
123.173054
 20
87.82153599999999
 30
0.0
 41
2.0
 42
2.0
 43
2.0
 50
30.47710105377509
  0
INSERT
  5
21E
330
2F
100
AcDbEntity
  8
HAWA1
370
    -2
100
AcDbBlockReference
  2
_Oblique
 10
126.620382
 20
89.85031199999999
 30
0.0
 41
2.0
 42
2.0
 43
2.0
 50
210.4771010537751
  0
POINT
  5
21F
330
2F
100
AcDbEntity
  8
Defpoints
 62
     0
100
AcDbPoint
 10
126.620382
 20
89.85031199999999
 30
0.0
  0
POINT
  5
220
330
2F
100
AcDbEntity
  8
Defpoints
 62
     0
100
AcDbPoint
 10
123.173054
 20
87.82153599999999
 30
0.0
  0
ENDBLK
  5
D2
330
2F
100
AcDbEntity
  8
HAWA1
100
AcDbBlockEnd
  0
BLOCK
  5
D3
330
31
100
AcDbEntity
  8
HAWA1
100
AcDbBlockBegin
  2
*D6
 70
     1
 10
0.0
 20
0.0
 30
0.0
  3
*D6
  1

  0
LINE
  5
213
330
31
100
AcDbEntity
  8
HAWA1
370
    -2
100
AcDbLine
 10
112.4710905807003
 20
103.3939093485776
 30
0.0
 11
93.69913000000002
 21
89.43269800000003
 31
0.0
  0
MTEXT
  5
214
330
31
100
AcDbEntity
  8
HAWA1
100
AcDbMText
 10
102.0371517656883
 20
101.1737219766885
 30
0.0
 40
3.5
 41
0.0
 71
     5
 72
     1
  1
\A1;\U+22052 [\U+2205{\H0.711429x;\S3/32;}"]
  7
Beschlag
 11
0.8024096540656795
 21
0.5967736145827801
 31
0.0
 73
     1
 44
1.0
1001
ACAD
1000
MTEXTBEGIN
1070
    73
1070
     1
1070
    44
1040
1.0
1070
    74
1070
     0
1000
MTEXTEND
  0
LINE
  5
215
330
31
100
AcDbEntity
  8
HAWA1
370
    -2
100
AcDbLine
 10
92.09431100000001
 20
88.23915100000004
 30
0.0
 11
93.69913000000002
 21
89.43269800000003
 31
0.0
  0
INSERT
  5
216
330
31
100
AcDbEntity
  8
HAWA1
370
    -2
100
AcDbBlockReference
  2
_Oblique
 10
92.09431100000001
 20
88.23915100000004
 30
0.0
 41
2.0
 42
2.0
 43
2.0
 50
36.63917260344959
  0
INSERT
  5
217
330
31
100
AcDbEntity
  8
HAWA1
370
    -2
100
AcDbBlockReference
  2
_Oblique
 10
93.69913000000002
 20
89.43269800000003
 30
0.0
 41
2.0
 42
2.0
 43
2.0
 50
216.6391726034496
  0
POINT
  5
218
330
31
100
AcDbEntity
  8
Defpoints
 62
     0
100
AcDbPoint
 10
93.69913000000002
 20
89.43269800000003
 30
0.0
  0
POINT
  5
219
330
31
100
AcDbEntity
  8
Defpoints
 62
     0
100
AcDbPoint
 10
92.09431100000001
 20
88.23915100000004
 30
0.0
  0
ENDBLK
  5
DE
330
31
100
AcDbEntity
  8
HAWA1
100
AcDbBlockEnd
  0
BLOCK
  5
DF
330
33
100
AcDbEntity
  8
HAWA1
100
AcDbBlockBegin
  2
*D7
 70
     1
 10
0.0
 20
0.0
 30
0.0
  3
*D7
  1

  0
LINE
  5
20A
330
33
100
AcDbEntity
  8
HAWA1
370
    -2
100
AcDbLine
 10
137.3967689999306
 20
178.8358883495589
 30
0.0
 11
172.9552643249336
 21
178.8355923172435
 31
0.0
  0
LINE
  5
20B
330
33
100
AcDbEntity
  8
HAWA1
370
    -2
100
AcDbLine
 10
195.3967770000693
 20
220.835902650441
 30
0.0
 11
170.9556139884043
 21
220.8361061285132
 31
0.0
  0
LINE
  5
20C
330
33
100
AcDbEntity
  8
HAWA1
370
    -2
100
AcDbLine
 10
171.9552559997477
 20
177.8356006424987
 30
0.0
 11
171.9556223135901
 21
221.836097803258
 31
0.0
  0
INSERT
  5
20D
330
33
100
AcDbEntity
  8
HAWA1
370
    -2
100
AcDbBlockReference
  2
_Oblique
 10
171.9552643249683
 20
178.835600642464
 30
0.0
 41
2.0
 42
2.0
 43
2.0
 50
269.9995229999999
  0
INSERT
  5
20E
330
33
100
AcDbEntity
  8
HAWA1
370
    -2
100
AcDbBlockReference
  2
_Oblique
 10
171.9556139883696
 20
220.8360978032926
 30
0.0
 41
2.0
 42
2.0
 43
2.0
 50
89.999523
  0
MTEXT
  5
20F
330
33
100
AcDbEntity
  8
HAWA1
100
AcDbMText
 10
167.5323200613243
 20
199.8358860463202
 30
0.0
 40
3.5
 41
0.0
 71
     5
 72
     1
  1
\A1;42 [1{\H0.711429x;\S21/32;}"]
  7
Beschlag
 11
0.000008325220532
 21
0.9999999999653454
 31
0.0
 73
     1
 44
1.0
1001
ACAD
1000
MTEXTBEGIN
1070
    73
1070
     1
1070
    44
1040
1.0
1070
    74
1070
     0
1000
MTEXTEND
  0
POINT
  5
210
330
33
100
AcDbEntity
  8
Defpoints
 62
     0
100
AcDbPoint
 10
135.3967689999999
 20
178.8359049999999
 30
0.0
  0
POINT
  5
211
330
33
100
AcDbEntity
  8
Defpoints
 62
     0
100
AcDbPoint
 10
197.396777
 20
220.835886
 30
0.0
  0
POINT
  5
212
330
33
100
AcDbEntity
  8
Defpoints
 62
     0
100
AcDbPoint
 10
171.9556139883696
 20
220.8360978032926
 30
0.0
  0
ENDBLK
  5
EB
330
33
100
AcDbEntity
  8
HAWA1
100
AcDbBlockEnd
  0
BLOCK
  5
EC
330
35
100
AcDbEntity
  8
HAWA1
100
AcDbBlockBegin
  2
*D8
 70
     1
 10
0.0
 20
0.0
 30
0.0
  3
*D8
  1

  0
LINE
  5
200
330
35
100
AcDbEntity
  8
HAWA1
370
    -2
100
AcDbLine
 10
7.396728999999999
 20
92.83601299999999
 30
0.0
 11
7.396729
 21
104.038728
 31
0.0
  0
LINE
  5
201
330
35
100
AcDbEntity
  8
HAWA1
370
    -2
100
AcDbLine
 10
-5.103271
 20
92.83601299999999
 30
0.0
 11
-5.103270999999999
 21
104.038728
 31
0.0
  0
LINE
  5
202
330
35
100
AcDbEntity
  8
HAWA1
370
    -2
100
AcDbLine
 10
8.396729
 20
103.038728
 30
0.0
 11
-5.103270999999999
 21
103.038728
 31
0.0
  0
LINE
  5
203
330
35
100
AcDbEntity
  8
HAWA1
370
    -2
100
AcDbLine
 10
-5.103270999999999
 20
103.038728
 30
0.0
 11
-23.76713896940655
 21
103.038728
 31
0.0
  0
INSERT
  5
204
330
35
100
AcDbEntity
  8
HAWA1
370
    -2
100
AcDbBlockReference
  2
_Oblique
 10
7.396729
 20
103.038728
 30
0.0
 41
2.0
 42
2.0
 43
2.0
  0
INSERT
  5
205
330
35
100
AcDbEntity
  8
HAWA1
370
    -2
100
AcDbBlockReference
  2
_Oblique
 10
-5.103270999999999
 20
103.038728
 30
0.0
 41
2.0
 42
2.0
 43
2.0
 50
180.0
  0
MTEXT
  5
206
330
35
100
AcDbEntity
  8
HAWA1
100
AcDbMText
 10
-15.43520498470327
 20
107.4397665910641
 30
0.0
 40
3.5
 41
0.0
 71
     5
 72
     1
  1
\A1;12.5 [{\H0.711429x;\S1/2;}"]
  7
Beschlag
 73
     1
 44
1.0
1001
ACAD
1000
MTEXTBEGIN
1070
    73
1070
     1
1070
    44
1040
1.0
1070
    74
1070
     0
1000
MTEXTEND
  0
POINT
  5
207
330
35
100
AcDbEntity
  8
Defpoints
 62
     0
100
AcDbPoint
 10
7.396728999999999
 20
90.83601299999999
 30
0.0
  0
POINT
  5
208
330
35
100
AcDbEntity
  8
Defpoints
 62
     0
100
AcDbPoint
 10
-5.103271
 20
90.83601299999999
 30
0.0
  0
POINT
  5
209
330
35
100
AcDbEntity
  8
Defpoints
 62
     0
100
AcDbPoint
 10
-5.103270999999999
 20
103.038728
 30
0.0
  0
ENDBLK
  5
F8
330
35
100
AcDbEntity
  8
HAWA1
100
AcDbBlockEnd
  0
BLOCK
  5
F9
330
37
100
AcDbEntity
  8
HAWA1
100
AcDbBlockBegin
  2
*D9
 70
     1
 10
0.0
 20
0.0
 30
0.0
  3
*D9
  1

  0
LINE
  5
1F7
330
37
100
AcDbEntity
  8
HAWA1
370
    -2
100
AcDbLine
 10
59.89686360176425
 20
222.835959998891
 30
0.0
 11
59.89732983481658
 21
236.8365816751996
 31
0.0
  0
LINE
  5
1F8
330
37
100
AcDbEntity
  8
HAWA1
370
    -2
100
AcDbLine
 10
99.39686160176423
 20
222.835935998891
 30
0.0
 11
99.39732779181232
 21
236.8352662904231
 31
0.0
  0
LINE
  5
1F9
330
37
100
AcDbEntity
  8
HAWA1
370
    -2
100
AcDbLine
 10
58.89729653448894
 20
235.8366149766363
 30
0.0
 11
100.3972944903757
 21
235.8352329900955
 31
0.0
  0
INSERT
  5
1FA
330
37
100
AcDbEntity
  8
HAWA1
370
    -2
100
AcDbBlockReference
  2
_Oblique
 10
59.89729653393446
 20
235.8365816757541
 30
0.0
 41
2.0
 42
2.0
 43
2.0
 50
179.998092
  0
INSERT
  5
1FB
330
37
100
AcDbEntity
  8
HAWA1
370
    -2
100
AcDbBlockReference
  2
_Oblique
 10
99.3972944909302
 20
235.8352662909776
 30
0.0
 41
2.0
 42
2.0
 43
2.0
 50
359.998092
  0
MTEXT
  5
1FC
330
37
100
AcDbEntity
  8
HAWA1
100
AcDbMText
 10
79.64744348493866
 20
240.2794250804928
 30
0.0
 40
3.5
 41
0.0
 71
     5
 72
     1
  1
\A1;39.5 [1{\H0.711429x;\S9/16;}"]
  7
Beschlag
 11
0.9999999994455256
 21
-0.0000333008821221
 31
0.0
 73
     1
 44
1.0
1001
ACAD
1000
MTEXTBEGIN
1070
    73
1070
     1
1070
    44
1040
1.0
1070
    74
1070
     0
1000
MTEXTEND
  0
POINT
  5
1FD
330
37
100
AcDbEntity
  8
Defpoints
 62
     0
100
AcDbPoint
 10
59.896797
 20
220.83596
 30
0.0
  0
POINT
  5
1FE
330
37
100
AcDbEntity
  8
Defpoints
 62
     0
100
AcDbPoint
 10
99.39679499999998
 20
220.835936
 30
0.0
  0
POINT
  5
1FF
330
37
100
AcDbEntity
  8
Defpoints
 62
     0
100
AcDbPoint
 10
99.3972944909302
 20
235.8352662909776
 30
0.0
  0
ENDBLK
  5
106
330
37
100
AcDbEntity
  8
HAWA1
100
AcDbBlockEnd
  0
BLOCK
  5
107
330
39
100
AcDbEntity
  8
HAWA1
100
AcDbBlockBegin
  2
*D10
 70
     1
 10
0.0
 20
0.0
 30
0.0
  3
*D10
  1

  0
LINE
  5
1F1
330
39
100
AcDbEntity
  8
HAWA1
370
    -2
100
AcDbLine
 10
74.91780023109585
 20
186.3397113199089
 30
0.0
 11
99.66007800000001
 21
191.037737
 31
0.0
  0
MTEXT
  5
1F2
330
39
100
AcDbEntity
  8
HAWA1
100
AcDbMText
 10
84.49497331299054
 20
192.68196909679
 30
0.0
 40
3.5
 41
0.0
 71
     5
 72
     1
  1
\A1;R15 [R{\H0.711429x;\S19/32;}"]
  7
Beschlag
 11
0.9824463411235084
 21
0.1865454014791863
 31
0.0
 73
     1
 44
1.0
1001
ACAD
1000
MTEXTBEGIN
1070
    73
1070
     1
1070
    44
1040
1.0
1070
    74
1070
     0
1000
MTEXTEND
  0
LINE
  5
1F3
330
39
100
AcDbEntity
  8
HAWA1
370
    -2
100
AcDbLine
 10
114.396773
 20
193.835918
 30
0.0
 11
99.66007800000001
 21
191.037737
 31
0.0
  0
INSERT
  5
1F4
330
39
100
AcDbEntity
  8
HAWA1
370
    -2
100
AcDbBlockReference
  2
_Oblique
 10
99.66007800000001
 20
191.037737
 30
0.0
 41
2.0
 42
2.0
 43
2.0
 50
10.75124602098415
  0
POINT
  5
1F5
330
39
100
AcDbEntity
  8
Defpoints
 62
     0
100
AcDbPoint
 10
99.66007800000001
 20
191.037737
 30
0.0
  0
POINT
  5
1F6
330
39
100
AcDbEntity
  8
Defpoints
 62
     0
100
AcDbPoint
 10
114.396773
 20
193.835918
 30
0.0
  0
ENDBLK
  5
111
330
39
100
AcDbEntity
  8
HAWA1
100
AcDbBlockEnd
  0
BLOCK
  5
112
330
3B
100
AcDbEntity
  8
HAWA1
100
AcDbBlockBegin
  2
*D11
 70
     1
 10
0.0
 20
0.0
 30
0.0
  3
*D11
  1

  0
LINE
  5
1E8
330
3B
100
AcDbEntity
  8
HAWA1
370
    -2
100
AcDbLine
 10
195.3966960000692
 20
40.83590565044105
 30
0.0
 11
170.2544782475454
 21
40.83611496494851
 31
0.0
  0
LINE
  5
1E9
330
3B
100
AcDbEntity
  8
HAWA1
370
    -2
100
AcDbLine
 10
161.8967079999307
 20
56.83590934955893
 30
0.0
 11
172.2546114487136
 21
56.83582311772847
 31
0.0
  0
LINE
  5
1EA
330
3B
100
AcDbEntity
  8
HAWA1
370
    -2
100
AcDbLine
 10
171.2544699222903
 20
39.83610663976265
 30
0.0
 11
171.2546197739688
 21
57.83583144291434
 31
0.0
  0
INSERT
  5
1EB
330
3B
100
AcDbEntity
  8
HAWA1
370
    -2
100
AcDbBlockReference
  2
_Oblique
 10
171.2544782475108
 20
40.83610663972798
 30
0.0
 41
2.0
 42
2.0
 43
2.0
 50
269.9995229999999
  0
INSERT
  5
1EC
330
3B
100
AcDbEntity
  8
HAWA1
370
    -2
100
AcDbBlockReference
  2
_Oblique
 10
171.2546114487482
 20
56.835831442949
 30
0.0
 41
2.0
 42
2.0
 43
2.0
 50
89.999523
  0
MTEXT
  5
1ED
330
3B
100
AcDbEntity
  8
HAWA1
100
AcDbMText
 10
166.8331242531259
 20
48.83600585064002
 30
0.0
 40
3.5
 41
0.0
 71
     5
 72
     1
  1
\A1;16 [{\H0.711429x;\S5/8;}"]
  7
Beschlag
 11
0.000008325220532
 21
0.9999999999653454
 31
0.0
 73
     1
 44
1.0
1001
ACAD
1000
MTEXTBEGIN
1070
    73
1070
     1
1070
    44
1040
1.0
1070
    74
1070
     0
1000
MTEXTEND
  0
POINT
  5
1EE
330
3B
100
AcDbEntity
  8
Defpoints
 62
     0
100
AcDbPoint
 10
197.3966959999999
 20
40.83588899999999
 30
0.0
  0
POINT
  5
1EF
330
3B
100
AcDbEntity
  8
Defpoints
 62
     0
100
AcDbPoint
 10
159.896708
 20
56.83592599999999
 30
0.0
  0
POINT
  5
1F0
330
3B
100
AcDbEntity
  8
Defpoints
 62
     0
100
AcDbPoint
 10
171.2546114487482
 20
56.835831442949
 30
0.0
  0
ENDBLK
  5
11D
330
3B
100
AcDbEntity
  8
HAWA1
100
AcDbBlockEnd
  0
BLOCK
  5
11E
330
3D
100
AcDbEntity
  8
HAWA1
100
AcDbBlockBegin
  2
*D12
 70
     1
 10
0.0
 20
0.0
 30
0.0
  3
*D12
  1

  0
LINE
  5
1DF
330
3D
100
AcDbEntity
  8
HAWA1
370
    -2
100
AcDbLine
 10
161.8967169993762
 20
88.83587404867679
 30
0.0
 11
172.2549486031636
 21
88.83561534498946
 31
0.0
  0
LINE
  5
1E0
330
3D
100
AcDbEntity
  8
HAWA1
370
    -2
100
AcDbLine
 10
161.8967079993762
 20
56.8358760486768
 30
0.0
 11
172.2541493820427
 21
56.83561736472576
 31
0.0
  0
LINE
  5
1E1
330
3D
100
AcDbEntity
  8
HAWA1
370
    -2
100
AcDbLine
 10
171.2549735791371
 20
89.83564032033916
 30
0.0
 11
171.254124406693
 21
55.83564234069925
 31
0.0
  0
INSERT
  5
1E2
330
3D
100
AcDbEntity
  8
HAWA1
370
    -2
100
AcDbBlockReference
  2
_Oblique
 10
171.2549486034755
 20
88.83564032065105
 30
0.0
 41
2.0
 42
2.0
 43
2.0
 50
89.99856899999997
  0
INSERT
  5
1E3
330
3D
100
AcDbEntity
  8
HAWA1
370
    -2
100
AcDbBlockReference
  2
_Oblique
 10
171.2541493823547
 20
56.83564234038736
 30
0.0
 41
2.0
 42
2.0
 43
2.0
 50
269.998569
  0
MTEXT
  5
1E4
330
3D
100
AcDbEntity
  8
HAWA1
100
AcDbMText
 10
166.8586059042452
 20
72.83575112210623
 30
0.0
 40
3.5
 41
0.0
 71
     5
 72
     1
  1
\A1;32 [1{\H0.711429x;\S1/4;}"]
  7
Beschlag
 11
0.0000249756615941
 21
0.9999999996881081
 31
0.0
 73
     1
 44
1.0
1001
ACAD
1000
MTEXTBEGIN
1070
    73
1070
     1
1070
    44
1040
1.0
1070
    74
1070
     0
1000
MTEXTEND
  0
POINT
  5
1E5
330
3D
100
AcDbEntity
  8
Defpoints
 62
     0
100
AcDbPoint
 10
159.8967169999999
 20
88.83592399999997
 30
0.0
  0
POINT
  5
1E6
330
3D
100
AcDbEntity
  8
Defpoints
 62
     0
100
AcDbPoint
 10
159.8967079999999
 20
56.83592599999998
 30
0.0
  0
POINT
  5
1E7
330
3D
100
AcDbEntity
  8
Defpoints
 62
     0
100
AcDbPoint
 10
171.2541493823547
 20
56.83564234038736
 30
0.0
  0
ENDBLK
  5
12B
330
3D
100
AcDbEntity
  8
HAWA1
100
AcDbBlockEnd
  0
BLOCK
  5
157
330
156
100
AcDbEntity
  8
0
100
AcDbBlockBegin
  2
_Oblique
 70
     0
 10
0.0
 20
0.0
 30
0.0
  3
_Oblique
  1

  0
LINE
  5
158
330
156
100
AcDbEntity
  8
0
 62
     0
370
    -2
100
AcDbLine
 10
-0.5
 20
-0.5
 30
0.0
 11
0.5
 21
0.5
 31
0.0
  0
ENDBLK
  5
159
330
156
100
AcDbEntity
  8
0
100
AcDbBlockEnd
  0
BLOCK
  5
16C
330
16B
100
AcDbEntity
  8
0
100
AcDbBlockBegin
  2
HAWA
 70
     0
 10
0.0
 20
0.0
 30
0.0
  3
HAWA
  1

  0
ENDBLK
  5
16D
330
16B
100
AcDbEntity
  8
0
100
AcDbBlockEnd
  0
ENDSEC
  0
SECTION
  2
ENTITIES
  0
DIMENSION
  5
26
330
A
100
AcDbEntity
  8
HAWA1
 62
     0
100
AcDbDimension
  2
*D0
 10
99.39707079143495
 20
235.8363664322933
 30
0.0
 11
124.8971242821651
 21
239.0789500311439
 31
0.0
 70
    32
 71
     5
 42
50.99999899349659
 52
89.999523
  3
HAWA-Strich
100
AcDbAlignedDimension
 13
150.396796
 23
219.392838
 33
0.0
 14
99.39679699999999
 24
219.392872
 34
0.0
 50
179.999046
100
AcDbRotatedDimension
  0
DIMENSION
  5
28
330
A
100
AcDbEntity
  8
HAWA1
 62
     0
100
AcDbDimension
  2
*D1
 10
-5.102959243229975
 20
235.8360242512774
 30
0.0
 11
-15.43481994726737
 21
240.2372348729894
 31
0.0
 70
    32
 71
     5
 42
12.50000299858362
 52
89.999523
  3
HAWA-Strich
100
AcDbAlignedDimension
 13
7.396793999999999
 23
220.835996
 33
0.0
 14
-5.103208999999999
 24
220.836015
 34
0.0
 50
179.999046
100
AcDbRotatedDimension
  0
DIMENSION
  5
2A
330
A
100
AcDbEntity
  8
HAWA1
 62
     0
100
AcDbDimension
  2
*D2
 10
59.89645324797516
 20
25.83624073638612
 30
0.0
 11
76.39642345969043
 21
30.2573866003743
 31
0.0
 70
    32
 71
     5
 42
32.99979319079883
 52
89.999523
  3
HAWA-Strich
100
AcDbAlignedDimension
 13
92.89669599999999
 23
52.83592500000001
 33
0.0
 14
59.896703
 24
40.835965
 34
0.0
 50
179.999046
100
AcDbRotatedDimension
  0
DIMENSION
  5
2C
330
A
100
AcDbEntity
  8
HAWA1
 62
     0
100
AcDbDimension
  2
*D3
 10
92.89674121493561
 20
25.83649881344451
 30
0.0
 11
124.8965724693028
 21
30.25908509825117
 31
0.0
 70
    32
 71
     5
 42
63.99951522383833
 52
89.999523
  3
HAWA-Strich
100
AcDbAlignedDimension
 13
156.896706
 23
52.83592500000001
 33
0.0
 14
92.89669599999999
 24
23.120959
 34
0.0
 50
179.999046
100
AcDbRotatedDimension
  0
DIMENSION
  5
2E
330
A
100
AcDbEntity
  8
HAWA1
 62
     0
100
AcDbDimension
  2
*D4
 10
59.8967346820055
 20
150.61316094768
 30
0.0
 11
92.39681265968968
 21
155.0561209072537
 31
0.0
 70
    32
 71
     5
 42
65.00000799187225
 52
89.999523
  3
HAWA-Strich
100
AcDbAlignedDimension
 13
124.896766
 23
152.013551
 33
0.0
 14
59.896758
 24
152.013604
 34
0.0
 50
179.999046
100
AcDbRotatedDimension
  0
DIMENSION
  5
30
330
A
100
AcDbEntity
  8
HAWA1
 62
     0
100
AcDbDimension
  2
*D5
 10
123.173054
 20
87.82153599999999
 30
0.0
 11
136.182154430965
 21
100.6087240606324
 31
0.0
 70
    35
 71
     5
 42
4.000000299719999
  3
HAWA-Strich
100
AcDbDiametricDimension
 15
126.620382
 25
89.85031199999999
 35
0.0
 40
0.0
  0
DIMENSION
  5
32
330
A
100
AcDbEntity
  8
HAWA1
 62
     0
100
AcDbDimension
  2
*D6
 10
92.09431100000001
 20
88.23915100000004
 30
0.0
 11
102.0371517656883
 21
101.1737219766885
 31
0.0
 70
    35
 71
     5
 42
1.999999615992464
  3
HAWA-Strich
100
AcDbDiametricDimension
 15
93.69913000000002
 25
89.43269800000003
 35
0.0
 40
0.0
  0
DIMENSION
  5
34
330
A
100
AcDbEntity
  8
HAWA1
 62
     0
100
AcDbDimension
  2
*D7
 10
171.9556139883696
 20
220.8360978032926
 30
0.0
 11
167.5323200613243
 21
199.8358860463202
 31
0.0
 70
    32
 71
     5
 42
42.00049716228408
 52
89.999523
  3
HAWA-Strich
100
AcDbAlignedDimension
 13
135.396769
 23
178.835905
 33
0.0
 14
197.396777
 24
220.835886
 34
0.0
 50
89.999523
100
AcDbRotatedDimension
  0
DIMENSION
  5
36
330
A
100
AcDbEntity
  8
HAWA1
 62
     0
100
AcDbDimension
  2
*D8
 10
-5.103270999999999
 20
103.038728
 30
0.0
 11
-15.43520498470327
 21
107.4397665910641
 31
0.0
 70
    33
 71
     5
 42
12.5
 52
89.999523
  3
HAWA-Strich
100
AcDbAlignedDimension
 13
7.396728999999999
 23
90.83601299999999
 33
0.0
 14
-5.103271
 24
90.83601299999999
 34
0.0
  0
DIMENSION
  5
38
330
A
100
AcDbEntity
  8
HAWA1
 62
     0
100
AcDbDimension
  2
*D9
 10
99.3972944909302
 20
235.8352662909776
 30
0.0
 11
79.64744348493866
 21
240.2794250804928
 31
0.0
 70
    32
 71
     5
 42
39.49999797889747
 52
89.999523
  3
HAWA-Strich
100
AcDbAlignedDimension
 13
59.89679699999999
 23
220.83596
 33
0.0
 14
99.396795
 24
220.835936
 34
0.0
 50
359.998092
100
AcDbRotatedDimension
  0
DIMENSION
  5
3A
330
A
100
AcDbEntity
  8
HAWA1
 62
     0
100
AcDbDimension
  2
*D10
 10
114.396773
 20
193.835918
 30
0.0
 11
84.49497331299054
 21
192.68196909679
 31
0.0
 70
    36
 71
     5
 42
14.99999988105952
  3
HAWA-Strich
100
AcDbRadialDimension
 15
99.66007800000001
 25
191.037737
 35
0.0
 40
0.0
  0
DIMENSION
  5
3C
330
A
100
AcDbEntity
  8
HAWA1
 62
     0
100
AcDbDimension
  2
*D11
 10
171.2546114487482
 20
56.835831442949
 30
0.0
 11
166.8331242531259
 21
48.83600585064002
 31
0.0
 70
    32
 71
     5
 42
15.99972480377548
 52
89.999523
  3
HAWA-Strich
100
AcDbAlignedDimension
 13
197.396696
 23
40.835889
 33
0.0
 14
159.896708
 24
56.835926
 34
0.0
 50
89.999523
100
AcDbRotatedDimension
  0
DIMENSION
  5
3E
330
A
100
AcDbEntity
  8
HAWA1
 62
     0
100
AcDbDimension
  2
*D12
 10
171.2541493823547
 20
56.83564234038736
 30
0.0
 11
166.8586059042452
 21
72.83575112210623
 31
0.0
 70
    32
 71
     5
 42
31.99999799024423
 52
89.999523
  3
HAWA-Strich
100
AcDbAlignedDimension
 13
159.896717
 23
88.83592400000001
 33
0.0
 14
159.896708
 24
56.835926
 34
0.0
 50
269.998569
100
AcDbRotatedDimension
  0
LINE
  5
3F
330
A
100
AcDbEntity
  8
Hawa5
 62
     1
100
AcDbLine
 10
59.896795
 20
220.835957
 30
0.0
 11
59.896761
 21
133.335964
 31
0.0
  0
LINE
  5
40
330
A
100
AcDbEntity
  8
Hawa5
 62
     1
100
AcDbLine
 10
-5.103315
 20
40.83600999999999
 30
0.0
 11
14.896685
 21
40.835995
 31
0.0
  0
LINE
  5
41
330
A
100
AcDbEntity
  8
Hawa5
 62
     1
100
AcDbLine
 10
-5.103208999999999
 20
220.836018
 30
0.0
 11
14.896799
 21
220.836002
 31
0.0
  0
LINE
  5
42
330
A
100
AcDbEntity
  8
Hawa5
 62
     1
100
AcDbLine
 10
14.896791
 20
220.836002
 30
0.0
 11
14.896753
 21
133.335999
 31
0.0
  0
LINE
  5
43
330
A
100
AcDbEntity
  8
Hawa5
 62
     1
100
AcDbLine
 10
-5.103208999999999
 20
220.836018
 30
0.0
 11
-5.103247
 21
133.3360139999999
 31
0.0
  0
LINE
  5
44
330
A
100
AcDbEntity
  8
Hawa5
 62
     1
100
AcDbLine
 10
7.396799
 20
220.836002
 30
0.0
 11
7.396760999999999
 21
178.836002
 31
0.0
  0
LINE
  5
45
330
A
100
AcDbEntity
  8
Hawa5
 62
     1
100
AcDbLine
 10
59.896696
 20
40.835964
 30
0.0
 11
197.396692
 21
40.835888
 31
0.0
  0
LINE
  5
46
330
A
100
AcDbEntity
  8
Hawa5
 62
     1
100
AcDbLine
 10
59.896795
 20
220.835957
 30
0.0
 11
197.396776
 21
220.83588
 31
0.0
  0
LINE
  5
47
330
A
100
AcDbEntity
  8
Hawa5
 62
     1
100
AcDbLine
 10
7.396722999999999
 20
82.836002
 30
0.0
 11
7.396685
 21
40.835999
 31
0.0
  0
LINE
  5
48
330
A
100
AcDbEntity
  8
Hawa5
  6
DASHDOT
 62
     1
100
AcDbLine
 10
124.896747
 20
128.335918
 30
0.0
 11
124.8967
 21
40.11526899999999
 31
0.0
  0
LINE
  5
49
330
A
100
AcDbEntity
  8
Hawa5
 62
     1
100
AcDbLine
 10
150.3967
 20
67.83592
 30
0.0
 11
150.3967
 21
40.835926
 31
0.0
  0
LINE
  5
4A
330
A
100
AcDbEntity
  8
Hawa5
 62
     1
100
AcDbLine
 10
99.396707
 20
67.835924
 30
0.0
 11
99.396699
 21
40.835938
 31
0.0
  0
LINE
  5
4B
330
A
100
AcDbEntity
  8
Hawa5
 62
     1
100
AcDbLine
 10
99.396795
 20
220.835941
 30
0.0
 11
99.396774
 21
193.835934
 31
0.0
  0
LINE
  5
4C
330
A
100
AcDbEntity
  8
Hawa5
 62
     1
100
AcDbLine
 10
150.396799
 20
220.835926
 30
0.0
 11
150.396776
 21
193.835888
 31
0.0
  0
LINE
  5
4D
330
A
100
AcDbEntity
  8
Hawa5
 62
     1
100
AcDbLine
 10
59.89675699999999
 20
128.33596
 30
0.0
 11
59.89670400000001
 21
40.835964
 31
0.0
  0
LINE
  5
4E
330
A
100
AcDbEntity
  8
Hawa5
  6
PHANTOM
 62
     1
100
AcDbLine
 10
18.198511
 20
128.335987
 30
0.0
 11
-10.30319
 21
128.33601
 31
0.0
  0
LINE
  5
4F
330
A
100
AcDbEntity
  8
Hawa5
 62
     1
100
AcDbLine
 10
-5.103239
 20
128.336014
 30
0.0
 11
-5.103308
 21
40.836014
 31
0.0
  0
LINE
  5
50
330
A
100
AcDbEntity
  8
Hawa5
 62
     1
100
AcDbLine
 10
14.896746
 20
128.335999
 30
0.0
 11
14.896677
 21
40.835999
 31
0.0
  0
LINE
  5
51
330
A
100
AcDbEntity
  8
Hawa5
  6
PHANTOM
 62
     1
100
AcDbLine
 10
18.391085
 20
133.335987
 30
0.0
 11
-10.302191
 21
133.33601
 31
0.0
  0
LINE
  5
52
330
A
100
AcDbEntity
  8
Hawa5
  6
PHANTOM
 62
     1
100
AcDbLine
 10
197.396708
 20
133.335869
 30
0.0
 11
51.89676099999999
 21
133.335968
 31
0.0
  0
LINE
  5
53
330
A
100
AcDbEntity
  8
Hawa5
  6
PHANTOM
 62
     1
100
AcDbLine
 10
197.3967
 20
128.335869
 30
0.0
 11
51.89675300000001
 21
128.335968
 31
0.0
  0
LINE
  5
54
330
A
100
AcDbEntity
  8
Hawa5
  6
PHANTOM
 62
     1
100
AcDbLine
 10
197.396708
 20
133.335869
 30
0.0
 11
197.396769
 21
228.83588
 31
0.0
  0
LINE
  5
55
330
A
100
AcDbEntity
  8
Hawa5
  6
DASHDOT
 62
     1
 48
0.15
100
AcDbLine
 10
156.896708
 20
53.835924
 30
0.0
 11
156.896708
 21
59.83591800000001
 31
0.0
  0
LINE
  5
56
330
A
100
AcDbEntity
  8
Hawa5
  6
DASHDOT
 62
     1
 48
0.15
100
AcDbLine
 10
156.89673
 20
85.835916
 30
0.0
 11
156.896738
 21
91.835915
 31
0.0
  0
LINE
  5
57
330
A
100
AcDbEntity
  8
Hawa5
  6
DASHDOT
 62
     1
 48
0.15
100
AcDbLine
 10
92.89671700000001
 20
85.835919
 30
0.0
 11
92.896721
 21
91.835938
 31
0.0
  0
LINE
  5
58
330
A
100
AcDbEntity
  8
Hawa5
  6
DASHDOT
 62
     1
 48
0.15
100
AcDbLine
 10
92.896698
 20
53.83592199999999
 30
0.0
 11
92.89670200000001
 21
59.835926
 31
0.0
  0
LINE
  5
59
330
A
100
AcDbEntity
  8
Hawa5
  6
DASHDOT
 62
     1
 48
0.15
100
AcDbLine
 10
95.89669800000001
 20
56.835926
 30
0.0
 11
89.896694
 21
56.835926
 31
0.0
  0
LINE
  5
5A
330
A
100
AcDbEntity
  8
Hawa5
  6
DASHDOT
 62
     1
 48
0.15
100
AcDbLine
 10
95.896723
 20
88.83592400000001
 30
0.0
 11
89.89671899999999
 21
88.83592400000001
 31
0.0
  0
LINE
  5
5B
330
A
100
AcDbEntity
  8
Hawa5
  6
DASHDOT
 62
     1
 48
0.15
100
AcDbLine
 10
159.896719
 20
88.83592400000001
 30
0.0
 11
153.896723
 21
88.83592400000001
 31
0.0
  0
LINE
  5
5C
330
A
100
AcDbEntity
  8
Hawa5
  6
DASHDOT
 62
     1
 48
0.15
100
AcDbLine
 10
159.896708
 20
56.835926
 30
0.0
 11
153.896704
 21
56.835926
 31
0.0
  0
LINE
  5
5D
330
A
100
AcDbEntity
  8
Hawa5
  6
DASHDOT
 62
     1
 48
0.15
100
AcDbLine
 10
127.89672
 20
88.83592400000001
 30
0.0
 11
121.896721
 21
88.83592400000001
 31
0.0
  0
LINE
  5
5E
330
A
100
AcDbEntity
  8
Hawa5
  6
DASHDOT
 62
     1
 48
0.15
100
AcDbLine
 10
95.89675699999999
 20
171.835934
 30
0.0
 11
89.89675699999999
 21
171.835941
 31
0.0
  0
LINE
  5
5F
330
A
100
AcDbEntity
  8
Hawa5
  6
DASHDOT
 62
     1
 48
0.15
100
AcDbLine
 10
95.89678799999999
 20
203.835934
 30
0.0
 11
89.896788
 21
203.835941
 31
0.0
  0
LINE
  5
60
330
A
100
AcDbEntity
  8
Hawa5
  6
DASHDOT
 62
     1
 48
0.15
100
AcDbLine
 10
159.896784
 20
203.835918
 30
0.0
 11
153.896788
 21
203.835918
 31
0.0
  0
LINE
  5
61
330
A
100
AcDbEntity
  8
Hawa5
  6
DASHDOT
 62
     1
 48
0.15
100
AcDbLine
 10
159.896761
 20
171.835911
 30
0.0
 11
153.896749
 21
171.835918
 31
0.0
  0
LINE
  5
62
330
A
100
AcDbEntity
  8
Hawa5
  6
DASHDOT
 62
     1
 48
0.15
100
AcDbLine
 10
92.896757
 20
168.835934
 30
0.0
 11
92.89676099999999
 21
174.835934
 31
0.0
  0
LINE
  5
63
330
A
100
AcDbEntity
  8
Hawa5
  6
DASHDOT
 62
     1
 48
0.15
100
AcDbLine
 10
92.89677799999999
 20
200.835941
 30
0.0
 11
92.896786
 21
206.835934
 31
0.0
  0
LINE
  5
64
330
A
100
AcDbEntity
  8
Hawa5
  6
DASHDOT
 62
     1
 48
0.15
100
AcDbLine
 10
156.896791
 20
200.835918
 30
0.0
 11
156.896799
 21
206.835918
 31
0.0
  0
LINE
  5
65
330
A
100
AcDbEntity
  8
Hawa5
  6
DASHDOT
 62
     1
 48
0.15
100
AcDbLine
 10
156.896761
 20
168.835918
 30
0.0
 11
156.896769
 21
174.835918
 31
0.0
  0
LINE
  5
66
330
A
100
AcDbEntity
  8
Hawa5
 62
     1
 48
0.3125
100
AcDbLine
 10
-5.103276999999999
 20
86.836017
 30
0.0
 11
7.39673
 21
86.836017
 31
0.0
  0
LINE
  5
67
330
A
100
AcDbEntity
  8
Hawa5
 62
     1
 48
0.3125
100
AcDbLine
 10
-5.103269999999999
 20
90.83601299999999
 30
0.0
 11
7.39673
 21
90.83601299999999
 31
0.0
  0
LINE
  5
68
330
A
100
AcDbEntity
  8
Hawa5
 62
     1
 48
0.1
100
AcDbLine
 10
7.39673
 20
90.83601299999999
 30
0.0
 11
7.39673
 21
86.836017
 31
0.0
  0
LINE
  5
69
330
A
100
AcDbEntity
  8
Hawa5
 62
     1
100
AcDbLine
 10
114.396761
 20
178.835918
 30
0.0
 11
135.396769
 21
178.835903
 31
0.0
  0
LINE
  5
6A
330
A
100
AcDbEntity
  8
Hawa5
 62
     1
100
AcDbLine
 10
114.39669
 20
82.83591499999999
 30
0.0
 11
135.396704
 21
82.83593000000001
 31
0.0
  0
LINE
  5
6B
330
A
100
AcDbEntity
  8
Hawa5
 62
     1
 48
0.3125
100
AcDbLine
 10
-5.103276999999999
 20
82.836016
 30
0.0
 11
7.396722999999999
 21
82.836016
 31
0.0
  0
LINE
  5
6C
330
A
100
AcDbEntity
  8
Hawa5
 62
     1
 48
0.3125
100
AcDbLine
 10
-5.103231
 20
178.83601
 30
0.0
 11
7.396760999999999
 21
178.836002
 31
0.0
  0
LINE
  5
6D
330
A
100
AcDbEntity
  8
Hawa5
  6
DASHDOT
 62
     1
100
AcDbLine
 10
-15.10327
 20
88.83601500000001
 30
0.0
 11
11.10969
 21
88.83601500000001
 31
0.0
  0
LINE
  5
6E
330
A
100
AcDbEntity
  8
Hawa5
  6
DASHDOT
 62
     1
100
AcDbLine
 10
124.896795
 20
220.425159
 30
0.0
 11
124.896749
 21
133.335918
 31
0.0
  0
LINE
  5
6F
330
A
100
AcDbEntity
  8
Hawa5
  6
PHANTOM
 62
     1
100
AcDbLine
 10
197.396639
 20
34.816208
 30
0.0
 11
197.3967
 21
128.335869
 31
0.0
  0
LINE
  5
70
330
A
100
AcDbEntity
  8
Hawa5
 62
     1
100
AcDbLine
 10
-4.103223999999999
 20
178.83601
 30
0.0
 11
-4.103247
 21
133.3360139999999
 31
0.0
  0
LINE
  5
71
330
A
100
AcDbEntity
  8
Hawa5
 62
     1
100
AcDbLine
 10
13.896791
 20
220.836002
 30
0.0
 11
13.896753
 21
133.335999
 31
0.0
  0
LINE
  5
72
330
A
100
AcDbEntity
  8
Hawa5
 62
     1
100
AcDbLine
 10
-4.103239
 20
128.336014
 30
0.0
 11
-4.103269999999999
 21
90.83601299999999
 31
0.0
  0
LINE
  5
73
330
A
100
AcDbEntity
  8
Hawa5
 62
     1
100
AcDbLine
 10
13.896746
 20
128.335999
 30
0.0
 11
13.896677
 21
40.835999
 31
0.0
  0
LINE
  5
74
330
A
100
AcDbEntity
  8
Hawa5
 62
     1
 48
0.1875
100
AcDbLine
 10
7.396685
 20
45.836002
 30
0.0
 11
14.896685
 21
45.835995
 31
0.0
  0
LINE
  5
75
330
A
100
AcDbEntity
  8
Hawa5
 62
     1
 48
0.1875
100
AcDbLine
 10
7.396791
 20
215.836002
 30
0.0
 11
14.896791
 21
215.836002
 31
0.0
  0
LINE
  5
76
330
A
100
AcDbEntity
  8
Hawa5
 62
     1
 48
0.1
100
AcDbLine
 10
-4.103276999999999
 20
86.836017
 30
0.0
 11
-4.103276999999999
 21
82.836016
 31
0.0
  0
CIRCLE
  5
77
330
A
100
AcDbEntity
  8
Hawa5
 62
     1
100
AcDbCircle
 10
124.896718
 20
88.83592400000001
 30
0.0
 40
2.0
  0
CIRCLE
  5
78
330
A
100
AcDbEntity
  8
Hawa5
 62
     1
100
AcDbCircle
 10
92.896782
 20
203.835934
 30
0.0
 40
1.0
  0
CIRCLE
  5
79
330
A
100
AcDbEntity
  8
Hawa5
 62
     1
100
AcDbCircle
 10
92.896759
 20
171.835934
 30
0.0
 40
1.0
  0
CIRCLE
  5
7A
330
A
100
AcDbEntity
  8
Hawa5
 62
     1
100
AcDbCircle
 10
156.896765
 20
171.835918
 30
0.0
 40
1.0
  0
CIRCLE
  5
7B
330
A
100
AcDbEntity
  8
Hawa5
 62
     1
100
AcDbCircle
 10
156.896784
 20
203.835918
 30
0.0
 40
1.0
  0
CIRCLE
  5
7C
330
A
100
AcDbEntity
  8
Hawa5
 62
     1
100
AcDbCircle
 10
156.896708
 20
56.835926
 30
0.0
 40
1.0
  0
CIRCLE
  5
7D
330
A
100
AcDbEntity
  8
Hawa5
 62
     1
100
AcDbCircle
 10
156.896715
 20
88.83592400000001
 30
0.0
 40
1.0
  0
CIRCLE
  5
7E
330
A
100
AcDbEntity
  8
Hawa5
 62
     1
100
AcDbCircle
 10
92.896721
 20
88.83592400000001
 30
0.0
 40
1.0
  0
CIRCLE
  5
7F
330
A
100
AcDbEntity
  8
Hawa5
 62
     1
100
AcDbCircle
 10
92.89669599999999
 20
56.835926
 30
0.0
 40
1.0
  0
ARC
  5
80
330
A
100
AcDbEntity
  8
Hawa5
 62
     1
100
AcDbCircle
 10
114.396773
 20
193.835918
 30
0.0
 40
15.0
100
AcDbArc
 50
179.99995
 51
269.999946
  0
ARC
  5
81
330
A
100
AcDbEntity
  8
Hawa5
 62
     1
100
AcDbCircle
 10
135.396776
 20
193.835903
 30
0.0
 40
15.0
100
AcDbArc
 50
269.999946
 51
359.999955
  0
ARC
  5
82
330
A
100
AcDbEntity
  8
Hawa5
 62
     1
100
AcDbCircle
 10
135.3967
 20
67.83592
 30
0.0
 40
15.0
100
AcDbArc
 50
0.0
 51
90.000043
  0
ARC
  5
83
330
A
100
AcDbEntity
  8
Hawa5
 62
     1
100
AcDbCircle
 10
114.396707
 20
67.83592
 30
0.0
 40
15.0
100
AcDbArc
 50
90.000043
 51
179.999964
  0
INSERT
  5
16E
330
A
100
AcDbEntity
  8
HAWA1
100
AcDbBlockReference
  2
HAWA
 10
0.0
 20
0.0
 30
0.0
  0
VIEWPORT
  5
84
102
{ACAD_XDICTIONARY
360
255
102
}
330
B
100
AcDbEntity
 67
     1
  8
HAWA1
 62
     0
100
AcDbViewport
 10
0.0
 20
0.0
 30
0.0
 40
1000.0
 41
1000.0
 68
     1
 69
     1
 12
0.0
 22
0.0
 13
0.0
 23
0.0
 14
1.0
 24
1.0
 15
1.0
 25
1.0
 16
0.0
 26
0.0
 36
1.0
 17
0.0
 27
0.0
 37
0.0
 42
50.0
 43
0.0
 44
0.0
 45
1000.0
 50
0.0
 51
0.0
 72
   100
 90
   557216
  1

281
     0
 71
     1
 74
     0
110
0.0
120
0.0
130
0.0
111
1.0
121
0.0
131
0.0
112
0.0
122
1.0
132
0.0
 79
     0
146
0.0
  0
ENDSEC
  0
SECTION
  2
OBJECTS
  0
DICTIONARY
  5
19
330
0
100
AcDbDictionary
281
     1
  3
ACAD_COLOR
350
150
  3
ACAD_GROUP
350
1A
  3
ACAD_LAYOUT
350
12C
  3
ACAD_MATERIAL
350
13B
  3
ACAD_MLINESTYLE
350
1B
  3
ACAD_PLOTSETTINGS
350
153
  3
ACAD_PLOTSTYLENAME
350
134
  3
ACAD_TABLESTYLE
350
151
  3
ACAD_VISUALSTYLE
350
13F
  3
AcDbVariableDictionary
350
24F
  3
DWGPROPS
350
254
  0
DICTIONARY
  5
255
330
84
100
AcDbDictionary
280
     1
281
     1
  3
ACAD_XREC_ROUNDTRIP
360
256
  0
DICTIONARY
  5
150
102
{ACAD_REACTORS
330
19
102
}
330
19
100
AcDbDictionary
281
     1
  0
DICTIONARY
  5
1A
102
{ACAD_REACTORS
330
19
102
}
330
19
100
AcDbDictionary
281
     1
  3
*A1
350
160
  3
*A10
350
169
  3
*A11
350
16A
  3
*A2
350
161
  3
*A3
350
162
  3
*A4
350
163
  3
*A5
350
164
  3
*A6
350
165
  3
*A7
350
166
  3
*A8
350
167
  3
*A9
350
168
  0
DICTIONARY
  5
12C
102
{ACAD_REACTORS
330
19
102
}
330
19
100
AcDbDictionary
281
     1
  3
Layout1
350
12E
  3
Model
350
12D
  0
DICTIONARY
  5
13B
102
{ACAD_REACTORS
330
19
102
}
330
19
100
AcDbDictionary
281
     1
  3
ByBlock
350
13D
  3
ByLayer
350
13C
  3
Global
350
13E
  0
DICTIONARY
  5
1B
102
{ACAD_REACTORS
330
19
102
}
330
19
100
AcDbDictionary
281
     1
  3
STANDARD
350
1C
  0
DICTIONARY
  5
153
102
{ACAD_REACTORS
330
19
102
}
330
19
100
AcDbDictionary
281
     1
  0
ACDBDICTIONARYWDFLT
  5
134
102
{ACAD_REACTORS
330
19
102
}
330
19
100
AcDbDictionary
281
     1
  3
Normal
350
135
100
AcDbDictionaryWithDefault
340
135
  0
DICTIONARY
  5
151
102
{ACAD_REACTORS
330
19
102
}
330
19
100
AcDbDictionary
281
     1
  3
Standard
350
152
  0
DICTIONARY
  5
13F
102
{ACAD_REACTORS
330
19
102
}
330
19
100
AcDbDictionary
281
     1
  3
2dWireframe
350
145
  3
3D Hidden
350
147
  3
3dWireframe
350
146
  3
Basic
350
144
  3
Brighten
350
14B
  3
ColorChange
350
14F
  3
Conceptual
350
148
  3
Dim
350
14A
  3
Facepattern
350
14E
  3
Flat
350
140
  3
FlatWithEdges
350
141
  3
Gouraud
350
142
  3
GouraudWithEdges
350
143
  3
Linepattern
350
14D
  3
Realistic
350
149
  3
Thicken
350
14C
  0
DICTIONARY
  5
24F
102
{ACAD_REACTORS
330
19
102
}
330
19
100
AcDbDictionary
281
     1
  3
CTABLESTYLE
350
250
  3
DIMASSOC
350
253
  3
INDEXCTL
350
252
  3
SORTENTS
350
251
  0
XRECORD
  5
254
102
{ACAD_REACTORS
330
19
102
}
330
19
100
AcDbXrecord
280
     1
  1
DWGPROPS COOKIE
  2

  3

  4

  6

  7

  8
stj
  9

300
=
301
=
302
=
303
=
304
=
305
=
306
=
307
=
308
=
309
=
 40
0.0001783796296296
 41
2447893.0
 42
2455260.322768288
  1

 90
        0
  0
XRECORD
  5
256
102
{ACAD_REACTORS
330
255
102
}
330
255
100
AcDbXrecord
280
     1
102
SHADEPLOT
 70
     0
  0
GROUP
  5
160
102
{ACAD_REACTORS
330
1A
102
}
330
1A
100
AcDbGroup
300

 70
     1
 71
     1
  0
GROUP
  5
169
102
{ACAD_REACTORS
330
1A
102
}
330
1A
100
AcDbGroup
300

 70
     1
 71
     1
  0
GROUP
  5
16A
102
{ACAD_REACTORS
330
1A
102
}
330
1A
100
AcDbGroup
300

 70
     1
 71
     1
  0
GROUP
  5
161
102
{ACAD_REACTORS
330
1A
102
}
330
1A
100
AcDbGroup
300

 70
     1
 71
     1
  0
GROUP
  5
162
102
{ACAD_REACTORS
330
1A
102
}
330
1A
100
AcDbGroup
300

 70
     1
 71
     1
  0
GROUP
  5
163
102
{ACAD_REACTORS
330
1A
102
}
330
1A
100
AcDbGroup
300

 70
     1
 71
     1
  0
GROUP
  5
164
102
{ACAD_REACTORS
330
1A
102
}
330
1A
100
AcDbGroup
300

 70
     1
 71
     1
  0
GROUP
  5
165
102
{ACAD_REACTORS
330
1A
102
}
330
1A
100
AcDbGroup
300

 70
     1
 71
     1
  0
GROUP
  5
166
102
{ACAD_REACTORS
330
1A
102
}
330
1A
100
AcDbGroup
300

 70
     1
 71
     1
  0
GROUP
  5
167
102
{ACAD_REACTORS
330
1A
102
}
330
1A
100
AcDbGroup
300

 70
     1
 71
     1
  0
GROUP
  5
168
102
{ACAD_REACTORS
330
1A
102
}
330
1A
100
AcDbGroup
300

 70
     1
 71
     1
  0
LAYOUT
  5
12E
102
{ACAD_XDICTIONARY
360
259
102
}
102
{ACAD_REACTORS
330
12C
102
}
330
12C
100
AcDbPlotSettings
  1

  2
none_device
  4

  6

 40
0.0
 41
0.0
 42
0.0
 43
0.0
 44
0.0
 45
0.0
 46
0.0
 47
0.0
 48
0.0
 49
0.0
140
0.0
141
0.0
142
1.0
143
1.0
 70
   688
 72
     0
 73
     0
 74
     5
  7

 75
    16
147
1.0
148
0.0
149
0.0
100
AcDbLayout
  1
Layout1
 70
     1
 71
     1
 10
0.0
 20
0.0
 11
420.0
 21
297.0
 12
0.0
 22
0.0
 32
0.0
 14
0.0
 24
0.0
 34
0.0
 15
195.5
 25
269.0
 35
2.0
146
0.0
 13
0.0
 23
0.0
 33
0.0
 16
1.0
 26
0.0
 36
0.0
 17
0.0
 27
1.0
 37
0.0
 76
     0
330
B
331
84
  0
LAYOUT
  5
12D
102
{ACAD_XDICTIONARY
360
257
102
}
102
{ACAD_REACTORS
330
12C
102
}
330
12C
100
AcDbPlotSettings
  1

  2
none_device
  4

  6

 40
0.0
 41
0.0
 42
0.0
 43
0.0
 44
0.0
 45
0.0
 46
0.0
 47
0.0
 48
0.0
 49
0.0
140
0.0
141
0.0
142
1.0
143
1.0
 70
   688
 72
     0
 73
     0
 74
     5
  7

 75
    16
147
1.0
148
0.0
149
0.0
100
AcDbLayout
  1
Model
 70
     1
 71
     0
 10
0.0
 20
0.0
 11
0.0
 21
0.0
 12
0.0
 22
0.0
 32
0.0
 14
0.0
 24
0.0
 34
0.0
 15
0.0
 25
0.0
 35
0.0
146
0.0
 13
0.0
 23
0.0
 33
0.0
 16
1.0
 26
0.0
 36
0.0
 17
0.0
 27
1.0
 37
0.0
 76
     0
330
A
331
15
  0
MATERIAL
  5
13D
102
{ACAD_XDICTIONARY
360
25D
102
}
102
{ACAD_REACTORS
330
13B
102
}
330
13B
100
AcDbMaterial
  1
ByBlock
  0
MATERIAL
  5
13C
102
{ACAD_XDICTIONARY
360
25B
102
}
102
{ACAD_REACTORS
330
13B
102
}
330
13B
100
AcDbMaterial
  1
ByLayer
  0
MATERIAL
  5
13E
102
{ACAD_XDICTIONARY
360
25F
102
}
102
{ACAD_REACTORS
330
13B
102
}
330
13B
100
AcDbMaterial
  1
Global
  0
MLINESTYLE
  5
1C
102
{ACAD_REACTORS
330
1B
102
}
330
1B
100
AcDbMlineStyle
  2
STANDARD
 70
     0
  3

 62
     0
 51
90.0
 52
90.0
 71
     2
 49
0.5
 62
   256
  6
BYLAYER
 49
-0.5
 62
   256
  6
BYLAYER
  0
ACDBPLACEHOLDER
  5
135
102
{ACAD_REACTORS
330
134
102
}
330
134
  0
TABLESTYLE
  5
152
102
{ACAD_XDICTIONARY
360
261
102
}
102
{ACAD_REACTORS
330
151
102
}
330
151
100
AcDbTableStyle
  3
Standard
 70
     0
 71
     0
 40
1.5
 41
1.5
280
     0
281
     0
  7
STANDARD
140
4.5
170
     2
 62
     0
 63
     7
283
     0
274
    -2
284
     1
 64
     0
275
    -2
285
     1
 65
     0
276
    -2
286
     1
 66
     0
277
    -2
287
     1
 67
     0
278
    -2
288
     1
 68
     0
279
    -2
289
     1
 69
     0
  7
STANDARD
140
6.0
170
     5
 62
     0
 63
     7
283
     0
274
    -2
284
     1
 64
     0
275
    -2
285
     1
 65
     0
276
    -2
286
     1
 66
     0
277
    -2
287
     1
 67
     0
278
    -2
288
     1
 68
     0
279
    -2
289
     1
 69
     0
  7
STANDARD
140
4.5
170
     5
 62
     0
 63
     7
283
     0
274
    -2
284
     1
 64
     0
275
    -2
285
     1
 65
     0
276
    -2
286
     1
 66
     0
277
    -2
287
     1
 67
     0
278
    -2
288
     1
 68
     0
279
    -2
289
     1
 69
     0
  0
VISUALSTYLE
  5
145
102
{ACAD_REACTORS
330
13F
102
}
330
13F
100
AcDbVisualStyle
  2
2dWireframe
 70
     4
 71
     0
 72
     2
 73
     0
 90
        0
 40
-0.6
 41
-30.0
 62
     5
 63
     7
 74
     1
 91
        4
 64
     7
 65
   257
 75
     1
175
     1
 42
1.0
 92
        0
 66
   257
 43
1.0
 76
     1
 77
     6
 78
     2
 67
     7
 79
     5
170
     0
171
     0
290
     0
174
     0
 93
        1
 44
0.0
173
     0
291
     0
 45
0.0
1001
ACAD
1000
AcDbSavedByObjectVersion
1070
     0
  0
VISUALSTYLE
  5
147
102
{ACAD_REACTORS
330
13F
102
}
330
13F
100
AcDbVisualStyle
  2
3D Hidden
 70
     6
 71
     1
 72
     2
 73
     2
 90
        0
 40
-0.6
 41
-30.0
 62
     5
 63
     7
 74
     2
 91
        2
 64
     7
 65
   257
 75
     2
175
     1
 42
40.0
 92
        0
 66
   257
 43
1.0
 76
     1
 77
     6
 78
     2
 67
     7
 79
     3
170
     0
171
     0
290
     0
174
     0
 93
        1
 44
0.0
173
     0
291
     0
 45
0.0
1001
ACAD
1000
AcDbSavedByObjectVersion
1070
     0
  0
VISUALSTYLE
  5
146
102
{ACAD_REACTORS
330
13F
102
}
330
13F
100
AcDbVisualStyle
  2
3dWireframe
 70
     5
 71
     0
 72
     2
 73
     0
 90
        0
 40
-0.6
 41
-30.0
 62
     5
 63
     7
 74
     1
 91
        4
 64
     7
 65
   257
 75
     1
175
     1
 42
1.0
 92
        0
 66
   257
 43
1.0
 76
     1
 77
     6
 78
     2
 67
     7
 79
     5
170
     0
171
     0
290
     0
174
     0
 93
        1
 44
0.0
173
     0
291
     0
 45
0.0
1001
ACAD
1000
AcDbSavedByObjectVersion
1070
     0
  0
VISUALSTYLE
  5
144
102
{ACAD_REACTORS
330
13F
102
}
330
13F
100
AcDbVisualStyle
  2
Basic
 70
     7
 71
     1
 72
     0
 73
     1
 90
        0
 40
-0.6
 41
-30.0
 62
     5
 63
     7
 74
     0
 91
        4
 64
     7
 65
   257
 75
     1
175
     1
 42
1.0
 92
        8
 66
     7
 43
1.0
 76
     1
 77
     6
 78
     2
 67
     7
 79
     5
170
     0
171
     0
290
     0
174
     0
 93
        1
 44
0.0
173
     0
291
     1
 45
0.0
1001
ACAD
1000
AcDbSavedByObjectVersion
1070
     0
  0
VISUALSTYLE
  5
14B
102
{ACAD_REACTORS
330
13F
102
}
330
13F
100
AcDbVisualStyle
  2
Brighten
 70
    12
 71
     2
 72
     2
 73
     0
 90
        0
 40
-0.6
 41
-30.0
 62
     5
 63
     7
 74
     1
 91
        4
 64
     7
 65
   257
 75
     1
175
     1
 42
1.0
 92
        8
 66
     7
 43
1.0
 76
     1
 77
     6
 78
     2
 67
     7
 79
     5
170
     0
171
     0
290
     0
174
     0
 93
        1
 44
50.0
173
     0
291
     1
 45
0.0
1001
ACAD
1000
AcDbSavedByObjectVersion
1070
     0
  0
VISUALSTYLE
  5
14F
102
{ACAD_REACTORS
330
13F
102
}
330
13F
100
AcDbVisualStyle
  2
ColorChange
 70
    16
 71
     2
 72
     2
 73
     3
 90
        0
 40
-0.6
 41
-30.0
 62
     5
 63
     8
 74
     1
 91
        4
 64
     7
 65
   257
 75
     1
175
     1
 42
1.0
 92
        8
 66
     8
 43
1.0
 76
     1
 77
     6
 78
     2
 67
     7
 79
     5
170
     0
171
     0
290
     0
174
     0
 93
        1
 44
0.0
173
     0
291
     1
 45
0.0
1001
ACAD
1000
AcDbSavedByObjectVersion
1070
     0
  0
VISUALSTYLE
  5
148
102
{ACAD_REACTORS
330
13F
102
}
330
13F
100
AcDbVisualStyle
  2
Conceptual
 70
     9
 71
     3
 72
     2
 73
     0
 90
        0
 40
-0.6
 41
-30.0
 62
     5
 63
     7
 74
     2
 91
        2
 64
     7
 65
   257
 75
     1
175
     1
 42
40.0
 92
        8
 66
     7
 43
1.0
 76
     1
 77
     6
 78
     2
 67
     7
 79
     3
170
     0
171
     0
290
     0
174
     0
 93
        1
 44
0.0
173
     0
291
     0
 45
0.0
1001
ACAD
1000
AcDbSavedByObjectVersion
1070
     0
  0
VISUALSTYLE
  5
14A
102
{ACAD_REACTORS
330
13F
102
}
330
13F
100
AcDbVisualStyle
  2
Dim
 70
    11
 71
     2
 72
     2
 73
     0
 90
        0
 40
-0.6
 41
-30.0
 62
     5
 63
     7
 74
     1
 91
        4
 64
     7
 65
   257
 75
     1
175
     1
 42
1.0
 92
        8
 66
     7
 43
1.0
 76
     1
 77
     6
 78
     2
 67
     7
 79
     5
170
     0
171
     0
290
     0
174
     0
 93
        1
 44
-50.0
173
     0
291
     1
 45
0.0
1001
ACAD
1000
AcDbSavedByObjectVersion
1070
     0
  0
VISUALSTYLE
  5
14E
102
{ACAD_REACTORS
330
13F
102
}
330
13F
100
AcDbVisualStyle
  2
Facepattern
 70
    15
 71
     2
 72
     2
 73
     0
 90
        0
 40
-0.6
 41
-30.0
 62
     5
 63
     7
 74
     1
 91
        4
 64
     7
 65
   257
 75
     1
175
     1
 42
1.0
 92
        8
 66
     7
 43
1.0
 76
     1
 77
     6
 78
     2
 67
     7
 79
     5
170
     0
171
     0
290
     0
174
     0
 93
        1
 44
0.0
173
     0
291
     1
 45
0.0
1001
ACAD
1000
AcDbSavedByObjectVersion
1070
     0
  0
VISUALSTYLE
  5
140
102
{ACAD_REACTORS
330
13F
102
}
330
13F
100
AcDbVisualStyle
  2
Flat
 70
     0
 71
     2
 72
     1
 73
     1
 90
        2
 40
-0.6
 41
30.0
 62
     5
 63
     7
 74
     0
 91
        4
 64
     7
 65
   257
 75
     1
175
     1
 42
1.0
 92
        8
 66
     7
 43
1.0
 76
     1
 77
     6
 78
     2
 67
     7
 79
     5
170
     0
171
     0
290
     0
174
     0
 93
       13
 44
0.0
173
     0
291
     1
 45
0.0
1001
ACAD
1000
AcDbSavedByObjectVersion
1070
     0
  0
VISUALSTYLE
  5
141
102
{ACAD_REACTORS
330
13F
102
}
330
13F
100
AcDbVisualStyle
  2
FlatWithEdges
 70
     1
 71
     2
 72
     1
 73
     1
 90
        2
 40
-0.6
 41
30.0
 62
     5
 63
     7
 74
     1
 91
        4
 64
     7
 65
   257
 75
     1
175
     1
 42
1.0
 92
        0
 66
   257
 43
1.0
 76
     1
 77
     6
 78
     2
 67
     7
 79
     5
170
     0
171
     0
290
     0
174
     0
 93
       13
 44
0.0
173
     0
291
     1
 45
0.0
1001
ACAD
1000
AcDbSavedByObjectVersion
1070
     0
  0
VISUALSTYLE
  5
142
102
{ACAD_REACTORS
330
13F
102
}
330
13F
100
AcDbVisualStyle
  2
Gouraud
 70
     2
 71
     2
 72
     2
 73
     1
 90
        2
 40
-0.6
 41
30.0
 62
     5
 63
     7
 74
     0
 91
        4
 64
     7
 65
   257
 75
     1
175
     1
 42
1.0
 92
        0
 66
     7
 43
1.0
 76
     1
 77
     6
 78
     2
 67
     7
 79
     5
170
     0
171
     0
290
     0
174
     0
 93
       13
 44
0.0
173
     0
291
     1
 45
0.0
1001
ACAD
1000
AcDbSavedByObjectVersion
1070
     0
  0
VISUALSTYLE
  5
143
102
{ACAD_REACTORS
330
13F
102
}
330
13F
100
AcDbVisualStyle
  2
GouraudWithEdges
 70
     3
 71
     2
 72
     2
 73
     1
 90
        2
 40
-0.6
 41
30.0
 62
     5
 63
     7
 74
     1
 91
        4
 64
     7
 65
   257
 75
     1
175
     1
 42
1.0
 92
        0
 66
   257
 43
1.0
 76
     1
 77
     6
 78
     2
 67
     7
 79
     5
170
     0
171
     0
290
     0
174
     0
 93
       13
 44
0.0
173
     0
291
     1
 45
0.0
1001
ACAD
1000
AcDbSavedByObjectVersion
1070
     0
  0
VISUALSTYLE
  5
14D
102
{ACAD_REACTORS
330
13F
102
}
330
13F
100
AcDbVisualStyle
  2
Linepattern
 70
    14
 71
     2
 72
     2
 73
     0
 90
        0
 40
-0.6
 41
-30.0
 62
     5
 63
     7
 74
     1
 91
        4
 64
     7
 65
   257
 75
     7
175
     7
 42
1.0
 92
        8
 66
     7
 43
1.0
 76
     1
 77
     6
 78
     2
 67
     7
 79
     5
170
     0
171
     0
290
     0
174
     0
 93
        1
 44
0.0
173
     0
291
     1
 45
0.0
1001
ACAD
1000
AcDbSavedByObjectVersion
1070
     0
  0
VISUALSTYLE
  5
149
102
{ACAD_REACTORS
330
13F
102
}
330
13F
100
AcDbVisualStyle
  2
Realistic
 70
     8
 71
     2
 72
     2
 73
     0
 90
        0
 40
-0.6
 41
-30.0
 62
     5
 63
     7
 74
     1
 91
        0
 64
     7
 65
   257
 75
     1
175
     1
 42
1.0
 92
        8
 66
     8
 43
1.0
 76
     1
 77
     6
 78
     2
 67
     7
 79
     5
170
     0
171
     0
290
     0
174
     0
 93
       13
 44
0.0
173
     0
291
     0
 45
0.0
1001
ACAD
1000
AcDbSavedByObjectVersion
1070
     0
  0
VISUALSTYLE
  5
14C
102
{ACAD_REACTORS
330
13F
102
}
330
13F
100
AcDbVisualStyle
  2
Thicken
 70
    13
 71
     2
 72
     2
 73
     0
 90
        0
 40
-0.6
 41
-30.0
 62
     5
 63
     7
 74
     1
 91
        4
 64
     7
 65
   257
 75
     1
175
     1
 42
1.0
 92
       12
 66
     7
 43
1.0
 76
     1
 77
     6
 78
     2
 67
     7
 79
     5
170
     0
171
     0
290
     0
174
     0
 93
        1
 44
0.0
173
     0
291
     1
 45
0.0
1001
ACAD
1000
AcDbSavedByObjectVersion
1070
     0
  0
DICTIONARYVAR
  5
250
102
{ACAD_REACTORS
330
24F
102
}
330
24F
100
DictionaryVariables
280
     0
  1
STANDARD
  0
DICTIONARYVAR
  5
253
102
{ACAD_REACTORS
330
24F
102
}
330
24F
100
DictionaryVariables
280
     0
  1
1
  0
DICTIONARYVAR
  5
252
102
{ACAD_REACTORS
330
24F
102
}
330
24F
100
DictionaryVariables
280
     0
  1
0
  0
DICTIONARYVAR
  5
251
102
{ACAD_REACTORS
330
24F
102
}
330
24F
100
DictionaryVariables
280
     0
  1
127
  0
DICTIONARY
  5
259
330
12E
100
AcDbDictionary
280
     1
281
     1
  3
ACAD_XREC_ROUNDTRIP
360
25A
  0
DICTIONARY
  5
257
330
12D
100
AcDbDictionary
280
     1
281
     1
  3
ACAD_XREC_ROUNDTRIP
360
258
  0
DICTIONARY
  5
25D
330
13D
100
AcDbDictionary
280
     1
281
     1
  3
ACAD_XREC_ROUNDTRIP
360
25E
  0
DICTIONARY
  5
25B
330
13C
100
AcDbDictionary
280
     1
281
     1
  3
ACAD_XREC_ROUNDTRIP
360
25C
  0
DICTIONARY
  5
25F
330
13E
100
AcDbDictionary
280
     1
281
     1
  3
ACAD_XREC_ROUNDTRIP
360
260
  0
DICTIONARY
  5
261
330
152
100
AcDbDictionary
280
     1
281
     1
  3
ACAD_XREC_ROUNDTRIP
360
262
  0
XRECORD
  5
25A
102
{ACAD_REACTORS
330
259
102
}
330
259
100
AcDbXrecord
280
     1
102
SHADEPLOT
 70
     0
102
SHADEPLOTRESLEVEL
 70
     2
102
SHADEPLOTCUSTOMDPI
 70
   300
  0
XRECORD
  5
258
102
{ACAD_REACTORS
330
257
102
}
330
257
100
AcDbXrecord
280
     1
102
SHADEPLOT
 70
     0
102
SHADEPLOTRESLEVEL
 70
     2
102
SHADEPLOTCUSTOMDPI
 70
   300
  0
XRECORD
  5
25E
102
{ACAD_REACTORS
330
25D
102
}
330
25D
100
AcDbXrecord
280
     1
102
MATERIAL
148
0.0
149
0.0
149
0.0
 93
        0
 94
       63
282
     0
 72
     1
 77
     1
171
     1
175
     1
179
     1
273
     0
  0
XRECORD
  5
25C
102
{ACAD_REACTORS
330
25B
102
}
330
25B
100
AcDbXrecord
280
     1
102
MATERIAL
148
0.0
149
0.0
149
0.0
 93
        0
 94
       63
282
     0
 72
     1
 77
     1
171
     1
175
     1
179
     1
273
     0
  0
XRECORD
  5
260
102
{ACAD_REACTORS
330
25F
102
}
330
25F
100
AcDbXrecord
280
     1
102
MATERIAL
148
0.0
149
0.0
149
0.0
 93
        0
 94
       63
282
     0
 72
     1
 77
     1
171
     1
175
     1
179
     1
273
     0
  0
XRECORD
  5
262
102
{ACAD_REACTORS
330
261
102
}
330
261
100
AcDbXrecord
280
     1
102
ACAD_ROUNDTRIP_PRE2007_TABLESTYLE
 90
      512
 91
        0
  1

 92
      512
 93
        0
  2

 94
      512
 95
        0
  3

  0
ENDSEC
  0
EOF
