  0
SECTION
  2
HEADER
  9
$ACADVER
  1
AC1015
  9
$ACADMAINTVER
 70
     6
  9
$DWGCODEPAGE
  3
ANSI_1252
  9
$INSBASE
 10
0.0
 20
0.0
 30
0.0
  9
$EXTMIN
 10
0.0
 20
0.0
 30
0.0
  9
$EXTMAX
 10
210.0
 20
297.0
 30
0.0
  9
$LIMMIN
 10
0.0
 20
0.0
  9
$LIMMAX
 10
420.0
 20
297.0
  9
$ORTHOMODE
 70
     0
  9
$REGENMODE
 70
     1
  9
$FILLMODE
 70
     1
  9
$QTEXTMODE
 70
     0
  9
$MIRRTEXT
 70
     1
  9
$LTSCALE
 40
1.0
  9
$ATTMODE
 70
     1
  9
$TEXTSIZE
 40
5.0
  9
$TRACEWID
 40
1.0
  9
$TEXTSTYLE
  7
Standard
  9
$CLAYER
  8
0
  9
$CELTYPE
  6
ByLayer
  9
$CECOLOR
 62
   256
  9
$CELTSCALE
 40
1.0
  9
$DISPSILH
 70
     0
  9
$DIMSCALE
 40
1.0
  9
$DIMASZ
 40
3.0
  9
$DIMEXO
 40
0.2
  9
$DIMDLI
 40
3.75
  9
$DIMRND
 40
0.0
  9
$DIMDLE
 40
0.0
  9
$DIMEXE
 40
0.5
  9
$DIMTP
 40
0.0
  9
$DIMTM
 40
0.0
  9
$DIMTXT
 40
2.5
  9
$DIMCEN
 40
2.5
  9
$DIMTSZ
 40
0.0
  9
$DIMTOL
 70
     0
  9
$DIMLIM
 70
     0
  9
$DIMTIH
 70
     1
  9
$DIMTOH
 70
     1
  9
$DIMSE1
 70
     0
  9
$DIMSE2
 70
     0
  9
$DIMTAD
 70
     1
  9
$DIMZIN
 70
     0
  9
$DIMBLK
  1

  9
$DIMASO
 70
     1
  9
$DIMSHO
 70
     1
  9
$DIMPOST
  1

  9
$DIMAPOST
  1

  9
$DIMALT
 70
     0
  9
$DIMALTD
 70
     3
  9
$DIMALTF
 40
0.0393700787
  9
$DIMLFAC
 40
1.0
  9
$DIMTOFL
 70
     1
  9
$DIMTVP
 40
0.0
  9
$DIMTIX
 70
     0
  9
$DIMSOXD
 70
     0
  9
$DIMSAH
 70
     0
  9
$DIMBLK1
  1

  9
$DIMBLK2
  1

  9
$DIMSTYLE
  2
ISO-25
  9
$DIMCLRD
 70
     0
  9
$DIMCLRE
 70
     0
  9
$DIMCLRT
 70
     0
  9
$DIMTFAC
 40
1.0
  9
$DIMGAP
 40
1.524
  9
$DIMJUST
 70
     0
  9
$DIMSD1
 70
     0
  9
$DIMSD2
 70
     0
  9
$DIMTOLJ
 70
     0
  9
$DIMTZIN
 70
     0
  9
$DIMALTZ
 70
     0
  9
$DIMALTTZ
 70
     0
  9
$DIMUPT
 70
     0
  9
$DIMDEC
 70
     2
  9
$DIMTDEC
 70
     2
  9
$DIMALTU
 70
     2
  9
$DIMALTTD
 70
     3
  9
$DIMTXSTY
  7
Standard
  9
$DIMAUNIT
 70
     0
  9
$DIMADEC
 70
     0
  9
$DIMALTRND
 40
0.0
  9
$DIMAZIN
 70
     0
  9
$DIMDSEP
 70
    44
  9
$DIMATFIT
 70
     3
  9
$DIMFRAC
 70
     0
  9
$DIMLDRBLK
  1

  9
$DIMLUNIT
 70
     2
  9
$DIMLWD
 70
    -2
  9
$DIMLWE
 70
    -2
  9
$DIMTMOVE
 70
     0
  9
$LUNITS
 70
     2
  9
$LUPREC
 70
     2
  9
$SKETCHINC
 40
1.0
  9
$FILLETRAD
 40
10.0
  9
$AUNITS
 70
     0
  9
$AUPREC
 70
     0
  9
$MENU
  1
.
  9
$ELEVATION
 40
0.0
  9
$PELEVATION
 40
0.0
  9
$THICKNESS
 40
0.0
  9
$LIMCHECK
 70
     0
  9
$CHAMFERA
 40
10.0
  9
$CHAMFERB
 40
10.0
  9
$CHAMFERC
 40
20.0
  9
$CHAMFERD
 40
0.0
  9
$SKPOLY
 70
     0
  9
$TDCREATE
 40
2453900.451777442
  9
$TDUCREATE
 40
2453900.368444109
  9
$TDUPDATE
 40
2453900.451777454
  9
$TDUUPDATE
 40
2453900.368444121
  9
$TDINDWG
 40
0.0000000116
  9
$TDUSRTIMER
 40
0.0000000116
  9
$USRTIMER
 70
     1
  9
$ANGBASE
 50
0.0
  9
$ANGDIR
 70
     0
  9
$PDMODE
 70
     0
  9
$PDSIZE
 40
-1.0
  9
$PLINEWID
 40
0.0
  9
$SPLFRAME
 70
     0
  9
$SPLINETYPE
 70
     6
  9
$SPLINESEGS
 70
     8
  9
$HANDSEED
  5
1BE
  9
$SURFTAB1
 70
     6
  9
$SURFTAB2
 70
     6
  9
$SURFTYPE
 70
     6
  9
$SURFU
 70
     6
  9
$SURFV
 70
     6
  9
$UCSBASE
  2

  9
$UCSNAME
  2

  9
$UCSORG
 10
0.0
 20
0.0
 30
0.0
  9
$UCSXDIR
 10
1.0
 20
0.0
 30
0.0
  9
$UCSYDIR
 10
0.0
 20
1.0
 30
0.0
  9
$UCSORTHOREF
  2

  9
$UCSORTHOVIEW
 70
     0
  9
$UCSORGTOP
 10
0.0
 20
0.0
 30
0.0
  9
$UCSORGBOTTOM
 10
0.0
 20
0.0
 30
0.0
  9
$UCSORGLEFT
 10
0.0
 20
0.0
 30
0.0
  9
$UCSORGRIGHT
 10
0.0
 20
0.0
 30
0.0
  9
$UCSORGFRONT
 10
0.0
 20
0.0
 30
0.0
  9
$UCSORGBACK
 10
0.0
 20
0.0
 30
0.0
  9
$PUCSBASE
  2

  9
$PUCSNAME
  2

  9
$PUCSORG
 10
0.0
 20
0.0
 30
0.0
  9
$PUCSXDIR
 10
1.0
 20
0.0
 30
0.0
  9
$PUCSYDIR
 10
0.0
 20
1.0
 30
0.0
  9
$PUCSORTHOREF
  2

  9
$PUCSORTHOVIEW
 70
     0
  9
$PUCSORGTOP
 10
0.0
 20
0.0
 30
0.0
  9
$PUCSORGBOTTOM
 10
0.0
 20
0.0
 30
0.0
  9
$PUCSORGLEFT
 10
0.0
 20
0.0
 30
0.0
  9
$PUCSORGRIGHT
 10
0.0
 20
0.0
 30
0.0
  9
$PUCSORGFRONT
 10
0.0
 20
0.0
 30
0.0
  9
$PUCSORGBACK
 10
0.0
 20
0.0
 30
0.0
  9
$USERI1
 70
     0
  9
$USERI2
 70
     0
  9
$USERI3
 70
     0
  9
$USERI4
 70
     0
  9
$USERI5
 70
     0
  9
$USERR1
 40
0.0
  9
$USERR2
 40
0.0
  9
$USERR3
 40
0.0
  9
$USERR4
 40
0.0
  9
$USERR5
 40
0.0
  9
$WORLDVIEW
 70
     1
  9
$SHADEDGE
 70
     3
  9
$SHADEDIF
 70
    70
  9
$TILEMODE
 70
     1
  9
$MAXACTVP
 70
    64
  9
$PINSBASE
 10
0.0
 20
0.0
 30
0.0
  9
$PLIMCHECK
 70
     0
  9
$PEXTMIN
 10
1.0000000000E+20
 20
1.0000000000E+20
 30
1.0000000000E+20
  9
$PEXTMAX
 10
-1.0000000000E+20
 20
-1.0000000000E+20
 30
-1.0000000000E+20
  9
$PLIMMIN
 10
0.0
 20
0.0
  9
$PLIMMAX
 10
420.0
 20
297.0
  9
$UNITMODE
 70
     0
  9
$VISRETAIN
 70
     1
  9
$PLINEGEN
 70
     0
  9
$PSLTSCALE
 70
     1
  9
$TREEDEPTH
 70
  3020
  9
$CMLSTYLE
  2
Standard
  9
$CMLJUST
 70
     0
  9
$CMLSCALE
 40
20.0
  9
$PROXYGRAPHICS
 70
     1
  9
$MEASUREMENT
 70
     1
  9
$CELWEIGHT
370
    -1
  9
$ENDCAPS
280
     0
  9
$JOINSTYLE
280
     0
  9
$LWDISPLAY
290
     1
  9
$INSUNITS
 70
     4
  9
$HYPERLINKBASE
  1

  9
$STYLESHEET
  1

  9
$XEDIT
290
     1
  9
$CEPSNTYPE
380
     0
  9
$PSTYLEMODE
290
     1
  9
$FINGERPRINTGUID
  2
{3D1AD6AE-24A0-45E3-90C8-09D5EA30FF78}
  9
$VERSIONGUID
  2
{FAEB1C32-E019-11D5-929B-00C0DF256EC4}
  9
$EXTNAMES
290
     1
  9
$PSVPSCALE
 40
0.0
  9
$OLESTARTUP
290
     0
  0
ENDSEC
  0
SECTION
  2
CLASSES
  0
CLASS
  1
ACDBDICTIONARYWDFLT
  2
AcDbDictionaryWithDefault
  3
ObjectDBX Classes
 90
        0
280
     0
281
     0
  0
CLASS
  1
ACDBPLACEHOLDER
  2
AcDbPlaceHolder
  3
ObjectDBX Classes
 90
        0
280
     0
281
     0
  0
CLASS
  1
LAYOUT
  2
AcDbLayout
  3
ObjectDBX Classes
 90
        0
280
     0
281
     0
  0
ENDSEC
  0
SECTION
  2
TABLES
  0
TABLE
  2
VPORT
  5
8
330
0
100
AcDbSymbolTable
 70
     1
  0
VPORT
  5
29
330
8
100
AcDbSymbolTableRecord
100
AcDbViewportTableRecord
  2
*Active
 70
     0
 10
0.0
 20
0.0
 11
1.0
 21
1.0
 12
0.0
 22
0.0
 13
0.0
 23
0.0
 14
10.0
 24
10.0
 15
10.0
 25
10.0
 16
0.0
 26
0.0
 36
1.0
 17
108.003013685
 27
201.1959989418
 37
0.0
 40
95.1054923919
 41
1.869835208
 42
50.0
 43
0.0
 44
0.0
 50
0.0
 51
0.0
 71
     0
 72
  2000
 73
     1
 74
     3
 75
     0
 76
     0
 77
     0
 78
     0
281
     0
 65
     1
110
0.0
120
0.0
130
0.0
111
1.0
121
0.0
131
0.0
112
0.0
122
1.0
132
0.0
 79
     0
146
0.0
  0
ENDTAB
  0
TABLE
  2
LTYPE
  5
5
330
0
100
AcDbSymbolTable
 70
     6
  0
LTYPE
  5
14
330
5
100
AcDbSymbolTableRecord
100
AcDbLinetypeTableRecord
  2
ByBlock
 70
     0
  3

 72
    65
 73
     0
 40
0.0
  0
LTYPE
  5
15
330
5
100
AcDbSymbolTableRecord
100
AcDbLinetypeTableRecord
  2
ByLayer
 70
     0
  3

 72
    65
 73
     0
 40
0.0
  0
LTYPE
  5
16
330
5
100
AcDbSymbolTableRecord
100
AcDbLinetypeTableRecord
  2
Continuous
 70
     0
  3
Solid line
 72
    65
 73
     0
 40
0.0
  0
LTYPE
  5
2A
330
5
100
AcDbSymbolTableRecord
100
AcDbLinetypeTableRecord
  2
HIDDEN
 70
     0
  3
Hidden __ __ __ __ __ __ __ __ __ __ __ __ __ __
 72
    65
 73
     2
 40
1.905
 49
1.27
 74
     0
 49
-0.635
 74
     0
  0
LTYPE
  5
2B
330
5
100
AcDbSymbolTableRecord
100
AcDbLinetypeTableRecord
  2
PHANTOM
 70
     0
  3
Phantom ______  __  __  ______  __  __  ______
 72
    65
 73
     6
 40
12.7
 49
6.35
 74
     0
 49
-1.27
 74
     0
 49
1.27
 74
     0
 49
-1.27
 74
     0
 49
1.27
 74
     0
 49
-1.27
 74
     0
  0
LTYPE
  5
2C
330
5
100
AcDbSymbolTableRecord
100
AcDbLinetypeTableRecord
  2
CENTER
 70
     0
  3
Center ____ _ ____ _ ____ _ ____ _ ____ _ ____
 72
    65
 73
     4
 40
10.16
 49
6.35
 74
     0
 49
-1.27
 74
     0
 49
1.27
 74
     0
 49
-1.27
 74
     0
  0
LTYPE
  5
2D
330
5
100
AcDbSymbolTableRecord
100
AcDbLinetypeTableRecord
  2
CENTERX2
 70
     0
  3
Center (2x) ________  __  ________  __  _____
 72
    65
 73
     4
 40
20.32
 49
12.7
 74
     0
 49
-2.54
 74
     0
 49
2.54
 74
     0
 49
-2.54
 74
     0
  0
LTYPE
  5
2E
330
5
100
AcDbSymbolTableRecord
100
AcDbLinetypeTableRecord
  2
DOT2
 70
     0
  3
Dot (.5x) ........................................
 72
    65
 73
     2
 40
0.635
 49
0.0
 74
     0
 49
-0.635
 74
     0
  0
ENDTAB
  0
TABLE
  2
LAYER
  5
2
330
0
100
AcDbSymbolTable
 70
     2
  0
LAYER
  5
10
330
2
100
AcDbSymbolTableRecord
100
AcDbLayerTableRecord
  2
0
 70
     0
 62
     7
  6
Continuous
370
    -3
390
F
  0
LAYER
  5
64
330
2
100
AcDbSymbolTableRecord
100
AcDbLayerTableRecord
  2
Defpoints
 70
     0
 62
     7
  6
Continuous
290
     0
370
    -3
390
F
  0
ENDTAB
  0
TABLE
  2
STYLE
  5
3
330
0
100
AcDbSymbolTable
 70
     2
  0
STYLE
  5
11
330
3
100
AcDbSymbolTableRecord
100
AcDbTextStyleTableRecord
  2
Standard
 70
     0
 40
0.0
 41
1.0
 50
0.0
 71
     0
 42
2.5
  3
txt
  4

  0
STYLE
  5
56
330
3
100
AcDbSymbolTableRecord
100
AcDbTextStyleTableRecord
  2
SLDTEXTSTYLE0
 70
     0
 40
0.0
 41
0.605
 50
0.0
 71
     0
 42
0.2
  3
TXT
  4

  0
ENDTAB
  0
TABLE
  2
VIEW
  5
6
330
0
100
AcDbSymbolTable
 70
     0
  0
ENDTAB
  0
TABLE
  2
UCS
  5
7
330
0
100
AcDbSymbolTable
 70
     0
  0
ENDTAB
  0
TABLE
  2
APPID
  5
9
330
0
100
AcDbSymbolTable
 70
     1
  0
APPID
  5
12
330
9
100
AcDbSymbolTableRecord
100
AcDbRegAppTableRecord
  2
ACAD
 70
     0
  0
ENDTAB
  0
TABLE
  2
DIMSTYLE
  5
A
330
0
100
AcDbSymbolTable
 70
     5
100
AcDbDimStyleTable
  0
DIMSTYLE
105
27
330
A
100
AcDbSymbolTableRecord
100
AcDbDimStyleTableRecord
  2
ISO-25
 70
     0
 41
2.5
 42
0.625
 43
3.75
 44
1.25
 73
     0
 74
     0
 77
     1
 78
     8
140
2.5
141
2.5
143
0.0393700787
147
0.625
171
     3
172
     1
271
     2
272
     2
274
     3
278
    44
283
     0
284
     8
340
11
  0
DIMSTYLE
105
71
102
{ACAD_REACTORS
330
63
330
78
330
8C
330
A0
330
15B
330
174
102
}
330
A
100
AcDbSymbolTableRecord
100
AcDbDimStyleTableRecord
  2
SLDDIMSTYLE0
 70
     0
 41
3.0
 44
0.0
 77
     1
 78
    12
140
5.0
147
1.25
173
     1
271
     2
272
     2
284
    12
340
56
  0
DIMSTYLE
105
BE
102
{ACAD_REACTORS
330
B3
330
C5
102
}
330
A
100
AcDbSymbolTableRecord
100
AcDbDimStyleTableRecord
  2
SLDDIMSTYLE1
 70
     0
 41
3.0
 44
0.0
 77
     1
 78
    12
140
5.0
147
1.25
173
     1
271
     0
272
     2
284
    12
340
56
  0
DIMSTYLE
105
E6
102
{ACAD_REACTORS
330
D7
330
143
330
1A3
102
}
330
A
100
AcDbSymbolTableRecord
100
AcDbDimStyleTableRecord
  2
SLDDIMSTYLE2
 70
     0
 41
3.0
 44
0.0
 77
     1
 78
     4
140
5.0
147
1.25
173
     1
271
     2
272
     2
284
    12
340
56
  0
DIMSTYLE
105
199
102
{ACAD_REACTORS
330
18B
102
}
330
A
100
AcDbSymbolTableRecord
100
AcDbDimStyleTableRecord
  2
SLDDIMSTYLE3
 70
     0
 41
3.0
 44
0.0
 77
     1
 78
    12
140
5.0
147
1.25
173
     1
271
     0
272
     2
284
    12
340
56
  0
ENDTAB
  0
TABLE
  2
BLOCK_RECORD
  5
1
330
0
100
AcDbSymbolTable
 70
    18
  0
BLOCK_RECORD
  5
1F
330
1
100
AcDbSymbolTableRecord
100
AcDbBlockTableRecord
  2
*Model_Space
340
22
  0
BLOCK_RECORD
  5
1B
330
1
100
AcDbSymbolTableRecord
100
AcDbBlockTableRecord
  2
*Paper_Space
340
1E
  0
BLOCK_RECORD
  5
23
330
1
100
AcDbSymbolTableRecord
100
AcDbBlockTableRecord
  2
*Paper_Space0
340
26
  0
BLOCK_RECORD
  5
4E
330
1
100
AcDbSymbolTableRecord
100
AcDbBlockTableRecord
  2
SW_ANGULAR_DIMENSION_0
340
0
102
{BLKREFS
331
58
102
}
  0
BLOCK_RECORD
  5
59
330
1
100
AcDbSymbolTableRecord
100
AcDbBlockTableRecord
  2
SW_ANGULAR_DIMENSION_1
340
0
102
{BLKREFS
331
62
102
}
  0
BLOCK_RECORD
  5
65
330
1
100
AcDbSymbolTableRecord
100
AcDbBlockTableRecord
  2
*D3
340
0
  0
BLOCK_RECORD
  5
79
330
1
100
AcDbSymbolTableRecord
100
AcDbBlockTableRecord
  2
*D4
340
0
  0
BLOCK_RECORD
  5
8D
330
1
100
AcDbSymbolTableRecord
100
AcDbBlockTableRecord
  2
*D5
340
0
  0
BLOCK_RECORD
  5
A1
330
1
100
AcDbSymbolTableRecord
100
AcDbBlockTableRecord
  2
*D6
340
0
  0
BLOCK_RECORD
  5
B4
330
1
100
AcDbSymbolTableRecord
100
AcDbBlockTableRecord
  2
*D7
340
0
  0
BLOCK_RECORD
  5
C6
330
1
100
AcDbSymbolTableRecord
100
AcDbBlockTableRecord
  2
*D8
340
0
  0
BLOCK_RECORD
  5
D8
330
1
100
AcDbSymbolTableRecord
100
AcDbBlockTableRecord
  2
*D9
340
0
  0
BLOCK_RECORD
  5
F0
330
1
100
AcDbSymbolTableRecord
100
AcDbBlockTableRecord
  2
SW_CENTERMARKSYMBOL_0
340
0
102
{BLKREFS
331
FB
102
}
  0
BLOCK_RECORD
  5
FC
330
1
100
AcDbSymbolTableRecord
100
AcDbBlockTableRecord
  2
SW_CENTERMARKSYMBOL_1
340
0
102
{BLKREFS
331
107
102
}
  0
BLOCK_RECORD
  5
108
330
1
100
AcDbSymbolTableRecord
100
AcDbBlockTableRecord
  2
SW_CENTERMARKSYMBOL_2
340
0
102
{BLKREFS
331
113
102
}
  0
BLOCK_RECORD
  5
144
330
1
100
AcDbSymbolTableRecord
100
AcDbBlockTableRecord
  2
*D13
340
0
  0
BLOCK_RECORD
  5
15C
330
1
100
AcDbSymbolTableRecord
100
AcDbBlockTableRecord
  2
*D14
340
0
  0
BLOCK_RECORD
  5
175
330
1
100
AcDbSymbolTableRecord
100
AcDbBlockTableRecord
  2
*D15
340
0
  0
BLOCK_RECORD
  5
18C
330
1
100
AcDbSymbolTableRecord
100
AcDbBlockTableRecord
  2
*D16
340
0
  0
BLOCK_RECORD
  5
1A4
330
1
100
AcDbSymbolTableRecord
100
AcDbBlockTableRecord
  2
*D17
340
0
  0
ENDTAB
  0
ENDSEC
  0
SECTION
  2
BLOCKS
  0
BLOCK
  5
20
330
1F
100
AcDbEntity
  8
0
100
AcDbBlockBegin
  2
*Model_Space
 70
     0
 71
     0
 10
0.0
 20
0.0
 30
0.0
  3
*Model_Space
  1

  0
ENDBLK
  5
21
330
1F
100
AcDbEntity
  8
0
100
AcDbBlockEnd
  0
BLOCK
  5
1C
330
1B
100
AcDbEntity
 67
     1
  8
0
100
AcDbBlockBegin
  2
*Paper_Space
 70
     0
 71
     0
 10
0.0
 20
0.0
 30
0.0
  3
*Paper_Space
  1

  0
ENDBLK
  5
1D
330
1B
100
AcDbEntity
 67
     1
  8
0
100
AcDbBlockEnd
  0
BLOCK
  5
24
330
23
100
AcDbEntity
  8
0
100
AcDbBlockBegin
  2
*Paper_Space0
 70
     0
 71
     0
 10
0.0
 20
0.0
 30
0.0
  3
*Paper_Space0
  1

  0
ENDBLK
  5
25
330
23
100
AcDbEntity
  8
0
100
AcDbBlockEnd
  0
BLOCK
  5
4F
330
4E
100
AcDbEntity
  8
0
100
AcDbBlockBegin
  2
SW_ANGULAR_DIMENSION_0
 70
     0
 71
     0
 10
0.0
 20
0.0
 30
0.0
  3
SW_ANGULAR_DIMENSION_0
  1

  0
ARC
  5
51
330
4E
100
AcDbEntity
  8
0
  6
Continuous
 62
    18
370
     0
100
AcDbCircle
 10
-39.9930170213
 20
-22.1874428781
 30
0.0
 40
45.43949701458204
100
AcDbArc
 50
0.0
 51
45.0
  0
SOLID
  5
52
330
4E
100
AcDbEntity
  8
0
  6
Continuous
 62
    18
370
     0
100
AcDbTrace
 10
5.4464799933
 20
-22.1874428781
 30
0.0
 11
5.8473370132
 21
-19.1725940179
 31
0.0
 12
4.8478802467
 22
-19.205551139
 32
0.0
 13
4.8478802467
 23
-19.205551139
 33
0.0
  0
SOLID
  5
53
330
4E
100
AcDbEntity
  8
0
  6
Continuous
 62
    18
370
     0
100
AcDbTrace
 10
-7.8624405486
 20
9.9431335947
 30
0.0
 11
-6.1771986192
 21
7.4113437852
 31
0.0
 12
-5.4471717582
 22
8.0947622385
 32
0.0
 13
-5.4471717582
 23
8.0947622385
 33
0.0
  0
LINE
  5
54
330
4E
100
AcDbEntity
  8
0
  6
Continuous
 62
    18
370
     0
100
AcDbLine
 10
-29.3091647189
 20
-22.1874428781
 30
0.0
 11
5.9464799933
 21
-22.1874428781
 31
0.0
  0
LINE
  5
55
330
4E
100
AcDbEntity
  8
0
  6
Continuous
 62
    18
370
     0
100
AcDbLine
 10
-34.924904983
 20
-17.1193308398
 30
0.0
 11
-7.508887158
 21
10.2966869853
 31
0.0
  0
MTEXT
  5
57
330
4E
100
AcDbEntity
  8
0
  6
Continuous
 62
    18
370
     0
100
AcDbMText
 10
5.954716504
 20
2.466524336
 30
0.0
 40
5.0
 41
0.0
 71
     1
 72
     1
  1
{45°}
  7
SLDTEXTSTYLE0
 11
0.3826834323650841
 21
-0.9238795325112891
 31
0.0
 73
     1
 44
1.0
  0
ENDBLK
  5
50
330
4E
100
AcDbEntity
  8
0
100
AcDbBlockEnd
  0
BLOCK
  5
5A
330
59
100
AcDbEntity
  8
0
100
AcDbBlockBegin
  2
SW_ANGULAR_DIMENSION_1
 70
     0
 71
     0
 10
0.0
 20
0.0
 30
0.0
  3
SW_ANGULAR_DIMENSION_1
  1

  0
ARC
  5
5C
330
59
100
AcDbEntity
  8
0
  6
Continuous
 62
    18
370
     0
100
AcDbCircle
 10
-39.9880665804
 20
22.1853923383
 30
0.0
 40
45.43413799746158
100
AcDbArc
 50
315.0
 51
0.0
  0
SOLID
  5
5D
330
59
100
AcDbEntity
  8
0
  6
Continuous
 62
    18
370
     0
100
AcDbTrace
 10
-7.861279505
 20
-9.9413947371
 30
0.0
 11
-5.4460178804
 21
-8.0930140174
 31
0.0
 12
-6.1760473908
 22
-7.4095983943
 32
0.0
 13
-6.1760473908
 23
-7.4095983943
 33
0.0
  0
SOLID
  5
5E
330
59
100
AcDbEntity
  8
0
  6
Continuous
 62
    18
370
     0
100
AcDbTrace
 10
5.4460714171
 20
22.1853923383
 30
0.0
 11
4.8474601103
 21
19.2035029199
 31
0.0
 12
5.8469167491
 22
19.1705419241
 32
0.0
 13
5.8469167491
 23
19.1705419241
 33
0.0
  0
LINE
  5
5F
330
59
100
AcDbEntity
  8
0
  6
Continuous
 62
    18
370
     0
100
AcDbLine
 10
-34.8615424168
 20
17.0588681747
 30
0.0
 11
-7.5077261144
 21
-10.2949481277
 31
0.0
  0
LINE
  5
60
330
59
100
AcDbEntity
  8
0
  6
Continuous
 62
    18
370
     0
100
AcDbLine
 10
-29.1880665804
 20
22.1853923383
 30
0.0
 11
5.9460714171
 21
22.1853923383
 31
0.0
  0
MTEXT
  5
61
330
59
100
AcDbEntity
  8
0
  6
Continuous
 62
    18
370
     0
100
AcDbMText
 10
-5.954716504
 20
2.466524336
 30
0.0
 40
5.0
 41
0.0
 71
     1
 72
     1
  1
{45°}
  7
SLDTEXTSTYLE0
 11
0.3826834323650867
 21
0.923879532511288
 31
0.0
 73
     1
 44
1.0
  0
ENDBLK
  5
5B
330
59
100
AcDbEntity
  8
0
100
AcDbBlockEnd
  0
BLOCK
  5
6F
330
65
100
AcDbEntity
  8
0
100
AcDbBlockBegin
  2
*D3
 70
     1
 71
     0
 10
0.0
 20
0.0
 30
0.0
  3
*D3
  1

  0
SOLID
  5
72
330
65
100
AcDbEntity
  8
0
  6
Continuous
 62
    18
370
     0
100
AcDbTrace
 10
80.471
 20
226.989
 30
0.0
 11
77.471
 21
227.489
 31
0.0
 12
77.471
 22
226.489
 32
0.0
 13
77.471
 23
226.489
 33
0.0
  0
SOLID
  5
73
330
65
100
AcDbEntity
  8
0
  6
Continuous
 62
    18
370
     0
100
AcDbTrace
 10
70.471
 20
226.989
 30
0.0
 11
73.471
 21
226.489
 31
0.0
 12
73.471
 22
227.489
 32
0.0
 13
73.471
 23
227.489
 33
0.0
  0
LINE
  5
74
330
65
100
AcDbEntity
  8
0
  6
Continuous
 62
    18
370
     0
100
AcDbLine
 10
80.471
 20
212.256
 30
0.0
 11
80.471
 21
227.489
 31
0.0
  0
LINE
  5
75
330
65
100
AcDbEntity
  8
0
  6
Continuous
 62
    18
370
     0
100
AcDbLine
 10
70.471
 20
212.256
 30
0.0
 11
70.471
 21
227.489
 31
0.0
  0
LINE
  5
76
330
65
100
AcDbEntity
  8
0
  6
Continuous
 62
    18
370
     0
100
AcDbLine
 10
80.471
 20
226.989
 30
0.0
 11
70.471
 21
226.989
 31
0.0
  0
MTEXT
  5
77
330
65
100
AcDbEntity
  8
0
  6
Continuous
 62
    18
370
     0
100
AcDbMText
 10
71.652222993
 20
233.4343383496
 30
0.0
 40
5.0
 41
0.0
 71
     1
 72
     1
  1
{10}
  7
SLDTEXTSTYLE0
 73
     1
 44
1.0
  0
ENDBLK
  5
70
330
65
100
AcDbEntity
  8
0
100
AcDbBlockEnd
  0
BLOCK
  5
84
330
79
100
AcDbEntity
  8
0
100
AcDbBlockBegin
  2
*D4
 70
     1
 71
     0
 10
0.0
 20
0.0
 30
0.0
  3
*D4
  1

  0
SOLID
  5
86
330
79
100
AcDbEntity
  8
0
  6
Continuous
 62
    18
370
     0
100
AcDbTrace
 10
42.27
 20
207.056
 30
0.0
 11
41.77
 21
204.056
 31
0.0
 12
42.77
 22
204.056
 32
0.0
 13
42.77
 23
204.056
 33
0.0
  0
SOLID
  5
87
330
79
100
AcDbEntity
  8
0
  6
Continuous
 62
    18
370
     0
100
AcDbTrace
 10
42.27
 20
167.056
 30
0.0
 11
42.77
 21
170.056
 31
0.0
 12
41.77
 22
170.056
 32
0.0
 13
41.77
 23
170.056
 33
0.0
  0
LINE
  5
88
330
79
100
AcDbEntity
  8
0
  6
Continuous
 62
    18
370
     0
100
AcDbLine
 10
70.771
 20
207.056
 30
0.0
 11
41.77
 21
207.056
 31
0.0
  0
LINE
  5
89
330
79
100
AcDbEntity
  8
0
  6
Continuous
 62
    18
370
     0
100
AcDbLine
 10
70.771
 20
167.056
 30
0.0
 11
41.77
 21
167.056
 31
0.0
  0
LINE
  5
8A
330
79
100
AcDbEntity
  8
0
  6
Continuous
 62
    18
370
     0
100
AcDbLine
 10
42.27
 20
207.056
 30
0.0
 11
42.27
 21
167.056
 31
0.0
  0
MTEXT
  5
8B
330
79
100
AcDbEntity
  8
0
  6
Continuous
 62
    18
370
     0
100
AcDbMText
 10
35.8246616504
 20
183.237222993
 30
0.0
 40
5.0
 41
0.0
 71
     1
 72
     1
  1
{40}
  7
SLDTEXTSTYLE0
 11
-7.044197039909883E-15
 21
1.0
 31
0.0
 73
     1
 44
1.0
  0
ENDBLK
  5
85
330
79
100
AcDbEntity
  8
0
100
AcDbBlockEnd
  0
BLOCK
  5
98
330
8D
100
AcDbEntity
  8
0
100
AcDbBlockBegin
  2
*D5
 70
     1
 71
     0
 10
0.0
 20
0.0
 30
0.0
  3
*D5
  1

  0
SOLID
  5
9A
330
8D
100
AcDbEntity
  8
0
  6
Continuous
 62
    18
370
     0
100
AcDbTrace
 10
27.276
 20
162.056
 30
0.0
 11
27.776
 21
165.056
 31
0.0
 12
26.776
 22
165.056
 32
0.0
 13
26.776
 23
165.056
 33
0.0
  0
SOLID
  5
9B
330
8D
100
AcDbEntity
  8
0
  6
Continuous
 62
    18
370
     0
100
AcDbTrace
 10
27.276
 20
212.056
 30
0.0
 11
26.776
 21
209.056
 31
0.0
 12
27.776
 22
209.056
 32
0.0
 13
27.776
 23
209.056
 33
0.0
  0
LINE
  5
9C
330
8D
100
AcDbEntity
  8
0
  6
Continuous
 62
    18
370
     0
100
AcDbLine
 10
70.271
 20
162.056
 30
0.0
 11
26.776
 21
162.056
 31
0.0
  0
LINE
  5
9D
330
8D
100
AcDbEntity
  8
0
  6
Continuous
 62
    18
370
     0
100
AcDbLine
 10
70.271
 20
212.056
 30
0.0
 11
26.776
 21
212.056
 31
0.0
  0
LINE
  5
9E
330
8D
100
AcDbEntity
  8
0
  6
Continuous
 62
    18
370
     0
100
AcDbLine
 10
27.276
 20
162.056
 30
0.0
 11
27.276
 21
212.056
 31
0.0
  0
MTEXT
  5
9F
330
8D
100
AcDbEntity
  8
0
  6
Continuous
 62
    18
370
     0
100
AcDbMText
 10
20.8306616504
 20
183.237222993
 30
0.0
 40
5.0
 41
0.0
 71
     1
 72
     1
  1
{50}
  7
SLDTEXTSTYLE0
 11
6.123031769111886E-17
 21
1.0
 31
0.0
 73
     1
 44
1.0
  0
ENDBLK
  5
99
330
8D
100
AcDbEntity
  8
0
100
AcDbBlockEnd
  0
BLOCK
  5
AB
330
A1
100
AcDbEntity
  8
0
100
AcDbBlockBegin
  2
*D6
 70
     1
 71
     0
 10
0.0
 20
0.0
 30
0.0
  3
*D6
  1

  0
SOLID
  5
AD
330
A1
100
AcDbEntity
  8
0
  6
Continuous
 62
    18
370
     0
100
AcDbTrace
 10
61.471
 20
241.371
 30
0.0
 11
64.471
 21
240.871
 31
0.0
 12
64.471
 22
241.871
 32
0.0
 13
64.471
 23
241.871
 33
0.0
  0
SOLID
  5
AE
330
A1
100
AcDbEntity
  8
0
  6
Continuous
 62
    18
370
     0
100
AcDbTrace
 10
89.471
 20
241.371
 30
0.0
 11
86.471
 21
241.871
 31
0.0
 12
86.471
 22
240.871
 32
0.0
 13
86.471
 23
240.871
 33
0.0
  0
LINE
  5
AF
330
A1
100
AcDbEntity
  8
0
  6
Continuous
 62
    18
370
     0
100
AcDbLine
 10
61.471
 20
196.6675427319
 30
0.0
 11
61.471
 21
241.871
 31
0.0
  0
LINE
  5
B0
330
A1
100
AcDbEntity
  8
0
  6
Continuous
 62
    18
370
     0
100
AcDbLine
 10
89.471
 20
196.6675427319
 30
0.0
 11
89.471
 21
241.871
 31
0.0
  0
LINE
  5
B1
330
A1
100
AcDbEntity
  8
0
  6
Continuous
 62
    18
370
     0
100
AcDbLine
 10
61.471
 20
241.371
 30
0.0
 11
89.471
 21
241.371
 31
0.0
  0
MTEXT
  5
B2
330
A1
100
AcDbEntity
  8
0
  6
Continuous
 62
    18
370
     0
100
AcDbMText
 10
71.652222993
 20
247.8163383496
 30
0.0
 40
5.0
 41
0.0
 71
     1
 72
     1
  1
{28}
  7
SLDTEXTSTYLE0
 73
     1
 44
1.0
  0
ENDBLK
  5
AC
330
A1
100
AcDbEntity
  8
0
100
AcDbBlockEnd
  0
BLOCK
  5
BC
330
B4
100
AcDbEntity
  8
0
100
AcDbBlockBegin
  2
*D7
 70
     1
 71
     0
 10
0.0
 20
0.0
 30
0.0
  3
*D7
  1

  0
SOLID
  5
C0
330
B4
100
AcDbEntity
  8
0
  6
Continuous
 62
    18
370
     0
100
AcDbTrace
 10
82.9463872721
 20
183.936932009
 30
0.0
 11
85.5225141635
 21
182.3202779832
 31
0.0
 12
85.9075842859
 22
183.2431653007
 32
0.0
 13
85.9075842859
 23
183.2431653007
 33
0.0
  0
LINE
  5
C1
330
B4
100
AcDbEntity
  8
0
  6
Continuous
 62
    18
370
     0
100
AcDbLine
 10
82.9463872721
 20
183.936932009
 30
0.0
 11
106.5449610145
 21
174.0905450173
 31
0.0
  0
LINE
  5
C2
330
B4
100
AcDbEntity
  8
0
  6
Continuous
 62
    18
370
     0
100
AcDbLine
 10
82.9463872721
 20
183.936932009
 30
0.0
 11
75.471
 21
187.056
 31
0.0
  0
MTEXT
  5
C3
330
B4
100
AcDbEntity
  8
0
  6
Continuous
 62
    18
370
     0
100
AcDbMText
 10
99.4500059601
 20
183.9962079277
 30
0.0
 40
5.0
 41
0.0
 71
     1
 72
     1
  1
{R}
  7
SLDTEXTSTYLE0
 11
0.9228873175393854
 21
-0.3850701223478105
 31
0.0
 73
     1
 44
1.0
  0
MTEXT
  5
C4
330
B4
100
AcDbEntity
  8
0
  6
Continuous
 62
    18
370
     0
100
AcDbMText
 10
104.0237818493
 20
182.0878227893
 30
0.0
 40
5.0
 41
0.0
 71
     1
 72
     1
  1
{8}
  7
SLDTEXTSTYLE0
 11
0.9228873175393854
 21
-0.3850701223478105
 31
0.0
 73
     1
 44
1.0
  0
ENDBLK
  5
BD
330
B4
100
AcDbEntity
  8
0
100
AcDbBlockEnd
  0
BLOCK
  5
CE
330
C6
100
AcDbEntity
  8
0
100
AcDbBlockBegin
  2
*D8
 70
     1
 71
     0
 10
0.0
 20
0.0
 30
0.0
  3
*D8
  1

  0
ARC
  5
D1
330
C6
100
AcDbEntity
  8
0
  6
Continuous
 62
    18
370
     0
100
AcDbCircle
 10
75.471
 20
187.056
 30
0.0
 40
7.050000000000004
100
AcDbArc
 50
12.9730121406
 51
36.0406547182
  0
SOLID
  5
D2
330
C6
100
AcDbEntity
  8
0
  6
Continuous
 62
    18
370
     0
100
AcDbTrace
 10
82.2118773619
 20
189.1207208992
 30
0.0
 11
85.2267699201
 21
189.5212491285
 31
0.0
 12
84.9339017075
 22
190.4774019458
 32
0.0
 13
84.9339017075
 23
190.4774019458
 33
0.0
  0
LINE
  5
D3
330
C6
100
AcDbEntity
  8
0
  6
Continuous
 62
    18
370
     0
100
AcDbLine
 10
82.2118773619
 20
189.1207208992
 30
0.0
 11
106.4094053241
 21
196.5323884033
 31
0.0
  0
LINE
  5
D4
330
C6
100
AcDbEntity
  8
0
  6
Continuous
 62
    18
370
     0
100
AcDbLine
 10
82.2118773619
 20
189.1207208992
 30
0.0
 11
75.471
 21
187.056
 31
0.0
  0
MTEXT
  5
D5
330
C6
100
AcDbEntity
  8
0
  6
Continuous
 62
    18
370
     0
100
AcDbMText
 10
94.6253531356
 20
199.6229793004
 30
0.0
 40
5.0
 41
0.0
 71
     1
 72
     1
  1
{R}
  7
SLDTEXTSTYLE0
 11
0.9561528172931062
 21
0.2928682126528175
 31
0.0
 73
     1
 44
1.0
  0
MTEXT
  5
D6
330
C6
100
AcDbEntity
  8
0
  6
Continuous
 62
    18
370
     0
100
AcDbMText
 10
99.3639909075
 20
201.074417135
 30
0.0
 40
5.0
 41
0.0
 71
     1
 72
     1
  1
{7}
  7
SLDTEXTSTYLE0
 11
0.9561528172931062
 21
0.2928682126528175
 31
0.0
 73
     1
 44
1.0
  0
ENDBLK
  5
CF
330
C6
100
AcDbEntity
  8
0
100
AcDbBlockEnd
  0
BLOCK
  5
E4
330
D8
100
AcDbEntity
  8
0
100
AcDbBlockBegin
  2
*D9
 70
     1
 71
     0
 10
0.0
 20
0.0
 30
0.0
  3
*D9
  1

  0
SOLID
  5
E8
330
D8
100
AcDbEntity
  8
0
  6
Continuous
 62
    18
370
     0
100
AcDbTrace
 10
56.5355711549
 20
169.3933633611
 30
0.0
 11
54.767804202
 21
171.8682370952
 31
0.0
 12
54.0606974208
 22
171.161130314
 32
0.0
 13
54.0606974208
 23
171.161130314
 33
0.0
  0
SOLID
  5
E9
330
D8
100
AcDbEntity
  8
0
  6
Continuous
 62
    18
370
     0
100
AcDbTrace
 10
57.8083633611
 20
168.1205711549
 30
0.0
 11
59.576130314
 21
165.6456974208
 31
0.0
 12
60.2832370952
 22
166.352804202
 32
0.0
 13
60.2832370952
 23
166.352804202
 33
0.0
  0
LINE
  5
EA
330
D8
100
AcDbEntity
  8
0
  6
Continuous
 62
    18
370
     0
100
AcDbLine
 10
69.0010827524
 20
181.8588749585
 30
0.0
 11
56.1820177643
 21
169.0398099705
 31
0.0
  0
LINE
  5
EB
330
D8
100
AcDbEntity
  8
0
  6
Continuous
 62
    18
370
     0
100
AcDbLine
 10
70.2738749585
 20
180.5860827524
 30
0.0
 11
57.4548099705
 21
167.7670177643
 31
0.0
  0
LINE
  5
EC
330
D8
100
AcDbEntity
  8
0
  6
Continuous
 62
    18
370
     0
100
AcDbLine
 10
56.5355711549
 20
169.3933633611
 30
0.0
 11
44.4318807061
 21
181.4970538099
 31
0.0
  0
LINE
  5
ED
330
D8
100
AcDbEntity
  8
0
  6
Continuous
 62
    18
370
     0
100
AcDbLine
 10
56.5355711549
 20
169.3933633611
 30
0.0
 11
57.8083633611
 21
168.1205711549
 31
0.0
  0
LINE
  5
EE
330
D8
100
AcDbEntity
  8
0
  6
Continuous
 62
    18
370
     0
100
AcDbLine
 10
57.8083633611
 20
168.1205711549
 30
0.0
 11
61.6974506576
 21
164.2314838584
 31
0.0
  0
MTEXT
  5
EF
330
D8
100
AcDbEntity
  8
0
  6
Continuous
 62
    18
370
     0
100
AcDbMText
 10
50.1119551753
 20
184.9320642488
 30
0.0
 40
5.0
 41
0.0
 71
     1
 72
     1
  1
{1.80}
  7
SLDTEXTSTYLE0
 11
0.7071067811865556
 21
-0.7071067811865395
 31
0.0
 73
     1
 44
1.0
  0
ENDBLK
  5
E5
330
D8
100
AcDbEntity
  8
0
100
AcDbBlockEnd
  0
BLOCK
  5
F1
330
F0
100
AcDbEntity
  8
0
100
AcDbBlockBegin
  2
SW_CENTERMARKSYMBOL_0
 70
     0
 71
     0
 10
0.0
 20
0.0
 30
0.0
  3
SW_CENTERMARKSYMBOL_0
  1

  0
LINE
  5
F3
330
F0
100
AcDbEntity
  8
0
  6
Continuous
 62
    18
370
     0
100
AcDbLine
 10
0.0
 20
0.0
 30
0.0
 11
0.0
 21
2.5
 31
0.0
  0
LINE
  5
F4
330
F0
100
AcDbEntity
  8
0
  6
Continuous
 62
    18
370
     0
100
AcDbLine
 10
0.0
 20
0.0
 30
0.0
 11
-2.5
 21
0.0
 31
0.0
  0
LINE
  5
F5
330
F0
100
AcDbEntity
  8
0
  6
Continuous
 62
    18
370
     0
100
AcDbLine
 10
0.0
 20
0.0
 30
0.0
 11
0.0
 21
-2.5
 31
0.0
  0
LINE
  5
F6
330
F0
100
AcDbEntity
  8
0
  6
Continuous
 62
    18
370
     0
100
AcDbLine
 10
0.0
 20
0.0
 30
0.0
 11
2.5
 21
0.0
 31
0.0
  0
LINE
  5
F7
330
F0
100
AcDbEntity
  8
0
  6
Continuous
 62
    18
370
     0
100
AcDbLine
 10
0.0
 20
5.0
 30
0.0
 11
0.0
 21
10.6
 31
0.0
  0
LINE
  5
F8
330
F0
100
AcDbEntity
  8
0
  6
Continuous
 62
    18
370
     0
100
AcDbLine
 10
-5.0
 20
0.0
 30
0.0
 11
-10.6
 21
0.0
 31
0.0
  0
LINE
  5
F9
330
F0
100
AcDbEntity
  8
0
  6
Continuous
 62
    18
370
     0
100
AcDbLine
 10
0.0
 20
-5.0
 30
0.0
 11
0.0
 21
-10.6
 31
0.0
  0
LINE
  5
FA
330
F0
100
AcDbEntity
  8
0
  6
Continuous
 62
    18
370
     0
100
AcDbLine
 10
5.0
 20
0.0
 30
0.0
 11
10.6
 21
0.0
 31
0.0
  0
ENDBLK
  5
F2
330
F0
100
AcDbEntity
  8
0
100
AcDbBlockEnd
  0
BLOCK
  5
FD
330
FC
100
AcDbEntity
  8
0
100
AcDbBlockBegin
  2
SW_CENTERMARKSYMBOL_1
 70
     0
 71
     0
 10
0.0
 20
0.0
 30
0.0
  3
SW_CENTERMARKSYMBOL_1
  1

  0
LINE
  5
FF
330
FC
100
AcDbEntity
  8
0
  6
Continuous
 62
    18
370
     0
100
AcDbLine
 10
0.0
 20
0.0
 30
0.0
 11
0.0
 21
2.5
 31
0.0
  0
LINE
  5
100
330
FC
100
AcDbEntity
  8
0
  6
Continuous
 62
    18
370
     0
100
AcDbLine
 10
0.0
 20
0.0
 30
0.0
 11
-2.5
 21
0.0
 31
0.0
  0
LINE
  5
101
330
FC
100
AcDbEntity
  8
0
  6
Continuous
 62
    18
370
     0
100
AcDbLine
 10
0.0
 20
0.0
 30
0.0
 11
0.0
 21
-2.5
 31
0.0
  0
LINE
  5
102
330
FC
100
AcDbEntity
  8
0
  6
Continuous
 62
    18
370
     0
100
AcDbLine
 10
0.0
 20
0.0
 30
0.0
 11
2.5
 21
0.0
 31
0.0
  0
LINE
  5
103
330
FC
100
AcDbEntity
  8
0
  6
Continuous
 62
    18
370
     0
100
AcDbLine
 10
0.0
 20
2.5
 30
0.0
 11
0.0
 21
4.5
 31
0.0
  0
LINE
  5
104
330
FC
100
AcDbEntity
  8
0
  6
Continuous
 62
    18
370
     0
100
AcDbLine
 10
-2.5
 20
0.0
 30
0.0
 11
-4.5
 21
0.0
 31
0.0
  0
LINE
  5
105
330
FC
100
AcDbEntity
  8
0
  6
Continuous
 62
    18
370
     0
100
AcDbLine
 10
0.0
 20
-2.5
 30
0.0
 11
0.0
 21
-4.5
 31
0.0
  0
LINE
  5
106
330
FC
100
AcDbEntity
  8
0
  6
Continuous
 62
    18
370
     0
100
AcDbLine
 10
2.5
 20
0.0
 30
0.0
 11
4.5
 21
0.0
 31
0.0
  0
ENDBLK
  5
FE
330
FC
100
AcDbEntity
  8
0
100
AcDbBlockEnd
  0
BLOCK
  5
109
330
108
100
AcDbEntity
  8
0
100
AcDbBlockBegin
  2
SW_CENTERMARKSYMBOL_2
 70
     0
 71
     0
 10
0.0
 20
0.0
 30
0.0
  3
SW_CENTERMARKSYMBOL_2
  1

  0
LINE
  5
10B
330
108
100
AcDbEntity
  8
0
  6
Continuous
 62
    18
370
     0
100
AcDbLine
 10
0.0
 20
0.0
 30
0.0
 11
0.0
 21
2.5
 31
0.0
  0
LINE
  5
10C
330
108
100
AcDbEntity
  8
0
  6
Continuous
 62
    18
370
     0
100
AcDbLine
 10
0.0
 20
0.0
 30
0.0
 11
-2.5
 21
0.0
 31
0.0
  0
LINE
  5
10D
330
108
100
AcDbEntity
  8
0
  6
Continuous
 62
    18
370
     0
100
AcDbLine
 10
0.0
 20
0.0
 30
0.0
 11
0.0
 21
-2.5
 31
0.0
  0
LINE
  5
10E
330
108
100
AcDbEntity
  8
0
  6
Continuous
 62
    18
370
     0
100
AcDbLine
 10
0.0
 20
0.0
 30
0.0
 11
2.5
 21
0.0
 31
0.0
  0
LINE
  5
10F
330
108
100
AcDbEntity
  8
0
  6
Continuous
 62
    18
370
     0
100
AcDbLine
 10
0.0
 20
2.5
 30
0.0
 11
0.0
 21
4.5
 31
0.0
  0
LINE
  5
110
330
108
100
AcDbEntity
  8
0
  6
Continuous
 62
    18
370
     0
100
AcDbLine
 10
-2.5
 20
0.0
 30
0.0
 11
-4.5
 21
0.0
 31
0.0
  0
LINE
  5
111
330
108
100
AcDbEntity
  8
0
  6
Continuous
 62
    18
370
     0
100
AcDbLine
 10
0.0
 20
-2.5
 30
0.0
 11
0.0
 21
-4.5
 31
0.0
  0
LINE
  5
112
330
108
100
AcDbEntity
  8
0
  6
Continuous
 62
    18
370
     0
100
AcDbLine
 10
2.5
 20
0.0
 30
0.0
 11
4.5
 21
0.0
 31
0.0
  0
ENDBLK
  5
10A
330
108
100
AcDbEntity
  8
0
100
AcDbBlockEnd
  0
BLOCK
  5
151
330
144
100
AcDbEntity
  8
0
100
AcDbBlockBegin
  2
*D13
 70
     1
 71
     0
 10
0.0
 20
0.0
 30
0.0
  3
*D13
  1

  0
SOLID
  5
153
330
144
100
AcDbEntity
  8
0
  6
Continuous
 62
    18
370
     0
100
AcDbTrace
 10
165.383
 20
241.0918415895
 30
0.0
 11
162.383
 21
241.5918415895
 31
0.0
 12
162.383
 22
240.5918415895
 32
0.0
 13
162.383
 23
240.5918415895
 33
0.0
  0
SOLID
  5
154
330
144
100
AcDbEntity
  8
0
  6
Continuous
 62
    18
370
     0
100
AcDbTrace
 10
168.883
 20
241.0918415895
 30
0.0
 11
171.883
 21
240.5918415895
 31
0.0
 12
171.883
 22
241.5918415895
 32
0.0
 13
171.883
 23
241.5918415895
 33
0.0
  0
LINE
  5
155
330
144
100
AcDbEntity
  8
0
  6
Continuous
 62
    18
370
     0
100
AcDbLine
 10
165.383
 20
195.356
 30
0.0
 11
165.383
 21
241.5918415895
 31
0.0
  0
LINE
  5
156
330
144
100
AcDbEntity
  8
0
  6
Continuous
 62
    18
370
     0
100
AcDbLine
 10
168.883
 20
212.256
 30
0.0
 11
168.883
 21
241.5918415895
 31
0.0
  0
LINE
  5
157
330
144
100
AcDbEntity
  8
0
  6
Continuous
 62
    18
370
     0
100
AcDbLine
 10
165.383
 20
241.0918415895
 30
0.0
 11
156.4079842567
 21
241.0918415895
 31
0.0
  0
LINE
  5
158
330
144
100
AcDbEntity
  8
0
  6
Continuous
 62
    18
370
     0
100
AcDbLine
 10
165.383
 20
241.0918415895
 30
0.0
 11
168.883
 21
241.0918415895
 31
0.0
  0
LINE
  5
159
330
144
100
AcDbEntity
  8
0
  6
Continuous
 62
    18
370
     0
100
AcDbLine
 10
168.883
 20
241.0918415895
 30
0.0
 11
174.383
 21
241.0918415895
 31
0.0
  0
MTEXT
  5
15A
330
144
100
AcDbEntity
  8
0
  6
Continuous
 62
    18
370
     0
100
AcDbMText
 10
157.9954842567
 20
247.5371799391
 30
0.0
 40
5.0
 41
0.0
 71
     1
 72
     1
  1
{3.50}
  7
SLDTEXTSTYLE0
 73
     1
 44
1.0
  0
ENDBLK
  5
152
330
144
100
AcDbEntity
  8
0
100
AcDbBlockEnd
  0
BLOCK
  5
168
330
15C
100
AcDbEntity
  8
0
100
AcDbBlockBegin
  2
*D14
 70
     1
 71
     0
 10
0.0
 20
0.0
 30
0.0
  3
*D14
  1

  0
SOLID
  5
16B
330
15C
100
AcDbEntity
  8
0
  6
Continuous
 62
    18
370
     0
100
AcDbTrace
 10
194.6753657196
 20
209.056
 30
0.0
 11
195.1753657196
 21
212.056
 31
0.0
 12
194.1753657196
 22
212.056
 32
0.0
 13
194.1753657196
 23
212.056
 33
0.0
  0
SOLID
  5
16C
330
15C
100
AcDbEntity
  8
0
  6
Continuous
 62
    18
370
     0
100
AcDbTrace
 10
194.6753657196
 20
205.056
 30
0.0
 11
194.1753657196
 21
202.056
 31
0.0
 12
195.1753657196
 22
202.056
 32
0.0
 13
195.1753657196
 23
202.056
 33
0.0
  0
LINE
  5
16D
330
15C
100
AcDbEntity
  8
0
  6
Continuous
 62
    18
370
     0
100
AcDbLine
 10
170.583
 20
209.056
 30
0.0
 11
195.1753657196
 21
209.056
 31
0.0
  0
LINE
  5
16E
330
15C
100
AcDbEntity
  8
0
  6
Continuous
 62
    18
370
     0
100
AcDbLine
 10
170.583
 20
205.056
 30
0.0
 11
195.1753657196
 21
205.056
 31
0.0
  0
LINE
  5
16F
330
15C
100
AcDbEntity
  8
0
  6
Continuous
 62
    18
370
     0
100
AcDbLine
 10
194.6753657196
 20
209.056
 30
0.0
 11
194.6753657196
 21
224.4531525635
 31
0.0
  0
LINE
  5
170
330
15C
100
AcDbEntity
  8
0
  6
Continuous
 62
    18
370
     0
100
AcDbLine
 10
194.6753657196
 20
209.056
 30
0.0
 11
194.6753657196
 21
205.056
 31
0.0
  0
LINE
  5
171
330
15C
100
AcDbEntity
  8
0
  6
Continuous
 62
    18
370
     0
100
AcDbLine
 10
194.6753657196
 20
205.056
 30
0.0
 11
194.6753657196
 21
199.556
 31
0.0
  0
MTEXT
  5
172
330
15C
100
AcDbEntity
  8
0
  6
Continuous
 62
    18
370
     0
100
AcDbMText
 10
188.2300270208
 20
211.7601489973
 30
0.0
 40
5.0
 41
0.0
 71
     1
 72
     1
  1
{%%c}
  7
SLDTEXTSTYLE0
 11
-7.044197039909883E-15
 21
1.0
 31
0.0
 73
     1
 44
1.0
  0
MTEXT
  5
173
330
15C
100
AcDbEntity
  8
0
  6
Continuous
 62
    18
370
     0
100
AcDbMText
 10
188.23002737
 20
219.0468755566
 30
0.0
 40
5.0
 41
0.0
 71
     1
 72
     1
  1
{4}
  7
SLDTEXTSTYLE0
 11
-7.044197039909883E-15
 21
1.0
 31
0.0
 73
     1
 44
1.0
  0
ENDBLK
  5
169
330
15C
100
AcDbEntity
  8
0
100
AcDbBlockEnd
  0
BLOCK
  5
180
330
175
100
AcDbEntity
  8
0
100
AcDbBlockBegin
  2
*D15
 70
     1
 71
     0
 10
0.0
 20
0.0
 30
0.0
  3
*D15
  1

  0
SOLID
  5
182
330
175
100
AcDbEntity
  8
0
  6
Continuous
 62
    18
370
     0
100
AcDbTrace
 10
185.8860892255
 20
196.057548293
 30
0.0
 11
186.3860892255
 21
199.057548293
 31
0.0
 12
185.3860892255
 22
199.057548293
 32
0.0
 13
185.3860892255
 23
199.057548293
 33
0.0
  0
SOLID
  5
183
330
175
100
AcDbEntity
  8
0
  6
Continuous
 62
    18
370
     0
100
AcDbTrace
 10
185.8860892255
 20
178.054451707
 30
0.0
 11
185.3860892255
 21
175.054451707
 31
0.0
 12
186.3860892255
 22
175.054451707
 32
0.0
 13
186.3860892255
 23
175.054451707
 33
0.0
  0
LINE
  5
184
330
175
100
AcDbEntity
  8
0
  6
Continuous
 62
    18
370
     0
100
AcDbLine
 10
167.083
 20
196.057548293
 30
0.0
 11
186.3860892255
 21
196.057548293
 31
0.0
  0
LINE
  5
185
330
175
100
AcDbEntity
  8
0
  6
Continuous
 62
    18
370
     0
100
AcDbLine
 10
167.083
 20
178.054451707
 30
0.0
 11
186.3860892255
 21
178.054451707
 31
0.0
  0
LINE
  5
186
330
175
100
AcDbEntity
  8
0
  6
Continuous
 62
    18
370
     0
100
AcDbLine
 10
185.8860892255
 20
196.057548293
 30
0.0
 11
185.8860892255
 21
201.557548293
 31
0.0
  0
LINE
  5
187
330
175
100
AcDbEntity
  8
0
  6
Continuous
 62
    18
370
     0
100
AcDbLine
 10
185.8860892255
 20
196.057548293
 30
0.0
 11
185.8860892255
 21
178.054451707
 31
0.0
  0
LINE
  5
188
330
175
100
AcDbEntity
  8
0
  6
Continuous
 62
    18
370
     0
100
AcDbLine
 10
185.8860892255
 20
178.054451707
 30
0.0
 11
185.8860892255
 21
172.554451707
 31
0.0
  0
MTEXT
  5
189
330
175
100
AcDbEntity
  8
0
  6
Continuous
 62
    18
370
     0
100
AcDbMText
 10
179.4407505267
 20
179.5938597134
 30
0.0
 40
5.0
 41
0.0
 71
     1
 72
     1
  1
{%%c}
  7
SLDTEXTSTYLE0
 11
-7.044197039909883E-15
 21
1.0
 31
0.0
 73
     1
 44
1.0
  0
MTEXT
  5
18A
330
175
100
AcDbEntity
  8
0
  6
Continuous
 62
    18
370
     0
100
AcDbMText
 10
179.4407508759
 20
186.8805862726
 30
0.0
 40
5.0
 41
0.0
 71
     1
 72
     1
  1
{18}
  7
SLDTEXTSTYLE0
 11
-7.044197039909883E-15
 21
1.0
 31
0.0
 73
     1
 44
1.0
  0
ENDBLK
  5
181
330
175
100
AcDbEntity
  8
0
100
AcDbBlockEnd
  0
BLOCK
  5
197
330
18C
100
AcDbEntity
  8
0
100
AcDbBlockBegin
  2
*D16
 70
     1
 71
     0
 10
0.0
 20
0.0
 30
0.0
  3
*D16
  1

  0
SOLID
  5
19A
330
18C
100
AcDbEntity
  8
0
  6
Continuous
 62
    18
370
     0
100
AcDbTrace
 10
154.2791312751
 20
176.0524383079
 30
0.0
 11
153.7791312751
 21
173.0524383079
 31
0.0
 12
154.7791312751
 22
173.0524383079
 32
0.0
 13
154.7791312751
 23
173.0524383079
 33
0.0
  0
SOLID
  5
19B
330
18C
100
AcDbEntity
  8
0
  6
Continuous
 62
    18
370
     0
100
AcDbTrace
 10
154.2791312751
 20
198.0595616921
 30
0.0
 11
154.7791312751
 21
201.0595616921
 31
0.0
 12
153.7791312751
 22
201.0595616921
 32
0.0
 13
153.7791312751
 23
201.0595616921
 33
0.0
  0
LINE
  5
19C
330
18C
100
AcDbEntity
  8
0
  6
Continuous
 62
    18
370
     0
100
AcDbLine
 10
167.183
 20
176.0524383079
 30
0.0
 11
153.7791312751
 21
176.0524383079
 31
0.0
  0
LINE
  5
19D
330
18C
100
AcDbEntity
  8
0
  6
Continuous
 62
    18
370
     0
100
AcDbLine
 10
167.183
 20
198.0595616921
 30
0.0
 11
153.7791312751
 21
198.0595616921
 31
0.0
  0
LINE
  5
19E
330
18C
100
AcDbEntity
  8
0
  6
Continuous
 62
    18
370
     0
100
AcDbLine
 10
154.2791312751
 20
176.0524383079
 30
0.0
 11
154.2791312751
 21
170.5524383079
 31
0.0
  0
LINE
  5
19F
330
18C
100
AcDbEntity
  8
0
  6
Continuous
 62
    18
370
     0
100
AcDbLine
 10
154.2791312751
 20
176.0524383079
 30
0.0
 11
154.2791312751
 21
198.0595616921
 31
0.0
  0
LINE
  5
1A0
330
18C
100
AcDbEntity
  8
0
  6
Continuous
 62
    18
370
     0
100
AcDbLine
 10
154.2791312751
 20
198.0595616921
 30
0.0
 11
154.2791312751
 21
203.5595616921
 31
0.0
  0
MTEXT
  5
1A1
330
18C
100
AcDbEntity
  8
0
  6
Continuous
 62
    18
370
     0
100
AcDbMText
 10
147.8337925762
 20
179.5938597134
 30
0.0
 40
5.0
 41
0.0
 71
     1
 72
     1
  1
{%%c}
  7
SLDTEXTSTYLE0
 11
6.123031769111886E-17
 21
1.0
 31
0.0
 73
     1
 44
1.0
  0
MTEXT
  5
1A2
330
18C
100
AcDbEntity
  8
0
  6
Continuous
 62
    18
370
     0
100
AcDbMText
 10
147.8337929255
 20
186.8805862726
 30
0.0
 40
5.0
 41
0.0
 71
     1
 72
     1
  1
{22}
  7
SLDTEXTSTYLE0
 11
6.123031769111886E-17
 21
1.0
 31
0.0
 73
     1
 44
1.0
  0
ENDBLK
  5
198
330
18C
100
AcDbEntity
  8
0
100
AcDbBlockEnd
  0
BLOCK
  5
1B1
330
1A4
100
AcDbEntity
  8
0
100
AcDbBlockBegin
  2
*D17
 70
     1
 71
     0
 10
0.0
 20
0.0
 30
0.0
  3
*D17
  1

  0
SOLID
  5
1B3
330
1A4
100
AcDbEntity
  8
0
  6
Continuous
 62
    18
370
     0
100
AcDbTrace
 10
167.383
 20
226.670183921
 30
0.0
 11
164.383
 21
227.170183921
 31
0.0
 12
164.383
 22
226.170183921
 32
0.0
 13
164.383
 23
226.170183921
 33
0.0
  0
SOLID
  5
1B4
330
1A4
100
AcDbEntity
  8
0
  6
Continuous
 62
    18
370
     0
100
AcDbTrace
 10
168.883
 20
226.670183921
 30
0.0
 11
171.883
 21
226.170183921
 31
0.0
 12
171.883
 22
227.170183921
 32
0.0
 13
171.883
 23
227.170183921
 33
0.0
  0
LINE
  5
1B5
330
1A4
100
AcDbEntity
  8
0
  6
Continuous
 62
    18
370
     0
100
AcDbLine
 10
167.383
 20
212.256
 30
0.0
 11
167.383
 21
227.170183921
 31
0.0
  0
LINE
  5
1B6
330
1A4
100
AcDbEntity
  8
0
  6
Continuous
 62
    18
370
     0
100
AcDbLine
 10
168.883
 20
212.256
 30
0.0
 11
168.883
 21
227.170183921
 31
0.0
  0
LINE
  5
1B7
330
1A4
100
AcDbEntity
  8
0
  6
Continuous
 62
    18
370
     0
100
AcDbLine
 10
167.383
 20
226.670183921
 30
0.0
 11
161.883
 21
226.670183921
 31
0.0
  0
LINE
  5
1B8
330
1A4
100
AcDbEntity
  8
0
  6
Continuous
 62
    18
370
     0
100
AcDbLine
 10
167.383
 20
226.670183921
 30
0.0
 11
168.883
 21
226.670183921
 31
0.0
  0
LINE
  5
1B9
330
1A4
100
AcDbEntity
  8
0
  6
Continuous
 62
    18
370
     0
100
AcDbLine
 10
168.883
 20
226.670183921
 30
0.0
 11
188.2301467454
 21
226.670183921
 31
0.0
  0
MTEXT
  5
1BA
330
1A4
100
AcDbEntity
  8
0
  6
Continuous
 62
    18
370
     0
100
AcDbMText
 10
173.2749109713
 20
233.1155222706
 30
0.0
 40
5.0
 41
0.0
 71
     1
 72
     1
  1
{1.50}
  7
SLDTEXTSTYLE0
 73
     1
 44
1.0
  0
ENDBLK
  5
1B2
330
1A4
100
AcDbEntity
  8
0
100
AcDbBlockEnd
  0
ENDSEC
  0
SECTION
  2
ENTITIES
  0
LINE
  5
2F
330
1F
100
AcDbEntity
  8
0
  6
CENTERX2
 62
    18
370
     0
100
AcDbLine
 10
75.5871476976
 20
187.056
 30
0.0
 11
80.5138383797
 21
191.982690682
 31
0.0
  0
LINE
  5
30
330
1F
100
AcDbEntity
  8
0
  6
CENTERX2
 62
    18
370
     0
100
AcDbLine
 10
75.471
 20
187.056
 30
0.0
 11
80.4561028074
 21
182.0708971926
 31
0.0
  0
CIRCLE
  5
31
330
1F
100
AcDbEntity
  8
0
  6
Continuous
 62
     7
370
    40
100
AcDbCircle
 10
75.471
 20
167.056
 30
0.0
 40
1.450000000000003
  0
CIRCLE
  5
32
330
1F
100
AcDbEntity
  8
0
  6
Continuous
 62
     7
370
    40
100
AcDbCircle
 10
75.471
 20
167.056
 30
0.0
 40
2.000000000000014
  0
CIRCLE
  5
33
330
1F
100
AcDbEntity
  8
0
  6
Continuous
 62
     7
370
    40
100
AcDbCircle
 10
75.471
 20
207.056
 30
0.0
 40
2.000000000000014
  0
CIRCLE
  5
34
330
1F
100
AcDbEntity
  8
0
  6
Continuous
 62
     7
370
    40
100
AcDbCircle
 10
75.471
 20
207.056
 30
0.0
 40
1.450000000000003
  0
LINE
  5
35
330
1F
100
AcDbEntity
  8
0
  6
Continuous
 62
     7
370
    40
100
AcDbLine
 10
80.4709998882
 20
212.0560003725
 30
0.0
 11
70.4710001118
 21
212.0560003725
 31
0.0
  0
LINE
  5
36
330
1F
100
AcDbEntity
  8
0
  6
Continuous
 62
     7
370
    40
100
AcDbLine
 10
89.4710004321
 20
196.4675426764
 30
0.0
 11
80.4709998882
 21
212.0560003725
 31
0.0
  0
LINE
  5
37
330
1F
100
AcDbEntity
  8
0
  6
Continuous
 62
     7
370
    40
100
AcDbLine
 10
89.4710004321
 20
177.6444573236
 30
0.0
 11
89.4710004321
 21
196.4675426764
 31
0.0
  0
LINE
  5
38
330
1F
100
AcDbEntity
  8
0
  6
Continuous
 62
     7
370
    40
100
AcDbLine
 10
80.4709998882
 20
162.0559996275
 30
0.0
 11
89.4710004321
 21
177.6444573236
 31
0.0
  0
LINE
  5
39
330
1F
100
AcDbEntity
  8
0
  6
Continuous
 62
     7
370
    40
100
AcDbLine
 10
70.4710001118
 20
162.0559996275
 30
0.0
 11
80.4709998882
 21
162.0559996275
 31
0.0
  0
LINE
  5
3A
330
1F
100
AcDbEntity
  8
0
  6
Continuous
 62
     7
370
    40
100
AcDbLine
 10
61.4709995679
 20
177.6444573236
 30
0.0
 11
70.4710001118
 21
162.0559996275
 31
0.0
  0
LINE
  5
3B
330
1F
100
AcDbEntity
  8
0
  6
Continuous
 62
     7
370
    40
100
AcDbLine
 10
61.4709995679
 20
196.4675426764
 30
0.0
 11
61.4709995679
 21
177.6444573236
 31
0.0
  0
LINE
  5
3C
330
1F
100
AcDbEntity
  8
0
  6
Continuous
 62
     7
370
    40
100
AcDbLine
 10
70.4710001118
 20
212.0560003725
 30
0.0
 11
61.4709995679
 21
196.4675426764
 31
0.0
  0
CIRCLE
  5
3D
330
1F
100
AcDbEntity
  8
0
  6
Continuous
 62
     7
370
    40
100
AcDbCircle
 10
75.5871476976
 20
187.056
 30
0.0
 40
9.001548293006167
  0
ARC
  5
3E
330
1F
100
AcDbEntity
  8
0
  6
Continuous
 62
     7
370
    40
100
AcDbCircle
 10
75.471
 20
187.056
 30
0.0
 40
7.050000000000002
100
AcDbArc
 50
127.6656310758
 51
142.3343689242
  0
LINE
  5
3F
330
1F
100
AcDbEntity
  8
0
  6
Continuous
 62
     7
370
    40
100
AcDbLine
 10
69.8902888215
 20
191.3639187162
 30
0.0
 11
69.142504315
 21
192.1117036884
 31
0.0
  0
ARC
  5
40
330
1F
100
AcDbEntity
  8
0
  6
Continuous
 62
     7
370
    40
100
AcDbCircle
 10
75.471
 20
187.056
 30
0.0
 40
8.1
100
AcDbArc
 50
141.3793702084
 51
218.6206297916
  0
LINE
  5
41
330
1F
100
AcDbEntity
  8
0
  6
Continuous
 62
     7
370
    40
100
AcDbLine
 10
69.142504315
 20
182.0002963116
 30
0.0
 11
69.8902888215
 21
182.7480812838
 31
0.0
  0
ARC
  5
42
330
1F
100
AcDbEntity
  8
0
  6
Continuous
 62
     7
370
    40
100
AcDbCircle
 10
75.471
 20
187.056
 30
0.0
 40
7.050000000000013
100
AcDbArc
 50
217.6656310758
 51
232.3343689242
  0
LINE
  5
43
330
1F
100
AcDbEntity
  8
0
  6
Continuous
 62
     7
370
    40
100
AcDbLine
 10
71.1630812838
 20
181.4752888215
 30
0.0
 11
70.4152963116
 21
180.727504315
 31
0.0
  0
ARC
  5
44
330
1F
100
AcDbEntity
  8
0
  6
Continuous
 62
     7
370
    40
100
AcDbCircle
 10
75.471
 20
187.056
 30
0.0
 40
8.1
100
AcDbArc
 50
231.3793702084
 51
308.6206297916
  0
LINE
  5
45
330
1F
100
AcDbEntity
  8
0
  6
Continuous
 62
     7
370
    40
100
AcDbLine
 10
80.5267036884
 20
180.727504315
 30
0.0
 11
79.7789187162
 21
181.4752888215
 31
0.0
  0
ARC
  5
46
330
1F
100
AcDbEntity
  8
0
  6
Continuous
 62
     7
370
    40
100
AcDbCircle
 10
75.471
 20
187.056
 30
0.0
 40
7.050000000000013
100
AcDbArc
 50
307.6656310758
 51
322.3343689242
  0
LINE
  5
47
330
1F
100
AcDbEntity
  8
0
  6
Continuous
 62
     7
370
    40
100
AcDbLine
 10
81.0517111785
 20
182.7480812838
 30
0.0
 11
81.799495685
 21
182.0002963116
 31
0.0
  0
ARC
  5
48
330
1F
100
AcDbEntity
  8
0
  6
Continuous
 62
     7
370
    40
100
AcDbCircle
 10
75.471
 20
187.056
 30
0.0
 40
8.100000000000017
100
AcDbArc
 50
321.3793702084
 51
38.6206297916
  0
LINE
  5
49
330
1F
100
AcDbEntity
  8
0
  6
Continuous
 62
     7
370
    40
100
AcDbLine
 10
81.799495685
 20
192.1117036884
 30
0.0
 11
81.0517111785
 21
191.3639187162
 31
0.0
  0
ARC
  5
4A
330
1F
100
AcDbEntity
  8
0
  6
Continuous
 62
     7
370
    40
100
AcDbCircle
 10
75.471
 20
187.056
 30
0.0
 40
7.050000000000007
100
AcDbArc
 50
37.6656310758
 51
52.3343689242
  0
LINE
  5
4B
330
1F
100
AcDbEntity
  8
0
  6
Continuous
 62
     7
370
    40
100
AcDbLine
 10
79.7789187162
 20
192.6367111785
 30
0.0
 11
80.5267036884
 21
193.384495685
 31
0.0
  0
ARC
  5
4C
330
1F
100
AcDbEntity
  8
0
  6
Continuous
 62
     7
370
    40
100
AcDbCircle
 10
75.471
 20
187.056
 30
0.0
 40
8.099999999999991
100
AcDbArc
 50
51.3793702084
 51
128.6206297916
  0
LINE
  5
4D
330
1F
100
AcDbEntity
  8
0
  6
Continuous
 62
     7
370
    40
100
AcDbLine
 10
70.4152963116
 20
193.384495685
 30
0.0
 11
71.1630812838
 21
192.6367111785
 31
0.0
  0
INSERT
  5
58
330
1F
100
AcDbEntity
  8
0
  6
Continuous
 62
    18
370
     0
100
AcDbBlockReference
  2
SW_ANGULAR_DIMENSION_0
 10
115.5801647189
 20
209.2434428781
 30
0.0
  0
INSERT
  5
62
330
1F
100
AcDbEntity
  8
0
  6
Continuous
 62
    18
370
     0
100
AcDbBlockReference
  2
SW_ANGULAR_DIMENSION_1
 10
115.4590665804
 20
164.8706076617
 30
0.0
  0
DIMENSION
  5
63
330
1F
100
AcDbEntity
  8
0
  6
Continuous
 62
    18
370
     0
100
AcDbDimension
  2
*D3
 10
70.471
 20
226.989
 30
0.0
 11
75.471
 21
226.989
 31
0.0
 70
   160
 71
     1
 42
10.0
  3
SLDDIMSTYLE0
100
AcDbAlignedDimension
 13
80.471
 23
212.056
 33
0.0
 14
70.471
 24
212.056
 34
0.0
100
AcDbRotatedDimension
1001
ACAD
1000
DSTYLE
1002
{
1070
   143
1040
0.0393700787
1070
    41
1040
3.0
1070
    44
1040
0.5
1070
    42
1040
0.2
1070
   147
1040
1.524
1070
    73
1070
     1
1070
    74
1070
     1
1070
   284
1070
    12
1070
    78
1070
    12
1002
}
  0
DIMENSION
  5
78
330
1F
100
AcDbEntity
  8
0
  6
Continuous
 62
    18
370
     0
100
AcDbDimension
  2
*D4
 10
42.27
 20
167.056
 30
0.0
 11
42.27
 21
187.056
 31
0.0
 70
   160
 71
     1
 42
40.0
  3
SLDDIMSTYLE0
100
AcDbAlignedDimension
 13
70.971
 23
207.056
 33
0.0
 14
70.971
 24
167.056
 34
0.0
 50
90.0
100
AcDbRotatedDimension
1001
ACAD
1000
DSTYLE
1002
{
1070
   143
1040
0.0393700787
1070
    41
1040
3.0
1070
    44
1040
0.5
1070
    42
1040
0.2
1070
   147
1040
1.524
1070
    73
1070
     1
1070
    74
1070
     1
1070
   284
1070
    12
1070
    78
1070
    12
1002
}
  0
DIMENSION
  5
8C
330
1F
100
AcDbEntity
  8
0
  6
Continuous
 62
    18
370
     0
100
AcDbDimension
  2
*D5
 10
27.276
 20
212.056
 30
0.0
 11
27.276
 21
187.056
 31
0.0
 70
   160
 71
     1
 42
50.0
  3
SLDDIMSTYLE0
100
AcDbAlignedDimension
 13
70.471
 23
162.056
 33
0.0
 14
70.471
 24
212.056
 34
0.0
 50
90.0
100
AcDbRotatedDimension
1001
ACAD
1000
DSTYLE
1002
{
1070
   143
1040
0.0393700787
1070
    41
1040
3.0
1070
    44
1040
0.5
1070
    42
1040
0.2
1070
   147
1040
1.524
1070
    73
1070
     1
1070
    74
1070
     1
1070
   284
1070
    12
1070
    78
1070
    12
1002
}
  0
DIMENSION
  5
A0
330
1F
100
AcDbEntity
  8
0
  6
Continuous
 62
    18
370
     0
100
AcDbDimension
  2
*D6
 10
89.471
 20
241.371
 30
0.0
 11
75.471
 21
241.371
 31
0.0
 70
   160
 71
     1
 42
28.0
  3
SLDDIMSTYLE0
100
AcDbAlignedDimension
 13
61.471
 23
196.4675427319
 33
0.0
 14
89.471
 24
196.4675427319
 34
0.0
100
AcDbRotatedDimension
1001
ACAD
1000
DSTYLE
1002
{
1070
   143
1040
0.0393700787
1070
    41
1040
3.0
1070
    44
1040
0.5
1070
    42
1040
0.2
1070
   147
1040
1.524
1070
    73
1070
     1
1070
    74
1070
     1
1070
   284
1070
    12
1070
    78
1070
    12
1002
}
  0
DIMENSION
  5
B3
330
1F
100
AcDbEntity
  8
0
  6
Continuous
 62
    18
370
     0
100
AcDbDimension
  2
*D7
 10
75.471
 20
187.056
 30
0.0
 11
101.2702318348
 21
176.2914135866
 31
0.0
 70
   164
  1
<>
 71
     1
 42
8.1
  3
SLDDIMSTYLE1
100
AcDbRadialDimension
 15
82.9463872721
 25
183.936932009
 35
0.0
 40
0.0
1001
ACAD
1000
DSTYLE
1002
{
1070
   143
1040
0.0393700787
1070
    41
1040
3.0
1070
    44
1040
0.5
1070
    42
1040
0.2
1070
   147
1040
1.524
1070
    73
1070
     1
1070
    74
1070
     1
1070
   284
1070
    12
1070
    78
1070
    12
1002
}
  0
DIMENSION
  5
C5
330
1F
100
AcDbEntity
  8
0
  6
Continuous
 62
    18
370
     0
100
AcDbDimension
  2
*D8
 10
75.471
 20
187.056
 30
0.0
 11
100.9562924906
 21
194.862114837
 31
0.0
 70
   164
  1
<>
 71
     1
 42
7.05
  3
SLDDIMSTYLE1
100
AcDbRadialDimension
 15
82.2118773619
 25
189.1207208992
 35
0.0
 40
0.0
1001
ACAD
1000
DSTYLE
1002
{
1070
   143
1040
0.0393700787
1070
    41
1040
3.0
1070
    44
1040
0.5
1070
    42
1040
0.2
1070
   147
1040
1.524
1070
    73
1070
     1
1070
    74
1070
     1
1070
   284
1070
    12
1070
    78
1070
    12
1002
}
  0
DIMENSION
  5
D7
330
1F
100
AcDbEntity
  8
0
  6
Continuous
 62
    18
370
     0
100
AcDbDimension
  2
*D9
 10
57.8083633611
 20
168.1205711549
 30
0.0
 11
50.2806210287
 21
175.6483134873
 31
0.0
 70
   160
 71
     1
 42
1.8
  3
SLDDIMSTYLE2
100
AcDbAlignedDimension
 13
69.1425041086
 23
182.0002963148
 33
0.0
 14
70.4152963148
 24
180.7275041086
 34
0.0
 50
-45.0
100
AcDbRotatedDimension
1001
ACAD
1000
DSTYLE
1002
{
1070
   143
1040
0.0393700787
1070
    41
1040
3.0
1070
    44
1040
0.5
1070
    42
1040
0.2
1070
   147
1040
1.524
1070
    73
1070
     1
1070
    74
1070
     1
1070
   284
1070
    12
1070
    78
1070
    12
1002
}
  0
INSERT
  5
FB
330
1F
100
AcDbEntity
  8
0
  6
Continuous
 62
    18
370
     0
100
AcDbBlockReference
  2
SW_CENTERMARKSYMBOL_0
 10
75.471
 20
187.056
 30
0.0
  0
INSERT
  5
107
330
1F
100
AcDbEntity
  8
0
  6
Continuous
 62
    18
370
     0
100
AcDbBlockReference
  2
SW_CENTERMARKSYMBOL_1
 10
75.471
 20
207.056
 30
0.0
  0
INSERT
  5
113
330
1F
100
AcDbEntity
  8
0
  6
Continuous
 62
    18
370
     0
100
AcDbBlockReference
  2
SW_CENTERMARKSYMBOL_2
 10
75.471
 20
167.056
 30
0.0
  0
ARC
  5
114
330
1F
100
AcDbEntity
  8
0
  6
Continuous
 62
     7
370
    40
100
AcDbCircle
 10
167.283
 20
176.0524383079
 30
0.0
 40
0.1000000000000031
100
AcDbArc
 50
0.0
 51
62.9
  0
ARC
  5
115
330
1F
100
AcDbEntity
  8
0
  6
Continuous
 62
     7
370
    40
100
AcDbCircle
 10
167.283
 20
198.0595616921
 30
0.0
 40
0.1000000000000031
100
AcDbArc
 50
297.1
 51
0.0
  0
LINE
  5
116
330
1F
100
AcDbEntity
  8
0
  6
Continuous
 62
     7
370
    40
100
AcDbLine
 10
167.3285544894
 20
197.9705408496
 30
0.0
 11
166.1996826079
 21
197.3928675336
 31
0.0
  0
LINE
  5
117
330
1F
100
AcDbEntity
  8
0
  6
Continuous
 62
     7
370
    40
100
AcDbLine
 10
166.1996826079
 20
176.7191324664
 30
0.0
 11
167.3285544894
 21
176.1414591504
 31
0.0
  0
ARC
  5
118
330
1F
100
AcDbEntity
  8
0
  6
Continuous
 62
     7
370
    40
100
AcDbCircle
 10
166.883
 20
178.054451707
 30
0.0
 40
1.50000000000002
100
AcDbArc
 50
180.0
 51
242.9
  0
ARC
  5
119
330
1F
100
AcDbEntity
  8
0
  6
Continuous
 62
     7
370
    40
100
AcDbCircle
 10
166.883
 20
196.057548293
 30
0.0
 40
1.5
100
AcDbArc
 50
117.1
 51
180.0
  0
LINE
  5
11A
330
1F
100
AcDbEntity
  8
0
  6
Continuous
 62
     7
370
    40
100
AcDbLine
 10
168.883000013
 20
165.0560001192
 30
0.0
 11
170.3830000261
 21
165.0560001192
 31
0.0
  0
LINE
  5
11B
330
1F
100
AcDbEntity
  8
0
  6
Continuous
 62
     7
370
    40
100
AcDbLine
 10
170.3830000261
 20
169.0560007749
 30
0.0
 11
168.883000013
 21
169.0560007749
 31
0.0
  0
LINE
  5
11C
330
1F
100
AcDbEntity
  8
0
  6
Continuous
 62
     7
370
    40
100
AcDbLine
 10
168.883000013
 20
205.0559992251
 30
0.0
 11
170.3830000261
 21
205.0559992251
 31
0.0
  0
LINE
  5
11D
330
1F
100
AcDbEntity
  8
0
  6
Continuous
 62
     7
370
    40
100
AcDbLine
 10
170.3830000261
 20
209.0559998808
 30
0.0
 11
168.883000013
 21
209.0559998808
 31
0.0
  0
LINE
  5
11E
330
1F
100
AcDbEntity
  8
0
  6
Continuous
 62
     7
370
    40
100
AcDbLine
 10
168.883000013
 20
196.4675426764
 30
0.0
 11
167.383
 21
196.4675426764
 31
0.0
  0
LINE
  5
11F
330
1F
100
AcDbEntity
  8
0
  6
Continuous
 62
     7
370
    40
100
AcDbLine
 10
168.883000013
 20
196.4675426764
 30
0.0
 11
168.883000013
 21
177.6444573236
 31
0.0
  0
LINE
  5
120
330
1F
100
AcDbEntity
  8
0
  6
Continuous
 62
     7
370
    40
100
AcDbLine
 10
168.883000013
 20
177.6444573236
 30
0.0
 11
167.383
 21
177.6444573236
 31
0.0
  0
LINE
  5
121
330
1F
100
AcDbEntity
  8
0
  6
Continuous
 62
     7
370
    40
100
AcDbLine
 10
167.383
 20
196.4675426764
 30
0.0
 11
167.383
 21
177.6444573236
 31
0.0
  0
LINE
  5
122
330
1F
100
AcDbEntity
  8
0
  6
Continuous
 62
     7
370
    40
100
AcDbLine
 10
168.883000013
 20
212.0560003725
 30
0.0
 11
167.383
 21
212.0560003725
 31
0.0
  0
LINE
  5
123
330
1F
100
AcDbEntity
  8
0
  6
Continuous
 62
     7
370
    40
100
AcDbLine
 10
168.883000013
 20
212.0560003725
 30
0.0
 11
168.883000013
 21
196.4675426764
 31
0.0
  0
LINE
  5
124
330
1F
100
AcDbEntity
  8
0
  6
Continuous
 62
     7
370
    40
100
AcDbLine
 10
167.383
 20
212.0560003725
 30
0.0
 11
167.383
 21
196.4675426764
 31
0.0
  0
LINE
  5
125
330
1F
100
AcDbEntity
  8
0
  6
Continuous
 62
     7
370
    40
100
AcDbLine
 10
168.883000013
 20
177.6444573236
 30
0.0
 11
168.883000013
 21
162.0559996275
 31
0.0
  0
LINE
  5
126
330
1F
100
AcDbEntity
  8
0
  6
Continuous
 62
     7
370
    40
100
AcDbLine
 10
168.883000013
 20
162.0559996275
 30
0.0
 11
167.383
 21
162.0559996275
 31
0.0
  0
LINE
  5
127
330
1F
100
AcDbEntity
  8
0
  6
Continuous
 62
     7
370
    40
100
AcDbLine
 10
167.383
 20
177.6444573236
 30
0.0
 11
167.383
 21
162.0559996275
 31
0.0
  0
LINE
  5
128
330
1F
100
AcDbEntity
  8
0
  6
Continuous
 62
     7
370
    40
100
AcDbLine
 10
165.382999905
 20
187.056
 30
0.0
 11
165.382999905
 21
196.057548402
 31
0.0
  0
LINE
  5
129
330
1F
100
AcDbEntity
  8
0
  6
Continuous
 62
     7
370
    40
100
AcDbLine
 10
165.382999905
 20
178.054451598
 30
0.0
 11
165.382999905
 21
187.056
 31
0.0
  0
LINE
  5
12A
330
1F
100
AcDbEntity
  8
0
  6
Continuous
 62
     7
370
    40
100
AcDbLine
 10
170.3830000261
 20
169.0560007749
 30
0.0
 11
170.3830000261
 21
165.0560001192
 31
0.0
  0
LINE
  5
12B
330
1F
100
AcDbEntity
  8
0
  6
Continuous
 62
     7
370
    40
100
AcDbLine
 10
170.3830000261
 20
209.0559998808
 30
0.0
 11
170.3830000261
 21
205.0559992251
 31
0.0
  0
LINE
  5
12C
330
1F
100
AcDbEntity
  8
0
  6
HIDDEN
 62
     7
370
     0
100
AcDbLine
 10
166.8829999762
 20
196.057548402
 30
0.0
 11
166.8829999762
 21
178.054451598
 31
0.0
  0
LINE
  5
12D
330
1F
100
AcDbEntity
  8
0
  6
HIDDEN
 62
     7
370
     0
100
AcDbLine
 10
165.382999905
 20
182.7480812838
 30
0.0
 11
166.8829999762
 21
182.7480812838
 31
0.0
  0
LINE
  5
12E
330
1F
100
AcDbEntity
  8
0
  6
HIDDEN
 62
     7
370
     0
100
AcDbLine
 10
165.382999905
 20
182.0002963116
 30
0.0
 11
166.8829999762
 21
182.0002963116
 31
0.0
  0
LINE
  5
12F
330
1F
100
AcDbEntity
  8
0
  6
HIDDEN
 62
     7
370
     0
100
AcDbLine
 10
165.382999905
 20
191.3639187162
 30
0.0
 11
166.8829999762
 21
191.3639187162
 31
0.0
  0
LINE
  5
130
330
1F
100
AcDbEntity
  8
0
  6
HIDDEN
 62
     7
370
     0
100
AcDbLine
 10
165.382999905
 20
192.1117036884
 30
0.0
 11
166.8829999762
 21
192.1117036884
 31
0.0
  0
LINE
  5
131
330
1F
100
AcDbEntity
  8
0
  6
HIDDEN
 62
     7
370
     0
100
AcDbLine
 10
165.382999905
 20
181.4752888215
 30
0.0
 11
166.8829999762
 21
181.4752888215
 31
0.0
  0
LINE
  5
132
330
1F
100
AcDbEntity
  8
0
  6
HIDDEN
 62
     7
370
     0
100
AcDbLine
 10
165.382999905
 20
180.727504315
 30
0.0
 11
166.8829999762
 21
180.727504315
 31
0.0
  0
LINE
  5
133
330
1F
100
AcDbEntity
  8
0
  6
HIDDEN
 62
     7
370
     0
100
AcDbLine
 10
165.382999905
 20
193.384495685
 30
0.0
 11
166.8829999762
 21
193.384495685
 31
0.0
  0
LINE
  5
134
330
1F
100
AcDbEntity
  8
0
  6
HIDDEN
 62
     7
370
     0
100
AcDbLine
 10
165.382999905
 20
192.6367111785
 30
0.0
 11
166.8829999762
 21
192.6367111785
 31
0.0
  0
ARC
  5
135
330
1F
100
AcDbEntity
  8
0
  6
HIDDEN
 62
     7
370
     0
100
AcDbCircle
 10
167.283
 20
176.0524383079
 30
0.0
 40
1.599999999999998
100
AcDbArc
 50
0.0
 51
62.9
  0
ARC
  5
136
330
1F
100
AcDbEntity
  8
0
  6
HIDDEN
 62
     7
370
     0
100
AcDbCircle
 10
167.283
 20
198.0595616921
 30
0.0
 40
1.599999999999998
100
AcDbArc
 50
297.1
 51
0.0
  0
LINE
  5
137
330
1F
100
AcDbEntity
  8
0
  6
HIDDEN
 62
     7
370
     0
100
AcDbLine
 10
168.0118718432
 20
196.6352207867
 30
0.0
 11
166.8829999762
 21
196.057548402
 31
0.0
  0
LINE
  5
138
330
1F
100
AcDbEntity
  8
0
  6
HIDDEN
 62
     7
370
     0
100
AcDbLine
 10
166.8829999762
 20
178.054451598
 30
0.0
 11
168.0118718432
 21
177.4767792133
 31
0.0
  0
LINE
  5
139
330
1F
100
AcDbEntity
  8
0
  6
HIDDEN
 62
     7
370
     0
100
AcDbLine
 10
165.382999905
 20
178.9559997899
 30
0.0
 11
166.8829999762
 21
178.9559997899
 31
0.0
  0
LINE
  5
13A
330
1F
100
AcDbEntity
  8
0
  6
HIDDEN
 62
     7
370
     0
100
AcDbLine
 10
166.8829999762
 20
195.1560002101
 30
0.0
 11
165.382999905
 21
195.1560002101
 31
0.0
  0
ARC
  5
13B
330
1F
100
AcDbEntity
  8
0
  6
HIDDEN
 62
     7
370
     0
100
AcDbCircle
 10
167.983
 20
205.006
 30
0.0
 40
0.6000000000000227
100
AcDbArc
 50
90.0
 51
180.0
  0
ARC
  5
13C
330
1F
100
AcDbEntity
  8
0
  6
HIDDEN
 62
     7
370
     0
100
AcDbCircle
 10
167.983
 20
209.106
 30
0.0
 40
0.6000000000000227
100
AcDbArc
 50
180.0
 51
270.0
  0
ARC
  5
13D
330
1F
100
AcDbEntity
  8
0
  6
HIDDEN
 62
     7
370
     0
100
AcDbCircle
 10
167.983
 20
165.006
 30
0.0
 40
0.5999999999999943
100
AcDbArc
 50
90.0
 51
180.0
  0
ARC
  5
13E
330
1F
100
AcDbEntity
  8
0
  6
HIDDEN
 62
     7
370
     0
100
AcDbCircle
 10
167.983
 20
169.106
 30
0.0
 40
0.5999999999999943
100
AcDbArc
 50
180.0
 51
270.0
  0
LINE
  5
13F
330
1F
100
AcDbEntity
  8
0
  6
HIDDEN
 62
     7
370
     0
100
AcDbLine
 10
167.9830000285
 20
165.6060001162
 30
0.0
 11
170.3830000261
 21
165.6060001162
 31
0.0
  0
LINE
  5
140
330
1F
100
AcDbEntity
  8
0
  6
HIDDEN
 62
     7
370
     0
100
AcDbLine
 10
170.3830000261
 20
168.5060007778
 30
0.0
 11
167.9830000285
 21
168.5060007778
 31
0.0
  0
LINE
  5
141
330
1F
100
AcDbEntity
  8
0
  6
HIDDEN
 62
     7
370
     0
100
AcDbLine
 10
167.9830000285
 20
205.6059992222
 30
0.0
 11
170.3830000261
 21
205.6059992222
 31
0.0
  0
LINE
  5
142
330
1F
100
AcDbEntity
  8
0
  6
HIDDEN
 62
     7
370
     0
100
AcDbLine
 10
170.3830000261
 20
208.5059998838
 30
0.0
 11
167.9830000285
 21
208.5059998838
 31
0.0
  0
DIMENSION
  5
143
330
1F
100
AcDbEntity
  8
0
  6
Continuous
 62
    18
370
     0
100
AcDbDimension
  2
*D13
 10
168.883
 20
241.0918415895
 30
0.0
 11
164.6793521437
 21
241.0918415895
 31
0.0
 70
   160
 71
     1
 42
3.5
  3
SLDDIMSTYLE2
100
AcDbAlignedDimension
 13
165.383
 23
195.156
 33
0.0
 14
168.883
 24
212.056
 34
0.0
100
AcDbRotatedDimension
1001
ACAD
1000
DSTYLE
1002
{
1070
   143
1040
0.0393700787
1070
    41
1040
3.0
1070
    44
1040
0.5
1070
    42
1040
0.2
1070
   147
1040
1.524
1070
    73
1070
     1
1070
    74
1070
     1
1070
   284
1070
    12
1070
    78
1070
    12
1002
}
  0
DIMENSION
  5
15B
330
1F
100
AcDbEntity
  8
0
  6
Continuous
 62
    18
370
     0
100
AcDbDimension
  2
*D14
 10
194.6753657196
 20
205.056
 30
0.0
 11
194.6753657196
 21
217.3129007804
 31
0.0
 70
   160
  1
%%c<>
 71
     1
 42
4.0
  3
SLDDIMSTYLE0
100
AcDbAlignedDimension
 13
170.383
 23
209.056
 33
0.0
 14
170.383
 24
205.056
 34
0.0
 50
90.0
100
AcDbRotatedDimension
1001
ACAD
1000
DSTYLE
1002
{
1070
   143
1040
0.0393700787
1070
    41
1040
3.0
1070
    44
1040
0.5
1070
    42
1040
0.2
1070
   147
1040
1.524
1070
    73
1070
     1
1070
    74
1070
     1
1070
   284
1070
    12
1070
    78
1070
    12
1002
}
  0
DIMENSION
  5
174
330
1F
100
AcDbEntity
  8
0
  6
Continuous
 62
    18
370
     0
100
AcDbDimension
  2
*D15
 10
185.8860892255
 20
178.054451707
 30
0.0
 11
185.8860892255
 21
187.056
 31
0.0
 70
   160
  1
%%c<>
 71
     1
 42
18.003096586
  3
SLDDIMSTYLE0
100
AcDbAlignedDimension
 13
166.883
 23
196.057548293
 33
0.0
 14
166.883
 24
178.054451707
 34
0.0
 50
90.0
100
AcDbRotatedDimension
1001
ACAD
1000
DSTYLE
1002
{
1070
   143
1040
0.0393700787
1070
    41
1040
3.0
1070
    44
1040
0.5
1070
    42
1040
0.2
1070
   147
1040
1.524
1070
    73
1070
     1
1070
    74
1070
     1
1070
   284
1070
    12
1070
    78
1070
    12
1002
}
  0
DIMENSION
  5
18B
330
1F
100
AcDbEntity
  8
0
  6
Continuous
 62
    18
370
     0
100
AcDbDimension
  2
*D16
 10
154.2791312751
 20
198.0595616921
 30
0.0
 11
154.2791312751
 21
187.056
 31
0.0
 70
   160
  1
%%c<>
 71
     1
 42
22.0071233842
  3
SLDDIMSTYLE3
100
AcDbAlignedDimension
 13
167.383
 23
176.0524383079
 33
0.0
 14
167.383
 24
198.0595616921
 34
0.0
 50
90.0
100
AcDbRotatedDimension
1001
ACAD
1000
DSTYLE
1002
{
1070
   143
1040
0.0393700787
1070
    41
1040
3.0
1070
    44
1040
0.5
1070
    42
1040
0.2
1070
   147
1040
1.524
1070
    73
1070
     1
1070
    74
1070
     1
1070
   284
1070
    12
1070
    78
1070
    12
1002
}
  0
DIMENSION
  5
1A3
330
1F
100
AcDbEntity
  8
0
  6
Continuous
 62
    18
370
     0
100
AcDbDimension
  2
*D17
 10
168.883
 20
226.670183921
 30
0.0
 11
179.9587788583
 21
226.670183921
 31
0.0
 70
   160
 71
     1
 42
1.5
  3
SLDDIMSTYLE2
100
AcDbAlignedDimension
 13
167.383
 23
212.056
 33
0.0
 14
168.883
 24
212.056
 34
0.0
100
AcDbRotatedDimension
1001
ACAD
1000
DSTYLE
1002
{
1070
   143
1040
0.0393700787
1070
    41
1040
3.0
1070
    44
1040
0.5
1070
    42
1040
0.2
1070
   147
1040
1.524
1070
    73
1070
     1
1070
    74
1070
     1
1070
   284
1070
    12
1070
    78
1070
    12
1002
}
  0
LINE
  5
1BB
330
1F
100
AcDbEntity
  8
0
  6
CENTERX2
 62
     7
370
     0
100
AcDbLine
 10
170.0118718516
 20
187.056
 30
0.0
 11
163.383
 21
187.056
 31
0.0
  0
LINE
  5
1BC
330
1F
100
AcDbEntity
  8
0
  6
CENTERX2
 62
     7
370
     0
100
AcDbLine
 10
172.383
 20
207.056
 30
0.0
 11
165.983
 21
207.056
 31
0.0
  0
LINE
  5
1BD
330
1F
100
AcDbEntity
  8
0
  6
CENTERX2
 62
     7
370
     0
100
AcDbLine
 10
172.383
 20
167.056
 30
0.0
 11
165.983
 21
167.056
 31
0.0
  0
ENDSEC
  0
SECTION
  2
OBJECTS
  0
DICTIONARY
  5
C
330
0
100
AcDbDictionary
281
     1
  3
ACAD_GROUP
350
D
  3
ACAD_LAYOUT
350
1A
  3
ACAD_MLINESTYLE
350
17
  3
ACAD_PLOTSETTINGS
350
19
  3
ACAD_PLOTSTYLENAME
350
E
  0
DICTIONARY
  5
D
102
{ACAD_REACTORS
330
C
102
}
330
C
100
AcDbDictionary
281
     1
  0
DICTIONARY
  5
1A
102
{ACAD_REACTORS
330
C
102
}
330
C
100
AcDbDictionary
281
     1
  3
Layout1
350
1E
  3
Layout2
350
26
  3
Model
350
22
  0
DICTIONARY
  5
17
102
{ACAD_REACTORS
330
C
102
}
330
C
100
AcDbDictionary
281
     1
  3
Standard
350
18
  0
DICTIONARY
  5
19
102
{ACAD_REACTORS
330
C
102
}
330
C
100
AcDbDictionary
281
     1
  0
ACDBDICTIONARYWDFLT
  5
E
102
{ACAD_REACTORS
330
C
102
}
330
C
100
AcDbDictionary
281
     1
  3
Normal
350
F
100
AcDbDictionaryWithDefault
340
F
  0
LAYOUT
  5
1E
102
{ACAD_REACTORS
330
1A
102
}
330
1A
100
AcDbPlotSettings
  1

  2

  4

  6

 40
0.0
 41
0.0
 42
0.0
 43
0.0
 44
0.0
 45
0.0
 46
0.0
 47
0.0
 48
0.0
 49
0.0
140
0.0
141
0.0
142
1.0
143
1.0
 70
   688
 72
     0
 73
     0
 74
     5
  7

 75
    16
147
1.0
148
0.0
149
0.0
100
AcDbLayout
  1
Layout1
 70
     1
 71
     1
 10
0.0
 20
0.0
 11
0.0
 21
0.0
 12
0.0
 22
0.0
 32
0.0
 14
0.0
 24
0.0
 34
0.0
 15
0.0
 25
0.0
 35
0.0
146
0.0
 13
0.0
 23
0.0
 33
0.0
 16
1.0
 26
0.0
 36
0.0
 17
0.0
 27
1.0
 37
0.0
 76
     0
330
1B
  0
LAYOUT
  5
26
102
{ACAD_REACTORS
330
1A
102
}
330
1A
100
AcDbPlotSettings
  1

  2

  4

  6

 40
0.0
 41
0.0
 42
0.0
 43
0.0
 44
0.0
 45
0.0
 46
0.0
 47
0.0
 48
0.0
 49
0.0
140
0.0
141
0.0
142
1.0
143
1.0
 70
   688
 72
     0
 73
     0
 74
     5
  7

 75
    16
147
1.0
148
0.0
149
0.0
100
AcDbLayout
  1
Layout2
 70
     1
 71
     2
 10
0.0
 20
0.0
 11
0.0
 21
0.0
 12
0.0
 22
0.0
 32
0.0
 14
0.0
 24
0.0
 34
0.0
 15
0.0
 25
0.0
 35
0.0
146
0.0
 13
0.0
 23
0.0
 33
0.0
 16
1.0
 26
0.0
 36
0.0
 17
0.0
 27
1.0
 37
0.0
 76
     0
330
23
  0
LAYOUT
  5
22
102
{ACAD_REACTORS
330
1A
102
}
330
1A
100
AcDbPlotSettings
  1

  2

  4

  6

 40
0.0
 41
0.0
 42
0.0
 43
0.0
 44
0.0
 45
0.0
 46
0.0
 47
0.0
 48
0.0
 49
0.0
140
0.0
141
0.0
142
1.0
143
1.0
 70
  1712
 72
     0
 73
     0
 74
     0
  7

 75
     0
147
1.0
148
0.0
149
0.0
100
AcDbLayout
  1
Model
 70
     1
 71
     0
 10
0.0
 20
0.0
 11
0.0
 21
0.0
 12
0.0
 22
0.0
 32
0.0
 14
0.0
 24
0.0
 34
0.0
 15
210.0
 25
297.0
 35
0.0
146
0.0
 13
0.0
 23
0.0
 33
0.0
 16
1.0
 26
0.0
 36
0.0
 17
0.0
 27
1.0
 37
0.0
 76
     0
330
1F
  0
MLINESTYLE
  5
18
102
{ACAD_REACTORS
330
17
102
}
330
17
100
AcDbMlineStyle
  2
Standard
 70
     0
  3

 62
   256
 51
90.0
 52
90.0
 71
     2
 49
0.5
 62
   256
  6
BYLAYER
 49
-0.5
 62
   256
  6
BYLAYER
  0
ACDBPLACEHOLDER
  5
F
102
{ACAD_REACTORS
330
E
102
}
330
E
  0
ENDSEC
  0
EOF
