  0
SECTION
  2
HEADER
  9
$ACADVER
  1
AC1009
  9
$INSBASE
 10
0
 20
0
  9
$EXTMIN
 10
-25.9463587333802
 20
-125.8646550995795
  9
$EXTMAX
 10
110.234606692582
 20
127.258339309016
  9
$LIMMIN
 10
-25.9463587333802
 20
-125.8646550995795
  9
$LIMMAX
 10
110.234606692582
 20
127.258339309016
  9
$VIEWCTR
 10
10
 20
10
  9
$VIEWSIZE
 40
10
  9
$SNAPMODE
 70
0
  9
$SNAPUNIT
 10
1
 20
1
  9
$SNAPBASE
 10
0
 20
0
  9
$SNAPANG
 50
0
  9
$SNAPSTYLE
 70
0
  9
$SNAPISOPAIR
 70
0
  9
$GRIDMODE
 70
0
  9
$GRIDUNIT
 10
0
 20
0
  9
$ORTHOMODE
 70
0
  9
$REGENMODE
 70
1
  9
$FILLMODE
 70
1
  9
$QTEXTMODE
 70
0
  9
$DRAGMODE
 70
2
  9
$LTSCALE
 40
1
  9
$OSMODE
 70
0
  9
$ATTMODE
 70
1
  9
$TEXTSIZE
 40
3.5
  9
$TRACEWID
 40
0.5
  9
$TEXTSTYLE
  7
STANDARD
  9
$CLAYER
  8
0
  9
$CELTYPE
  6
BYLAYER
  9
$CECOLOR
 62
256
  9
$DIMSCALE
 40
1
  9
$DIMASZ
 40
0.18
  9
$DIMEXO
 40
0.0625
  9
$DIMDLI
 40
0.38
  9
$DIMRND
 40
0
  9
$DIMDLE
 40
0
  9
$DIMEXE
 40
0.18
  9
$DIMTP
 40
0
  9
$DIMTM
 40
0
  9
$DIMTXT
 40
0.18
  9
$DIMCEN
 40
0.09
  9
$DIMTSZ
 40
0
  9
$DIMTOL
 70
0
  9
$DIMLIM
 70
0
  9
$DIMTIH
 70
1
  9
$DIMTOH
 70
1
  9
$DIMSE1
 70
0
  9
$DIMSE2
 70
0
  9
$DIMTAD
 70
0
  9
$DIMZIN
 70
0
  9
$DIMBLK
  1

  9
$DIMASO
 70
1
  9
$DIMSHO
 70
1
  9
$DIMPOST
  1

  9
$DIMAPOST
  1

  9
$DIMALT
 70
0
  9
$DIMALTD
 70
2
  9
$DIMALTF
 40
25.4
  9
$DIMLFAC
 40
1
  9
$DIMTOFL
 70
0
  9
$DIMTVP
 40
0
  9
$DIMTIX
 70
0
  9
$DIMSOXD
 70
0
  9
$DIMSAH
 70
0
  9
$DIMBLK1
  1

  9
$DIMBLK2
  1

  9
$DIMSTYLE
  2
*UNNAMED
  9
$DIMCLRD
 70
0
  9
$DIMCLRE
 70
0
  9
$DIMCLRT
 70
0
  9
$DIMTFAC
 40
1
  9
$DIMGAP
 40
0.09
  9
$LUNITS
 70
2
  9
$LUPREC
 70
4
  9
$AXISMODE
 70
0
  9
$AXISUNIT
 10
0
 20
0
  9
$SKETCHINC
 40
0.1
  9
$FILLETRAD
 40
2
  9
$AUNITS
 70
0
  9
$AUPREC
 70
0
  9
$MENU
  1
ACAD
  9
$ELEVATION
 40
0
  9
$THICKNESS
 40
0
  9
$VIEWDIR
 10
0
 20
0
 30
1
  9
$LIMCHECK
 70
0
  9
$BLIPMODE
 70
1
  9
$CHAMFERA
 40
0
  9
$CHAMFERB
 40
0
  9
$FASTZOOM
 70
1
  9
$SKPOLY
 70
0
  9
$ANGBASE
 50
0
  9
$ANGDIR
 70
0
  9
$PDMODE
 70
0
  9
$PDSIZE
 40
0
  9
$PLINEWID
 40
0
  9
$COORDS
 70
2
  0
ENDSEC
  0
SECTION
  2
TABLES
  0
TABLE
  2
DIMSTYLE
 70
1
  0
DIMSTYLE
  2
DMST_1
 70
0
  3

  4

  5

  6

  7

 40
1
 41
5
 42
0
 43
7
 44
1.5
 45
0
 46
0
 47
0
 48
0
140
5
141
0
142
0
143
25.4
144
1
145
0
146
1
147
0.09
 71
0
 72
0
 73
0
 74
0
 75
0
 76
0
 77
1
 78
1
170
0
171
2
172
0
173
0
174
0
175
0
176
1
177
1
178
7
  0
ENDTAB
  0
TABLE
  2
LTYPE
 70
9
  0
LTYPE
  2
CONTINUOUS
 70
64
  3
Solid line
 72
65
 73
0
 40
0
  0
LTYPE
  2
BORDER
 70
64
  3
__ __ . __ __ .
 72
65
 73
6
 40
11.656980005659
 49
3.330565715902572
 49
-1.665282857951286
 49
3.330565715902572
 49
-1.665282857951286
 49
0
 49
-1.665282857951286
  0
LTYPE
  2
CENTER
 70
64
  3
____ _ ____ _
 72
65
 73
4
 40
13.32226286361029
 49
8.32641428975643
 49
-1.665282857951286
 49
1.665282857951286
 49
-1.665282857951286
  0
LTYPE
  2
DASHDOT
 70
64
  3
__ . __ . __ .
 72
65
 73
4
 40
6.661131431805145
 49
3.330565715902572
 49
-1.665282857951286
 49
0
 49
-1.665282857951286
  0
LTYPE
  2
DASHED
 70
64
  3
__ __ __ __ __
 72
65
 73
2
 40
4.995848573853858
 49
3.330565715902572
 49
-1.665282857951286
  0
LTYPE
  2
DIVIDE
 70
64
  3
__ . . __ . . 
 72
65
 73
6
 40
8.32641428975643
 49
3.330565715902572
 49
-1.665282857951286
 49
0
 49
-1.665282857951286
 49
0
 49
-1.665282857951286
  0
LTYPE
  2
DOT
 70
64
  3
..............
 72
65
 73
4
 40
3.330565715902572
 49
0
 49
-1.665282857951286
 49
0
 49
-1.665282857951286
  0
LTYPE
  2
HIDDEN
 70
64
  3
_ _ _ _ _ _ _
 72
65
 73
2
 40
2.497924286926929
 49
1.665282857951286
 49
-0.8326414289756431
  0
LTYPE
  2
PHANTOM
 70
64
  3
_____ _ _ _____ _ _ 
 72
65
 73
6
 40
16.65282857951286
 49
8.32641428975643
 49
-1.665282857951286
 49
1.665282857951286
 49
-1.665282857951286
 49
1.665282857951286
 49
-1.665282857951286
  0
ENDTAB
  0
TABLE
  2
LAYER
 70
3
  0
LAYER
  2
1
 70
0
 62
7
  6
CONTINUOUS
  0
LAYER
  2
0
 70
0
 62
7
  6
CONTINUOUS
  0
ENDTAB
  0
TABLE
  2
STYLE
 70
4
  0
STYLE
  2
STANDARD
 70
0
 40
0
 41
1
 50
0
 71
0
 42
3.5
  3
txt
  4

  0
STYLE
  2
SIMPLEX
 70
0
 40
0
 41
1
 50
0
 71
0
 42
3.5
  3
simplex
  4

  0
STYLE
  2
COMPLEX
 70
0
 40
0
 41
1
 50
0
 71
0
 42
3.5
  3
complex
  4

  0
STYLE
  2
ITALIC
 70
0
 40
0
 41
1
 50
0
 71
0
 42
3.5
  3
italic
  4

  0
ENDTAB
  0
TABLE
  2
VIEW
 70
0
  0
ENDTAB
  0
ENDSEC
  0
SECTION
  2
BLOCKS
  0
BLOCK
  8
1
  2
*D0
 70
1
 10
0
 20
0
 30
0
  0
LINE
  8
1
 62
1
 10
88.0962333487148
 20
-4.425513453361802
 30
0
 11
88.0962333487148
 21
5.5744865466382
 31
0
  0
LINE
  8
1
 62
1
 10
88.0962333487148
 20
-10.4255134533618
 30
0
 11
88.0962333487148
 21
-20.4255134533618
 31
0
  0
LINE
  8
1
 62
1
 10
88.0962333487148
 20
-10.4255134533618
 30
0
 11
88.0962333487148
 21
-4.425513453361802
 31
0
  0
LINE
  8
1
 62
1
 10
51.1062333487148
 20
-4.425513453361802
 30
0
 11
89.5962333487148
 21
-4.425513453361802
 31
0
  0
LINE
  8
1
 62
1
 10
55.5062333487148
 20
-10.4255134533618
 30
0
 11
89.5962333487148
 21
-10.4255134533618
 31
0
  0
SOLID
  8
1
 62
1
 10
88.0962333487148
 20
-10.4255134533618
 30
0
 11
88.74623334871481
 21
-15.4255134533618
 31
0
 12
87.4462333487148
 22
-15.4255134533618
 32
0
 13
87.4462333487148
 23
-15.4255134533618
 33
0
  0
SOLID
  8
1
 62
1
 10
88.0962333487148
 20
-4.425513453361802
 30
0
 11
87.4462333487148
 21
0.5744865466381981
 31
0
 12
88.7462333487148
 22
0.5744865466381981
 32
0
 13
88.7462333487148
 23
0.5744865466381981
 33
0
  0
TEXT
  8
1
 62
7
 10
86.7427655132918
 20
-8.81999259029153
 30
0
 40
5
  1
6
 50
90
 41
0.88209
  0
ENDBLK
  8
0
  0
BLOCK
  8
1
  2
*D1
 70
1
 10
0
 20
0
 30
0
  0
LINE
  8
1
 62
1
 10
88.0962333487148
 20
-4.425513453361802
 30
0
 11
88.0962333487148
 21
83.5744865466382
 31
0
  0
LINE
  8
1
 62
1
 10
51.1062333487148
 20
83.5744865466382
 30
0
 11
89.5962333487148
 21
83.5744865466382
 31
0
  0
LINE
  8
1
 62
1
 10
51.1062333487148
 20
-4.425513453361802
 30
0
 11
89.5962333487148
 21
-4.425513453361802
 31
0
  0
SOLID
  8
1
 62
1
 10
88.0962333487148
 20
83.5744865466382
 30
0
 11
88.74623334871481
 21
78.5744865466382
 31
0
 12
87.4462333487148
 22
78.5744865466382
 32
0
 13
87.4462333487148
 23
78.5744865466382
 33
0
  0
SOLID
  8
1
 62
1
 10
88.0962333487148
 20
-4.425513453361802
 30
0
 11
87.4462333487148
 21
0.5744865466381981
 31
0
 12
88.7462333487148
 22
0.5744865466381981
 32
0
 13
88.7462333487148
 23
0.5744865466381981
 33
0
  0
TEXT
  8
1
 62
7
 10
86.37842830786281
 20
35.9742819100522
 30
0
 40
5
  1
88
 50
90
 41
0.88209
  0
ENDBLK
  8
0
  0
BLOCK
  8
1
  2
*D2
 70
1
 10
0
 20
0
 30
0
  0
LINE
  8
1
 62
1
 10
88.0962333487148
 20
-28.4255134533618
 30
0
 11
88.0962333487148
 21
-10.4255134533618
 31
0
  0
LINE
  8
1
 62
1
 10
55.5062333487148
 20
-10.4255134533618
 30
0
 11
89.5962333487148
 21
-10.4255134533618
 31
0
  0
LINE
  8
1
 62
1
 10
42.5062333487148
 20
-28.4255134533618
 30
0
 11
89.5962333487148
 21
-28.4255134533618
 31
0
  0
SOLID
  8
1
 62
1
 10
88.0962333487148
 20
-10.4255134533618
 30
0
 11
88.74623334871481
 21
-15.4255134533618
 31
0
 12
87.4462333487148
 22
-15.4255134533618
 32
0
 13
87.4462333487148
 23
-15.4255134533618
 33
0
  0
SOLID
  8
1
 62
1
 10
88.0962333487148
 20
-28.4255134533618
 30
0
 11
87.4462333487148
 21
-23.4255134533618
 31
0
 12
88.7462333487148
 22
-23.4255134533618
 32
0
 13
88.7462333487148
 23
-23.4255134533618
 33
0
  0
TEXT
  8
1
 62
7
 10
86.6213197781488
 20
-21.9489331640202
 30
0
 40
5
  1
18
 50
90
 41
0.88209
  0
ENDBLK
  8
0
  0
BLOCK
  8
1
  2
*D3
 70
1
 10
0
 20
0
 30
0
  0
LINE
  8
1
 62
1
 10
-18.9037666512852
 20
-19.9255134533618
 30
0
 11
-18.9037666512852
 21
99.0744865466382
 31
0
  0
LINE
  8
1
 62
1
 10
37.0312333487148
 20
99.0744865466382
 30
0
 11
-20.4037666512852
 21
99.0744865466382
 31
0
  0
LINE
  8
1
 62
1
 10
37.03123334871479
 20
-19.9255134533618
 30
0
 11
-20.4037666512852
 21
-19.9255134533618
 31
0
  0
SOLID
  8
1
 62
1
 10
-18.9037666512852
 20
99.0744865466382
 30
0
 11
-18.2537666512852
 21
94.0744865466382
 31
0
 12
-19.5537666512852
 22
94.0744865466382
 32
0
 13
-19.5537666512852
 23
94.0744865466382
 33
0
  0
SOLID
  8
1
 62
1
 10
-18.9037666512852
 20
-19.9255134533618
 30
0
 11
-19.5537666512852
 21
-14.9255134533618
 31
0
 12
-18.2537666512852
 22
-14.9255134533618
 32
0
 13
-18.2537666512852
 23
-14.9255134533618
 33
0
  0
TEXT
  8
1
 62
7
 10
-20.9463587333802
 20
36.9852914490817
 30
0
 40
5
  1
119
 50
90
 41
0.88209
  0
ENDBLK
  8
0
  0
BLOCK
  8
1
  2
*D4
 70
1
 10
0
 20
0
 30
0
  0
LINE
  8
1
 62
1
 10
-18.9037666512852
 20
-37.9255134533618
 30
0
 11
-18.9037666512852
 21
-19.9255134533618
 31
0
  0
LINE
  8
1
 62
1
 10
37.03123334871479
 20
-19.9255134533618
 30
0
 11
-20.4037666512852
 21
-19.9255134533618
 31
0
  0
LINE
  8
1
 62
1
 10
37.03123334871479
 20
-37.9255134533618
 30
0
 11
-20.4037666512852
 21
-37.9255134533618
 31
0
  0
SOLID
  8
1
 62
1
 10
-18.9037666512852
 20
-37.9255134533618
 30
0
 11
-19.5537666512852
 21
-32.9255134533618
 31
0
 12
-18.2537666512852
 22
-32.9255134533618
 32
0
 13
-18.2537666512852
 23
-32.9255134533618
 33
0
  0
SOLID
  8
1
 62
1
 10
-18.9037666512852
 20
-19.9255134533618
 30
0
 11
-18.2537666512852
 21
-24.9255134533618
 31
0
 12
-19.5537666512852
 22
-24.9255134533618
 32
0
 13
-19.5537666512852
 23
-24.9255134533618
 33
0
  0
TEXT
  8
1
 62
7
 10
-20.0861442161942
 20
-31.0990466548163
 30
0
 40
5
  1
18
 50
90
 41
0.88209
  0
ENDBLK
  8
0
  0
BLOCK
  8
1
  2
*D5
 70
1
 10
0
 20
0
 30
0
  0
LINE
  8
1
 62
1
 10
-3.653766651285199
 20
-10.4255134533618
 30
0
 11
-3.653766651285199
 21
39.5744865466382
 31
0
  0
LINE
  8
1
 62
1
 10
6.635234324887831
 20
39.5744865466382
 30
0
 11
-5.153766651285199
 21
39.5744865466382
 31
0
  0
LINE
  8
1
 62
1
 10
23.5062333487148
 20
-10.4255134533618
 30
0
 11
-5.153766651285199
 21
-10.4255134533618
 31
0
  0
SOLID
  8
1
 62
1
 10
-3.653766651285199
 20
39.5744865466382
 30
0
 11
-3.003766651285201
 21
34.5744865466382
 31
0
 12
-4.3037666512852
 22
34.5744865466382
 32
0
 13
-4.3037666512852
 23
34.5744865466382
 33
0
  0
SOLID
  8
1
 62
1
 10
-3.653766651285199
 20
-10.4255134533618
 30
0
 11
-4.3037666512852
 21
-5.425513453361802
 31
0
 12
-3.003766651285201
 22
-5.425513453361802
 32
0
 13
-3.003766651285201
 23
-5.425513453361802
 33
0
  0
TEXT
  8
1
 62
7
 10
-5.33960963586247
 20
10.9308286281457
 30
0
 40
5
  1
50
 50
90
 41
0.88209
  0
ENDBLK
  8
0
  0
BLOCK
  8
1
  2
*D6
 70
1
 10
0
 20
0
 30
0
  0
LINE
  8
1
 62
1
 10
-3.653766651285199
 20
-19.9255134533618
 30
0
 11
-3.653766651285199
 21
-33.5519236720023
 31
0
  0
LINE
  8
1
 62
1
 10
-3.653766651285199
 20
-19.9255134533618
 30
0
 11
-3.653766651285199
 21
-10.4255134533618
 31
0
  0
LINE
  8
1
 62
1
 10
-3.653766651285199
 20
-0.4255134533617984
 30
0
 11
-3.653766651285199
 21
-10.4255134533618
 31
0
  0
LINE
  8
1
 62
1
 10
23.5062333487148
 20
-10.4255134533618
 30
0
 11
-5.153766651285199
 21
-10.4255134533618
 31
0
  0
LINE
  8
1
 62
1
 10
37.03123334871479
 20
-19.9255134533618
 30
0
 11
-5.153766651285199
 21
-19.9255134533618
 31
0
  0
SOLID
  8
1
 62
1
 10
-3.653766651285199
 20
-10.4255134533618
 30
0
 11
-4.3037666512852
 21
-5.425513453361798
 31
0
 12
-3.003766651285201
 22
-5.425513453361798
 32
0
 13
-3.003766651285201
 23
-5.425513453361798
 33
0
  0
SOLID
  8
1
 62
1
 10
-3.653766651285199
 20
-19.9255134533618
 30
0
 11
-3.003766651285201
 21
-24.9255134533618
 31
0
 12
-4.3037666512852
 22
-24.9255134533618
 32
0
 13
-4.3037666512852
 23
-24.9255134533618
 33
0
  0
TEXT
  8
1
 62
7
 10
-5.71249742403189
 20
-33.5519236720023
 30
0
 40
5
  1
9,5
 50
90
 41
0.88209
  0
ENDBLK
  8
0
  0
BLOCK
  8
1
  2
*D7
 70
1
 10
0
 20
0
 30
0
  0
LINE
  8
1
 62
1
 10
30.50623334871479
 20
10.3308050753123
 30
0
 11
48.5062333487148
 21
10.3308050753123
 31
0
  0
LINE
  8
1
 62
1
 10
48.5062333487148
 20
-1.565513453361801
 30
0
 11
48.5062333487148
 21
11.8308050753123
 31
0
  0
LINE
  8
1
 62
1
 10
30.50623334871479
 20
-1.305513453361801
 30
0
 11
30.50623334871479
 21
11.8308050753123
 31
0
  0
SOLID
  8
1
 62
1
 10
30.50623334871479
 20
10.3308050753123
 30
0
 11
35.50623334871479
 21
10.9808050753123
 31
0
 12
35.50623334871479
 22
9.6808050753123
 32
0
 13
35.50623334871479
 23
9.6808050753123
 33
0
  0
SOLID
  8
1
 62
1
 10
48.5062333487148
 20
10.3308050753123
 30
0
 11
43.5062333487148
 21
9.680805075312302
 31
0
 12
43.5062333487148
 22
10.9808050753123
 32
0
 13
43.5062333487148
 23
10.9808050753123
 33
0
  0
TEXT
  8
1
 62
7
 10
36.3234588717962
 20
11.5272463726151
 30
0
 40
5
  1
18
 41
0.88209
  0
ENDBLK
  8
0
  0
BLOCK
  8
1
  2
*D8
 70
1
 10
0
 20
0
 30
0
  0
LINE
  8
1
 62
1
 10
23.5062333487148
 20
10.3308050753123
 30
0
 11
13.3015933873128
 21
10.3308050753123
 31
0
  0
LINE
  8
1
 62
1
 10
23.5062333487148
 20
10.3308050753123
 30
0
 11
30.50623334871479
 21
10.3308050753123
 31
0
  0
LINE
  8
1
 62
1
 10
40.50623334871479
 20
10.3308050753123
 30
0
 11
30.50623334871479
 21
10.3308050753123
 31
0
  0
LINE
  8
1
 62
1
 10
30.50623334871479
 20
-1.305513453361799
 30
0
 11
30.50623334871479
 21
11.8308050753123
 31
0
  0
LINE
  8
1
 62
1
 10
23.5062333487148
 20
-10.4255134533618
 30
0
 11
23.5062333487148
 21
11.8308050753123
 31
0
  0
SOLID
  8
1
 62
1
 10
30.50623334871479
 20
10.3308050753123
 30
0
 11
35.50623334871479
 21
10.9808050753123
 31
0
 12
35.50623334871479
 22
9.6808050753123
 32
0
 13
35.50623334871479
 23
9.6808050753123
 33
0
  0
SOLID
  8
1
 62
1
 10
23.5062333487148
 20
10.3308050753123
 30
0
 11
18.5062333487148
 21
9.680805075312302
 31
0
 12
18.5062333487148
 22
10.9808050753123
 32
0
 13
18.5062333487148
 23
10.9808050753123
 33
0
  0
TEXT
  8
1
 62
7
 10
13.3015933873128
 20
11.7375402636374
 30
0
 40
5
  1
7
 41
0.88209
  0
ENDBLK
  8
0
  0
BLOCK
  8
1
  2
*D9
 70
1
 10
0
 20
0
 30
0
  0
LINE
  8
1
 62
1
 10
8.50623334871478
 20
66.65486670819959
 30
0
 11
23.5062333487148
 21
66.65486670819959
 31
0
  0
LINE
  8
1
 62
1
 10
23.5062333487148
 20
89.5744865466382
 30
0
 11
23.5062333487148
 21
65.15486670819959
 31
0
  0
LINE
  8
1
 62
1
 10
8.50623334871478
 20
39.5744865466382
 30
0
 11
8.50623334871478
 21
68.15486670819959
 31
0
  0
SOLID
  8
1
 62
1
 10
23.5062333487148
 20
66.65486670819959
 30
0
 11
18.5062333487148
 21
66.00486670819959
 31
0
 12
18.5062333487148
 22
67.3048667081996
 32
0
 13
18.5062333487148
 23
67.3048667081996
 33
0
  0
SOLID
  8
1
 62
1
 10
8.50623334871478
 20
66.65486670819959
 30
0
 11
13.50623334871478
 21
67.3048667081996
 31
0
 12
13.50623334871478
 22
66.00486670819959
 32
0
 13
13.50623334871478
 23
66.00486670819959
 33
0
  0
TEXT
  8
1
 62
7
 10
12.8723167820213
 20
68.5596519252985
 30
0
 40
5
  1
15
 41
0.88209
  0
ENDBLK
  8
0
  0
BLOCK
  8
1
  2
*D10
 70
1
 10
0
 20
0
 30
0
  0
LINE
  8
1
 62
1
 10
73.3462333487148
 20
101.3244865466382
 30
0
 11
73.3462333487148
 21
115.036795901073
 31
0
  0
LINE
  8
1
 62
1
 10
73.3462333487148
 20
96.8244865466382
 30
0
 11
73.3462333487148
 21
101.3244865466382
 31
0
  0
LINE
  8
1
 62
1
 10
73.3462333487148
 20
86.8244865466382
 30
0
 11
73.3462333487148
 21
96.8244865466382
 31
0
  0
LINE
  8
1
 62
1
 10
39.5062333487148
 20
101.3244865466382
 30
0
 11
74.8462333487148
 21
101.3244865466382
 31
0
  0
LINE
  8
1
 62
1
 10
39.5062333487148
 20
96.8244865466382
 30
0
 11
74.8462333487148
 21
96.8244865466382
 31
0
  0
SOLID
  8
1
 62
1
 10
73.3462333487148
 20
101.3244865466382
 30
0
 11
72.6962333487148
 21
106.3244865466382
 31
0
 12
73.9962333487148
 22
106.3244865466382
 32
0
 13
73.9962333487148
 23
106.3244865466382
 33
0
  0
SOLID
  8
1
 62
1
 10
73.3462333487148
 20
96.8244865466382
 30
0
 11
73.99623334871481
 21
91.8244865466382
 31
0
 12
72.6962333487148
 22
91.8244865466382
 32
0
 13
72.6962333487148
 23
91.8244865466382
 33
0
  0
TEXT
  8
1
 62
7
 10
70.46291626078801
 20
105.970870901073
 30
0
 40
5
  1
4,5
 50
90
 41
0.88209
  0
ENDBLK
  8
0
  0
BLOCK
  8
1
  2
*D11
 70
1
 10
0
 20
0
 30
0
  0
LINE
  8
1
 62
1
 10
73.0962333487148
 20
43.0744865466382
 30
0
 11
73.0962333487148
 21
53.0744865466382
 31
0
  0
LINE
  8
1
 62
1
 10
73.0962333487148
 20
36.0744865466382
 30
0
 11
73.0962333487148
 21
26.0744865466382
 31
0
  0
LINE
  8
1
 62
1
 10
73.0962333487148
 20
36.0744865466382
 30
0
 11
73.0962333487148
 21
43.0744865466382
 31
0
  0
LINE
  8
1
 62
1
 10
43.00623334871479
 20
43.0744865466382
 30
0
 11
74.5962333487148
 21
43.0744865466382
 31
0
  0
LINE
  8
1
 62
1
 10
43.00623334871479
 20
36.0744865466382
 30
0
 11
74.5962333487148
 21
36.0744865466382
 31
0
  0
SOLID
  8
1
 62
1
 10
73.0962333487148
 20
36.0744865466382
 30
0
 11
73.74623334871481
 21
31.0744865466382
 31
0
 12
72.4462333487148
 22
31.0744865466382
 32
0
 13
72.4462333487148
 23
31.0744865466382
 33
0
  0
SOLID
  8
1
 62
1
 10
73.0962333487148
 20
43.0744865466382
 30
0
 11
72.4462333487148
 21
48.0744865466382
 31
0
 12
73.7462333487148
 22
48.0744865466382
 32
0
 13
73.7462333487148
 23
48.0744865466382
 33
0
  0
TEXT
  8
1
 62
7
 10
71.6726287054541
 20
38.1109337402518
 30
0
 40
5
  1
7
 50
90
 41
0.88209
  0
ENDBLK
  8
0
  0
BLOCK
  8
1
  2
*D12
 70
1
 10
0
 20
0
 30
0
  0
LINE
  8
1
 62
1
 10
103.0962333487148
 20
-10.4255134533618
 30
0
 11
103.0962333487148
 21
89.5744865466382
 31
0
  0
LINE
  8
1
 62
1
 10
55.5062333487148
 20
89.5744865466382
 30
0
 11
104.5962333487148
 21
89.5744865466382
 31
0
  0
LINE
  8
1
 62
1
 10
55.5062333487148
 20
-10.4255134533618
 30
0
 11
104.5962333487148
 21
-10.4255134533618
 31
0
  0
SOLID
  8
1
 62
1
 10
103.0962333487148
 20
89.5744865466382
 30
0
 11
103.7462333487148
 21
84.5744865466382
 31
0
 12
102.4462333487148
 22
84.5744865466382
 32
0
 13
102.4462333487148
 23
84.5744865466382
 33
0
  0
SOLID
  8
1
 62
1
 10
103.0962333487148
 20
-10.4255134533618
 30
0
 11
102.4462333487148
 21
-5.425513453361802
 31
0
 12
103.7462333487148
 22
-5.425513453361802
 32
0
 13
103.7462333487148
 23
-5.425513453361802
 33
0
  0
TEXT
  8
1
 62
7
 10
101.1948079953096
 20
35.5971435263393
 30
0
 40
5
  1
100
 50
90
 41
0.88209
  0
ENDBLK
  8
0
  0
BLOCK
  8
1
  2
*D13
 70
1
 10
0
 20
0
 30
0
  0
LINE
  8
1
 62
1
 10
44.5062333487148
 20
-64.01551345336181
 30
0
 11
54.5062333487148
 21
-64.01551345336181
 31
0
  0
LINE
  8
1
 62
1
 10
34.5062333487148
 20
-64.01551345336181
 30
0
 11
24.5062333487148
 21
-64.01551345336181
 31
0
  0
LINE
  8
1
 62
1
 10
34.5062333487148
 20
-64.01551345336181
 30
0
 11
44.5062333487148
 21
-64.01551345336181
 31
0
  0
LINE
  8
1
 62
1
 10
44.5062333487148
 20
-44.4255134533618
 30
0
 11
44.5062333487148
 21
-65.51551345336181
 31
0
  0
LINE
  8
1
 62
1
 10
34.5062333487148
 20
-44.4255134533618
 30
0
 11
34.5062333487148
 21
-65.51551345336181
 31
0
  0
SOLID
  8
1
 62
1
 10
44.5062333487148
 20
-64.01551345336181
 30
0
 11
49.5062333487148
 21
-63.36551345336181
 31
0
 12
49.5062333487148
 22
-64.66551345336181
 32
0
 13
49.5062333487148
 23
-64.66551345336181
 33
0
  0
SOLID
  8
1
 62
1
 10
34.5062333487148
 20
-64.01551345336181
 30
0
 11
29.5062333487148
 21
-64.66551345336181
 31
0
 12
29.5062333487148
 22
-63.36551345336181
 32
0
 13
29.5062333487148
 23
-63.36551345336181
 33
0
  0
TEXT
  8
1
 62
7
 10
36.2411636310673
 20
-62.2352564996021
 30
0
 40
5
  1
10
 41
0.88209
  0
ENDBLK
  8
0
  0
BLOCK
  8
1
  2
*D14
 70
1
 10
0
 20
0
 30
0
  0
LINE
  8
1
 62
1
 10
23.5062333487148
 20
-122.0155134533618
 30
0
 11
55.5062333487148
 21
-122.0155134533618
 31
0
  0
LINE
  8
1
 62
1
 10
55.5062333487148
 20
-104.4255134533618
 30
0
 11
55.5062333487148
 21
-123.5155134533618
 31
0
  0
LINE
  8
1
 62
1
 10
23.5062333487148
 20
-104.4255134533618
 30
0
 11
23.5062333487148
 21
-123.5155134533618
 31
0
  0
SOLID
  8
1
 62
1
 10
23.5062333487148
 20
-122.0155134533618
 30
0
 11
28.5062333487148
 21
-121.3655134533618
 31
0
 12
28.5062333487148
 22
-122.6655134533618
 32
0
 13
28.5062333487148
 23
-122.6655134533618
 33
0
  0
SOLID
  8
1
 62
1
 10
55.5062333487148
 20
-122.0155134533618
 30
0
 11
50.5062333487148
 21
-122.6655134533618
 31
0
 12
50.5062333487148
 22
-121.3655134533618
 32
0
 13
50.5062333487148
 23
-121.3655134533618
 33
0
  0
TEXT
  8
1
 62
7
 10
36.1639745202493
 20
-120.129214747623
 30
0
 40
5
  1
32
 41
0.88209
  0
ENDBLK
  8
0
  0
BLOCK
  8
1
  2
*D15
 70
1
 10
0
 20
0
 30
0
  0
LINE
  8
1
 62
1
 10
-3.903766651285199
 20
-90.4255134533618
 30
0
 11
-3.903766651285199
 21
-80.3700723761191
 31
0
  0
LINE
  8
1
 62
1
 10
-3.903766651285199
 20
-91.9255134533618
 30
0
 11
-3.903766651285199
 21
-90.4255134533618
 31
0
  0
LINE
  8
1
 62
1
 10
-3.903766651285199
 20
-101.9255134533618
 30
0
 11
-3.903766651285199
 21
-91.9255134533618
 31
0
  0
LINE
  8
1
 62
1
 10
8.506233348714799
 20
-90.4255134533618
 30
0
 11
-5.403766651285199
 21
-90.4255134533618
 31
0
  0
LINE
  8
1
 62
1
 10
34.5062333487148
 20
-91.9255134533618
 30
0
 11
-5.403766651285199
 21
-91.9255134533618
 31
0
  0
SOLID
  8
1
 62
1
 10
-3.903766651285199
 20
-91.9255134533618
 30
0
 11
-3.2537666512852
 21
-96.9255134533618
 31
0
 12
-4.5537666512852
 22
-96.9255134533618
 32
0
 13
-4.5537666512852
 23
-96.9255134533618
 33
0
  0
SOLID
  8
1
 62
1
 10
-3.903766651285199
 20
-90.4255134533618
 30
0
 11
-4.5537666512852
 21
-85.4255134533618
 31
0
 12
-3.253766651285201
 22
-85.4255134533618
 32
0
 13
-3.253766651285201
 23
-85.4255134533618
 33
0
  0
TEXT
  8
1
 62
7
 10
-5.29158885653135
 20
-83.3103723761191
 30
0
 40
5
  1
2
 50
90
 41
0.88209
  0
ENDBLK
  8
0
  0
BLOCK
  8
1
  2
*D16
 70
1
 10
0
 20
0
 30
0
  0
LINE
  8
1
 62
1
 10
-18.9037666512852
 20
-91.9255134533618
 30
0
 11
-18.9037666512852
 21
-81.9255134533618
 31
0
  0
LINE
  8
1
 62
1
 10
-18.9037666512852
 20
-94.9255134533618
 30
0
 11
-18.9037666512852
 21
-104.9255134533618
 31
0
  0
LINE
  8
1
 62
1
 10
-18.9037666512852
 20
-94.9255134533618
 30
0
 11
-18.9037666512852
 21
-91.9255134533618
 31
0
  0
LINE
  8
1
 62
1
 10
34.5062333487148
 20
-91.9255134533618
 30
0
 11
-20.4037666512852
 21
-91.9255134533618
 31
0
  0
LINE
  8
1
 62
1
 10
34.5062333487148
 20
-94.9255134533618
 30
0
 11
-20.4037666512852
 21
-94.9255134533618
 31
0
  0
SOLID
  8
1
 62
1
 10
-18.9037666512852
 20
-91.9255134533618
 30
0
 11
-19.5537666512852
 21
-86.9255134533618
 31
0
 12
-18.2537666512852
 22
-86.9255134533618
 32
0
 13
-18.2537666512852
 23
-86.9255134533618
 33
0
  0
SOLID
  8
1
 62
1
 10
-18.9037666512852
 20
-94.9255134533618
 30
0
 11
-18.2537666512852
 21
-99.9255134533618
 31
0
 12
-19.5537666512852
 22
-99.9255134533618
 32
0
 13
-19.5537666512852
 23
-99.9255134533618
 33
0
  0
TEXT
  8
1
 62
7
 10
-20.2913871298822
 20
-95.02074120355961
 30
0
 40
5
  1
3
 50
90
 41
0.88209
  0
ENDBLK
  8
0
  0
BLOCK
  8
1
  2
*D17
 70
1
 10
0
 20
0
 30
0
  0
LINE
  8
1
 62
1
 10
75.4612331564109
 20
-86.4255134533618
 30
0
 11
75.4612331564109
 21
-76.4255134533618
 31
0
  0
LINE
  8
1
 62
1
 10
75.4612331564109
 20
-90.4255134533618
 30
0
 11
75.4612331564109
 21
-86.4255134533618
 31
0
  0
LINE
  8
1
 62
1
 10
75.4612331564109
 20
-100.4255134533618
 30
0
 11
75.4612331564109
 21
-90.4255134533618
 31
0
  0
LINE
  8
1
 62
1
 10
47.5062333487148
 20
-86.4255134533618
 30
0
 11
76.9612331564109
 21
-86.4255134533618
 31
0
  0
LINE
  8
1
 62
1
 10
55.5062333487148
 20
-90.4255134533618
 30
0
 11
76.9612331564109
 21
-90.4255134533618
 31
0
  0
SOLID
  8
1
 62
1
 10
75.4612331564109
 20
-90.4255134533618
 30
0
 11
76.1112331564109
 21
-95.4255134533618
 31
0
 12
74.81123315641089
 22
-95.4255134533618
 32
0
 13
74.81123315641089
 23
-95.4255134533618
 33
0
  0
SOLID
  8
1
 62
1
 10
75.4612331564109
 20
-86.4255134533618
 30
0
 11
74.81123315641089
 21
-81.4255134533618
 31
0
 12
76.11123315641089
 22
-81.4255134533618
 32
0
 13
76.11123315641089
 23
-81.4255134533618
 33
0
  0
TEXT
  8
1
 62
7
 10
74.1810265566607
 20
-81.0735603529001
 30
0
 40
5
  1
4
 50
90
 41
0.88209
  0
ENDBLK
  8
0
  0
BLOCK
  8
1
  2
*D18
 70
1
 10
0
 20
0
 30
0
  0
LINE
  8
1
 62
1
 10
88.0962333487148
 20
-90.4255134533618
 30
0
 11
88.0962333487148
 21
-80.4255134533618
 31
0
  0
LINE
  8
1
 62
1
 10
88.0962333487148
 20
-104.4255134533618
 30
0
 11
88.0962333487148
 21
-114.4255134533618
 31
0
  0
LINE
  8
1
 62
1
 10
88.0962333487148
 20
-104.4255134533618
 30
0
 11
88.0962333487148
 21
-90.4255134533618
 31
0
  0
LINE
  8
1
 62
1
 10
55.5062333487148
 20
-90.4255134533618
 30
0
 11
89.5962333487148
 21
-90.4255134533618
 31
0
  0
LINE
  8
1
 62
1
 10
55.5062333487148
 20
-104.4255134533618
 30
0
 11
89.5962333487148
 21
-104.4255134533618
 31
0
  0
SOLID
  8
1
 62
1
 10
88.0962333487148
 20
-90.4255134533618
 30
0
 11
87.4462333487148
 21
-85.4255134533618
 31
0
 12
88.7462333487148
 22
-85.4255134533618
 32
0
 13
88.7462333487148
 23
-85.4255134533618
 33
0
  0
SOLID
  8
1
 62
1
 10
88.0962333487148
 20
-104.4255134533618
 30
0
 11
88.74623334871481
 21
-109.4255134533618
 31
0
 12
87.4462333487148
 22
-109.4255134533618
 32
0
 13
87.4462333487148
 23
-109.4255134533618
 33
0
  0
TEXT
  8
1
 62
7
 10
87.075589984629
 20
-100.8329380721612
 30
0
 40
5
  1
14
 50
90
 41
0.88209
  0
ENDBLK
  8
0
  0
BLOCK
  8
1
  2
*D19
 70
1
 10
0
 20
0
 30
0
  0
LINE
  8
1
 62
1
 10
40.33077715917192
 20
-2.082793044006781
 30
0
 11
33.03532383457504
 21
-3.822436912339718
 31
0
  0
LINE
  8
1
 62
1
 10
18.3060341805299
 20
-7.334722892591024
 30
0
 11
27.97714286285454
 21
-5.028589994383887
 31
0
  0
SOLID
  8
1
 62
1
 10
27.97714286285454
 20
-5.028589994383887
 30
0
 11
23.26427644837881
 21
-6.820625194737577
 31
0
 12
22.96273817786777
 22
-5.556079951807452
 32
0
 13
22.96273817786777
 23
-5.556079951807452
 33
0
  0
SOLID
  8
1
 62
1
 10
33.03532383457504
 20
-3.822436912339718
 30
0
 11
37.74819024905077
 21
-2.03040171198603
 31
0
 12
38.04972851956181
 22
-3.294946954916155
 32
0
 13
38.04972851956181
 23
-3.294946954916155
 33
0
  0
TEXT
  8
1
 62
7
 10
18.02473058746683
 20
-6.155034756076288
 30
0
 40
5
  1
5
 50
13.41205181417156
 41
0.88209
  0
ENDBLK
  8
0
  0
ENDSEC
  0
SECTION
  2
ENTITIES
  0
LINE
  8
1
 62
2
  6
DIVIDE
 10
39.50623334871479
 20
9.007529131526979
 30
0
 11
39.50623334871479
 21
-48.04175396605346
 31
0
  0
LINE
  8
1
 62
3
  6
DIVIDE
 10
40.2062333487148
 20
-83.4255134533618
 30
0
 11
43.0062333487148
 21
-83.4255134533618
 31
0
  0
LINE
  8
1
 62
3
  6
DIVIDE
 10
40.2062333487148
 20
-84.82551345336181
 30
0
 11
38.80623334871481
 21
-84.82551345336181
 31
0
  0
LINE
  8
1
 62
3
  6
DIVIDE
 10
38.80623334871481
 20
-83.4255134533618
 30
0
 11
38.80623334871481
 21
-84.82551345336181
 31
0
  0
LINE
  8
1
 62
3
  6
DIVIDE
 10
40.2062333487148
 20
-83.4255134533618
 30
0
 11
40.2062333487148
 21
-84.82551345336181
 31
0
  0
LINE
  8
1
 62
3
  6
DIVIDE
 10
38.80623334871481
 20
-83.4255134533618
 30
0
 11
36.0062333487148
 21
-83.4255134533618
 31
0
  0
LINE
  8
1
 62
3
  6
DIVIDE
 10
44.0062333487148
 20
-84.4255134533618
 30
0
 11
44.0062333487148
 21
-86.4255134533618
 31
0
  0
LINE
  8
1
 62
3
  6
DIVIDE
 10
35.0062333487148
 20
-84.4255134533618
 30
0
 11
35.0062333487148
 21
-86.4255134533618
 31
0
  0
LINE
  8
1
 62
3
  6
DIVIDE
 10
47.5062333487148
 20
-86.4255134533618
 30
0
 11
47.5062333487148
 21
-90.4255134533618
 31
0
  0
LINE
  8
1
 62
3
  6
DIVIDE
 10
23.5062333487148
 20
-90.4255134533618
 30
0
 11
8.506233348714801
 21
-90.4255134533618
 31
0
  0
LINE
  8
1
 62
3
  6
DIVIDE
 10
8.506233348714801
 20
-86.4255134533618
 30
0
 11
8.506233348714801
 21
-90.4255134533618
 31
0
  0
LINE
  8
1
 62
3
  6
DIVIDE
 10
47.5062333487148
 20
-86.4255134533618
 30
0
 11
8.506233348714801
 21
-86.4255134533618
 31
0
  0
LINE
  8
1
 62
7
 10
38.74111816045256
 20
31.61016903735214
 30
0
 11
38.8662333487148
 21
31.60012763823685
 31
0
  0
LINE
  8
1
 62
3
  6
DIVIDE
 10
14.0262333487148
 20
33.59371736533718
 30
0
 11
38.8662333487148
 21
31.60012763823685
 31
0
  0
LINE
  8
1
 62
3
  6
DIVIDE
 10
14.0262333487148
 20
45.55525572793923
 30
0
 11
38.8662333487148
 21
47.54884545503955
 31
0
  0
LINE
  8
1
 62
2
  6
DIVIDE
 10
39.5062333487148
 20
-81.1412458654822
 30
0
 11
39.5062333487148
 21
-110.0949772065703
 31
0
  0
LINE
  8
1
 62
7
 10
44.5062333487148
 20
-91.9255134533618
 30
0
 11
44.5062333487148
 21
-94.9255134533618
 31
0
  0
LINE
  8
1
 62
7
 10
34.5062333487148
 20
-91.9255134533618
 30
0
 11
34.5062333487148
 21
-94.9255134533618
 31
0
  0
LINE
  8
1
 62
7
 10
55.5062333487148
 20
-90.4255134533618
 30
0
 11
55.5062333487148
 21
-104.4255134533618
 31
0
  0
LINE
  8
1
 62
7
 10
23.5062333487148
 20
-90.4255134533618
 30
0
 11
23.5062333487148
 21
-104.4255134533618
 31
0
  0
LINE
  8
1
 62
7
 10
55.5062333487148
 20
-104.4255134533618
 30
0
 11
23.5062333487148
 21
-104.4255134533618
 31
0
  0
LINE
  8
1
 62
7
 10
44.5062333487148
 20
-94.9255134533618
 30
0
 11
34.5062333487148
 21
-94.9255134533618
 31
0
  0
LINE
  8
1
 62
7
 10
44.5062333487148
 20
-91.9255134533618
 30
0
 11
34.5062333487148
 21
-91.9255134533618
 31
0
  0
LINE
  8
1
 62
7
 10
55.5062333487148
 20
-90.4255134533618
 30
0
 11
23.5062333487148
 21
-90.4255134533618
 31
0
  0
LINE
  8
1
 62
3
  6
DIVIDE
 10
34.5062333487148
 20
-44.4255134533618
 30
0
 11
34.5062333487148
 21
-26.4255134533618
 31
0
  0
LINE
  8
1
 62
3
  6
DIVIDE
 10
44.5062333487148
 20
-44.4255134533618
 30
0
 11
44.5062333487148
 21
-26.4255134533618
 31
0
  0
LINE
  8
1
 62
2
  6
DIVIDE
 10
39.50623334871479
 20
-17.4505134533618
 30
0
 11
39.50623334871479
 21
-22.4005134533618
 31
0
  0
LINE
  8
1
 62
2
  6
DIVIDE
 10
41.98123334871479
 20
-19.9255134533618
 30
0
 11
37.03123334871479
 21
-19.9255134533618
 31
0
  0
LINE
  8
1
 62
2
  6
DIVIDE
 10
39.50623334871479
 20
-35.4505134533618
 30
0
 11
39.50623334871479
 21
-40.4005134533618
 31
0
  0
LINE
  8
1
 62
2
  6
DIVIDE
 10
41.98123334871479
 20
-37.9255134533618
 30
0
 11
37.03123334871479
 21
-37.9255134533618
 31
0
  0
LINE
  8
1
 62
3
  6
DIVIDE
 10
34.5062333487148
 20
123.5744865466382
 30
0
 11
34.5062333487148
 21
105.5744865466382
 31
0
  0
LINE
  8
1
 62
3
  6
DIVIDE
 10
44.5062333487148
 20
123.5744865466382
 30
0
 11
44.5062333487148
 21
105.5744865466382
 31
0
  0
LINE
  8
1
 62
2
  6
DIVIDE
 10
39.5062333487148
 20
119.5494865466382
 30
0
 11
39.5062333487148
 21
114.5994865466382
 31
0
  0
LINE
  8
1
 62
2
  6
DIVIDE
 10
41.9812333487148
 20
117.0744865466382
 30
0
 11
37.0312333487148
 21
117.0744865466382
 31
0
  0
LINE
  8
1
 62
2
  6
DIVIDE
 10
39.5062333487148
 20
101.5494865466382
 30
0
 11
39.5062333487148
 21
96.5994865466382
 31
0
  0
LINE
  8
1
 62
2
  6
DIVIDE
 10
41.9812333487148
 20
99.0744865466382
 30
0
 11
37.0312333487148
 21
99.0744865466382
 31
0
  0
LINE
  8
1
 62
3
  6
DIVIDE
 10
42.5062333487148
 20
-46.4255134533618
 30
0
 11
36.5062333487148
 21
-46.4255134533618
 31
0
  0
LINE
  8
1
 62
3
  6
DIVIDE
 10
36.5062333487148
 20
125.5744865466382
 30
0
 11
42.5062333487148
 21
125.5744865466382
 31
0
  0
LINE
  8
1
 62
7
 10
34.5062333487148
 20
-10.4255134533618
 30
0
 11
34.5062333487148
 21
-26.4255134533618
 31
0
  0
LINE
  8
1
 62
7
 10
44.5062333487148
 20
-10.4255134533618
 30
0
 11
44.5062333487148
 21
-26.4255134533618
 31
0
  0
LINE
  8
1
 62
7
 10
42.5062333487148
 20
-28.4255134533618
 30
0
 11
36.5062333487148
 21
-28.4255134533618
 31
0
  0
LINE
  8
1
 62
7
 10
44.5062333487148
 20
105.5744865466382
 30
0
 11
44.5062333487148
 21
89.5744865466382
 31
0
  0
LINE
  8
1
 62
7
 10
34.5062333487148
 20
105.5744865466382
 30
0
 11
34.5062333487148
 21
89.5744865466382
 31
0
  0
LINE
  8
1
 62
7
 10
36.5062333487148
 20
107.5744865466382
 30
0
 11
42.5062333487148
 21
107.5744865466382
 31
0
  0
LINE
  8
1
 62
2
  6
DIVIDE
 10
48.5062333487148
 20
-1.565513453361802
 30
0
 11
48.5062333487148
 21
-7.285513453361801
 31
0
  0
LINE
  8
1
 62
2
  6
DIVIDE
 10
45.6462333487148
 20
-4.425513453361802
 30
0
 11
51.3662333487148
 21
-4.425513453361802
 31
0
  0
LINE
  8
1
 62
2
  6
DIVIDE
 10
30.50623334871479
 20
80.7144865466382
 30
0
 11
30.50623334871479
 21
86.4344865466382
 31
0
  0
LINE
  8
1
 62
2
  6
DIVIDE
 10
33.36623334871479
 20
83.5744865466382
 30
0
 11
27.64623334871479
 21
83.5744865466382
 31
0
  0
LINE
  8
1
 62
2
  6
DIVIDE
 10
48.5062333487148
 20
86.4344865466382
 30
0
 11
48.5062333487148
 21
80.7144865466382
 31
0
  0
LINE
  8
1
 62
2
  6
DIVIDE
 10
51.3662333487148
 20
83.5744865466382
 30
0
 11
45.6462333487148
 21
83.5744865466382
 31
0
  0
LINE
  8
1
 62
7
 10
43.00623334871479
 20
36.0744865466382
 30
0
 11
36.00623334871479
 21
36.0744865466382
 31
0
  0
LINE
  8
1
 62
7
 10
43.00623334871479
 20
43.0744865466382
 30
0
 11
36.00623334871479
 21
43.0744865466382
 31
0
  0
LINE
  8
1
 62
7
 10
43.00623334871479
 20
43.0744865466382
 30
0
 11
43.00623334871479
 21
36.0744865466382
 31
0
  0
LINE
  8
1
 62
7
 10
36.00623334871479
 20
43.0744865466382
 30
0
 11
36.00623334871479
 21
36.0744865466382
 31
0
  0
LINE
  8
1
 62
7
 10
23.5062333487148
 20
89.5744865466382
 30
0
 11
23.5062333487148
 21
-10.4255134533618
 31
0
  0
LINE
  8
1
 62
7
 10
55.5062333487148
 20
89.5744865466382
 30
0
 11
55.5062333487148
 21
-10.4255134533618
 31
0
  0
LINE
  8
1
 62
7
 10
55.5062333487148
 20
-10.4255134533618
 30
0
 11
23.5062333487148
 21
-10.4255134533618
 31
0
  0
LINE
  8
1
 62
7
 10
23.5062333487148
 20
89.5744865466382
 30
0
 11
55.5062333487148
 21
89.5744865466382
 31
0
  0
LINE
  8
1
 62
7
 10
45.3427657218801
 20
2.076704344752713
 30
0
 11
49.90401555060028
 21
6.63795417347292
 31
0
  0
LINE
  8
1
 62
7
 10
45.90845114682934
 20
1.511018919803476
 30
0
 11
50.46970097554952
 21
6.072268748523683
 31
0
  0
LINE
  8
1
 62
7
 10
29.10845114682933
 20
72.51101891980348
 30
0
 11
33.66970097554952
 21
77.07226874852368
 31
0
  0
LINE
  8
1
 62
7
 10
28.54276572188009
 20
73.07670434475271
 30
0
 11
33.10401555060028
 21
77.63795417347292
 31
0
  0
LINE
  8
1
 62
2
  6
DIVIDE
 10
39.5062333487148
 20
61.7744865466382
 30
0
 11
39.5062333487148
 21
57.3744865466382
 31
0
  0
LINE
  8
1
 62
2
  6
DIVIDE
 10
41.7062333487148
 20
59.5744865466382
 30
0
 11
37.3062333487148
 21
59.5744865466382
 31
0
  0
LINE
  8
1
 62
2
  6
DIVIDE
 10
39.50623334871479
 20
21.7744865466382
 30
0
 11
39.50623334871479
 21
17.3744865466382
 31
0
  0
LINE
  8
1
 62
2
  6
DIVIDE
 10
41.7062333487148
 20
19.5744865466382
 30
0
 11
37.30623334871479
 21
19.5744865466382
 31
0
  0
LINE
  8
1
 62
2
  6
DIVIDE
 10
33.14227231803587
 20
31.83552551595927
 30
0
 11
33.14227231803587
 21
34.58552551595927
 31
0
  0
LINE
  8
1
 62
2
  6
DIVIDE
 10
31.76727231803587
 20
33.21052551595927
 30
0
 11
34.51727231803587
 21
33.21052551595927
 31
0
  0
LINE
  8
1
 62
2
  6
DIVIDE
 10
45.87019437939373
 20
34.58552551595927
 30
0
 11
45.87019437939373
 21
31.83552551595927
 31
0
  0
LINE
  8
1
 62
2
  6
DIVIDE
 10
44.49519437939373
 20
33.21052551595927
 30
0
 11
47.24519437939373
 21
33.21052551595927
 31
0
  0
LINE
  8
1
 62
2
  6
DIVIDE
 10
33.14227231803587
 20
44.56344757731713
 30
0
 11
33.14227231803587
 21
47.31344757731713
 31
0
  0
LINE
  8
1
 62
2
  6
DIVIDE
 10
34.51727231803587
 20
45.93844757731713
 30
0
 11
31.76727231803587
 21
45.93844757731713
 31
0
  0
LINE
  8
1
 62
2
  6
DIVIDE
 10
45.87019437939373
 20
47.31344757731713
 30
0
 11
45.87019437939373
 21
44.56344757731713
 31
0
  0
LINE
  8
1
 62
2
  6
DIVIDE
 10
47.24519437939373
 20
45.93844757731713
 30
0
 11
44.49519437939373
 21
45.93844757731713
 31
0
  0
LINE
  8
1
 62
2
  6
DIVIDE
 10
39.5062333487148
 20
32.2744865466382
 30
0
 11
39.5062333487148
 21
27.8744865466382
 31
0
  0
LINE
  8
1
 62
2
  6
DIVIDE
 10
37.3062333487148
 20
30.0744865466382
 30
0
 11
41.7062333487148
 21
30.0744865466382
 31
0
  0
LINE
  8
1
 62
2
  6
DIVIDE
 10
30.0062333487148
 20
37.3744865466382
 30
0
 11
30.0062333487148
 21
41.7744865466382
 31
0
  0
LINE
  8
1
 62
2
  6
DIVIDE
 10
32.2062333487148
 20
39.5744865466382
 30
0
 11
27.8062333487148
 21
39.5744865466382
 31
0
  0
LINE
  8
1
 62
2
  6
DIVIDE
 10
49.0062333487148
 20
41.7744865466382
 30
0
 11
49.0062333487148
 21
37.3744865466382
 31
0
  0
LINE
  8
1
 62
2
  6
DIVIDE
 10
51.2062333487148
 20
39.5744865466382
 30
0
 11
46.8062333487148
 21
39.5744865466382
 31
0
  0
LINE
  8
1
 62
2
  6
DIVIDE
 10
39.5062333487148
 20
51.2744865466382
 30
0
 11
39.5062333487148
 21
46.8744865466382
 31
0
  0
LINE
  8
1
 62
2
  6
DIVIDE
 10
41.7062333487148
 20
49.0744865466382
 30
0
 11
37.3062333487148
 21
49.0744865466382
 31
0
  0
LINE
  8
1
 62
2
  6
DIVIDE
 10
39.5062333487148
 20
127.258339309016
 30
0
 11
39.50623334871479
 21
17.16668677092369
 31
0
  0
LINE
  8
1
 62
2
  6
DIVIDE
 10
47.0062333487148
 20
39.5744865466382
 30
0
 11
6.635234324887833
 21
39.5744865466382
 31
0
  0
LINE
  8
1
 62
7
 10
25.0062333487148
 20
0.5744865466381981
 30
0
 11
31.5062333487148
 21
0.5744865466381981
 31
0
  0
LINE
  8
1
 62
7
 10
54.0062333487148
 20
0.5744865466381981
 30
0
 11
47.5062333487148
 21
0.5744865466381981
 31
0
  0
LINE
  8
1
 62
7
 10
43.5062333487148
 20
-3.425513453361802
 30
0
 11
43.5062333487148
 21
-8.925513453361802
 31
0
  0
LINE
  8
1
 62
7
 10
35.5062333487148
 20
-3.425513453361802
 30
0
 11
35.5062333487148
 21
-8.925513453361802
 31
0
  0
LINE
  8
1
 62
7
 10
54.0062333487148
 20
-8.925513453361802
 30
0
 11
25.0062333487148
 21
-8.925513453361802
 31
0
  0
LINE
  8
1
 62
7
 10
31.5062333487148
 20
78.5744865466382
 30
0
 11
25.0062333487148
 21
78.5744865466382
 31
0
  0
LINE
  8
1
 62
7
 10
47.5062333487148
 20
78.5744865466382
 30
0
 11
54.0062333487148
 21
78.5744865466382
 31
0
  0
LINE
  8
1
 62
7
 10
43.5062333487148
 20
88.0744865466382
 30
0
 11
43.5062333487148
 21
82.5744865466382
 31
0
  0
LINE
  8
1
 62
7
 10
35.5062333487148
 20
88.0744865466382
 30
0
 11
35.5062333487148
 21
82.5744865466382
 31
0
  0
LINE
  8
1
 62
7
 10
54.0062333487148
 20
89.5744865466382
 30
0
 11
54.0062333487148
 21
-10.4255134533618
 31
0
  0
LINE
  8
1
 62
7
 10
25.0062333487148
 20
89.5744865466382
 30
0
 11
25.0062333487148
 21
-10.4255134533618
 31
0
  0
LINE
  8
1
 62
7
 10
25.0062333487148
 20
88.0744865466382
 30
0
 11
54.0062333487148
 21
88.0744865466382
 31
0
  0
LINE
  8
1
 62
2
  6
CENTER
 10
27.38623334871479
 20
-4.425513453361802
 30
0
 11
33.62623334871479
 21
-4.425513453361802
 31
0
  0
LINE
  8
1
 62
2
  6
CENTER
 10
30.50623334871479
 20
-1.305513453361802
 30
0
 11
30.50623334871479
 21
-7.545513453361802
 31
0
  0
ARC
  8
1
 62
7
 10
39.5062333487148
 20
99.0744865466382
 30
0
 40
2.25
 50
90
 51
270
  0
ARC
  8
1
 62
7
 10
39.5062333487148
 20
99.0744865466382
 30
0
 40
2.25
 50
270
 51
0
  0
ARC
  8
1
 62
7
 10
39.5062333487148
 20
99.0744865466382
 30
0
 40
2.25
 50
0
 51
90
  0
ARC
  8
1
 62
3
  6
DIVIDE
 10
39.5062333487148
 20
39.5744865466382
 30
0
 40
7.999999999999996
 50
265.4114342642142
 51
94.58856573578583
  0
ARC
  8
1
 62
3
  6
DIVIDE
 10
14.5062333487148
 20
39.5744865466382
 30
0
 40
6.00000000000002
 50
180
 51
265.4114342642142
  0
ARC
  8
1
 62
3
  6
DIVIDE
 10
14.5062333487148
 20
39.5744865466382
 30
0
 40
6.00000000000002
 50
94.58856573578579
 51
180
  0
ARC
  8
1
 62
3
  6
DIVIDE
 10
43.0062333487148
 20
-84.4255134533618
 30
0
 40
1
 50
0
 51
90
  0
ARC
  8
1
 62
3
  6
DIVIDE
 10
36.0062333487148
 20
-84.4255134533618
 30
0
 40
1
 50
90
 51
180
  0
ARC
  8
1
 62
3
  6
DIVIDE
 10
42.5062333487148
 20
-44.4255134533618
 30
0
 40
2
 50
270
 51
0
  0
ARC
  8
1
 62
3
  6
DIVIDE
 10
36.5062333487148
 20
-44.4255134533618
 30
0
 40
2
 50
180
 51
270
  0
ARC
  8
1
 62
3
  6
DIVIDE
 10
42.5062333487148
 20
123.5744865466382
 30
0
 40
2
 50
0
 51
90
  0
ARC
  8
1
 62
3
  6
DIVIDE
 10
36.5062333487148
 20
123.5744865466382
 30
0
 40
2
 50
90
 51
180
  0
ARC
  8
1
 62
7
 10
42.5062333487148
 20
-26.4255134533618
 30
0
 40
2
 50
270
 51
0
  0
ARC
  8
1
 62
7
 10
36.5062333487148
 20
-26.4255134533618
 30
0
 40
2
 50
180
 51
270
  0
ARC
  8
1
 62
7
 10
42.5062333487148
 20
105.5744865466382
 30
0
 40
2
 50
0
 51
90
  0
ARC
  8
1
 62
7
 10
36.5062333487148
 20
105.5744865466382
 30
0
 40
2
 50
90
 51
180
  0
ARC
  8
1
 62
7
 10
47.5062333487148
 20
82.5744865466382
 30
0
 40
4
 50
180
 51
270
  0
ARC
  8
1
 62
7
 10
31.5062333487148
 20
82.5744865466382
 30
0
 40
4
 50
270
 51
0
  0
ARC
  8
1
 62
7
 10
31.5062333487148
 20
-3.425513453361802
 30
0
 40
4
 50
0
 51
90
  0
ARC
  8
1
 62
7
 10
47.5062333487148
 20
-3.425513453361802
 30
0
 40
4
 50
90
 51
180
  0
CIRCLE
  8
1
 62
3
  6
DIVIDE
 10
39.50623334871479
 20
-37.9255134533618
 30
0
 40
2.25
  0
CIRCLE
  8
1
 62
3
  6
DIVIDE
 10
39.5062333487148
 20
117.0744865466382
 30
0
 40
2.25
  0
CIRCLE
  8
1
 62
7
 10
39.50623334871479
 20
-19.9255134533618
 30
0
 40
2.25
  0
CIRCLE
  8
1
 62
7
 10
48.5062333487148
 20
-4.425513453361802
 30
0
 40
2.600000000000001
  0
CIRCLE
  8
1
 62
7
 10
30.50623334871479
 20
83.5744865466382
 30
0
 40
2.599999999999998
  0
CIRCLE
  8
1
 62
7
 10
48.5062333487148
 20
83.5744865466382
 30
0
 40
2.600000000000001
  0
CIRCLE
  8
1
 62
7
 10
47.90623334871481
 20
4.074486546638198
 30
0
 40
3.25
  0
CIRCLE
  8
1
 62
7
 10
31.1062333487148
 20
75.0744865466382
 30
0
 40
3.250000000000004
  0
CIRCLE
  8
1
 62
7
 10
39.50623334871479
 20
19.5744865466382
 30
0
 40
2
  0
CIRCLE
  8
1
 62
7
 10
39.5062333487148
 20
59.5744865466382
 30
0
 40
2
  0
CIRCLE
  8
1
 62
7
 10
33.14227231803587
 20
33.21052551595927
 30
0
 40
1.25
  0
CIRCLE
  8
1
 62
7
 10
45.87019437939373
 20
33.21052551595927
 30
0
 40
1.25
  0
CIRCLE
  8
1
 62
7
 10
33.14227231803587
 20
45.93844757731713
 30
0
 40
1.25
  0
CIRCLE
  8
1
 62
7
 10
45.87019437939373
 20
45.93844757731713
 30
0
 40
1.25
  0
CIRCLE
  8
1
 62
7
 10
39.5062333487148
 20
30.0744865466382
 30
0
 40
2
  0
CIRCLE
  8
1
 62
7
 10
30.0062333487148
 20
39.5744865466382
 30
0
 40
2
  0
CIRCLE
  8
1
 62
7
 10
49.0062333487148
 20
39.5744865466382
 30
0
 40
2
  0
CIRCLE
  8
1
 62
7
 10
39.5062333487148
 20
49.0744865466382
 30
0
 40
2
  0
CIRCLE
  8
1
 62
7
 10
30.50623334871479
 20
-4.425513453361802
 30
0
 40
2.599999999999998
  0
TEXT
  8
1
 62
7
 10
73.92407751458201
 20
-125.2646550995795
 30
0
 40
6
  1
4121_400
 41
0.8645364090000002
  0
DIMENSION
  8
1
  6
CONTINUOUS
 62
1
  2
*D0
  3
DMST_1
 10
88.0962333487148
 20
-4.425513453361802
 30
0
 11
84.2427655132918
 21
-7.34984259029153
 31
0
 12
0
 22
0
 32
0
 70
0
 13
55.5062333487148
 23
-10.4255134533618
 33
0
 14
51.1062333487148
 24
-4.425513453361802
 34
0
 50
90
 53
0
  0
DIMENSION
  8
1
  6
CONTINUOUS
 62
1
  2
*D1
  3
DMST_1
 10
88.0962333487148
 20
83.5744865466382
 30
0
 11
83.87842830786281
 21
39.6496569100522
 31
0
 12
0
 22
0
 32
0
 70
0
 13
51.1062333487148
 23
-4.425513453361802
 33
0
 14
51.1062333487148
 24
83.5744865466382
 34
0
 50
90
 53
0
  0
DIMENSION
  8
1
  6
CONTINUOUS
 62
1
  2
*D2
  3
DMST_1
 10
88.0962333487148
 20
-10.4255134533618
 30
0
 11
84.1213197781488
 21
-19.0086331640202
 31
0
 12
0
 22
0
 32
0
 70
0
 13
42.5062333487148
 23
-28.4255134533618
 33
0
 14
55.5062333487148
 24
-10.4255134533618
 34
0
 50
90
 53
0
  0
DIMENSION
  8
1
  6
CONTINUOUS
 62
1
  2
*D3
  3
DMST_1
 10
-18.9037666512852
 20
99.0744865466382
 30
0
 11
-23.4463587333802
 21
41.3957414490817
 31
0
 12
0
 22
0
 32
0
 70
0
 13
37.03123334871479
 23
-19.9255134533618
 33
0
 14
37.0312333487148
 24
99.0744865466382
 34
0
 50
90
 53
0
  0
DIMENSION
  8
1
  6
CONTINUOUS
 62
1
  2
*D4
  3
DMST_1
 10
-18.9037666512852
 20
-19.9255134533618
 30
0
 11
-22.5861442161942
 21
-28.1587466548163
 31
0
 12
0
 22
0
 32
0
 70
0
 13
37.03123334871479
 23
-37.9255134533618
 33
0
 14
37.03123334871479
 24
-19.9255134533618
 34
0
 50
90
 53
0
  0
DIMENSION
  8
1
  6
CONTINUOUS
 62
1
  2
*D5
  3
DMST_1
 10
-3.653766651285199
 20
39.5744865466382
 30
0
 11
-7.83960963586247
 21
14.6062036281457
 31
0
 12
0
 22
0
 32
0
 70
0
 13
23.5062333487148
 23
-10.4255134533618
 33
0
 14
6.635234324887833
 24
39.5744865466382
 34
0
 50
90
 53
0
  0
DIMENSION
  8
1
  6
CONTINUOUS
 62
1
  2
*D6
  3
DMST_1
 10
-3.653766651285199
 20
-19.9255134533618
 30
0
 11
-7.96249742403189
 21
-29.0189611720023
 31
0
 12
0
 22
0
 32
0
 70
0
  1
9,5
 13
23.5062333487148
 23
-10.4255134533618
 33
0
 14
37.03123334871479
 24
-19.9255134533618
 34
0
 50
90
 53
0
  0
DIMENSION
  8
1
  6
CONTINUOUS
 62
1
  2
*D7
  3
DMST_1
 10
30.50623334871479
 20
10.3308050753123
 30
0
 11
39.2637588717962
 21
14.0272463726151
 31
0
 12
0
 22
0
 32
0
 70
0
 13
48.5062333487148
 23
-1.565513453361802
 33
0
 14
30.50623334871479
 24
-1.305513453361802
 34
0
 53
0
  0
DIMENSION
  8
1
  6
CONTINUOUS
 62
1
  2
*D8
  3
DMST_1
 10
23.5062333487148
 20
10.3308050753123
 30
0
 11
14.7717433873128
 21
14.2375402636374
 31
0
 12
0
 22
0
 32
0
 70
0
 13
30.50623334871479
 23
-1.305513453361802
 33
0
 14
23.5062333487148
 24
-10.4255134533618
 34
0
 53
0
  0
DIMENSION
  8
1
  6
CONTINUOUS
 62
1
  2
*D9
  3
DMST_1
 10
8.50623334871478
 20
66.65486670819959
 30
0
 11
15.8126167820213
 21
71.0596519252985
 31
0
 12
0
 22
0
 32
0
 70
0
 13
23.5062333487148
 23
89.5744865466382
 33
0
 14
8.50623334871478
 24
39.5744865466382
 34
0
 53
0
  0
DIMENSION
  8
1
  6
CONTINUOUS
 62
1
  2
*D10
  3
DMST_1
 10
73.3462333487148
 20
101.3244865466382
 30
0
 11
68.21291626078801
 21
110.503833401073
 31
0
 12
0
 22
0
 32
0
 70
0
  1
4,5
 13
39.5062333487148
 23
96.8244865466382
 33
0
 14
39.5062333487148
 24
101.3244865466382
 34
0
 50
90
 53
0
  0
DIMENSION
  8
1
  6
CONTINUOUS
 62
1
  2
*D11
  3
DMST_1
 10
73.0962333487148
 20
43.0744865466382
 30
0
 11
69.1726287054541
 21
39.5810837402518
 31
0
 12
0
 22
0
 32
0
 70
0
 13
43.00623334871479
 23
36.0744865466382
 33
0
 14
43.00623334871479
 24
43.0744865466382
 34
0
 50
90
 53
0
  0
DIMENSION
  8
1
  6
CONTINUOUS
 62
1
  2
*D12
  3
DMST_1
 10
103.0962333487148
 20
89.5744865466382
 30
0
 11
98.6948079953096
 21
40.7426685263393
 31
0
 12
0
 22
0
 32
0
 70
0
 13
55.5062333487148
 23
-10.4255134533618
 33
0
 14
55.5062333487148
 24
89.5744865466382
 34
0
 50
90
 53
0
  0
DIMENSION
  8
1
  6
CONTINUOUS
 62
1
  2
*D13
  3
DMST_1
 10
34.5062333487148
 20
-64.01551345336181
 30
0
 11
39.1814636310673
 21
-59.7352564996021
 31
0
 12
0
 22
0
 32
0
 70
0
 13
44.5062333487148
 23
-44.4255134533618
 33
0
 14
34.5062333487148
 24
-44.4255134533618
 34
0
 53
0
  0
DIMENSION
  8
1
  6
CONTINUOUS
 62
1
  2
*D14
  3
DMST_1
 10
55.5062333487148
 20
-122.0155134533618
 30
0
 11
39.8393495202493
 21
-117.629214747623
 31
0
 12
0
 22
0
 32
0
 70
0
 13
23.5062333487148
 23
-104.4255134533618
 33
0
 14
55.5062333487148
 24
-104.4255134533618
 34
0
 53
0
  0
DIMENSION
  8
1
  6
CONTINUOUS
 62
1
  2
*D15
  3
DMST_1
 10
-3.903766651285199
 20
-90.4255134533618
 30
0
 11
-7.79158885653135
 21
-81.8402223761191
 31
0
 12
0
 22
0
 32
0
 70
0
 13
34.5062333487148
 23
-91.9255134533618
 33
0
 14
8.506233348714801
 24
-90.4255134533618
 34
0
 50
90
 53
0
  0
DIMENSION
  8
1
  6
CONTINUOUS
 62
1
  2
*D16
  3
DMST_1
 10
-18.9037666512852
 20
-94.9255134533618
 30
0
 11
-22.7913871298822
 21
-93.55059120355961
 31
0
 12
0
 22
0
 32
0
 70
0
 13
34.5062333487148
 23
-91.9255134533618
 33
0
 14
34.5062333487148
 24
-94.9255134533618
 34
0
 50
90
 53
0
  0
DIMENSION
  8
1
  6
CONTINUOUS
 62
1
  2
*D17
  3
DMST_1
 10
75.4612331564109
 20
-86.4255134533618
 30
0
 11
71.6810265566607
 21
-79.6034103529001
 31
0
 12
0
 22
0
 32
0
 70
0
 13
55.5062333487148
 23
-90.4255134533618
 33
0
 14
47.5062333487148
 24
-86.4255134533618
 34
0
 50
90
 53
0
  0
DIMENSION
  8
1
  6
CONTINUOUS
 62
1
  2
*D18
  3
DMST_1
 10
88.0962333487148
 20
-104.4255134533618
 30
0
 11
84.575589984629
 21
-97.8926380721612
 31
0
 12
0
 22
0
 32
0
 70
0
 13
55.5062333487148
 23
-90.4255134533618
 33
0
 14
55.5062333487148
 24
-104.4255134533618
 34
0
 50
90
 53
0
  0
DIMENSION
  8
1
  6
CONTINUOUS
 62
1
  2
*D19
  3
DMST_1
 10
33.03532383457504
 20
-3.822436912339718
 30
0
 11
18.87490405871
 21
-3.38221199014004
 31
0
 12
0
 22
0
 32
0
 70
3
 15
27.97714286285454
 25
-5.028589994383886
 35
0
 40
0
 53
0
  0
ENDSEC
  0
EOF
