  0
SECTION
  2
HEADER
  9
$ACADVER
  1
AC1009
  9
$DWGCODEPAGE
  3
ansi_1252
  9
$INSBASE
 10
0.0
 20
0.0
 30
0.0
  9
$EXTMIN
 10
-2101.653007534078
 20
-990.001713566333
 30
0.0
  9
$EXTMAX
 10
816.636892465922
 20
759.2877958864033
 30
0.0
  9
$LIMMIN
 10
0.0
 20
0.0
  9
$LIMMAX
 10
12.0
 20
9.0
  9
$ORTHOMODE
 70
     0
  9
$REGENMODE
 70
     1
  9
$FILLMODE
 70
     1
  9
$QTEXTMODE
 70
     0
  9
$MIRRTEXT
 70
     1
  9
$DRAGMODE
 70
     2
  9
$LTSCALE
 40
1.0
  9
$OSMODE
 70
    37
  9
$ATTMODE
 70
     1
  9
$TEXTSIZE
 40
0.2
  9
$TRACEWID
 40
0.05
  9
$TEXTSTYLE
  7
STANDARD
  9
$CLAYER
  8
0
  9
$CELTYPE
  6
BYLAYER
  9
$CECOLOR
 62
   256
  9
$DIMSCALE
 40
1.0
  9
$DIMASZ
 40
0.18
  9
$DIMEXO
 40
0.0625
  9
$DIMDLI
 40
0.38
  9
$DIMRND
 40
0.0
  9
$DIMDLE
 40
0.0
  9
$DIMEXE
 40
0.18
  9
$DIMTP
 40
0.0
  9
$DIMTM
 40
0.0
  9
$DIMTXT
 40
0.18
  9
$DIMCEN
 40
0.09
  9
$DIMTSZ
 40
0.0
  9
$DIMTOL
 70
     0
  9
$DIMLIM
 70
     0
  9
$DIMTIH
 70
     1
  9
$DIMTOH
 70
     1
  9
$DIMSE1
 70
     0
  9
$DIMSE2
 70
     0
  9
$DIMTAD
 70
     0
  9
$DIMZIN
 70
     0
  9
$DIMBLK
  1

  9
$DIMASO
 70
     1
  9
$DIMSHO
 70
     1
  9
$DIMPOST
  1

  9
$DIMAPOST
  1

  9
$DIMALT
 70
     0
  9
$DIMALTD
 70
     2
  9
$DIMALTF
 40
25.4
  9
$DIMLFAC
 40
1.0
  9
$DIMTOFL
 70
     0
  9
$DIMTVP
 40
0.0
  9
$DIMTIX
 70
     0
  9
$DIMSOXD
 70
     0
  9
$DIMSAH
 70
     0
  9
$DIMBLK1
  1

  9
$DIMBLK2
  1

  9
$DIMSTYLE
  2
STANDARD
  9
$DIMCLRD
 70
     0
  9
$DIMCLRE
 70
     0
  9
$DIMCLRT
 70
     0
  9
$DIMTFAC
 40
1.0
  9
$DIMGAP
 40
0.09
  9
$LUNITS
 70
     2
  9
$LUPREC
 70
     4
  9
$SKETCHINC
 40
0.1
  9
$FILLETRAD
 40
0.5
  9
$AUNITS
 70
     0
  9
$AUPREC
 70
     0
  9
$MENU
  1
.
  9
$ELEVATION
 40
0.0
  9
$PELEVATION
 40
0.0
  9
$THICKNESS
 40
0.0
  9
$LIMCHECK
 70
     0
  9
$CHAMFERA
 40
0.5
  9
$CHAMFERB
 40
0.5
  9
$SKPOLY
 70
     0
  9
$TDCREATE
 40
2457140.744231944
  9
$TDUPDATE
 40
2457140.744231956
  9
$TDINDWG
 40
0.0000000116
  9
$TDUSRTIMER
 40
0.0000000116
  9
$USRTIMER
 70
     1
  9
$ANGBASE
 50
0.0
  9
$ANGDIR
 70
     0
  9
$PDMODE
 70
     0
  9
$PDSIZE
 40
0.0
  9
$PLINEWID
 40
0.0
  9
$COORDS
 70
     1
  9
$SPLFRAME
 70
     0
  9
$SPLINETYPE
 70
     6
  9
$SPLINESEGS
 70
     8
  9
$ATTDIA
 70
     0
  9
$ATTREQ
 70
     1
  9
$HANDLING
 70
     1
  9
$HANDSEED
  5
738
  9
$SURFTAB1
 70
     6
  9
$SURFTAB2
 70
     6
  9
$SURFTYPE
 70
     6
  9
$SURFU
 70
     6
  9
$SURFV
 70
     6
  9
$UCSNAME
  2

  9
$UCSORG
 10
0.0
 20
0.0
 30
0.0
  9
$UCSXDIR
 10
1.0
 20
0.0
 30
0.0
  9
$UCSYDIR
 10
0.0
 20
1.0
 30
0.0
  9
$PUCSNAME
  2

  9
$PUCSORG
 10
0.0
 20
0.0
 30
0.0
  9
$PUCSXDIR
 10
1.0
 20
0.0
 30
0.0
  9
$PUCSYDIR
 10
0.0
 20
1.0
 30
0.0
  9
$USERI1
 70
     0
  9
$USERI2
 70
     0
  9
$USERI3
 70
     0
  9
$USERI4
 70
     0
  9
$USERI5
 70
     0
  9
$USERR1
 40
18.0
  9
$USERR2
 40
0.0
  9
$USERR3
 40
0.0
  9
$USERR4
 40
0.0
  9
$USERR5
 40
0.0
  9
$WORLDVIEW
 70
     1
  9
$SHADEDGE
 70
     3
  9
$SHADEDIF
 70
    70
  9
$TILEMODE
 70
     1
  9
$MAXACTVP
 70
    64
  9
$PLIMCHECK
 70
     0
  9
$PEXTMIN
 10
1.00000000000000E+20
 20
1.00000000000000E+20
 30
1.00000000000000E+20
  9
$PEXTMAX
 10
-1.00000000000000E+20
 20
-1.00000000000000E+20
 30
-1.00000000000000E+20
  9
$PLIMMIN
 10
0.0
 20
0.0
  9
$PLIMMAX
 10
12.0
 20
9.0
  9
$UNITMODE
 70
     0
  9
$VISRETAIN
 70
     1
  9
$PLINEGEN
 70
     0
  9
$PSLTSCALE
 70
     1
  0
ENDSEC
  0
SECTION
  2
TABLES
  0
TABLE
  2
VPORT
 70
     1
  0
VPORT
  2
*ACTIVE
 70
     0
 10
0.0
 20
0.0
 11
1.0
 21
1.0
 12
-642.508057534078
 22
-115.3569588399649
 13
0.0
 23
0.0
 14
0.5
 24
0.5
 15
0.5
 25
0.5
 16
0.0
 26
0.0
 36
1.0
 17
0.0
 27
0.0
 37
0.0
 40
2002.97111799443
 41
1.60267857142857
 42
50.0
 43
0.0
 44
0.0
 50
0.0
 51
0.0
 71
     0
 72
   100
 73
     1
 74
     3
 75
     0
 76
     0
 77
     0
 78
     0
  0
ENDTAB
  0
TABLE
  2
LTYPE
 70
     8
  0
LTYPE
  2
CONTINUOUS
 70
     0
  3
Solid line
 72
    65
 73
     0
 40
0.0
  0
LTYPE
  2
DASHED
 70
     0
  3
Dashed
 72
    65
 73
     2
 40
15.0
 49
7.0
 49
-8.0
  0
LTYPE
  2
DOTTED
 70
     0
  3
Dotted
 72
    65
 73
     2
 40
1.0
 49
0.0
 49
-1.0
  0
LTYPE
  2
DOT_CENTER
 70
     0
  3
Dot_Center
 72
    65
 73
     4
 40
14.0
 49
12.0
 49
-1.0
 49
0.0
 49
-1.0
  0
LTYPE
  2
LONG_DASHED
 70
     0
  3
Long_Dashed
 72
    65
 73
     2
 40
15.0
 49
10.0
 49
-5.0
  0
LTYPE
  2
DASH_CENTER
 70
     0
  3
Dash_Center
 72
    65
 73
     4
 40
14.0
 49
11.0
 49
-1.0
 49
1.0
 49
-1.0
  0
LTYPE
  2
PHANTOM
 70
     0
  3
Phantom
 72
    65
 73
     6
 40
13.0
 49
10.0
 49
-1.0
 49
0.0
 49
-1.0
 49
0.0
 49
-1.0
  0
LTYPE
  2
CENTER_DASH_DASH
 70
     0
  3
Center_Dash_Dash
 72
    65
 73
     6
 40
14.0
 49
9.0
 49
-1.0
 49
1.0
 49
-1.0
 49
1.0
 49
-1.0
  0
ENDTAB
  0
TABLE
  2
LAYER
 70
     2
  0
LAYER
  2
0
 70
     0
 62
     7
  6
CONTINUOUS
  0
LAYER
  2
1
 70
     0
 62
     7
  6
CONTINUOUS
  0
ENDTAB
  0
TABLE
  2
STYLE
 70
     4
  0
STYLE
  2
STANDARD
 70
     0
 40
0.0
 41
1.0
 50
0.0
 71
     0
 42
0.2
  3
txt
  4

  0
STYLE
  2
CONVERTER_11
 70
     0
 40
0.0
 41
0.9
 50
0.0
 71
     0
 42
0.2
  3
txt.shx
  4

  0
STYLE
  2
CONVERTER_12
 70
     0
 40
0.0
 41
1.188
 50
0.0
 71
     0
 42
0.2
  3
ARIAL.TTF
  4

  0
STYLE
  2
CONVERTER_13
 70
     0
 40
0.0
 41
0.95
 50
0.0
 71
     0
 42
0.2
  3
complex.shx
  4

  0
ENDTAB
  0
TABLE
  2
VIEW
 70
     0
  0
ENDTAB
  0
TABLE
  2
UCS
 70
     0
  0
ENDTAB
  0
TABLE
  2
APPID
 70
     1
  0
APPID
  2
ACAD
 70
     0
  0
ENDTAB
  0
TABLE
  2
DIMSTYLE
 70
    12
  0
DIMSTYLE
  2
STANDARD
 70
     0
  3

  4

  5

  6

  7

 40
1.0
 41
0.18
 42
0.0625
 43
0.38
 44
0.18
 45
0.0
 46
0.0
 47
0.0
 48
0.0
140
0.18
141
0.09
142
0.0
143
25.4
144
1.0
145
0.0
146
1.0
147
0.09
 71
     0
 72
     0
 73
     1
 74
     1
 75
     0
 76
     0
 77
     0
 78
     0
170
     0
171
     2
172
     0
173
     0
174
     0
175
     0
176
     0
177
     0
178
     0
  0
DIMSTYLE
  2
ME10_DIM_10
 70
     0
  3

  4

  5

  6

  7

 40
1.0
 41
3.5
 42
1.5
 43
0.38
 44
1.0
 45
0.0
 46
0.0
 47
1.0
 48
1.0
140
3.5
141
0.09
142
0.0
143
25.4
144
1.0
145
0.0
146
0.6
147
2.0
 71
     1
 72
     0
 73
     0
 74
     0
 75
     0
 76
     0
 77
     1
 78
     8
170
     0
171
     2
172
     1
173
     1
174
     1
175
     1
176
     1
177
     1
178
     3
  0
DIMSTYLE
  2
ME10_DIM_11
 70
     0
  3

  4

  5

  6

  7

 40
1.0
 41
3.5
 42
1.5
 43
0.38
 44
1.0
 45
0.0
 46
0.0
 47
0.0
 48
0.0
140
3.5
141
0.09
142
0.0
143
25.4
144
1.0
145
0.0
146
1.0
147
2.0
 71
     0
 72
     0
 73
     0
 74
     0
 75
     0
 76
     0
 77
     1
 78
     8
170
     0
171
     2
172
     1
173
     1
174
     1
175
     1
176
     1
177
     1
178
     3
  0
DIMSTYLE
  2
ME10_DIM_12
 70
     0
  3

  4

  5

  6

  7

 40
1.0
 41
3.5
 42
1.5
 43
0.38
 44
1.0
 45
0.0
 46
0.0
 47
0.0
 48
0.0
140
3.5
141
0.09
142
0.0
143
25.4
144
1.0
145
0.0
146
1.0
147
2.0
 71
     0
 72
     0
 73
     0
 74
     0
 75
     1
 76
     1
 77
     1
 78
     8
170
     0
171
     2
172
     1
173
     1
174
     1
175
     1
176
     1
177
     1
178
     3
  0
DIMSTYLE
  2
ME10_DIM_13
 70
     0
  3

  4

  5

  6

  7

 40
1.0
 41
3.5
 42
1.5
 43
0.38
 44
1.0
 45
0.0
 46
0.0
 47
0.0
 48
0.0
140
3.5
141
0.09
142
0.0
143
25.4
144
1.0
145
0.0
146
1.0
147
2.0
 71
     0
 72
     0
 73
     0
 74
     0
 75
     0
 76
     0
 77
     1
 78
     8
170
     0
171
     2
172
     1
173
     1
174
     1
175
     1
176
     1
177
     1
178
     3
  0
DIMSTYLE
  2
ME10_DIM_14
 70
     0
  3

  4

  5

  6

  7

 40
1.0
 41
3.5
 42
1.5
 43
0.38
 44
1.0
 45
0.0
 46
0.0
 47
1.5
 48
1.5
140
3.5
141
0.09
142
0.0
143
25.4
144
1.0
145
0.0
146
0.6
147
2.0
 71
     1
 72
     0
 73
     0
 74
     0
 75
     0
 76
     0
 77
     1
 78
     8
170
     0
171
     2
172
     1
173
     1
174
     1
175
     1
176
     1
177
     1
178
     3
  0
DIMSTYLE
  2
ME10_DIM_15
 70
     0
  3

  4

  5

  6

  7

 40
1.0
 41
3.5
 42
1.5
 43
0.38
 44
1.0
 45
0.0
 46
0.0
 47
0.0
 48
0.0
140
3.5
141
0.09
142
0.0
143
25.4
144
1.0
145
0.0
146
1.0
147
2.0
 71
     0
 72
     0
 73
     0
 74
     0
 75
     1
 76
     1
 77
     1
 78
     8
170
     0
171
     2
172
     1
173
     1
174
     1
175
     1
176
     1
177
     1
178
     3
  0
DIMSTYLE
  2
ME10_DIM_16
 70
     0
  3

  4

  5

  6

  7

 40
1.0
 41
3.5
 42
1.5
 43
0.38
 44
1.0
 45
0.0
 46
0.0
 47
0.0
 48
0.0
140
3.5
141
0.09
142
0.0
143
25.4
144
1.0
145
0.0
146
1.0
147
2.0
 71
     0
 72
     0
 73
     0
 74
     0
 75
     0
 76
     0
 77
     1
 78
     8
170
     0
171
     2
172
     1
173
     1
174
     1
175
     1
176
     1
177
     1
178
     3
  0
DIMSTYLE
  2
ME10_DIM_17
 70
     0
  3

  4

  5

  6

  7

 40
1.0
 41
3.5
 42
1.5
 43
0.38
 44
1.0
 45
0.0
 46
0.0
 47
0.0
 48
0.0
140
3.5
141
0.09
142
0.0
143
25.4
144
1.0
145
0.0
146
1.0
147
2.0
 71
     0
 72
     0
 73
     0
 74
     0
 75
     0
 76
     0
 77
     1
 78
     8
170
     0
171
     2
172
     1
173
     1
174
     1
175
     1
176
     1
177
     1
178
     3
  0
DIMSTYLE
  2
ME10_DIM_18
 70
     0
  3

  4

  5

  6

  7

 40
1.0
 41
3.5
 42
1.5
 43
0.38
 44
1.0
 45
0.0
 46
0.0
 47
0.0
 48
0.0
140
3.5
141
0.09
142
0.0
143
25.4
144
1.0
145
0.0
146
1.0
147
2.0
 71
     0
 72
     0
 73
     0
 74
     0
 75
     0
 76
     0
 77
     1
 78
     8
170
     0
171
     2
172
     1
173
     1
174
     1
175
     1
176
     1
177
     1
178
     3
  0
DIMSTYLE
  2
ME10_DIM_19
 70
     0
  3

  4

  5

  6

  7

 40
1.0
 41
3.5
 42
1.5
 43
0.38
 44
1.0
 45
0.0
 46
0.0
 47
0.0
 48
0.0
140
3.5
141
0.09
142
0.0
143
25.4
144
1.0
145
0.0
146
1.0
147
2.0
 71
     0
 72
     0
 73
     0
 74
     0
 75
     0
 76
     0
 77
     1
 78
     8
170
     0
171
     2
172
     1
173
     1
174
     1
175
     1
176
     1
177
     1
178
     3
  0
DIMSTYLE
  2
ME10_DIM_20
 70
     0
  3

  4

  5

  6

  7

 40
1.0
 41
3.5
 42
1.5
 43
0.38
 44
1.0
 45
0.0
 46
0.0
 47
0.0
 48
0.0
140
3.5
141
0.09
142
0.0
143
25.4
144
1.0
145
0.0
146
1.0
147
2.0
 71
     0
 72
     0
 73
     0
 74
     0
 75
     1
 76
     1
 77
     1
 78
     8
170
     0
171
     2
172
     1
173
     1
174
     1
175
     1
176
     1
177
     1
178
     3
  0
ENDTAB
  0
ENDSEC
  0
SECTION
  2
BLOCKS
  0
BLOCK
  8
0
  2
$MODEL_SPACE
 70
     0
 10
0.0
 20
0.0
 30
0.0
  3
$MODEL_SPACE
  1

  0
ENDBLK
  5
21
  8
0
  0
BLOCK
 67
     1
  8
0
  2
$PAPER_SPACE
 70
     0
 10
0.0
 20
0.0
 30
0.0
  3
$PAPER_SPACE
  1

  0
ENDBLK
  5
1D
 67
     1
  8
0
  0
BLOCK
  8
0
  2
ANTA__1
 70
     0
 10
-681.4116286233393
 20
-437.9753598742449
 30
0.0
  3
ANTA__1
  1

  0
LINE
  5
225
  8
0
  6
CONTINUOUS
 62
     7
 10
-681.4116286233393
 20
-437.9753598742449
 30
0.0
 11
-681.4116286233393
 21
-417.9753598742449
 31
0.0
  0
LINE
  5
226
  8
0
  6
CONTINUOUS
 62
     7
 10
-81.41162862333931
 20
-417.9753598742449
 30
0.0
 11
-681.4116286233393
 21
-417.9753598742449
 31
0.0
  0
LINE
  5
227
  8
0
  6
CONTINUOUS
 62
     7
 10
-681.4116286233393
 20
-437.9753598742449
 30
0.0
 11
-81.41162862333931
 21
-437.9753598742449
 31
0.0
  0
LINE
  5
228
  8
0
  6
CONTINUOUS
 62
     7
 10
-81.41162862333931
 20
-417.9753598742449
 30
0.0
 11
-81.41162862333931
 21
-437.9753598742449
 31
0.0
  0
ENDBLK
  5
49
  8
0
  0
BLOCK
  8
0
  2
CORPO_PORTA__2
 70
     0
 10
-76.51727188210134
 20
-440.6469745171074
 30
0.0
  3
CORPO_PORTA__2
  1

  0
LINE
  5
229
  8
0
  6
CONTINUOUS
 62
     7
 10
-76.01727188210134
 20
-440.6469745171074
 30
0.0
 11
-71.01727188210134
 21
-440.6469745171073
 31
0.0
  0
LINE
  5
22A
  8
0
  6
CONTINUOUS
 62
     1
 10
-76.01727188210134
 20
-440.1469745171074
 30
0.0
 11
-71.01727188210134
 21
-440.1469745171073
 31
0.0
  0
LINE
  5
22B
  8
0
  6
CONTINUOUS
 62
     7
 10
-76.51727188210134
 20
-440.1469745171074
 30
0.0
 11
-76.51727188210134
 21
-439.1469745171074
 31
0.0
  0
LINE
  5
22C
  8
0
  6
CONTINUOUS
 62
     1
 10
-76.01727188210134
 20
-440.1469745171074
 30
0.0
 11
-76.01727188210134
 21
-439.6719745171072
 31
0.0
  0
LINE
  5
22D
  8
0
  6
CONTINUOUS
 62
     7
 10
-74.51727188210134
 20
-439.6719745171072
 30
0.0
 11
-74.51727188210134
 21
-439.6219745171072
 31
0.0
  0
LINE
  5
22E
  8
0
  6
CONTINUOUS
 62
     7
 10
-74.51727188210134
 20
-439.6219745171072
 30
0.0
 11
-76.01727188210134
 21
-439.6219745171072
 31
0.0
  0
LINE
  5
22F
  8
0
  6
CONTINUOUS
 62
     7
 10
-76.01727188210134
 20
-439.6219745171072
 30
0.0
 11
-76.23521682927822
 21
-439.6219745171072
 31
0.0
  0
LINE
  5
230
  8
0
  6
CONTINUOUS
 62
     7
 10
-75.51727188210134
 20
-439.1719745171072
 30
0.0
 11
-75.51727188210134
 21
-439.1469745171072
 31
0.0
  0
LINE
  5
231
  8
0
  6
CONTINUOUS
 62
     7
 10
-76.01727188210134
 20
-439.1719745171072
 30
0.0
 11
-76.23521682927822
 21
-439.1719745171072
 31
0.0
  0
LINE
  5
232
  8
0
  6
CONTINUOUS
 62
     1
 10
-76.01727188210134
 20
-439.6219745171072
 30
0.0
 11
-76.01727188210134
 21
-439.1719745171072
 31
0.0
  0
LINE
  5
233
  8
0
  6
CONTINUOUS
 62
     7
 10
-76.01727188210134
 20
-439.1719745171072
 30
0.0
 11
-75.51727188210134
 21
-439.1719745171072
 31
0.0
  0
LINE
  5
234
  8
0
  6
CONTINUOUS
 62
     7
 10
-76.23521682927822
 20
-439.6719745171072
 30
0.0
 11
-76.23521682927822
 21
-439.6219745171072
 31
0.0
  0
LINE
  5
235
  8
0
  6
CONTINUOUS
 62
     7
 10
-76.23521682927822
 20
-439.1719745171072
 30
0.0
 11
-76.23521682927822
 21
-439.1469745171072
 31
0.0
  0
LINE
  5
236
  8
0
  6
CONTINUOUS
 62
     7
 10
-76.01727188210134
 20
-439.6719745171072
 30
0.0
 11
-76.23521682927822
 21
-439.6719745171072
 31
0.0
  0
LINE
  5
237
  8
0
  6
CONTINUOUS
 62
     7
 10
-76.01727188210134
 20
-439.6719745171072
 30
0.0
 11
-74.51727188210134
 21
-439.6719745171072
 31
0.0
  0
LINE
  5
238
  8
0
  6
CONTINUOUS
 62
     1
 10
-76.01727188210134
 20
-440.6469745171074
 30
0.0
 11
-76.01727188210134
 21
-440.1469745171074
 31
0.0
  0
LINE
  5
239
  8
0
  6
CONTINUOUS
 62
     1
 10
-76.01727188210134
 20
-440.1469745171074
 30
0.0
 11
-76.51727188210134
 21
-440.1469745171074
 31
0.0
  0
LINE
  5
23A
  8
0
  6
CONTINUOUS
 62
     7
 10
-75.22737197853803
 20
-439.1469759511743
 30
0.0
 11
-74.99562805786263
 21
-439.3018221435547
 31
0.0
  0
LINE
  5
23B
  8
0
  6
CONTINUOUS
 62
     7
 10
-74.03891724243385
 20
-439.3018221435547
 30
0.0
 11
-73.80717333384473
 21
-439.1469759592497
 31
0.0
  0
LINE
  5
23C
  8
0
  6
CONTINUOUS
 62
     7
 10
-71.01727188210134
 20
-439.1469745171073
 30
0.0
 11
-71.01727188210134
 21
-440.1469745171073
 31
0.0
  0
LINE
  5
23D
  8
0
  6
CONTINUOUS
 62
     7
 10
-71.01727188210134
 20
-440.6469745171073
 30
0.0
 11
-71.01727188210134
 21
-440.1469745171073
 31
0.0
  0
LINE
  5
23E
  8
0
  6
CONTINUOUS
 62
     7
 10
-68.01727188210134
 20
-440.1469745171073
 30
0.0
 11
-68.01727188210134
 21
-439.1469745171073
 31
0.0
  0
LINE
  5
23F
  8
0
  6
CONTINUOUS
 62
     7
 10
-68.01727188210134
 20
-440.6469745171073
 30
0.0
 11
-68.01727188210134
 21
-440.1469745171073
 31
0.0
  0
LINE
  5
240
  8
0
  6
CONTINUOUS
 62
     7
 10
-71.01727188210134
 20
-440.6469745171073
 30
0.0
 11
-68.01727188210134
 21
-440.6469745171073
 31
0.0
  0
LINE
  5
241
  8
0
  6
CONTINUOUS
 62
     7
 10
-63.91727188210189
 20
-440.1469745171073
 30
0.0
 11
-63.91727188210189
 21
-439.1469745171074
 31
0.0
  0
LINE
  5
242
  8
0
  6
CONTINUOUS
 62
     1
 10
-68.01727188210134
 20
-440.1469745171073
 30
0.0
 11
-64.41727188210189
 21
-440.1469745171073
 31
0.0
  0
LINE
  5
243
  8
0
  6
CONTINUOUS
 62
     7
 10
-68.01727188210134
 20
-440.6469745171073
 30
0.0
 11
-64.41727188210189
 21
-440.6469745171073
 31
0.0
  0
LINE
  5
244
  8
0
  6
CONTINUOUS
 62
     7
 10
-64.19932693492501
 20
-439.6719745171071
 30
0.0
 11
-64.19932693492501
 21
-439.6219745171071
 31
0.0
  0
LINE
  5
245
  8
0
  6
CONTINUOUS
 62
     7
 10
-65.91727188210189
 20
-439.6219745171071
 30
0.0
 11
-65.91727188210189
 21
-439.6719745171071
 31
0.0
  0
LINE
  5
246
  8
0
  6
CONTINUOUS
 62
     7
 10
-64.41727188210189
 20
-439.6219745171071
 30
0.0
 11
-65.91727188210189
 21
-439.6219745171071
 31
0.0
  0
LINE
  5
247
  8
0
  6
CONTINUOUS
 62
     7
 10
-64.19932693492501
 20
-439.1719745171071
 30
0.0
 11
-64.19932693492501
 21
-439.1469745171071
 31
0.0
  0
LINE
  5
248
  8
0
  6
CONTINUOUS
 62
     1
 10
-64.41727188210189
 20
-440.1469745171073
 30
0.0
 11
-64.41727188210189
 21
-439.6719745171071
 31
0.0
  0
LINE
  5
249
  8
0
  6
CONTINUOUS
 62
     7
 10
-64.41727188210189
 20
-439.6219745171071
 30
0.0
 11
-64.19932693492501
 21
-439.6219745171071
 31
0.0
  0
LINE
  5
24A
  8
0
  6
CONTINUOUS
 62
     7
 10
-64.91727188210189
 20
-439.1469745171071
 30
0.0
 11
-64.91727188210189
 21
-439.1719745171071
 31
0.0
  0
LINE
  5
24B
  8
0
  6
CONTINUOUS
 62
     7
 10
-64.91727188210189
 20
-439.1719745171071
 30
0.0
 11
-64.41727188210189
 21
-439.1719745171071
 31
0.0
  0
LINE
  5
24C
  8
0
  6
CONTINUOUS
 62
     1
 10
-64.41727188210189
 20
-440.6469745171073
 30
0.0
 11
-64.41727188210189
 21
-440.1469745171073
 31
0.0
  0
LINE
  5
24D
  8
0
  6
CONTINUOUS
 62
     7
 10
-64.41727188210189
 20
-439.6719745171071
 30
0.0
 11
-64.19932693492501
 21
-439.6719745171071
 31
0.0
  0
LINE
  5
24E
  8
0
  6
CONTINUOUS
 62
     7
 10
-65.91727188210189
 20
-439.6719745171071
 30
0.0
 11
-64.41727188210189
 21
-439.6719745171071
 31
0.0
  0
LINE
  5
24F
  8
0
  6
CONTINUOUS
 62
     1
 10
-64.41727188210189
 20
-439.6219745171071
 30
0.0
 11
-64.41727188210189
 21
-439.1719745171071
 31
0.0
  0
LINE
  5
250
  8
0
  6
CONTINUOUS
 62
     1
 10
-64.41727188210189
 20
-440.1469745171073
 30
0.0
 11
-63.91727188210189
 21
-440.1469745171073
 31
0.0
  0
LINE
  5
251
  8
0
  6
CONTINUOUS
 62
     7
 10
-64.41727188210189
 20
-439.1719745171071
 30
0.0
 11
-64.19932693492501
 21
-439.1719745171071
 31
0.0
  0
LINE
  5
252
  8
0
  6
CONTINUOUS
 62
     7
 10
-63.95533341064675
 20
-440.3383135375976
 30
0.0
 11
-63.91727188210189
 21
-440.1469745171073
 31
0.0
  0
LINE
  5
253
  8
0
  6
CONTINUOUS
 62
     7
 10
-63.95416785407542
 20
-440.3324544498943
 30
0.0
 11
-63.94174545898568
 21
-440.3014864501953
 31
0.0
  0
LINE
  5
254
  8
0
  6
CONTINUOUS
 62
     7
 10
-63.91727188210189
 20
-440.1469745171073
 30
0.0
 11
-63.91928452148568
 21
-440.191791015625
 31
0.0
  0
LINE
  5
255
  8
0
  6
CONTINUOUS
 62
     7
 10
-63.93529099121315
 20
-440.2799944458008
 30
0.0
 11
-63.92179840698464
 21
-440.2140917358398
 31
0.0
  0
LINE
  5
256
  8
0
  6
CONTINUOUS
 62
     7
 10
-64.05161158715691
 20
-440.4863523101518
 30
0.0
 11
-64.02635544433815
 21
-440.4587206420898
 31
0.0
  0
LINE
  5
257
  8
0
  6
CONTINUOUS
 62
     7
 10
-63.91928452148568
 20
-440.191791015625
 30
0.0
 11
-63.92179840698464
 21
-440.2140917358398
 31
0.0
  0
LINE
  5
258
  8
0
  6
CONTINUOUS
 62
     7
 10
-63.94174545898568
 20
-440.3014864501953
 30
0.0
 11
-63.93529099121315
 21
-440.2799944458008
 31
0.0
  0
LINE
  5
259
  8
0
  6
CONTINUOUS
 62
     7
 10
-64.08830231323464
 20
-440.5235094604492
 30
0.0
 11
-64.07173889770729
 21
-440.5083727416992
 31
0.0
  0
LINE
  5
25A
  8
0
  6
CONTINUOUS
 62
     7
 10
-64.02635544433815
 20
-440.4587206420898
 30
0.0
 11
-64.01276367798073
 21
-440.4408678588867
 31
0.0
  0
LINE
  5
25B
  8
0
  6
CONTINUOUS
 62
     7
 10
-63.96678894653542
 20
-440.3639177856445
 30
0.0
 11
-63.97697418823464
 21
-440.3839067993164
 31
0.0
  0
LINE
  5
25C
  8
0
  6
CONTINUOUS
 62
     7
 10
-64.01276367798073
 20
-440.4408678588867
 30
0.0
 11
-63.97697418823464
 21
-440.3839067993164
 31
0.0
  0
LINE
  5
25D
  8
0
  6
CONTINUOUS
 62
     7
 10
-64.3948361267112
 20
-440.6464724121094
 30
0.0
 11
-64.32799500122292
 21
-440.638942199707
 31
0.0
  0
LINE
  5
25E
  8
0
  6
CONTINUOUS
 62
     7
 10
-64.14182251587135
 20
-440.5642580566406
 30
0.0
 11
-64.16082352295143
 21
-440.576198059082
 31
0.0
  0
LINE
  5
25F
  8
0
  6
CONTINUOUS
 62
     7
 10
-64.32799500122292
 20
-440.638942199707
 30
0.0
 11
-64.30601090088112
 21
-440.6344408569336
 31
0.0
  0
LINE
  5
260
  8
0
  6
CONTINUOUS
 62
     7
 10
-64.24158447876198
 20
-440.6150927124023
 30
0.0
 11
-64.22715168332707
 21
-440.6093026735667
 31
0.0
  0
LINE
  5
261
  8
0
  6
CONTINUOUS
 62
     7
 10
-76.3557235417984
 20
-440.5140258563821
 30
0.0
 11
-76.3462406982444
 21
-440.5235094604492
 31
0.0
  0
LINE
  5
262
  8
0
  6
CONTINUOUS
 62
     7
 10
-76.44649475708229
 20
-440.4034227905273
 30
0.0
 11
-76.40818756714089
 21
-440.4587206420898
 31
0.0
  0
LINE
  5
263
  8
0
  6
CONTINUOUS
 62
     7
 10
-76.46949932870666
 20
-440.3576443099834
 30
0.0
 11
-76.4575688232444
 21
-440.3839067993164
 31
0.0
  0
LINE
  5
264
  8
0
  6
CONTINUOUS
 62
     7
 10
-76.32901352539284
 20
-440.5378908691406
 30
0.0
 11
-76.27372330322487
 21
-440.576198059082
 31
0.0
  0
LINE
  5
265
  8
0
  6
CONTINUOUS
 62
     7
 10
-76.25420731201393
 20
-440.5872759399414
 30
0.0
 11
-76.27372330322487
 21
-440.576198059082
 31
0.0
  0
LINE
  5
266
  8
0
  6
CONTINUOUS
 62
     7
 10
-76.4575688232444
 20
-440.3839067993164
 30
0.0
 11
-76.44649475708229
 21
-440.4034227905273
 31
0.0
  0
LINE
  5
267
  8
0
  6
CONTINUOUS
 62
     7
 10
-76.39380615844948
 20
-440.4759401855469
 30
0.0
 11
-76.40818756714089
 21
-440.4587206420898
 31
0.0
  0
LINE
  5
268
  8
0
  6
CONTINUOUS
 62
     7
 10
-76.3462406982444
 20
-440.5235094604492
 30
0.0
 11
-76.32901352539284
 21
-440.5378908691406
 31
0.0
  0
LINE
  5
269
  8
0
  6
CONTINUOUS
 62
     7
 10
-76.50923508301003
 20
-440.2362551269531
 30
0.0
 11
-76.49280136718971
 21
-440.3014864501953
 31
0.0
  0
LINE
  5
26A
  8
0
  6
CONTINUOUS
 62
     7
 10
-76.1977024211028
 20
-440.6129380917788
 30
0.0
 11
-76.19295853271706
 21
-440.6150927124023
 31
0.0
  0
LINE
  5
26B
  8
0
  6
CONTINUOUS
 62
     7
 10
-76.17177551880104
 20
-440.6225008544922
 30
0.0
 11
-76.10655182495339
 21
-440.638942199707
 31
0.0
  0
LINE
  5
26C
  8
0
  6
CONTINUOUS
 62
     7
 10
-76.4853894104017
 20
-440.322665649414
 30
0.0
 11
-76.49280136718971
 21
-440.3014864501953
 31
0.0
  0
LINE
  5
26D
  8
0
  6
CONTINUOUS
 62
     7
 10
-76.10655182495339
 20
-440.638942199707
 30
0.0
 11
-76.0843884338401
 21
-440.6424517211914
 31
0.0
  0
LINE
  5
26E
  8
0
  6
CONTINUOUS
 62
     7
 10
-76.19295853271706
 20
-440.6150927124023
 30
0.0
 11
-76.17177551880104
 21
-440.6225008544922
 31
0.0
  0
LINE
  5
26F
  8
0
  6
CONTINUOUS
 62
     7
 10
-76.5154640410019
 20
-440.1670655053976
 30
0.0
 11
-76.51274841919167
 21
-440.2140917358398
 31
0.0
  0
LINE
  5
270
  8
0
  6
CONTINUOUS
 62
     7
 10
-76.51274841919167
 20
-440.2140917358398
 30
0.0
 11
-76.50923508301003
 21
-440.2362551269531
 31
0.0
  0
ARC
  5
271
  8
0
  6
CONTINUOUS
 62
     7
 10
-76.01727188210134
 20
-440.1469745171074
 30
0.0
 40
0.5
 50
180.0
 51
270.0
  0
ARC
  5
272
  8
0
  6
CONTINUOUS
 62
     7
 10
-74.5172726501487
 20
-438.1469745171074
 30
0.0
 40
1.249998774559443
 50
247.4999213027731
 51
292.5000786972654
  0
ARC
  5
273
  8
0
  6
CONTINUOUS
 62
     7
 10
-64.41727184703814
 20
-440.1469737363016
 30
0.0
 40
0.4999999649368361
 50
354.8574157652479
 51
359.9999105262522
  0
ARC
  5
274
  8
0
  6
CONTINUOUS
 62
     7
 10
-64.41727354918658
 20
-440.146975631026
 30
0.0
 40
0.4999988860840797
 50
270.0001910342592
 51
337.500419645371
  0
ENDBLK
  5
4C
  8
0
  0
BLOCK
  8
0
  2
PD00700A08300_CORPO_CEC__3
 70
     0
 10
-76.51727188210134
 20
-440.6469745171074
 30
0.0
  3
PD00700A08300_CORPO_CEC__3
  1

  0
INSERT
  5
70
  8
0
  2
CORPO_PORTA__2
 10
-76.51727188210134
 20
-440.6469745171074
 30
0.0
  0
ENDBLK
  5
72
  8
0
  0
BLOCK
  8
0
  2
PX000__4
 70
     0
 10
-89.55867559688704
 20
-444.3671723179383
 30
0.0
  3
PX000__4
  1

  0
LINE
  5
275
  8
0
  6
CONTINUOUS
 62
     7
 10
-89.10172890749527
 20
-438.7422925508541
 30
0.0
 11
-84.36532622439427
 21
-443.6982789996837
 31
0.0
  0
LINE
  5
276
  8
0
  6
CONTINUOUS
 62
     7
 10
-83.98688477173073
 20
-444.02797265625
 30
0.0
 11
-84.01775398462269
 21
-444.0044543510809
 31
0.0
  0
LINE
  5
277
  8
0
  6
CONTINUOUS
 62
     7
 10
-84.07416092533367
 20
-443.961479635465
 30
0.0
 11
-84.09953278198464
 21
-443.9421495971679
 31
0.0
  0
LINE
  5
278
  8
0
  6
CONTINUOUS
 62
     7
 10
-83.35814048070097
 20
-444.3671723179383
 30
0.0
 11
-83.36597412719948
 21
-444.3643831787109
 31
0.0
  0
LINE
  5
279
  8
0
  6
CONTINUOUS
 62
     7
 10
-83.62458008423073
 20
-444.2491182861328
 30
0.0
 11
-83.65874131262626
 21
-444.2306106680159
 31
0.0
  0
LINE
  5
27A
  8
0
  6
CONTINUOUS
 62
     7
 10
-83.72097305143416
 20
-444.1968952160056
 30
0.0
 11
-83.749095617678
 21
-444.1816591796875
 31
0.0
  0
LINE
  5
27B
  8
0
  6
CONTINUOUS
 62
     7
 10
-83.86996811523568
 20
-444.1078753051758
 30
0.0
 11
-83.90194208152934
 21
-444.0860238027461
 31
0.0
  0
LINE
  5
27C
  8
0
  6
CONTINUOUS
 62
     7
 10
-83.96052808123295
 20
-444.0459852256378
 30
0.0
 11
-83.98688477173073
 21
-444.02797265625
 31
0.0
  0
LINE
  5
27D
  8
0
  6
CONTINUOUS
 62
     7
 10
-83.49676102295143
 20
-444.310084777832
 30
0.0
 11
-83.5318611122575
 21
-444.2933429141234
 31
0.0
  0
LINE
  5
27E
  8
0
  6
CONTINUOUS
 62
     7
 10
-83.59575855597268
 20
-444.2628654334341
 30
0.0
 11
-83.62458008423073
 21
-444.2491182861328
 31
0.0
  0
LINE
  5
27F
  8
0
  6
CONTINUOUS
 62
     7
 10
-83.749095617678
 20
-444.1816591796875
 30
0.0
 11
-83.78219411526061
 21
-444.1614549525765
 31
0.0
  0
LINE
  5
280
  8
0
  6
CONTINUOUS
 62
     7
 10
-83.84281548166564
 20
-444.124450014465
 30
0.0
 11
-83.86996811523568
 21
-444.1078753051758
 31
0.0
  0
LINE
  5
281
  8
0
  6
CONTINUOUS
 62
     7
 10
-83.36597412719948
 20
-444.3643831787109
 30
0.0
 11
-83.38383679748131
 21
-444.3569671877882
 31
0.0
  0
LINE
  5
282
  8
0
  6
CONTINUOUS
 62
     7
 10
-83.46722047351068
 20
-444.3223490386091
 30
0.0
 11
-83.49676102295143
 21
-444.310084777832
 31
0.0
  0
LINE
  5
283
  8
0
  6
CONTINUOUS
 62
     7
 10
-81.77910501908173
 20
-442.2504558872887
 30
0.0
 11
-81.76738414028569
 21
-442.2345087676732
 31
0.0
  0
LINE
  5
284
  8
0
  6
CONTINUOUS
 62
     7
 10
-82.30286312416865
 20
-442.5443967804625
 30
0.0
 11
-82.28034422901965
 21
-442.5418449374735
 31
0.0
  0
LINE
  5
285
  8
0
  6
CONTINUOUS
 62
     7
 10
-82.87412553373815
 20
-442.3598212254543
 30
0.0
 11
-82.85973279210975
 21
-442.3722195094694
 31
0.0
  0
LINE
  5
286
  8
0
  6
CONTINUOUS
 62
     7
 10
-82.95473798025978
 20
-442.2765251526657
 30
0.0
 11
-82.9421718387648
 21
-442.2912896986769
 31
0.0
  0
LINE
  5
287
  8
0
  6
CONTINUOUS
 62
     7
 10
-82.71489015787301
 20
-442.4677674615056
 30
0.0
 11
-82.69751588490817
 21
-442.4762398297527
 31
0.0
  0
LINE
  5
288
  8
0
  6
CONTINUOUS
 62
     7
 10
-82.57060841955627
 20
-442.5227328088755
 30
0.0
 11
-82.54846779302261
 21
-442.5283311213303
 31
0.0
  0
LINE
  5
289
  8
0
  6
CONTINUOUS
 62
     7
 10
-82.78185364416368
 20
-442.4295563466759
 30
0.0
 11
-82.76563594496383
 21
-442.4396499589053
 31
0.0
  0
LINE
  5
28A
  8
0
  6
CONTINUOUS
 62
     7
 10
-82.49524812682284
 20
-442.5387517575229
 30
0.0
 11
-82.47623659309374
 21
-442.541522177649
 31
0.0
  0
LINE
  5
28B
  8
0
  6
CONTINUOUS
 62
     7
 10
-82.37995251755638
 20
-442.548092165092
 30
0.0
 11
-82.36051878199396
 21
-442.5479002080043
 31
0.0
  0
LINE
  5
28C
  8
0
  6
CONTINUOUS
 62
     7
 10
-82.45693806482268
 20
-442.5438492910138
 30
0.0
 11
-82.43775502838525
 21
-442.5456380078327
 31
0.0
  0
LINE
  5
28D
  8
0
  6
CONTINUOUS
 62
     7
 10
-82.67995895053991
 20
-442.4842717410522
 30
0.0
 11
-82.66211042226041
 21
-442.4918617237764
 31
0.0
  0
LINE
  5
28E
  8
0
  6
CONTINUOUS
 62
     7
 10
-82.5346028057329
 20
-442.5314202372255
 30
0.0
 11
-82.51431972237697
 21
-442.5354482574045
 31
0.0
  0
LINE
  5
28F
  8
0
  6
CONTINUOUS
 62
     7
 10
-82.64431844418868
 20
-442.4989172611446
 30
0.0
 11
-82.62606982122361
 21
-442.5055925567559
 31
0.0
  0
LINE
  5
290
  8
0
  6
CONTINUOUS
 62
     7
 10
-82.8214489807151
 20
-442.4025759277344
 30
0.0
 11
-82.79806905846362
 21
-442.4188509873444
 31
0.0
  0
LINE
  5
291
  8
0
  6
CONTINUOUS
 62
     7
 10
-82.74879607222647
 20
-442.4495628054693
 30
0.0
 11
-82.74539948068923
 21
-442.4514405148767
 31
0.0
  0
LINE
  5
292
  8
0
  6
CONTINUOUS
 62
     7
 10
-82.74337271165041
 20
-442.4525609567223
 30
0.0
 11
-82.73198403538845
 21
-442.4588568637574
 31
0.0
  0
LINE
  5
293
  8
0
  6
CONTINUOUS
 62
     7
 10
-82.34135659786716
 20
-442.547237418734
 30
0.0
 11
-82.32194890338815
 21
-442.5460429218048
 31
0.0
  0
LINE
  5
294
  8
0
  6
CONTINUOUS
 62
     7
 10
-82.1215654657517
 20
-442.5032915833877
 30
0.0
 11
-82.09723052494064
 21
-442.4938391683619
 31
0.0
  0
LINE
  5
295
  8
0
  6
CONTINUOUS
 62
     7
 10
-82.0794686973868
 20
-442.4864341303885
 30
0.0
 11
-82.06175699127925
 21
-442.4784842837368
 31
0.0
  0
LINE
  5
296
  8
0
  6
CONTINUOUS
 62
     7
 10
-82.04440737001187
 20
-442.4701771383972
 30
0.0
 11
-82.02717825642412
 21
-442.461351304603
 31
0.0
  0
LINE
  5
297
  8
0
  6
CONTINUOUS
 62
     7
 10
-81.8842208173528
 20
-442.3632216967127
 30
0.0
 11
-81.86992922729314
 21
-442.3504089392669
 31
0.0
  0
LINE
  5
298
  8
0
  6
CONTINUOUS
 62
     7
 10
-82.18884172210892
 20
-442.5240403587576
 30
0.0
 11
-82.17579902064426
 21
-442.5204688089658
 31
0.0
  0
LINE
  5
299
  8
0
  6
CONTINUOUS
 62
     7
 10
-82.17354196401266
 20
-442.5198507475799
 30
0.0
 11
-82.1703367487853
 21
-442.5189730470662
 31
0.0
  0
LINE
  5
29A
  8
0
  6
CONTINUOUS
 62
     7
 10
-82.1516636582619
 20
-442.5133611054804
 30
0.0
 11
-82.12879666881963
 21
-442.5058117166219
 31
0.0
  0
LINE
  5
29B
  8
0
  6
CONTINUOUS
 62
     7
 10
-82.26978638476066
 20
-442.5404487231491
 30
0.0
 11
-82.2455537914293
 21
-442.5364309844068
 31
0.0
  0
LINE
  5
29C
  8
0
  6
CONTINUOUS
 62
     7
 10
-82.22639286230606
 20
-442.5327660520393
 30
0.0
 11
-82.20762044531148
 21
-442.5286467128868
 31
0.0
  0
LINE
  5
29D
  8
0
  6
CONTINUOUS
 62
     7
 10
-82.41846577381602
 20
-442.5469594773972
 30
0.0
 11
-82.39927832598823
 21
-442.5477599818938
 31
0.0
  0
LINE
  5
29E
  8
0
  6
CONTINUOUS
 62
     7
 10
-82.01025663081145
 20
-442.4521514191152
 30
0.0
 11
-81.98645717480576
 21
-442.4383732156153
 31
0.0
  0
LINE
  5
29F
  8
0
  6
CONTINUOUS
 62
     7
 10
-81.91301423091045
 20
-442.3870906421167
 30
0.0
 11
-81.89895755784346
 21
-442.3757375185861
 31
0.0
  0
LINE
  5
2A0
  8
0
  6
CONTINUOUS
 62
     7
 10
-81.85577923382061
 20
-442.3370806822284
 30
0.0
 11
-81.84216126567662
 21
-442.3235442588044
 31
0.0
  0
LINE
  5
2A1
  8
0
  6
CONTINUOUS
 62
     7
 10
-81.98151452740422
 20
-442.4352775324763
 30
0.0
 11
-81.96095213697663
 21
-442.4219116153632
 31
0.0
  0
LINE
  5
2A2
  8
0
  6
CONTINUOUS
 62
     7
 10
-81.80317476757864
 20
-442.280645268257
 30
0.0
 11
-81.79098582733332
 21
-442.265738588019
 31
0.0
  0
LINE
  5
2A3
  8
0
  6
CONTINUOUS
 62
     7
 10
-81.94498351580842
 20
-442.4109662928971
 30
0.0
 11
-81.92924692951146
 21
-442.3995417578923
 31
0.0
  0
LINE
  5
2A4
  8
0
  6
CONTINUOUS
 62
     7
 10
-81.82877168561117
 20
-442.3095638776046
 30
0.0
 11
-81.81577891748202
 21
-442.2952437577407
 31
0.0
  0
LINE
  5
2A5
  8
0
  6
CONTINUOUS
 62
     7
 10
-81.62774075670677
 20
-441.8202576162734
 30
0.0
 11
-81.62743410764688
 21
-441.8009787231678
 31
0.0
  0
LINE
  5
2A6
  8
0
  6
CONTINUOUS
 62
     7
 10
-82.07451878198117
 20
-441.112283069477
 30
0.0
 11
-82.09217183433793
 21
-441.1047724223223
 31
0.0
  0
LINE
  5
2A7
  8
0
  6
CONTINUOUS
 62
     7
 10
-82.18359481666266
 20
-441.0738932091219
 30
0.0
 11
-82.20601711846302
 21
-441.0682236743761
 31
0.0
  0
LINE
  5
2A8
  8
0
  6
CONTINUOUS
 62
     7
 10
-82.00568288214163
 20
-441.1469913237021
 30
0.0
 11
-82.0090618797758
 21
-441.1451225778329
 31
0.0
  0
LINE
  5
2A9
  8
0
  6
CONTINUOUS
 62
     7
 10
-82.0111252659326
 20
-441.1439814274751
 30
0.0
 11
-82.02237823937321
 21
-441.1377579997258
 31
0.0
  0
LINE
  5
2AA
  8
0
  6
CONTINUOUS
 62
     7
 10
-82.48489490974498
 20
-441.0561347599592
 30
0.0
 11
-82.50912496749606
 21
-441.0601569301385
 31
0.0
  0
LINE
  5
2AB
  8
0
  6
CONTINUOUS
 62
     7
 10
-82.03958804260219
 20
-441.1287831390795
 30
0.0
 11
-82.05708287822745
 21
-441.1202558244073
 31
0.0
  0
LINE
  5
2AC
  8
0
  6
CONTINUOUS
 62
     7
 10
-82.11034744297012
 20
-441.0975647535003
 30
0.0
 11
-82.12842088753587
 21
-441.0909573393952
 31
0.0
  0
LINE
  5
2AD
  8
0
  6
CONTINUOUS
 62
     7
 10
-81.97256007474425
 20
-441.1670343445156
 30
0.0
 11
-81.98895002683548
 21
-441.1568373384913
 31
0.0
  0
LINE
  5
2AE
  8
0
  6
CONTINUOUS
 62
     7
 10
-82.56557252374296
 20
-441.0724929879895
 30
0.0
 11
-82.57865595113162
 21
-441.0760783696275
 31
0.0
  0
LINE
  5
2AF
  8
0
  6
CONTINUOUS
 62
     7
 10
-82.5809569764433
 20
-441.0767089424622
 30
0.0
 11
-82.58427766745808
 21
-441.0776189444238
 31
0.0
  0
LINE
  5
2B0
  8
0
  6
CONTINUOUS
 62
     7
 10
-82.41319278339688
 20
-441.0493217352674
 30
0.0
 11
-82.43229205052285
 21
-441.0504934694469
 31
0.0
  0
LINE
  5
2B1
  8
0
  6
CONTINUOUS
 62
     7
 10
-82.2592056955582
 20
-441.0578083243867
 30
0.0
 11
-82.27825481551645
 21
-441.0550324270777
 31
0.0
  0
LINE
  5
2B2
  8
0
  6
CONTINUOUS
 62
     7
 10
-82.14649007032494
 20
-441.0848457317335
 30
0.0
 11
-82.16530602109378
 21
-441.0790424452122
 31
0.0
  0
LINE
  5
2B3
  8
0
  6
CONTINUOUS
 62
     7
 10
-82.63936139314592
 20
-441.0957681312099
 30
0.0
 11
-82.65703660324198
 21
-441.1026299631436
 31
0.0
  0
LINE
  5
2B4
  8
0
  6
CONTINUOUS
 62
     7
 10
-82.33601595730488
 20
-441.0495910226367
 30
0.0
 11
-82.35534648984412
 21
-441.0487884501114
 31
0.0
  0
LINE
  5
2B5
  8
0
  6
CONTINUOUS
 62
     7
 10
-82.45189940348064
 20
-441.0521844286958
 30
0.0
 11
-82.47373047227484
 21
-441.0546583271477
 31
0.0
  0
LINE
  5
2B6
  8
0
  6
CONTINUOUS
 62
     7
 10
-82.37445713900524
 20
-441.0484637408521
 30
0.0
 11
-82.39395766797588
 21
-441.048656357693
 31
0.0
  0
LINE
  5
2B7
  8
0
  6
CONTINUOUS
 62
     7
 10
-82.29760654489928
 20
-441.0526991306138
 30
0.0
 11
-82.31656485390067
 21
-441.0509274314987
 31
0.0
  0
LINE
  5
2B8
  8
0
  6
CONTINUOUS
 62
     7
 10
-82.21985125215906
 20
-441.0651410685231
 30
0.0
 11
-82.24018417577463
 21
-441.0611031505601
 31
0.0
  0
LINE
  5
2B9
  8
0
  6
CONTINUOUS
 62
     7
 10
-82.71026716497363
 20
-441.1264740396883
 30
0.0
 11
-82.72707332987738
 21
-441.1350822573082
 31
0.0
  0
LINE
  5
2BA
  8
0
  6
CONTINUOUS
 62
     7
 10
-82.92570327431076
 20
-441.2869927088046
 30
0.0
 11
-82.93867523695644
 21
-441.301287796388
 31
0.0
  0
LINE
  5
2BB
  8
0
  6
CONTINUOUS
 62
     7
 10
-82.95128171920624
 20
-441.3158851769227
 30
0.0
 11
-82.96352376338564
 21
-441.3308568015574
 31
0.0
  0
LINE
  5
2BC
  8
0
  6
CONTINUOUS
 62
     7
 10
-82.87020188162114
 20
-441.2332880379706
 30
0.0
 11
-82.88456837969716
 21
-441.2461662438337
 31
0.0
  0
LINE
  5
2BD
  8
0
  6
CONTINUOUS
 62
     7
 10
-82.84146602185228
 20
-441.2094687097887
 30
0.0
 11
-82.85557516163863
 21
-441.2208656558684
 31
0.0
  0
LINE
  5
2BE
  8
0
  6
CONTINUOUS
 62
     7
 10
-82.89868115298304
 20
-441.2594594422382
 30
0.0
 11
-82.91235175779548
 21
-441.2730500797244
 31
0.0
  0
LINE
  5
2BF
  8
0
  6
CONTINUOUS
 62
     7
 10
-82.60275278225345
 20
-441.0831751980353
 30
0.0
 11
-82.6209719404169
 21
-441.0891901354195
 31
0.0
  0
LINE
  5
2C0
  8
0
  6
CONTINUOUS
 62
     7
 10
-82.74438495032337
 20
-441.1444941737086
 30
0.0
 11
-82.76815226258441
 21
-441.1582591939588
 31
0.0
  0
LINE
  5
2C1
  8
0
  6
CONTINUOUS
 62
     7
 10
-82.67527308033823
 20
-441.1102336997733
 30
0.0
 11
-82.69246269950872
 21
-441.1179500446284
 31
0.0
  0
LINE
  5
2C2
  8
0
  6
CONTINUOUS
 62
     7
 10
-82.52788428250733
 20
-441.0637446845009
 30
0.0
 11
-82.54693385783139
 21
-441.0679209894157
 31
0.0
  0
LINE
  5
2C3
  8
0
  6
CONTINUOUS
 62
     7
 10
-82.97538872817586
 20
-441.3461214203417
 30
0.0
 11
-82.98711915315016
 21
-441.3620796200331
 31
0.0
  0
LINE
  5
2C4
  8
0
  6
CONTINUOUS
 62
     7
 10
-81.29122513427865
 20
-439.8277239379883
 30
0.0
 11
-81.28544962940668
 21
-439.8311035391606
 31
0.0
  0
LINE
  5
2C5
  8
0
  6
CONTINUOUS
 62
     7
 10
-81.23574533931514
 20
-439.8601885595696
 30
0.0
 11
-81.1912228454612
 21
-439.8862413940429
 31
0.0
  0
LINE
  5
2C6
  8
0
  6
CONTINUOUS
 62
     7
 10
-81.00091141357643
 20
-440.0183291015625
 30
0.0
 11
-80.99575831881884
 21
-440.0225302057889
 31
0.0
  0
LINE
  5
2C7
  8
0
  6
CONTINUOUS
 62
     7
 10
-80.95068776183598
 20
-440.0592743598014
 30
0.0
 11
-80.91110962524635
 21
-440.0915407714844
 31
0.0
  0
LINE
  5
2C8
  8
0
  6
CONTINUOUS
 62
     7
 10
-84.09953278198464
 20
-443.9421495971679
 30
0.0
 11
-84.12920927565938
 21
-443.9170262294593
 31
0.0
  0
LINE
  5
2C9
  8
0
  6
CONTINUOUS
 62
     7
 10
-84.18315289469592
 20
-443.8713589282135
 30
0.0
 11
-84.20761459961068
 21
-443.8506502685547
 31
0.0
  0
LINE
  5
2CA
  8
0
  6
CONTINUOUS
 62
     7
 10
-84.20761459961068
 20
-443.8506502685547
 30
0.0
 11
-84.23596775299575
 21
-443.8240217748331
 31
0.0
  0
LINE
  5
2CB
  8
0
  6
CONTINUOUS
 62
     7
 10
-84.28754659469905
 20
-443.7755803600863
 30
0.0
 11
-84.3108403076194
 21
-443.7537035522461
 31
0.0
  0
LINE
  5
2CC
  8
0
  6
CONTINUOUS
 62
     7
 10
-84.09953278198464
 20
-443.9421495971679
 30
0.0
 11
-84.12920927565938
 21
-443.9170262294593
 31
0.0
  0
LINE
  5
2CD
  8
0
  6
CONTINUOUS
 62
     7
 10
-84.18315289469592
 20
-443.8713589282135
 30
0.0
 11
-84.20761459961068
 21
-443.8506502685547
 31
0.0
  0
LINE
  5
2CE
  8
0
  6
CONTINUOUS
 62
     7
 10
-84.3108403076194
 20
-443.7537035522461
 30
0.0
 11
-84.36532622439427
 21
-443.6982789996837
 31
0.0
  0
LINE
  5
2CF
  8
0
  6
CONTINUOUS
 62
     7
 10
-85.61968861291916
 20
-438.4557283833861
 30
0.0
 11
-85.62318009033424
 21
-438.4520296630859
 31
0.0
  0
LINE
  5
2D0
  8
0
  6
CONTINUOUS
 62
     7
 10
-81.75970496689479
 20
-439.6346799925764
 30
0.0
 11
-84.74228309202681
 21
-438.7833929629044
 31
0.0
  0
LINE
  5
2D1
  8
0
  6
CONTINUOUS
 62
     7
 10
-81.09436768188698
 20
-439.9498323974609
 30
0.0
 11
-81.08897620489734
 21
-439.9537839612317
 31
0.0
  0
LINE
  5
2D2
  8
0
  6
CONTINUOUS
 62
     7
 10
-81.04244014953292
 20
-439.9878915333826
 30
0.0
 11
-81.00091141357643
 21
-440.0183291015625
 31
0.0
  0
LINE
  5
2D3
  8
0
  6
CONTINUOUS
 62
     7
 10
-81.71726959839089
 20
-439.647242980957
 30
0.0
 11
-81.71339907836136
 21
-439.6485404565765
 31
0.0
  0
LINE
  5
2D4
  8
0
  6
CONTINUOUS
 62
     7
 10
-81.65606805536208
 20
-439.6677589605534
 30
0.0
 11
-81.60741013183815
 21
-439.6840700683594
 31
0.0
  0
LINE
  5
2D5
  8
0
  6
CONTINUOUS
 62
     7
 10
-80.91110962524635
 20
-440.0915407714844
 30
0.0
 11
-80.90623077824148
 21
-440.0959549767084
 31
0.0
  0
LINE
  5
2D6
  8
0
  6
CONTINUOUS
 62
     7
 10
-80.86281862183569
 20
-440.1352327338115
 30
0.0
 11
-80.82519119873268
 21
-440.1692766723633
 31
0.0
  0
LINE
  5
2D7
  8
0
  6
CONTINUOUS
 62
     7
 10
-81.49959534301979
 20
-439.7265047607422
 30
0.0
 11
-81.49352735820048
 21
-439.7292617188037
 31
0.0
  0
LINE
  5
2D8
  8
0
  6
CONTINUOUS
 62
     7
 10
-81.44080270644463
 20
-439.7532168963486
 30
0.0
 11
-81.39410751953346
 21
-439.7744326171875
 31
0.0
  0
LINE
  5
2D9
  8
0
  6
CONTINUOUS
 62
     7
 10
-81.39410751953346
 20
-439.7744326171875
 30
0.0
 11
-81.38823440230317
 21
-439.7774747917408
 31
0.0
  0
LINE
  5
2DA
  8
0
  6
CONTINUOUS
 62
     7
 10
-81.33683986895267
 20
-439.8040962834313
 30
0.0
 11
-81.29122513427865
 21
-439.8277239379883
 31
0.0
  0
LINE
  5
2DB
  8
0
  6
CONTINUOUS
 62
     7
 10
-81.29122513427865
 20
-439.8277239379883
 30
0.0
 11
-81.28544962940668
 21
-439.8311035391606
 31
0.0
  0
LINE
  5
2DC
  8
0
  6
CONTINUOUS
 62
     7
 10
-81.23574533931514
 20
-439.8601885595696
 30
0.0
 11
-81.1912228454612
 21
-439.8862413940429
 31
0.0
  0
LINE
  5
2DD
  8
0
  6
CONTINUOUS
 62
     7
 10
-81.00091141357643
 20
-440.0183291015625
 30
0.0
 11
-80.99575831881884
 21
-440.0225302057889
 31
0.0
  0
LINE
  5
2DE
  8
0
  6
CONTINUOUS
 62
     7
 10
-80.95068776183598
 20
-440.0592743598014
 30
0.0
 11
-80.91110962524635
 21
-440.0915407714844
 31
0.0
  0
LINE
  5
2DF
  8
0
  6
CONTINUOUS
 62
     7
 10
-80.82519119873268
 20
-440.1692766723633
 30
0.0
 11
-80.82055765760379
 21
-440.1739244745307
 31
0.0
  0
LINE
  5
2E0
  8
0
  6
CONTINUOUS
 62
     7
 10
-80.77952974566142
 20
-440.215078661524
 30
0.0
 11
-80.74338883056862
 21
-440.2513308105469
 31
0.0
  0
LINE
  5
2E1
  8
0
  6
CONTINUOUS
 62
     7
 10
-81.1912228454612
 20
-439.8862413940429
 30
0.0
 11
-81.18565725164262
 21
-439.8898955275186
 31
0.0
  0
LINE
  5
2E2
  8
0
  6
CONTINUOUS
 62
     7
 10
-81.13741135898817
 20
-439.9215717398289
 30
0.0
 11
-81.09436768188698
 21
-439.9498323974609
 31
0.0
  0
LINE
  5
2E3
  8
0
  6
CONTINUOUS
 62
     7
 10
-81.60741013183815
 20
-439.6840700683594
 30
0.0
 11
-81.6012894970554
 21
-439.6864790816035
 31
0.0
  0
LINE
  5
2E4
  8
0
  6
CONTINUOUS
 62
     7
 10
-81.5471178218113
 20
-439.7078004457695
 30
0.0
 11
-81.49959534301979
 21
-439.7265047607422
 31
0.0
  0
LINE
  5
2E5
  8
0
  6
CONTINUOUS
 62
     7
 10
-80.6659199584983
 20
-440.3374895629883
 30
0.0
 11
-80.66167421667797
 21
-440.3427311153708
 31
0.0
  0
LINE
  5
2E6
  8
0
  6
CONTINUOUS
 62
     7
 10
-80.62562502653964
 20
-440.3872354037695
 30
0.0
 11
-80.59299057617409
 21
-440.4275240478515
 31
0.0
  0
LINE
  5
2E7
  8
0
  6
CONTINUOUS
 62
     7
 10
-80.74338883056862
 20
-440.2513308105469
 30
0.0
 11
-80.73891033940708
 21
-440.2563116654503
 31
0.0
  0
LINE
  5
2E8
  8
0
  6
CONTINUOUS
 62
     7
 10
-80.70063439502792
 20
-440.2988811198399
 30
0.0
 11
-80.6659199584983
 21
-440.3374895629883
 31
0.0
  0
LINE
  5
2E9
  8
0
  6
CONTINUOUS
 62
     7
 10
-80.59299057617409
 20
-440.4275240478515
 30
0.0
 11
-80.58582121310337
 21
-440.4369695520792
 31
0.0
  0
LINE
  5
2EA
  8
0
  6
CONTINUOUS
 62
     7
 10
-76.79415019549288
 20
-441.2482770272437
 30
0.0
 11
-78.97723856950688
 21
-441.2482770272425
 31
0.0
  0
LINE
  5
2EB
  8
0
  6
CONTINUOUS
 62
     7
 10
-73.64164667258865
 20
-442.3264965770956
 30
0.0
 11
-72.40664850896428
 21
-441.8711376420081
 31
0.0
  0
LINE
  5
2EC
  8
0
  6
CONTINUOUS
 62
     7
 10
-76.671458898928
 20
-441.2445101318359
 30
0.0
 11
-76.57434460993045
 21
-441.2360249080426
 31
0.0
  0
LINE
  5
2ED
  8
0
  6
CONTINUOUS
 62
     7
 10
-73.06416444955903
 20
-441.2786487859032
 30
0.0
 11
-72.90334371893368
 21
-440.6469729520459
 31
0.0
  0
LINE
  5
2EE
  8
0
  6
CONTINUOUS
 62
     7
 10
-72.40664850896428
 20
-441.8711376420081
 30
0.0
 11
-69.54045414615666
 21
-440.8143367080128
 31
0.0
  0
LINE
  5
2EF
  8
0
  6
CONTINUOUS
 62
     7
 10
-69.27499359741432
 20
-440.6938128051758
 30
0.0
 11
-69.19411434621907
 21
-440.64697595067
 31
0.0
  0
LINE
  5
2F0
  8
0
  6
CONTINUOUS
 62
     7
 10
-89.55501145019662
 20
-437.9874987182617
 30
0.0
 11
-89.55867559688704
 21
-437.9753603517736
 31
0.0
  0
LINE
  5
2F1
  8
0
  6
CONTINUOUS
 62
     7
 10
-85.74329967928497
 20
-438.0314385222711
 30
0.0
 11
-85.73341253936633
 21
-437.9753624414107
 31
0.0
  0
ARC
  5
2F2
  8
0
  6
CONTINUOUS
 62
     7
 10
-85.25089491544713
 20
-438.118257644972
 30
0.0
 40
0.5000000115167504
 50
170.0005780879776
 51
221.8777929788367
  0
ARC
  5
2F3
  8
0
  6
CONTINUOUS
 62
     7
 10
-78.97625038019851
 20
-439.2482788411473
 30
0.0
 40
1.999998430224919
 50
269.7896577382426
 51
269.9716904382635
  0
ARC
  5
2F4
  8
0
  6
CONTINUOUS
 62
     7
 10
-82.37716672824172
 20
-441.7982983248377
 30
0.0
 40
2.250000736538315
 50
72.94512221688717
 51
74.07210854735337
  0
ARC
  5
2F5
  8
0
  6
CONTINUOUS
 62
     7
 10
-78.9772119201898
 20
-439.2482784435744
 30
0.0
 40
1.99999858384565
 50
263.9155247904654
 51
269.9992365527617
  0
ARC
  5
2F6
  8
0
  6
CONTINUOUS
 62
     7
 10
-76.79415116399286
 20
-439.2482770569786
 30
0.0
 40
1.999999970265328
 50
270.0000277454814
 51
273.5170828937935
  0
ARC
  5
2F7
  8
0
  6
CONTINUOUS
 62
     7
 10
-72.57962145937563
 20
-441.402010411477
 30
0.0
 40
0.5000000000000822
 50
165.7163045873253
 51
290.2395477599027
  0
ARC
  5
2F8
  8
0
  6
CONTINUOUS
 62
     7
 10
-70.23233515584798
 20
-438.9378228861061
 30
0.0
 40
2.000000863844363
 50
290.2392091231216
 51
298.5986109529473
  0
ARC
  5
2F9
  8
0
  6
CONTINUOUS
 62
     7
 10
-87.65584317752382
 20
-437.3604792506931
 30
0.0
 40
1.999998385158585
 50
198.2708864786414
 51
223.7019652047965
  0
ENDBLK
  5
75
  8
0
  0
BLOCK
  8
0
  2
PD05300A02500__5
 70
     0
 10
-89.55867559688704
 20
-444.3671723179383
 30
0.0
  3
PD05300A02500__5
  1

  0
INSERT
  5
77
  8
0
  2
PX000__4
 10
-89.55867559688704
 20
-444.3671723179383
 30
0.0
  0
ENDBLK
  5
79
  8
0
  0
BLOCK
  8
0
  2
PX000__6
 70
     0
 10
-89.55659034166638
 20
-445.0132318497225
 30
0.0
  3
PX000__6
  1

  0
LINE
  5
2FA
  8
0
  6
CONTINUOUS
 62
     7
 10
-85.77823352181349
 20
-441.9288612628825
 30
0.0
 11
-89.55659034166638
 21
-437.975359277599
 31
0.0
  0
LINE
  5
2FB
  8
0
  6
CONTINUOUS
 62
     7
 10
-86.46775440853435
 20
-437.9753603516834
 30
0.0
 11
-86.4587895263694
 21
-437.9817766723633
 31
0.0
  0
LINE
  5
2FC
  8
0
  6
CONTINUOUS
 62
     7
 10
-85.15490183800193
 20
-438.6475702363074
 30
0.0
 11
-85.00934030836561
 21
-438.6987239275574
 31
0.0
  0
LINE
  5
2FD
  8
0
  6
CONTINUOUS
 62
     7
 10
-85.6216039750725
 20
-438.4536993349453
 30
0.0
 11
-85.58353033697131
 21
-438.4716672187648
 31
0.0
  0
LINE
  5
2FE
  8
0
  6
CONTINUOUS
 62
     7
 10
-84.82498688695887
 20
-438.7582250207972
 30
0.0
 11
-84.74026549906011
 21
-438.7839780532829
 31
0.0
  0
LINE
  5
2FF
  8
0
  6
CONTINUOUS
 62
     7
 10
-85.44224179348203
 20
-438.5339482551777
 30
0.0
 11
-85.29938178153134
 21
-438.5925786096037
 31
0.0
  0
LINE
  5
300
  8
0
  6
CONTINUOUS
 62
     7
 10
-84.74026549906011
 20
-438.7839780532829
 30
0.0
 11
-81.75971121092334
 21
-439.6346781823996
 31
0.0
  0
LINE
  5
301
  8
0
  6
CONTINUOUS
 62
     7
 10
-75.7777260019484
 20
-444.179887621654
 30
0.0
 11
-76.36321509562822
 21
-444.3957665249652
 31
0.0
  0
LINE
  5
302
  8
0
  6
CONTINUOUS
 62
     7
 10
-79.16804028965907
 20
-441.2391548998379
 30
0.0
 11
-77.25692123498811
 21
-441.4223126957396
 31
0.0
  0
LINE
  5
303
  8
0
  6
CONTINUOUS
 62
     7
 10
-76.18046048343967
 20
-440.619464328733
 30
0.0
 11
-76.1889912475608
 21
-440.6596560058594
 31
0.0
  0
LINE
  5
304
  8
0
  6
CONTINUOUS
 62
     7
 10
-73.08995594566022
 20
-440.6469745516308
 30
0.0
 11
-73.28517646219461
 21
-441.413766756147
 31
0.0
  0
ARC
  5
305
  8
0
  6
CONTINUOUS
 62
     7
 10
-79.82270104990948
 20
-435.0132318497227
 30
0.0
 40
9.999999999999849
 50
249.3688806859916
 51
290.2397123097097
  0
ARC
  5
306
  8
0
  6
CONTINUOUS
 62
     7
 10
-82.37723856950561
 20
-441.798277027242
 30
0.0
 40
2.749999999998975
 50
213.5135080077429
 51
249.3688806859978
  0
ARC
  5
307
  8
0
  6
CONTINUOUS
 62
     7
 10
-93.00762342149028
 20
-448.8379799967331
 30
0.0
 40
9.999999999999723
 50
33.51350800777362
 51
43.70233495919794
  0
ARC
  5
308
  8
0
  6
CONTINUOUS
 62
     7
 10
-83.09353014586122
 20
-433.0143791406265
 30
0.0
 40
6.000000744700233
 50
235.8835651760811
 51
254.0704105062504
  0
ARC
  5
309
  8
0
  6
CONTINUOUS
 62
     7
 10
-79.822650189466
 20
-435.0132229624539
 30
0.0
 40
10.00000222370445
 50
278.4361448516167
 51
281.38695498517
  0
ARC
  5
30A
  8
0
  6
CONTINUOUS
 62
     7
 10
-79.822650189466
 20
-435.0132229624539
 30
0.0
 40
10.00000222370445
 50
278.4361448516167
 51
281.38695498517
  0
ARC
  5
30B
  8
0
  6
CONTINUOUS
 62
     7
 10
-77.1615203836609
 20
-440.4268737515573
 30
0.0
 40
3.999999999999671
 50
290.2397123097111
 51
345.7163045873323
  0
ARC
  5
30C
  8
0
  6
CONTINUOUS
 62
     7
 10
-78.97723856950324
 20
-439.248277027244
 30
0.0
 40
1.999999999999636
 50
216.8698976458127
 51
264.5256078048978
  0
ARC
  5
30D
  8
0
  6
CONTINUOUS
 62
     7
 10
-77.16152023345057
 20
-440.4268736442848
 30
0.0
 40
1.0000001281278
 50
264.5256003662876
 51
346.5390652102951
  0
ARC
  5
30E
  8
0
  6
CONTINUOUS
 62
     7
 10
-82.37723856950561
 20
-441.798277027242
 30
0.0
 40
2.250000000001068
 50
36.86989764579538
 51
74.07036607584234
  0
CIRCLE
  5
30F
  8
0
  6
CONTINUOUS
 62
     7
 10
-82.37723856950561
 20
-441.798277027242
 30
0.0
 40
0.7500000000000744
  0
CIRCLE
  5
310
  8
0
  6
CONTINUOUS
 62
     7
 10
-82.37723856950561
 20
-441.798277027242
 30
0.0
 40
1.000000000000247
  0
ENDBLK
  5
7C
  8
0
  0
BLOCK
  8
0
  2
PD05300A02600__7
 70
     0
 10
-89.55659034166638
 20
-445.0132318497225
 30
0.0
  3
PD05300A02600__7
  1

  0
INSERT
  5
7E
  8
0
  2
PX000__6
 10
-89.55659034166638
 20
-445.0132318497225
 30
0.0
  0
ENDBLK
  5
80
  8
0
  0
BLOCK
  8
0
  2
PD02100A00700_SPINA_TE5__8
 70
     0
 10
-83.12192886963112
 20
-442.5428673427605
 30
0.0
  3
PD02100A00700_SPINA_TE5__8
  1

  0
LINE
  5
311
  8
0
  6
CONTINUOUS
 62
     7
 10
-83.09882673831544
 20
-442.0019487103914
 30
0.0
 11
-82.96681183471901
 21
-442.2618517456054
 31
0.0
  0
LINE
  5
312
  8
0
  6
CONTINUOUS
 62
     7
 10
-81.91366547241432
 20
-442.387851196289
 30
0.0
 11
-81.7240975963332
 21
-442.1664638801404
 31
0.0
  0
LINE
  5
313
  8
0
  6
CONTINUOUS
 62
     7
 10
-82.28943407534734
 20
-441.0536845099462
 30
0.0
 11
-82.579906164553
 21
-441.0761751708984
 31
0.0
  0
LINE
  5
314
  8
0
  6
CONTINUOUS
 62
     7
 10
-82.7445332397483
 20
-442.4521822509765
 30
0.0
 11
-82.4675416629625
 21
-442.5425706552156
 31
0.0
  0
LINE
  5
315
  8
0
  6
CONTINUOUS
 62
     7
 10
-82.46508126770732
 20
-442.5428673427605
 30
0.0
 11
-82.17457169189674
 21
-442.5203737792969
 31
0.0
  0
LINE
  5
316
  8
0
  6
CONTINUOUS
 62
     7
 10
-83.12192886963112
 20
-441.7091784057617
 30
0.0
 11
-83.09943213646966
 21
-441.9997289189593
 31
0.0
  0
LINE
  5
317
  8
0
  6
CONTINUOUS
 62
     7
 10
-82.00994499380704
 20
-441.1443692132038
 30
0.0
 11
-82.28690026217828
 21
-441.0539900319295
 31
0.0
  0
LINE
  5
318
  8
0
  6
CONTINUOUS
 62
     7
 10
-83.03153773670692
 20
-441.4321784670309
 30
0.0
 11
-83.12192886963112
 21
-441.7091784057617
 31
0.0
  0
LINE
  5
319
  8
0
  6
CONTINUOUS
 62
     7
 10
-82.96681183471901
 20
-442.2618517456054
 30
0.0
 11
-82.7445332397483
 21
-442.4521822509765
 31
0.0
  0
LINE
  5
31A
  8
0
  6
CONTINUOUS
 62
     7
 10
-82.84081238403542
 20
-441.2087053833008
 30
0.0
 11
-83.03037202378437
 21
-441.4300754822867
 31
0.0
  0
LINE
  5
31B
  8
0
  6
CONTINUOUS
 62
     7
 10
-81.78846651208369
 20
-441.3340161261295
 30
0.0
 11
-82.00994499380704
 21
-441.1443692132038
 31
0.0
  0
LINE
  5
31C
  8
0
  6
CONTINUOUS
 62
     7
 10
-81.63254898681862
 20
-441.8873705444336
 30
0.0
 11
-81.6550448945718
 21
-441.5968306915808
 31
0.0
  0
LINE
  5
31D
  8
0
  6
CONTINUOUS
 62
     7
 10
-81.72294500916632
 20
-442.1643854666018
 30
0.0
 11
-81.63254898681862
 21
-441.8873705444336
 31
0.0
  0
LINE
  5
31E
  8
0
  6
CONTINUOUS
 62
     7
 10
-81.65565561121912
 20
-441.5945913945522
 30
0.0
 11
-81.78846651208369
 21
-441.3340161261295
 31
0.0
  0
ARC
  5
31F
  8
0
  6
CONTINUOUS
 62
     7
 10
-82.3772383645437
 20
-441.7982769231288
 30
0.0
 40
0.7499984332581185
 50
285.6775248591289
 51
308.17740803996
  0
ARC
  5
320
  8
0
  6
CONTINUOUS
 62
     7
 10
-82.37722357952771
 20
-441.7982694131172
 30
0.0
 40
0.7500002166120343
 50
105.6787492124283
 51
128.1788473191917
  0
CIRCLE
  5
321
  8
0
  6
CONTINUOUS
 62
     1
 10
-82.3772385695047
 20
-441.7982770272354
 30
0.0
 40
0.449999999999966
  0
ENDBLK
  5
83
  8
0
  0
BLOCK
  8
0
  2
GFS0001A01900__9
 70
     0
 10
-89.55867559688704
 20
-445.0132318497225
 30
0.0
  3
GFS0001A01900__9
  1

  0
INSERT
  5
85
  8
0
  2
PD05300A02500__5
 10
-89.55867559688704
 20
-444.3671723179383
 30
0.0
  0
INSERT
  5
86
  8
0
  2
PD05300A02600__7
 10
-89.55659034166638
 20
-445.0132318497225
 30
0.0
  0
INSERT
  5
87
  8
0
  2
PD02100A00700_SPINA_TE5__8
 10
-83.12192886963112
 20
-442.5428673427605
 30
0.0
  0
ENDBLK
  5
89
  8
0
  0
BLOCK
  8
0
  2
GFS0001A01800__10
 70
     0
 10
-89.55867559688704
 20
-445.0132318497225
 30
0.0
  3
GFS0001A01800__10
  1

  0
INSERT
  5
8B
  8
0
  2
PD00700A08300_CORPO_CEC__3
 10
-76.51727188210134
 20
-440.6469745171074
 30
0.0
  0
INSERT
  5
8C
  8
0
  2
GFS0001A01900__9
 10
-89.55867559688704
 20
-445.0132318497225
 30
0.0
  0
ENDBLK
  5
8E
  8
0
  0
BLOCK
  8
0
  2
GFS0001A01700__11
 70
     0
 10
-89.55867559688704
 20
-445.0132318497225
 30
0.0
  3
GFS0001A01700__11
  1

  0
INSERT
  5
90
  8
0
  2
GFS0001A01800__10
 10
-89.55867559688704
 20
-445.0132318497225
 30
0.0
  0
ENDBLK
  5
92
  8
0
  0
BLOCK
  8
0
  2
GFS0001A01600__12
 70
     0
 10
-89.55867559688704
 20
-445.0132318497225
 30
0.0
  3
GFS0001A01600__12
  1

  0
INSERT
  5
94
  8
0
  2
GFS0001A01700__11
 10
-89.55867559688704
 20
-445.0132318497225
 30
0.0
  0
ENDBLK
  5
96
  8
0
  0
BLOCK
  8
0
  2
GFS0001A01500__13
 70
     0
 10
-89.55867559688704
 20
-445.0132318497225
 30
0.0
  3
GFS0001A01500__13
  1

  0
INSERT
  5
98
  8
0
  2
GFS0001A01600__12
 10
-89.55867559688704
 20
-445.0132318497225
 30
0.0
  0
ENDBLK
  5
9A
  8
0
  0
BLOCK
  8
0
  2
GFS0001A01400__14
 70
     0
 10
-89.55867559688704
 20
-445.0132318497225
 30
0.0
  3
GFS0001A01400__14
  1

  0
INSERT
  5
9C
  8
0
  2
GFS0001A01500__13
 10
-89.55867559688704
 20
-445.0132318497225
 30
0.0
  0
ENDBLK
  5
9E
  8
0
  0
BLOCK
  8
0
  2
00S0001A00300__15
 70
     0
 10
-89.55867559688704
 20
-445.0132318497225
 30
0.0
  3
00S0001A00300__15
  1

  0
INSERT
  5
A0
  8
0
  2
GFS0001A01400__14
 10
-89.55867559688704
 20
-445.0132318497225
 30
0.0
  0
ENDBLK
  5
A2
  8
0
  0
BLOCK
  8
0
  2
PCA09A093__16
 70
     0
 10
-89.55867559688704
 20
-445.0132318497225
 30
0.0
  3
PCA09A093__16
  1

  0
INSERT
  5
A4
  8
0
  2
00S0001A00300__15
 10
-89.55867559688704
 20
-445.0132318497225
 30
0.0
  0
ENDBLK
  5
A6
  8
0
  0
BLOCK
  8
0
  2
PX__17
 70
     0
 10
-79.51727188216773
 20
-439.1469745170263
 30
0.0
  3
PX__17
  1

  0
LINE
  5
322
  8
0
  6
CONTINUOUS
 62
     7
 10
-59.51727188216773
 20
-239.1469745170263
 30
0.0
 11
-79.51727188216773
 21
-239.1469745170263
 31
0.0
  0
LINE
  5
323
  8
0
  6
CONTINUOUS
 62
     7
 10
-59.51727188216773
 20
-239.1469745170263
 30
0.0
 11
-59.51727188216773
 21
-439.1469745170263
 31
0.0
  0
LINE
  5
324
  8
0
  6
CONTINUOUS
 62
     7
 10
-79.51727188216773
 20
-239.1469745170263
 30
0.0
 11
-79.51727188216773
 21
-439.1469745170263
 31
0.0
  0
LINE
  5
325
  8
0
  6
CONTINUOUS
 62
     7
 10
-79.51727188216773
 20
-439.1469745170263
 30
0.0
 11
-59.51727188216773
 21
-439.1469745170263
 31
0.0
  0
ENDBLK
  5
A9
  8
0
  0
BLOCK
  8
0
  2
PD05900A60600_PANNELLO__18
 70
     0
 10
-59.51727188216773
 20
-439.1469745170263
 30
0.0
  3
PD05900A60600_PANNELLO__18
  1

  0
LINE
  5
326
  8
0
  6
CONTINUOUS
 62
     7
 10
500.4827281178323
 20
-239.1469745170262
 30
0.0
 11
500.4827281178323
 21
-439.1469745170263
 31
0.0
  0
LINE
  5
327
  8
0
  6
CONTINUOUS
 62
     7
 10
500.4827281178323
 20
-239.1469745170262
 30
0.0
 11
-59.51727188216773
 21
-239.1469745170262
 31
0.0
  0
LINE
  5
328
  8
0
  6
CONTINUOUS
 62
     7
 10
-59.51727188216773
 20
-239.1469745170262
 30
0.0
 11
-59.51727188216773
 21
-439.1469745170263
 31
0.0
  0
LINE
  5
329
  8
0
  6
CONTINUOUS
 62
     7
 10
500.4827281178323
 20
-439.1469745170263
 30
0.0
 11
-59.51727188216773
 21
-439.1469745170263
 31
0.0
  0
ENDBLK
  5
AC
  8
0
  0
BLOCK
  8
0
  2
PD05900A60500_PANNELLO__19
 70
     0
 10
500.4827281178323
 20
-439.1469745170263
 30
0.0
  3
PD05900A60500_PANNELLO__19
  1

  0
LINE
  5
32A
  8
0
  6
CONTINUOUS
 62
     7
 10
520.4827281178323
 20
-239.1469745170262
 30
0.0
 11
500.4827281178323
 21
-239.1469745170262
 31
0.0
  0
LINE
  5
32B
  8
0
  6
CONTINUOUS
 62
     7
 10
500.4827281178323
 20
-439.1469745170263
 30
0.0
 11
520.4827281178323
 21
-439.1469745170263
 31
0.0
  0
LINE
  5
32C
  8
0
  6
CONTINUOUS
 62
     7
 10
500.4827281178323
 20
-239.1469745170262
 30
0.0
 11
500.4827281178323
 21
-439.1469745170263
 31
0.0
  0
LINE
  5
32D
  8
0
  6
CONTINUOUS
 62
     7
 10
520.4827281178323
 20
-239.1469745170262
 30
0.0
 11
520.4827281178323
 21
-439.1469745170263
 31
0.0
  0
ENDBLK
  5
AF
  8
0
  0
BLOCK
  8
0
  2
PX001025_MOBILE_LEST60__20
 70
     0
 10
-79.51727188216773
 20
-439.1469745170263
 30
0.0
  3
PX001025_MOBILE_LEST60__20
  1

  0
INSERT
  5
B1
  8
0
  2
PX__17
 10
-79.51727188216773
 20
-439.1469745170263
 30
0.0
  0
INSERT
  5
B2
  8
0
  2
PD05900A60600_PANNELLO__18
 10
-59.51727188216773
 20
-439.1469745170263
 30
0.0
  0
INSERT
  5
B3
  8
0
  2
PD05900A60500_PANNELLO__19
 10
500.4827281178323
 20
-439.1469745170263
 30
0.0
  0
ENDBLK
  5
B5
  8
0
  0
BLOCK
  8
0
  2
TKKZ0TEC05700__21
 70
     0
 10
-681.4116286233393
 20
-445.0132318497225
 30
0.0
  3
TKKZ0TEC05700__21
  1

  0
INSERT
  5
B7
  8
0
  2
ANTA__1
 10
-681.4116286233393
 20
-437.9753598742449
 30
0.0
  0
INSERT
  5
B8
  8
0
  2
PCA09A093__16
 10
-89.55867559688704
 20
-445.0132318497225
 30
0.0
  0
INSERT
  5
B9
  8
0
  2
PX001025_MOBILE_LEST60__20
 10
-79.51727188216773
 20
-439.1469745170263
 30
0.0
  0
ENDBLK
  5
BB
  8
0
  0
BLOCK
  8
0
  2
IN_ALTO11
 70
     0
 10
-23.43140000000221
 20
-358.3185
 30
0.0
  3
IN_ALTO11
  1

  0
INSERT
  5
BD
  8
0
  2
TKKZ0TEC05700__21
 10
-681.4116286233393
 20
-445.0132318497225
 30
0.0
  0
INSERT
  5
32F
  8
1
 62
     3
  2
*X124
 10
0.0
 20
0.0
 30
0.0
  0
TEXT
  5
330
  8
1
  6
CONTINUOUS
 62
     5
 10
-90.96445025275204
 20
-453.5132318497215
 30
0.0
 40
3.5
  1
In Alto11
 41
0.9
  7
CONVERTER_11
  0
DIMENSION
  5
33E
  8
1
  2
*D112
 10
-81.41162862333931
 20
-383.7891522035309
 30
0.0
 11
-89.95770130453297
 21
-380.0391522035309
 31
0.0
 70
    32
  1
<>
 53
0.00013888888889
  3
ME10_DIM_10
 13
-79.51727188216773
 23
-439.1469745170263
 33
0.0
 14
-81.41162862333931
 24
-417.9753598742449
 34
0.0
  0
DIMENSION
  5
349
  8
1
  2
*D113
 10
-681.4116286233393
 20
-398.4156413034159
 30
0.0
 11
-386.9802649710295
 21
-394.1406413034159
 31
0.0
 70
    32
  1
Lp
 53
0.00013888888889
  3
ME10_DIM_11
 13
-81.41162862333931
 23
-417.9753598742449
 33
0.0
 14
-681.4116286233393
 24
-417.9753598742449
 34
0.0
  0
INSERT
  5
356
  8
1
  2
*D114
 10
0.0
 20
0.0
 30
0.0
  0
ENDBLK
  5
BF
  8
0
  0
BLOCK
  8
0
  2
ANTA__22
 70
     0
 10
-1907.898699845772
 20
-863.3737815855395
 30
0.0
  3
ANTA__22
  1

  0
LINE
  5
357
  8
0
  6
CONTINUOUS
 62
     7
 10
-1893.756564222041
 20
-863.3737815855395
 30
0.0
 11
-1907.898699845772
 21
-849.2316459618087
 31
0.0
  0
LINE
  5
358
  8
0
  6
CONTINUOUS
 62
     7
 10
-1483.634631133843
 20
-424.9675772498804
 30
0.0
 11
-1907.898699845772
 21
-849.2316459618087
 31
0.0
  0
LINE
  5
359
  8
0
  6
CONTINUOUS
 62
     7
 10
-1893.756564222041
 20
-863.3737815855395
 30
0.0
 11
-1469.492495510112
 21
-439.1097128736114
 31
0.0
  0
LINE
  5
35A
  8
0
  6
CONTINUOUS
 62
     7
 10
-1483.634631133843
 20
-424.9675772498804
 30
0.0
 11
-1469.492495510112
 21
-439.1097128736114
 31
0.0
  0
ENDBLK
  5
C2
  8
0
  0
BLOCK
  8
0
  2
CORPO_PORTA__23
 70
     0
 10
-1465.29177188212
 20
-440.6469745170393
 30
0.0
  3
CORPO_PORTA__23
  1

  0
LINE
  5
35B
  8
0
  6
CONTINUOUS
 62
     7
 10
-1464.79177188212
 20
-440.6469745170393
 30
0.0
 11
-1459.79177188212
 21
-440.6469745170393
 31
0.0
  0
LINE
  5
35C
  8
0
  6
CONTINUOUS
 62
     1
 10
-1464.79177188212
 20
-440.1469745170393
 30
0.0
 11
-1459.79177188212
 21
-440.1469745170393
 31
0.0
  0
LINE
  5
35D
  8
0
  6
CONTINUOUS
 62
     7
 10
-1465.29177188212
 20
-440.1469745170393
 30
0.0
 11
-1465.29177188212
 21
-439.1469745170394
 31
0.0
  0
LINE
  5
35E
  8
0
  6
CONTINUOUS
 62
     1
 10
-1464.79177188212
 20
-440.1469745170393
 30
0.0
 11
-1464.79177188212
 21
-439.6719745170391
 31
0.0
  0
LINE
  5
35F
  8
0
  6
CONTINUOUS
 62
     7
 10
-1463.29177188212
 20
-439.6719745170391
 30
0.0
 11
-1463.29177188212
 21
-439.6219745170391
 31
0.0
  0
LINE
  5
360
  8
0
  6
CONTINUOUS
 62
     7
 10
-1463.29177188212
 20
-439.6219745170391
 30
0.0
 11
-1464.79177188212
 21
-439.6219745170391
 31
0.0
  0
LINE
  5
361
  8
0
  6
CONTINUOUS
 62
     7
 10
-1464.79177188212
 20
-439.6219745170391
 30
0.0
 11
-1465.009716829296
 21
-439.6219745170391
 31
0.0
  0
LINE
  5
362
  8
0
  6
CONTINUOUS
 62
     7
 10
-1464.29177188212
 20
-439.1719745170391
 30
0.0
 11
-1464.29177188212
 21
-439.1469745170391
 31
0.0
  0
LINE
  5
363
  8
0
  6
CONTINUOUS
 62
     7
 10
-1464.79177188212
 20
-439.1719745170391
 30
0.0
 11
-1465.009716829296
 21
-439.1719745170391
 31
0.0
  0
LINE
  5
364
  8
0
  6
CONTINUOUS
 62
     1
 10
-1464.79177188212
 20
-439.6219745170391
 30
0.0
 11
-1464.79177188212
 21
-439.1719745170391
 31
0.0
  0
LINE
  5
365
  8
0
  6
CONTINUOUS
 62
     7
 10
-1464.79177188212
 20
-439.1719745170391
 30
0.0
 11
-1464.29177188212
 21
-439.1719745170391
 31
0.0
  0
LINE
  5
366
  8
0
  6
CONTINUOUS
 62
     7
 10
-1465.009716829296
 20
-439.6719745170391
 30
0.0
 11
-1465.009716829296
 21
-439.6219745170391
 31
0.0
  0
LINE
  5
367
  8
0
  6
CONTINUOUS
 62
     7
 10
-1465.009716829296
 20
-439.1719745170391
 30
0.0
 11
-1465.009716829296
 21
-439.1469745170391
 31
0.0
  0
LINE
  5
368
  8
0
  6
CONTINUOUS
 62
     7
 10
-1464.79177188212
 20
-439.6719745170391
 30
0.0
 11
-1465.009716829296
 21
-439.6719745170391
 31
0.0
  0
LINE
  5
369
  8
0
  6
CONTINUOUS
 62
     7
 10
-1464.79177188212
 20
-439.6719745170391
 30
0.0
 11
-1463.29177188212
 21
-439.6719745170391
 31
0.0
  0
LINE
  5
36A
  8
0
  6
CONTINUOUS
 62
     1
 10
-1464.79177188212
 20
-440.6469745170393
 30
0.0
 11
-1464.79177188212
 21
-440.1469745170393
 31
0.0
  0
LINE
  5
36B
  8
0
  6
CONTINUOUS
 62
     1
 10
-1464.79177188212
 20
-440.1469745170393
 30
0.0
 11
-1465.29177188212
 21
-440.1469745170393
 31
0.0
  0
LINE
  5
36C
  8
0
  6
CONTINUOUS
 62
     7
 10
-1464.00187197854
 20
-439.1469759511743
 30
0.0
 11
-1463.770128057866
 21
-439.3018221435546
 31
0.0
  0
LINE
  5
36D
  8
0
  6
CONTINUOUS
 62
     7
 10
-1462.813417242436
 20
-439.3018221435546
 30
0.0
 11
-1462.581673333847
 21
-439.1469759592497
 31
0.0
  0
LINE
  5
36E
  8
0
  6
CONTINUOUS
 62
     7
 10
-1459.79177188212
 20
-439.1469745170393
 30
0.0
 11
-1459.79177188212
 21
-440.1469745170393
 31
0.0
  0
LINE
  5
36F
  8
0
  6
CONTINUOUS
 62
     7
 10
-1459.79177188212
 20
-440.6469745170393
 30
0.0
 11
-1459.79177188212
 21
-440.1469745170393
 31
0.0
  0
LINE
  5
370
  8
0
  6
CONTINUOUS
 62
     7
 10
-1456.79177188212
 20
-440.1469745170392
 30
0.0
 11
-1456.79177188212
 21
-439.1469745170393
 31
0.0
  0
LINE
  5
371
  8
0
  6
CONTINUOUS
 62
     7
 10
-1456.79177188212
 20
-440.6469745170392
 30
0.0
 11
-1456.79177188212
 21
-440.1469745170392
 31
0.0
  0
LINE
  5
372
  8
0
  6
CONTINUOUS
 62
     7
 10
-1459.79177188212
 20
-440.6469745170393
 30
0.0
 11
-1456.79177188212
 21
-440.6469745170392
 31
0.0
  0
LINE
  5
373
  8
0
  6
CONTINUOUS
 62
     7
 10
-1452.691771882119
 20
-440.1469745170392
 30
0.0
 11
-1452.691771882119
 21
-439.1469745170393
 31
0.0
  0
LINE
  5
374
  8
0
  6
CONTINUOUS
 62
     1
 10
-1456.79177188212
 20
-440.1469745170392
 30
0.0
 11
-1453.191771882119
 21
-440.1469745170392
 31
0.0
  0
LINE
  5
375
  8
0
  6
CONTINUOUS
 62
     7
 10
-1456.79177188212
 20
-440.6469745170392
 30
0.0
 11
-1453.191771882119
 21
-440.6469745170392
 31
0.0
  0
LINE
  5
376
  8
0
  6
CONTINUOUS
 62
     7
 10
-1452.973826934943
 20
-439.671974517039
 30
0.0
 11
-1452.973826934943
 21
-439.6219745170391
 31
0.0
  0
LINE
  5
377
  8
0
  6
CONTINUOUS
 62
     7
 10
-1454.691771882119
 20
-439.6219745170391
 30
0.0
 11
-1454.691771882119
 21
-439.671974517039
 31
0.0
  0
LINE
  5
378
  8
0
  6
CONTINUOUS
 62
     7
 10
-1453.191771882119
 20
-439.6219745170391
 30
0.0
 11
-1454.691771882119
 21
-439.6219745170391
 31
0.0
  0
LINE
  5
379
  8
0
  6
CONTINUOUS
 62
     7
 10
-1452.973826934943
 20
-439.171974517039
 30
0.0
 11
-1452.973826934943
 21
-439.146974517039
 31
0.0
  0
LINE
  5
37A
  8
0
  6
CONTINUOUS
 62
     1
 10
-1453.191771882119
 20
-440.1469745170392
 30
0.0
 11
-1453.191771882119
 21
-439.671974517039
 31
0.0
  0
LINE
  5
37B
  8
0
  6
CONTINUOUS
 62
     7
 10
-1453.191771882119
 20
-439.6219745170391
 30
0.0
 11
-1452.973826934943
 21
-439.6219745170391
 31
0.0
  0
LINE
  5
37C
  8
0
  6
CONTINUOUS
 62
     7
 10
-1453.691771882119
 20
-439.146974517039
 30
0.0
 11
-1453.691771882119
 21
-439.171974517039
 31
0.0
  0
LINE
  5
37D
  8
0
  6
CONTINUOUS
 62
     7
 10
-1453.691771882119
 20
-439.171974517039
 30
0.0
 11
-1453.191771882119
 21
-439.171974517039
 31
0.0
  0
LINE
  5
37E
  8
0
  6
CONTINUOUS
 62
     1
 10
-1453.191771882119
 20
-440.6469745170392
 30
0.0
 11
-1453.191771882119
 21
-440.1469745170392
 31
0.0
  0
LINE
  5
37F
  8
0
  6
CONTINUOUS
 62
     7
 10
-1453.191771882119
 20
-439.671974517039
 30
0.0
 11
-1452.973826934943
 21
-439.671974517039
 31
0.0
  0
LINE
  5
380
  8
0
  6
CONTINUOUS
 62
     7
 10
-1454.691771882119
 20
-439.671974517039
 30
0.0
 11
-1453.191771882119
 21
-439.671974517039
 31
0.0
  0
LINE
  5
381
  8
0
  6
CONTINUOUS
 62
     1
 10
-1453.191771882119
 20
-439.6219745170391
 30
0.0
 11
-1453.191771882119
 21
-439.171974517039
 31
0.0
  0
LINE
  5
382
  8
0
  6
CONTINUOUS
 62
     1
 10
-1453.191771882119
 20
-440.1469745170392
 30
0.0
 11
-1452.691771882119
 21
-440.1469745170392
 31
0.0
  0
LINE
  5
383
  8
0
  6
CONTINUOUS
 62
     7
 10
-1453.191771882119
 20
-439.171974517039
 30
0.0
 11
-1452.973826934943
 21
-439.171974517039
 31
0.0
  0
LINE
  5
384
  8
0
  6
CONTINUOUS
 62
     7
 10
-1452.729833410649
 20
-440.3383135375976
 30
0.0
 11
-1452.691771882119
 21
-440.1469745170392
 31
0.0
  0
LINE
  5
385
  8
0
  6
CONTINUOUS
 62
     7
 10
-1452.728667854078
 20
-440.3324544498942
 30
0.0
 11
-1452.716245458988
 21
-440.3014864501952
 31
0.0
  0
LINE
  5
386
  8
0
  6
CONTINUOUS
 62
     7
 10
-1452.691771882119
 20
-440.1469745170392
 30
0.0
 11
-1452.693784521488
 21
-440.1917910156249
 31
0.0
  0
LINE
  5
387
  8
0
  6
CONTINUOUS
 62
     7
 10
-1452.787263677983
 20
-440.4408678588866
 30
0.0
 11
-1452.751474188236
 21
-440.3839067993163
 31
0.0
  0
LINE
  5
388
  8
0
  6
CONTINUOUS
 62
     7
 10
-1452.709790991215
 20
-440.2799944458007
 30
0.0
 11
-1452.696298406986
 21
-440.2140917358398
 31
0.0
  0
LINE
  5
389
  8
0
  6
CONTINUOUS
 62
     7
 10
-1452.826111587159
 20
-440.4863523101517
 30
0.0
 11
-1452.80085544434
 21
-440.4587206420898
 31
0.0
  0
LINE
  5
38A
  8
0
  6
CONTINUOUS
 62
     7
 10
-1452.716245458988
 20
-440.3014864501952
 30
0.0
 11
-1452.709790991215
 21
-440.2799944458007
 31
0.0
  0
LINE
  5
38B
  8
0
  6
CONTINUOUS
 62
     7
 10
-1452.693784521488
 20
-440.1917910156249
 30
0.0
 11
-1452.696298406986
 21
-440.2140917358398
 31
0.0
  0
LINE
  5
38C
  8
0
  6
CONTINUOUS
 62
     7
 10
-1452.862802313236
 20
-440.5235094604491
 30
0.0
 11
-1452.846238897709
 21
-440.5083727416991
 31
0.0
  0
LINE
  5
38D
  8
0
  6
CONTINUOUS
 62
     7
 10
-1452.80085544434
 20
-440.4587206420898
 30
0.0
 11
-1452.787263677983
 21
-440.4408678588866
 31
0.0
  0
LINE
  5
38E
  8
0
  6
CONTINUOUS
 62
     7
 10
-1452.741288946538
 20
-440.3639177856445
 30
0.0
 11
-1452.751474188236
 21
-440.3839067993163
 31
0.0
  0
LINE
  5
38F
  8
0
  6
CONTINUOUS
 62
     7
 10
-1453.169336126713
 20
-440.6464724121093
 30
0.0
 11
-1453.102495001225
 21
-440.638942199707
 31
0.0
  0
LINE
  5
390
  8
0
  6
CONTINUOUS
 62
     7
 10
-1452.916322515873
 20
-440.5642580566405
 30
0.0
 11
-1452.935323522954
 21
-440.576198059082
 31
0.0
  0
LINE
  5
391
  8
0
  6
CONTINUOUS
 62
     7
 10
-1453.102495001225
 20
-440.638942199707
 30
0.0
 11
-1453.080510900883
 21
-440.6344408569335
 31
0.0
  0
LINE
  5
392
  8
0
  6
CONTINUOUS
 62
     7
 10
-1453.016084478764
 20
-440.6150927124023
 30
0.0
 11
-1453.001651683328
 21
-440.6093026735667
 31
0.0
  0
LINE
  5
393
  8
0
  6
CONTINUOUS
 62
     7
 10
-1465.1302235418
 20
-440.514025856382
 30
0.0
 11
-1465.120740698246
 21
-440.5235094604491
 31
0.0
  0
LINE
  5
394
  8
0
  6
CONTINUOUS
 62
     7
 10
-1465.220994757084
 20
-440.4034227905273
 30
0.0
 11
-1465.182687567143
 21
-440.4587206420898
 31
0.0
  0
LINE
  5
395
  8
0
  6
CONTINUOUS
 62
     7
 10
-1465.243999328709
 20
-440.3576443099833
 30
0.0
 11
-1465.232068823246
 21
-440.3839067993163
 31
0.0
  0
LINE
  5
396
  8
0
  6
CONTINUOUS
 62
     7
 10
-1465.103513525395
 20
-440.5378908691405
 30
0.0
 11
-1465.048223303227
 21
-440.576198059082
 31
0.0
  0
LINE
  5
397
  8
0
  6
CONTINUOUS
 62
     7
 10
-1465.028707312016
 20
-440.5872759399413
 30
0.0
 11
-1465.048223303227
 21
-440.576198059082
 31
0.0
  0
LINE
  5
398
  8
0
  6
CONTINUOUS
 62
     7
 10
-1465.232068823246
 20
-440.3839067993163
 30
0.0
 11
-1465.220994757084
 21
-440.4034227905273
 31
0.0
  0
LINE
  5
399
  8
0
  6
CONTINUOUS
 62
     7
 10
-1465.168306158452
 20
-440.4759401855468
 30
0.0
 11
-1465.182687567143
 21
-440.4587206420898
 31
0.0
  0
LINE
  5
39A
  8
0
  6
CONTINUOUS
 62
     7
 10
-1465.120740698246
 20
-440.5235094604491
 30
0.0
 11
-1465.103513525395
 21
-440.5378908691405
 31
0.0
  0
LINE
  5
39B
  8
0
  6
CONTINUOUS
 62
     7
 10
-1465.283735083012
 20
-440.236255126953
 30
0.0
 11
-1465.267301367192
 21
-440.3014864501952
 31
0.0
  0
LINE
  5
39C
  8
0
  6
CONTINUOUS
 62
     7
 10
-1464.972202421105
 20
-440.6129380917787
 30
0.0
 11
-1464.967458532719
 21
-440.6150927124023
 31
0.0
  0
LINE
  5
39D
  8
0
  6
CONTINUOUS
 62
     7
 10
-1464.946275518803
 20
-440.6225008544921
 30
0.0
 11
-1464.881051824955
 21
-440.638942199707
 31
0.0
  0
LINE
  5
39E
  8
0
  6
CONTINUOUS
 62
     7
 10
-1465.259889410404
 20
-440.322665649414
 30
0.0
 11
-1465.267301367192
 21
-440.3014864501952
 31
0.0
  0
LINE
  5
39F
  8
0
  6
CONTINUOUS
 62
     7
 10
-1464.881051824955
 20
-440.638942199707
 30
0.0
 11
-1464.858888433842
 21
-440.6424517211913
 31
0.0
  0
LINE
  5
3A0
  8
0
  6
CONTINUOUS
 62
     7
 10
-1464.967458532719
 20
-440.6150927124023
 30
0.0
 11
-1464.946275518803
 21
-440.6225008544921
 31
0.0
  0
LINE
  5
3A1
  8
0
  6
CONTINUOUS
 62
     7
 10
-1465.289964041004
 20
-440.1670655053975
 30
0.0
 11
-1465.287248419194
 21
-440.2140917358398
 31
0.0
  0
LINE
  5
3A2
  8
0
  6
CONTINUOUS
 62
     7
 10
-1465.287248419194
 20
-440.2140917358398
 30
0.0
 11
-1465.283735083012
 21
-440.236255126953
 31
0.0
  0
ARC
  5
3A3
  8
0
  6
CONTINUOUS
 62
     7
 10
-1464.79177188212
 20
-440.1469745170393
 30
0.0
 40
0.5
 50
180.0
 51
270.0
  0
ARC
  5
3A4
  8
0
  6
CONTINUOUS
 62
     7
 10
-1463.291772650151
 20
-438.1469745170396
 30
0.0
 40
1.249998774622425
 50
247.4999213039125
 51
292.5000786960875
  0
ARC
  5
3A5
  8
0
  6
CONTINUOUS
 62
     7
 10
-1453.191771847066
 20
-440.1469737364729
 30
0.0
 40
0.4999999649470692
 50
354.8574157850653
 51
359.9999105536817
  0
ARC
  5
3A6
  8
0
  6
CONTINUOUS
 62
     7
 10
-1453.191773549174
 20
-440.146975630938
 30
0.0
 40
0.4999988861039747
 50
270.000191030872
 51
337.5004196354075
  0
ENDBLK
  5
C5
  8
0
  0
BLOCK
  8
0
  2
PD00700A08300_CORPO_CE__24
 70
     0
 10
-1465.29177188212
 20
-440.6469745170393
 30
0.0
  3
PD00700A08300_CORPO_CE__24
  1

  0
INSERT
  5
C7
  8
0
  2
CORPO_PORTA__23
 10
-1465.29177188212
 20
-440.6469745170393
 30
0.0
  0
ENDBLK
  5
C9
  8
0
  0
BLOCK
  8
0
  2
PX000__25
 70
     0
 10
-1476.081382715066
 20
-448.0295575952438
 30
0.0
  3
PX000__25
  1

  0
LINE
  5
3A7
  8
0
  6
CONTINUOUS
 62
     7
 10
-1471.080051517454
 20
-447.1166247181463
 30
0.0
 11
-1476.081382715066
 21
-445.6986244380942
 31
0.0
  0
LINE
  5
3A8
  8
0
  6
CONTINUOUS
 62
     7
 10
-1474.356825703236
 20
-443.9740510050897
 30
0.0
 11
-1474.281698034672
 21
-443.9886889038085
 31
0.0
  0
LINE
  5
3A9
  8
0
  6
CONTINUOUS
 62
     7
 10
-1465.732386539875
 20
-443.1703823635493
 30
0.0
 11
-1463.992302359967
 21
-442.359191962865
 31
0.0
  0
LINE
  5
3AA
  8
0
  6
CONTINUOUS
 62
     7
 10
-1471.78006772101
 20
-443.8797056068555
 30
0.0
 11
-1468.779741714915
 21
-443.1016063642354
 31
0.0
  0
LINE
  5
3AB
  8
0
  6
CONTINUOUS
 62
     7
 10
-1461.319108348045
 20
-443.9859285070244
 30
0.0
 11
-1461.714283017019
 21
-444.4688758754971
 31
0.0
  0
LINE
  5
3AC
  8
0
  6
CONTINUOUS
 62
     7
 10
-1463.654068307634
 20
-440.8038019384224
 30
0.0
 11
-1463.78786109583
 21
-440.6469793864869
 31
0.0
  0
LINE
  5
3AD
  8
0
  6
CONTINUOUS
 62
     7
 10
-1460.489732550053
 20
-440.6823458251952
 30
0.0
 11
-1460.497626376553
 21
-440.6469759523663
 31
0.0
  0
ARC
  5
3AE
  8
0
  6
CONTINUOUS
 62
     7
 10
-1473.286276116584
 20
-438.0718359044985
 30
0.0
 40
6.000001184204327
 50
260.4502683794561
 51
284.5387478367641
  0
ARC
  5
3AF
  8
0
  6
CONTINUOUS
 62
     7
 10
-1469.453573944765
 20
-438.1361532433514
 30
0.0
 40
9.999999999999822
 50
279.8372094466911
 51
320.7080410704044
  0
ARC
  5
3B0
  8
0
  6
CONTINUOUS
 62
     7
 10
-1468.214915692719
 20
-445.2795575952441
 30
0.0
 40
2.749999999999774
 50
243.9818367684286
 51
279.8372094466895
  0
ARC
  5
3B1
  8
0
  6
CONTINUOUS
 62
     7
 10
-1468.214915692719
 20
-445.2795575952441
 30
0.0
 40
2.249999999999815
 50
67.33822640653966
 51
104.5386948365614
  0
ARC
  5
3B2
  8
0
  6
CONTINUOUS
 62
     7
 10
-1473.807780328106
 20
-456.7374092773981
 30
0.0
 40
10.00000000000032
 50
63.98183676845286
 51
74.17066371987836
  0
ARC
  5
3B3
  8
0
  6
CONTINUOUS
 62
     7
 10
-1466.577431235146
 20
-441.3576773508705
 30
0.0
 40
2.000000000000311
 50
247.3382264064732
 51
294.9939365655759
  0
ARC
  5
3B4
  8
0
  6
CONTINUOUS
 62
     7
 10
-1464.414824398584
 20
-441.452838177308
 30
0.0
 40
4.000000560508455
 50
320.7080240077383
 51
11.10590277248484
  0
ARC
  5
3B5
  8
0
  6
CONTINUOUS
 62
     7
 10
-1469.453556758858
 20
-438.1361386272833
 30
0.0
 40
10.00000170955948
 50
308.9046333737934
 51
311.8554531861515
  0
ARC
  5
3B6
  8
0
  6
CONTINUOUS
 62
     7
 10
-1464.414824719113
 20
-441.4528394540224
 30
0.0
 40
1.000000007131826
 50
294.9939371027284
 51
40.4690735744504
  0
ARC
  5
3B7
  8
0
  6
CONTINUOUS
 62
     7
 10
-1469.453556758858
 20
-438.1361386272833
 30
0.0
 40
10.00000170955948
 50
308.9046333737934
 51
311.8554531861515
  0
CIRCLE
  5
3B8
  8
0
  6
CONTINUOUS
 62
     7
 10
-1468.214915692719
 20
-445.2795575952441
 30
0.0
 40
0.7500000000004383
  0
CIRCLE
  5
3B9
  8
0
  6
CONTINUOUS
 62
     7
 10
-1468.214915692719
 20
-445.2795575952441
 30
0.0
 40
1.000000000000732
  0
ENDBLK
  5
CC
  8
0
  0
BLOCK
  8
0
  2
PD05300A02600__26
 70
     0
 10
-1476.081382715066
 20
-448.0295575952438
 30
0.0
  3
PD05300A02600__26
  1

  0
INSERT
  5
CE
  8
0
  2
PX000__25
 10
-1476.081382715066
 20
-448.0295575952438
 30
0.0
  0
ENDBLK
  5
D0
  8
0
  0
BLOCK
  8
0
  2
PX000__27
 70
     0
 10
-1472.944314539162
 20
-448.0294069824219
 30
0.0
  3
PX000__27
  1

  0
LINE
  5
3BA
  8
0
  6
CONTINUOUS
 62
     7
 10
-1470.475552786733
 20
-447.3106107305433
 30
0.0
 11
-1469.283743417411
 21
-447.8133506636977
 31
0.0
  0
LINE
  5
3BB
  8
0
  6
CONTINUOUS
 62
     7
 10
-1468.94290332642
 20
-447.9314531860351
 30
0.0
 11
-1468.953968387989
 21
-447.9281068558175
 31
0.0
  0
LINE
  5
3BC
  8
0
  6
CONTINUOUS
 62
     7
 10
-1469.021495221692
 20
-447.9076851814594
 30
0.0
 11
-1469.07845096436
 21
-447.8904604492187
 31
0.0
  0
LINE
  5
3BD
  8
0
  6
CONTINUOUS
 62
     7
 10
-1467.820020483402
 20
-448.0010561523437
 30
0.0
 11
-1467.828954275177
 21
-448.0021185911224
 31
0.0
  0
LINE
  5
3BE
  8
0
  6
CONTINUOUS
 62
     7
 10
-1467.901624094291
 20
-448.0107607484302
 30
0.0
 11
-1467.960645483402
 21
-448.0177797851562
 31
0.0
  0
LINE
  5
3BF
  8
0
  6
CONTINUOUS
 62
     7
 10
-1468.385057257084
 20
-448.0242876586914
 30
0.0
 11
-1468.396517300155
 21
-448.0232805161052
 31
0.0
  0
LINE
  5
3C0
  8
0
  6
CONTINUOUS
 62
     7
 10
-1468.467177643373
 20
-448.017070675499
 30
0.0
 11
-1468.526128576664
 21
-448.011889892578
 31
0.0
  0
LINE
  5
3C1
  8
0
  6
CONTINUOUS
 62
     7
 10
-1468.666372106938
 20
-447.9922442016601
 30
0.0
 11
-1468.677651773635
 21
-447.9900675487411
 31
0.0
  0
LINE
  5
3C2
  8
0
  6
CONTINUOUS
 62
     7
 10
-1468.747170107163
 20
-447.9766524995508
 30
0.0
 11
-1468.805421636967
 21
-447.9654116210937
 31
0.0
  0
LINE
  5
3C3
  8
0
  6
CONTINUOUS
 62
     7
 10
-1468.101941870121
 20
-448.0272326049804
 30
0.0
 11
-1468.113294013436
 21
-448.0274069286876
 31
0.0
  0
LINE
  5
3C4
  8
0
  6
CONTINUOUS
 62
     7
 10
-1468.184604789479
 20
-448.0285019781865
 30
0.0
 11
-1468.243539617924
 21
-448.0294069824219
 31
0.0
  0
LINE
  5
3C5
  8
0
  6
CONTINUOUS
 62
     7
 10
-1468.805421636967
 20
-447.9654116210937
 30
0.0
 11
-1468.816566563366
 21
-447.9626587871643
 31
0.0
  0
LINE
  5
3C6
  8
0
  6
CONTINUOUS
 62
     7
 10
-1468.885215688575
 20
-447.9457022246617
 30
0.0
 11
-1468.94290332642
 21
-447.9314531860351
 31
0.0
  0
LINE
  5
3C7
  8
0
  6
CONTINUOUS
 62
     7
 10
-1467.657325798391
 20
-447.9719190014517
 30
0.0
 11
-1467.680444525151
 21
-447.9771227416992
 31
0.0
  0
LINE
  5
3C8
  8
0
  6
CONTINUOUS
 62
     7
 10
-1468.526128576664
 20
-448.011889892578
 30
0.0
 11
-1468.537436716148
 21
-448.0103058179849
 31
0.0
  0
LINE
  5
3C9
  8
0
  6
CONTINUOUS
 62
     7
 10
-1468.60792398372
 20
-448.0004317719619
 30
0.0
 11
-1468.666372106938
 21
-447.9922442016601
 31
0.0
  0
LINE
  5
3CA
  8
0
  6
CONTINUOUS
 62
     7
 10
-1467.680444525151
 20
-447.9771227416992
 30
0.0
 11
-1467.707748684052
 21
-447.9818046486369
 31
0.0
  0
LINE
  5
3CB
  8
0
  6
CONTINUOUS
 62
     7
 10
-1467.800569084865
 20
-447.9977207762901
 30
0.0
 11
-1467.820020483402
 21
-448.0010561523437
 31
0.0
  0
LINE
  5
3CC
  8
0
  6
CONTINUOUS
 62
     7
 10
-1467.960645483402
 20
-448.0177797851562
 30
0.0
 11
-1467.972107395661
 21
-448.0185465945131
 31
0.0
  0
LINE
  5
3CD
  8
0
  6
CONTINUOUS
 62
     7
 10
-1468.043191526598
 20
-448.0233021689315
 30
0.0
 11
-1468.101941870121
 21
-448.0272326049804
 31
0.0
  0
LINE
  5
3CE
  8
0
  6
CONTINUOUS
 62
     7
 10
-1468.243539617924
 20
-448.0294069824219
 30
0.0
 11
-1468.255027372309
 21
-448.0289914191466
 31
0.0
  0
LINE
  5
3CF
  8
0
  6
CONTINUOUS
 62
     7
 10
-1468.325724534408
 20
-448.0264339877073
 30
0.0
 11
-1468.385057257084
 21
-448.0242876586914
 31
0.0
  0
LINE
  5
3D0
  8
0
  6
CONTINUOUS
 62
     7
 10
-1469.07845096436
 20
-447.8904604492187
 30
0.0
 11
-1469.089260579812
 21
-447.8865733939343
 31
0.0
  0
LINE
  5
3D1
  8
0
  6
CONTINUOUS
 62
     7
 10
-1469.156201406693
 20
-447.8625019830657
 30
0.0
 11
-1469.211713598637
 21
-447.8425402221679
 31
0.0
  0
LINE
  5
3D2
  8
0
  6
CONTINUOUS
 62
     7
 10
-1468.94290332642
 20
-447.9314531860351
 30
0.0
 11
-1468.953968387989
 21
-447.9281068558175
 31
0.0
  0
LINE
  5
3D3
  8
0
  6
CONTINUOUS
 62
     7
 10
-1469.021495221692
 20
-447.9076851814594
 30
0.0
 11
-1469.07845096436
 21
-447.8904604492187
 31
0.0
  0
LINE
  5
3D4
  8
0
  6
CONTINUOUS
 62
     7
 10
-1469.211713598637
 20
-447.8425402221679
 30
0.0
 11
-1469.226165220903
 21
-447.8366838076951
 31
0.0
  0
LINE
  5
3D5
  8
0
  6
CONTINUOUS
 62
     7
 10
-1469.243803079414
 20
-447.8295361942338
 30
0.0
 11
-1469.283743417411
 21
-447.8133506636977
 31
0.0
  0
LINE
  5
3D6
  8
0
  6
CONTINUOUS
 62
     7
 10
-1468.95879652233
 20
-445.1858828632329
 30
0.0
 11
-1468.959210018252
 21
-445.1892559427893
 31
0.0
  0
LINE
  5
3D7
  8
0
  6
CONTINUOUS
 62
     7
 10
-1468.959508833359
 20
-445.1916935173177
 30
0.0
 11
-1468.961175293225
 21
-445.2052876095696
 31
0.0
  0
LINE
  5
3D8
  8
0
  6
CONTINUOUS
 62
     7
 10
-1467.484704517335
 20
-445.4496360914019
 30
0.0
 11
-1467.480329511356
 21
-445.4305208594352
 31
0.0
  0
LINE
  5
3D9
  8
0
  6
CONTINUOUS
 62
     7
 10
-1467.843942922915
 20
-445.931104664733
 30
0.0
 11
-1467.826688402556
 21
-445.9211859691609
 31
0.0
  0
LINE
  5
3DA
  8
0
  6
CONTINUOUS
 62
     7
 10
-1468.135171450683
 20
-446.0250596088372
 30
0.0
 11
-1468.116267198911
 21
-446.0229783378751
 31
0.0
  0
LINE
  5
3DB
  8
0
  6
CONTINUOUS
 62
     7
 10
-1468.251792305339
 20
-446.0284070210288
 30
0.0
 11
-1468.231711301123
 21
-446.0293083335264
 31
0.0
  0
LINE
  5
3DC
  8
0
  6
CONTINUOUS
 62
     7
 10
-1468.096762998106
 20
-446.0199446977255
 30
0.0
 11
-1468.078117943237
 21
-446.016910888137
 31
0.0
  0
LINE
  5
3DD
  8
0
  6
CONTINUOUS
 62
     7
 10
-1467.912668393052
 20
-445.9656904892678
 30
0.0
 11
-1467.894784425148
 21
-445.957731746497
 31
0.0
  0
LINE
  5
3DE
  8
0
  6
CONTINUOUS
 62
     7
 10
-1468.212771625464
 20
-446.0293120747457
 30
0.0
 11
-1468.193160803495
 21
-446.0291803544874
 31
0.0
  0
LINE
  5
3DF
  8
0
  6
CONTINUOUS
 62
     7
 10
-1468.173770293214
 20
-446.0281831172478
 30
0.0
 11
-1468.154644063148
 21
-446.0270666162347
 31
0.0
  0
LINE
  5
3E0
  8
0
  6
CONTINUOUS
 62
     7
 10
-1468.303555980751
 20
-446.0242375019171
 30
0.0
 11
-1468.270242168597
 21
-446.027450861589
 31
0.0
  0
LINE
  5
3E1
  8
0
  6
CONTINUOUS
 62
     7
 10
-1467.948480505049
 20
-445.9803750641646
 30
0.0
 11
-1467.930090672928
 21
-445.9732993573294
 31
0.0
  0
LINE
  5
3E2
  8
0
  6
CONTINUOUS
 62
     7
 10
-1467.6902007402
 20
-445.8151016700941
 30
0.0
 11
-1467.676087594447
 21
-445.8011589871591
 31
0.0
  0
LINE
  5
3E3
  8
0
  6
CONTINUOUS
 62
     7
 10
-1467.877734244139
 20
-445.9492151274773
 30
0.0
 11
-1467.860266540159
 21
-445.9403361305946
 31
0.0
  0
LINE
  5
3E4
  8
0
  6
CONTINUOUS
 62
     7
 10
-1467.645155073265
 20
-445.7671078746067
 30
0.0
 11
-1467.625358205491
 21
-445.7430525571909
 31
0.0
  0
LINE
  5
3E5
  8
0
  6
CONTINUOUS
 62
     7
 10
-1467.535003819281
 20
-445.595553967867
 30
0.0
 11
-1467.526740290529
 21
-445.5775851883265
 31
0.0
  0
LINE
  5
3E6
  8
0
  6
CONTINUOUS
 62
     7
 10
-1467.717982648031
 20
-445.8409781623583
 30
0.0
 11
-1467.70369502414
 21
-445.8282461297446
 31
0.0
  0
LINE
  5
3E7
  8
0
  6
CONTINUOUS
 62
     7
 10
-1467.750612852683
 20
-445.8682787036728
 30
0.0
 11
-1467.732710235968
 21
-445.8539148972255
 31
0.0
  0
LINE
  5
3E8
  8
0
  6
CONTINUOUS
 62
     7
 10
-1467.663200436291
 20
-445.7872395824743
 30
0.0
 11
-1467.649616961843
 21
-445.7723648124471
 31
0.0
  0
LINE
  5
3E9
  8
0
  6
CONTINUOUS
 62
     7
 10
-1467.77869051493
 20
-445.8893476167035
 30
0.0
 11
-1467.762482200927
 21
-445.8776591564589
 31
0.0
  0
LINE
  5
3EA
  8
0
  6
CONTINUOUS
 62
     7
 10
-1467.810769394528
 20
-445.9110651766677
 30
0.0
 11
-1467.794231143444
 21
-445.9003896918413
 31
0.0
  0
LINE
  5
3EB
  8
0
  6
CONTINUOUS
 62
     7
 10
-1467.613824041182
 20
-445.7276913803543
 30
0.0
 11
-1467.602281246917
 21
-445.7120926988983
 31
0.0
  0
LINE
  5
3EC
  8
0
  6
CONTINUOUS
 62
     7
 10
-1472.801102053739
 20
-443.1614607184956
 30
0.0
 11
-1472.944314539162
 21
-442.5615705920448
 31
0.0
  0
LINE
  5
3ED
  8
0
  6
CONTINUOUS
 62
     7
 10
-1467.659696386723
 20
-443.0991396484374
 30
0.0
 11
-1467.619288804973
 21
-443.1105436765379
 31
0.0
  0
LINE
  5
3EE
  8
0
  6
CONTINUOUS
 62
     7
 10
-1467.563305471012
 20
-443.126343570667
 30
0.0
 11
-1467.548185156254
 21
-443.1306109008788
 31
0.0
  0
LINE
  5
3EF
  8
0
  6
CONTINUOUS
 62
     7
 10
-1468.233293341069
 20
-443.0296358642577
 30
0.0
 11
-1468.191245598914
 21
-443.0303752199926
 31
0.0
  0
LINE
  5
3F0
  8
0
  6
CONTINUOUS
 62
     7
 10
-1468.133181347871
 20
-443.0313962055389
 30
0.0
 11
-1468.117444799809
 21
-443.0316729125976
 31
0.0
  0
LINE
  5
3F1
  8
0
  6
CONTINUOUS
 62
     7
 10
-1468.464532659916
 20
-443.0434450683593
 30
0.0
 11
-1468.422368702837
 21
-443.0398365480924
 31
0.0
  0
LINE
  5
3F2
  8
0
  6
CONTINUOUS
 62
     7
 10
-1468.364776228739
 20
-443.0349076082017
 30
0.0
 11
-1468.349088476567
 21
-443.0335650024413
 31
0.0
  0
LINE
  5
3F3
  8
0
  6
CONTINUOUS
 62
     7
 10
-1468.001855657963
 20
-443.0396685180663
 30
0.0
 11
-1467.959789736862
 21
-443.044766149337
 31
0.0
  0
LINE
  5
3F4
  8
0
  6
CONTINUOUS
 62
     7
 10
-1467.902526939892
 20
-443.0517053679928
 30
0.0
 11
-1467.886831091313
 21
-443.0536074218749
 31
0.0
  0
LINE
  5
3F5
  8
0
  6
CONTINUOUS
 62
     7
 10
-1467.548185156254
 20
-443.1306109008788
 30
0.0
 11
-1467.508091360945
 21
-443.1441910573545
 31
0.0
  0
LINE
  5
3F6
  8
0
  6
CONTINUOUS
 62
     7
 10
-1467.453476230668
 20
-443.1626897305128
 30
0.0
 11
-1467.438443945317
 21
-443.1677813110351
 31
0.0
  0
LINE
  5
3F7
  8
0
  6
CONTINUOUS
 62
     7
 10
-1467.772676275639
 20
-443.0734438476562
 30
0.0
 11
-1467.731537222917
 21
-443.0828003881275
 31
0.0
  0
LINE
  5
3F8
  8
0
  6
CONTINUOUS
 62
     7
 10
-1467.674999115988
 20
-443.0956592424432
 30
0.0
 11
-1467.659696386723
 21
-443.0991396484374
 31
0.0
  0
LINE
  5
3F9
  8
0
  6
CONTINUOUS
 62
     7
 10
-1467.886831091313
 20
-443.0536074218749
 30
0.0
 11
-1467.845240251535
 21
-443.0608345686365
 31
0.0
  0
LINE
  5
3FA
  8
0
  6
CONTINUOUS
 62
     7
 10
-1467.788204675657
 20
-443.0707455124817
 30
0.0
 11
-1467.772676275639
 21
-443.0734438476562
 31
0.0
  0
LINE
  5
3FB
  8
0
  6
CONTINUOUS
 62
     7
 10
-1467.438443945317
 20
-443.1677813110351
 30
0.0
 11
-1467.398941661499
 21
-443.1834713920244
 31
0.0
  0
LINE
  5
3FC
  8
0
  6
CONTINUOUS
 62
     7
 10
-1468.117444799809
 20
-443.0316729125976
 30
0.0
 11
-1468.075359598289
 21
-443.034584056863
 31
0.0
  0
LINE
  5
3FD
  8
0
  6
CONTINUOUS
 62
     7
 10
-1468.017601773312
 20
-443.0385793177834
 30
0.0
 11
-1468.001855657963
 21
-443.0396685180663
 31
0.0
  0
LINE
  5
3FE
  8
0
  6
CONTINUOUS
 62
     7
 10
-1468.349088476567
 20
-443.0335650024413
 30
0.0
 11
-1468.307148531967
 21
-443.0321419043376
 31
0.0
  0
LINE
  5
3FF
  8
0
  6
CONTINUOUS
 62
     7
 10
-1468.248926552899
 20
-443.0301663273836
 30
0.0
 11
-1468.233293341069
 21
-443.0296358642577
 31
0.0
  0
LINE
  5
400
  8
0
  6
CONTINUOUS
 62
     7
 10
-1468.508467060906
 20
-443.0487892359122
 30
0.0
 11
-1468.498663778877
 21
-443.0475967675833
 31
0.0
  0
LINE
  5
401
  8
0
  6
CONTINUOUS
 62
     7
 10
-1468.49183285898
 20
-443.0467658565058
 30
0.0
 11
-1468.464532659916
 21
-443.0434450683593
 31
0.0
  0
LINE
  5
402
  8
0
  6
CONTINUOUS
 62
     7
 10
-1468.508467060906
 20
-443.0487892359122
 30
0.0
 11
-1472.249535076561
 21
-443.541084089319
 31
0.0
  0
LINE
  5
403
  8
0
  6
CONTINUOUS
 62
     7
 10
-1467.559011050002
 20
-445.6431953529197
 30
0.0
 11
-1467.542994214717
 21
-445.6126140390626
 31
0.0
  0
LINE
  5
404
  8
0
  6
CONTINUOUS
 62
     7
 10
-1467.494361928342
 20
-445.4867699273169
 30
0.0
 11
-1467.48908579095
 21
-445.4681774605311
 31
0.0
  0
LINE
  5
405
  8
0
  6
CONTINUOUS
 62
     7
 10
-1467.5195568952
 20
-445.5599316555723
 30
0.0
 11
-1467.512330210419
 21
-445.5418138886631
 31
0.0
  0
LINE
  5
406
  8
0
  6
CONTINUOUS
 62
     7
 10
-1467.476904987373
 20
-445.411749115424
 30
0.0
 11
-1467.47354120859
 21
-445.3925594117524
 31
0.0
  0
LINE
  5
407
  8
0
  6
CONTINUOUS
 62
     7
 10
-1467.591445530755
 20
-445.6959943585838
 30
0.0
 11
-1467.580850073392
 21
-445.6800150075156
 31
0.0
  0
LINE
  5
408
  8
0
  6
CONTINUOUS
 62
     7
 10
-1467.5059816601
 20
-445.5235787315274
 30
0.0
 11
-1467.499763686327
 21
-445.505309859475
 31
0.0
  0
LINE
  5
409
  8
0
  6
CONTINUOUS
 62
     7
 10
-1467.570812451111
 20
-445.6633087386932
 30
0.0
 11
-1467.561250564354
 21
-445.6471390741859
 31
0.0
  0
LINE
  5
40A
  8
0
  6
CONTINUOUS
 62
     7
 10
-1467.470323602545
 20
-445.3674209462689
 30
0.0
 11
-1467.468656780758
 21
-445.3538239016608
 31
0.0
  0
LINE
  5
40B
  8
0
  6
CONTINUOUS
 62
     7
 10
-1467.493193530147
 20
-445.0761542517849
 30
0.0
 11
-1467.501254269605
 21
-445.0491403332322
 31
0.0
  0
LINE
  5
40C
  8
0
  6
CONTINUOUS
 62
     7
 10
-1468.178666266442
 20
-444.5306796515111
 30
0.0
 11
-1468.198109494226
 21
-444.5298108093007
 31
0.0
  0
LINE
  5
40D
  8
0
  6
CONTINUOUS
 62
     7
 10
-1468.619363940189
 20
-444.6482454958291
 30
0.0
 11
-1468.63559557802
 21
-444.6587256457192
 31
0.0
  0
LINE
  5
40E
  8
0
  6
CONTINUOUS
 62
     7
 10
-1468.217060448519
 20
-444.5298070658792
 30
0.0
 11
-1468.236682941279
 21
-444.5299388645267
 31
0.0
  0
LINE
  5
40F
  8
0
  6
CONTINUOUS
 62
     7
 10
-1468.255912929307
 20
-444.5309240424709
 30
0.0
 11
-1468.275199673519
 21
-444.5320460970466
 31
0.0
  0
LINE
  5
410
  8
0
  6
CONTINUOUS
 62
     7
 10
-1468.126302906521
 20
-444.5348785223187
 30
0.0
 11
-1468.15943071659
 21
-444.5316765289668
 31
0.0
  0
LINE
  5
411
  8
0
  6
CONTINUOUS
 62
     7
 10
-1468.332005910763
 20
-444.539001451158
 30
0.0
 11
-1468.351880192744
 21
-444.5422352730835
 31
0.0
  0
LINE
  5
412
  8
0
  6
CONTINUOUS
 62
     7
 10
-1468.481862841187
 20
-444.5789331651518
 30
0.0
 11
-1468.499711538684
 21
-444.5858006639979
 31
0.0
  0
LINE
  5
413
  8
0
  6
CONTINUOUS
 62
     7
 10
-1468.739944195022
 20
-444.7443189235442
 30
0.0
 11
-1468.753667281487
 21
-444.757876258444
 31
0.0
  0
LINE
  5
414
  8
0
  6
CONTINUOUS
 62
     7
 10
-1468.552597120595
 20
-444.6101501778999
 30
0.0
 11
-1468.569432195478
 21
-444.6187076035108
 31
0.0
  0
LINE
  5
415
  8
0
  6
CONTINUOUS
 62
     7
 10
-1468.294197846664
 20
-444.5340042048263
 30
0.0
 11
-1468.313721821927
 21
-444.5361575844509
 31
0.0
  0
LINE
  5
416
  8
0
  6
CONTINUOUS
 62
     7
 10
-1468.679239965519
 20
-444.6908570806614
 30
0.0
 11
-1468.697128438532
 21
-444.7052095391906
 31
0.0
  0
LINE
  5
417
  8
0
  6
CONTINUOUS
 62
     7
 10
-1468.407677497276
 20
-444.5550033425225
 30
0.0
 11
-1468.41642001552
 21
-444.5573703437781
 31
0.0
  0
LINE
  5
418
  8
0
  6
CONTINUOUS
 62
     7
 10
-1468.586604235851
 20
-444.628418876494
 30
0.0
 11
-1468.603051982291
 21
-444.6378748783787
 31
0.0
  0
LINE
  5
419
  8
0
  6
CONTINUOUS
 62
     7
 10
-1468.517251322587
 20
-444.5934600243468
 30
0.0
 11
-1468.53503811603
 21
-444.6013755224345
 31
0.0
  0
LINE
  5
41A
  8
0
  6
CONTINUOUS
 62
     7
 10
-1468.370100707717
 20
-444.5460371119658
 30
0.0
 11
-1468.389573700047
 21
-444.5502402558237
 31
0.0
  0
LINE
  5
41B
  8
0
  6
CONTINUOUS
 62
     7
 10
-1468.92380069969
 20
-445.0353899839293
 30
0.0
 11
-1468.930082796525
 21
-445.0538511060191
 31
0.0
  0
LINE
  5
41C
  8
0
  6
CONTINUOUS
 62
     7
 10
-1468.858896734261
 20
-444.8955982410199
 30
0.0
 11
-1468.868591118385
 21
-444.9119957283143
 31
0.0
  0
LINE
  5
41D
  8
0
  6
CONTINUOUS
 62
     7
 10
-1468.651141559053
 20
-444.6697715239214
 30
0.0
 11
-1468.667357853437
 21
-444.6814657391365
 31
0.0
  0
LINE
  5
41E
  8
0
  6
CONTINUOUS
 62
     7
 10
-1468.792302095111
 20
-444.8012709679081
 30
0.0
 11
-1468.804445487984
 21
-444.8160287862643
 31
0.0
  0
LINE
  5
41F
  8
0
  6
CONTINUOUS
 62
     7
 10
-1468.766851015227
 20
-444.7721121611349
 30
0.0
 11
-1468.779812778218
 21
-444.7863061175027
 31
0.0
  0
LINE
  5
420
  8
0
  6
CONTINUOUS
 62
     7
 10
-1468.816134399003
 20
-444.8315960545158
 30
0.0
 11
-1468.827536232308
 21
-444.8470042443929
 31
0.0
  0
LINE
  5
421
  8
0
  6
CONTINUOUS
 62
     7
 10
-1468.711768134046
 20
-444.7180652202661
 30
0.0
 11
-1468.72613689172
 21
-444.7308657513123
 31
0.0
  0
LINE
  5
422
  8
0
  6
CONTINUOUS
 62
     7
 10
-1468.945194492156
 20
-445.1097739948195
 30
0.0
 11
-1468.949478211691
 21
-445.12848864993
 31
0.0
  0
LINE
  5
423
  8
0
  6
CONTINUOUS
 62
     7
 10
-1467.659696386723
 20
-443.0991396484374
 30
0.0
 11
-1467.619288804973
 21
-443.1105436765379
 31
0.0
  0
LINE
  5
424
  8
0
  6
CONTINUOUS
 62
     7
 10
-1467.563305471012
 20
-443.126343570667
 30
0.0
 11
-1467.548185156254
 21
-443.1306109008788
 31
0.0
  0
LINE
  5
425
  8
0
  6
CONTINUOUS
 62
     7
 10
-1468.001855657963
 20
-443.0396685180663
 30
0.0
 11
-1467.959789736862
 21
-443.044766149337
 31
0.0
  0
LINE
  5
426
  8
0
  6
CONTINUOUS
 62
     7
 10
-1467.902526939892
 20
-443.0517053679928
 30
0.0
 11
-1467.886831091313
 21
-443.0536074218749
 31
0.0
  0
LINE
  5
427
  8
0
  6
CONTINUOUS
 62
     7
 10
-1460.724650039268
 20
-442.9930253214564
 30
0.0
 11
-1459.03721845362
 21
-441.3823986028539
 31
0.0
  0
LINE
  5
428
  8
0
  6
CONTINUOUS
 62
     7
 10
-1459.876092559744
 20
-441.1001567016054
 30
0.0
 11
-1459.949026475334
 21
-440.6469779159705
 31
0.0
  0
LINE
  5
429
  8
0
  6
CONTINUOUS
 62
     7
 10
-1459.03721845362
 20
-441.3823986028539
 30
0.0
 11
-1458.266726686867
 21
-440.6469764165257
 31
0.0
  0
ARC
  5
42A
  8
0
  6
CONTINUOUS
 62
     7
 10
-1472.314768723357
 20
-443.0453577824462
 30
0.0
 40
0.499999999999707
 50
193.426975525818
 51
277.4965962508487
  0
ARC
  5
42B
  8
0
  6
CONTINUOUS
 62
     7
 10
-1459.382444726605
 20
-441.0207097580699
 30
0.0
 40
0.4999999999999499
 50
189.1426993120651
 51
313.6659424846985
  0
ENDBLK
  5
D3
  8
0
  0
BLOCK
  8
0
  2
PD05300A02500__28
 70
     0
 10
-1472.944314539162
 20
-448.0294069824219
 30
0.0
  3
PD05300A02500__28
  1

  0
INSERT
  5
D5
  8
0
  2
PX000__27
 10
-1472.944314539162
 20
-448.0294069824219
 30
0.0
  0
ENDBLK
  5
D7
  8
0
  0
BLOCK
  8
0
  2
PD02100A00700_SPINA_TE__29
 70
     0
 10
-1468.959524244261
 20
-446.0295575665588
 30
0.0
  3
PD02100A00700_SPINA_TE__29
  1

  0
LINE
  5
42C
  8
0
  6
CONTINUOUS
 62
     7
 10
-1467.561006353764
 20
-445.6468538818359
 30
0.0
 11
-1467.470579240342
 21
-445.3697320375856
 31
0.0
  0
LINE
  5
42D
  8
0
  6
CONTINUOUS
 62
     7
 10
-1468.959524244261
 20
-445.191494482421
 30
0.0
 11
-1468.937013433842
 21
-445.4822268066405
 31
0.0
  0
LINE
  5
42E
  8
0
  6
CONTINUOUS
 62
     7
 10
-1467.470307070755
 20
-445.3676344604386
 30
0.0
 11
-1467.492818640141
 21
-445.0768923339843
 31
0.0
  0
LINE
  5
42F
  8
0
  6
CONTINUOUS
 62
     7
 10
-1468.868821905522
 20
-444.912265258789
 30
0.0
 11
-1468.959249729179
 21
-445.1893776347702
 31
0.0
  0
ARC
  5
430
  8
0
  6
CONTINUOUS
 62
     7
 10
-1468.214915561637
 20
-445.2795576109228
 30
0.0
 40
0.7499981190048045
 50
15.67742085265141
 51
150.6775335413703
  0
ARC
  5
431
  8
0
  6
CONTINUOUS
 62
     7
 10
-1468.214914249455
 20
-445.2795577679132
 30
0.0
 40
0.750001314232788
 50
195.6776508270531
 51
330.677341038494
  0
CIRCLE
  5
432
  8
0
  6
CONTINUOUS
 62
     1
 10
-1468.214915692723
 20
-445.2795575952395
 30
0.0
 40
0.4500000000000108
  0
ENDBLK
  5
DA
  8
0
  0
BLOCK
  8
0
  2
GFS0001A01900__30
 70
     0
 10
-1476.081382715066
 20
-448.0295575952438
 30
0.0
  3
GFS0001A01900__30
  1

  0
INSERT
  5
DC
  8
0
  2
PD05300A02600__26
 10
-1476.081382715066
 20
-448.0295575952438
 30
0.0
  0
INSERT
  5
DD
  8
0
  2
PD05300A02500__28
 10
-1472.944314539162
 20
-448.0294069824219
 30
0.0
  0
INSERT
  5
DE
  8
0
  2
PD02100A00700_SPINA_TE__29
 10
-1468.959524244261
 20
-446.0295575665588
 30
0.0
  0
ENDBLK
  5
E0
  8
0
  0
BLOCK
  8
0
  2
GFS0001A01800__31
 70
     0
 10
-1476.081382715066
 20
-448.0295575952438
 30
0.0
  3
GFS0001A01800__31
  1

  0
INSERT
  5
E2
  8
0
  2
PD00700A08300_CORPO_CE__24
 10
-1465.29177188212
 20
-440.6469745170393
 30
0.0
  0
INSERT
  5
E3
  8
0
  2
GFS0001A01900__30
 10
-1476.081382715066
 20
-448.0295575952438
 30
0.0
  0
ENDBLK
  5
E5
  8
0
  0
BLOCK
  8
0
  2
GFS0001A01700__32
 70
     0
 10
-1476.081382715066
 20
-448.0295575952438
 30
0.0
  3
GFS0001A01700__32
  1

  0
INSERT
  5
E7
  8
0
  2
GFS0001A01800__31
 10
-1476.081382715066
 20
-448.0295575952438
 30
0.0
  0
ENDBLK
  5
E9
  8
0
  0
BLOCK
  8
0
  2
GFS0001A01600__33
 70
     0
 10
-1476.081382715066
 20
-448.0295575952438
 30
0.0
  3
GFS0001A01600__33
  1

  0
INSERT
  5
EB
  8
0
  2
GFS0001A01700__32
 10
-1476.081382715066
 20
-448.0295575952438
 30
0.0
  0
ENDBLK
  5
ED
  8
0
  0
BLOCK
  8
0
  2
GFS0001A01500__34
 70
     0
 10
-1476.081382715066
 20
-448.0295575952438
 30
0.0
  3
GFS0001A01500__34
  1

  0
INSERT
  5
EF
  8
0
  2
GFS0001A01600__33
 10
-1476.081382715066
 20
-448.0295575952438
 30
0.0
  0
ENDBLK
  5
F1
  8
0
  0
BLOCK
  8
0
  2
GFS0001A01400__35
 70
     0
 10
-1476.081382715066
 20
-448.0295575952438
 30
0.0
  3
GFS0001A01400__35
  1

  0
INSERT
  5
F3
  8
0
  2
GFS0001A01500__34
 10
-1476.081382715066
 20
-448.0295575952438
 30
0.0
  0
ENDBLK
  5
F5
  8
0
  0
BLOCK
  8
0
  2
00S0001A00300__36
 70
     0
 10
-1476.081382715066
 20
-448.0295575952438
 30
0.0
  3
00S0001A00300__36
  1

  0
INSERT
  5
F7
  8
0
  2
GFS0001A01400__35
 10
-1476.081382715066
 20
-448.0295575952438
 30
0.0
  0
ENDBLK
  5
F9
  8
0
  0
BLOCK
  8
0
  2
PCA09A093__37
 70
     0
 10
-1476.081382715066
 20
-448.0295575952438
 30
0.0
  3
PCA09A093__37
  1

  0
INSERT
  5
FB
  8
0
  2
00S0001A00300__36
 10
-1476.081382715066
 20
-448.0295575952438
 30
0.0
  0
ENDBLK
  5
FD
  8
0
  0
BLOCK
  8
0
  2
PX__38
 70
     0
 10
-1468.29177188217
 20
-439.1469745170262
 30
0.0
  3
PX__38
  1

  0
LINE
  5
433
  8
0
  6
CONTINUOUS
 62
     7
 10
-1448.29177188217
 20
-239.1469745170262
 30
0.0
 11
-1468.29177188217
 21
-239.1469745170262
 31
0.0
  0
LINE
  5
434
  8
0
  6
CONTINUOUS
 62
     7
 10
-1448.29177188217
 20
-239.1469745170262
 30
0.0
 11
-1448.29177188217
 21
-439.1469745170262
 31
0.0
  0
LINE
  5
435
  8
0
  6
CONTINUOUS
 62
     7
 10
-1468.29177188217
 20
-239.1469745170262
 30
0.0
 11
-1468.29177188217
 21
-439.1469745170262
 31
0.0
  0
LINE
  5
436
  8
0
  6
CONTINUOUS
 62
     7
 10
-1468.29177188217
 20
-439.1469745170262
 30
0.0
 11
-1448.29177188217
 21
-439.1469745170262
 31
0.0
  0
ENDBLK
  5
100
  8
0
  0
BLOCK
  8
0
  2
PD05900A60600_PANNELLO__39
 70
     0
 10
-1448.29177188217
 20
-439.1469745170262
 30
0.0
  3
PD05900A60600_PANNELLO__39
  1

  0
LINE
  5
437
  8
0
  6
CONTINUOUS
 62
     7
 10
-888.2917718821698
 20
-239.1469745170262
 30
0.0
 11
-888.2917718821698
 21
-439.1469745170262
 31
0.0
  0
LINE
  5
438
  8
0
  6
CONTINUOUS
 62
     7
 10
-888.2917718821698
 20
-239.1469745170262
 30
0.0
 11
-1448.29177188217
 21
-239.1469745170262
 31
0.0
  0
LINE
  5
439
  8
0
  6
CONTINUOUS
 62
     7
 10
-1448.29177188217
 20
-239.1469745170262
 30
0.0
 11
-1448.29177188217
 21
-439.1469745170262
 31
0.0
  0
LINE
  5
43A
  8
0
  6
CONTINUOUS
 62
     7
 10
-888.2917718821698
 20
-439.1469745170262
 30
0.0
 11
-1448.29177188217
 21
-439.1469745170262
 31
0.0
  0
ENDBLK
  5
103
  8
0
  0
BLOCK
  8
0
  2
PD05900A60500_PANNELLO__40
 70
     0
 10
-888.2917718821698
 20
-439.1469745170262
 30
0.0
  3
PD05900A60500_PANNELLO__40
  1

  0
LINE
  5
43B
  8
0
  6
CONTINUOUS
 62
     7
 10
-868.2917718821698
 20
-239.1469745170262
 30
0.0
 11
-888.2917718821698
 21
-239.1469745170262
 31
0.0
  0
LINE
  5
43C
  8
0
  6
CONTINUOUS
 62
     7
 10
-888.2917718821698
 20
-439.1469745170262
 30
0.0
 11
-868.2917718821698
 21
-439.1469745170262
 31
0.0
  0
LINE
  5
43D
  8
0
  6
CONTINUOUS
 62
     7
 10
-888.2917718821698
 20
-239.1469745170262
 30
0.0
 11
-888.2917718821698
 21
-439.1469745170262
 31
0.0
  0
LINE
  5
43E
  8
0
  6
CONTINUOUS
 62
     7
 10
-868.2917718821698
 20
-239.1469745170262
 30
0.0
 11
-868.2917718821698
 21
-439.1469745170262
 31
0.0
  0
ENDBLK
  5
106
  8
0
  0
BLOCK
  8
0
  2
PX001025_MOBILE_LEST60__41
 70
     0
 10
-1468.29177188217
 20
-439.1469745170262
 30
0.0
  3
PX001025_MOBILE_LEST60__41
  1

  0
INSERT
  5
108
  8
0
  2
PX__38
 10
-1468.29177188217
 20
-439.1469745170262
 30
0.0
  0
INSERT
  5
109
  8
0
  2
PD05900A60600_PANNELLO__39
 10
-1448.29177188217
 20
-439.1469745170262
 30
0.0
  0
INSERT
  5
10A
  8
0
  2
PD05900A60500_PANNELLO__40
 10
-888.2917718821698
 20
-439.1469745170262
 30
0.0
  0
ENDBLK
  5
10C
  8
0
  0
BLOCK
  8
0
  2
TKKZ0TEC05700__42
 70
     0
 10
-1907.898699845772
 20
-863.3737815855395
 30
0.0
  3
TKKZ0TEC05700__42
  1

  0
INSERT
  5
10E
  8
0
  2
ANTA__22
 10
-1907.898699845772
 20
-863.3737815855395
 30
0.0
  0
INSERT
  5
10F
  8
0
  2
PCA09A093__37
 10
-1476.081382715066
 20
-448.0295575952438
 30
0.0
  0
INSERT
  5
110
  8
0
  2
PX001025_MOBILE_LEST60__41
 10
-1468.29177188217
 20
-439.1469745170262
 30
0.0
  0
ENDBLK
  5
112
  8
0
  0
BLOCK
  8
0
  2
IN_ALTO10
 70
     0
 10
-1412.205900000004
 20
-358.3185
 30
0.0
  3
IN_ALTO10
  1

  0
INSERT
  5
114
  8
0
  2
TKKZ0TEC05700__42
 10
-1907.898699845772
 20
-863.3737815855395
 30
0.0
  0
INSERT
  5
43F
  8
1
 62
     3
  2
*X125
 10
0.0
 20
0.0
 30
0.0
  0
TEXT
  5
440
  8
1
  6
CONTINUOUS
 62
     5
 10
-1399.045235863971
 20
-871.8737815855395
 30
0.0
 40
3.5
  1
In Alto10
 41
0.9
  7
CONVERTER_11
  0
DIMENSION
  5
449
  8
1
  2
*D115
 10
-1393.324761986594
 20
-623.122107369611
 30
0.0
 11
-1392.41123143721
 21
-618.666742012154
 31
0.0
 70
    37
  1
<>
  3
ME10_DIM_12
 13
-1610.338227773228
 23
-579.9554451367271
 33
0.0
 14
-1270.396508306132
 24
-439.1469745170263
 34
0.0
 15
-1469.529757153527
 25
-439.1469745170263
 35
0.0
  0
ENDBLK
  5
116
  8
0
  0
BLOCK
  8
0
  2
ANTA__43
 70
     0
 10
-1718.88925946805
 20
394.0365109211948
 30
0.0
  3
ANTA__43
  1

  0
LINE
  5
44A
  8
0
  6
CONTINUOUS
 62
     7
 10
-1118.88925946805
 20
414.0365109211948
 30
0.0
 11
-1118.88925946805
 21
394.0365109211948
 31
0.0
  0
LINE
  5
44B
  8
0
  6
CONTINUOUS
 62
     7
 10
-1718.88925946805
 20
394.0365109211948
 30
0.0
 11
-1118.88925946805
 21
394.0365109211948
 31
0.0
  0
LINE
  5
44C
  8
0
  6
CONTINUOUS
 62
     7
 10
-1118.88925946805
 20
414.0365109211948
 30
0.0
 11
-1718.88925946805
 21
414.0365109211948
 31
0.0
  0
LINE
  5
44D
  8
0
  6
CONTINUOUS
 62
     7
 10
-1718.88925946805
 20
394.0365109211948
 30
0.0
 11
-1718.88925946805
 21
414.0365109211948
 31
0.0
  0
ENDBLK
  5
119
  8
0
  0
BLOCK
  8
0
  2
PX000__44
 70
     0
 10
-1708.989839593829
 20
414.0365112395999
 30
0.0
  3
PX000__44
  1

  0
LINE
  5
44E
  8
0
  6
CONTINUOUS
 62
     7
 10
-1708.258548514591
 20
415.036826697997
 30
0.0
 11
-1708.989839593829
 21
414.0365137899132
 31
0.0
  0
LINE
  5
44F
  8
0
  6
CONTINUOUS
 62
     7
 10
-1702.27359472726
 20
416.5368240444787
 30
0.0
 11
-1702.277001477051
 21
416.5107925537109
 31
0.0
  0
LINE
  5
450
  8
0
  6
CONTINUOUS
 62
     7
 10
-1706.198433972168
 20
414.1996505859375
 30
0.0
 11
-1706.184521530249
 21
414.1872073657233
 31
0.0
  0
LINE
  5
451
  8
0
  6
CONTINUOUS
 62
     7
 10
-1706.251851177979
 20
414.2554138305664
 30
0.0
 11
-1706.237670774839
 21
414.2398243370226
 31
0.0
  0
LINE
  5
452
  8
0
  6
CONTINUOUS
 62
     7
 10
-1706.008030987549
 20
414.0691421630859
 30
0.0
 11
-1705.990326270342
 21
414.0612265721425
 31
0.0
  0
LINE
  5
453
  8
0
  6
CONTINUOUS
 62
     7
 10
-1706.169644451904
 20
414.1739013793945
 30
0.0
 11
-1706.155229069777
 21
414.1622908166717
 31
0.0
  0
LINE
  5
454
  8
0
  6
CONTINUOUS
 62
     7
 10
-1706.225861645508
 20
414.2268417480469
 30
0.0
 11
-1706.2112793288
 21
414.2123851759339
 31
0.0
  0
LINE
  5
455
  8
0
  6
CONTINUOUS
 62
     7
 10
-1706.276337719727
 20
414.2852829101562
 30
0.0
 11
-1706.263104425631
 21
414.2691407240264
 31
0.0
  0
LINE
  5
456
  8
0
  6
CONTINUOUS
 62
     7
 10
-1706.299251148325
 20
414.3163700445019
 30
0.0
 11
-1706.287529368527
 21
414.3004668573468
 31
0.0
  0
LINE
  5
457
  8
0
  6
CONTINUOUS
 62
     7
 10
-1704.980229473877
 20
415.0041778686523
 30
0.0
 11
-1704.988342314943
 21
415.0246327467954
 31
0.0
  0
LINE
  5
458
  8
0
  6
CONTINUOUS
 62
     7
 10
-1704.967854595947
 20
414.967594921875
 30
0.0
 11
-1704.968830955677
 21
414.9704812627517
 31
0.0
  0
LINE
  5
459
  8
0
  6
CONTINUOUS
 62
     7
 10
-1706.419697857666
 20
414.598568737793
 30
0.0
 11
-1706.415160450517
 21
414.578567685031
 31
0.0
  0
LINE
  5
45A
  8
0
  6
CONTINUOUS
 62
     7
 10
-1706.4006777771
 20
414.5237320068359
 30
0.0
 11
-1706.399695699217
 21
414.5208281563271
 31
0.0
  0
LINE
  5
45B
  8
0
  6
CONTINUOUS
 62
     7
 10
-1706.3579875
 20
414.4161270263672
 30
0.0
 11
-1706.348026236184
 21
414.397021658595
 31
0.0
  0
LINE
  5
45C
  8
0
  6
CONTINUOUS
 62
     7
 10
-1706.3401309021
 20
414.3818786743164
 30
0.0
 11
-1706.328983786052
 21
414.3629478897333
 31
0.0
  0
LINE
  5
45D
  8
0
  6
CONTINUOUS
 62
     7
 10
-1706.38830289917
 20
414.4871414306641
 30
0.0
 11
-1706.380997928422
 21
414.4687322783494
 31
0.0
  0
LINE
  5
45E
  8
0
  6
CONTINUOUS
 62
     7
 10
-1706.411152935791
 20
414.5609024169922
 30
0.0
 11
-1706.405798529055
 21
414.5419026576188
 31
0.0
  0
LINE
  5
45F
  8
0
  6
CONTINUOUS
 62
     7
 10
-1706.37405881958
 20
414.4512451293945
 30
0.0
 11
-1706.365197395617
 21
414.4318816665396
 31
0.0
  0
LINE
  5
460
  8
0
  6
CONTINUOUS
 62
     7
 10
-1702.849816418457
 20
414.3596542480469
 30
0.0
 11
-1702.982786087671
 21
414.0365112395999
 31
0.0
  0
ARC
  5
461
  8
0
  6
CONTINUOUS
 62
     7
 10
-1712.166632448472
 20
417.9924136533097
 30
0.0
 40
10.00000009168342
 50
338.6984806143813
 51
351.4795669449827
  0
ARC
  5
462
  8
0
  6
CONTINUOUS
 62
     7
 10
-1705.684221876521
 20
414.745631343324
 30
0.0
 40
0.7500011156222552
 50
232.617793581189
 51
235.5687659914239
  0
ENDBLK
  5
11C
  8
0
  0
BLOCK
  8
0
  2
PD05300A02500__45
 70
     0
 10
-1708.989839593829
 20
414.0365112395999
 30
0.0
  3
PD05300A02500__45
  1

  0
INSERT
  5
11E
  8
0
  2
PX000__44
 10
-1708.989839593829
 20
414.0365112395999
 30
0.0
  0
ENDBLK
  5
120
  8
0
  0
BLOCK
  8
0
  2
PX000__46
 70
     0
 10
-1707.934265050455
 20
414.0365112324494
 30
0.0
  3
PX000__46
  1

  0
LINE
  5
463
  8
0
  6
CONTINUOUS
 62
     7
 10
-1705.40677366333
 20
414.0488861206055
 30
0.0
 11
-1705.440339901756
 21
414.0365112425166
 31
0.0
  0
LINE
  5
464
  8
0
  6
CONTINUOUS
 62
     7
 10
-1707.818816779191
 20
414.0365112415717
 30
0.0
 11
-1707.834832287598
 21
414.0841720703125
 31
0.0
  0
LINE
  5
465
  8
0
  6
CONTINUOUS
 62
     7
 10
-1703.011998721239
 20
414.0365112324494
 30
0.0
 11
-1702.984940625
 21
414.2180679443359
 31
0.0
  0
LINE
  5
466
  8
0
  6
CONTINUOUS
 62
     7
 10
-1702.984940625
 20
414.2180679443359
 30
0.0
 11
-1702.97764926339
 21
414.2591125205315
 31
0.0
  0
LINE
  5
467
  8
0
  6
CONTINUOUS
 62
     7
 10
-1704.865452862549
 20
414.1716049316406
 30
0.0
 11
-1705.006738601671
 21
414.036511241468
 31
0.0
  0
LINE
  5
468
  8
0
  6
CONTINUOUS
 62
     7
 10
-1706.660431958008
 20
414.9626815917969
 30
0.0
 11
-1706.627755602094
 21
415.0368240453282
 31
0.0
  0
LINE
  5
469
  8
0
  6
CONTINUOUS
 62
     7
 10
-1704.745198111954
 20
415.0368240562239
 30
0.0
 11
-1704.699353314209
 21
414.9187286499023
 31
0.0
  0
LINE
  5
46A
  8
0
  6
CONTINUOUS
 62
     7
 10
-1706.363174635601
 20
414.0365112416635
 30
0.0
 11
-1706.527974224854
 21
414.2088668945312
 31
0.0
  0
LINE
  5
46B
  8
0
  6
CONTINUOUS
 62
     7
 10
-1705.927887516652
 20
414.0365112428304
 30
0.0
 11
-1705.935811138916
 21
414.0391052368164
 31
0.0
  0
LINE
  5
46C
  8
0
  6
CONTINUOUS
 62
     7
 10
-1706.384110546875
 20
415.015316784668
 30
0.0
 11
-1706.375181006816
 21
415.0368240488502
 31
0.0
  0
LINE
  5
46D
  8
0
  6
CONTINUOUS
 62
     7
 10
-1707.916047227097
 20
415.036822193207
 30
0.0
 11
-1707.918276880155
 21
415.0134146224414
 31
0.0
  0
LINE
  5
46E
  8
0
  6
CONTINUOUS
 62
     7
 10
-1703.289169286587
 20
416.1013454114448
 30
0.0
 11
-1703.205565604204
 21
415.9366911716716
 31
0.0
  0
LINE
  5
46F
  8
0
  6
CONTINUOUS
 62
     7
 10
-1704.993197579053
 20
415.0368240479734
 30
0.0
 11
-1704.980572796631
 21
415.0051239135742
 31
0.0
  0
ARC
  5
470
  8
0
  6
CONTINUOUS
 62
     7
 10
-1705.684264746286
 20
414.7456582623785
 30
0.0
 40
0.7499999088302172
 50
158.9277604072255
 51
209.0917361739907
  0
ARC
  5
471
  8
0
  6
CONTINUOUS
 62
     7
 10
-1705.684264267602
 20
414.7456643578589
 30
0.0
 40
0.7500006315792279
 50
291.7148254585941
 51
20.23954056269799
  0
ARC
  5
472
  8
0
  6
CONTINUOUS
 62
     7
 10
-1705.684267852297
 20
414.7456649735344
 30
0.0
 40
0.7500004577293707
 50
209.0922995564609
 51
250.4036932795861
  0
ARC
  5
473
  8
0
  6
CONTINUOUS
 62
     7
 10
-1705.684264611194
 20
414.7456577098499
 30
0.0
 40
2.250001018246067
 50
173.1654325563425
 51
197.0971921173268
  0
ARC
  5
474
  8
0
  6
CONTINUOUS
 62
     7
 10
-1705.684265050455
 20
414.7456626014204
 30
0.0
 40
2.750000000000398
 50
349.8091652648083
 51
25.66453794306028
  0
ARC
  5
475
  8
0
  6
CONTINUOUS
 62
     7
 10
-1705.684265533411
 20
414.7456653499367
 30
0.0
 40
0.9999984688697064
 50
167.4661377778537
 51
212.4660164408061
  0
ARC
  5
476
  8
0
  6
CONTINUOUS
 62
     7
 10
-1705.684264004439
 20
414.7456673064979
 30
0.0
 40
0.999999648154872
 50
324.9659897210201
 51
9.96586351623964
  0
ENDBLK
  5
123
  8
0
  0
BLOCK
  8
0
  2
PD05300A02600__47
 70
     0
 10
-1707.934265050455
 20
414.0365112324494
 30
0.0
  3
PD05300A02600__47
  1

  0
INSERT
  5
125
  8
0
  2
PX000__46
 10
-1707.934265050455
 20
414.0365112324494
 30
0.0
  0
ENDBLK
  5
127
  8
0
  0
BLOCK
  8
0
  2
PD02100A00700_SPINA_TE__48
 70
     0
 10
-1706.431243576481
 20
414.03651124185
 30
0.0
  3
PD02100A00700_SPINA_TE__48
  1

  0
LINE
  5
477
  8
0
  6
CONTINUOUS
 62
     1
 10
-1705.339413739014
 20
415.0347564819336
 30
0.0
 11
-1705.34198747336
 21
415.036824047808
 31
0.0
  0
LINE
  5
478
  8
0
  6
CONTINUOUS
 62
     1
 10
-1706.016493606089
 20
415.0368240470344
 30
0.0
 11
-1706.083325482178
 21
414.9536331298828
 31
0.0
  0
LINE
  5
479
  8
0
  6
CONTINUOUS
 62
     7
 10
-1706.365554809872
 20
415.0368240474805
 30
0.0
 11
-1706.43103537866
 21
414.8125559164387
 31
0.0
  0
LINE
  5
47A
  8
0
  6
CONTINUOUS
 62
     7
 10
-1704.937287970921
 20
414.6812158580513
 30
0.0
 11
-1704.968873120117
 21
414.9708679321289
 31
0.0
  0
LINE
  5
47B
  8
0
  6
CONTINUOUS
 62
     7
 10
-1706.431243576481
 20
414.8100960559554
 30
0.0
 11
-1706.399655438233
 21
414.520458996582
 31
0.0
  0
LINE
  5
47C
  8
0
  6
CONTINUOUS
 62
     7
 10
-1706.258212370803
 20
414.2631886859477
 30
0.0
 11
-1706.031697996976
 21
414.0812196770663
 31
0.0
  0
LINE
  5
47D
  8
0
  6
CONTINUOUS
 62
     7
 10
-1705.01916564695
 20
414.3990464110019
 30
0.0
 11
-1704.9374953534
 21
414.6787689806666
 31
0.0
  0
LINE
  5
47E
  8
0
  6
CONTINUOUS
 62
     7
 10
-1704.968873120117
 20
414.9708679321289
 30
0.0
 11
-1705.005018978785
 21
415.0368240501835
 31
0.0
  0
LINE
  5
47F
  8
0
  6
CONTINUOUS
 62
     7
 10
-1706.029772322136
 20
414.080239660274
 30
0.0
 11
-1705.880001472093
 21
414.03651124185
 31
0.0
  0
LINE
  5
480
  8
0
  6
CONTINUOUS
 62
     7
 10
-1705.447674225301
 20
414.0365112427058
 30
0.0
 11
-1705.202439404297
 21
414.1709106567383
 31
0.0
  0
LINE
  5
481
  8
0
  6
CONTINUOUS
 62
     7
 10
-1706.399655438233
 20
414.520458996582
 30
0.0
 11
-1706.259567307428
 21
414.2648372010595
 31
0.0
  0
ARC
  5
482
  8
0
  6
CONTINUOUS
 62
     1
 10
-1705.684267222548
 20
414.7456623645468
 30
0.0
 40
0.4499992597920424
 50
152.4735517331177
 51
39.97343964237419
  0
ARC
  5
483
  8
0
  6
CONTINUOUS
 62
     7
 10
-1705.684260503915
 20
414.7456682609197
 30
0.0
 40
0.7499985837330685
 50
309.9732091599676
 51
332.4732078292547
  0
ENDBLK
  5
12A
  8
0
  0
BLOCK
  8
0
  2
GFS0001A01900__49
 70
     0
 10
-1708.989839593829
 20
414.0365112324494
 30
0.0
  3
GFS0001A01900__49
  1

  0
INSERT
  5
12C
  8
0
  2
PD05300A02500__45
 10
-1708.989839593829
 20
414.0365112395999
 30
0.0
  0
INSERT
  5
12D
  8
0
  2
PD05300A02600__47
 10
-1707.934265050455
 20
414.0365112324494
 30
0.0
  0
INSERT
  5
12E
  8
0
  2
PD02100A00700_SPINA_TE__48
 10
-1706.431243576481
 20
414.03651124185
 30
0.0
  0
ENDBLK
  5
130
  8
0
  0
BLOCK
  8
0
  2
CORPO_PORTA__50
 70
     0
 10
-1715.889171882053
 20
415.0368254829306
 30
0.0
  3
CORPO_PORTA__50
  1

  0
LINE
  5
484
  8
0
  6
CONTINUOUS
 62
     7
 10
-1715.389171882053
 20
415.0368254829306
 30
0.0
 11
-1710.389171882053
 21
415.0368254829306
 31
0.0
  0
LINE
  5
485
  8
0
  6
CONTINUOUS
 62
     1
 10
-1715.389171882053
 20
415.5368254829306
 30
0.0
 11
-1710.389171882053
 21
415.5368254829307
 31
0.0
  0
LINE
  5
486
  8
0
  6
CONTINUOUS
 62
     7
 10
-1715.889171882053
 20
415.5368254829306
 30
0.0
 11
-1715.889171882053
 21
416.5368254829305
 31
0.0
  0
LINE
  5
487
  8
0
  6
CONTINUOUS
 62
     1
 10
-1715.389171882053
 20
415.5368254829306
 30
0.0
 11
-1715.389171882053
 21
416.0118254829309
 31
0.0
  0
LINE
  5
488
  8
0
  6
CONTINUOUS
 62
     7
 10
-1713.889171882053
 20
416.0118254829309
 30
0.0
 11
-1713.889171882053
 21
416.0618254829308
 31
0.0
  0
LINE
  5
489
  8
0
  6
CONTINUOUS
 62
     7
 10
-1713.889171882053
 20
416.0618254829308
 30
0.0
 11
-1715.389171882053
 21
416.0618254829308
 31
0.0
  0
LINE
  5
48A
  8
0
  6
CONTINUOUS
 62
     7
 10
-1715.389171882053
 20
416.0618254829308
 30
0.0
 11
-1715.60711682923
 21
416.0618254829308
 31
0.0
  0
LINE
  5
48B
  8
0
  6
CONTINUOUS
 62
     7
 10
-1714.889171882053
 20
416.5118254829309
 30
0.0
 11
-1714.889171882053
 21
416.5368254829309
 31
0.0
  0
LINE
  5
48C
  8
0
  6
CONTINUOUS
 62
     7
 10
-1715.389171882053
 20
416.5118254829309
 30
0.0
 11
-1715.60711682923
 21
416.5118254829309
 31
0.0
  0
LINE
  5
48D
  8
0
  6
CONTINUOUS
 62
     1
 10
-1715.389171882053
 20
416.0618254829308
 30
0.0
 11
-1715.389171882053
 21
416.5118254829309
 31
0.0
  0
LINE
  5
48E
  8
0
  6
CONTINUOUS
 62
     7
 10
-1715.389171882053
 20
416.5118254829309
 30
0.0
 11
-1714.889171882053
 21
416.5118254829309
 31
0.0
  0
LINE
  5
48F
  8
0
  6
CONTINUOUS
 62
     7
 10
-1715.60711682923
 20
416.0118254829309
 30
0.0
 11
-1715.60711682923
 21
416.0618254829308
 31
0.0
  0
LINE
  5
490
  8
0
  6
CONTINUOUS
 62
     7
 10
-1715.60711682923
 20
416.5118254829309
 30
0.0
 11
-1715.60711682923
 21
416.5368254829309
 31
0.0
  0
LINE
  5
491
  8
0
  6
CONTINUOUS
 62
     7
 10
-1715.389171882053
 20
416.0118254829309
 30
0.0
 11
-1715.60711682923
 21
416.0118254829309
 31
0.0
  0
LINE
  5
492
  8
0
  6
CONTINUOUS
 62
     7
 10
-1715.389171882053
 20
416.0118254829309
 30
0.0
 11
-1713.889171882053
 21
416.0118254829309
 31
0.0
  0
LINE
  5
493
  8
0
  6
CONTINUOUS
 62
     1
 10
-1715.389171882053
 20
415.0368254829306
 30
0.0
 11
-1715.389171882053
 21
415.5368254829306
 31
0.0
  0
LINE
  5
494
  8
0
  6
CONTINUOUS
 62
     1
 10
-1715.389171882053
 20
415.5368254829306
 30
0.0
 11
-1715.889171882053
 21
415.5368254829306
 31
0.0
  0
LINE
  5
495
  8
0
  6
CONTINUOUS
 62
     7
 10
-1714.599271978536
 20
416.5368240488256
 30
0.0
 11
-1714.367528057861
 21
416.3819778564453
 31
0.0
  0
LINE
  5
496
  8
0
  6
CONTINUOUS
 62
     7
 10
-1713.410817242432
 20
416.3819778564453
 30
0.0
 11
-1713.179073333843
 21
416.5368240407502
 31
0.0
  0
LINE
  5
497
  8
0
  6
CONTINUOUS
 62
     7
 10
-1710.389171882053
 20
416.5368254829306
 30
0.0
 11
-1710.389171882053
 21
415.5368254829307
 31
0.0
  0
LINE
  5
498
  8
0
  6
CONTINUOUS
 62
     7
 10
-1710.389171882053
 20
415.0368254829306
 30
0.0
 11
-1710.389171882053
 21
415.5368254829307
 31
0.0
  0
LINE
  5
499
  8
0
  6
CONTINUOUS
 62
     7
 10
-1707.389171882053
 20
415.5368254829307
 30
0.0
 11
-1707.389171882053
 21
416.5368254829307
 31
0.0
  0
LINE
  5
49A
  8
0
  6
CONTINUOUS
 62
     7
 10
-1707.389171882053
 20
415.0368254829307
 30
0.0
 11
-1707.389171882053
 21
415.5368254829307
 31
0.0
  0
LINE
  5
49B
  8
0
  6
CONTINUOUS
 62
     7
 10
-1710.389171882053
 20
415.0368254829306
 30
0.0
 11
-1707.389171882053
 21
415.0368254829307
 31
0.0
  0
LINE
  5
49C
  8
0
  6
CONTINUOUS
 62
     7
 10
-1703.289171882053
 20
415.5368254829307
 30
0.0
 11
-1703.289171882053
 21
416.5368254829306
 31
0.0
  0
LINE
  5
49D
  8
0
  6
CONTINUOUS
 62
     1
 10
-1707.389171882053
 20
415.5368254829307
 30
0.0
 11
-1703.789171882053
 21
415.5368254829307
 31
0.0
  0
LINE
  5
49E
  8
0
  6
CONTINUOUS
 62
     7
 10
-1707.389171882053
 20
415.0368254829307
 30
0.0
 11
-1703.789171882053
 21
415.0368254829307
 31
0.0
  0
LINE
  5
49F
  8
0
  6
CONTINUOUS
 62
     7
 10
-1703.571226934876
 20
416.0118254829309
 30
0.0
 11
-1703.571226934876
 21
416.0618254829308
 31
0.0
  0
LINE
  5
4A0
  8
0
  6
CONTINUOUS
 62
     7
 10
-1705.289171882053
 20
416.0618254829308
 30
0.0
 11
-1705.289171882053
 21
416.0118254829309
 31
0.0
  0
LINE
  5
4A1
  8
0
  6
CONTINUOUS
 62
     7
 10
-1703.789171882053
 20
416.0618254829308
 30
0.0
 11
-1705.289171882053
 21
416.0618254829308
 31
0.0
  0
LINE
  5
4A2
  8
0
  6
CONTINUOUS
 62
     7
 10
-1703.571226934876
 20
416.5118254829309
 30
0.0
 11
-1703.571226934876
 21
416.5368254829309
 31
0.0
  0
LINE
  5
4A3
  8
0
  6
CONTINUOUS
 62
     1
 10
-1703.789171882053
 20
415.5368254829307
 30
0.0
 11
-1703.789171882053
 21
416.0118254829309
 31
0.0
  0
LINE
  5
4A4
  8
0
  6
CONTINUOUS
 62
     7
 10
-1703.789171882053
 20
416.0618254829308
 30
0.0
 11
-1703.571226934876
 21
416.0618254829308
 31
0.0
  0
LINE
  5
4A5
  8
0
  6
CONTINUOUS
 62
     7
 10
-1704.289171882053
 20
416.5368254829309
 30
0.0
 11
-1704.289171882053
 21
416.5118254829309
 31
0.0
  0
LINE
  5
4A6
  8
0
  6
CONTINUOUS
 62
     7
 10
-1704.289171882053
 20
416.5118254829309
 30
0.0
 11
-1703.789171882053
 21
416.5118254829309
 31
0.0
  0
LINE
  5
4A7
  8
0
  6
CONTINUOUS
 62
     1
 10
-1703.789171882053
 20
415.0368254829307
 30
0.0
 11
-1703.789171882053
 21
415.5368254829307
 31
0.0
  0
LINE
  5
4A8
  8
0
  6
CONTINUOUS
 62
     7
 10
-1703.789171882053
 20
416.0118254829309
 30
0.0
 11
-1703.571226934876
 21
416.0118254829309
 31
0.0
  0
LINE
  5
4A9
  8
0
  6
CONTINUOUS
 62
     7
 10
-1705.289171882053
 20
416.0118254829309
 30
0.0
 11
-1703.789171882053
 21
416.0118254829309
 31
0.0
  0
LINE
  5
4AA
  8
0
  6
CONTINUOUS
 62
     1
 10
-1703.789171882053
 20
416.0618254829308
 30
0.0
 11
-1703.789171882053
 21
416.5118254829309
 31
0.0
  0
LINE
  5
4AB
  8
0
  6
CONTINUOUS
 62
     1
 10
-1703.789171882053
 20
415.5368254829307
 30
0.0
 11
-1703.289171882053
 21
415.5368254829307
 31
0.0
  0
LINE
  5
4AC
  8
0
  6
CONTINUOUS
 62
     7
 10
-1703.789171882053
 20
416.5118254829309
 30
0.0
 11
-1703.571226934876
 21
416.5118254829309
 31
0.0
  0
LINE
  5
4AD
  8
0
  6
CONTINUOUS
 62
     7
 10
-1703.327233410645
 20
415.3454864624023
 30
0.0
 11
-1703.289171882053
 21
415.5368254829307
 31
0.0
  0
LINE
  5
4AE
  8
0
  6
CONTINUOUS
 62
     7
 10
-1703.326067854073
 20
415.3513455501057
 30
0.0
 11
-1703.313645458984
 21
415.3823135498047
 31
0.0
  0
LINE
  5
4AF
  8
0
  6
CONTINUOUS
 62
     7
 10
-1703.289171882053
 20
415.5368254829307
 30
0.0
 11
-1703.291184521484
 21
415.492008984375
 31
0.0
  0
LINE
  5
4B0
  8
0
  6
CONTINUOUS
 62
     7
 10
-1703.313645458984
 20
415.3823135498047
 30
0.0
 11
-1703.307190991211
 21
415.4038055541992
 31
0.0
  0
LINE
  5
4B1
  8
0
  6
CONTINUOUS
 62
     7
 10
-1703.384663677979
 20
415.2429321411133
 30
0.0
 11
-1703.348874188233
 21
415.2998932006836
 31
0.0
  0
LINE
  5
4B2
  8
0
  6
CONTINUOUS
 62
     7
 10
-1703.307190991211
 20
415.4038055541992
 30
0.0
 11
-1703.293698406983
 21
415.4697082641602
 31
0.0
  0
LINE
  5
4B3
  8
0
  6
CONTINUOUS
 62
     7
 10
-1703.423511587155
 20
415.1974476898482
 30
0.0
 11
-1703.398255444336
 21
415.2250793579102
 31
0.0
  0
LINE
  5
4B4
  8
0
  6
CONTINUOUS
 62
     7
 10
-1703.291184521484
 20
415.492008984375
 30
0.0
 11
-1703.293698406983
 21
415.4697082641602
 31
0.0
  0
LINE
  5
4B5
  8
0
  6
CONTINUOUS
 62
     7
 10
-1703.460202313233
 20
415.1602905395508
 30
0.0
 11
-1703.443638897705
 21
415.1754272583008
 31
0.0
  0
LINE
  5
4B6
  8
0
  6
CONTINUOUS
 62
     7
 10
-1703.398255444336
 20
415.2250793579102
 30
0.0
 11
-1703.384663677979
 21
415.2429321411133
 31
0.0
  0
LINE
  5
4B7
  8
0
  6
CONTINUOUS
 62
     7
 10
-1703.338688946533
 20
415.3198822143555
 30
0.0
 11
-1703.348874188233
 21
415.2998932006836
 31
0.0
  0
LINE
  5
4B8
  8
0
  6
CONTINUOUS
 62
     7
 10
-1703.766736126709
 20
415.0373275878906
 30
0.0
 11
-1703.699895001221
 21
415.044857800293
 31
0.0
  0
LINE
  5
4B9
  8
0
  6
CONTINUOUS
 62
     7
 10
-1703.513722515869
 20
415.1195419433594
 30
0.0
 11
-1703.532723522949
 21
415.107601940918
 31
0.0
  0
LINE
  5
4BA
  8
0
  6
CONTINUOUS
 62
     7
 10
-1703.699895001221
 20
415.044857800293
 30
0.0
 11
-1703.677910900879
 21
415.0493591430664
 31
0.0
  0
LINE
  5
4BB
  8
0
  6
CONTINUOUS
 62
     7
 10
-1703.61348447876
 20
415.0687072875977
 30
0.0
 11
-1703.599051683324
 21
415.0744973264332
 31
0.0
  0
LINE
  5
4BC
  8
0
  6
CONTINUOUS
 62
     7
 10
-1715.727623541796
 20
415.1697741436179
 30
0.0
 11
-1715.718140698242
 21
415.1602905395508
 31
0.0
  0
LINE
  5
4BD
  8
0
  6
CONTINUOUS
 62
     7
 10
-1715.81839475708
 20
415.2803772094727
 30
0.0
 11
-1715.780087567139
 21
415.2250793579102
 31
0.0
  0
LINE
  5
4BE
  8
0
  6
CONTINUOUS
 62
     7
 10
-1715.841399328705
 20
415.3261556900166
 30
0.0
 11
-1715.829468823242
 21
415.2998932006836
 31
0.0
  0
LINE
  5
4BF
  8
0
  6
CONTINUOUS
 62
     7
 10
-1715.700913525391
 20
415.1459091308594
 30
0.0
 11
-1715.645623303223
 21
415.107601940918
 31
0.0
  0
LINE
  5
4C0
  8
0
  6
CONTINUOUS
 62
     7
 10
-1715.626107312012
 20
415.0965240600586
 30
0.0
 11
-1715.645623303223
 21
415.107601940918
 31
0.0
  0
LINE
  5
4C1
  8
0
  6
CONTINUOUS
 62
     7
 10
-1715.829468823242
 20
415.2998932006836
 30
0.0
 11
-1715.81839475708
 21
415.2803772094727
 31
0.0
  0
LINE
  5
4C2
  8
0
  6
CONTINUOUS
 62
     7
 10
-1715.765706158447
 20
415.2078598144531
 30
0.0
 11
-1715.780087567139
 21
415.2250793579102
 31
0.0
  0
LINE
  5
4C3
  8
0
  6
CONTINUOUS
 62
     7
 10
-1715.718140698242
 20
415.1602905395508
 30
0.0
 11
-1715.700913525391
 21
415.1459091308594
 31
0.0
  0
LINE
  5
4C4
  8
0
  6
CONTINUOUS
 62
     7
 10
-1715.881135083008
 20
415.4475448730469
 30
0.0
 11
-1715.864701367188
 21
415.3823135498047
 31
0.0
  0
LINE
  5
4C5
  8
0
  6
CONTINUOUS
 62
     7
 10
-1715.569602421101
 20
415.0708619082212
 30
0.0
 11
-1715.564858532715
 21
415.0687072875977
 31
0.0
  0
LINE
  5
4C6
  8
0
  6
CONTINUOUS
 62
     7
 10
-1715.543675518799
 20
415.0612991455078
 30
0.0
 11
-1715.478451824951
 21
415.044857800293
 31
0.0
  0
LINE
  5
4C7
  8
0
  6
CONTINUOUS
 62
     7
 10
-1715.8572894104
 20
415.3611343505859
 30
0.0
 11
-1715.864701367188
 21
415.3823135498047
 31
0.0
  0
LINE
  5
4C8
  8
0
  6
CONTINUOUS
 62
     7
 10
-1715.478451824951
 20
415.044857800293
 30
0.0
 11
-1715.456288433838
 21
415.0413482788086
 31
0.0
  0
LINE
  5
4C9
  8
0
  6
CONTINUOUS
 62
     7
 10
-1715.564858532715
 20
415.0687072875977
 30
0.0
 11
-1715.543675518799
 21
415.0612991455078
 31
0.0
  0
LINE
  5
4CA
  8
0
  6
CONTINUOUS
 62
     7
 10
-1715.887364041
 20
415.5167344946024
 30
0.0
 11
-1715.88464841919
 21
415.4697082641602
 31
0.0
  0
LINE
  5
4CB
  8
0
  6
CONTINUOUS
 62
     7
 10
-1715.88464841919
 20
415.4697082641602
 30
0.0
 11
-1715.881135083008
 21
415.4475448730469
 31
0.0
  0
ARC
  5
4CC
  8
0
  6
CONTINUOUS
 62
     7
 10
-1715.389171882053
 20
415.5368254829306
 30
0.0
 40
0.5
 50
180.0
 51
270.0
  0
ARC
  5
4CD
  8
0
  6
CONTINUOUS
 62
     7
 10
-1713.889172650147
 20
417.5368254829304
 30
0.0
 40
1.249998774594366
 50
247.4999213034362
 51
292.500078696612
  0
ARC
  5
4CE
  8
0
  6
CONTINUOUS
 62
     7
 10
-1703.789173549159
 20
415.5368243689974
 30
0.0
 40
0.499998886069471
 50
270.0001910366822
 51
337.5004196417493
  0
ENDBLK
  5
133
  8
0
  0
BLOCK
  8
0
  2
PD00700A08300_CORPO_CE__51
 70
     0
 10
-1715.889171882053
 20
415.0368254829306
 30
0.0
  3
PD00700A08300_CORPO_CE__51
  1

  0
INSERT
  5
135
  8
0
  2
CORPO_PORTA__50
 10
-1715.889171882053
 20
415.0368254829306
 30
0.0
  0
ENDBLK
  5
137
  8
0
  0
BLOCK
  8
0
  2
GFS0001A01800__52
 70
     0
 10
-1715.889171882053
 20
414.0365112324494
 30
0.0
  3
GFS0001A01800__52
  1

  0
INSERT
  5
139
  8
0
  2
GFS0001A01900__49
 10
-1708.989839593829
 20
414.0365112324494
 30
0.0
  0
INSERT
  5
13A
  8
0
  2
PD00700A08300_CORPO_CE__51
 10
-1715.889171882053
 20
415.0368254829306
 30
0.0
  0
ENDBLK
  5
13C
  8
0
  0
BLOCK
  8
0
  2
GFS0001A01700__53
 70
     0
 10
-1715.889171882053
 20
414.0365112324494
 30
0.0
  3
GFS0001A01700__53
  1

  0
INSERT
  5
13E
  8
0
  2
GFS0001A01800__52
 10
-1715.889171882053
 20
414.0365112324494
 30
0.0
  0
ENDBLK
  5
140
  8
0
  0
BLOCK
  8
0
  2
GFS0001A01600__54
 70
     0
 10
-1715.889171882053
 20
414.0365112324494
 30
0.0
  3
GFS0001A01600__54
  1

  0
INSERT
  5
142
  8
0
  2
GFS0001A01700__53
 10
-1715.889171882053
 20
414.0365112324494
 30
0.0
  0
ENDBLK
  5
144
  8
0
  0
BLOCK
  8
0
  2
GFS0001A01500__55
 70
     0
 10
-1715.889171882053
 20
414.0365112324494
 30
0.0
  3
GFS0001A01500__55
  1

  0
INSERT
  5
146
  8
0
  2
GFS0001A01600__54
 10
-1715.889171882053
 20
414.0365112324494
 30
0.0
  0
ENDBLK
  5
148
  8
0
  0
BLOCK
  8
0
  2
GFS0001A01400__56
 70
     0
 10
-1715.889171882053
 20
414.0365112324494
 30
0.0
  3
GFS0001A01400__56
  1

  0
INSERT
  5
14A
  8
0
  2
GFS0001A01500__55
 10
-1715.889171882053
 20
414.0365112324494
 30
0.0
  0
ENDBLK
  5
14C
  8
0
  0
BLOCK
  8
0
  2
00S0001A00300__57
 70
     0
 10
-1715.889171882053
 20
414.0365112324494
 30
0.0
  3
00S0001A00300__57
  1

  0
INSERT
  5
14E
  8
0
  2
GFS0001A01400__56
 10
-1715.889171882053
 20
414.0365112324494
 30
0.0
  0
ENDBLK
  5
150
  8
0
  0
BLOCK
  8
0
  2
PCA09A093__58
 70
     0
 10
-1715.889171882053
 20
414.0365112324494
 30
0.0
  3
PCA09A093__58
  1

  0
INSERT
  5
152
  8
0
  2
00S0001A00300__57
 10
-1715.889171882053
 20
414.0365112324494
 30
0.0
  0
ENDBLK
  5
154
  8
0
  0
BLOCK
  8
0
  2
PX__59
 70
     0
 10
-1718.889171882166
 20
416.5368254829737
 30
0.0
  3
PX__59
  1

  0
LINE
  5
4CF
  8
0
  6
CONTINUOUS
 62
     7
 10
-1698.889171882166
 20
616.5368254829737
 30
0.0
 11
-1718.889171882166
 21
616.5368254829737
 31
0.0
  0
LINE
  5
4D0
  8
0
  6
CONTINUOUS
 62
     7
 10
-1698.889171882166
 20
616.5368254829737
 30
0.0
 11
-1698.889171882166
 21
416.5368254829737
 31
0.0
  0
LINE
  5
4D1
  8
0
  6
CONTINUOUS
 62
     7
 10
-1718.889171882166
 20
616.5368254829737
 30
0.0
 11
-1718.889171882166
 21
416.5368254829737
 31
0.0
  0
LINE
  5
4D2
  8
0
  6
CONTINUOUS
 62
     7
 10
-1718.889171882166
 20
416.5368254829737
 30
0.0
 11
-1698.889171882166
 21
416.5368254829737
 31
0.0
  0
ENDBLK
  5
157
  8
0
  0
BLOCK
  8
0
  2
PD05900A60600_PANNELLO__60
 70
     0
 10
-1698.889171882166
 20
416.5368254829737
 30
0.0
  3
PD05900A60600_PANNELLO__60
  1

  0
LINE
  5
4D3
  8
0
  6
CONTINUOUS
 62
     7
 10
-1138.889171882165
 20
616.5368254829737
 30
0.0
 11
-1138.889171882165
 21
416.5368254829737
 31
0.0
  0
LINE
  5
4D4
  8
0
  6
CONTINUOUS
 62
     7
 10
-1138.889171882165
 20
616.5368254829737
 30
0.0
 11
-1698.889171882166
 21
616.5368254829737
 31
0.0
  0
LINE
  5
4D5
  8
0
  6
CONTINUOUS
 62
     7
 10
-1698.889171882166
 20
616.5368254829737
 30
0.0
 11
-1698.889171882166
 21
416.5368254829737
 31
0.0
  0
LINE
  5
4D6
  8
0
  6
CONTINUOUS
 62
     7
 10
-1138.889171882165
 20
416.5368254829737
 30
0.0
 11
-1698.889171882166
 21
416.5368254829737
 31
0.0
  0
ENDBLK
  5
15A
  8
0
  0
BLOCK
  8
0
  2
PD05900A60500_PANNELLO__61
 70
     0
 10
-1138.889171882165
 20
416.5368254829737
 30
0.0
  3
PD05900A60500_PANNELLO__61
  1

  0
LINE
  5
4D7
  8
0
  6
CONTINUOUS
 62
     7
 10
-1118.889171882165
 20
616.5368254829737
 30
0.0
 11
-1138.889171882165
 21
616.5368254829737
 31
0.0
  0
LINE
  5
4D8
  8
0
  6
CONTINUOUS
 62
     7
 10
-1138.889171882165
 20
416.5368254829737
 30
0.0
 11
-1118.889171882165
 21
416.5368254829737
 31
0.0
  0
LINE
  5
4D9
  8
0
  6
CONTINUOUS
 62
     7
 10
-1138.889171882165
 20
616.5368254829737
 30
0.0
 11
-1138.889171882165
 21
416.5368254829737
 31
0.0
  0
LINE
  5
4DA
  8
0
  6
CONTINUOUS
 62
     7
 10
-1118.889171882165
 20
616.5368254829737
 30
0.0
 11
-1118.889171882165
 21
416.5368254829737
 31
0.0
  0
ENDBLK
  5
15D
  8
0
  0
BLOCK
  8
0
  2
PX001025_MOBILE_LEST60__62
 70
     0
 10
-1718.889171882166
 20
416.5368254829737
 30
0.0
  3
PX001025_MOBILE_LEST60__62
  1

  0
INSERT
  5
15F
  8
0
  2
PX__59
 10
-1718.889171882166
 20
416.5368254829737
 30
0.0
  0
INSERT
  5
160
  8
0
  2
PD05900A60600_PANNELLO__60
 10
-1698.889171882166
 20
416.5368254829737
 30
0.0
  0
INSERT
  5
161
  8
0
  2
PD05900A60500_PANNELLO__61
 10
-1138.889171882165
 20
416.5368254829737
 30
0.0
  0
ENDBLK
  5
163
  8
0
  0
BLOCK
  8
0
  2
TKKZ0TEC05700__63
 70
     0
 10
-1718.88925946805
 20
394.0365109211948
 30
0.0
  3
TKKZ0TEC05700__63
  1

  0
INSERT
  5
165
  8
0
  2
ANTA__43
 10
-1718.88925946805
 20
394.0365109211948
 30
0.0
  0
INSERT
  5
166
  8
0
  2
PCA09A093__58
 10
-1715.889171882053
 20
414.0365112324494
 30
0.0
  0
INSERT
  5
167
  8
0
  2
PX001025_MOBILE_LEST60__62
 10
-1718.889171882166
 20
416.5368254829737
 30
0.0
  0
ENDBLK
  5
169
  8
0
  0
BLOCK
  8
0
  2
IN_ALTO7
 70
     0
 10
-1662.8033
 20
497.3653
 30
0.0
  3
IN_ALTO7
  1

  0
INSERT
  5
16B
  8
0
  2
TKKZ0TEC05700__63
 10
-1718.88925946805
 20
394.0365109211948
 30
0.0
  0
INSERT
  5
4DB
  8
1
 62
     3
  2
*X126
 10
0.0
 20
0.0
 30
0.0
  0
TEXT
  5
4DC
  8
1
  6
CONTINUOUS
 62
     5
 10
-1428.339215675108
 20
385.5365109211948
 30
0.0
 40
3.5
  1
In Alto7
 41
0.9
  7
CONVERTER_11
  0
DIMENSION
  5
4E7
  8
1
  2
*D116
 10
-1663.05882061809
 20
414.0365109211948
 30
0.0
 11
-1667.33382061809
 21
404.0365109211948
 31
0.0
 70
    32
  1
Sp
 53
90.0
  3
ME10_DIM_13
 13
-1718.88925946805
 23
394.0365109211948
 33
0.0
 14
-1718.88925946805
 24
414.0365109211948
 34
0.0
 50
90.0
  0
DIMENSION
  5
4F5
  8
1
  2
*D117
 10
-1736.858645724636
 20
414.0371403878284
 30
0.0
 11
-1740.60820484169
 21
426.623093106355
 31
0.0
 70
    33
  1
<>
 53
89.99799293193799
  3
ME10_DIM_14
 13
-1718.889171882166
 23
416.5368254829737
 33
0.0
 14
-1718.88925946805
 24
414.0365109211948
 34
0.0
  0
ENDBLK
  5
16D
  8
0
  0
BLOCK
  8
0
  2
ANTA__64
 70
     0
 10
-775.7892086709138
 20
-24.62243815324143
 30
0.0
  3
ANTA__64
  1

  0
LINE
  5
4F6
  8
0
  6
CONTINUOUS
 62
     7
 10
-337.3830043352538
 20
-10.48030252951048
 30
0.0
 11
-351.5251399589848
 21
-24.62243815324143
 31
0.0
  0
LINE
  5
4F7
  8
0
  6
CONTINUOUS
 62
     7
 10
-775.7892086709138
 20
399.6416305586864
 30
0.0
 11
-351.5251399589848
 21
-24.62243815324143
 31
0.0
  0
LINE
  5
4F8
  8
0
  6
CONTINUOUS
 62
     7
 10
-337.3830043352538
 20
-10.48030252951048
 30
0.0
 11
-761.6470730471827
 21
413.7837661824174
 31
0.0
  0
LINE
  5
4F9
  8
0
  6
CONTINUOUS
 62
     7
 10
-775.7892086709138
 20
399.6416305586864
 30
0.0
 11
-761.6470730471827
 21
413.7837661824174
 31
0.0
  0
ENDBLK
  5
170
  8
0
  0
BLOCK
  8
0
  2
PX000__65
 70
     0
 10
-754.4412284053197
 20
404.7676438596037
 30
0.0
  3
PX000__65
  1

  0
LINE
  5
4FA
  8
0
  6
CONTINUOUS
 62
     7
 10
-751.0054491450918
 20
406.5059825093346
 30
0.0
 11
-752.6309525977607
 21
404.7676438596037
 31
0.0
  0
LINE
  5
4FB
  8
0
  6
CONTINUOUS
 62
     7
 10
-754.4412284053197
 20
406.5779181603617
 30
0.0
 11
-754.3867256286659
 21
406.7231567504883
 31
0.0
  0
LINE
  5
4FC
  8
0
  6
CONTINUOUS
 62
     7
 10
-754.2036526779417
 20
407.3657279255773
 30
0.0
 11
-753.5216526498738
 21
410.3893467070918
 31
0.0
  0
LINE
  5
4FD
  8
0
  6
CONTINUOUS
 62
     7
 10
-752.0652294477549
 20
413.0670201668801
 30
0.0
 11
-751.9896698615897
 21
414.9854084404749
 31
0.0
  0
LINE
  5
4FE
  8
0
  6
CONTINUOUS
 62
     7
 10
-751.9891826262518
 20
415.0368240472222
 30
0.0
 11
-751.9888946655309
 21
415.0262649658204
 31
0.0
  0
LINE
  5
4FF
  8
0
  6
CONTINUOUS
 62
     7
 10
-751.9888946655309
 20
415.0262649658204
 30
0.0
 11
-751.9896698615897
 21
414.9854084404749
 31
0.0
  0
LINE
  5
500
  8
0
  6
CONTINUOUS
 62
     7
 10
-748.6978514709298
 20
415.0368240491936
 30
0.0
 11
-748.5677482727089
 21
414.5855301025391
 31
0.0
  0
ARC
  5
501
  8
0
  6
CONTINUOUS
 62
     7
 10
-760.0566104038227
 20
408.6859109092793
 30
0.0
 40
5.999999770950514
 50
340.9055899330625
 51
347.2891752544016
  0
ARC
  5
502
  8
0
  6
CONTINUOUS
 62
     7
 10
-751.3267930799728
 20
409.8942795718338
 30
0.0
 40
2.75000000000027
 50
306.7323564091243
 51
342.5877290873739
  0
ARC
  5
503
  8
0
  6
CONTINUOUS
 62
     7
 10
-743.7013006823619
 20
399.6759447909614
 30
0.0
 40
10.00000000000009
 50
126.7323564091475
 51
136.9211833605682
  0
ARC
  5
504
  8
0
  6
CONTINUOUS
 62
     7
 10
-754.0636799135217
 20
413.145733163744
 30
0.0
 40
2.000000000000079
 50
310.0887460472059
 51
357.7444562062897
  0
ARC
  5
505
  8
0
  6
CONTINUOUS
 62
     7
 10
-751.3267930799728
 20
409.8942795718338
 30
0.0
 40
2.249999999999785
 50
130.0887460471841
 51
167.2892144772288
  0
ARC
  5
506
  8
0
  6
CONTINUOUS
 62
     7
 10
-758.244571009788
 20
412.0638056089731
 30
0.0
 40
9.99999963531521
 50
342.5877363698912
 51
14.60610441109931
  0
CIRCLE
  5
507
  8
0
  6
CONTINUOUS
 62
     7
 10
-751.3267930799728
 20
409.8942795718338
 30
0.0
 40
0.7499999999998325
  0
CIRCLE
  5
508
  8
0
  6
CONTINUOUS
 62
     7
 10
-751.3267930799728
 20
409.8942795718338
 30
0.0
 40
1.000000000000026
  0
ENDBLK
  5
173
  8
0
  0
BLOCK
  8
0
  2
PD05300A02600__66
 70
     0
 10
-754.4412284053197
 20
404.7676438596037
 30
0.0
  3
PD05300A02600__66
  1

  0
INSERT
  5
175
  8
0
  2
PX000__65
 10
-754.4412284053197
 20
404.7676438596037
 30
0.0
  0
ENDBLK
  5
177
  8
0
  0
BLOCK
  8
0
  2
PX000__67
 70
     0
 10
-757.4962304905217
 20
407.7344336359784
 30
0.0
  3
PX000__67
  1

  0
LINE
  5
509
  8
0
  6
CONTINUOUS
 62
     7
 10
-756.2238650085598
 20
408.6540673950134
 30
0.0
 11
-757.4962304905217
 21
409.6329245628519
 31
0.0
  0
LINE
  5
50A
  8
0
  6
CONTINUOUS
 62
     7
 10
-752.9588256228038
 20
411.443140333134
 30
0.0
 11
-755.5563133168729
 21
408.7061708777661
 31
0.0
  0
LINE
  5
50B
  8
0
  6
CONTINUOUS
 62
     7
 10
-749.6184532287638
 20
407.7392700317383
 30
0.0
 11
-749.6248875908449
 21
407.7344336359784
 31
0.0
  0
LINE
  5
50C
  8
0
  6
CONTINUOUS
 62
     7
 10
-749.1259643676798
 20
408.2453888061524
 30
0.0
 11
-749.1309134651048
 21
408.2391254541447
 31
0.0
  0
LINE
  5
50D
  8
0
  6
CONTINUOUS
 62
     7
 10
-749.1748967977197
 20
408.1834621541626
 30
0.0
 11
-749.2137634399459
 21
408.1342743041992
 31
0.0
  0
LINE
  5
50E
  8
0
  6
CONTINUOUS
 62
     7
 10
-749.4059288147008
 20
407.9263427856446
 30
0.0
 11
-749.4118069286427
 21
407.9208936822599
 31
0.0
  0
LINE
  5
50F
  8
0
  6
CONTINUOUS
 62
     7
 10
-749.4638933899467
 20
407.8726087195274
 30
0.0
 11
-749.5097839477579
 21
407.8300674560547
 31
0.0
  0
LINE
  5
510
  8
0
  6
CONTINUOUS
 62
     7
 10
-749.3071701171917
 20
408.0278366210938
 30
0.0
 11
-749.3127600891129
 21
408.0220918340047
 31
0.0
  0
LINE
  5
511
  8
0
  6
CONTINUOUS
 62
     7
 10
-749.3624551035128
 20
407.9710205082248
 30
0.0
 11
-749.4059288147008
 21
407.9263427856446
 31
0.0
  0
LINE
  5
512
  8
0
  6
CONTINUOUS
 62
     7
 10
-749.5097839477579
 20
407.8300674560547
 30
0.0
 11
-749.5159898213088
 21
407.8248822065632
 31
0.0
  0
LINE
  5
513
  8
0
  6
CONTINUOUS
 62
     7
 10
-749.5702826875548
 20
407.7795183984268
 30
0.0
 11
-749.6184532287638
 21
407.7392700317383
 31
0.0
  0
LINE
  5
514
  8
0
  6
CONTINUOUS
 62
     7
 10
-749.2137634399459
 20
408.1342743041992
 30
0.0
 11
-749.2191269651788
 21
408.12816252273
 31
0.0
  0
LINE
  5
515
  8
0
  6
CONTINUOUS
 62
     7
 10
-749.2657520129688
 20
408.0750328942301
 30
0.0
 11
-749.3071701171917
 21
408.0278366210938
 31
0.0
  0
LINE
  5
516
  8
0
  6
CONTINUOUS
 62
     7
 10
-749.0452645711729
 20
408.3589855135193
 30
0.0
 11
-749.0492926757248
 21
408.3533153701741
 31
0.0
  0
LINE
  5
517
  8
0
  6
CONTINUOUS
 62
     7
 10
-749.0872061738938
 20
408.2999466041659
 30
0.0
 11
-749.1259643676798
 21
408.2453888061524
 31
0.0
  0
LINE
  5
518
  8
0
  6
CONTINUOUS
 62
     7
 10
-751.9632858973688
 20
409.4980372013212
 30
0.0
 11
-751.9523117187538
 21
409.4804809692383
 31
0.0
  0
LINE
  5
519
  8
0
  6
CONTINUOUS
 62
     7
 10
-750.6529455752867
 20
410.2230025597201
 30
0.0
 11
-750.6612905785638
 21
410.240029662457
 31
0.0
  0
LINE
  5
51A
  8
0
  6
CONTINUOUS
 62
     7
 10
-751.8688133788888
 20
409.376259822911
 30
0.0
 11
-751.8556635151928
 21
409.3625527457012
 31
0.0
  0
LINE
  5
51B
  8
0
  6
CONTINUOUS
 62
     7
 10
-751.8134186719998
 20
409.3239060775814
 30
0.0
 11
-751.7981131034218
 21
409.310933106986
 31
0.0
  0
LINE
  5
51C
  8
0
  6
CONTINUOUS
 62
     7
 10
-750.6278902472799
 20
409.6228672703206
 30
0.0
 11
-750.6209834174477
 21
409.6407662866697
 31
0.0
  0
LINE
  5
51D
  8
0
  6
CONTINUOUS
 62
     7
 10
-750.6598615807169
 20
409.5517424725414
 30
0.0
 11
-750.6507784077547
 21
409.5695611372036
 31
0.0
  0
LINE
  5
51E
  8
0
  6
CONTINUOUS
 62
     7
 10
-750.5784790585009
 20
409.8478270315464
 30
0.0
 11
-750.5773133104609
 21
409.8674660001931
 31
0.0
  0
LINE
  5
51F
  8
0
  6
CONTINUOUS
 62
     7
 10
-750.5997585821777
 20
410.0774502980636
 30
0.0
 11
-750.6046415925758
 21
410.0966074744061
 31
0.0
  0
LINE
  5
520
  8
0
  6
CONTINUOUS
 62
     7
 10
-750.5770812567788
 20
409.8864120607869
 30
0.0
 11
-750.5769280521519
 21
409.9060455245513
 31
0.0
  0
LINE
  5
521
  8
0
  6
CONTINUOUS
 62
     7
 10
-750.6784683241427
 20
409.5177092810551
 30
0.0
 11
-750.6683648169818
 21
409.5352420139567
 31
0.0
  0
LINE
  5
522
  8
0
  6
CONTINUOUS
 62
     7
 10
-750.5818378918608
 20
409.809583469084
 30
0.0
 11
-750.5796910337277
 21
409.8288706892004
 31
0.0
  0
LINE
  5
523
  8
0
  6
CONTINUOUS
 62
     7
 10
-750.6147654720468
 20
409.6594492967743
 30
0.0
 11
-750.6088936024518
 21
409.6773533809288
 31
0.0
  0
LINE
  5
524
  8
0
  6
CONTINUOUS
 62
     7
 10
-750.5776674391917
 20
409.924937236109
 30
0.0
 11
-750.5785303852678
 21
409.9446834727902
 31
0.0
  0
LINE
  5
525
  8
0
  6
CONTINUOUS
 62
     7
 10
-750.6428518959448
 20
409.5871067222307
 30
0.0
 11
-750.6349810540229
 21
409.6047364926995
 31
0.0
  0
LINE
  5
526
  8
0
  6
CONTINUOUS
 62
     7
 10
-750.6226189144169
 20
410.1517029177927
 30
0.0
 11
-750.6293808346878
 21
410.1700763139644
 31
0.0
  0
LINE
  5
527
  8
0
  6
CONTINUOUS
 62
     7
 10
-750.8120334564059
 20
410.439394139869
 30
0.0
 11
-750.8260247703887
 21
410.4525508310004
 31
0.0
  0
LINE
  5
528
  8
0
  6
CONTINUOUS
 62
     7
 10
-750.6708754615869
 20
410.2574624387035
 30
0.0
 11
-750.6799445441028
 21
410.2737856805721
 31
0.0
  0
LINE
  5
529
  8
0
  6
CONTINUOUS
 62
     7
 10
-750.5848403162119
 20
410.0021467622269
 30
0.0
 11
-750.5876961917958
 21
410.0214871610466
 31
0.0
  0
LINE
  5
52A
  8
0
  6
CONTINUOUS
 62
     7
 10
-750.5890523300178
 20
410.0286265004839
 30
0.0
 11
-750.5952054179728
 21
410.059256164997
 31
0.0
  0
LINE
  5
52B
  8
0
  6
CONTINUOUS
 62
     7
 10
-750.6102491978348
 20
410.1149496482568
 30
0.0
 11
-750.6160317960408
 21
410.1335602206433
 31
0.0
  0
LINE
  5
52C
  8
0
  6
CONTINUOUS
 62
     7
 10
-750.6315093443387
 20
410.1752343239443
 30
0.0
 11
-750.6443691242679
 21
410.205301852599
 31
0.0
  0
LINE
  5
52D
  8
0
  6
CONTINUOUS
 62
     7
 10
-750.5802222104459
 20
409.9632843252296
 30
0.0
 11
-750.5813879877998
 21
409.9754971154226
 31
0.0
  0
LINE
  5
52E
  8
0
  6
CONTINUOUS
 62
     7
 10
-750.5815532230039
 20
409.9772281345432
 30
0.0
 11
-750.5821149622867
 21
409.9831129666487
 31
0.0
  0
LINE
  5
52F
  8
0
  6
CONTINUOUS
 62
     7
 10
-750.7584682837888
 20
410.3832967397794
 30
0.0
 11
-750.7713337269498
 21
410.3981704661875
 31
0.0
  0
LINE
  5
530
  8
0
  6
CONTINUOUS
 62
     7
 10
-750.9021005334117
 20
410.5121506144113
 30
0.0
 11
-750.9182086154607
 21
410.5231733541383
 31
0.0
  0
LINE
  5
531
  8
0
  6
CONTINUOUS
 62
     7
 10
-750.7342691022158
 20
410.3536736277334
 30
0.0
 11
-750.7461047916619
 21
410.36887110198
 31
0.0
  0
LINE
  5
532
  8
0
  6
CONTINUOUS
 62
     7
 10
-750.8705394334469
 20
410.4892269945082
 30
0.0
 11
-750.8861360428349
 21
410.5011230419165
 31
0.0
  0
LINE
  5
533
  8
0
  6
CONTINUOUS
 62
     7
 10
-750.8408249996438
 20
410.4652120096381
 30
0.0
 11
-750.8554727364298
 21
410.477627403268
 31
0.0
  0
LINE
  5
534
  8
0
  6
CONTINUOUS
 62
     7
 10
-750.6902913770947
 20
410.2905060695271
 30
0.0
 11
-750.7012741210978
 21
410.3080719116211
 31
0.0
  0
LINE
  5
535
  8
0
  6
CONTINUOUS
 62
     7
 10
-750.7843957256188
 20
410.4119045671674
 30
0.0
 11
-750.7979952522297
 21
410.4260764807592
 31
0.0
  0
LINE
  5
536
  8
0
  6
CONTINUOUS
 62
     7
 10
-752.0387417585299
 20
410.1293536791578
 30
0.0
 11
-752.0447286147167
 21
410.1110894019759
 31
0.0
  0
LINE
  5
537
  8
0
  6
CONTINUOUS
 62
     7
 10
-752.0733149610109
 20
409.8247410980353
 30
0.0
 11
-752.0721985525537
 21
409.8130553272664
 31
0.0
  0
LINE
  5
538
  8
0
  6
CONTINUOUS
 62
     7
 10
-752.0720345263538
 20
409.8113384175109
 30
0.0
 11
-752.0714734617299
 21
409.8054655915426
 31
0.0
  0
LINE
  5
539
  8
0
  6
CONTINUOUS
 62
     7
 10
-752.0106043679867
 20
410.2017406084231
 30
0.0
 11
-752.0186278190869
 21
410.1837651228717
 31
0.0
  0
LINE
  5
53A
  8
0
  6
CONTINUOUS
 62
     7
 10
-751.9754801499129
 20
410.2702249473337
 30
0.0
 11
-751.9851901515548
 21
410.253378401762
 31
0.0
  0
LINE
  5
53B
  8
0
  6
CONTINUOUS
 62
     7
 10
-752.0591630846908
 20
410.0547931842585
 30
0.0
 11
-752.0635673645057
 21
410.0345199707031
 31
0.0
  0
LINE
  5
53C
  8
0
  6
CONTINUOUS
 62
     7
 10
-752.0717597298948
 20
409.9788711933896
 30
0.0
 11
-752.0738932728249
 21
409.9597035961016
 31
0.0
  0
LINE
  5
53D
  8
0
  6
CONTINUOUS
 62
     7
 10
-752.0257082879488
 20
410.1656607786032
 30
0.0
 11
-752.0325815776938
 21
410.1478573369273
 31
0.0
  0
LINE
  5
53E
  8
0
  6
CONTINUOUS
 62
     7
 10
-751.9939180290118
 20
410.2364420288992
 30
0.0
 11
-752.0028061571678
 21
410.2190021951033
 31
0.0
  0
LINE
  5
53F
  8
0
  6
CONTINUOUS
 62
     7
 10
-752.0645295066878
 20
409.7599129353617
 30
0.0
 11
-752.0584027015778
 21
409.7294079598729
 31
0.0
  0
LINE
  5
540
  8
0
  6
CONTINUOUS
 62
     7
 10
-752.0751403260848
 20
409.9401683617567
 30
0.0
 11
-752.0762678157988
 21
409.9211739183862
 31
0.0
  0
LINE
  5
541
  8
0
  6
CONTINUOUS
 62
     7
 10
-752.0497367209008
 20
410.0929830292003
 30
0.0
 11
-752.0549398205377
 21
410.073836406431
 31
0.0
  0
LINE
  5
542
  8
0
  6
CONTINUOUS
 62
     7
 10
-752.0169086834247
 20
409.6012432938406
 30
0.0
 11
-752.0091901278907
 21
409.583196492809
 31
0.0
  0
LINE
  5
543
  8
0
  6
CONTINUOUS
 62
     7
 10
-752.0687260342048
 20
409.7862776343676
 30
0.0
 11
-752.0658898424289
 21
409.7670743724062
 31
0.0
  0
LINE
  5
544
  8
0
  6
CONTINUOUS
 62
     7
 10
-752.0765076989868
 20
409.9017491392357
 30
0.0
 11
-752.0766577876999
 21
409.8825149857026
 31
0.0
  0
LINE
  5
545
  8
0
  6
CONTINUOUS
 62
     7
 10
-752.0759034776198
 20
409.8632419829069
 30
0.0
 11
-752.0750624747458
 21
409.8439542208635
 31
0.0
  0
LINE
  5
546
  8
0
  6
CONTINUOUS
 62
     7
 10
-752.0007890883547
 20
409.5658605524918
 30
0.0
 11
-751.9922960367838
 21
409.5485302142191
 31
0.0
  0
LINE
  5
547
  8
0
  6
CONTINUOUS
 62
     7
 10
-752.9280464294478
 20
411.4749420288086
 30
0.0
 11
-752.8996151637158
 21
411.502297769685
 31
0.0
  0
LINE
  5
548
  8
0
  6
CONTINUOUS
 62
     7
 10
-752.8579682843168
 20
411.5423691914754
 30
0.0
 11
-752.8445503356978
 21
411.5552795532227
 31
0.0
  0
LINE
  5
549
  8
0
  6
CONTINUOUS
 62
     7
 10
-752.8445503356978
 20
411.5552795532227
 30
0.0
 11
-752.8147652550098
 21
411.5811204670923
 31
0.0
  0
LINE
  5
54A
  8
0
  6
CONTINUOUS
 62
     7
 10
-752.9588256228038
 20
411.443140333134
 30
0.0
 11
-752.9551139930878
 21
411.4469752653017
 31
0.0
  0
LINE
  5
54B
  8
0
  6
CONTINUOUS
 62
     7
 10
-752.9517042641659
 20
411.4504982673588
 30
0.0
 11
-752.9280464294478
 21
411.4749420288086
 31
0.0
  0
LINE
  5
54C
  8
0
  6
CONTINUOUS
 62
     7
 10
-747.4235177342817
 20
412.665537812692
 30
0.0
 11
-747.1183665324887
 21
415.0368230848509
 31
0.0
  0
ARC
  5
54D
  8
0
  6
CONTINUOUS
 62
     7
 10
-755.9189872256219
 20
409.0503621558557
 30
0.0
 40
0.5000000000001598
 50
232.4281691155059
 51
316.4977898405125
  0
ARC
  5
54E
  8
0
  6
CONTINUOUS
 62
     7
 10
-757.3417317066718
 20
413.9418730342907
 30
0.0
 40
9.999999999999934
 50
326.0624640315186
 51
352.6671360743683
  0
ENDBLK
  5
17A
  8
0
  0
BLOCK
  8
0
  2
PD05300A02500__68
 70
     0
 10
-757.4962304905217
 20
407.7344336359784
 30
0.0
  3
PD05300A02500__68
  1

  0
INSERT
  5
17C
  8
0
  2
PX000__67
 10
-757.4962304905217
 20
407.7344336359784
 30
0.0
  0
ENDBLK
  5
17E
  8
0
  0
BLOCK
  8
0
  2
PD02100A00700_SPINA_TE__69
 70
     0
 10
-752.0722801330609
 20
409.1488918374681
 30
0.0
  3
PD02100A00700_SPINA_TE__69
  1

  0
LINE
  5
54F
  8
0
  6
CONTINUOUS
 62
     7
 10
-750.9655983093297
 20
409.236981213379
 30
0.0
 11
-750.7424899460808
 21
409.4244604652746
 31
0.0
  0
LINE
  5
550
  8
0
  6
CONTINUOUS
 62
     7
 10
-752.0470599699369
 20
410.1026605897381
 30
0.0
 11
-752.0722801330609
 21
409.8121154907227
 31
0.0
  0
LINE
  5
551
  8
0
  6
CONTINUOUS
 62
     7
 10
-750.6065241252178
 20
409.6859200200329
 30
0.0
 11
-750.5813057067909
 21
409.9764450195313
 31
0.0
  0
LINE
  5
552
  8
0
  6
CONTINUOUS
 62
     7
 10
-751.4101375124188
 20
410.6393923742677
 30
0.0
 11
-751.6879875305218
 21
410.5515716674805
 31
0.0
  0
LINE
  5
553
  8
0
  6
CONTINUOUS
 62
     7
 10
-751.2434634827017
 20
409.1491611401281
 30
0.0
 11
-750.9655983093297
 21
409.236981213379
 31
0.0
  0
LINE
  5
554
  8
0
  6
CONTINUOUS
 62
     7
 10
-751.9832637312917
 20
409.5321044979866
 30
0.0
 11
-751.7958328369178
 21
409.3090408447266
 31
0.0
  0
LINE
  5
555
  8
0
  6
CONTINUOUS
 62
     7
 10
-751.7958328369178
 20
409.3090408447266
 30
0.0
 11
-751.5370563557739
 21
409.1745622308882
 31
0.0
  0
LINE
  5
556
  8
0
  6
CONTINUOUS
 62
     7
 10
-752.0722801330609
 20
409.8121154907227
 30
0.0
 11
-751.9844734543118
 21
409.5343047150074
 31
0.0
  0
LINE
  5
557
  8
0
  6
CONTINUOUS
 62
     7
 10
-751.5370563557739
 20
409.1745622308882
 30
0.0
 11
-751.2457662990618
 21
409.1488918374681
 31
0.0
  0
LINE
  5
558
  8
0
  6
CONTINUOUS
 62
     7
 10
-751.6879875305218
 20
410.5515716674805
 30
0.0
 11
-751.9110915671127
 21
410.3641036487889
 31
0.0
  0
LINE
  5
559
  8
0
  6
CONTINUOUS
 62
     7
 10
-751.9125589657928
 20
410.3622956738385
 30
0.0
 11
-752.0470599699369
 21
410.1026605897381
 31
0.0
  0
LINE
  5
55A
  8
0
  6
CONTINUOUS
 62
     7
 10
-750.6703221085598
 20
410.2564560122675
 30
0.0
 11
-750.8577530029337
 21
410.4795196655274
 31
0.0
  0
LINE
  5
55B
  8
0
  6
CONTINUOUS
 62
     7
 10
-750.8577530029337
 20
410.4795196655274
 30
0.0
 11
-751.1165039619667
 21
410.6139850162668
 31
0.0
  0
LINE
  5
55C
  8
0
  6
CONTINUOUS
 62
     7
 10
-750.5813057067909
 20
409.9764450195313
 30
0.0
 11
-750.6691123855397
 21
410.2542557952467
 31
0.0
  0
LINE
  5
55D
  8
0
  6
CONTINUOUS
 62
     7
 10
-751.1165039619667
 20
410.6139850162668
 30
0.0
 11
-751.4078066578119
 21
410.6396654178071
 31
0.0
  0
LINE
  5
55E
  8
0
  6
CONTINUOUS
 62
     7
 10
-750.7410296248198
 20
409.4262595434464
 30
0.0
 11
-750.6066124084508
 21
409.6849029663086
 31
0.0
  0
CIRCLE
  5
55F
  8
0
  6
CONTINUOUS
 62
     1
 10
-751.3267930799778
 20
409.8942795718295
 30
0.0
 40
0.4500000000000181
  0
ENDBLK
  5
181
  8
0
  0
BLOCK
  8
0
  2
GFS0001A01900__70
 70
     0
 10
-757.4962304905217
 20
404.7676438596037
 30
0.0
  3
GFS0001A01900__70
  1

  0
INSERT
  5
183
  8
0
  2
PD05300A02600__66
 10
-754.4412284053197
 20
404.7676438596037
 30
0.0
  0
INSERT
  5
184
  8
0
  2
PD05300A02500__68
 10
-757.4962304905217
 20
407.7344336359784
 30
0.0
  0
INSERT
  5
185
  8
0
  2
PD02100A00700_SPINA_TE__69
 10
-752.0722801330609
 20
409.1488918374681
 30
0.0
  0
ENDBLK
  5
187
  8
0
  0
BLOCK
  8
0
  2
CORPO_PORTA__71
 70
     0
 10
-757.4136718821109
 20
415.0368254829799
 30
0.0
  3
CORPO_PORTA__71
  1

  0
LINE
  5
560
  8
0
  6
CONTINUOUS
 62
     7
 10
-756.9136718821109
 20
415.0368254829799
 30
0.0
 11
-751.9136718821109
 21
415.0368254829799
 31
0.0
  0
LINE
  5
561
  8
0
  6
CONTINUOUS
 62
     1
 10
-756.9136718821109
 20
415.5368254829799
 30
0.0
 11
-751.9136718821109
 21
415.5368254829799
 31
0.0
  0
LINE
  5
562
  8
0
  6
CONTINUOUS
 62
     7
 10
-757.4136718821109
 20
415.5368254829798
 30
0.0
 11
-757.4136718821109
 21
416.5368254829797
 31
0.0
  0
LINE
  5
563
  8
0
  6
CONTINUOUS
 62
     1
 10
-756.9136718821109
 20
415.5368254829799
 30
0.0
 11
-756.9136718821109
 21
416.01182548298
 31
0.0
  0
LINE
  5
564
  8
0
  6
CONTINUOUS
 62
     7
 10
-755.4136718821109
 20
416.01182548298
 30
0.0
 11
-755.4136718821109
 21
416.06182548298
 31
0.0
  0
LINE
  5
565
  8
0
  6
CONTINUOUS
 62
     7
 10
-755.4136718821109
 20
416.06182548298
 30
0.0
 11
-756.9136718821109
 21
416.06182548298
 31
0.0
  0
LINE
  5
566
  8
0
  6
CONTINUOUS
 62
     7
 10
-756.9136718821109
 20
416.06182548298
 30
0.0
 11
-757.1316168292868
 21
416.06182548298
 31
0.0
  0
LINE
  5
567
  8
0
  6
CONTINUOUS
 62
     7
 10
-756.4136718821109
 20
416.51182548298
 30
0.0
 11
-756.4136718821109
 21
416.53682548298
 31
0.0
  0
LINE
  5
568
  8
0
  6
CONTINUOUS
 62
     7
 10
-756.9136718821109
 20
416.51182548298
 30
0.0
 11
-757.1316168292868
 21
416.51182548298
 31
0.0
  0
LINE
  5
569
  8
0
  6
CONTINUOUS
 62
     1
 10
-756.9136718821109
 20
416.06182548298
 30
0.0
 11
-756.9136718821109
 21
416.51182548298
 31
0.0
  0
LINE
  5
56A
  8
0
  6
CONTINUOUS
 62
     7
 10
-756.9136718821109
 20
416.51182548298
 30
0.0
 11
-756.4136718821109
 21
416.51182548298
 31
0.0
  0
LINE
  5
56B
  8
0
  6
CONTINUOUS
 62
     7
 10
-757.1316168292868
 20
416.01182548298
 30
0.0
 11
-757.1316168292868
 21
416.06182548298
 31
0.0
  0
LINE
  5
56C
  8
0
  6
CONTINUOUS
 62
     7
 10
-757.1316168292868
 20
416.51182548298
 30
0.0
 11
-757.1316168292868
 21
416.53682548298
 31
0.0
  0
LINE
  5
56D
  8
0
  6
CONTINUOUS
 62
     7
 10
-756.9136718821109
 20
416.01182548298
 30
0.0
 11
-757.1316168292868
 21
416.01182548298
 31
0.0
  0
LINE
  5
56E
  8
0
  6
CONTINUOUS
 62
     7
 10
-756.9136718821109
 20
416.01182548298
 30
0.0
 11
-755.4136718821109
 21
416.01182548298
 31
0.0
  0
LINE
  5
56F
  8
0
  6
CONTINUOUS
 62
     1
 10
-756.9136718821109
 20
415.0368254829799
 30
0.0
 11
-756.9136718821109
 21
415.5368254829799
 31
0.0
  0
LINE
  5
570
  8
0
  6
CONTINUOUS
 62
     1
 10
-756.9136718821109
 20
415.5368254829799
 30
0.0
 11
-757.4136718821109
 21
415.5368254829798
 31
0.0
  0
LINE
  5
571
  8
0
  6
CONTINUOUS
 62
     7
 10
-756.1237719785398
 20
416.5368240488257
 30
0.0
 11
-755.8920280578649
 21
416.3819778564454
 31
0.0
  0
LINE
  5
572
  8
0
  6
CONTINUOUS
 62
     7
 10
-754.9353172424359
 20
416.3819778564454
 30
0.0
 11
-754.7035733338467
 21
416.5368240407503
 31
0.0
  0
LINE
  5
573
  8
0
  6
CONTINUOUS
 62
     7
 10
-751.9136718821109
 20
416.5368254829799
 30
0.0
 11
-751.9136718821109
 21
415.5368254829799
 31
0.0
  0
LINE
  5
574
  8
0
  6
CONTINUOUS
 62
     7
 10
-751.9136718821109
 20
415.0368254829799
 30
0.0
 11
-751.9136718821109
 21
415.5368254829799
 31
0.0
  0
LINE
  5
575
  8
0
  6
CONTINUOUS
 62
     7
 10
-748.9136718821097
 20
415.5368254829799
 30
0.0
 11
-748.9136718821109
 21
416.5368254829799
 31
0.0
  0
LINE
  5
576
  8
0
  6
CONTINUOUS
 62
     7
 10
-748.9136718821097
 20
415.0368254829799
 30
0.0
 11
-748.9136718821097
 21
415.5368254829799
 31
0.0
  0
LINE
  5
577
  8
0
  6
CONTINUOUS
 62
     7
 10
-751.9136718821109
 20
415.0368254829799
 30
0.0
 11
-748.9136718821097
 21
415.0368254829799
 31
0.0
  0
LINE
  5
578
  8
0
  6
CONTINUOUS
 62
     7
 10
-744.8136718821107
 20
415.5368254829799
 30
0.0
 11
-744.8136718821107
 21
416.5368254829798
 31
0.0
  0
LINE
  5
579
  8
0
  6
CONTINUOUS
 62
     1
 10
-748.9136718821097
 20
415.5368254829799
 30
0.0
 11
-745.3136718821107
 21
415.5368254829799
 31
0.0
  0
LINE
  5
57A
  8
0
  6
CONTINUOUS
 62
     7
 10
-748.9136718821097
 20
415.0368254829799
 30
0.0
 11
-745.3136718821107
 21
415.0368254829799
 31
0.0
  0
LINE
  5
57B
  8
0
  6
CONTINUOUS
 62
     7
 10
-745.0957269349339
 20
416.01182548298
 30
0.0
 11
-745.0957269349339
 21
416.0618254829801
 31
0.0
  0
LINE
  5
57C
  8
0
  6
CONTINUOUS
 62
     7
 10
-746.8136718821107
 20
416.0618254829801
 30
0.0
 11
-746.8136718821107
 21
416.01182548298
 31
0.0
  0
LINE
  5
57D
  8
0
  6
CONTINUOUS
 62
     7
 10
-745.3136718821107
 20
416.0618254829801
 30
0.0
 11
-746.8136718821107
 21
416.0618254829801
 31
0.0
  0
LINE
  5
57E
  8
0
  6
CONTINUOUS
 62
     7
 10
-745.0957269349339
 20
416.51182548298
 30
0.0
 11
-745.0957269349339
 21
416.5368254829801
 31
0.0
  0
LINE
  5
57F
  8
0
  6
CONTINUOUS
 62
     1
 10
-745.3136718821107
 20
415.5368254829799
 30
0.0
 11
-745.3136718821107
 21
416.01182548298
 31
0.0
  0
LINE
  5
580
  8
0
  6
CONTINUOUS
 62
     7
 10
-745.3136718821107
 20
416.0618254829801
 30
0.0
 11
-745.0957269349339
 21
416.0618254829801
 31
0.0
  0
LINE
  5
581
  8
0
  6
CONTINUOUS
 62
     7
 10
-745.8136718821107
 20
416.5368254829801
 30
0.0
 11
-745.8136718821107
 21
416.51182548298
 31
0.0
  0
LINE
  5
582
  8
0
  6
CONTINUOUS
 62
     7
 10
-745.8136718821107
 20
416.51182548298
 30
0.0
 11
-745.3136718821107
 21
416.51182548298
 31
0.0
  0
LINE
  5
583
  8
0
  6
CONTINUOUS
 62
     1
 10
-745.3136718821107
 20
415.0368254829799
 30
0.0
 11
-745.3136718821107
 21
415.5368254829799
 31
0.0
  0
LINE
  5
584
  8
0
  6
CONTINUOUS
 62
     7
 10
-745.3136718821107
 20
416.01182548298
 30
0.0
 11
-745.0957269349339
 21
416.01182548298
 31
0.0
  0
LINE
  5
585
  8
0
  6
CONTINUOUS
 62
     7
 10
-746.8136718821107
 20
416.01182548298
 30
0.0
 11
-745.3136718821107
 21
416.01182548298
 31
0.0
  0
LINE
  5
586
  8
0
  6
CONTINUOUS
 62
     1
 10
-745.3136718821107
 20
416.0618254829801
 30
0.0
 11
-745.3136718821107
 21
416.51182548298
 31
0.0
  0
LINE
  5
587
  8
0
  6
CONTINUOUS
 62
     1
 10
-745.3136718821107
 20
415.5368254829799
 30
0.0
 11
-744.8136718821107
 21
415.5368254829799
 31
0.0
  0
LINE
  5
588
  8
0
  6
CONTINUOUS
 62
     7
 10
-745.3136718821107
 20
416.51182548298
 30
0.0
 11
-745.0957269349339
 21
416.51182548298
 31
0.0
  0
LINE
  5
589
  8
0
  6
CONTINUOUS
 62
     7
 10
-744.8517334106488
 20
415.3454864624024
 30
0.0
 11
-744.8136718821107
 21
415.5368254829799
 31
0.0
  0
LINE
  5
58A
  8
0
  6
CONTINUOUS
 62
     7
 10
-744.8505678540768
 20
415.3513455501058
 30
0.0
 11
-744.8381454589888
 21
415.3823135498047
 31
0.0
  0
LINE
  5
58B
  8
0
  6
CONTINUOUS
 62
     7
 10
-744.8136718821107
 20
415.5368254829799
 30
0.0
 11
-744.8156845214888
 21
415.4920089843751
 31
0.0
  0
LINE
  5
58C
  8
0
  6
CONTINUOUS
 62
     7
 10
-744.8316909912147
 20
415.4038055541993
 30
0.0
 11
-744.8181984069869
 21
415.4697082641602
 31
0.0
  0
LINE
  5
58D
  8
0
  6
CONTINUOUS
 62
     7
 10
-744.9480115871587
 20
415.1974476898482
 30
0.0
 11
-744.9227554443397
 21
415.2250793579102
 31
0.0
  0
LINE
  5
58E
  8
0
  6
CONTINUOUS
 62
     7
 10
-744.8156845214888
 20
415.4920089843751
 30
0.0
 11
-744.8181984069869
 21
415.4697082641602
 31
0.0
  0
LINE
  5
58F
  8
0
  6
CONTINUOUS
 62
     7
 10
-744.8381454589888
 20
415.3823135498047
 30
0.0
 11
-744.8316909912147
 21
415.4038055541993
 31
0.0
  0
LINE
  5
590
  8
0
  6
CONTINUOUS
 62
     7
 10
-744.9847023132369
 20
415.1602905395508
 30
0.0
 11
-744.9681388977089
 21
415.1754272583008
 31
0.0
  0
LINE
  5
591
  8
0
  6
CONTINUOUS
 62
     7
 10
-744.9227554443397
 20
415.2250793579102
 30
0.0
 11
-744.9091636779827
 21
415.2429321411133
 31
0.0
  0
LINE
  5
592
  8
0
  6
CONTINUOUS
 62
     7
 10
-744.8631889465368
 20
415.3198822143555
 30
0.0
 11
-744.8733741882369
 21
415.2998932006836
 31
0.0
  0
LINE
  5
593
  8
0
  6
CONTINUOUS
 62
     7
 10
-744.9091636779827
 20
415.2429321411133
 30
0.0
 11
-744.8733741882369
 21
415.2998932006836
 31
0.0
  0
LINE
  5
594
  8
0
  6
CONTINUOUS
 62
     7
 10
-745.2912361267128
 20
415.0373275878907
 30
0.0
 11
-745.2243950012247
 21
415.044857800293
 31
0.0
  0
LINE
  5
595
  8
0
  6
CONTINUOUS
 62
     7
 10
-745.0382225158727
 20
415.1195419433594
 30
0.0
 11
-745.0572235229528
 21
415.107601940918
 31
0.0
  0
LINE
  5
596
  8
0
  6
CONTINUOUS
 62
     7
 10
-745.2243950012247
 20
415.044857800293
 30
0.0
 11
-745.2024109008829
 21
415.0493591430665
 31
0.0
  0
LINE
  5
597
  8
0
  6
CONTINUOUS
 62
     7
 10
-745.1379844787638
 20
415.0687072875977
 30
0.0
 11
-745.1235516833289
 21
415.0744973264333
 31
0.0
  0
LINE
  5
598
  8
0
  6
CONTINUOUS
 62
     7
 10
-757.3892013671917
 20
415.3823135498047
 30
0.0
 11
-757.4056350830118
 21
415.4475448730469
 31
0.0
  0
LINE
  5
599
  8
0
  6
CONTINUOUS
 62
     7
 10
-757.2521235417997
 20
415.1697741436179
 30
0.0
 11
-757.2426406982457
 21
415.1602905395508
 31
0.0
  0
LINE
  5
59A
  8
0
  6
CONTINUOUS
 62
     7
 10
-757.3428947570839
 20
415.2803772094727
 30
0.0
 11
-757.3045875671429
 21
415.2250793579102
 31
0.0
  0
LINE
  5
59B
  8
0
  6
CONTINUOUS
 62
     7
 10
-757.2254135253949
 20
415.1459091308594
 30
0.0
 11
-757.1701233032269
 21
415.107601940918
 31
0.0
  0
LINE
  5
59C
  8
0
  6
CONTINUOUS
 62
     7
 10
-757.2902061584508
 20
415.2078598144532
 30
0.0
 11
-757.3045875671429
 21
415.2250793579102
 31
0.0
  0
LINE
  5
59D
  8
0
  6
CONTINUOUS
 62
     7
 10
-757.1506073120157
 20
415.0965240600586
 30
0.0
 11
-757.1701233032269
 21
415.107601940918
 31
0.0
  0
LINE
  5
59E
  8
0
  6
CONTINUOUS
 62
     7
 10
-757.3817894104048
 20
415.361134350586
 30
0.0
 11
-757.3892013671917
 21
415.3823135498047
 31
0.0
  0
LINE
  5
59F
  8
0
  6
CONTINUOUS
 62
     7
 10
-757.2426406982457
 20
415.1602905395508
 30
0.0
 11
-757.2254135253949
 21
415.1459091308594
 31
0.0
  0
LINE
  5
5A0
  8
0
  6
CONTINUOUS
 62
     7
 10
-757.0941024211048
 20
415.0708619082212
 30
0.0
 11
-757.0893585327188
 21
415.0687072875977
 31
0.0
  0
LINE
  5
5A1
  8
0
  6
CONTINUOUS
 62
     7
 10
-757.3658993287098
 20
415.3261556900167
 30
0.0
 11
-757.3539688232457
 21
415.2998932006836
 31
0.0
  0
LINE
  5
5A2
  8
0
  6
CONTINUOUS
 62
     7
 10
-757.0681755188028
 20
415.0612991455079
 30
0.0
 11
-757.0029518249547
 21
415.044857800293
 31
0.0
  0
LINE
  5
5A3
  8
0
  6
CONTINUOUS
 62
     7
 10
-757.0029518249547
 20
415.044857800293
 30
0.0
 11
-756.9807884338419
 21
415.0413482788086
 31
0.0
  0
LINE
  5
5A4
  8
0
  6
CONTINUOUS
 62
     7
 10
-757.0893585327188
 20
415.0687072875977
 30
0.0
 11
-757.0681755188028
 21
415.0612991455079
 31
0.0
  0
LINE
  5
5A5
  8
0
  6
CONTINUOUS
 62
     7
 10
-757.3539688232457
 20
415.2998932006836
 30
0.0
 11
-757.3428947570839
 21
415.2803772094727
 31
0.0
  0
LINE
  5
5A6
  8
0
  6
CONTINUOUS
 62
     7
 10
-757.4118640410037
 20
415.5167344946025
 30
0.0
 11
-757.4091484191937
 21
415.4697082641602
 31
0.0
  0
LINE
  5
5A7
  8
0
  6
CONTINUOUS
 62
     7
 10
-757.4091484191937
 20
415.4697082641602
 30
0.0
 11
-757.4056350830118
 21
415.4475448730469
 31
0.0
  0
ARC
  5
5A8
  8
0
  6
CONTINUOUS
 62
     7
 10
-756.9136718821109
 20
415.5368254829799
 30
0.0
 40
0.5
 50
180.000000000013
 51
270.0
  0
ARC
  5
5A9
  8
0
  6
CONTINUOUS
 62
     7
 10
-755.4136726501505
 20
417.5368254829797
 30
0.0
 40
1.249998774639967
 50
247.4999213042794
 51
292.5000786957303
  0
ARC
  5
5AA
  8
0
  6
CONTINUOUS
 62
     7
 10
-745.3136718470533
 20
415.5368262636358
 30
0.0
 40
0.4999999649432236
 50
354.8574157725209
 51
359.999910543416
  0
ARC
  5
5AB
  8
0
  6
CONTINUOUS
 62
     7
 10
-745.3136735491654
 20
415.5368243690808
 30
0.0
 40
0.4999988861036905
 50
270.0001910308198
 51
337.5004196330466
  0
ENDBLK
  5
18A
  8
0
  0
BLOCK
  8
0
  2
PD00700A08300_CORPO_CE__72
 70
     0
 10
-757.4136718821109
 20
415.0368254829799
 30
0.0
  3
PD00700A08300_CORPO_CE__72
  1

  0
INSERT
  5
18C
  8
0
  2
CORPO_PORTA__71
 10
-757.4136718821109
 20
415.0368254829799
 30
0.0
  0
ENDBLK
  5
18E
  8
0
  0
BLOCK
  8
0
  2
GFS0001A01800__73
 70
     0
 10
-757.4962304905217
 20
404.7676438596037
 30
0.0
  3
GFS0001A01800__73
  1

  0
INSERT
  5
190
  8
0
  2
GFS0001A01900__70
 10
-757.4962304905217
 20
404.7676438596037
 30
0.0
  0
INSERT
  5
191
  8
0
  2
PD00700A08300_CORPO_CE__72
 10
-757.4136718821109
 20
415.0368254829799
 30
0.0
  0
ENDBLK
  5
193
  8
0
  0
BLOCK
  8
0
  2
GFS0001A01700__74
 70
     0
 10
-757.4962304905217
 20
404.7676438596037
 30
0.0
  3
GFS0001A01700__74
  1

  0
INSERT
  5
195
  8
0
  2
GFS0001A01800__73
 10
-757.4962304905217
 20
404.7676438596037
 30
0.0
  0
ENDBLK
  5
197
  8
0
  0
BLOCK
  8
0
  2
GFS0001A01600__75
 70
     0
 10
-757.4962304905217
 20
404.7676438596037
 30
0.0
  3
GFS0001A01600__75
  1

  0
INSERT
  5
199
  8
0
  2
GFS0001A01700__74
 10
-757.4962304905217
 20
404.7676438596037
 30
0.0
  0
ENDBLK
  5
19B
  8
0
  0
BLOCK
  8
0
  2
GFS0001A01500__76
 70
     0
 10
-757.4962304905217
 20
404.7676438596037
 30
0.0
  3
GFS0001A01500__76
  1

  0
INSERT
  5
19D
  8
0
  2
GFS0001A01600__75
 10
-757.4962304905217
 20
404.7676438596037
 30
0.0
  0
ENDBLK
  5
19F
  8
0
  0
BLOCK
  8
0
  2
GFS0001A01400__77
 70
     0
 10
-757.4962304905217
 20
404.7676438596037
 30
0.0
  3
GFS0001A01400__77
  1

  0
INSERT
  5
1A1
  8
0
  2
GFS0001A01500__76
 10
-757.4962304905217
 20
404.7676438596037
 30
0.0
  0
ENDBLK
  5
1A3
  8
0
  0
BLOCK
  8
0
  2
00S0001A00300__78
 70
     0
 10
-757.4962304905217
 20
404.7676438596037
 30
0.0
  3
00S0001A00300__78
  1

  0
INSERT
  5
1A5
  8
0
  2
GFS0001A01400__77
 10
-757.4962304905217
 20
404.7676438596037
 30
0.0
  0
ENDBLK
  5
1A7
  8
0
  0
BLOCK
  8
0
  2
PCA09A093__79
 70
     0
 10
-757.4962304905217
 20
404.7676438596037
 30
0.0
  3
PCA09A093__79
  1

  0
INSERT
  5
1A9
  8
0
  2
00S0001A00300__78
 10
-757.4962304905217
 20
404.7676438596037
 30
0.0
  0
ENDBLK
  5
1AB
  8
0
  0
BLOCK
  8
0
  2
PX__80
 70
     0
 10
-760.4136718821698
 20
416.5368254829738
 30
0.0
  3
PX__80
  1

  0
LINE
  5
5AC
  8
0
  6
CONTINUOUS
 62
     7
 10
-740.4136718821698
 20
616.5368254829739
 30
0.0
 11
-760.4136718821698
 21
616.5368254829739
 31
0.0
  0
LINE
  5
5AD
  8
0
  6
CONTINUOUS
 62
     7
 10
-740.4136718821698
 20
616.5368254829739
 30
0.0
 11
-740.4136718821698
 21
416.5368254829738
 31
0.0
  0
LINE
  5
5AE
  8
0
  6
CONTINUOUS
 62
     7
 10
-760.4136718821698
 20
616.5368254829739
 30
0.0
 11
-760.4136718821698
 21
416.5368254829738
 31
0.0
  0
LINE
  5
5AF
  8
0
  6
CONTINUOUS
 62
     7
 10
-760.4136718821698
 20
416.5368254829738
 30
0.0
 11
-740.4136718821698
 21
416.5368254829738
 31
0.0
  0
ENDBLK
  5
1AE
  8
0
  0
BLOCK
  8
0
  2
PD05900A60600_PANNELLO__81
 70
     0
 10
-740.4136718821698
 20
416.5368254829738
 30
0.0
  3
PD05900A60600_PANNELLO__81
  1

  0
LINE
  5
5B0
  8
0
  6
CONTINUOUS
 62
     7
 10
-180.4136718821688
 20
616.5368254829739
 30
0.0
 11
-180.4136718821688
 21
416.5368254829738
 31
0.0
  0
LINE
  5
5B1
  8
0
  6
CONTINUOUS
 62
     7
 10
-180.4136718821688
 20
616.5368254829739
 30
0.0
 11
-740.4136718821698
 21
616.5368254829739
 31
0.0
  0
LINE
  5
5B2
  8
0
  6
CONTINUOUS
 62
     7
 10
-740.4136718821698
 20
616.5368254829739
 30
0.0
 11
-740.4136718821698
 21
416.5368254829738
 31
0.0
  0
LINE
  5
5B3
  8
0
  6
CONTINUOUS
 62
     7
 10
-180.4136718821688
 20
416.5368254829738
 30
0.0
 11
-740.4136718821698
 21
416.5368254829738
 31
0.0
  0
ENDBLK
  5
1B1
  8
0
  0
BLOCK
  8
0
  2
PD05900A60500_PANNELLO__82
 70
     0
 10
-180.4136718821688
 20
416.5368254829738
 30
0.0
  3
PD05900A60500_PANNELLO__82
  1

  0
LINE
  5
5B4
  8
0
  6
CONTINUOUS
 62
     7
 10
-160.4136718821688
 20
616.5368254829739
 30
0.0
 11
-180.4136718821688
 21
616.5368254829739
 31
0.0
  0
LINE
  5
5B5
  8
0
  6
CONTINUOUS
 62
     7
 10
-180.4136718821688
 20
416.5368254829738
 30
0.0
 11
-160.4136718821688
 21
416.5368254829738
 31
0.0
  0
LINE
  5
5B6
  8
0
  6
CONTINUOUS
 62
     7
 10
-180.4136718821688
 20
616.5368254829739
 30
0.0
 11
-180.4136718821688
 21
416.5368254829738
 31
0.0
  0
LINE
  5
5B7
  8
0
  6
CONTINUOUS
 62
     7
 10
-160.4136718821688
 20
616.5368254829739
 30
0.0
 11
-160.4136718821688
 21
416.5368254829738
 31
0.0
  0
ENDBLK
  5
1B4
  8
0
  0
BLOCK
  8
0
  2
PX001025_MOBILE_LEST60__83
 70
     0
 10
-760.4136718821698
 20
416.5368254829738
 30
0.0
  3
PX001025_MOBILE_LEST60__83
  1

  0
INSERT
  5
1B6
  8
0
  2
PX__80
 10
-760.4136718821698
 20
416.5368254829738
 30
0.0
  0
INSERT
  5
1B7
  8
0
  2
PD05900A60600_PANNELLO__81
 10
-740.4136718821698
 20
416.5368254829738
 30
0.0
  0
INSERT
  5
1B8
  8
0
  2
PD05900A60500_PANNELLO__82
 10
-180.4136718821688
 20
416.5368254829738
 30
0.0
  0
ENDBLK
  5
1BA
  8
0
  0
BLOCK
  8
0
  2
TKKZ0TEC05700__84
 70
     0
 10
-775.7892086709138
 20
-24.62243815324143
 30
0.0
  3
TKKZ0TEC05700__84
  1

  0
INSERT
  5
1BC
  8
0
  2
ANTA__64
 10
-775.7892086709138
 20
-24.62243815324143
 30
0.0
  0
INSERT
  5
1BD
  8
0
  2
PCA09A093__79
 10
-757.4962304905217
 20
404.7676438596037
 30
0.0
  0
INSERT
  5
1BE
  8
0
  2
PX001025_MOBILE_LEST60__83
 10
-760.4136718821698
 20
416.5368254829738
 30
0.0
  0
ENDBLK
  5
1C0
  8
0
  0
BLOCK
  8
0
  2
IN_ALTO8
 70
     0
 10
-704.3278000000038
 20
497.3653000000001
 30
0.0
  3
IN_ALTO8
  1

  0
INSERT
  5
1C2
  8
0
  2
TKKZ0TEC05700__84
 10
-775.7892086709138
 20
-24.62243815324143
 30
0.0
  0
INSERT
  5
5B8
  8
1
 62
     3
  2
*X127
 10
0.0
 20
0.0
 30
0.0
  0
TEXT
  5
5B9
  8
1
  6
CONTINUOUS
 62
     5
 10
-477.5514402765414
 20
-33.12243815324143
 30
0.0
 40
3.5
  1
In Alto8
 41
0.9
  7
CONVERTER_11
  0
DIMENSION
  5
5C2
  8
1
  2
*D118
 10
-450.0857427885075
 20
286.3435424785199
 30
0.0
 11
-453.5502910354236
 21
287.7786053498918
 31
0.0
 70
    37
  1
<>
  3
ME10_DIM_15
 13
-523.8343134712095
 23
175.9710066064447
 33
0.0
 14
-424.1886886491619
 24
416.5368254829738
 34
0.0
 15
-764.4001323477391
 25
416.5368254829737
 35
0.0
  0
ENDBLK
  5
1C4
  8
0
  0
BLOCK
  8
0
  2
ANTA__85
 70
     0
 10
49.47768891985913
 20
-184.5080892567965
 30
0.0
  3
ANTA__85
  1

  0
LINE
  5
5C3
  8
0
  6
CONTINUOUS
 62
     7
 10
69.47768891985913
 20
-184.5080892567965
 30
0.0
 11
49.47768891985913
 21
-184.5080892567965
 31
0.0
  0
LINE
  5
5C4
  8
0
  6
CONTINUOUS
 62
     7
 10
49.47768891985913
 20
415.4919107432035
 30
0.0
 11
49.47768891985913
 21
-184.5080892567965
 31
0.0
  0
LINE
  5
5C5
  8
0
  6
CONTINUOUS
 62
     7
 10
69.47768891985913
 20
-184.5080892567965
 30
0.0
 11
69.47768891985913
 21
415.4919107432035
 31
0.0
  0
LINE
  5
5C6
  8
0
  6
CONTINUOUS
 62
     7
 10
49.47768891985913
 20
415.4919107432035
 30
0.0
 11
69.47768891985913
 21
415.4919107432035
 31
0.0
  0
ENDBLK
  5
1C7
  8
0
  0
BLOCK
  8
0
  2
PX__86
 70
     0
 10
70.80702811783055
 20
416.5368254829738
 30
0.0
  3
PX__86
  1

  0
LINE
  5
5C7
  8
0
  6
CONTINUOUS
 62
     7
 10
90.80702811783055
 20
616.5368254829739
 30
0.0
 11
70.80702811783055
 21
616.5368254829739
 31
0.0
  0
LINE
  5
5C8
  8
0
  6
CONTINUOUS
 62
     7
 10
90.80702811783055
 20
616.5368254829739
 30
0.0
 11
90.80702811783055
 21
416.5368254829738
 31
0.0
  0
LINE
  5
5C9
  8
0
  6
CONTINUOUS
 62
     7
 10
70.80702811783055
 20
616.5368254829739
 30
0.0
 11
70.80702811783055
 21
416.5368254829738
 31
0.0
  0
LINE
  5
5CA
  8
0
  6
CONTINUOUS
 62
     7
 10
70.80702811783055
 20
416.5368254829738
 30
0.0
 11
90.80702811783055
 21
416.5368254829738
 31
0.0
  0
ENDBLK
  5
1CA
  8
0
  0
BLOCK
  8
0
  2
PD05900A60600_PANNELLO__87
 70
     0
 10
90.80702811783055
 20
416.5368254829738
 30
0.0
  3
PD05900A60600_PANNELLO__87
  1

  0
LINE
  5
5CB
  8
0
  6
CONTINUOUS
 62
     7
 10
650.8070281178306
 20
616.5368254829739
 30
0.0
 11
650.8070281178306
 21
416.5368254829738
 31
0.0
  0
LINE
  5
5CC
  8
0
  6
CONTINUOUS
 62
     7
 10
650.8070281178306
 20
616.5368254829739
 30
0.0
 11
90.80702811783055
 21
616.5368254829739
 31
0.0
  0
LINE
  5
5CD
  8
0
  6
CONTINUOUS
 62
     7
 10
90.80702811783055
 20
616.5368254829739
 30
0.0
 11
90.80702811783055
 21
416.5368254829738
 31
0.0
  0
LINE
  5
5CE
  8
0
  6
CONTINUOUS
 62
     7
 10
650.8070281178306
 20
416.5368254829738
 30
0.0
 11
90.80702811783055
 21
416.5368254829738
 31
0.0
  0
ENDBLK
  5
1CD
  8
0
  0
BLOCK
  8
0
  2
PD05900A60500_PANNELLO__88
 70
     0
 10
650.8070281178306
 20
416.5368254829738
 30
0.0
  3
PD05900A60500_PANNELLO__88
  1

  0
LINE
  5
5CF
  8
0
  6
CONTINUOUS
 62
     7
 10
670.8070281178306
 20
616.5368254829739
 30
0.0
 11
650.8070281178306
 21
616.5368254829739
 31
0.0
  0
LINE
  5
5D0
  8
0
  6
CONTINUOUS
 62
     7
 10
650.8070281178306
 20
416.5368254829738
 30
0.0
 11
670.8070281178306
 21
416.5368254829738
 31
0.0
  0
LINE
  5
5D1
  8
0
  6
CONTINUOUS
 62
     7
 10
650.8070281178306
 20
616.5368254829739
 30
0.0
 11
650.8070281178306
 21
416.5368254829738
 31
0.0
  0
LINE
  5
5D2
  8
0
  6
CONTINUOUS
 62
     7
 10
670.8070281178306
 20
616.5368254829739
 30
0.0
 11
670.8070281178306
 21
416.5368254829738
 31
0.0
  0
ENDBLK
  5
1D0
  8
0
  0
BLOCK
  8
0
  2
PX001025_MOBILE_LEST60__89
 70
     0
 10
70.80702811783055
 20
416.5368254829738
 30
0.0
  3
PX001025_MOBILE_LEST60__89
  1

  0
INSERT
  5
1D2
  8
0
  2
PX__86
 10
70.80702811783055
 20
416.5368254829738
 30
0.0
  0
INSERT
  5
1D3
  8
0
  2
PD05900A60600_PANNELLO__87
 10
90.80702811783055
 20
416.5368254829738
 30
0.0
  0
INSERT
  5
1D4
  8
0
  2
PD05900A60500_PANNELLO__88
 10
650.8070281178306
 20
416.5368254829738
 30
0.0
  0
ENDBLK
  5
1D6
  8
0
  0
BLOCK
  8
0
  2
CORPO_PORTA__90
 70
     0
 10
73.80702811793924
 20
415.0368254828953
 30
0.0
  3
CORPO_PORTA__90
  1

  0
LINE
  5
5D3
  8
0
  6
CONTINUOUS
 62
     7
 10
74.30702811793924
 20
415.0368254828953
 30
0.0
 11
79.30702811793924
 21
415.0368254828953
 31
0.0
  0
LINE
  5
5D4
  8
0
  6
CONTINUOUS
 62
     1
 10
74.30702811793924
 20
415.5368254828953
 30
0.0
 11
79.30702811793924
 21
415.5368254828953
 31
0.0
  0
LINE
  5
5D5
  8
0
  6
CONTINUOUS
 62
     7
 10
73.80702811793924
 20
415.5368254828953
 30
0.0
 11
73.80702811793924
 21
416.5368254828952
 31
0.0
  0
LINE
  5
5D6
  8
0
  6
CONTINUOUS
 62
     1
 10
74.30702811793924
 20
415.5368254828953
 30
0.0
 11
74.30702811793924
 21
416.0118254828955
 31
0.0
  0
LINE
  5
5D7
  8
0
  6
CONTINUOUS
 62
     7
 10
75.80702811793924
 20
416.0118254828955
 30
0.0
 11
75.80702811793924
 21
416.0618254828954
 31
0.0
  0
LINE
  5
5D8
  8
0
  6
CONTINUOUS
 62
     7
 10
75.80702811793924
 20
416.0618254828954
 30
0.0
 11
74.30702811793924
 21
416.0618254828954
 31
0.0
  0
LINE
  5
5D9
  8
0
  6
CONTINUOUS
 62
     7
 10
74.30702811793924
 20
416.0618254828954
 30
0.0
 11
74.08908317076236
 21
416.0618254828954
 31
0.0
  0
LINE
  5
5DA
  8
0
  6
CONTINUOUS
 62
     7
 10
74.80702811793924
 20
416.5118254828955
 30
0.0
 11
74.80702811793924
 21
416.5368254828954
 31
0.0
  0
LINE
  5
5DB
  8
0
  6
CONTINUOUS
 62
     7
 10
74.30702811793924
 20
416.5118254828955
 30
0.0
 11
74.08908317076236
 21
416.5118254828955
 31
0.0
  0
LINE
  5
5DC
  8
0
  6
CONTINUOUS
 62
     1
 10
74.30702811793924
 20
416.0618254828954
 30
0.0
 11
74.30702811793924
 21
416.5118254828955
 31
0.0
  0
LINE
  5
5DD
  8
0
  6
CONTINUOUS
 62
     7
 10
74.30702811793924
 20
416.5118254828955
 30
0.0
 11
74.80702811793924
 21
416.5118254828955
 31
0.0
  0
LINE
  5
5DE
  8
0
  6
CONTINUOUS
 62
     7
 10
74.08908317076236
 20
416.0118254828955
 30
0.0
 11
74.08908317076236
 21
416.0618254828954
 31
0.0
  0
LINE
  5
5DF
  8
0
  6
CONTINUOUS
 62
     7
 10
74.08908317076236
 20
416.5118254828955
 30
0.0
 11
74.08908317076236
 21
416.5368254828954
 31
0.0
  0
LINE
  5
5E0
  8
0
  6
CONTINUOUS
 62
     7
 10
74.30702811793924
 20
416.0118254828955
 30
0.0
 11
74.08908317076236
 21
416.0118254828955
 31
0.0
  0
LINE
  5
5E1
  8
0
  6
CONTINUOUS
 62
     7
 10
74.30702811793924
 20
416.0118254828955
 30
0.0
 11
75.80702811793924
 21
416.0118254828955
 31
0.0
  0
LINE
  5
5E2
  8
0
  6
CONTINUOUS
 62
     1
 10
74.30702811793924
 20
415.0368254828953
 30
0.0
 11
74.30702811793924
 21
415.5368254828953
 31
0.0
  0
LINE
  5
5E3
  8
0
  6
CONTINUOUS
 62
     1
 10
74.30702811793924
 20
415.5368254828953
 30
0.0
 11
73.80702811793924
 21
415.5368254828953
 31
0.0
  0
LINE
  5
5E4
  8
0
  6
CONTINUOUS
 62
     7
 10
75.09692802145935
 20
416.5368240488257
 30
0.0
 11
75.32867194213429
 21
416.3819778564454
 31
0.0
  0
LINE
  5
5E5
  8
0
  6
CONTINUOUS
 62
     7
 10
76.28538275756443
 20
416.3819778564454
 30
0.0
 11
76.51712666615356
 21
416.5368240407503
 31
0.0
  0
LINE
  5
5E6
  8
0
  6
CONTINUOUS
 62
     7
 10
79.30702811793924
 20
416.5368254828953
 30
0.0
 11
79.30702811793924
 21
415.5368254828953
 31
0.0
  0
LINE
  5
5E7
  8
0
  6
CONTINUOUS
 62
     7
 10
79.30702811793924
 20
415.0368254828953
 30
0.0
 11
79.30702811793924
 21
415.5368254828953
 31
0.0
  0
LINE
  5
5E8
  8
0
  6
CONTINUOUS
 62
     7
 10
82.30702811793924
 20
415.5368254828953
 30
0.0
 11
82.30702811793924
 21
416.5368254828953
 31
0.0
  0
LINE
  5
5E9
  8
0
  6
CONTINUOUS
 62
     7
 10
82.30702811793924
 20
415.0368254828953
 30
0.0
 11
82.30702811793924
 21
415.5368254828953
 31
0.0
  0
LINE
  5
5EA
  8
0
  6
CONTINUOUS
 62
     7
 10
79.30702811793924
 20
415.0368254828953
 30
0.0
 11
82.30702811793924
 21
415.0368254828953
 31
0.0
  0
LINE
  5
5EB
  8
0
  6
CONTINUOUS
 62
     7
 10
86.40702811793915
 20
415.5368254828953
 30
0.0
 11
86.40702811793915
 21
416.5368254828952
 31
0.0
  0
LINE
  5
5EC
  8
0
  6
CONTINUOUS
 62
     1
 10
82.30702811793924
 20
415.5368254828953
 30
0.0
 11
85.90702811793915
 21
415.5368254828953
 31
0.0
  0
LINE
  5
5ED
  8
0
  6
CONTINUOUS
 62
     7
 10
82.30702811793924
 20
415.0368254828953
 30
0.0
 11
85.90702811793915
 21
415.0368254828953
 31
0.0
  0
LINE
  5
5EE
  8
0
  6
CONTINUOUS
 62
     7
 10
86.12497306511648
 20
416.0118254828955
 30
0.0
 11
86.12497306511648
 21
416.0618254828955
 31
0.0
  0
LINE
  5
5EF
  8
0
  6
CONTINUOUS
 62
     7
 10
84.40702811793915
 20
416.0618254828955
 30
0.0
 11
84.40702811793915
 21
416.0118254828955
 31
0.0
  0
LINE
  5
5F0
  8
0
  6
CONTINUOUS
 62
     7
 10
85.90702811793915
 20
416.0618254828955
 30
0.0
 11
84.40702811793915
 21
416.0618254828955
 31
0.0
  0
LINE
  5
5F1
  8
0
  6
CONTINUOUS
 62
     7
 10
86.12497306511648
 20
416.5118254828955
 30
0.0
 11
86.12497306511648
 21
416.5368254828955
 31
0.0
  0
LINE
  5
5F2
  8
0
  6
CONTINUOUS
 62
     1
 10
85.90702811793915
 20
415.5368254828953
 30
0.0
 11
85.90702811793915
 21
416.0118254828955
 31
0.0
  0
LINE
  5
5F3
  8
0
  6
CONTINUOUS
 62
     7
 10
85.90702811793915
 20
416.0618254828955
 30
0.0
 11
86.12497306511648
 21
416.0618254828955
 31
0.0
  0
LINE
  5
5F4
  8
0
  6
CONTINUOUS
 62
     7
 10
85.40702811793915
 20
416.5368254828955
 30
0.0
 11
85.40702811793915
 21
416.5118254828955
 31
0.0
  0
LINE
  5
5F5
  8
0
  6
CONTINUOUS
 62
     7
 10
85.40702811793915
 20
416.5118254828955
 30
0.0
 11
85.90702811793915
 21
416.5118254828955
 31
0.0
  0
LINE
  5
5F6
  8
0
  6
CONTINUOUS
 62
     1
 10
85.90702811793915
 20
415.0368254828953
 30
0.0
 11
85.90702811793915
 21
415.5368254828953
 31
0.0
  0
LINE
  5
5F7
  8
0
  6
CONTINUOUS
 62
     7
 10
85.90702811793915
 20
416.0118254828955
 30
0.0
 11
86.12497306511648
 21
416.0118254828955
 31
0.0
  0
LINE
  5
5F8
  8
0
  6
CONTINUOUS
 62
     7
 10
84.40702811793915
 20
416.0118254828955
 30
0.0
 11
85.90702811793915
 21
416.0118254828955
 31
0.0
  0
LINE
  5
5F9
  8
0
  6
CONTINUOUS
 62
     1
 10
85.90702811793915
 20
416.0618254828955
 30
0.0
 11
85.90702811793915
 21
416.5118254828955
 31
0.0
  0
LINE
  5
5FA
  8
0
  6
CONTINUOUS
 62
     1
 10
85.90702811793915
 20
415.5368254828953
 30
0.0
 11
86.40702811793915
 21
415.5368254828953
 31
0.0
  0
LINE
  5
5FB
  8
0
  6
CONTINUOUS
 62
     7
 10
85.90702811793915
 20
416.5118254828955
 30
0.0
 11
86.12497306511648
 21
416.5118254828955
 31
0.0
  0
LINE
  5
5FC
  8
0
  6
CONTINUOUS
 62
     7
 10
86.36896658935154
 20
415.3454864624024
 30
0.0
 11
86.40702811793915
 21
415.5368254828953
 31
0.0
  0
LINE
  5
5FD
  8
0
  6
CONTINUOUS
 62
     7
 10
86.37013214592241
 20
415.3513455501058
 30
0.0
 11
86.38255454101125
 21
415.3823135498047
 31
0.0
  0
LINE
  5
5FE
  8
0
  6
CONTINUOUS
 62
     7
 10
86.40702811793915
 20
415.5368254828953
 30
0.0
 11
86.40501547851125
 21
415.4920089843751
 31
0.0
  0
LINE
  5
5FF
  8
0
  6
CONTINUOUS
 62
     7
 10
86.38900900878423
 20
415.4038055541993
 30
0.0
 11
86.4025015930132
 21
415.4697082641602
 31
0.0
  0
LINE
  5
600
  8
0
  6
CONTINUOUS
 62
     7
 10
86.27268841284047
 20
415.1974476898482
 30
0.0
 11
86.29794455565923
 21
415.2250793579102
 31
0.0
  0
LINE
  5
601
  8
0
  6
CONTINUOUS
 62
     7
 10
86.40501547851125
 20
415.4920089843751
 30
0.0
 11
86.4025015930132
 21
415.4697082641602
 31
0.0
  0
LINE
  5
602
  8
0
  6
CONTINUOUS
 62
     7
 10
86.38255454101125
 20
415.3823135498047
 30
0.0
 11
86.38900900878423
 21
415.4038055541993
 31
0.0
  0
LINE
  5
603
  8
0
  6
CONTINUOUS
 62
     7
 10
86.2359976867632
 20
415.1602905395508
 30
0.0
 11
86.25256110229054
 21
415.1754272583008
 31
0.0
  0
LINE
  5
604
  8
0
  6
CONTINUOUS
 62
     7
 10
86.29794455565923
 20
415.2250793579102
 30
0.0
 11
86.31153632201756
 21
415.2429321411133
 31
0.0
  0
LINE
  5
605
  8
0
  6
CONTINUOUS
 62
     7
 10
86.35751105346242
 20
415.3198822143555
 30
0.0
 11
86.3473258117632
 21
415.2998932006836
 31
0.0
  0
LINE
  5
606
  8
0
  6
CONTINUOUS
 62
     7
 10
86.31153632201756
 20
415.2429321411133
 30
0.0
 11
86.3473258117632
 21
415.2998932006836
 31
0.0
  0
LINE
  5
607
  8
0
  6
CONTINUOUS
 62
     7
 10
85.92946387328618
 20
415.0373275878907
 30
0.0
 11
85.99630499877537
 21
415.044857800293
 31
0.0
  0
LINE
  5
608
  8
0
  6
CONTINUOUS
 62
     7
 10
86.18247748412648
 20
415.1195419433594
 30
0.0
 11
86.1634764770464
 21
415.107601940918
 31
0.0
  0
LINE
  5
609
  8
0
  6
CONTINUOUS
 62
     7
 10
85.99630499877537
 20
415.044857800293
 30
0.0
 11
86.01828909911626
 21
415.0493591430665
 31
0.0
  0
LINE
  5
60A
  8
0
  6
CONTINUOUS
 62
     7
 10
86.08271552123631
 20
415.0687072875977
 30
0.0
 11
86.09714831667122
 21
415.0744973264333
 31
0.0
  0
LINE
  5
60B
  8
0
  6
CONTINUOUS
 62
     7
 10
73.96857645820035
 20
415.1697741436179
 30
0.0
 11
73.97805930175343
 21
415.1602905395508
 31
0.0
  0
LINE
  5
60C
  8
0
  6
CONTINUOUS
 62
     7
 10
73.87780524291554
 20
415.2803772094727
 30
0.0
 11
73.9161124328574
 21
415.2250793579102
 31
0.0
  0
LINE
  5
60D
  8
0
  6
CONTINUOUS
 62
     7
 10
73.85480067129026
 20
415.3261556900167
 30
0.0
 11
73.86673117675343
 21
415.2998932006836
 31
0.0
  0
LINE
  5
60E
  8
0
  6
CONTINUOUS
 62
     7
 10
73.99528647460545
 20
415.1459091308594
 30
0.0
 11
74.05057669677342
 21
415.107601940918
 31
0.0
  0
LINE
  5
60F
  8
0
  6
CONTINUOUS
 62
     7
 10
74.07009268798436
 20
415.0965240600586
 30
0.0
 11
74.05057669677342
 21
415.107601940918
 31
0.0
  0
LINE
  5
610
  8
0
  6
CONTINUOUS
 62
     7
 10
73.86673117675343
 20
415.2998932006836
 30
0.0
 11
73.87780524291554
 21
415.2803772094727
 31
0.0
  0
LINE
  5
611
  8
0
  6
CONTINUOUS
 62
     7
 10
73.93049384154835
 20
415.2078598144532
 30
0.0
 11
73.9161124328574
 21
415.2250793579102
 31
0.0
  0
LINE
  5
612
  8
0
  6
CONTINUOUS
 62
     7
 10
73.97805930175343
 20
415.1602905395508
 30
0.0
 11
73.99528647460545
 21
415.1459091308594
 31
0.0
  0
LINE
  5
613
  8
0
  6
CONTINUOUS
 62
     7
 10
73.81506491698826
 20
415.4475448730469
 30
0.0
 11
73.83149863280812
 21
415.3823135498047
 31
0.0
  0
LINE
  5
614
  8
0
  6
CONTINUOUS
 62
     7
 10
74.12659757889548
 20
415.0708619082212
 30
0.0
 11
74.13134146728032
 21
415.0687072875977
 31
0.0
  0
LINE
  5
615
  8
0
  6
CONTINUOUS
 62
     7
 10
74.15252448119634
 20
415.0612991455079
 30
0.0
 11
74.21774817504445
 21
415.044857800293
 31
0.0
  0
LINE
  5
616
  8
0
  6
CONTINUOUS
 62
     7
 10
73.83891058959523
 20
415.361134350586
 30
0.0
 11
73.83149863280812
 21
415.3823135498047
 31
0.0
  0
LINE
  5
617
  8
0
  6
CONTINUOUS
 62
     7
 10
74.21774817504445
 20
415.044857800293
 30
0.0
 11
74.23991156615728
 21
415.0413482788086
 31
0.0
  0
LINE
  5
618
  8
0
  6
CONTINUOUS
 62
     7
 10
74.13134146728032
 20
415.0687072875977
 30
0.0
 11
74.15252448119634
 21
415.0612991455079
 31
0.0
  0
LINE
  5
619
  8
0
  6
CONTINUOUS
 62
     7
 10
73.80883595899638
 20
415.5167344946025
 30
0.0
 11
73.81155158080617
 21
415.4697082641602
 31
0.0
  0
LINE
  5
61A
  8
0
  6
CONTINUOUS
 62
     7
 10
73.81155158080617
 20
415.4697082641602
 30
0.0
 11
73.81506491698826
 21
415.4475448730469
 31
0.0
  0
ARC
  5
61B
  8
0
  6
CONTINUOUS
 62
     7
 10
74.30702811793924
 20
415.5368254828953
 30
0.0
 40
0.5
 50
180.0
 51
270.0
  0
ARC
  5
61C
  8
0
  6
CONTINUOUS
 62
     7
 10
75.80702734984914
 20
417.5368254828952
 30
0.0
 40
1.249998774562102
 50
247.4999213027785
 51
292.5000786972408
  0
ARC
  5
61D
  8
0
  6
CONTINUOUS
 62
     7
 10
85.90702815302518
 20
415.5368262641876
 30
0.0
 40
0.4999999649145539
 50
354.8574157087404
 51
359.9999104704943
  0
ARC
  5
61E
  8
0
  6
CONTINUOUS
 62
     7
 10
85.90702645082627
 20
415.536824368957
 30
0.0
 40
0.4999988860644688
 50
270.00019103749
 51
337.5004196465326
  0
ENDBLK
  5
1D9
  8
0
  0
BLOCK
  8
0
  2
PD00700A08300_CORPO_CE__91
 70
     0
 10
73.80702811793924
 20
415.0368254828953
 30
0.0
  3
PD00700A08300_CORPO_CE__91
  1

  0
INSERT
  5
1DB
  8
0
  2
CORPO_PORTA__90
 10
73.80702811793924
 20
415.0368254828953
 30
0.0
  0
ENDBLK
  5
1DD
  8
0
  0
BLOCK
  8
0
  2
PX000__92
 70
     0
 10
69.47768963828037
 20
406.1590418752161
 30
0.0
  3
PX000__92
  1

  0
LINE
  5
61F
  8
0
  6
CONTINUOUS
 62
     7
 10
74.64987708129445
 20
411.0882080200196
 30
0.0
 11
74.68849698925249
 21
411.0960090520438
 31
0.0
  0
LINE
  5
620
  8
0
  6
CONTINUOUS
 62
     7
 10
74.7450586362055
 20
411.1074342273629
 30
0.0
 11
74.76345206298436
 21
411.1111496093751
 31
0.0
  0
LINE
  5
621
  8
0
  6
CONTINUOUS
 62
     7
 10
74.53763724364842
 20
411.0594452026368
 30
0.0
 11
74.57551948738626
 21
411.069152986268
 31
0.0
  0
LINE
  5
622
  8
0
  6
CONTINUOUS
 62
     7
 10
74.6318173104504
 20
411.0835799850753
 30
0.0
 11
74.64987708129445
 21
411.0882080200196
 31
0.0
  0
LINE
  5
623
  8
0
  6
CONTINUOUS
 62
     7
 10
74.10787726440037
 20
410.8880127075196
 30
0.0
 11
74.14329581693835
 21
410.9054211879078
 31
0.0
  0
LINE
  5
624
  8
0
  6
CONTINUOUS
 62
     7
 10
74.19502559086038
 20
410.9308467541797
 30
0.0
 11
74.21186209716313
 21
410.9391220214844
 31
0.0
  0
LINE
  5
625
  8
0
  6
CONTINUOUS
 62
     7
 10
74.76345206298436
 20
411.1111496093751
 30
0.0
 11
74.80252574495432
 21
411.1169660498841
 31
0.0
  0
LINE
  5
626
  8
0
  6
CONTINUOUS
 62
     7
 10
74.31833792724126
 20
410.9848068359376
 30
0.0
 11
74.35512490172539
 21
410.9983947244488
 31
0.0
  0
LINE
  5
627
  8
0
  6
CONTINUOUS
 62
     7
 10
74.40956808082126
 20
411.0185042294612
 30
0.0
 11
74.42702628173436
 21
411.024952709961
 31
0.0
  0
LINE
  5
628
  8
0
  6
CONTINUOUS
 62
     7
 10
74.42702628173436
 20
411.024952709961
 30
0.0
 11
74.46446444898527
 21
411.0366272826014
 31
0.0
  0
LINE
  5
629
  8
0
  6
CONTINUOUS
 62
     7
 10
74.51989187931429
 20
411.0539115571579
 30
0.0
 11
74.53763724364842
 21
411.0594452026368
 31
0.0
  0
LINE
  5
62A
  8
0
  6
CONTINUOUS
 62
     7
 10
74.21186209716313
 20
410.9391220214844
 30
0.0
 11
74.2481228192895
 21
410.9546801473149
 31
0.0
  0
LINE
  5
62B
  8
0
  6
CONTINUOUS
 62
     7
 10
74.30115497911527
 20
410.9774342726402
 30
0.0
 11
74.31833792724126
 21
410.9848068359376
 31
0.0
  0
LINE
  5
62C
  8
0
  6
CONTINUOUS
 62
     7
 10
74.06887607886017
 20
410.8670894885441
 30
0.0
 11
74.07359140084816
 21
410.8696191479153
 31
0.0
  0
LINE
  5
62D
  8
0
  6
CONTINUOUS
 62
     7
 10
74.07740237807127
 20
410.871663647585
 30
0.0
 11
74.10787726440037
 21
410.8880127075196
 31
0.0
  0
LINE
  5
62E
  8
0
  6
CONTINUOUS
 62
     7
 10
70.10980114628217
 20
409.2042197633642
 30
0.0
 11
69.47768963828037
 21
410.1168812678593
 31
0.0
  0
LINE
  5
62F
  8
0
  6
CONTINUOUS
 62
     7
 10
74.06887607886017
 20
410.8670894885441
 30
0.0
 11
70.76153525270217
 21
409.0506532028225
 31
0.0
  0
LINE
  5
630
  8
0
  6
CONTINUOUS
 62
     7
 10
74.41976508173855
 20
409.0560666939594
 30
0.0
 11
74.41562062483024
 21
409.0370122066703
 31
0.0
  0
LINE
  5
631
  8
0
  6
CONTINUOUS
 62
     7
 10
74.62065541804748
 20
409.4239111798914
 30
0.0
 11
74.60574484862843
 21
409.4088562133789
 31
0.0
  0
LINE
  5
632
  8
0
  6
CONTINUOUS
 62
     7
 10
74.70843369444844
 20
409.4994129535549
 30
0.0
 11
74.69694977468714
 21
409.4909385058314
 31
0.0
  0
LINE
  5
633
  8
0
  6
CONTINUOUS
 62
     7
 10
74.69585237353829
 20
409.4901286892469
 30
0.0
 11
74.69262797026829
 21
409.4877492719821
 31
0.0
  0
LINE
  5
634
  8
0
  6
CONTINUOUS
 62
     7
 10
74.80646733174524
 20
409.560330978301
 30
0.0
 11
74.78934493721533
 21
409.5513910851792
 31
0.0
  0
LINE
  5
635
  8
0
  6
CONTINUOUS
 62
     7
 10
74.50260421996416
 20
409.2696586852061
 30
0.0
 11
74.49367688859718
 21
409.254179702191
 31
0.0
  0
LINE
  5
636
  8
0
  6
CONTINUOUS
 62
     7
 10
74.46801446045527
 20
409.2020179395432
 30
0.0
 11
74.4601751051672
 21
409.1844714503701
 31
0.0
  0
LINE
  5
637
  8
0
  6
CONTINUOUS
 62
     7
 10
74.67795774520334
 20
409.4758188585844
 30
0.0
 11
74.6627453627633
 21
409.4633372027739
 31
0.0
  0
LINE
  5
638
  8
0
  6
CONTINUOUS
 62
     7
 10
74.5688969931465
 20
409.3662439133194
 30
0.0
 11
74.55683364378535
 21
409.3512578432088
 31
0.0
  0
LINE
  5
639
  8
0
  6
CONTINUOUS
 62
     7
 10
74.64832973385126
 20
409.4503255440746
 30
0.0
 11
74.6341677350332
 21
409.4374310498266
 31
0.0
  0
LINE
  5
63A
  8
0
  6
CONTINUOUS
 62
     7
 10
74.60574484862843
 20
409.4088562133789
 30
0.0
 11
74.58112897380022
 21
409.3813024913698
 31
0.0
  0
LINE
  5
63B
  8
0
  6
CONTINUOUS
 62
     7
 10
74.74055018645447
 20
409.5217161327731
 30
0.0
 11
74.72378033821622
 21
409.5106328634311
 31
0.0
  0
LINE
  5
63C
  8
0
  6
CONTINUOUS
 62
     7
 10
74.40229285873818
 20
408.9030568082456
 30
0.0
 11
74.40212012328618
 21
408.8817260864258
 31
0.0
  0
LINE
  5
63D
  8
0
  6
CONTINUOUS
 62
     7
 10
74.45747969629917
 20
409.1777020218944
 30
0.0
 11
74.44624070145426
 21
409.1486001728536
 31
0.0
  0
LINE
  5
63E
  8
0
  6
CONTINUOUS
 62
     7
 10
74.52363410767236
 20
409.3039530481156
 30
0.0
 11
74.51305144195555
 21
409.287606935343
 31
0.0
  0
LINE
  5
63F
  8
0
  6
CONTINUOUS
 62
     7
 10
74.41239187435838
 20
409.0178584072499
 30
0.0
 11
74.40928653828348
 21
408.9989308249529
 31
0.0
  0
LINE
  5
640
  8
0
  6
CONTINUOUS
 62
     7
 10
74.40702459443116
 20
408.9794358537859
 30
0.0
 11
74.40492008417448
 21
408.9605795918015
 31
0.0
  0
LINE
  5
641
  8
0
  6
CONTINUOUS
 62
     7
 10
74.48498234419628
 20
409.2373152841277
 30
0.0
 11
74.4760804556862
 21
409.2198637122634
 31
0.0
  0
LINE
  5
642
  8
0
  6
CONTINUOUS
 62
     7
 10
74.53763724364842
 20
411.0594452026368
 30
0.0
 11
74.57551948738626
 21
411.069152986268
 31
0.0
  0
LINE
  5
643
  8
0
  6
CONTINUOUS
 62
     7
 10
74.6318173104504
 20
411.0835799850753
 30
0.0
 11
74.64987708129445
 21
411.0882080200196
 31
0.0
  0
LINE
  5
644
  8
0
  6
CONTINUOUS
 62
     7
 10
79.71360407182226
 20
410.3465754116552
 30
0.0
 11
81.90613289673126
 21
415.0368224353168
 31
0.0
  0
LINE
  5
645
  8
0
  6
CONTINUOUS
 62
     7
 10
75.43607092895024
 20
406.1596572998047
 30
0.0
 11
75.42816757036314
 21
406.1590418752161
 31
0.0
  0
LINE
  5
646
  8
0
  6
CONTINUOUS
 62
     7
 10
76.25446082152928
 20
406.3756073120117
 30
0.0
 11
76.2471291188375
 21
406.3726214909108
 31
0.0
  0
LINE
  5
647
  8
0
  6
CONTINUOUS
 62
     7
 10
76.18150471677643
 20
406.3458960858253
 30
0.0
 11
76.12330390014256
 21
406.3221939208985
 31
0.0
  0
LINE
  5
648
  8
0
  6
CONTINUOUS
 62
     7
 10
75.57650519408742
 20
406.177914440918
 30
0.0
 11
75.56873783979233
 21
406.1769046468815
 31
0.0
  0
LINE
  5
649
  8
0
  6
CONTINUOUS
 62
     7
 10
75.49799891373857
 20
406.1677082406205
 30
0.0
 11
75.43607092895024
 21
406.1596572998047
 31
0.0
  0
LINE
  5
64A
  8
0
  6
CONTINUOUS
 62
     7
 10
75.85362387694829
 20
406.2359588745117
 30
0.0
 11
75.84588806773843
 21
406.2341293632349
 31
0.0
  0
LINE
  5
64B
  8
0
  6
CONTINUOUS
 62
     7
 10
75.77684926914833
 20
406.2178017552093
 30
0.0
 11
75.71581030883351
 21
406.2033661010742
 31
0.0
  0
LINE
  5
64C
  8
0
  6
CONTINUOUS
 62
     7
 10
76.50765753783742
 20
406.5023162963867
 30
0.0
 11
76.50069396277047
 21
406.4986039768724
 31
0.0
  0
LINE
  5
64D
  8
0
  6
CONTINUOUS
 62
     7
 10
76.43841848865247
 20
406.4654045849498
 30
0.0
 11
76.38269187011326
 21
406.4356964233399
 31
0.0
  0
LINE
  5
64E
  8
0
  6
CONTINUOUS
 62
     7
 10
75.71581030883351
 20
406.2033661010742
 30
0.0
 11
75.70805605706516
 21
406.2019493650044
 31
0.0
  0
LINE
  5
64F
  8
0
  6
CONTINUOUS
 62
     7
 10
75.6376569441785
 20
406.1890871359343
 30
0.0
 11
75.57650519408742
 21
406.177914440918
 31
0.0
  0
LINE
  5
650
  8
0
  6
CONTINUOUS
 62
     7
 10
75.98957587279835
 20
406.2756012084961
 30
0.0
 11
75.98195903329713
 21
406.2733802091388
 31
0.0
  0
LINE
  5
651
  8
0
  6
CONTINUOUS
 62
     7
 10
75.91396170274345
 20
406.253552821751
 30
0.0
 11
75.85362387694829
 21
406.2359588745117
 31
0.0
  0
LINE
  5
652
  8
0
  6
CONTINUOUS
 62
     7
 10
76.62902976073826
 20
406.5752761962891
 30
0.0
 11
76.62226978771048
 21
406.5712126062545
 31
0.0
  0
LINE
  5
653
  8
0
  6
CONTINUOUS
 62
     7
 10
76.56115430593616
 20
406.5344745509884
 30
0.0
 11
76.50765753783742
 21
406.5023162963867
 31
0.0
  0
LINE
  5
654
  8
0
  6
CONTINUOUS
 62
     7
 10
76.12330390014256
 20
406.3221939208985
 30
0.0
 11
76.11577725457835
 21
406.319571532465
 31
0.0
  0
LINE
  5
655
  8
0
  6
CONTINUOUS
 62
     7
 10
76.04911345922335
 20
406.2963449351219
 30
0.0
 11
75.98957587279835
 21
406.2756012084961
 31
0.0
  0
LINE
  5
656
  8
0
  6
CONTINUOUS
 62
     7
 10
76.38269187011326
 20
406.4356964233399
 30
0.0
 11
76.37539815816524
 21
406.4322785875346
 31
0.0
  0
LINE
  5
657
  8
0
  6
CONTINUOUS
 62
     7
 10
76.31174456294718
 20
406.4024504919858
 30
0.0
 11
76.25446082152928
 21
406.3756073120117
 31
0.0
  0
LINE
  5
658
  8
0
  6
CONTINUOUS
 62
     7
 10
76.7464842895464
 20
406.6543853881836
 30
0.0
 11
76.73986263070526
 21
406.6499254998738
 31
0.0
  0
LINE
  5
659
  8
0
  6
CONTINUOUS
 62
     7
 10
76.6811783750585
 20
406.6103998716309
 30
0.0
 11
76.62902976073826
 21
406.5752761962891
 31
0.0
  0
LINE
  5
65A
  8
0
  6
CONTINUOUS
 62
     7
 10
76.85793318898857
 20
406.7380300929137
 30
0.0
 11
76.8535601676275
 21
406.7347480499112
 31
0.0
  0
LINE
  5
65B
  8
0
  6
CONTINUOUS
 62
     7
 10
76.80071479055539
 20
406.6950865011326
 30
0.0
 11
76.7464842895464
 21
406.6543853881836
 31
0.0
  0
LINE
  5
65C
  8
0
  6
CONTINUOUS
 62
     7
 10
75.43607092895024
 20
406.1596572998047
 30
0.0
 11
75.42816757036314
 21
406.1590418752161
 31
0.0
  0
LINE
  5
65D
  8
0
  6
CONTINUOUS
 62
     7
 10
74.42772037447128
 20
408.7009708811398
 30
0.0
 11
74.42981364099148
 21
408.692751941128
 31
0.0
  0
LINE
  5
65E
  8
0
  6
CONTINUOUS
 62
     7
 10
75.89402394780325
 20
409.0023496364252
 30
0.0
 11
75.89116258191132
 21
409.0217666017221
 31
0.0
  0
LINE
  5
65F
  8
0
  6
CONTINUOUS
 62
     7
 10
74.41649074229133
 20
408.7495055031272
 30
0.0
 11
74.42035453737333
 21
408.7302357120376
 31
0.0
  0
LINE
  5
660
  8
0
  6
CONTINUOUS
 62
     7
 10
74.43540711633148
 20
408.6744460217047
 30
0.0
 11
74.44116585556628
 21
408.6558875247307
 31
0.0
  0
LINE
  5
661
  8
0
  6
CONTINUOUS
 62
     7
 10
75.73497149211141
 20
408.423487182498
 30
0.0
 11
75.74716753535347
 21
408.4386419381832
 31
0.0
  0
LINE
  5
662
  8
0
  6
CONTINUOUS
 62
     7
 10
75.49788797239933
 20
408.2297462443226
 30
0.0
 11
75.5146226196033
 21
408.238483687977
 31
0.0
  0
LINE
  5
663
  8
0
  6
CONTINUOUS
 62
     7
 10
75.59607032123756
 20
408.2908518777914
 30
0.0
 11
75.60705394027843
 21
408.2989571334288
 31
0.0
  0
LINE
  5
664
  8
0
  6
CONTINUOUS
 62
     7
 10
75.60815138403439
 20
408.2997669814536
 30
0.0
 11
75.61137576507542
 21
408.3021463823148
 31
0.0
  0
LINE
  5
665
  8
0
  6
CONTINUOUS
 62
     7
 10
75.53151214182833
 20
408.2483412204523
 30
0.0
 11
75.54793062451051
 21
408.258020633196
 31
0.0
  0
LINE
  5
666
  8
0
  6
CONTINUOUS
 62
     7
 10
75.62604599014037
 20
408.3140767957126
 30
0.0
 11
75.64125837258041
 21
408.326558451523
 31
0.0
  0
LINE
  5
667
  8
0
  6
CONTINUOUS
 62
     7
 10
75.56473637284432
 20
408.26902602706
 30
0.0
 11
75.58011739034316
 21
408.2791926155365
 31
0.0
  0
LINE
  5
668
  8
0
  6
CONTINUOUS
 62
     7
 10
75.90033006804731
 20
408.8487512508319
 30
0.0
 11
75.90147341737736
 21
408.8679170468928
 31
0.0
  0
LINE
  5
669
  8
0
  6
CONTINUOUS
 62
     7
 10
75.81902653131544
 20
408.552593882872
 30
0.0
 11
75.82795230913541
 21
408.570096168945
 31
0.0
  0
LINE
  5
66A
  8
0
  6
CONTINUOUS
 62
     7
 10
75.8638620905325
 20
408.6596098103729
 30
0.0
 11
75.86985887416256
 21
408.6778774033161
 31
0.0
  0
LINE
  5
66B
  8
0
  6
CONTINUOUS
 62
     7
 10
75.83569340831025
 20
408.5872231188106
 30
0.0
 11
75.84385881040942
 21
408.6054993844296
 31
0.0
  0
LINE
  5
66C
  8
0
  6
CONTINUOUS
 62
     7
 10
75.75861959343217
 20
408.4543321595093
 30
0.0
 11
75.76986290276852
 21
408.4698791188544
 31
0.0
  0
LINE
  5
66D
  8
0
  6
CONTINUOUS
 62
     7
 10
75.78060617534027
 20
408.4863120595763
 30
0.0
 11
75.79090980387025
 21
408.5022234234217
 31
0.0
  0
LINE
  5
66E
  8
0
  6
CONTINUOUS
 62
     7
 10
75.84640360468336
 20
408.6118883295336
 30
0.0
 11
75.85776380113828
 21
408.6412977854876
 31
0.0
  0
LINE
  5
66F
  8
0
  6
CONTINUOUS
 62
     7
 10
75.80140884923355
 20
408.5202531529397
 30
0.0
 11
75.81029133186428
 21
408.5356543733188
 31
0.0
  0
LINE
  5
670
  8
0
  6
CONTINUOUS
 62
     7
 10
75.87511635614453
 20
408.6968712979893
 30
0.0
 11
75.88009081590451
 21
408.7151590371437
 31
0.0
  0
LINE
  5
671
  8
0
  6
CONTINUOUS
 62
     7
 10
75.89858075666132
 20
408.9638876049417
 30
0.0
 11
75.89670041976649
 21
408.9836311423374
 31
0.0
  0
LINE
  5
672
  8
0
  6
CONTINUOUS
 62
     7
 10
75.88431928351417
 20
408.7341996630904
 30
0.0
 11
75.88845097853152
 21
408.7531954765205
 31
0.0
  0
LINE
  5
673
  8
0
  6
CONTINUOUS
 62
     7
 10
75.86873280276939
 20
409.1150141306551
 30
0.0
 11
75.86283195623844
 21
409.1340345259747
 31
0.0
  0
LINE
  5
674
  8
0
  6
CONTINUOUS
 62
     7
 10
75.88745759241044
 20
409.0406740364263
 30
0.0
 11
75.88364220154915
 21
409.059695417484
 31
0.0
  0
LINE
  5
675
  8
0
  6
CONTINUOUS
 62
     7
 10
75.89697914091118
 20
408.810459800511
 30
0.0
 11
75.89908360316429
 21
408.8293156323826
 31
0.0
  0
LINE
  5
676
  8
0
  6
CONTINUOUS
 62
     7
 10
75.9017158878363
 20
408.8872459534492
 30
0.0
 11
75.90188742675343
 21
408.9081695678711
 31
0.0
  0
LINE
  5
677
  8
0
  6
CONTINUOUS
 62
     7
 10
75.88939428026322
 20
408.7585206934106
 30
0.0
 11
75.89471719705932
 21
408.790964829344
 31
0.0
  0
LINE
  5
678
  8
0
  6
CONTINUOUS
 62
     7
 10
75.87628333359714
 20
409.0889248802447
 30
0.0
 11
75.8741780887093
 21
409.0971908517673
 31
0.0
  0
LINE
  5
679
  8
0
  6
CONTINUOUS
 62
     7
 10
75.84201580556316
 20
409.1882286614994
 30
0.0
 11
75.83434261546552
 21
409.2061822678871
 31
0.0
  0
LINE
  5
67A
  8
0
  6
CONTINUOUS
 62
     7
 10
75.85622986754231
 20
409.1522328116456
 30
0.0
 11
75.84959714314516
 21
409.1702706328316
 31
0.0
  0
LINE
  5
67B
  8
0
  6
CONTINUOUS
 62
     7
 10
74.77335216509834
 20
409.5420595294546
 30
0.0
 11
74.75595836866512
 21
409.5318051266505
 31
0.0
  0
LINE
  5
67C
  8
0
  6
CONTINUOUS
 62
     7
 10
74.54538414191018
 20
409.3355711241821
 30
0.0
 11
74.53414083257428
 21
409.320024164837
 31
0.0
  0
ARC
  5
67D
  8
0
  6
CONTINUOUS
 62
     7
 10
70.52084055059629
 20
409.4889066230917
 30
0.0
 40
0.5000000000003912
 50
214.7065648456301
 51
298.7761855705435
  0
ARC
  5
67E
  8
0
  6
CONTINUOUS
 62
     7
 10
70.65454791391028
 20
414.581371927166
 30
0.0
 40
9.999999999999542
 50
308.3408597616719
 51
334.9455318045233
  0
ENDBLK
  5
1E0
  8
0
  0
BLOCK
  8
0
  2
PD05300A02500__93
 70
     0
 10
69.47768963828037
 20
406.1590418752161
 30
0.0
  3
PD05300A02500__93
  1

  0
INSERT
  5
1E2
  8
0
  2
PX000__92
 10
69.47768963828037
 20
406.1590418752161
 30
0.0
  0
ENDBLK
  5
1E4
  8
0
  0
BLOCK
  8
0
  2
PX000__94
 70
     0
 10
69.4776892808203
 20
404.8004540144862
 30
0.0
  3
PX000__94
  1

  0
LINE
  5
67F
  8
0
  6
CONTINUOUS
 62
     7
 10
73.60405873233628
 20
405.8638288542081
 30
0.0
 11
69.47768983710819
 21
404.8004540144862
 31
0.0
  0
LINE
  5
680
  8
0
  6
CONTINUOUS
 62
     7
 10
69.4776892808203
 20
407.0387006333936
 30
0.0
 11
69.54807425536626
 21
407.067433178711
 31
0.0
  0
LINE
  5
681
  8
0
  6
CONTINUOUS
 62
     7
 10
71.3673978138662
 20
408.3061670687216
 30
0.0
 11
73.56604958017931
 21
410.490961105857
 31
0.0
  0
LINE
  5
682
  8
0
  6
CONTINUOUS
 62
     7
 10
80.41845847167531
 20
414.939015209961
 30
0.0
 11
80.3952406018642
 21
415.0368240471349
 31
0.0
  0
LINE
  5
683
  8
0
  6
CONTINUOUS
 62
     7
 10
76.23233322239037
 20
411.9681324703932
 30
0.0
 11
77.32599231828942
 21
413.546052810995
 31
0.0
  0
LINE
  5
684
  8
0
  6
CONTINUOUS
 62
     7
 10
80.45473015388313
 20
413.4891532011944
 30
0.0
 11
80.35698510180225
 21
412.872835844221
 31
0.0
  0
LINE
  5
685
  8
0
  6
CONTINUOUS
 62
     7
 10
76.89269700913326
 20
415.036824047602
 30
0.0
 11
76.92683936156834
 21
415.0219543579102
 31
0.0
  0
ARC
  5
686
  8
0
  6
CONTINUOUS
 62
     7
 10
67.13819267003089
 20
412.5622003168929
 30
0.0
 40
5.99999959651521
 50
293.6811782167484
 51
314.8188463355107
  0
ARC
  5
687
  8
0
  6
CONTINUOUS
 62
     7
 10
70.48042371888812
 20
414.4392123154201
 30
0.0
 40
9.999999999999643
 50
310.1173815960815
 51
350.9882132197986
  0
ARC
  5
688
  8
0
  6
CONTINUOUS
 62
     7
 10
75.1520021910004
 20
408.8949491020703
 30
0.0
 40
2.749999999999669
 50
274.2620089178185
 51
310.1173815960705
  0
ARC
  5
689
  8
0
  6
CONTINUOUS
 62
     7
 10
76.09955041002092
 20
396.1802075642875
 30
0.0
 40
9.99999999999987
 50
94.26200891785057
 51
104.4508358692688
  0
ARC
  5
68A
  8
0
  6
CONTINUOUS
 62
     7
 10
75.1520021910004
 20
408.8949491020703
 30
0.0
 40
2.250000000000427
 50
97.61839855589662
 51
134.818866985934
  0
ARC
  5
68B
  8
0
  6
CONTINUOUS
 62
     7
 10
74.58855980956048
 20
413.1074344353146
 30
0.0
 40
1.99999999999967
 50
277.6183985559124
 51
325.2741087150068
  0
ARC
  5
68C
  8
0
  6
CONTINUOUS
 62
     7
 10
76.5041055999153
 20
414.115703821778
 30
0.0
 40
4.000000005820898
 50
350.9882127674194
 51
11.87796469582297
  0
ARC
  5
68D
  8
0
  6
CONTINUOUS
 62
     7
 10
76.50410612057692
 20
414.1157018674481
 30
0.0
 40
0.9999984847529633
 50
325.2741828087145
 51
64.99269042640567
  0
CIRCLE
  5
68E
  8
0
  6
CONTINUOUS
 62
     7
 10
75.1520021910004
 20
408.8949491020703
 30
0.0
 40
0.7500000000004999
  0
CIRCLE
  5
68F
  8
0
  6
CONTINUOUS
 62
     7
 10
75.1520021910004
 20
408.8949491020703
 30
0.0
 40
1.000000000000194
  0
ENDBLK
  5
1E7
  8
0
  0
BLOCK
  8
0
  2
PD05300A02600__95
 70
     0
 10
69.4776892808203
 20
404.8004540144862
 30
0.0
  3
PD05300A02600__95
  1

  0
INSERT
  5
1E9
  8
0
  2
PX000__94
 10
69.4776892808203
 20
404.8004540144862
 30
0.0
  0
ENDBLK
  5
1EB
  8
0
  0
BLOCK
  8
0
  2
PD02100A00700_SPINA_TE__96
 70
     0
 10
74.40200401289655
 20
408.1515701581923
 30
0.0
  3
PD02100A00700_SPINA_TE__96
  1

  0
LINE
  5
690
  8
0
  6
CONTINUOUS
 62
     7
 10
74.9579203594443
 20
409.6191760889014
 30
0.0
 11
74.69627204807546
 21
409.4906084315811
 31
0.0
  0
LINE
  5
691
  8
0
  6
CONTINUOUS
 62
     7
 10
75.52791739501515
 20
409.5439346435547
 30
0.0
 11
75.2520594944043
 21
409.6380149307889
 31
0.0
  0
LINE
  5
692
  8
0
  6
CONTINUOUS
 62
     7
 10
75.24987662339333
 20
409.6383254954854
 30
0.0
 11
74.9579203594443
 21
409.6191760889014
 31
0.0
  0
LINE
  5
693
  8
0
  6
CONTINUOUS
 62
     7
 10
75.74669437749424
 20
409.3515339503437
 30
0.0
 11
75.52791739501515
 21
409.5439346435547
 31
0.0
  0
LINE
  5
694
  8
0
  6
CONTINUOUS
 62
     7
 10
75.0541271162823
 20
408.1515701581923
 30
0.0
 11
75.34409614166941
 21
408.1701676282097
 31
0.0
  0
LINE
  5
695
  8
0
  6
CONTINUOUS
 62
     7
 10
74.55728855581617
 20
408.438390935034
 30
0.0
 11
74.7760863403272
 21
408.2459610107422
 31
0.0
  0
LINE
  5
696
  8
0
  6
CONTINUOUS
 62
     7
 10
75.8767180541953
 20
409.0880401733399
 30
0.0
 11
75.7482105597154
 21
409.3495677957845
 31
0.0
  0
LINE
  5
697
  8
0
  6
CONTINUOUS
 62
     7
 10
75.60773230590428
 20
408.2992904785156
 30
0.0
 11
75.80013610346839
 21
408.5180585562644
 31
0.0
  0
LINE
  5
698
  8
0
  6
CONTINUOUS
 62
     7
 10
75.8014004781893
 20
408.5202286066338
 30
0.0
 11
75.89544821776951
 21
408.7960022094727
 31
0.0
  0
LINE
  5
699
  8
0
  6
CONTINUOUS
 62
     7
 10
75.34609049181233
 20
408.1707212058418
 30
0.0
 11
75.60773230590428
 21
408.2992904785156
 31
0.0
  0
LINE
  5
69A
  8
0
  6
CONTINUOUS
 62
     7
 10
74.7760863403272
 20
408.2459610107422
 30
0.0
 11
75.0519442409385
 21
408.151880723508
 31
0.0
  0
LINE
  5
69B
  8
0
  6
CONTINUOUS
 62
     7
 10
74.69627204807546
 20
409.4906084315811
 30
0.0
 11
74.50384701209839
 21
409.2718093450661
 31
0.0
  0
LINE
  5
69C
  8
0
  6
CONTINUOUS
 62
     7
 10
74.50261873047918
 20
409.2697012339421
 30
0.0
 11
74.40855933227147
 21
408.9938934448242
 31
0.0
  0
LINE
  5
69D
  8
0
  6
CONTINUOUS
 62
     7
 10
74.42728568114842
 20
408.7018554809571
 30
0.0
 11
74.55581129758718
 21
408.4403063073756
 31
0.0
  0
ARC
  5
69E
  8
0
  6
CONTINUOUS
 62
     7
 10
75.15200276376879
 20
408.8949401706169
 30
0.0
 40
0.7499999088198009
 50
352.419600315388
 51
14.91979811472716
  0
ARC
  5
69F
  8
0
  6
CONTINUOUS
 62
     7
 10
75.1520023986294
 20
408.8949458640798
 30
0.0
 40
0.7499988110996403
 50
172.4188477911754
 51
194.9190599364781
  0
CIRCLE
  5
6A0
  8
0
  6
CONTINUOUS
 62
     1
 10
75.15200219099313
 20
408.8949491020682
 30
0.0
 40
0.4499999999999923
  0
ENDBLK
  5
1EE
  8
0
  0
BLOCK
  8
0
  2
GFS0001A01900__97
 70
     0
 10
69.4776892808203
 20
404.8004540144862
 30
0.0
  3
GFS0001A01900__97
  1

  0
INSERT
  5
1F0
  8
0
  2
PD05300A02500__93
 10
69.47768963828037
 20
406.1590418752161
 30
0.0
  0
INSERT
  5
1F1
  8
0
  2
PD05300A02600__95
 10
69.4776892808203
 20
404.8004540144862
 30
0.0
  0
INSERT
  5
1F2
  8
0
  2
PD02100A00700_SPINA_TE__96
 10
74.40200401289655
 20
408.1515701581923
 30
0.0
  0
ENDBLK
  5
1F4
  8
0
  0
BLOCK
  8
0
  2
GFS0001A01800__98
 70
     0
 10
69.4776892808203
 20
404.8004540144862
 30
0.0
  3
GFS0001A01800__98
  1

  0
INSERT
  5
1F6
  8
0
  2
PD00700A08300_CORPO_CE__91
 10
73.80702811793924
 20
415.0368254828953
 30
0.0
  0
INSERT
  5
1F7
  8
0
  2
GFS0001A01900__97
 10
69.4776892808203
 20
404.8004540144862
 30
0.0
  0
ENDBLK
  5
1F9
  8
0
  0
BLOCK
  8
0
  2
GFS0001A01700__99
 70
     0
 10
69.4776892808203
 20
404.8004540144862
 30
0.0
  3
GFS0001A01700__99
  1

  0
INSERT
  5
1FB
  8
0
  2
GFS0001A01800__98
 10
69.4776892808203
 20
404.8004540144862
 30
0.0
  0
ENDBLK
  5
1FD
  8
0
  0
BLOCK
  8
0
  2
GFS0001A01600__100
 70
     0
 10
69.4776892808203
 20
404.8004540144862
 30
0.0
  3
GFS0001A01600__100
  1

  0
INSERT
  5
1FF
  8
0
  2
GFS0001A01700__99
 10
69.4776892808203
 20
404.8004540144862
 30
0.0
  0
ENDBLK
  5
201
  8
0
  0
BLOCK
  8
0
  2
GFS0001A01500__101
 70
     0
 10
69.4776892808203
 20
404.8004540144862
 30
0.0
  3
GFS0001A01500__101
  1

  0
INSERT
  5
203
  8
0
  2
GFS0001A01600__100
 10
69.4776892808203
 20
404.8004540144862
 30
0.0
  0
ENDBLK
  5
205
  8
0
  0
BLOCK
  8
0
  2
GFS0001A01400__102
 70
     0
 10
69.4776892808203
 20
404.8004540144862
 30
0.0
  3
GFS0001A01400__102
  1

  0
INSERT
  5
207
  8
0
  2
GFS0001A01500__101
 10
69.4776892808203
 20
404.8004540144862
 30
0.0
  0
ENDBLK
  5
209
  8
0
  0
BLOCK
  8
0
  2
00S0001A00300__103
 70
     0
 10
69.4776892808203
 20
404.8004540144862
 30
0.0
  3
00S0001A00300__103
  1

  0
INSERT
  5
20B
  8
0
  2
GFS0001A01400__102
 10
69.4776892808203
 20
404.8004540144862
 30
0.0
  0
ENDBLK
  5
20D
  8
0
  0
BLOCK
  8
0
  2
PCA09A093__104
 70
     0
 10
69.4776892808203
 20
404.8004540144862
 30
0.0
  3
PCA09A093__104
  1

  0
INSERT
  5
20F
  8
0
  2
00S0001A00300__103
 10
69.4776892808203
 20
404.8004540144862
 30
0.0
  0
ENDBLK
  5
211
  8
0
  0
BLOCK
  8
0
  2
TKKZ0TEC05700__105
 70
     0
 10
49.47768891985913
 20
-184.5080892567965
 30
0.0
  3
TKKZ0TEC05700__105
  1

  0
INSERT
  5
213
  8
0
  2
ANTA__85
 10
49.47768891985913
 20
-184.5080892567965
 30
0.0
  0
INSERT
  5
214
  8
0
  2
PX001025_MOBILE_LEST60__89
 10
70.80702811783055
 20
416.5368254829738
 30
0.0
  0
INSERT
  5
215
  8
0
  2
PCA09A093__104
 10
69.4776892808203
 20
404.8004540144862
 30
0.0
  0
ENDBLK
  5
217
  8
0
  0
BLOCK
  8
0
  2
IN_ALTO9
 70
     0
 10
126.8928999999952
 20
497.3653000000001
 30
0.0
  3
IN_ALTO9
  1

  0
INSERT
  5
219
  8
0
  2
TKKZ0TEC05700__105
 10
49.47768891985913
 20
-184.5080892567965
 30
0.0
  0
INSERT
  5
6A1
  8
1
 62
     3
  2
*X128
 10
0.0
 20
0.0
 30
0.0
  0
TEXT
  5
6A2
  8
1
  6
CONTINUOUS
 62
     5
 10
350.7673585188448
 20
-193.0080892567965
 30
0.0
 40
3.5
  1
In Alto9
 41
0.9
  7
CONVERTER_11
  0
DIMENSION
  5
6AD
  8
1
  2
*D119
 10
49.47768891985913
 20
461.892773093632
 30
0.0
 11
61.1738438201581
 21
466.167773093632
 31
0.0
 70
    32
  1
Sp+1.3
 53
0.00013888888889
  3
ME10_DIM_16
 13
70.80702811783055
 23
416.5368254829738
 33
0.0
 14
49.47768891985913
 24
415.4919107432035
 34
0.0
  0
DIMENSION
  5
6B8
  8
1
  2
*D120
 10
49.47768891985913
 20
355.980176154609
 30
0.0
 11
59.47768891985913
 21
360.255176154609
 31
0.0
 70
    32
  1
Sp
 53
0.00013888888889
  3
ME10_DIM_17
 13
69.47768891985913
 23
415.4919107432035
 33
0.0
 14
49.47768891985913
 24
415.4919107432035
 34
0.0
  0
DIMENSION
  5
6C5
  8
1
  2
*D121
 10
69.47768891985913
 20
432.854687352775
 30
0.0
 11
59.6455235180085
 21
436.604687352775
 31
0.0
 70
    32
  1
<>
 53
0.00013888888889
  3
ME10_DIM_18
 13
70.80702811783055
 23
416.5368254829738
 33
0.0
 14
69.47768891985913
 24
415.4919107432035
 34
0.0
  0
DIMENSION
  5
6D2
  8
1
  2
*D122
 10
30.0781409311297
 20
415.4919107432035
 30
0.0
 11
26.3281409311297
 21
404.051464916972
 31
0.0
 70
    32
  1
1.1
 53
90.0
  3
ME10_DIM_19
 13
70.80702811783055
 23
416.5368254829738
 33
0.0
 14
69.47768891985913
 24
415.4919107432035
 34
0.0
 50
90.0
  0
DIMENSION
  5
6DB
  8
1
  2
*D123
 10
219.2584911326185
 20
266.7560232702144
 30
0.0
 11
204.053531801845
 21
257.844301646608
 31
0.0
 70
    37
  1
<>
  3
ME10_DIM_20
 13
69.4776889198591
 23
204.7147836105674
 33
0.0
 14
281.2997307922656
 24
416.5368254829738
 34
0.0
 15
69.4776889198591
 25
416.5368254829738
 35
0.0
  0
ENDBLK
  5
21B
  8
0
  0
BLOCK
  8
0
  2
_TECNICI__106
 70
     0
 10
896.677992465922
 20
-964.9430041135968
 30
0.0
  3
_TECNICI__106
  1

  0
POINT
  5
6DC
  8
1
 62
     7
 10
704.3741876267843
 20
-989.3236041135967
 30
0.0
  0
LINE
  5
6DD
  8
1
  6
CONTINUOUS
 62
     7
 10
816.636892465922
 20
-912.9430041135968
 30
0.0
 11
696.677992465922
 21
-912.9430041135968
 31
0.0
  0
LINE
  5
6DE
  8
1
  6
CONTINUOUS
 62
     7
 10
696.677992465922
 20
-969.9430041135968
 30
0.0
 11
816.636892465922
 21
-969.9430041135968
 31
0.0
  0
LINE
  5
6DF
  8
1
  6
CONTINUOUS
 62
     7
 10
696.677992465922
 20
-974.9430041135968
 30
0.0
 11
816.636892465922
 21
-974.9430041135968
 31
0.0
  0
LINE
  5
6E0
  8
1
  6
CONTINUOUS
 62
     7
 10
696.677992465922
 20
-979.9430041135968
 30
0.0
 11
816.636892465922
 21
-979.9430041135968
 31
0.0
  0
LINE
  5
6E1
  8
1
  6
CONTINUOUS
 62
     7
 10
696.677992465922
 20
-984.9430041135968
 30
0.0
 11
816.636892465922
 21
-984.9430041135968
 31
0.0
  0
LINE
  5
6E2
  8
1
  6
CONTINUOUS
 62
     7
 10
696.677992465922
 20
-989.9430041135968
 30
0.0
 11
816.636892465922
 21
-989.9430041135968
 31
0.0
  0
LINE
  5
6E3
  8
1
  6
CONTINUOUS
 62
     7
 10
816.636892465922
 20
-950.3546041135968
 30
0.0
 11
738.8630613895677
 21
-950.3546041135968
 31
0.0
  0
LINE
  5
6E4
  8
1
  6
CONTINUOUS
 62
     7
 10
738.8630613895677
 20
-912.9430041135968
 30
0.0
 11
738.8630613895677
 21
-964.9430041135968
 31
0.0
  0
LINE
  5
6E5
  8
1
  6
CONTINUOUS
 62
     7
 10
696.677992465922
 20
-912.9430041135968
 30
0.0
 11
696.677992465922
 21
-989.9430041135968
 31
0.0
  0
LINE
  5
6E6
  8
1
  6
DOT_CENTER
 62
     6
 10
809.7063880250857
 20
-964.3871549976038
 30
0.0
 11
809.7063880250857
 21
-951.3322312770491
 31
0.0
  0
LINE
  5
6E7
  8
1
  6
CONTINUOUS
 62
     7
 10
801.7063880250859
 20
-952.7497763542207
 30
0.0
 11
801.7063880250859
 21
-962.7497763542207
 31
0.0
  0
LINE
  5
6E8
  8
1
  6
CONTINUOUS
 62
     7
 10
801.7063880250859
 20
-952.7497763542207
 30
0.0
 11
789.7063880250859
 21
-954.7497763542207
 31
0.0
  0
LINE
  5
6E9
  8
1
  6
CONTINUOUS
 62
     7
 10
789.7063880250859
 20
-954.7497763542207
 30
0.0
 11
789.7063880250859
 21
-960.7497763542207
 31
0.0
  0
LINE
  5
6EA
  8
1
  6
CONTINUOUS
 62
     7
 10
789.7063880250859
 20
-960.7497763542207
 30
0.0
 11
801.7063880250859
 21
-962.7497763542207
 31
0.0
  0
LINE
  5
6EB
  8
1
  6
DOT_CENTER
 62
     6
 10
816.244263890283
 20
-957.7497763542207
 30
0.0
 11
788.925045787112
 21
-957.7497763542207
 31
0.0
  0
LINE
  5
6EC
  8
1
  6
CONTINUOUS
 62
     7
 10
804.3329186668926
 20
-950.3546041135968
 30
0.0
 11
804.3329186668926
 21
-928.7605327520505
 31
0.0
  0
LINE
  5
6ED
  8
1
  6
CONTINUOUS
 62
     7
 10
788.2274904059129
 20
-934.7605327520505
 30
0.0
 11
816.636892465922
 21
-934.7605327520505
 31
0.0
  0
LINE
  5
6EE
  8
1
  6
CONTINUOUS
 62
     7
 10
816.636892465922
 20
-928.7841041135968
 30
0.0
 11
738.8630613895677
 21
-928.7841041135968
 31
0.0
  0
LINE
  5
6EF
  8
1
  6
CONTINUOUS
 62
     7
 10
788.2274904059128
 20
-928.7841041135968
 30
0.0
 11
788.2274904059129
 21
-964.9430041135968
 31
0.0
  0
LINE
  5
6F0
  8
1
  6
CONTINUOUS
 62
     7
 10
816.636892465922
 20
-912.9430041135968
 30
0.0
 11
816.636892465922
 21
-989.9430041135968
 31
0.0
  0
LINE
  5
6F1
  8
1
  6
CONTINUOUS
 62
     7
 10
816.636892465922
 20
-964.9430041135968
 30
0.0
 11
696.677992465922
 21
-964.9430041135968
 31
0.0
  0
LINE
  5
6F2
  8
1
  6
CONTINUOUS
 62
     7
 10
816.636892465922
 20
-918.1515041135968
 30
0.0
 11
738.8630613895677
 21
-918.1515041135968
 31
0.0
  0
LINE
  5
6F3
  8
1
  6
CONTINUOUS
 62
     7
 10
816.636892465922
 20
-989.9430041135968
 30
0.0
 11
-2101.653007534078
 21
-989.9430041135968
 31
0.0
  0
LINE
  5
6F4
  8
1
  6
CONTINUOUS
 62
     7
 10
-2101.653007534078
 20
-989.9430041135968
 30
0.0
 11
-2101.653007534078
 21
759.2877958864033
 31
0.0
  0
LINE
  5
6F5
  8
1
  6
CONTINUOUS
 62
     7
 10
-2101.653007534078
 20
759.2877958864033
 30
0.0
 11
816.636892465922
 21
759.2877958864033
 31
0.0
  0
LINE
  5
6F6
  8
1
  6
CONTINUOUS
 62
     7
 10
816.636892465922
 20
759.2877958864033
 30
0.0
 11
816.636892465922
 21
-989.9430041135968
 31
0.0
  0
CIRCLE
  5
6F7
  8
1
  6
CONTINUOUS
 62
     7
 10
736.5594702380773
 20
-917.1088815896002
 30
0.0
 40
1.5
  0
CIRCLE
  5
6F8
  8
1
  6
CONTINUOUS
 62
     7
 10
809.7063880250857
 20
-957.7497763542207
 30
0.0
 40
3.0
  0
CIRCLE
  5
6F9
  8
1
  6
CONTINUOUS
 62
     7
 10
809.7063880250857
 20
-957.7497763542207
 30
0.0
 40
5.0
  0
TEXT
  5
6FB
  8
1
 62
     3
 10
704.6258391346821
 20
-973.9648624111278
 30
0.0
 40
2.9
  1
ESPA\U+00d1A-C.P 08291 Ripollet-(Barcelona)-Tel:+34 935910410-Fax:+34 935910498
 41
1.188
  7
CONVERTER_12
  0
TEXT
  5
6FC
  8
1
 62
     3
 10
704.867092465922
 20
-989.3236041135967
 30
0.0
 40
2.9
  1
Koblenz Utturhar Fittings Private Limited-411030 Maharashtra,India,Ph:+91 020-24471422
 41
1.188
  7
CONVERTER_12
  0
TEXT
  5
6FD
  8
1
 62
     3
 10
704.6258391346821
 20
-979.2871242572003
 30
0.0
 40
2.9
  1
FRANCE-69830 Saint Georges De Reneins-Tel:+33-474090939-Fax:+33-474090932
 41
1.188
  7
CONVERTER_12
  0
TEXT
  5
6FE
  8
1
 62
     3
 10
704.6258391346821
 20
-984.1909041135968
 30
0.0
 40
2.9
  1
\U+0420\U+041e\U+0421\U+0421\U+0418\U+042f - 109052, \U+0433. \U+041c\U+043e\U+0441\U+043a\U+0432\U+0430 - \U+0422\U+0435\U+043b/\U+0444\U+0430\U+043a\U+0441 +7 (495) 287-16-08
 41
1.188
  7
CONVERTER_12
  0
TEXT
  5
700
  8
1
  6
CONTINUOUS
 62
     7
 10
735.6004684334595
 20
-918.1035147336743
 30
0.0
 40
2.1
  1
R
 41
0.95
  7
CONVERTER_13
  0
INSERT
  5
701
  8
1
 62
     3
  2
*X129
 10
0.0
 20
0.0
 30
0.0
  0
TEXT
  5
702
  8
1
 62
     3
 10
738.8630613895677
 20
-928.20651280876
 30
0.0
 40
9.5
  1
TKKZ0TEC05700
 41
1.188
  7
CONVERTER_12
  0
TEXT
  5
703
  8
1
 62
     3
 10
769.8865769277448
 20
-917.0007653691922
 30
0.0
 40
4.0
  1
CODICE
 41
1.188
  7
CONVERTER_12
  0
TEXT
  5
704
  8
1
 62
     3
 10
704.7717851597752
 20
-968.709870634046
 30
0.0
 40
2.9
  1
ITALY-47853 Coriano (RN)-Tel.+39 0541 657040-Fax+39 0541 658211
 41
1.188
  7
CONVERTER_12
  0
TEXT
  5
705
  8
1
 62
     3
 10
790.1339331061358
 20
-943.7062918249885
 30
0.0
 40
4.0
  1
SCALA
 41
1.188
  7
CONVERTER_12
  0
INSERT
  5
706
  8
1
 62
     3
  2
*X130
 10
0.0
 20
0.0
 30
0.0
  0
TEXT
  5
707
  8
1
  6
CONTINUOUS
 62
     3
 10
806.1225695664073
 20
-943.7062918249885
 30
0.0
 40
4.0
  1
1:1
 41
1.188
  7
CONVERTER_12
  0
TEXT
  5
708
  8
1
 62
     3
 10
808.5483334613945
 20
-933.4095504229913
 30
0.0
 40
4.0
  1
02
 41
1.188
  7
CONVERTER_12
  0
TEXT
  5
709
  8
1
 62
     3
 10
789.6294266136123
 20
-933.4095504229913
 30
0.0
 40
4.0
  1
REV N\U+00b0
 41
1.188
  7
CONVERTER_12
  0
ENDBLK
  5
21E
  8
0
  0
BLOCK
  8
0
  2
*D112
 70
     1
 10
0.0
 20
0.0
 30
0.0
  3
*D112
  1

  0
LINE
  5
332
  8
1
  6
CONTINUOUS
 62
     1
 10
-79.51727188216773
 20
-383.7891522035309
 30
0.0
 11
-72.51727188216773
 21
-383.7891522035309
 31
0.0
  0
LINE
  5
333
  8
1
  6
CONTINUOUS
 62
     1
 10
-81.41162862333931
 20
-383.7891522035309
 30
0.0
 11
-79.51727188216773
 21
-383.7891522035309
 31
0.0
  0
LINE
  5
334
  8
1
  6
CONTINUOUS
 62
     1
 10
-94.55145130453297
 20
-383.7891522035309
 30
0.0
 11
-81.41162862333931
 21
-383.7891522035309
 31
0.0
  0
LINE
  5
335
  8
1
  6
CONTINUOUS
 62
     1
 10
-79.51727188216773
 20
-437.6469745170262
 30
0.0
 11
-79.51727188216773
 21
-382.7891522035309
 31
0.0
  0
LINE
  5
336
  8
1
  6
CONTINUOUS
 62
     1
 10
-81.41162862333931
 20
-416.4753598742448
 30
0.0
 11
-81.41162862333931
 21
-382.7891522035309
 31
0.0
  0
SOLID
  5
337
  8
1
 62
     1
 10
-84.91162862333931
 20
-384.2499359450867
 30
0.0
 11
-84.91162862333931
 21
-383.328368461975
 31
0.0
 12
-81.41162862333931
 22
-383.7891522035309
 32
0.0
 13
-81.41162862333931
 23
-383.7891522035309
 33
0.0
  0
SOLID
  5
338
  8
1
 62
     1
 10
-76.01727188216773
 20
-383.328368461975
 30
0.0
 11
-76.01727188216773
 21
-384.2499359450867
 31
0.0
 12
-79.51727188216773
 22
-383.7891522035309
 32
0.0
 13
-79.51727188216773
 23
-383.7891522035309
 33
0.0
  0
TEXT
  5
339
  8
1
 62
     3
 10
-94.55145130453297
 20
-381.7891522035309
 30
0.0
 40
3.5
  1
1.9
 50
0.00013888888889
 41
0.9
  7
CONVERTER_11
  0
TEXT
  5
33A
  8
1
 62
     3
 10
-87.46395130453297
 20
-381.0891522035309
 30
0.0
 40
2.1
  1
%%p1
 50
0.00013888888889
 41
0.9
  7
CONVERTER_11
  0
ENDBLK
  5
33C
  8
0
  0
BLOCK
  8
0
  2
*D113
 70
     1
 10
0.0
 20
0.0
 30
0.0
  3
*D113
  1

  0
LINE
  5
340
  8
1
  6
CONTINUOUS
 62
     1
 10
-681.4116286233393
 20
-398.4156413034159
 30
0.0
 11
-81.41162862333931
 21
-398.4156413034159
 31
0.0
  0
LINE
  5
341
  8
1
  6
CONTINUOUS
 62
     1
 10
-81.41162862333931
 20
-416.4753598742449
 30
0.0
 11
-81.41162862333931
 21
-397.4156413034159
 31
0.0
  0
LINE
  5
342
  8
1
  6
CONTINUOUS
 62
     1
 10
-681.4116286233393
 20
-416.4753598742449
 30
0.0
 11
-681.4116286233393
 21
-397.4156413034159
 31
0.0
  0
SOLID
  5
343
  8
1
 62
     1
 10
-677.9116286233393
 20
-397.95485756186
 30
0.0
 11
-677.9116286233393
 21
-398.8764250449718
 31
0.0
 12
-681.4116286233393
 22
-398.4156413034159
 32
0.0
 13
-681.4116286233393
 23
-398.4156413034159
 33
0.0
  0
SOLID
  5
344
  8
1
 62
     1
 10
-84.91162862333931
 20
-398.8764250449718
 30
0.0
 11
-84.91162862333931
 21
-397.95485756186
 31
0.0
 12
-81.41162862333931
 22
-398.4156413034159
 32
0.0
 13
-81.41162862333931
 23
-398.4156413034159
 33
0.0
  0
TEXT
  5
345
  8
1
 62
     3
 10
-389.6052649710295
 20
-395.3656413034159
 30
0.0
 40
3.5
  1
Lp
 50
0.00013888888889
 41
0.9
  7
CONVERTER_11
  0
ENDBLK
  5
347
  8
0
  0
BLOCK
  8
0
  2
*D114
 70
     1
 10
0.0
 20
0.0
 30
0.0
  3
*D114
  1

  0
LINE
  5
34B
  8
1
  6
CONTINUOUS
 62
     1
 10
-49.86335671699882
 20
-439.1469745170263
 30
0.0
 11
-49.86335671699882
 21
-432.1469745170263
 31
0.0
  0
LINE
  5
34C
  8
1
  6
CONTINUOUS
 62
     1
 10
-49.86335671699882
 20
-445.0132318497226
 30
0.0
 11
-49.86335671699882
 21
-439.1469745170263
 31
0.0
  0
LINE
  5
34D
  8
1
  6
CONTINUOUS
 62
     1
 10
-49.86335671699882
 20
-462.186765212054
 30
0.0
 11
-49.86335671699882
 21
-445.0132318497226
 31
0.0
  0
LINE
  5
34E
  8
1
  6
CONTINUOUS
 62
     1
 10
-58.01727188216773
 20
-439.1469745170263
 30
0.0
 11
-48.86335671699882
 21
-439.1469745170263
 31
0.0
  0
LINE
  5
34F
  8
1
  6
CONTINUOUS
 62
     1
 10
-78.32270104990948
 20
-445.0132318497226
 30
0.0
 11
-48.86335671699882
 21
-445.0132318497226
 31
0.0
  0
SOLID
  5
350
  8
1
 62
     1
 10
-49.40257297544294
 20
-448.5132318497226
 30
0.0
 11
-50.32414045855471
 21
-448.5132318497226
 31
0.0
 12
-49.86335671699882
 22
-445.0132318497226
 32
0.0
 13
-49.86335671699882
 23
-445.0132318497226
 33
0.0
  0
SOLID
  5
351
  8
1
 62
     1
 10
-50.32414045855471
 20
-435.6469745170263
 30
0.0
 11
-49.40257297544294
 21
-435.6469745170263
 31
0.0
 12
-49.86335671699882
 22
-439.1469745170263
 32
0.0
 13
-49.86335671699882
 23
-439.1469745170263
 33
0.0
  0
TEXT
  5
352
  8
1
 62
     3
 10
-51.86335671699882
 20
-462.186765212054
 30
0.0
 40
3.5
  1
5.9
 50
90.0
 41
0.9
  7
CONVERTER_11
  0
TEXT
  5
353
  8
1
 62
     3
 10
-52.56335671699883
 20
-454.049265212054
 30
0.0
 40
2.1
  1
%%p1.5
 50
90.0
 41
0.9
  7
CONVERTER_11
  0
ENDBLK
  5
355
  8
0
  0
BLOCK
  8
0
  2
*D115
 70
     1
 10
0.0
 20
0.0
 30
0.0
  3
*D115
  1

  0
ARC
  5
442
  8
1
  6
CONTINUOUS
 62
     1
 10
-1469.529757153527
 20
-439.1469745170263
 30
0.0
 40
199.1332488473946
 50
224.9999999999999
 51
0.0
  0
SOLID
  5
443
  8
1
 62
     1
 10
-1607.518753083994
 20
-582.0798001290136
 30
0.0
 11
-1608.164647884891
 21
-582.7371482347409
 31
0.0
 12
-1610.338227773228
 22
-579.955445136727
 32
0.0
 13
-1610.338227773228
 23
-579.955445136727
 33
0.0
  0
SOLID
  5
444
  8
1
 62
     1
 10
-1269.966500260772
 20
-442.6508887193731
 30
0.0
 11
-1270.88803215758
 21
-442.6427900098606
 31
0.0
 12
-1270.396508306132
 22
-439.1469745170263
 32
0.0
 13
-1270.396508306132
 23
-439.1469745170263
 33
0.0
  0
TEXT
  5
445
  8
1
 62
     3
 10
-1396.22266074405
 20
-622.2087056820639
 30
0.0
 40
3.5
  1
135%%d
 50
23.24750687726955
 41
0.9
  7
CONVERTER_11
  0
ENDBLK
  5
447
  8
0
  0
BLOCK
  8
0
  2
*D116
 70
     1
 10
0.0
 20
0.0
 30
0.0
  3
*D116
  1

  0
LINE
  5
4DE
  8
1
  6
CONTINUOUS
 62
     1
 10
-1663.05882061809
 20
414.0365109211948
 30
0.0
 11
-1663.05882061809
 21
394.0365109211948
 31
0.0
  0
LINE
  5
4DF
  8
1
  6
CONTINUOUS
 62
     1
 10
-1717.38925946805
 20
394.0365109211948
 30
0.0
 11
-1662.05882061809
 21
394.0365109211948
 31
0.0
  0
LINE
  5
4E0
  8
1
  6
CONTINUOUS
 62
     1
 10
-1717.38925946805
 20
414.0365109211948
 30
0.0
 11
-1662.05882061809
 21
414.0365109211948
 31
0.0
  0
SOLID
  5
4E1
  8
1
 62
     1
 10
-1662.598036876534
 20
410.5365109211948
 30
0.0
 11
-1663.519604359646
 21
410.5365109211948
 31
0.0
 12
-1663.05882061809
 22
414.0365109211948
 32
0.0
 13
-1663.05882061809
 23
414.0365109211948
 33
0.0
  0
SOLID
  5
4E2
  8
1
 62
     1
 10
-1663.519604359646
 20
397.5365109211948
 30
0.0
 11
-1662.598036876534
 21
397.5365109211948
 31
0.0
 12
-1663.05882061809
 22
394.0365109211948
 32
0.0
 13
-1663.05882061809
 23
394.0365109211948
 33
0.0
  0
TEXT
  5
4E3
  8
1
 62
     3
 10
-1666.10882061809
 20
401.2365109211948
 30
0.0
 40
3.5
  1
Sp
 50
90.0
 41
0.9
  7
CONVERTER_11
  0
ENDBLK
  5
4E5
  8
0
  0
BLOCK
  8
0
  2
*D117
 70
     1
 10
0.0
 20
0.0
 30
0.0
  3
*D117
  1

  0
LINE
  5
4E9
  8
1
  6
CONTINUOUS
 62
     1
 10
-1736.858558138751
 20
416.5374549496074
 30
0.0
 11
-1736.857980477185
 21
433.0279617401271
 31
0.0
  0
LINE
  5
4EA
  8
1
  6
CONTINUOUS
 62
     1
 10
-1736.858645724636
 20
414.0371403878284
 30
0.0
 11
-1736.858558138751
 21
416.5374549496074
 31
0.0
  0
LINE
  5
4EB
  8
1
  6
CONTINUOUS
 62
     1
 10
-1736.858890934259
 20
407.0371403921233
 30
0.0
 11
-1736.858645724636
 21
414.0371403878284
 31
0.0
  0
LINE
  5
4EC
  8
1
  6
CONTINUOUS
 62
     1
 10
-1720.389171881245
 20
416.536878027893
 30
0.0
 11
-1737.858558138138
 21
416.5374899795535
 31
0.0
  0
LINE
  5
4ED
  8
1
  6
CONTINUOUS
 62
     1
 10
-1720.389259467129
 20
414.036563466114
 30
0.0
 11
-1737.858645724022
 21
414.0371754177746
 31
0.0
  0
SOLID
  5
4EE
  8
1
 62
     1
 10
-1736.397984588174
 20
410.5371242487461
 30
0.0
 11
-1737.319552070721
 21
410.5371565312055
 31
0.0
 12
-1736.858645724636
 22
414.0371403878284
 32
0.0
 13
-1736.858645724636
 23
414.0371403878284
 33
0.0
  0
SOLID
  5
4EF
  8
1
 62
     1
 10
-1737.319219275212
 20
420.0374710886896
 30
0.0
 11
-1736.397651792666
 21
420.0374388062302
 31
0.0
 12
-1736.858558138751
 22
416.5374549496074
 32
0.0
 13
-1736.858558138751
 23
416.5374549496074
 33
0.0
  0
TEXT
  5
4F0
  8
1
 62
     3
 10
-1738.858429209569
 20
420.218031807879
 30
0.0
 40
3.5
  1
2.5
 50
89.99799293192743
 41
0.9
  7
CONVERTER_11
  0
TEXT
  5
4F1
  8
1
 62
     3
 10
-1739.558144152953
 20
428.3555563238485
 30
0.0
 40
2.1
  1
%%p1.5
 50
89.99799293192743
 41
0.9
  7
CONVERTER_11
  0
ENDBLK
  5
4F3
  8
0
  0
BLOCK
  8
0
  2
*D118
 70
     1
 10
0.0
 20
0.0
 30
0.0
  3
*D118
  1

  0
ARC
  5
5BB
  8
1
  6
CONTINUOUS
 62
     1
 10
-764.4001323477391
 20
416.5368254829737
 30
0.0
 40
340.2114436985773
 50
315.0000000000001
 51
0.00000000000002
  0
SOLID
  5
5BC
  8
1
 62
     1
 10
-521.6996978061434
 20
178.7827209623025
 30
0.0
 11
-521.0447078464368
 21
178.1344349308222
 31
0.0
 12
-523.8343134712095
 22
175.9710066064447
 32
0.0
 13
-523.8343134712095
 23
175.9710066064447
 33
0.0
  0
SOLID
  5
5BD
  8
1
 62
     1
 10
-423.7459144338272
 20
413.0345015900825
 30
0.0
 11
-424.6674697249531
 21
413.0392419831919
 31
0.0
 12
-424.1886886491618
 22
416.5368254829738
 32
0.0
 13
-424.1886886491618
 23
416.5368254829738
 33
0.0
  0
TEXT
  5
5BE
  8
1
 62
     3
 10
-453.4068330681344
 20
283.5519731430844
 30
0.0
 40
3.5
  1
45%%d
 50
67.50000000000055
 41
0.9
  7
CONVERTER_11
  0
ENDBLK
  5
5C0
  8
0
  0
BLOCK
  8
0
  2
*D119
 70
     1
 10
0.0
 20
0.0
 30
0.0
  3
*D119
  1

  0
LINE
  5
6A4
  8
1
  6
CONTINUOUS
 62
     1
 10
49.47768891985913
 20
461.892773093632
 30
0.0
 11
70.80702811783055
 21
461.892773093632
 31
0.0
  0
LINE
  5
6A5
  8
1
  6
CONTINUOUS
 62
     1
 10
70.80702811783055
 20
418.0368254829738
 30
0.0
 11
70.80702811783055
 21
462.892773093632
 31
0.0
  0
LINE
  5
6A6
  8
1
  6
CONTINUOUS
 62
     1
 10
49.47768891985913
 20
416.9919107432035
 30
0.0
 11
49.47768891985913
 21
462.892773093632
 31
0.0
  0
SOLID
  5
6A7
  8
1
 62
     1
 10
52.97768891985913
 20
462.3535568351879
 30
0.0
 11
52.97768891985913
 21
461.4319893520761
 31
0.0
 12
49.47768891985913
 22
461.892773093632
 32
0.0
 13
49.47768891985913
 23
461.892773093632
 33
0.0
  0
SOLID
  5
6A8
  8
1
 62
     1
 10
67.30702811783055
 20
461.4319893520761
 30
0.0
 11
67.30702811783055
 21
462.3535568351879
 31
0.0
 12
70.80702811783055
 22
461.892773093632
 32
0.0
 13
70.80702811783055
 23
461.892773093632
 33
0.0
  0
TEXT
  5
6A9
  8
1
 62
     3
 10
53.7800938201581
 20
464.942773093632
 30
0.0
 40
3.5
  1
Sp+1.3
 50
0.00013888888889
 41
0.9
  7
CONVERTER_11
  0
ENDBLK
  5
6AB
  8
0
  0
BLOCK
  8
0
  2
*D120
 70
     1
 10
0.0
 20
0.0
 30
0.0
  3
*D120
  1

  0
LINE
  5
6AF
  8
1
  6
CONTINUOUS
 62
     1
 10
49.47768891985913
 20
355.980176154609
 30
0.0
 11
69.47768891985913
 21
355.980176154609
 31
0.0
  0
LINE
  5
6B0
  8
1
  6
CONTINUOUS
 62
     1
 10
69.47768891985913
 20
413.9919107432035
 30
0.0
 11
69.47768891985913
 21
354.980176154609
 31
0.0
  0
LINE
  5
6B1
  8
1
  6
CONTINUOUS
 62
     1
 10
49.47768891985913
 20
413.9919107432035
 30
0.0
 11
49.47768891985913
 21
354.980176154609
 31
0.0
  0
SOLID
  5
6B2
  8
1
 62
     1
 10
52.97768891985913
 20
356.4409598961649
 30
0.0
 11
52.97768891985913
 21
355.5193924130531
 31
0.0
 12
49.47768891985913
 22
355.980176154609
 32
0.0
 13
49.47768891985913
 23
355.980176154609
 33
0.0
  0
SOLID
  5
6B3
  8
1
 62
     1
 10
65.97768891985913
 20
355.5193924130531
 30
0.0
 11
65.97768891985913
 21
356.4409598961649
 31
0.0
 12
69.47768891985913
 22
355.980176154609
 32
0.0
 13
69.47768891985913
 23
355.980176154609
 33
0.0
  0
TEXT
  5
6B4
  8
1
 62
     3
 10
56.67768891985914
 20
359.030176154609
 30
0.0
 40
3.5
  1
Sp
 50
0.00013888888889
 41
0.9
  7
CONVERTER_11
  0
ENDBLK
  5
6B6
  8
0
  0
BLOCK
  8
0
  2
*D121
 70
     1
 10
0.0
 20
0.0
 30
0.0
  3
*D121
  1

  0
LINE
  5
6BA
  8
1
  6
CONTINUOUS
 62
     1
 10
70.80702811783055
 20
432.854687352775
 30
0.0
 11
77.80702811783055
 21
432.854687352775
 31
0.0
  0
LINE
  5
6BB
  8
1
  6
CONTINUOUS
 62
     1
 10
69.47768891985913
 20
432.854687352775
 30
0.0
 11
70.80702811783055
 21
432.854687352775
 31
0.0
  0
LINE
  5
6BC
  8
1
  6
CONTINUOUS
 62
     1
 10
56.9767735180085
 20
432.854687352775
 30
0.0
 11
69.47768891985913
 21
432.854687352775
 31
0.0
  0
LINE
  5
6BD
  8
1
  6
CONTINUOUS
 62
     1
 10
70.80702811783055
 20
418.0368254829738
 30
0.0
 11
70.80702811783055
 21
433.854687352775
 31
0.0
  0
LINE
  5
6BE
  8
1
  6
CONTINUOUS
 62
     1
 10
69.47768891985913
 20
416.9919107432035
 30
0.0
 11
69.47768891985913
 21
433.854687352775
 31
0.0
  0
SOLID
  5
6BF
  8
1
 62
     1
 10
65.97768891985913
 20
432.3939036112191
 30
0.0
 11
65.97768891985913
 21
433.3154710943309
 31
0.0
 12
69.47768891985913
 22
432.854687352775
 32
0.0
 13
69.47768891985913
 23
432.854687352775
 33
0.0
  0
SOLID
  5
6C0
  8
1
 62
     1
 10
74.30702811783055
 20
433.3154710943309
 30
0.0
 11
74.30702811783055
 21
432.3939036112191
 31
0.0
 12
70.80702811783055
 22
432.854687352775
 32
0.0
 13
70.80702811783055
 23
432.854687352775
 33
0.0
  0
TEXT
  5
6C1
  8
1
 62
     3
 10
56.9767735180085
 20
434.854687352775
 30
0.0
 40
3.5
  1
1.3
 50
0.00013888888889
 41
0.9
  7
CONVERTER_11
  0
ENDBLK
  5
6C3
  8
0
  0
BLOCK
  8
0
  2
*D122
 70
     1
 10
0.0
 20
0.0
 30
0.0
  3
*D122
  1

  0
LINE
  5
6C7
  8
1
  6
CONTINUOUS
 62
     1
 10
30.0781409311297
 20
416.5368254829738
 30
0.0
 11
30.0781409311297
 21
423.5368254829738
 31
0.0
  0
LINE
  5
6C8
  8
1
  6
CONTINUOUS
 62
     1
 10
30.0781409311297
 20
415.4919107432035
 30
0.0
 11
30.0781409311297
 21
416.5368254829738
 31
0.0
  0
LINE
  5
6C9
  8
1
  6
CONTINUOUS
 62
     1
 10
30.0781409311297
 20
401.907714916972
 30
0.0
 11
30.0781409311297
 21
415.4919107432035
 31
0.0
  0
LINE
  5
6CA
  8
1
  6
CONTINUOUS
 62
     1
 10
69.30702811783055
 20
416.5368254829738
 30
0.0
 11
29.0781409311297
 21
416.5368254829738
 31
0.0
  0
LINE
  5
6CB
  8
1
  6
CONTINUOUS
 62
     1
 10
67.97768891985913
 20
415.4919107432035
 30
0.0
 11
29.0781409311297
 21
415.4919107432035
 31
0.0
  0
SOLID
  5
6CC
  8
1
 62
     1
 10
30.53892467268558
 20
411.9919107432035
 30
0.0
 11
29.61735718957381
 21
411.9919107432035
 31
0.0
 12
30.0781409311297
 22
415.4919107432035
 32
0.0
 13
30.0781409311297
 23
415.4919107432035
 33
0.0
  0
SOLID
  5
6CD
  8
1
 62
     1
 10
29.61735718957381
 20
420.0368254829738
 30
0.0
 11
30.53892467268559
 21
420.0368254829738
 31
0.0
 12
30.0781409311297
 22
416.5368254829738
 32
0.0
 13
30.0781409311297
 23
416.5368254829738
 33
0.0
  0
TEXT
  5
6CE
  8
1
 62
     3
 10
28.0781409311297
 20
401.907714916972
 30
0.0
 40
3.5
  1
1.1
 50
90.0
 41
0.9
  7
CONVERTER_11
  0
ENDBLK
  5
6D0
  8
0
  0
BLOCK
  8
0
  2
*D123
 70
     1
 10
0.0
 20
0.0
 30
0.0
  3
*D123
  1

  0
ARC
  5
6D4
  8
1
  6
CONTINUOUS
 62
     1
 10
69.4776889198591
 20
416.5368254829738
 30
0.0
 40
211.8220418724065
 50
270.0
 51
0.0
  0
SOLID
  5
6D5
  8
1
 62
     1
 10
72.97376268285059
 20
205.2044670799685
 30
0.0
 11
72.98137626609709
 21
204.2829310474233
 31
0.0
 12
69.4776889198591
 22
204.7147836105674
 32
0.0
 13
69.4776889198591
 23
204.7147836105674
 33
0.0
  0
SOLID
  5
6D6
  8
1
 62
     1
 10
281.7315833554096
 20
413.0331381367358
 30
0.0
 11
280.8100473228644
 21
413.0407517199823
 31
0.0
 12
281.2997307922656
 22
416.5368254829738
 32
0.0
 13
281.2997307922656
 23
416.5368254829738
 33
0.0
  0
TEXT
  5
6D7
  8
1
 62
     3
 10
202.2490678846947
 20
254.0195258398838
 30
0.0
 40
3.5
  1
90%%d
 50
40.29890702251101
 41
0.9
  7
CONVERTER_11
  0
ENDBLK
  5
6D9
  8
0
  0
BLOCK
  8
0
  2
*X124
 70
     1
 10
0.0
 20
0.0
 30
0.0
  3
*X124
  1

  0
TEXT
  5
711
  8
1
  6
CONTINUOUS
 62
     3
 10
199.5647471393306
 20
-331.9124492222488
 30
0.0
 40
3.0
  1
APPLICAZIONE 2
 41
0.9
  7
CONVERTER_11
  0
TEXT
  5
712
  8
1
  6
CONTINUOUS
 62
     3
 10
199.5647471393306
 20
-336.8572271334132
 30
0.0
 40
3.0
  1
APERTURA 180\U+00b0
 41
0.9
  7
CONVERTER_11
  0
ENDBLK
  5
714
  8
0
  0
BLOCK
  8
0
  2
*X125
 70
     1
 10
0.0
 20
0.0
 30
0.0
  3
*X125
  1

  0
TEXT
  5
716
  8
1
  6
CONTINUOUS
 62
     3
 10
-1212.947304890311
 20
-315.8611759037298
 30
0.0
 40
3.0
  1
APPLICAZIONE 2
 41
0.9
  7
CONVERTER_11
  0
TEXT
  5
717
  8
1
  6
CONTINUOUS
 62
     3
 10
-1212.947304890311
 20
-320.8059538148942
 30
0.0
 40
3.0
  1
APERTURA 135\U+00b0
 41
0.9
  7
CONVERTER_11
  0
ENDBLK
  5
719
  8
0
  0
BLOCK
  8
0
  2
*X126
 70
     1
 10
0.0
 20
0.0
 30
0.0
  3
*X126
  1

  0
TEXT
  5
71B
  8
1
  6
CONTINUOUS
 62
     3
 10
-1475.229163816321
 20
520.1529079048622
 30
0.0
 40
3.0
  1
APPLICAZIONE 2
 41
0.9
  7
CONVERTER_11
  0
TEXT
  5
71C
  8
1
  6
CONTINUOUS
 62
     3
 10
-1475.229163816321
 20
515.2081299936978
 30
0.0
 40
3.0
  1
APERTURA 0\U+00b0
 41
0.9
  7
CONVERTER_11
  0
ENDBLK
  5
71E
  8
0
  0
BLOCK
  8
0
  2
*X127
 70
     1
 10
0.0
 20
0.0
 30
0.0
  3
*X127
  1

  0
TEXT
  5
720
  8
1
  6
CONTINUOUS
 62
     3
 10
-486.6238634284834
 20
525.0631991319542
 30
0.0
 40
3.0
  1
APPLICAZIONE 2
 41
0.9
  7
CONVERTER_11
  0
TEXT
  5
721
  8
1
  6
CONTINUOUS
 62
     3
 10
-486.6238634284834
 20
520.1184212207897
 30
0.0
 40
3.0
  1
APERTURA 45\U+00b0
 41
0.9
  7
CONVERTER_11
  0
ENDBLK
  5
723
  8
0
  0
BLOCK
  8
0
  2
*X128
 70
     1
 10
0.0
 20
0.0
 30
0.0
  3
*X128
  1

  0
TEXT
  5
725
  8
1
  6
CONTINUOUS
 62
     3
 10
359.5829913736866
 20
515.2426166777702
 30
0.0
 40
3.0
  1
APPLICAZIONE 2
 41
0.9
  7
CONVERTER_11
  0
TEXT
  5
726
  8
1
  6
CONTINUOUS
 62
     3
 10
359.5829913736866
 20
510.2978387666058
 30
0.0
 40
3.0
  1
APERTURA 90\U+00b0
 41
0.9
  7
CONVERTER_11
  0
ENDBLK
  5
728
  8
0
  0
BLOCK
  8
0
  2
*X129
 70
     1
 10
0.0
 20
0.0
 30
0.0
  3
*X129
  1

  0
TEXT
  5
72A
  8
1
  6
CONTINUOUS
 62
     3
 10
739.9197293895678
 20
-933.5868308524398
 30
0.0
 40
2.8
  1
IL PRESENTE DISEGNO E' DI
 41
1.188
  7
CONVERTER_12
  0
TEXT
  5
72B
  8
1
  6
CONTINUOUS
 62
     3
 10
739.9929101895677
 20
-936.4165227291904
 30
0.0
 40
2.8
  1
PROPRIETA' DELLA DITTA
 41
1.188
  7
CONVERTER_12
  0
TEXT
  5
72C
  8
1
  6
CONTINUOUS
 62
     3
 10
740.0128685895678
 20
-939.2462146059411
 30
0.0
 40
2.8
  1
KRONA-KOBLENZ s.p.a. CHE NE
 41
1.188
  7
CONVERTER_12
  0
TEXT
  5
72D
  8
1
  6
CONTINUOUS
 62
     3
 10
739.9929101895677
 20
-942.0759064826917
 30
0.0
 40
2.8
  1
PUO' RIVENDICARE I DIRITTI NEL
 41
1.188
  7
CONVERTER_12
  0
TEXT
  5
72E
  8
1
  6
CONTINUOUS
 62
     3
 10
740.1193133895678
 20
-944.9055983594424
 30
0.0
 40
2.8
  1
CASO ESSO VENGA RIPRODOTTO
 41
1.188
  7
CONVERTER_12
  0
TEXT
  5
72F
  8
1
  6
CONTINUOUS
 62
     3
 10
740.1292925895677
 20
-947.735290236193
 30
0.0
 40
2.8
  1
O DIVULGATO A TERZI
 41
1.188
  7
CONVERTER_12
  0
ENDBLK
  5
731
  8
0
  0
BLOCK
  8
0
  2
*X130
 70
     1
 10
0.0
 20
0.0
 30
0.0
  3
*X130
  1

  0
TEXT
  5
733
  8
1
  6
CONTINUOUS
 62
     3
 10
741.0564665597108
 20
-956.0596203600953
 30
0.0
 40
2.8
  1
QUOTE SENZA INDICAZIONE
 41
1.188
  7
CONVERTER_12
  0
TEXT
  5
734
  8
1
  6
CONTINUOUS
 62
     3
 10
740.8967993597107
 20
-958.889312236846
 30
0.0
 40
2.8
  1
DI TOLLERANZA:
 41
1.188
  7
CONVERTER_12
  0
TEXT
  5
735
  8
1
  6
CONTINUOUS
 62
     3
 10
741.0098969597108
 20
-961.7190041135966
 30
0.0
 40
2.8
  1
GRADO DI PRECISIONE ISO 2768-mK
 41
1.188
  7
CONVERTER_12
  0
ENDBLK
  5
737
  8
0
  0
ENDSEC
  0
SECTION
  2
ENTITIES
  0
INSERT
  5
21F
  8
0
  2
IN_ALTO11
 10
-23.43140000000221
 20
-358.3185
 30
0.0
  0
INSERT
  5
220
  8
0
  2
IN_ALTO10
 10
-1412.205900000004
 20
-358.3185
 30
0.0
  0
INSERT
  5
221
  8
0
  2
IN_ALTO7
 10
-1662.8033
 20
497.3653
 30
0.0
  0
INSERT
  5
222
  8
0
  2
IN_ALTO8
 10
-704.3278000000038
 20
497.3653000000001
 30
0.0
  0
INSERT
  5
223
  8
0
  2
IN_ALTO9
 10
126.8928999999952
 20
497.3653000000001
 30
0.0
  0
INSERT
  5
224
  8
0
  2
_TECNICI__106
 10
896.677992465922
 20
-964.9430041135968
 30
0.0
  0
ENDSEC
  0
EOF
