  0
SECTION
  2
HEADER
  9
$ACADVER
  1
AC1015
  9
$ACADMAINTVER
 70
    20
  9
$DWGCODEPAGE
  3
ANSI_1252
  9
$INSBASE
 10
0.0
 20
0.0
 30
0.0
  9
$EXTMIN
 10
1537.621226830179
 20
196.2268332779549
 30
0.0
  9
$EXTMAX
 10
1723.252608075569
 20
434.2268332779549
 30
0.0
  9
$LIMMIN
 10
0.0
 20
0.0
  9
$LIMMAX
 10
420.0
 20
297.0
  9
$ORTHOMODE
 70
     0
  9
$REGENMODE
 70
     1
  9
$FILLMODE
 70
     1
  9
$QTEXTMODE
 70
     0
  9
$MIRRTEXT
 70
     1
  9
$LTSCALE
 40
1.0
  9
$ATTMODE
 70
     1
  9
$TEXTSIZE
 40
0.2
  9
$TRACEWID
 40
1.0
  9
$TEXTSTYLE
  7
STANDARD
  9
$CLAYER
  8
Hawa2
  9
$CELTYPE
  6
BYLAYER
  9
$CECOLOR
 62
   256
  9
$CELTSCALE
 40
0.2
  9
$DISPSILH
 70
     0
  9
$DIMSCALE
 40
1.0
  9
$DIMASZ
 40
2.0
  9
$DIMEXO
 40
2.0
  9
$DIMDLI
 40
0.0
  9
$DIMRND
 40
0.0
  9
$DIMDLE
 40
1.0
  9
$DIMEXE
 40
1.0
  9
$DIMTP
 40
0.0
  9
$DIMTM
 40
0.0
  9
$DIMTXT
 40
3.5
  9
$DIMCEN
 40
0.0
  9
$DIMTSZ
 40
0.0
  9
$DIMTOL
 70
     0
  9
$DIMLIM
 70
     0
  9
$DIMTIH
 70
     0
  9
$DIMTOH
 70
     0
  9
$DIMSE1
 70
     0
  9
$DIMSE2
 70
     0
  9
$DIMTAD
 70
     1
  9
$DIMZIN
 70
     8
  9
$DIMBLK
  1

  9
$DIMASO
 70
     1
  9
$DIMSHO
 70
     1
  9
$DIMPOST
  1

  9
$DIMAPOST
  1

  9
$DIMALT
 70
     1
  9
$DIMALTD
 70
     5
  9
$DIMALTF
 40
0.039370078740157
  9
$DIMLFAC
 40
1.0
  9
$DIMTOFL
 70
     1
  9
$DIMTVP
 40
0.0
  9
$DIMTIX
 70
     1
  9
$DIMSOXD
 70
     0
  9
$DIMSAH
 70
     1
  9
$DIMBLK1
  1
Oblique
  9
$DIMBLK2
  1
Oblique
  9
$DIMSTYLE
  2
HAWA-Strich
  9
$DIMCLRD
 70
   256
  9
$DIMCLRE
 70
   256
  9
$DIMCLRT
 70
   256
  9
$DIMTFAC
 40
0.7114285714285716
  9
$DIMGAP
 40
1.0
  9
$DIMJUST
 70
     0
  9
$DIMSD1
 70
     0
  9
$DIMSD2
 70
     0
  9
$DIMTOLJ
 70
     1
  9
$DIMTZIN
 70
     8
  9
$DIMALTZ
 70
     8
  9
$DIMALTTZ
 70
     8
  9
$DIMUPT
 70
     0
  9
$DIMDEC
 70
     1
  9
$DIMTDEC
 70
     1
  9
$DIMALTU
 70
     4
  9
$DIMALTTD
 70
     5
  9
$DIMTXSTY
  7
Beschlag
  9
$DIMAUNIT
 70
     0
  9
$DIMADEC
 70
     1
  9
$DIMALTRND
 40
0.0
  9
$DIMAZIN
 70
     2
  9
$DIMDSEP
 70
    46
  9
$DIMATFIT
 70
     3
  9
$DIMFRAC
 70
     0
  9
$DIMLDRBLK
  1
Oblique
  9
$DIMLUNIT
 70
     2
  9
$DIMLWD
 70
    -2
  9
$DIMLWE
 70
    -2
  9
$DIMTMOVE
 70
     2
  9
$LUNITS
 70
     2
  9
$LUPREC
 70
     4
  9
$SKETCHINC
 40
1.0
  9
$FILLETRAD
 40
2.5
  9
$AUNITS
 70
     0
  9
$AUPREC
 70
     0
  9
$MENU
  1
.
  9
$ELEVATION
 40
0.0
  9
$PELEVATION
 40
0.0
  9
$THICKNESS
 40
0.0
  9
$LIMCHECK
 70
     0
  9
$CHAMFERA
 40
2.5
  9
$CHAMFERB
 40
2.5
  9
$CHAMFERC
 40
0.0
  9
$CHAMFERD
 40
0.0
  9
$SKPOLY
 70
     0
  9
$TDCREATE
 40
2305814.083842720
  9
$TDUCREATE
 40
6.0000000000
  9
$TDUPDATE
 40
2453766.631864803
  9
$TDUUPDATE
 40
2453766.590198136
  9
$TDINDWG
 40
1.2845749306
  9
$TDUSRTIMER
 40
1.2845709838
  9
$USRTIMER
 70
     1
  9
$ANGBASE
 50
0.0
  9
$ANGDIR
 70
     0
  9
$PDMODE
 70
     0
  9
$PDSIZE
 40
0.0
  9
$PLINEWID
 40
0.0
  9
$SPLFRAME
 70
     0
  9
$SPLINETYPE
 70
     6
  9
$SPLINESEGS
 70
     8
  9
$HANDSEED
  5
30A30
  9
$SURFTAB1
 70
     6
  9
$SURFTAB2
 70
     6
  9
$SURFTYPE
 70
     6
  9
$SURFU
 70
     6
  9
$SURFV
 70
     6
  9
$UCSBASE
  2

  9
$UCSNAME
  2

  9
$UCSORG
 10
-353.088219527999
 20
231.1976598478357
 30
0.0
  9
$UCSXDIR
 10
1.0
 20
0.0
 30
0.0
  9
$UCSYDIR
 10
0.0
 20
1.0
 30
0.0
  9
$UCSORTHOREF
  2

  9
$UCSORTHOVIEW
 70
     0
  9
$UCSORGTOP
 10
0.0
 20
0.0
 30
0.0
  9
$UCSORGBOTTOM
 10
0.0
 20
0.0
 30
0.0
  9
$UCSORGLEFT
 10
0.0
 20
0.0
 30
0.0
  9
$UCSORGRIGHT
 10
0.0
 20
0.0
 30
0.0
  9
$UCSORGFRONT
 10
0.0
 20
0.0
 30
0.0
  9
$UCSORGBACK
 10
0.0
 20
0.0
 30
0.0
  9
$PUCSBASE
  2

  9
$PUCSNAME
  2

  9
$PUCSORG
 10
0.0
 20
0.0
 30
0.0
  9
$PUCSXDIR
 10
1.0
 20
0.0
 30
0.0
  9
$PUCSYDIR
 10
0.0
 20
1.0
 30
0.0
  9
$PUCSORTHOREF
  2

  9
$PUCSORTHOVIEW
 70
     0
  9
$PUCSORGTOP
 10
0.0
 20
0.0
 30
0.0
  9
$PUCSORGBOTTOM
 10
0.0
 20
0.0
 30
0.0
  9
$PUCSORGLEFT
 10
0.0
 20
0.0
 30
0.0
  9
$PUCSORGRIGHT
 10
0.0
 20
0.0
 30
0.0
  9
$PUCSORGFRONT
 10
0.0
 20
0.0
 30
0.0
  9
$PUCSORGBACK
 10
0.0
 20
0.0
 30
0.0
  9
$USERI1
 70
     0
  9
$USERI2
 70
     0
  9
$USERI3
 70
     0
  9
$USERI4
 70
     0
  9
$USERI5
 70
     0
  9
$USERR1
 40
0.0
  9
$USERR2
 40
0.0
  9
$USERR3
 40
0.0
  9
$USERR4
 40
0.0
  9
$USERR5
 40
0.0
  9
$WORLDVIEW
 70
     1
  9
$SHADEDGE
 70
     3
  9
$SHADEDIF
 70
    70
  9
$TILEMODE
 70
     1
  9
$MAXACTVP
 70
    48
  9
$PINSBASE
 10
0.0
 20
0.0
 30
0.0
  9
$PLIMCHECK
 70
     0
  9
$PEXTMIN
 10
0.0
 20
0.0
 30
0.0
  9
$PEXTMAX
 10
221.361404
 20
334.895752
 30
2.0
  9
$PLIMMIN
 10
0.0
 20
0.0
  9
$PLIMMAX
 10
420.0
 20
297.0
  9
$UNITMODE
 70
     0
  9
$VISRETAIN
 70
     0
  9
$PLINEGEN
 70
     0
  9
$PSLTSCALE
 70
     1
  9
$TREEDEPTH
 70
  3020
  9
$CMLSTYLE
  2
STANDARD
  9
$CMLJUST
 70
     0
  9
$CMLSCALE
 40
20.0
  9
$PROXYGRAPHICS
 70
     1
  9
$MEASUREMENT
 70
     1
  9
$CELWEIGHT
370
    -1
  9
$ENDCAPS
280
     0
  9
$JOINSTYLE
280
     0
  9
$LWDISPLAY
290
     0
  9
$INSUNITS
 70
     0
  9
$HYPERLINKBASE
  1

  9
$STYLESHEET
  1
monochrome.ctb
  9
$XEDIT
290
     1
  9
$CEPSNTYPE
380
     0
  9
$PSTYLEMODE
290
     1
  9
$FINGERPRINTGUID
  2
{EE8D7B51-278C-4CD6-A565-B272EFE7F033}
  9
$VERSIONGUID
  2
{3041B12A-44B2-47F0-A4DA-6BC091144997}
  9
$EXTNAMES
290
     1
  9
$PSVPSCALE
 40
0.0
  9
$OLESTARTUP
290
     0
  0
ENDSEC
  0
SECTION
  2
CLASSES
  0
CLASS
  1
IMAGE
  2
AcDbRasterImage
  3
ISM
 90
    32895
280
     0
281
     1
  0
CLASS
  1
DICTIONARYVAR
  2
AcDbDictionaryVar
  3
ObjectDBX Classes
 90
        0
280
     0
281
     0
  0
CLASS
  1
RASTERVARIABLES
  2
AcDbRasterVariables
  3
ISM
 90
    32768
280
     0
281
     0
  0
CLASS
  1
IMAGEDEF
  2
AcDbRasterImageDef
  3
ISM
 90
    32768
280
     0
281
     0
  0
CLASS
  1
IMAGEDEF_REACTOR
  2
AcDbRasterImageDefReactor
  3
ISM
 90
    32769
280
     0
281
     0
  0
CLASS
  1
IDBUFFER
  2
AcDbIdBuffer
  3
ObjectDBX Classes
 90
    32768
280
     0
281
     0
  0
CLASS
  1
SPATIAL_FILTER
  2
AcDbSpatialFilter
  3
ObjectDBX Classes
 90
    32768
280
     0
281
     0
  0
CLASS
  1
SORTENTSTABLE
  2
AcDbSortentsTable
  3
ObjectDBX Classes
 90
    32768
280
     0
281
     0
  0
CLASS
  1
LAYER_INDEX
  2
AcDbLayerIndex
  3
ObjectDBX Classes
 90
    32768
280
     0
281
     0
  0
CLASS
  1
SPATIAL_INDEX
  2
AcDbSpatialIndex
  3
ObjectDBX Classes
 90
    32768
280
     0
281
     0
  0
CLASS
  1
OBJECT_PTR
  2
CAseDLPNTableRecord
  3
"ASE-LPNTableRecord"
 90
    32769
280
     0
281
     0
  0
CLASS
  1
LAYOUT
  2
AcDbLayout
  3
ObjectDBX Classes
 90
        0
280
     0
281
     0
  0
CLASS
  1
PLOTSETTINGS
  2
AcDbPlotSettings
  3
ObjectDBX Classes
 90
    32768
280
     0
281
     0
  0
CLASS
  1
ACDBDICTIONARYWDFLT
  2
AcDbDictionaryWithDefault
  3
ObjectDBX Classes
 90
        0
280
     0
281
     0
  0
CLASS
  1
ACDBPLACEHOLDER
  2
AcDbPlaceHolder
  3
ObjectDBX Classes
 90
        0
280
     0
281
     0
  0
CLASS
  1
VBA_PROJECT
  2
AcDbVbaProject
  3
acad
 90
    32768
280
     0
281
     0
  0
CLASS
  1
WIPEOUT
  2
AcDbWipeout
  3
"WipeOut|Product Desc: Object Enabler for WipeOut entity^I^I^I^I^I^I|Company: Autodesk, Inc.^I^I^I^I^I^I|WEB Address: www.autodesk.com"
 90
    32895
280
     0
281
     1
  0
CLASS
  1
WIPEOUTVARIABLES
  2
AcDbWipeoutVariables
  3
"WipeOut|Product Desc:     WipeOut Dbx Application|Company:          Autodesk, Inc.|WEB Address:      www.autodesk.com"
 90
    32768
280
     0
281
     0
  0
CLASS
  1
RTEXT
  2
RText
  3
RText|AutoCAD Express Tool|expresstools@autodesk.com
 90
    32768
280
     0
281
     1
  0
CLASS
  1
ARCALIGNEDTEXT
  2
AcDbArcAlignedText
  3
ATEXT|AutoCAD Express Tool|expresstools@autodesk.com
 90
    32768
280
     0
281
     1
  0
ENDSEC
  0
SECTION
  2
TABLES
  0
TABLE
  2
VPORT
  5
7
330
0
100
AcDbSymbolTable
 70
     2
  0
VPORT
  5
30A26
330
7
100
AcDbSymbolTableRecord
100
AcDbViewportTableRecord
  2
*Active
 70
     0
 10
0.0
 20
0.0
 11
1.0
 21
1.0
 12
1657.355630151682
 22
312.6684898715923
 13
0.0
 23
0.0
 14
1.0
 24
1.0
 15
0.0
 25
0.0
 16
0.0
 26
0.0
 36
1.0
 17
0.0
 27
0.0
 37
0.0
 40
283.7186601784121
 41
1.613636363636363
 42
50.0
 43
0.0
 44
0.0
 50
0.0
 51
0.0
 71
     0
 72
   100
 73
     1
 74
     1
 75
     0
 76
     0
 77
     0
 78
     0
281
     0
 65
     1
110
-353.088219527999
120
231.1976598478357
130
0.0
111
1.0
121
0.0
131
0.0
112
0.0
122
1.0
132
0.0
 79
     0
146
0.0
  0
ENDTAB
  0
TABLE
  2
LTYPE
  5
4
330
0
100
AcDbSymbolTable
 70
     4
  0
LTYPE
  5
11
330
4
100
AcDbSymbolTableRecord
100
AcDbLinetypeTableRecord
  2
BYBLOCK
 70
     0
  3

 72
    65
 73
     0
 40
0.0
  0
LTYPE
  5
12
330
4
100
AcDbSymbolTableRecord
100
AcDbLinetypeTableRecord
  2
BYLAYER
 70
     0
  3

 72
    65
 73
     0
 40
0.0
  0
LTYPE
  5
13
330
4
100
AcDbSymbolTableRecord
100
AcDbLinetypeTableRecord
  2
CONTINUOUS
 70
     0
  3
Solid line
 72
    65
 73
     0
 40
0.0
  0
LTYPE
  5
1D
330
4
100
AcDbSymbolTableRecord
100
AcDbLinetypeTableRecord
  2
DASHED
 70
     0
  3
__ __ __ __ __ __ __ __ __ __ __ __ __ __ __ __
 72
    65
 73
     2
 40
15.0
 49
12.0
 74
     0
 49
-3.0
 74
     0
  0
LTYPE
  5
1E
330
4
100
AcDbSymbolTableRecord
100
AcDbLinetypeTableRecord
  2
DASHDOT
 70
     0
  3
 __ . __ . __ . __ . __ . __ . __ . 
 72
    65
 73
     4
 40
18.5
 49
12.0
 74
     0
 49
-3.0
 74
     0
 49
0.5
 74
     0
 49
-3.0
 74
     0
  0
LTYPE
  5
22
330
4
100
AcDbSymbolTableRecord
100
AcDbLinetypeTableRecord
  2
PHANTOM
 70
     0
  3
____________    ____    ____   _
 72
    65
 73
     6
 40
20.0
 49
10.0
 74
     0
 49
-2.0
 74
     0
 49
2.0
 74
     0
 49
-2.0
 74
     0
 49
2.0
 74
     0
 49
-2.0
 74
     0
  0
ENDTAB
  0
TABLE
  2
LAYER
  5
2
330
0
100
AcDbSymbolTable
 70
     7
  0
LAYER
  5
14
330
2
100
AcDbSymbolTableRecord
100
AcDbLayerTableRecord
  2
0
 70
     0
 62
     7
  6
CONTINUOUS
370
    -3
390
5C50
  0
LAYER
  5
5C73
330
2
100
AcDbSymbolTableRecord
100
AcDbLayerTableRecord
  2
Defpoints
 70
     0
 62
     7
  6
CONTINUOUS
290
     0
370
    -3
390
5C50
  0
LAYER
  5
99B0
330
2
100
AcDbSymbolTableRecord
100
AcDbLayerTableRecord
  2
Hawa6
 70
     0
 62
     3
  6
CONTINUOUS
370
    35
390
5C50
  0
LAYER
  5
AC9F
330
2
100
AcDbSymbolTableRecord
100
AcDbLayerTableRecord
  2
Hawa5
 70
     0
 62
     1
  6
CONTINUOUS
370
    -3
390
5C50
  0
LAYER
  5
AE2C
330
2
100
AcDbSymbolTableRecord
100
AcDbLayerTableRecord
  2
Hawa1
 70
     0
 62
     2
  6
CONTINUOUS
370
    -3
390
5C50
  0
LAYER
  5
B3FC
330
2
100
AcDbSymbolTableRecord
100
AcDbLayerTableRecord
  2
Hawa2
 70
     0
 62
     9
  6
CONTINUOUS
370
    -3
390
5C50
  0
LAYER
  5
B3FD
330
2
100
AcDbSymbolTableRecord
100
AcDbLayerTableRecord
  2
Hawa4
 70
     0
 62
     4
  6
CONTINUOUS
370
    -3
390
5C50
  0
ENDTAB
  0
TABLE
  2
STYLE
  5
3
330
0
100
AcDbSymbolTable
 70
     2
  0
STYLE
  5
17
330
3
100
AcDbSymbolTableRecord
100
AcDbTextStyleTableRecord
  2
STANDARD
 70
     0
 40
0.0
 41
1.0
 50
0.0
 71
     0
 42
0.2
  3
isocp.shx
  4

  0
STYLE
  5
B3FF
330
3
100
AcDbSymbolTableRecord
100
AcDbTextStyleTableRecord
  2
Beschlag
 70
     0
 40
0.0
 41
0.9
 50
0.0
 71
     0
 42
3.5
  3
ARIAL.TTF
  4

1001
ACAD
1000
Arial
1071
       34
  0
ENDTAB
  0
TABLE
  2
VIEW
  5
5
330
0
100
AcDbSymbolTable
 70
     0
  0
ENDTAB
  0
TABLE
  2
UCS
  5
6
330
0
100
AcDbSymbolTable
 70
     0
  0
ENDTAB
  0
TABLE
  2
APPID
  5
8
330
0
100
AcDbSymbolTable
 70
     1
  0
APPID
  5
16
330
8
100
AcDbSymbolTableRecord
100
AcDbRegAppTableRecord
  2
ACAD
 70
     0
  0
ENDTAB
  0
TABLE
  2
DIMSTYLE
  5
9
330
0
100
AcDbSymbolTable
 70
     2
100
AcDbDimStyleTable
 71
     2
340
B74C
340
18
  0
DIMSTYLE
105
18
330
9
100
AcDbSymbolTableRecord
100
AcDbDimStyleTableRecord
  2
STANDARD
 70
     0
 41
2.5
 42
0.625
 43
3.75
 44
1.25
 73
     0
 74
     0
 77
     1
 78
     8
140
2.5
141
2.5
143
0.03937
147
0.625
171
     3
172
     1
271
     2
272
     2
274
     3
283
     0
284
     8
340
17
  0
DIMSTYLE
105
B74C
102
{ACAD_REACTORS
330
30472
330
3047F
330
3048C
330
30499
330
304C7
330
304E6
330
3052C
330
30566
102
}
330
9
100
AcDbSymbolTableRecord
100
AcDbDimStyleTableRecord
  2
HAWA-Strich
 70
     0
 41
2.0
 42
2.0
 43
0.0
 44
1.0
 46
1.0
 73
     0
 74
     0
 77
     1
 78
     8
 79
     2
140
3.5
141
0.0
143
0.039370078740157
146
0.7114285714285716
147
1.0
170
     1
171
     5
172
     1
173
     1
174
     1
176
   256
177
   256
178
   256
179
     1
271
     1
272
     1
273
     4
274
     5
279
     2
284
     8
285
     8
286
     8
340
B3FF
341
B369
343
B369
344
B369
  0
ENDTAB
  0
TABLE
  2
BLOCK_RECORD
  5
1
330
0
100
AcDbSymbolTable
 70
    13
  0
BLOCK_RECORD
  5
A
330
1
100
AcDbSymbolTableRecord
100
AcDbBlockTableRecord
  2
*MODEL_SPACE
340
5C55
  0
BLOCK_RECORD
  5
B
330
1
100
AcDbSymbolTableRecord
100
AcDbBlockTableRecord
  2
*PAPER_SPACE
340
5C56
  0
BLOCK_RECORD
  5
B369
330
1
100
AcDbSymbolTableRecord
100
AcDbBlockTableRecord
  2
_Oblique
340
0
102
{BLKREFS
331
309C9
331
309CA
331
309D2
331
309D3
331
309DB
331
309DC
331
309E5
331
309E6
331
309EE
331
309EF
331
309F8
331
309F9
331
30A01
331
30A02
331
30A0A
331
30A0B
102
}
  0
BLOCK_RECORD
  5
B36D
330
1
100
AcDbSymbolTableRecord
100
AcDbBlockTableRecord
  2
NullPunkt
340
0
310
2800000020000000200000000100080000000000000400000000000000000000000000000000000000000000000080000080000000808000800000008000800080800000C0C0C000C0DCC000F0CAA6000020400000206000002080000020A0000020C0000020E00000400000004020000040400000406000004080000040A0
310
000040C0000040E00000600000006020000060400000606000006080000060A0000060C0000060E00000800000008020000080400000806000008080000080A0000080C0000080E00000A0000000A0200000A0400000A0600000A0800000A0A00000A0C00000A0E00000C0000000C0200000C0400000C0600000C0800000C0
310
A00000C0C00000C0E00000E0000000E0200000E0400000E0600000E0800000E0A00000E0C00000E0E00040000000400020004000400040006000400080004000A0004000C0004000E00040200000402020004020400040206000402080004020A0004020C0004020E000404000004040200040404000404060004040800040
310
40A0004040C0004040E00040600000406020004060400040606000406080004060A0004060C0004060E00040800000408020004080400040806000408080004080A0004080C0004080E00040A0000040A0200040A0400040A0600040A0800040A0A00040A0C00040A0E00040C0000040C0200040C0400040C0600040C08000
310
40C0A00040C0C00040C0E00040E0000040E0200040E0400040E0600040E0800040E0A00040E0C00040E0E00080000000800020008000400080006000800080008000A0008000C0008000E00080200000802020008020400080206000802080008020A0008020C0008020E00080400000804020008040400080406000804080
310
008040A0008040C0008040E00080600000806020008060400080606000806080008060A0008060C0008060E00080800000808020008080400080806000808080008080A0008080C0008080E00080A0000080A0200080A0400080A0600080A0800080A0A00080A0C00080A0E00080C0000080C0200080C0400080C0600080C0
310
800080C0A00080C0C00080C0E00080E0000080E0200080E0400080E0600080E0800080E0A00080E0C00080E0E000C0000000C0002000C0004000C0006000C0008000C000A000C000C000C000E000C0200000C0202000C0204000C0206000C0208000C020A000C020C000C020E000C0400000C0402000C0404000C0406000C0
310
408000C040A000C040C000C040E000C0600000C0602000C0604000C0606000C0608000C060A000C060C000C060E000C0800000C0802000C0804000C0806000C0808000C080A000C080C000C080E000C0A00000C0A02000C0A04000C0A06000C0A08000C0A0A000C0A0C000C0A0E000C0C00000C0C02000C0C04000C0C06000
310
C0C08000C0C0A000F0FBFF00A4A0A000808080000000FF0000FF000000FFFF00FF000000FF00FF00FFFF0000FFFFFF00000000000000000000000000000000000000000000000000000000000000000000000000000000000000000000000000F9000000000000000000000000000000000000000000000000000000F9F9F9
310
F9F9F9000000000000000000000000000000000000000000000000F9F900000000F9F9F9F9F9F9000000000000000000000000000000000000F9F9000000000000F90000F90000F9000000000000000000000000000000F9F90000000000000000F9000000F90000F900000000000000000000000000F90000000000000000
310
0000F900000000F90000F9F90000000000000000000000F900000000000000000000F90000000000F9000000F9000000000000000000F90000000000000000000000F9000000000000F9000000F90000000000000000F90000000000000000000000F9000000000000F9000000F900000000000000F9000000000000000000
310
000000F900000000000000F9000000F9000000000000F9000000000000000000000000F90000000000000000F90000F90000000000F900000000000000000000000000F9000000000000000000F90000F900000000F900000000000000000000000000F900000000000000000000F900F900000000F9000000000000000000
310
00000000F90000000000000000000000F9F900000000F900000000000000000000000000F9000000000000000000000000F9F90000F9F9F9F9F9F9F9F9F9F9F9F9F9F9F9F9F9F9F9F9F9F9F9F9F9F9F9F9F9F9000000F900000000000000000000000000F900000000000000000000000000F9000000F9F900000000000000
310
0000000000F9000000000000000000000000F900000000F900F90000000000000000000000F9000000000000000000000000F90000000000F900F900000000000000000000F90000000000000000000000F9000000000000F90000F9000000000000000000F90000000000000000000000F900000000000000F90000F90000
310
000000000000F900000000000000000000F90000000000000000F9000000F9F9000000000000F900000000000000000000F9000000000000000000F900000000F90000000000F9000000000000000000F900000000000000000000F90000000000F900000000F90000000000000000F9000000000000000000000000F9F900
310
000000F9000000F9000000000000F9F9000000000000000000000000000000F9F9000000F90000F90000000000F900000000000000000000000000000000000000F9F90000F900F900F9F9F9F900000000000000000000000000000000000000000000F9F9F9F9F9F900000000000000000000000000000000000000000000
310
0000000000000000F90000000000000000000000000000000000000000000000000000000000000000000000000000000000000000000000
102
{BLKREFS
331
3091E
331
3091F
331
30920
102
}
  0
BLOCK_RECORD
  5
30473
330
1
100
AcDbSymbolTableRecord
100
AcDbBlockTableRecord
  2
*D2
340
0
  0
BLOCK_RECORD
  5
30480
330
1
100
AcDbSymbolTableRecord
100
AcDbBlockTableRecord
  2
*D3
340
0
  0
BLOCK_RECORD
  5
3048D
330
1
100
AcDbSymbolTableRecord
100
AcDbBlockTableRecord
  2
*D4
340
0
  0
BLOCK_RECORD
  5
3049A
330
1
100
AcDbSymbolTableRecord
100
AcDbBlockTableRecord
  2
*D5
340
0
  0
BLOCK_RECORD
  5
304C8
330
1
100
AcDbSymbolTableRecord
100
AcDbBlockTableRecord
  2
*D6
340
0
  0
BLOCK_RECORD
  5
304E7
330
1
100
AcDbSymbolTableRecord
100
AcDbBlockTableRecord
  2
*D7
340
0
  0
BLOCK_RECORD
  5
3052D
330
1
100
AcDbSymbolTableRecord
100
AcDbBlockTableRecord
  2
*D8
340
0
  0
BLOCK_RECORD
  5
30567
330
1
100
AcDbSymbolTableRecord
100
AcDbBlockTableRecord
  2
*D9
340
0
  0
BLOCK_RECORD
  5
305E7
330
1
100
AcDbSymbolTableRecord
100
AcDbBlockTableRecord
  2
15513
340
0
310
2800000020000000200000000100080000000000000400000000000000000000000000000000000000000000000080000080000000808000800000008000800080800000C0C0C000C0DCC000F0CAA6000020400000206000002080000020A0000020C0000020E00000400000004020000040400000406000004080000040A0
310
000040C0000040E00000600000006020000060400000606000006080000060A0000060C0000060E00000800000008020000080400000806000008080000080A0000080C0000080E00000A0000000A0200000A0400000A0600000A0800000A0A00000A0C00000A0E00000C0000000C0200000C0400000C0600000C0800000C0
310
A00000C0C00000C0E00000E0000000E0200000E0400000E0600000E0800000E0A00000E0C00000E0E00040000000400020004000400040006000400080004000A0004000C0004000E00040200000402020004020400040206000402080004020A0004020C0004020E000404000004040200040404000404060004040800040
310
40A0004040C0004040E00040600000406020004060400040606000406080004060A0004060C0004060E00040800000408020004080400040806000408080004080A0004080C0004080E00040A0000040A0200040A0400040A0600040A0800040A0A00040A0C00040A0E00040C0000040C0200040C0400040C0600040C08000
310
40C0A00040C0C00040C0E00040E0000040E0200040E0400040E0600040E0800040E0A00040E0C00040E0E00080000000800020008000400080006000800080008000A0008000C0008000E00080200000802020008020400080206000802080008020A0008020C0008020E00080400000804020008040400080406000804080
310
008040A0008040C0008040E00080600000806020008060400080606000806080008060A0008060C0008060E00080800000808020008080400080806000808080008080A0008080C0008080E00080A0000080A0200080A0400080A0600080A0800080A0A00080A0C00080A0E00080C0000080C0200080C0400080C0600080C0
310
800080C0A00080C0C00080C0E00080E0000080E0200080E0400080E0600080E0800080E0A00080E0C00080E0E000C0000000C0002000C0004000C0006000C0008000C000A000C000C000C000E000C0200000C0202000C0204000C0206000C0208000C020A000C020C000C020E000C0400000C0402000C0404000C0406000C0
310
408000C040A000C040C000C040E000C0600000C0602000C0604000C0606000C0608000C060A000C060C000C060E000C0800000C0802000C0804000C0806000C0808000C080A000C080C000C080E000C0A00000C0A02000C0A04000C0A06000C0A08000C0A0A000C0A0C000C0A0E000C0C00000C0C02000C0C04000C0C06000
310
C0C08000C0C0A000F0FBFF00A4A0A000808080000000FF0000FF000000FFFF00FF000000FF00FF00FFFF0000FFFFFF00000000000000000000000000000000000000000000000000000000000000000000000000000000000000000000000000FA000000000000000000000000000000000000000000000000000000000000
310
FAFA0000000000000000000000000000000000000000000000000000000000FAFAFAFA00000000000000000000000000000000000000000000000000000000FAFAFAFA0000000000000000000000000000000000000000000000000000000000FA00FA00000000000000000000000000000000000000000000000000000000
310
FA0000FA00000000000000000000000000000000000000000000000000000000FA0000FA00000000000000000000000000000000000000000000000000000000FA0000FA00000000000000000000000000000000000000000000000000000000FA0000FA000000000000000000000000000000000000000000000000000000
310
00FA0000FA00000000000000000000000000000000000000000000000000000000FA0000FA00000000000000000000000000000000000000000000000000000000FA0000FA00000000000000000000000000000000000000000000000000000000FA0000FA0000000000000000000000000000000000000000000000000000
310
0000FA0000FA00000000000000000000000000000000000000000000000000000000FA0000FA00000000000000000000000000000000000000000000000000000000FA0000FA00000000000000000000000000000000000000000000000000000000FA0000FA00000000000000000000000000000000000000000000000000
310
000000FA0000FA00000000000000000000000000000000000000000000000000000000FA0000FA00000000000000000000000000000000000000000000000000000000FA0000FA00000000000000000000000000000000000000000000000000000000FA0000FA000000000000000000000000000000000000000000000000
310
00000000FA0000FA00000000000000000000000000000000000000000000000000000000FA0000FA00000000000000000000000000000000000000000000000000000000FA0000FA00000000000000000000000000000000000000000000000000000000FA0000FA0000000000000000000000000000000000000000000000
310
0000000000FA0000FA00000000000000000000000000000000000000000000000000000000FAFAFA0000000000000000000000000000000000000000000000000000000000FAFAFAFA000000000000000000000000000000000000000000000000000000000000FA0000000000000000000000000000000000000000000000
310
0000000000000000FA0000000000000000000000000000000000000000000000000000000000000000000000000000000000000000000000
102
{BLKREFS
331
305FC
102
}
  0
BLOCK_RECORD
  5
305FD
330
1
100
AcDbSymbolTableRecord
100
AcDbBlockTableRecord
  2
15529_15530
340
0
310
2800000020000000200000000100080000000000000400000000000000000000000000000000000000000000000080000080000000808000800000008000800080800000C0C0C000C0DCC000F0CAA6000020400000206000002080000020A0000020C0000020E00000400000004020000040400000406000004080000040A0
310
000040C0000040E00000600000006020000060400000606000006080000060A0000060C0000060E00000800000008020000080400000806000008080000080A0000080C0000080E00000A0000000A0200000A0400000A0600000A0800000A0A00000A0C00000A0E00000C0000000C0200000C0400000C0600000C0800000C0
310
A00000C0C00000C0E00000E0000000E0200000E0400000E0600000E0800000E0A00000E0C00000E0E00040000000400020004000400040006000400080004000A0004000C0004000E00040200000402020004020400040206000402080004020A0004020C0004020E000404000004040200040404000404060004040800040
310
40A0004040C0004040E00040600000406020004060400040606000406080004060A0004060C0004060E00040800000408020004080400040806000408080004080A0004080C0004080E00040A0000040A0200040A0400040A0600040A0800040A0A00040A0C00040A0E00040C0000040C0200040C0400040C0600040C08000
310
40C0A00040C0C00040C0E00040E0000040E0200040E0400040E0600040E0800040E0A00040E0C00040E0E00080000000800020008000400080006000800080008000A0008000C0008000E00080200000802020008020400080206000802080008020A0008020C0008020E00080400000804020008040400080406000804080
310
008040A0008040C0008040E00080600000806020008060400080606000806080008060A0008060C0008060E00080800000808020008080400080806000808080008080A0008080C0008080E00080A0000080A0200080A0400080A0600080A0800080A0A00080A0C00080A0E00080C0000080C0200080C0400080C0600080C0
310
800080C0A00080C0C00080C0E00080E0000080E0200080E0400080E0600080E0800080E0A00080E0C00080E0E000C0000000C0002000C0004000C0006000C0008000C000A000C000C000C000E000C0200000C0202000C0204000C0206000C0208000C020A000C020C000C020E000C0400000C0402000C0404000C0406000C0
310
408000C040A000C040C000C040E000C0600000C0602000C0604000C0606000C0608000C060A000C060C000C060E000C0800000C0802000C0804000C0806000C0808000C080A000C080C000C080E000C0A00000C0A02000C0A04000C0A06000C0A08000C0A0A000C0A0C000C0A0E000C0C00000C0C02000C0C04000C0C06000
310
C0C08000C0C0A000F0FBFF00A4A0A000808080000000FF0000FF000000FFFF00FF000000FF00FF00FFFF0000FFFFFF000000000000000000000000000000000000000000000000000000000000000000000000000000000000000000FA00000000FA0000000000000000000000000000000000000000000000000000FA0000
310
0000FA0000000000000000000000000000000000000000000000000000FA00000000FA000000000000000000000000000000000000000000000000FAFAFAFAFAFAFAFAFAFA00000000000000000000000000000000000000000000FAFAFAFAFAFAFAFAFAFA00000000000000000000000000000000000000000000FAFAFAFA
310
00FAFAFAFAFA00000000000000000000000000000000000000000000FAFAFAFAFAFA00FA00FAFA000000000000000000000000000000000000000000FAFAFAFAFAFA00FA00FAFAFA0000000000000000000000000000000000000000FAFAFAFAFAFA00FA00FAFAFA0000000000000000000000000000000000000000FAFAFA
310
FAFA00FAFA00FAFAFA0000000000000000000000000000000000000000FAFAFAFAFA00FAFA00FAFAFA0000000000000000000000000000000000000000000000FAFA0000FAFAFAFAFA000000000000000000000000000000000000000000000000000000FA00FAFAFA00000000000000000000000000000000000000000000
310
00000000FAFAFAFAFAFA00000000000000000000000000000000000000000000000000FA00FAFAFAFAFA00000000000000000000000000000000000000000000000000FA00FAFAFAFAFA00000000000000000000000000000000000000000000000000FAFAFAFAFAFAFA000000000000000000000000000000000000000000
310
00000000FAFAFAFAFAFAFA00000000000000000000000000000000000000000000000000FAFAFAFAFAFAFA00000000000000000000000000000000000000000000000000FA00FAFAFAFAFA00000000000000000000000000000000000000000000000000FA00FAFAFAFAFA0000000000000000000000000000000000000000
310
0000000000FA00FAFAFAFAFA00000000000000000000000000000000000000000000000000FAFAFAFAFAFAFA00000000000000000000000000000000000000000000000000FAFAFAFAFAFAFA0000000000000000000000000000000000000000000000000000FAFA00FAFAFA00000000000000000000000000000000000000
310
00000000000000FAFAFAFAFAFA000000000000000000000000000000000000000000000000000000FA0000FAFA000000000000000000000000000000000000000000000000000000FA00000000000000000000000000000000000000000000000000000000000000FA00000000000000000000000000000000000000000000
310
000000000000000000FA00000000000000000000000000000000000000000000000000000000000000000000000000000000000000000000
102
{BLKREFS
331
307BE
102
}
  0
BLOCK_RECORD
  5
307BF
330
1
100
AcDbSymbolTableRecord
100
AcDbBlockTableRecord
  2
15861
340
0
310
2800000020000000200000000100080000000000000400000000000000000000000000000000000000000000000080000080000000808000800000008000800080800000C0C0C000C0DCC000F0CAA6000020400000206000002080000020A0000020C0000020E00000400000004020000040400000406000004080000040A0
310
000040C0000040E00000600000006020000060400000606000006080000060A0000060C0000060E00000800000008020000080400000806000008080000080A0000080C0000080E00000A0000000A0200000A0400000A0600000A0800000A0A00000A0C00000A0E00000C0000000C0200000C0400000C0600000C0800000C0
310
A00000C0C00000C0E00000E0000000E0200000E0400000E0600000E0800000E0A00000E0C00000E0E00040000000400020004000400040006000400080004000A0004000C0004000E00040200000402020004020400040206000402080004020A0004020C0004020E000404000004040200040404000404060004040800040
310
40A0004040C0004040E00040600000406020004060400040606000406080004060A0004060C0004060E00040800000408020004080400040806000408080004080A0004080C0004080E00040A0000040A0200040A0400040A0600040A0800040A0A00040A0C00040A0E00040C0000040C0200040C0400040C0600040C08000
310
40C0A00040C0C00040C0E00040E0000040E0200040E0400040E0600040E0800040E0A00040E0C00040E0E00080000000800020008000400080006000800080008000A0008000C0008000E00080200000802020008020400080206000802080008020A0008020C0008020E00080400000804020008040400080406000804080
310
008040A0008040C0008040E00080600000806020008060400080606000806080008060A0008060C0008060E00080800000808020008080400080806000808080008080A0008080C0008080E00080A0000080A0200080A0400080A0600080A0800080A0A00080A0C00080A0E00080C0000080C0200080C0400080C0600080C0
310
800080C0A00080C0C00080C0E00080E0000080E0200080E0400080E0600080E0800080E0A00080E0C00080E0E000C0000000C0002000C0004000C0006000C0008000C000A000C000C000C000E000C0200000C0202000C0204000C0206000C0208000C020A000C020C000C020E000C0400000C0402000C0404000C0406000C0
310
408000C040A000C040C000C040E000C0600000C0602000C0604000C0606000C0608000C060A000C060C000C060E000C0800000C0802000C0804000C0806000C0808000C080A000C080C000C080E000C0A00000C0A02000C0A04000C0A06000C0A08000C0A0A000C0A0C000C0A0E000C0C00000C0C02000C0C04000C0C06000
310
C0C08000C0C0A000F0FBFF00A4A0A000808080000000FF0000FF000000FFFF00FF000000FF00FF00FFFF0000FFFFFF000000000000000000000000000000000000000000000000000000000000000000000000000000000000000000FA00000000000000000000000000000000000000000000000000000000000000FA0000
310
0000000000000000000000000000000000000000000000000000000000FA00FA00000000000000000000000000000000000000000000000000000000FAFAFAFAFAFA0000000000000000000000000000000000000000000000000000FAFAFAFA0000FAFA0000000000000000000000000000000000000000000000FAFAFA00
310
FA000000FA00000000000000000000000000000000000000000000FAFAFAFAFAFA00000000FA00FA00000000000000000000000000000000000000FAFAFAFAFAFA00000000FAFAFAFA00000000000000000000000000000000000000FAFAFAFAFAFA00000000FAFAFA00000000000000000000000000000000000000FAFAFA
310
FAFAFA00000000FAFAFA00000000000000000000000000000000000000FAFAFAFAFAFA00000000FAFAFA00000000000000000000000000000000000000FAFAFAFAFAFA00000000FAFAFA00000000000000000000000000000000000000FAFAFAFAFA00FAFAFAFAFAFAFA000000000000000000000000000000000000000000
310
00000000000000FAFAFAFA00000000000000000000000000000000000000000000000000000000FAFAFAFA0000000000000000000000000000000000000000000000000000FAFAFAFAFAFA00000000000000000000000000000000000000000000000000FAFAFAFAFAFAFA0000000000000000000000000000000000000000
310
0000000000FAFAFAFAFAFAFA00000000000000000000000000000000000000000000000000FAFAFAFAFAFAFA00000000000000000000000000000000000000000000000000FAFAFAFAFAFAFA00000000000000000000000000000000000000000000000000FAFA00FAFAFAFA00000000000000000000000000000000000000
310
000000000000FA0000FAFAFAFA00000000000000000000000000000000000000000000000000FA0000FAFAFAFA00000000000000000000000000000000000000000000000000FAFAFAFAFAFAFA00000000000000000000000000000000000000000000000000FAFAFAFAFAFAFA000000000000000000000000000000000000
310
00000000000000FAFAFA00FAFAFA00000000000000000000000000000000000000000000000000FAFAFA00FAFAFA0000000000000000000000000000000000000000000000000000FAFAFAFAFAFA000000000000000000000000000000000000000000000000000000000000FAFA0000000000000000000000000000000000
310
00000000000000000000000000FA000000000000000000000000000000000000000000000000000000000000000000000000000000000000
102
{BLKREFS
331
3091C
102
}
  0
ENDTAB
  0
ENDSEC
  0
SECTION
  2
BLOCKS
  0
BLOCK
  5
D
330
A
100
AcDbEntity
  8
0
100
AcDbBlockBegin
  2
*MODEL_SPACE
 70
     0
 10
0.0
 20
0.0
 30
0.0
  3
*MODEL_SPACE
  1

  0
ENDBLK
  5
E
330
A
100
AcDbEntity
  8
0
100
AcDbBlockEnd
  0
BLOCK
  5
F
330
B
100
AcDbEntity
 67
     1
  8
0
100
AcDbBlockBegin
  2
*PAPER_SPACE
 70
     0
 10
0.0
 20
0.0
 30
0.0
  3
*PAPER_SPACE
  1

  0
ENDBLK
  5
10
330
B
100
AcDbEntity
 67
     1
  8
0
100
AcDbBlockEnd
  0
BLOCK
  5
B36A
330
B369
100
AcDbEntity
  8
0
100
AcDbBlockBegin
  2
_Oblique
 70
     0
 10
0.0
 20
0.0
 30
0.0
  3
_Oblique
  1

  0
LINE
  5
B36B
330
B369
100
AcDbEntity
  8
0
 62
     0
370
    -2
100
AcDbLine
 10
-0.5
 20
-0.5
 30
0.0
 11
0.5
 21
0.5
 31
0.0
  0
ENDBLK
  5
B36C
330
B369
100
AcDbEntity
  8
0
100
AcDbBlockEnd
  0
BLOCK
  5
B36E
330
B36D
100
AcDbEntity
  8
0
100
AcDbBlockBegin
  2
NullPunkt
 70
     0
 10
0.0
 20
0.0
 30
0.0
  3
NullPunkt
  1

  0
LINE
  5
C9C1
330
B36D
100
AcDbEntity
  8
Hawa5
100
AcDbLine
 10
-2.0
 20
0.0
 30
0.0
 11
2.0
 21
0.0
 31
0.0
  0
LINE
  5
C9C2
330
B36D
100
AcDbEntity
  8
Hawa5
100
AcDbLine
 10
0.0
 20
2.0
 30
0.0
 11
0.0
 21
-2.0
 31
0.0
  0
SOLID
  5
C9C3
330
B36D
100
AcDbEntity
  8
Hawa5
100
AcDbTrace
 10
0.0
 20
0.0
 30
0.0
 11
2.0
 21
0.0
 31
0.0
 12
0.0
 22
-2.0
 32
0.0
 13
0.0
 23
-2.0
 33
0.0
  0
SOLID
  5
C9C4
330
B36D
100
AcDbEntity
  8
Hawa5
100
AcDbTrace
 10
0.0
 20
0.0
 30
0.0
 11
-2.0
 21
0.0
 31
0.0
 12
0.0
 22
2.0
 32
0.0
 13
0.0
 23
2.0
 33
0.0
  0
CIRCLE
  5
C9C5
330
B36D
100
AcDbEntity
  8
Hawa5
100
AcDbCircle
 10
0.0
 20
0.0
 30
0.0
 40
2.0
  0
ENDBLK
  5
B374
330
B36D
100
AcDbEntity
  8
0
100
AcDbBlockEnd
  0
BLOCK
  5
3047D
330
30473
100
AcDbEntity
  8
0
 48
0.2
100
AcDbBlockBegin
  2
*D2
 70
     1
 10
0.0
 20
0.0
 30
0.0
  3
*D2
  1

  0
LINE
  5
309C6
330
30473
100
AcDbEntity
  8
Hawa1
 48
0.2
370
    -2
100
AcDbLine
 10
1578.204855711996
 20
416.5693887161807
 30
0.0
 11
1578.204855711996
 21
413.1227534465379
 31
0.0
  0
LINE
  5
309C7
330
30473
100
AcDbEntity
  8
Hawa1
 48
0.2
370
    -2
100
AcDbLine
 10
1614.204900665006
 20
416.5693518205702
 30
0.0
 11
1614.204900665006
 21
413.1227534465379
 31
0.0
  0
LINE
  5
309C8
330
30473
100
AcDbEntity
  8
Hawa1
 48
0.2
370
    -2
100
AcDbLine
 10
1577.204855711995
 20
414.1227534465379
 30
0.0
 11
1615.204900665006
 21
414.1227534465379
 31
0.0
  0
INSERT
  5
309C9
330
30473
100
AcDbEntity
  8
Hawa1
 48
0.2
370
    -2
100
AcDbBlockReference
  2
_Oblique
 10
1578.204855711996
 20
414.1227534465379
 30
0.0
 41
2.0
 42
2.0
 43
2.0
 50
180.0
  0
INSERT
  5
309CA
330
30473
100
AcDbEntity
  8
Hawa1
 48
0.2
370
    -2
100
AcDbBlockReference
  2
_Oblique
 10
1614.204900665006
 20
414.1227534465379
 30
0.0
 41
2.0
 42
2.0
 43
2.0
  0
MTEXT
  5
309CB
330
30473
100
AcDbEntity
  8
Hawa1
 48
0.2
100
AcDbMText
 10
1596.204878188501
 20
418.5679530464697
 30
0.0
 40
3.5
 41
0.0
 71
     5
 72
     1
  1
\A1;36 [1{\H0.711429x;\S13/32;}"]
  7
Beschlag
 73
     1
 44
1.0
1001
ACAD
1000
MTEXTBEGIN
1070
    73
1070
     1
1070
    44
1040
1.0
1070
    74
1070
     0
1000
MTEXTEND
  0
POINT
  5
309CC
330
30473
100
AcDbEntity
  8
Defpoints
 62
     0
 48
0.2
100
AcDbPoint
 10
1578.204855711996
 20
418.5693887161807
 30
0.0
  0
POINT
  5
309CD
330
30473
100
AcDbEntity
  8
Defpoints
 62
     0
 48
0.2
100
AcDbPoint
 10
1614.204900665006
 20
418.5693518205702
 30
0.0
  0
POINT
  5
309CE
330
30473
100
AcDbEntity
  8
Defpoints
 62
     0
 48
0.2
100
AcDbPoint
 10
1614.204900665006
 20
414.1227534465379
 30
0.0
  0
ENDBLK
  5
3047E
330
30473
100
AcDbEntity
  8
0
 48
0.2
100
AcDbBlockEnd
  0
BLOCK
  5
3048A
330
30480
100
AcDbEntity
  8
0
 48
0.2
100
AcDbBlockBegin
  2
*D3
 70
     1
 10
0.0
 20
0.0
 30
0.0
  3
*D3
  1

  0
LINE
  5
309CF
330
30480
100
AcDbEntity
  8
Hawa1
 48
0.2
370
    -2
100
AcDbLine
 10
1578.204855711996
 20
403.7499543098927
 30
0.0
 11
1578.204855711996
 21
398.7289443639479
 31
0.0
  0
LINE
  5
309D0
330
30480
100
AcDbEntity
  8
Hawa1
 48
0.2
370
    -2
100
AcDbLine
 10
1610.204848711995
 20
403.7499543098926
 30
0.0
 11
1610.204848711995
 21
398.7289443639479
 31
0.0
  0
LINE
  5
309D1
330
30480
100
AcDbEntity
  8
Hawa1
 48
0.2
370
    -2
100
AcDbLine
 10
1577.204855711995
 20
399.7289443639479
 30
0.0
 11
1611.204848711995
 21
399.7289443639479
 31
0.0
  0
INSERT
  5
309D2
330
30480
100
AcDbEntity
  8
Hawa1
 48
0.2
370
    -2
100
AcDbBlockReference
  2
_Oblique
 10
1578.204855711996
 20
399.7289443639479
 30
0.0
 41
2.0
 42
2.0
 43
2.0
 50
180.0
  0
INSERT
  5
309D3
330
30480
100
AcDbEntity
  8
Hawa1
 48
0.2
370
    -2
100
AcDbBlockReference
  2
_Oblique
 10
1610.204848711995
 20
399.7289443639479
 30
0.0
 41
2.0
 42
2.0
 43
2.0
  0
MTEXT
  5
309D4
330
30480
100
AcDbEntity
  8
Hawa1
 48
0.2
100
AcDbMText
 10
1594.204852211995
 20
404.1248874539888
 30
0.0
 40
3.5
 41
0.0
 71
     5
 72
     1
  1
\A1;32 [1{\H0.711429x;\S1/4;}"]
  7
Beschlag
 73
     1
 44
1.0
1001
ACAD
1000
MTEXTBEGIN
1070
    73
1070
     1
1070
    44
1040
1.0
1070
    74
1070
     0
1000
MTEXTEND
  0
POINT
  5
309D5
330
30480
100
AcDbEntity
  8
Defpoints
 62
     0
 48
0.2
100
AcDbPoint
 10
1578.204855711996
 20
405.7499543098926
 30
0.0
  0
POINT
  5
309D6
330
30480
100
AcDbEntity
  8
Defpoints
 62
     0
 48
0.2
100
AcDbPoint
 10
1610.204848711995
 20
405.7499543098926
 30
0.0
  0
POINT
  5
309D7
330
30480
100
AcDbEntity
  8
Defpoints
 62
     0
 48
0.2
100
AcDbPoint
 10
1610.204848711995
 20
399.7289443639479
 30
0.0
  0
ENDBLK
  5
3048B
330
30480
100
AcDbEntity
  8
0
 48
0.2
100
AcDbBlockEnd
  0
BLOCK
  5
30497
330
3048D
100
AcDbEntity
  8
0
 48
0.2
100
AcDbBlockBegin
  2
*D4
 70
     1
 10
0.0
 20
0.0
 30
0.0
  3
*D4
  1

  0
LINE
  5
309D8
330
3048D
100
AcDbEntity
  8
Hawa1
 48
0.2
370
    -2
100
AcDbLine
 10
1610.204848711995
 20
387.4292212160542
 30
0.0
 11
1610.204848711995
 21
385.722148277955
 31
0.0
  0
LINE
  5
309D9
330
3048D
100
AcDbEntity
  8
Hawa1
 48
0.2
370
    -2
100
AcDbLine
 10
1580.205012711996
 20
387.4292212160542
 30
0.0
 11
1580.205012711996
 21
385.722148277955
 31
0.0
  0
LINE
  5
309DA
330
3048D
100
AcDbEntity
  8
Hawa1
 48
0.2
370
    -2
100
AcDbLine
 10
1611.204848711995
 20
386.722148277955
 30
0.0
 11
1579.205012711995
 21
386.722148277955
 31
0.0
  0
INSERT
  5
309DB
330
3048D
100
AcDbEntity
  8
Hawa1
 48
0.2
370
    -2
100
AcDbBlockReference
  2
_Oblique
 10
1610.204848711995
 20
386.722148277955
 30
0.0
 41
2.0
 42
2.0
 43
2.0
  0
INSERT
  5
309DC
330
3048D
100
AcDbEntity
  8
Hawa1
 48
0.2
370
    -2
100
AcDbBlockReference
  2
_Oblique
 10
1580.205012711996
 20
386.722148277955
 30
0.0
 41
2.0
 42
2.0
 43
2.0
 50
180.0
  0
MTEXT
  5
309DD
330
3048D
100
AcDbEntity
  8
Hawa1
 48
0.2
100
AcDbMText
 10
1595.204930711995
 20
391.1664986277163
 30
0.0
 40
3.5
 41
0.0
 71
     5
 72
     1
  1
\A1;30 [1{\H0.711429x;\S3/16;}"]
  7
Beschlag
 73
     1
 44
1.0
1001
ACAD
1000
MTEXTBEGIN
1070
    73
1070
     1
1070
    44
1040
1.0
1070
    74
1070
     0
1000
MTEXTEND
  0
POINT
  5
309DE
330
3048D
100
AcDbEntity
  8
Defpoints
 62
     0
 48
0.2
100
AcDbPoint
 10
1610.204848711995
 20
389.4292212160542
 30
0.0
  0
POINT
  5
309DF
330
3048D
100
AcDbEntity
  8
Defpoints
 62
     0
 48
0.2
100
AcDbPoint
 10
1580.205012711996
 20
389.4292212160542
 30
0.0
  0
POINT
  5
309E0
330
3048D
100
AcDbEntity
  8
Defpoints
 62
     0
 48
0.2
100
AcDbPoint
 10
1580.205012711996
 20
386.722148277955
 30
0.0
  0
ENDBLK
  5
30498
330
3048D
100
AcDbEntity
  8
0
 48
0.2
100
AcDbBlockEnd
  0
BLOCK
  5
304A6
330
3049A
100
AcDbEntity
  8
0
 48
0.2
100
AcDbBlockBegin
  2
*D5
 70
     1
 10
0.0
 20
0.0
 30
0.0
  3
*D5
  1

  0
LINE
  5
309E1
330
3049A
100
AcDbEntity
  8
Hawa1
 48
0.2
370
    -2
100
AcDbLine
 10
1580.205002077458
 20
388.722148277955
 30
0.0
 11
1580.205002077458
 21
387.722148277955
 31
0.0
  0
LINE
  5
309E2
330
3049A
100
AcDbEntity
  8
Hawa1
 48
0.2
370
    -2
100
AcDbLine
 10
1578.204855711996
 20
388.722148277955
 30
0.0
 11
1578.204855711996
 21
387.722148277955
 31
0.0
  0
LINE
  5
309E3
330
3049A
100
AcDbEntity
  8
Hawa1
 48
0.2
370
    -2
100
AcDbLine
 10
1581.205002077458
 20
386.722148277955
 30
0.0
 11
1578.204855711996
 21
386.722148277955
 31
0.0
  0
LINE
  5
309E4
330
3049A
100
AcDbEntity
  8
Hawa1
 48
0.2
370
    -2
100
AcDbLine
 10
1578.204855711996
 20
386.722148277955
 30
0.0
 11
1563.606721369772
 21
386.722148277955
 31
0.0
  0
INSERT
  5
309E5
330
3049A
100
AcDbEntity
  8
Hawa1
 48
0.2
370
    -2
100
AcDbBlockReference
  2
_Oblique
 10
1580.205002077458
 20
386.722148277955
 30
0.0
 41
2.0
 42
2.0
 43
2.0
  0
INSERT
  5
309E6
330
3049A
100
AcDbEntity
  8
Hawa1
 48
0.2
370
    -2
100
AcDbBlockReference
  2
_Oblique
 10
1578.204855711996
 20
386.722148277955
 30
0.0
 41
2.0
 42
2.0
 43
2.0
 50
180.0
  0
MTEXT
  5
309E7
330
3049A
100
AcDbEntity
  8
Hawa1
 48
0.2
100
AcDbMText
 10
1569.905788540884
 20
391.1673478778868
 30
0.0
 40
3.5
 41
0.0
 71
     5
 72
     1
  1
\A1;2 [{\H0.711429x;\S3/32;}"]
  7
Beschlag
 73
     1
 44
1.0
1001
ACAD
1000
MTEXTBEGIN
1070
    73
1070
     1
1070
    44
1040
1.0
1070
    74
1070
     0
1000
MTEXTEND
  0
POINT
  5
309E8
330
3049A
100
AcDbEntity
  8
Defpoints
 62
     0
 48
0.2
100
AcDbPoint
 10
1580.205002077458
 20
386.722148277955
 30
0.0
  0
POINT
  5
309E9
330
3049A
100
AcDbEntity
  8
Defpoints
 62
     0
 48
0.2
100
AcDbPoint
 10
1578.204855711996
 20
386.722148277955
 30
0.0
  0
POINT
  5
309EA
330
3049A
100
AcDbEntity
  8
Defpoints
 62
     0
 48
0.2
100
AcDbPoint
 10
1578.204855711996
 20
386.722148277955
 30
0.0
  0
ENDBLK
  5
304A7
330
3049A
100
AcDbEntity
  8
0
 48
0.2
100
AcDbBlockEnd
  0
BLOCK
  5
304D2
330
304C8
100
AcDbEntity
  8
0
 48
0.2
100
AcDbBlockBegin
  2
*D6
 70
     1
 10
0.0
 20
0.0
 30
0.0
  3
*D6
  1

  0
LINE
  5
309EB
330
304C8
100
AcDbEntity
  8
Hawa1
 48
0.2
370
    -2
100
AcDbLine
 10
1580.204962711995
 20
373.538387277955
 30
0.0
 11
1580.204962711995
 21
374.9352970278035
 31
0.0
  0
LINE
  5
309EC
330
304C8
100
AcDbEntity
  8
Hawa1
 48
0.2
370
    -2
100
AcDbLine
 10
1608.204988928474
 20
373.5383603093883
 30
0.0
 11
1608.204988928474
 21
374.9352970278035
 31
0.0
  0
LINE
  5
309ED
330
304C8
100
AcDbEntity
  8
Hawa1
 48
0.2
370
    -2
100
AcDbLine
 10
1579.204962711995
 20
373.9352970278035
 30
0.0
 11
1609.204988928474
 21
373.9352970278035
 31
0.0
  0
INSERT
  5
309EE
330
304C8
100
AcDbEntity
  8
Hawa1
 48
0.2
370
    -2
100
AcDbBlockReference
  2
_Oblique
 10
1580.204962711995
 20
373.9352970278035
 30
0.0
 41
2.0
 42
2.0
 43
2.0
 50
180.0
  0
INSERT
  5
309EF
330
304C8
100
AcDbEntity
  8
Hawa1
 48
0.2
370
    -2
100
AcDbBlockReference
  2
_Oblique
 10
1608.204988928474
 20
373.9352970278035
 30
0.0
 41
2.0
 42
2.0
 43
2.0
  0
MTEXT
  5
309F0
330
304C8
100
AcDbEntity
  8
Hawa1
 48
0.2
100
AcDbMText
 10
1594.832214467551
 20
378.3804966277353
 30
0.0
 40
3.5
 41
0.0
 71
     5
 72
     1
  1
\A1;28 [1{\H0.711429x;\S3/32;}"]
  7
Beschlag
 73
     1
 44
1.0
1001
ACAD
1000
MTEXTBEGIN
1070
    73
1070
     1
1070
    44
1040
1.0
1070
    74
1070
     0
1000
MTEXTEND
  0
POINT
  5
309F1
330
304C8
100
AcDbEntity
  8
Defpoints
 62
     0
 48
0.2
100
AcDbPoint
 10
1580.204962711995
 20
371.538387277955
 30
0.0
  0
POINT
  5
309F2
330
304C8
100
AcDbEntity
  8
Defpoints
 62
     0
 48
0.2
100
AcDbPoint
 10
1608.204988928474
 20
371.5383603093883
 30
0.0
  0
POINT
  5
309F3
330
304C8
100
AcDbEntity
  8
Defpoints
 62
     0
 48
0.2
100
AcDbPoint
 10
1608.204988928474
 20
373.9352970278035
 30
0.0
  0
ENDBLK
  5
304D3
330
304C8
100
AcDbEntity
  8
0
 48
0.2
100
AcDbBlockEnd
  0
BLOCK
  5
304F1
330
304E7
100
AcDbEntity
  8
0
 48
0.2
100
AcDbBlockBegin
  2
*D7
 70
     1
 10
0.0
 20
0.0
 30
0.0
  3
*D7
  1

  0
LINE
  5
309F4
330
304E7
100
AcDbEntity
  8
Hawa1
 48
0.2
370
    -2
100
AcDbLine
 10
1595.204749711995
 20
207.2268332779549
 30
0.0
 11
1595.204749711995
 21
206.2268332779549
 31
0.0
  0
LINE
  5
309F5
330
304E7
100
AcDbEntity
  8
Hawa1
 48
0.2
370
    -2
100
AcDbLine
 10
1566.204840711995
 20
207.2268332779549
 30
0.0
 11
1566.204840711995
 21
206.2268332779549
 31
0.0
  0
LINE
  5
309F6
330
304E7
100
AcDbEntity
  8
Hawa1
 48
0.2
370
    -2
100
AcDbLine
 10
1566.204840711995
 20
205.2268332779549
 30
0.0
 11
1596.204749711995
 21
205.2268332779549
 31
0.0
  0
LINE
  5
309F7
330
304E7
100
AcDbEntity
  8
Hawa1
 48
0.2
370
    -2
100
AcDbLine
 10
1595.204749711995
 20
205.2268332779549
 30
0.0
 11
1657.105742171545
 21
205.2268332779549
 31
0.0
  0
INSERT
  5
309F8
330
304E7
100
AcDbEntity
  8
Hawa1
 48
0.2
370
    -2
100
AcDbBlockReference
  2
_Oblique
 10
1566.204840711995
 20
205.2268332779549
 30
0.0
 41
2.0
 42
2.0
 43
2.0
 50
180.0
  0
INSERT
  5
309F9
330
304E7
100
AcDbEntity
  8
Hawa1
 48
0.2
370
    -2
100
AcDbBlockReference
  2
_Oblique
 10
1595.204749711995
 20
205.2268332779549
 30
0.0
 41
2.0
 42
2.0
 43
2.0
  0
MTEXT
  5
309FA
330
304E7
100
AcDbEntity
  8
Hawa1
 48
0.2
100
AcDbMText
 10
1627.15524594177
 20
209.6777525093669
 30
0.0
 40
3.5
 41
0.0
 71
     5
 72
     1
  1
\A1;\A1;29 [1{\H0.711429x;\S5/32;}"] (22.5 [{\H0.7x;\S7/8;}"] / 35.5 [1 {\H0.7x;\S3/8;}"])
  7
Beschlag
 73
     1
 44
1.0
1001
ACAD
1000
MTEXTBEGIN
1070
    73
1070
     1
1070
    44
1040
1.0
1070
    74
1070
     0
1000
MTEXTEND
  0
POINT
  5
309FB
330
304E7
100
AcDbEntity
  8
Defpoints
 62
     0
 48
0.2
100
AcDbPoint
 10
1595.204749711995
 20
205.2268332779549
 30
0.0
  0
POINT
  5
309FC
330
304E7
100
AcDbEntity
  8
Defpoints
 62
     0
 48
0.2
100
AcDbPoint
 10
1566.204840711995
 20
205.2268332779549
 30
0.0
  0
POINT
  5
309FD
330
304E7
100
AcDbEntity
  8
Defpoints
 62
     0
 48
0.2
100
AcDbPoint
 10
1566.204840711995
 20
205.2268332779549
 30
0.0
  0
ENDBLK
  5
304F2
330
304E7
100
AcDbEntity
  8
0
 48
0.2
100
AcDbBlockEnd
  0
BLOCK
  5
30537
330
3052D
100
AcDbEntity
  8
0
 48
0.2
100
AcDbBlockBegin
  2
*D8
 70
     1
 10
0.0
 20
0.0
 30
0.0
  3
*D8
  1

  0
LINE
  5
309FE
330
3052D
100
AcDbEntity
  8
Hawa1
 48
0.2
370
    -2
100
AcDbLine
 10
1667.480917711995
 20
253.453716277955
 30
0.0
 11
1667.480917711995
 21
250.4442294050099
 31
0.0
  0
LINE
  5
309FF
330
3052D
100
AcDbEntity
  8
Hawa1
 48
0.2
370
    -2
100
AcDbLine
 10
1696.148959342609
 20
252.7756872347774
 30
0.0
 11
1696.148959342609
 21
252.4442294050099
 31
0.0
  0
LINE
  5
30A00
330
3052D
100
AcDbEntity
  8
Hawa1
 48
0.2
370
    -2
100
AcDbLine
 10
1666.480917711995
 20
251.4442294050099
 30
0.0
 11
1697.148959342609
 21
251.4442294050099
 31
0.0
  0
INSERT
  5
30A01
330
3052D
100
AcDbEntity
  8
Hawa1
 48
0.2
370
    -2
100
AcDbBlockReference
  2
_Oblique
 10
1667.480917711995
 20
251.4442294050099
 30
0.0
 41
2.0
 42
2.0
 43
2.0
 50
180.0
  0
INSERT
  5
30A02
330
3052D
100
AcDbEntity
  8
Hawa1
 48
0.2
370
    -2
100
AcDbBlockReference
  2
_Oblique
 10
1696.148959342609
 20
251.4442294050099
 30
0.0
 41
2.0
 42
2.0
 43
2.0
  0
MTEXT
  5
30A03
330
3052D
100
AcDbEntity
  8
Hawa1
 48
0.2
100
AcDbMText
 10
1681.860234302282
 20
255.8664992503373
 30
0.0
 40
3.5
 41
0.0
 71
     5
 72
     1
  1
\A1;29 [1{\H0.711429x;\S1/8;}"]
  7
Beschlag
 73
     1
 44
1.0
1001
ACAD
1000
MTEXTBEGIN
1070
    73
1070
     1
1070
    44
1040
1.0
1070
    74
1070
     0
1000
MTEXTEND
  0
POINT
  5
30A04
330
3052D
100
AcDbEntity
  8
Defpoints
 62
     0
 48
0.2
100
AcDbPoint
 10
1667.480917711995
 20
255.453716277955
 30
0.0
  0
POINT
  5
30A05
330
3052D
100
AcDbEntity
  8
Defpoints
 62
     0
 48
0.2
100
AcDbPoint
 10
1696.148959342609
 20
250.7756872347774
 30
0.0
  0
POINT
  5
30A06
330
3052D
100
AcDbEntity
  8
Defpoints
 62
     0
 48
0.2
100
AcDbPoint
 10
1696.148959342609
 20
251.4442294050099
 30
0.0
  0
ENDBLK
  5
30538
330
3052D
100
AcDbEntity
  8
0
 48
0.2
100
AcDbBlockEnd
  0
BLOCK
  5
30571
330
30567
100
AcDbEntity
  8
0
 48
0.2
100
AcDbBlockBegin
  2
*D9
 70
     1
 10
0.0
 20
0.0
 30
0.0
  3
*D9
  1

  0
LINE
  5
30A07
330
30567
100
AcDbEntity
  8
Hawa1
 48
0.2
370
    -2
100
AcDbLine
 10
1711.149100711995
 20
411.435024277955
 30
0.0
 11
1711.149100711995
 21
411.7322681867526
 31
0.0
  0
LINE
  5
30A08
330
30567
100
AcDbEntity
  8
Hawa1
 48
0.2
370
    -2
100
AcDbLine
 10
1679.149222711995
 20
411.4350202587149
 30
0.0
 11
1679.149222711995
 21
411.7322681867526
 31
0.0
  0
LINE
  5
30A09
330
30567
100
AcDbEntity
  8
Hawa1
 48
0.2
370
    -2
100
AcDbLine
 10
1712.149100711996
 20
412.7322681867526
 30
0.0
 11
1678.149222711995
 21
412.7322681867526
 31
0.0
  0
INSERT
  5
30A0A
330
30567
100
AcDbEntity
  8
Hawa1
 48
0.2
370
    -2
100
AcDbBlockReference
  2
_Oblique
 10
1711.149100711995
 20
412.7322681867526
 30
0.0
 41
2.0
 42
2.0
 43
2.0
  0
INSERT
  5
30A0B
330
30567
100
AcDbEntity
  8
Hawa1
 48
0.2
370
    -2
100
AcDbBlockReference
  2
_Oblique
 10
1679.149222711995
 20
412.7322681867526
 30
0.0
 41
2.0
 42
2.0
 43
2.0
 50
180.0
  0
MTEXT
  5
30A0C
330
30567
100
AcDbEntity
  8
Hawa1
 48
0.2
100
AcDbMText
 10
1695.844277591842
 20
417.1282112767936
 30
0.0
 40
3.5
 41
0.0
 71
     5
 72
     1
  1
\A1;32 [1{\H0.711429x;\S1/4;}"]
  7
Beschlag
 73
     1
 44
1.0
1001
ACAD
1000
MTEXTBEGIN
1070
    73
1070
     1
1070
    44
1040
1.0
1070
    74
1070
     0
1000
MTEXTEND
  0
POINT
  5
30A0D
330
30567
100
AcDbEntity
  8
Defpoints
 62
     0
 48
0.2
100
AcDbPoint
 10
1711.149100711995
 20
413.4350242779549
 30
0.0
  0
POINT
  5
30A0E
330
30567
100
AcDbEntity
  8
Defpoints
 62
     0
 48
0.2
100
AcDbPoint
 10
1679.149222711995
 20
413.4350202587149
 30
0.0
  0
POINT
  5
30A0F
330
30567
100
AcDbEntity
  8
Defpoints
 62
     0
 48
0.2
100
AcDbPoint
 10
1679.149222711995
 20
412.7322681867526
 30
0.0
  0
ENDBLK
  5
30572
330
30567
100
AcDbEntity
  8
0
 48
0.2
100
AcDbBlockEnd
  0
BLOCK
  5
305E8
330
305E7
100
AcDbEntity
  8
0
 48
0.2
100
AcDbBlockBegin
  2
15513
 70
     0
 10
0.0
 20
0.0
 30
0.0
  3
15513
  1

  0
LINE
  5
305EA
330
305E7
100
AcDbEntity
  8
Hawa6
 48
0.2
100
AcDbLine
 10
5.749974003750821
 20
-8.802536000000031
 30
0.0
 11
5.749932003750927
 21
-103.400451
 31
0.0
  0
LINE
  5
305EB
330
305E7
100
AcDbEntity
  8
Hawa6
 48
0.053764
100
AcDbLine
 10
-3.750002996249122
 20
-2.150543000000027
 30
0.0
 11
-3.749998996249132
 21
0.0
 31
0.0
  0
LINE
  5
305EC
330
305E7
100
AcDbEntity
  8
Hawa6
 48
0.185053
100
AcDbLine
 10
3.749993003750887
 20
-7.402129999999999
 30
0.0
 11
3.750001003750867
 21
0.0
 31
0.0
  0
LINE
  5
305ED
330
305E7
100
AcDbEntity
  8
Hawa6
  6
DASHDOT
 48
0.245025
100
AcDbLine
 10
-4.779524996249165
 20
0.0
 30
0.0
 11
5.021493003750947
 21
0.0
 31
0.0
  0
LINE
  5
305EE
330
305E7
100
AcDbEntity
  8
Hawa6
  6
DASHDOT
 48
0.200251
100
AcDbLine
 10
-0.0000029962491226
 20
-3.000015000000018
 30
0.0
 11
0.0000050037508572
 21
5.010040000000003
 31
0.0
  0
LINE
  5
305EF
330
305E7
100
AcDbEntity
  8
Hawa6
100
AcDbLine
 10
-6.250063996249082
 20
-94.99792500000001
 30
0.0
 11
-6.250017996249198
 21
-0.3999939999999924
 31
0.0
  0
LINE
  5
305F0
330
305E7
100
AcDbEntity
  8
Hawa6
 48
0.366233
100
AcDbLine
 10
-6.250032996249046
 20
-0.4000240000000304
 30
0.0
 11
5.749974003750821
 21
-8.802536000000031
 31
0.0
  0
ARC
  5
305F1
330
305E7
100
AcDbEntity
  8
Hawa6
100
AcDbCircle
 10
0.0000010037508673
 20
0.0
 30
0.0
 40
3.75
100
AcDbArc
 50
359.9999549999988
 51
179.9999639999983
  0
CIRCLE
  5
305F2
330
305E7
100
AcDbEntity
  8
Hawa6
100
AcDbCircle
 10
0.0000010037508673
 20
0.0
 30
0.0
 40
2.0
  0
LINE
  5
305F3
330
305E7
100
AcDbEntity
  8
Hawa6
 48
0.257482
100
AcDbLine
 10
-3.750063996249082
 20
-107.04776
 30
0.0
 11
-3.750052996249223
 21
-96.74846600000002
 31
0.0
  0
LINE
  5
305F4
330
305E7
100
AcDbEntity
  8
Hawa6
 48
0.276401
100
AcDbLine
 10
3.306535003750923
 20
-108.341568
 30
0.0
 11
-5.750032996249046
 21
-102.000076
 31
0.0
  0
LINE
  5
305F5
330
305E7
100
AcDbEntity
  8
Hawa6
 48
0.250609
100
AcDbLine
 10
3.050725003750812
 20
-111.999985
 30
0.0
 11
3.749997003750877
 21
-102.000038
 31
0.0
  0
LINE
  5
305F6
330
305E7
100
AcDbEntity
  8
Hawa6
 48
0.366233
100
AcDbLine
 10
-6.250071996249062
 20
-94.99794000000003
 30
0.0
 11
5.749932003750927
 21
-103.400451
 31
0.0
  0
LINE
  5
305F7
330
305E7
100
AcDbEntity
  8
Hawa6
 48
0.025396
100
AcDbLine
 10
-6.250071996249062
 20
-103.015838
 30
0.0
 11
-6.250071996249062
 21
-101.999985
 31
0.0
  0
LINE
  5
305F8
330
305E7
100
AcDbEntity
  8
Hawa6
 48
0.0125
100
AcDbLine
 10
-6.250078996249158
 20
-101.999985
 30
0.0
 11
-5.750078996249158
 21
-101.999985
 31
0.0
  0
ARC
  5
305F9
330
305E7
100
AcDbEntity
  8
Hawa6
100
AcDbCircle
 10
-2.250063996249082
 20
-103.015838
 30
0.0
 40
4.0
100
AcDbArc
 50
179.9999369999995
 51
227.9999650000001
  0
LINE
  5
305FA
330
305E7
100
AcDbEntity
  8
Hawa6
 48
0.224604
100
AcDbLine
 10
1.749967003750953
 20
-112.0
 30
0.0
 11
-4.92656199624912
 21
-105.988418
 31
0.0
  0
LINE
  5
305FB
330
305E7
100
AcDbEntity
  8
Hawa6
 48
0.032518
100
AcDbLine
 10
1.749936003750917
 20
-111.999992
 30
0.0
 11
3.050656003750873
 21
-111.999992
 31
0.0
  0
ENDBLK
  5
305E9
330
305E7
100
AcDbEntity
  8
0
 48
0.2
100
AcDbBlockEnd
  0
BLOCK
  5
305FE
330
305FD
100
AcDbEntity
  8
0
 48
0.2
100
AcDbBlockBegin
  2
15529_15530
 70
     0
 10
0.0
 20
0.0
 30
0.0
  3
15529_15530
  1

  0
LINE
  5
30600
330
305FD
100
AcDbEntity
  8
Hawa6
 48
0.083622
100
AcDbLine
 10
29.0000239742883
 20
-45.65513600000002
 30
0.0
 11
29.0000239742883
 21
-49.00003000000004
 31
0.0
  0
LWPOLYLINE
  5
30601
330
305FD
100
AcDbEntity
  8
Hawa6
100
AcDbPolyline
 90
       12
 70
     1
 43
0.0
 10
38.76995897428833
 20
53.63377399999996
 10
38.76995897428833
 20
53.46292099999994
 10
39.94431397428821
 20
53.46292099999994
 10
39.94431397428821
 20
52.952179
 10
38.76995897428833
 20
52.952179
 10
38.76995897428833
 20
52.78317299999997
 10
41.26995897428833
 20
52.78317299999997
 10
41.26995897428833
 20
52.952179
 10
40.25050397428822
 20
52.952179
 10
40.25050397428822
 20
53.46292099999994
 10
41.26995897428833
 20
53.46292099999994
 10
41.26995897428833
 20
53.63377399999996
  0
LWPOLYLINE
  5
30602
330
305FD
100
AcDbEntity
  8
Hawa6
100
AcDbPolyline
 90
       42
 70
     1
 43
0.0
 10
39.02211797428822
 20
51.469467
 10
39.01131497428833
 20
51.469467
 10
38.88883297428833
 20
51.460282
 10
38.80237597428823
 20
51.432724
 10
38.73393297428834
 20
51.31697099999996
 10
38.76275697428832
 20
51.22695999999996
 10
39.00771397428821
 20
51.22695999999996
 10
38.99690297428833
 20
51.265534
 10
39.04373197428822
 20
51.31697099999996
 10
39.18782897428832
 20
51.32615699999997
 10
40.18927097428831
 20
51.32615699999997
 10
40.44503097428832
 20
51.34820600000001
 10
40.62514597428822
 20
51.41250600000001
 10
40.73321597428821
 20
51.52458200000001
 10
40.77284297428832
 20
51.68257199999994
 10
40.72961497428832
 20
51.83689899999996
 10
40.60713297428833
 20
51.95080599999994
 10
40.41621497428832
 20
52.02244599999994
 10
40.16404797428822
 20
52.04634099999998
 10
40.14243397428822
 20
52.04634099999998
 10
40.14243397428822
 20
51.90119999999996
 10
40.29373197428822
 20
51.88833599999998
 10
40.40180297428833
 20
51.847916
 10
40.46664497428833
 20
51.78178400000001
 10
40.49185997428821
 20
51.68808000000002
 10
40.47384697428833
 20
51.59806900000001
 10
40.41981597428821
 20
51.53376800000001
 10
40.32615697428832
 20
51.49517900000001
 10
40.19647297428832
 20
51.48231499999997
 10
40.04517397428822
 20
51.48966999999993
 10
39.96952897428832
 20
51.51905899999997
 10
39.93350297428833
 20
51.59254499999997
 10
39.90468697428833
 20
51.73034699999994
 10
39.83984397428822
 20
51.88833599999998
 10
39.72457197428821
 20
52.00039699999996
 10
39.54445697428833
 20
52.06654400000002
 10
39.27788597428821
 20
52.08674699999995
 10
39.04013097428833
 20
52.06837499999995
 10
38.86361797428822
 20
52.01142899999997
 10
38.75194597428822
 20
51.91957099999996
 10
38.71231897428811
 20
51.79280099999994
 10
38.78797197428821
 20
51.62194899999997
  0
LWPOLYLINE
  5
30603
330
305FD
100
AcDbEntity
  8
Hawa6
100
AcDbPolyline
 90
       14
 70
     1
 43
0.0
 10
39.44718997428822
 20
51.48783900000001
 10
39.25987297428833
 20
51.50987299999997
 10
39.11577697428834
 20
51.56866500000001
 10
39.02211797428822
 20
51.65684499999997
 10
38.98970097428833
 20
51.76524399999999
 10
39.00771397428821
 20
51.83505299999996
 10
39.06534597428822
 20
51.88465899999994
 10
39.16621497428833
 20
51.91589399999998
 10
39.30670197428822
 20
51.92507999999998
 10
39.43278597428821
 20
51.91772499999996
 10
39.52284297428832
 20
51.88833599999998
 10
39.62370397428822
 20
51.77075199999996
 10
39.66693197428822
 20
51.62194899999997
 10
39.75338797428822
 20
51.48783900000001
  0
LWPOLYLINE
  5
30604
330
305FD
100
AcDbEntity
  8
Hawa6
100
AcDbPolyline
 90
       13
 70
     1
 43
0.0
 10
38.76995897428833
 20
50.28987199999995
 10
40.4126139742882
 20
50.14289899999994
 10
38.76995897428833
 20
49.99592599999994
 10
38.76995897428833
 20
49.84159899999998
 10
40.7043999742882
 20
49.59909099999999
 10
40.7043999742882
 20
49.75524899999993
 10
39.06174497428833
 20
49.91876300000001
 10
40.7043999742882
 20
50.06388900000001
 10
40.7043999742882
 20
50.22372499999995
 10
39.06174497428833
 20
50.36886600000002
 10
40.7043999742882
 20
50.53237899999999
 10
40.7043999742882
 20
50.68669199999999
 10
38.76995897428833
 20
50.44419899999997
  0
LWPOLYLINE
  5
30605
330
305FD
100
AcDbEntity
  8
Hawa6
100
AcDbPolyline
 90
       42
 70
     1
 43
0.0
 10
39.02211797428822
 20
48.40480099999997
 10
39.01131497428833
 20
48.40480099999997
 10
38.88883297428833
 20
48.39561500000002
 10
38.80237597428823
 20
48.36805800000002
 10
38.73393297428834
 20
48.25231999999994
 10
38.76275697428832
 20
48.16229299999998
 10
39.00771397428821
 20
48.16229299999998
 10
38.99690297428833
 20
48.20086700000001
 10
39.04373197428822
 20
48.25231999999994
 10
39.18782897428832
 20
48.26150499999994
 10
40.18927097428831
 20
48.26150499999994
 10
40.44503097428832
 20
48.28355399999998
 10
40.62514597428822
 20
48.34785499999998
 10
40.73321597428821
 20
48.45991500000002
 10
40.77284297428832
 20
48.61791999999997
 10
40.72961497428832
 20
48.77223199999997
 10
40.60713297428833
 20
48.88613899999995
 10
40.41621497428832
 20
48.95779499999997
 10
40.16404797428822
 20
48.98167499999999
 10
40.14243397428822
 20
48.98167499999999
 10
40.14243397428822
 20
48.83653299999997
 10
40.29373197428822
 20
48.82366999999999
 10
40.40180297428833
 20
48.78326399999997
 10
40.46664497428833
 20
48.71711800000003
 10
40.49185997428821
 20
48.62342899999998
 10
40.47384697428833
 20
48.53340199999997
 10
40.41981597428821
 20
48.46910099999997
 10
40.32615697428832
 20
48.43052699999998
 10
40.19647297428832
 20
48.41766399999994
 10
40.04517397428822
 20
48.42500299999994
 10
39.96952897428832
 20
48.45440699999994
 10
39.93350297428833
 20
48.52789299999995
 10
39.90468697428833
 20
48.66567999999995
 10
39.83984397428822
 20
48.82366999999999
 10
39.72457197428821
 20
48.93574599999999
 10
39.54445697428833
 20
49.00187699999998
 10
39.27788597428821
 20
49.02209499999997
 10
39.04013097428833
 20
49.00372299999998
 10
38.86361797428822
 20
48.94676199999998
 10
38.75194597428822
 20
48.85490399999998
 10
38.71231897428811
 20
48.72814999999997
 10
38.78797197428821
 20
48.55728199999998
  0
LWPOLYLINE
  5
30606
330
305FD
100
AcDbEntity
  8
Hawa6
100
AcDbPolyline
 90
       14
 70
     1
 43
0.0
 10
39.44718997428822
 20
48.42317199999996
 10
39.25987297428833
 20
48.44522099999995
 10
39.11578397428821
 20
48.50401299999998
 10
39.02211797428822
 20
48.59219399999995
 10
38.98970097428833
 20
48.70059200000003
 10
39.00771397428821
 20
48.77040099999999
 10
39.06534597428822
 20
48.82000799999997
 10
39.16621497428833
 20
48.85124199999996
 10
39.30670197428822
 20
48.86042799999995
 10
39.43278597428821
 20
48.853073
 10
39.52284297428832
 20
48.82366999999999
 10
39.62370397428822
 20
48.70610099999999
 10
39.66693197428822
 20
48.55728199999998
 10
39.75338797428822
 20
48.42317199999996
  0
LWPOLYLINE
  5
30607
330
305FD
100
AcDbEntity
  8
Hawa6
100
AcDbPolyline
 90
       51
 70
     1
 43
0.0
 10
39.59488697428833
 20
45.836182
 10
39.59488697428833
 20
46.00335699999994
 10
39.21304397428821
 20
45.96661399999999
 10
38.93206097428834
 20
45.87475599999993
 10
38.76275697428832
 20
45.733292
 10
38.70151597428821
 20
45.542237
 10
38.75915597428821
 20
45.35299699999995
 10
38.91765697428832
 20
45.21153299999997
 10
39.16621497428833
 20
45.12152099999997
 10
39.49401897428811
 20
45.08845599999995
 10
39.78941397428821
 20
45.11601299999995
 10
39.98033197428822
 20
45.19316099999997
 10
40.10641497428832
 20
45.31809999999995
 10
40.20007397428821
 20
45.48527599999999
 10
40.26851697428833
 20
45.62857099999996
 10
40.34777097428832
 20
45.72227499999996
 10
40.46304397428821
 20
45.77555899999999
 10
40.64315897428833
 20
45.79208399999998
 10
40.80525997428821
 20
45.77555899999999
 10
40.92774297428832
 20
45.72778399999998
 10
41.01058997428822
 20
45.65429699999993
 10
41.03941397428821
 20
45.55325299999998
 10
41.00338797428821
 20
45.45037899999999
 10
40.90612897428832
 20
45.36953799999998
 10
40.74401897428811
 20
45.31625399999995
 10
40.52428497428832
 20
45.29054299999995
 10
40.52428497428832
 20
45.12335199999995
 10
40.53148697428833
 20
45.12335199999995
 10
40.87010297428832
 20
45.15275599999995
 10
41.12226197428822
 20
45.23908999999997
 10
41.28076197428822
 20
45.375046
 10
41.33480097428832
 20
45.558762
 10
41.28076197428822
 20
45.724106
 10
41.1294719742882
 20
45.85270700000001
 10
40.89531797428821
 20
45.93537900000001
 10
40.5927279742882
 20
45.96478300000001
 10
40.32255597428821
 20
45.94090299999993
 10
40.13883297428833
 20
45.87107900000001
 10
40.01635797428821
 20
45.760849
 10
39.92269997428821
 20
45.61019899999997
 10
39.83984397428822
 20
45.46139599999998
 10
39.76058997428822
 20
45.34931999999997
 10
39.64531797428822
 20
45.28135699999995
 10
39.45800097428833
 20
45.25746199999997
 10
39.26707497428834
 20
45.27951099999995
 10
39.12298697428833
 20
45.33647199999996
 10
39.03292897428833
 20
45.422821
 10
39.00411297428832
 20
45.53488199999998
 10
39.04373197428822
 20
45.659806
 10
39.15900497428834
 20
45.75534099999998
 10
39.34632897428833
 20
45.81596400000001
  0
LWPOLYLINE
  5
30608
330
305FD
100
AcDbEntity
  8
Hawa6
100
AcDbPolyline
 90
       13
 70
     1
 43
0.0
 10
38.76995897428833
 20
44.16055299999993
 10
40.4126139742882
 20
44.01358099999998
 10
38.76995897428833
 20
43.86660799999998
 10
38.76995897428833
 20
43.71228099999996
 10
40.7043999742882
 20
43.46977299999998
 10
40.7043999742882
 20
43.62593099999998
 10
39.06174497428833
 20
43.789444
 10
40.7043999742882
 20
43.934571
 10
40.7043999742882
 20
44.09440599999993
 10
39.06174497428833
 20
44.23954799999996
 10
40.7043999742882
 20
44.40306099999998
 10
40.7043999742882
 20
44.55737299999998
 10
38.76995897428833
 20
44.314865
  0
LWPOLYLINE
  5
30609
330
305FD
100
AcDbEntity
  8
Hawa6
100
AcDbPolyline
 90
       10
 70
     1
 43
0.0
 10
39.03652997428821
 20
42.36734000000001
 10
40.6395579742882
 20
42.36734000000001
 10
40.6395579742882
 20
42.78254699999997
 10
40.36938497428832
 20
42.78254699999997
 10
40.36938497428832
 20
42.52900699999997
 10
39.03652997428821
 20
42.52900699999997
 10
39.03652997428821
 20
42.85971099999994
 10
38.76995897428833
 20
42.85971099999994
 10
38.76995897428833
 20
42.03297499999997
 10
39.03652997428821
 20
42.03297499999997
  0
LWPOLYLINE
  5
3060A
330
305FD
100
AcDbEntity
  8
Hawa6
100
AcDbPolyline
 90
        4
 70
     1
 43
0.0
 10
41.35641497428832
 20
42.36183199999999
 10
41.35641497428832
 20
42.53268500000001
 10
40.99618597428821
 20
42.53268500000001
 10
40.99618597428821
 20
42.36183199999999
  0
LWPOLYLINE
  5
3060B
330
305FD
100
AcDbEntity
  8
Hawa6
100
AcDbPolyline
 90
       50
 70
     1
 43
0.0
 10
39.89748497428832
 20
40.84603099999998
 10
39.96952897428832
 20
41.00219799999996
 10
40.05237597428823
 20
41.11793499999999
 10
40.22168797428821
 20
41.156517
 10
40.34056197428822
 20
41.14549299999999
 10
40.42701797428821
 20
41.10691099999996
 10
40.48105697428832
 20
41.04444899999998
 10
40.50267097428831
 20
40.95443
 10
40.48105697428832
 20
40.86807999999996
 10
40.41621497428832
 20
40.80010299999997
 10
40.31894797428821
 20
40.756012
 10
40.18927097428831
 20
40.73764099999999
 10
40.18927097428831
 20
40.57964399999997
 10
40.19647297428832
 20
40.57964399999997
 10
40.43061897428811
 20
40.60720099999997
 10
40.61434197428821
 20
40.68252599999993
 10
40.72961497428832
 20
40.80010299999997
 10
40.77284297428832
 20
40.95443
 10
40.72961497428832
 20
41.11058800000001
 10
40.61073397428822
 20
41.22449499999993
 10
40.4342279742882
 20
41.29614299999997
 10
40.21088497428832
 20
41.31819199999995
 10
39.99474397428821
 20
41.30165099999999
 10
39.84344597428822
 20
41.25021399999996
 10
39.73537497428834
 20
41.16570300000001
 10
39.65972997428821
 20
41.04260999999996
 10
39.57327297428833
 20
40.862572
 10
39.48321597428821
 20
40.75233499999995
 10
39.41117197428821
 20
40.72294599999998
 10
39.30310097428833
 20
40.71192199999996
 10
39.16981597428821
 20
40.72845499999994
 10
39.06894797428822
 20
40.77254499999997
 10
39.00411297428832
 20
40.8442
 10
38.98249897428832
 20
40.93972799999995
 10
39.00411297428832
 20
41.04077199999994
 10
39.07975797428822
 20
41.11426599999998
 10
39.20223297428833
 20
41.16386399999998
 10
39.37154497428833
 20
41.18407499999995
 10
39.37154497428833
 20
41.34023300000001
 10
39.08335897428833
 20
41.31451399999997
 10
38.87442797428821
 20
41.23918900000001
 10
38.74834497428833
 20
41.11977399999995
 10
38.70151597428821
 20
40.95443
 10
38.74834497428833
 20
40.78173099999998
 10
38.87442797428821
 20
40.65496899999999
 10
39.07615697428833
 20
40.57780499999995
 10
39.33912697428832
 20
40.55024799999995
 10
39.56607097428832
 20
40.57045799999997
 10
39.72097097428832
 20
40.62741099999999
 10
39.82183097428833
 20
40.72110799999996
  0
LWPOLYLINE
  5
3060C
330
305FD
100
AcDbEntity
  8
Hawa6
100
AcDbPolyline
 90
       50
 70
     1
 43
0.0
 10
39.89748497428832
 20
39.31370599999997
 10
39.96952897428832
 20
39.46986399999997
 10
40.05237597428823
 20
39.58560999999998
 10
40.22168797428821
 20
39.62418400000002
 10
40.34056197428822
 20
39.61316699999997
 10
40.42701797428821
 20
39.57458499999996
 10
40.48105697428832
 20
39.51212299999998
 10
40.50267097428831
 20
39.42209699999995
 10
40.48105697428832
 20
39.33575499999995
 10
40.41621497428832
 20
39.26777699999997
 10
40.31894797428821
 20
39.22368699999998
 10
40.18927097428831
 20
39.20531499999999
 10
40.18927097428831
 20
39.04731800000002
 10
40.19647297428832
 20
39.04731800000002
 10
40.43061897428811
 20
39.07487499999997
 10
40.61434197428821
 20
39.150193
 10
40.72961497428832
 20
39.26777699999997
 10
40.77284297428832
 20
39.42209699999995
 10
40.72961497428832
 20
39.57825499999996
 10
40.61073397428822
 20
39.692162
 10
40.4342279742882
 20
39.76380999999998
 10
40.21088497428832
 20
39.78585799999996
 10
39.99474397428821
 20
39.76932599999998
 10
39.84344597428822
 20
39.71788099999998
 10
39.73537497428834
 20
39.63336999999996
 10
39.65972997428821
 20
39.51028499999996
 10
39.57327297428833
 20
39.33023900000001
 10
39.48321597428821
 20
39.220009
 10
39.41117197428821
 20
39.19061299999999
 10
39.30310097428833
 20
39.17958899999997
 10
39.16981597428821
 20
39.19612899999999
 10
39.06894797428822
 20
39.24021899999997
 10
39.00411297428832
 20
39.31186700000001
 10
38.98249897428832
 20
39.40740199999999
 10
39.00411297428832
 20
39.50844599999994
 10
39.07975797428822
 20
39.581932
 10
39.20223297428833
 20
39.63153899999998
 10
39.37154497428833
 20
39.651749
 10
39.37154497428833
 20
39.807907
 10
39.08335897428833
 20
39.78218099999998
 10
38.87442797428821
 20
39.706864
 10
38.74834497428833
 20
39.58744100000001
 10
38.70151597428821
 20
39.42209699999995
 10
38.74834497428833
 20
39.24940499999997
 10
38.87442797428821
 20
39.12263499999994
 10
39.07615697428833
 20
39.045479
 10
39.33912697428832
 20
39.017922
 10
39.56607097428832
 20
39.03813199999996
 10
39.72097097428832
 20
39.09507799999995
 10
39.82183097428833
 20
39.18877399999997
  0
LINE
  5
3060D
330
305FD
100
AcDbEntity
  8
Hawa6
  6
DASHDOT
100
AcDbLine
 10
28.99990197428815
 20
-52.90903400000002
 30
0.0
 11
28.99997797428819
 21
105.759857
 31
0.0
  0
LINE
  5
3060E
330
305FD
100
AcDbEntity
  8
Hawa6
 48
0.149999
100
AcDbLine
 10
44.00000097428824
 20
18.99998499999998
 30
0.0
 11
44.00000097428824
 21
13.00001599999996
 31
0.0
  0
LINE
  5
3060F
330
305FD
100
AcDbEntity
  8
Hawa6
  6
DASHED
100
AcDbLine
 10
44.00000097428824
 20
13.00007699999997
 30
0.0
 11
44.00000097428824
 21
-19.74993900000004
 31
0.0
  0
LINE
  5
30610
330
305FD
100
AcDbEntity
  8
Hawa6
  6
DASHED
 48
0.075001
100
AcDbLine
 10
41.09994597428817
 20
7.000106999999957
 30
0.0
 11
41.10009797428824
 21
10.00015299999995
 31
0.0
  0
LINE
  5
30611
330
305FD
100
AcDbEntity
  8
Hawa6
 48
0.00625
100
AcDbLine
 10
44.00001597428832
 20
-19.74987800000002
 30
0.0
 11
44.00001597428832
 21
-19.99987800000002
 31
0.0
  0
LINE
  5
30612
330
305FD
100
AcDbEntity
  8
Hawa6
  6
DASHED
 48
0.028867
100
AcDbLine
 10
42.10010597428822
 20
9.500198999999952
 30
0.0
 11
42.67745297428814
 21
8.500198999999952
 31
0.0
  0
LINE
  5
30613
330
305FD
100
AcDbEntity
  8
Hawa6
  6
DASHED
 48
0.028867
100
AcDbLine
 10
42.10007497428819
 20
7.500198999999952
 30
0.0
 11
42.67741497428824
 21
8.500167999999973
 31
0.0
  0
LINE
  5
30614
330
305FD
100
AcDbEntity
  8
Hawa6
  6
DASHED
 48
0.025001
100
AcDbLine
 10
41.10000697428813
 20
9.000137999999992
 30
0.0
 11
42.10002997428818
 21
9.000137999999992
 31
0.0
  0
LINE
  5
30615
330
305FD
100
AcDbEntity
  8
Hawa6
  6
DASHED
 48
0.025001
100
AcDbLine
 10
41.10000697428813
 20
8.000152999999954
 30
0.0
 11
42.10002997428818
 21
8.000152999999954
 31
0.0
  0
LINE
  5
30616
330
305FD
100
AcDbEntity
  8
Hawa6
  6
DASHED
 48
0.025001
100
AcDbLine
 10
41.10000697428813
 20
7.500121999999976
 30
0.0
 11
42.10002997428818
 21
7.500121999999976
 31
0.0
  0
LINE
  5
30617
330
305FD
100
AcDbEntity
  8
Hawa6
  6
DASHED
 48
0.025001
100
AcDbLine
 10
41.10000697428813
 20
9.500129999999955
 30
0.0
 11
42.10002997428818
 21
9.500129999999955
 31
0.0
  0
LINE
  5
30618
330
305FD
100
AcDbEntity
  8
Hawa6
  6
DASHED
 48
0.05
100
AcDbLine
 10
42.10002997428818
 20
7.500121999999976
 30
0.0
 11
42.10002997428818
 21
9.500129999999955
 31
0.0
  0
LINE
  5
30619
330
305FD
100
AcDbEntity
  8
Hawa6
  6
DASHED
 48
0.042427
100
AcDbLine
 10
45.79980497428823
 20
8.500060999999959
 30
0.0
 11
46.99980997428816
 21
9.700073999999972
 31
0.0
  0
LINE
  5
3061A
330
305FD
100
AcDbEntity
  8
Hawa6
  6
DASHED
 48
0.042426
100
AcDbLine
 10
45.80015597428814
 20
8.500198999999952
 30
0.0
 11
47.00015297428831
 21
7.300201999999956
 31
0.0
  0
LINE
  5
3061B
330
305FD
100
AcDbEntity
  8
Hawa6
  6
DASHED
 48
0.039995
100
AcDbLine
 10
40.00000097428824
 20
6.500137999999992
 30
0.0
 11
41.5998009742882
 21
6.500137999999992
 31
0.0
  0
LINE
  5
3061C
330
305FD
100
AcDbEntity
  8
Hawa6
  6
DASHDOT
 48
0.237565
100
AcDbLine
 10
38.73500897428835
 20
8.500144999999974
 30
0.0
 11
48.23761097428814
 21
8.500144999999974
 31
0.0
  0
LINE
  5
3061D
330
305FD
100
AcDbEntity
  8
Hawa6
  6
DASHED
 48
0.017678
100
AcDbLine
 10
41.59981597428827
 20
6.500038000000017
 30
0.0
 11
41.09981597428827
 21
7.000045999999997
 31
0.0
  0
LINE
  5
3061E
330
305FD
100
AcDbEntity
  8
Hawa6
  6
DASHED
 48
0.1
100
AcDbLine
 10
46.20002797428833
 20
6.500137999999992
 30
0.0
 11
46.20002797428833
 21
10.50015299999995
 31
0.0
  0
LINE
  5
3061F
330
305FD
100
AcDbEntity
  8
Hawa6
  6
DASHED
 48
0.028285
100
AcDbLine
 10
46.20015797428822
 20
10.50022200000001
 30
0.0
 11
47.00017597428813
 21
9.700210999999967
 31
0.0
  0
LINE
  5
30620
330
305FD
100
AcDbEntity
  8
Hawa6
  6
DASHED
 48
0.028285
100
AcDbLine
 10
46.1998149742883
 20
6.500060999999959
 30
0.0
 11
46.99983297428821
 21
7.300079999999979
 31
0.0
  0
LINE
  5
30621
330
305FD
100
AcDbEntity
  8
Hawa6
  6
DASHED
 48
0.027501
100
AcDbLine
 10
40.00000097428824
 20
10.00012199999997
 30
0.0
 11
41.10003697428829
 21
10.00012199999997
 31
0.0
  0
LINE
  5
30622
330
305FD
100
AcDbEntity
  8
Hawa6
  6
DASHED
 48
0.027495
100
AcDbLine
 10
40.00000097428824
 20
7.000129999999955
 30
0.0
 11
41.09981597428827
 21
7.000129999999955
 31
0.0
  0
LINE
  5
30623
330
305FD
100
AcDbEntity
  8
Hawa6
  6
DASHED
 48
0.040002
100
AcDbLine
 10
40.00000097428824
 20
10.50015299999995
 30
0.0
 11
41.60006797428832
 21
10.50015299999995
 31
0.0
  0
LINE
  5
30624
330
305FD
100
AcDbEntity
  8
Hawa6
  6
DASHED
 48
0.017677
100
AcDbLine
 10
41.60010597428822
 20
10.50018299999999
 30
0.0
 11
41.1001139742882
 21
10.00019099999997
 31
0.0
  0
LINE
  5
30625
330
305FD
100
AcDbEntity
  8
Hawa6
  6
DASHED
 48
0.1
100
AcDbLine
 10
41.60003697428829
 20
6.500137999999992
 30
0.0
 11
41.60003697428829
 21
10.50015299999995
 31
0.0
  0
LINE
  5
30626
330
305FD
100
AcDbEntity
  8
Hawa6
 48
0.018546
100
AcDbLine
 10
35.99994697428815
 20
28.55088799999999
 30
0.0
 11
36.69705297428823
 21
28.80461199999997
 31
0.0
  0
LINE
  5
30627
330
305FD
100
AcDbEntity
  8
Hawa6
 48
0.029598
100
AcDbLine
 10
36.69703697428827
 20
28.804642
 30
0.0
 11
37.54868397428822
 21
29.62705999999997
 31
0.0
  0
LINE
  5
30628
330
305FD
100
AcDbEntity
  8
Hawa6
 48
0.029599
100
AcDbLine
 10
35.30316197428829
 20
28.80477899999994
 30
0.0
 11
34.45150097428814
 21
29.62721999999997
 31
0.0
  0
LINE
  5
30629
330
305FD
100
AcDbEntity
  8
Hawa6
 48
0.018544
100
AcDbLine
 10
34.44916597428824
 20
26.99998499999998
 30
0.0
 11
34.19546597428825
 21
26.302956
 31
0.0
  0
LINE
  5
3062A
330
305FD
100
AcDbEntity
  8
Hawa6
 48
0.029598
100
AcDbLine
 10
35.30304797428812
 20
25.19537399999996
 30
0.0
 11
34.45140097428816
 21
24.37294799999995
 31
0.0
  0
LINE
  5
3062B
330
305FD
100
AcDbEntity
  8
Hawa6
 48
0.029599
100
AcDbLine
 10
36.69725097428818
 20
25.19549599999994
 30
0.0
 11
37.54891297428822
 21
24.37304699999998
 31
0.0
  0
LINE
  5
3062C
330
305FD
100
AcDbEntity
  8
Hawa6
 48
0.018544
100
AcDbLine
 10
36.00029097428819
 20
28.55088799999999
 30
0.0
 11
35.30326097428815
 21
28.80458899999997
 31
0.0
  0
LINE
  5
3062D
330
305FD
100
AcDbEntity
  8
Hawa6
 48
0.018544
100
AcDbLine
 10
25.9490899742882
 20
38.99993899999998
 30
0.0
 11
25.69539697428832
 21
39.69697599999995
 31
0.0
  0
LINE
  5
3062E
330
305FD
100
AcDbEntity
  8
Hawa6
 48
0.029599
100
AcDbLine
 10
25.6953059742882
 20
39.69703699999996
 30
0.0
 11
24.87287197428827
 21
40.54870599999998
 31
0.0
  0
LINE
  5
3062F
330
305FD
100
AcDbEntity
  8
Hawa6
 48
0.029598
100
AcDbLine
 10
25.69539697428832
 20
38.30299400000001
 30
0.0
 11
24.87296397428827
 21
37.45134799999994
 31
0.0
  0
LINE
  5
30630
330
305FD
100
AcDbEntity
  8
Hawa6
 48
0.018544
100
AcDbLine
 10
27.49997797428819
 20
37.44905899999998
 30
0.0
 11
28.19701497428832
 21
37.195359
 31
0.0
  0
LINE
  5
30631
330
305FD
100
AcDbEntity
  8
Hawa6
 48
0.018544
100
AcDbLine
 10
27.5000239742883
 20
37.44904399999996
 30
0.0
 11
26.80298697428816
 21
37.19534299999998
 31
0.0
  0
LINE
  5
30632
330
305FD
100
AcDbEntity
  8
Hawa6
 48
0.018544
100
AcDbLine
 10
29.0511709742882
 20
38.99993899999998
 30
0.0
 11
29.30487097428818
 21
39.69697599999995
 31
0.0
  0
LINE
  5
30633
330
305FD
100
AcDbEntity
  8
Hawa6
 48
0.018545
100
AcDbLine
 10
29.05092697428813
 20
38.99991599999999
 30
0.0
 11
29.30463497428832
 21
38.30284899999998
 31
0.0
  0
LINE
  5
30634
330
305FD
100
AcDbEntity
  8
Hawa6
 48
0.029599
100
AcDbLine
 10
29.30466497428824
 20
38.30294099999998
 30
0.0
 11
30.12710597428827
 21
37.451279
 31
0.0
  0
LINE
  5
30635
330
305FD
100
AcDbEntity
  8
Hawa6
 48
0.029598
100
AcDbLine
 10
29.30477997428829
 20
39.69699099999997
 30
0.0
 11
30.12720597428824
 21
40.54863799999998
 31
0.0
  0
LINE
  5
30636
330
305FD
100
AcDbEntity
  8
Hawa6
 48
0.018546
100
AcDbLine
 10
27.49996297428834
 20
40.55088799999999
 30
0.0
 11
28.19705997428832
 21
40.80461199999996
 31
0.0
  0
LINE
  5
30637
330
305FD
100
AcDbEntity
  8
Hawa6
 48
0.029598
100
AcDbLine
 10
28.19704497428825
 20
40.80463399999996
 30
0.0
 11
29.04869097428832
 21
41.62705999999997
 31
0.0
  0
LINE
  5
30638
330
305FD
100
AcDbEntity
  8
Hawa6
 48
0.029599
100
AcDbLine
 10
26.80316997428827
 20
40.80477199999996
 30
0.0
 11
25.95150797428824
 21
41.62721299999998
 31
0.0
  0
LINE
  5
30639
330
305FD
100
AcDbEntity
  8
Hawa6
 48
0.018544
100
AcDbLine
 10
25.94918097428831
 20
38.99998499999998
 30
0.0
 11
25.69548097428833
 21
38.30294799999996
 31
0.0
  0
LINE
  5
3063A
330
305FD
100
AcDbEntity
  8
Hawa6
 48
0.029598
100
AcDbLine
 10
26.8030629742882
 20
37.195359
 30
0.0
 11
25.95140897428815
 21
36.37293299999999
 31
0.0
  0
LINE
  5
3063B
330
305FD
100
AcDbEntity
  8
Hawa6
 48
0.029598
100
AcDbLine
 10
28.19725897428816
 20
37.19548099999997
 30
0.0
 11
29.04891297428822
 21
36.37304699999999
 31
0.0
  0
LINE
  5
3063C
330
305FD
100
AcDbEntity
  8
Hawa6
 48
0.018545
100
AcDbLine
 10
27.50031297428814
 20
40.55084999999997
 30
0.0
 11
26.80324597428831
 21
40.80456599999997
 31
0.0
  0
LINE
  5
3063D
330
305FD
100
AcDbEntity
  8
Hawa6
 48
0.018544
100
AcDbLine
 10
34.44905897428816
 20
62.99993899999998
 30
0.0
 11
34.19536697428816
 21
63.69696099999998
 31
0.0
  0
LINE
  5
3063E
330
305FD
100
AcDbEntity
  8
Hawa6
 48
0.029598
100
AcDbLine
 10
34.1953129742883
 20
63.697068
 30
0.0
 11
33.37288697428835
 21
64.54870599999998
 31
0.0
  0
LINE
  5
3063F
330
305FD
100
AcDbEntity
  8
Hawa6
 48
0.029598
100
AcDbLine
 10
34.19539697428831
 20
62.30297899999993
 30
0.0
 11
33.37297097428814
 21
61.45133999999996
 31
0.0
  0
LINE
  5
30640
330
305FD
100
AcDbEntity
  8
Hawa6
 48
0.018544
100
AcDbLine
 10
35.99997797428819
 20
61.44908199999997
 30
0.0
 11
36.69701497428832
 21
61.19538899999998
 31
0.0
  0
LINE
  5
30641
330
305FD
100
AcDbEntity
  8
Hawa6
 48
0.018543
100
AcDbLine
 10
36.00003097428817
 20
61.44905099999994
 30
0.0
 11
35.30303297428827
 21
61.19535899999994
 31
0.0
  0
LINE
  5
30642
330
305FD
100
AcDbEntity
  8
Hawa6
 48
0.018544
100
AcDbLine
 10
37.55115597428812
 20
62.99992399999997
 30
0.0
 11
37.80484797428812
 21
63.69696099999998
 31
0.0
  0
LINE
  5
30643
330
305FD
100
AcDbEntity
  8
Hawa6
 48
0.018545
100
AcDbLine
 10
37.55088897428823
 20
62.99989299999999
 30
0.0
 11
37.80460397428829
 21
62.30282599999998
 31
0.0
  0
LINE
  5
30644
330
305FD
100
AcDbEntity
  8
Hawa6
 48
0.029599
100
AcDbLine
 10
37.80466497428824
 20
62.30294799999995
 30
0.0
 11
38.62710597428827
 21
61.45129399999996
 31
0.0
  0
LINE
  5
30645
330
305FD
100
AcDbEntity
  8
Hawa6
 48
0.029598
100
AcDbLine
 10
37.80478697428816
 20
63.69699100000002
 30
0.0
 11
38.62721297428811
 21
64.54863
 31
0.0
  0
LINE
  5
30646
330
305FD
100
AcDbEntity
  8
Hawa6
 48
0.018545
100
AcDbLine
 10
35.99996997428821
 20
64.55087299999997
 30
0.0
 11
36.69704497428825
 21
64.80459599999995
 31
0.0
  0
LINE
  5
30647
330
305FD
100
AcDbEntity
  8
Hawa6
 48
0.029598
100
AcDbLine
 10
36.69704497428825
 20
64.80462699999998
 30
0.0
 11
37.54869097428832
 21
65.62705999999997
 31
0.0
  0
LINE
  5
30648
330
305FD
100
AcDbEntity
  8
Hawa6
 48
0.029599
100
AcDbLine
 10
35.30311697428829
 20
64.80473399999993
 30
0.0
 11
34.45145497428825
 21
65.62716699999999
 31
0.0
  0
LINE
  5
30649
330
305FD
100
AcDbEntity
  8
Hawa6
 48
0.018544
100
AcDbLine
 10
34.44917397428822
 20
62.99996999999996
 30
0.0
 11
34.19547297428812
 21
62.30294799999995
 31
0.0
  0
LINE
  5
3064A
330
305FD
100
AcDbEntity
  8
Hawa6
 48
0.029598
100
AcDbLine
 10
35.30307097428817
 20
61.19534299999997
 30
0.0
 11
34.45142397428822
 21
60.37292500000001
 31
0.0
  0
LINE
  5
3064B
330
305FD
100
AcDbEntity
  8
Hawa6
 48
0.029598
100
AcDbLine
 10
36.69722797428836
 20
61.19544999999994
 30
0.0
 11
37.54887497428831
 21
60.373017
 31
0.0
  0
LINE
  5
3064C
330
305FD
100
AcDbEntity
  8
Hawa6
 48
0.018545
100
AcDbLine
 10
36.00026797428814
 20
64.55075099999999
 30
0.0
 11
35.30319997428819
 21
64.80445899999995
 31
0.0
  0
LINE
  5
3064D
330
305FD
100
AcDbEntity
  8
Hawa6
 48
0.018544
100
AcDbLine
 10
25.94906697428815
 20
74.99992399999996
 30
0.0
 11
25.69536697428816
 21
75.69696099999998
 31
0.0
  0
LINE
  5
3064E
330
305FD
100
AcDbEntity
  8
Hawa6
 48
0.029599
100
AcDbLine
 10
25.69532097428828
 20
75.69705199999998
 30
0.0
 11
24.87287997428826
 21
76.54870599999998
 31
0.0
  0
LINE
  5
3064F
330
305FD
100
AcDbEntity
  8
Hawa6
 48
0.029598
100
AcDbLine
 10
25.69539697428832
 20
74.30299400000001
 30
0.0
 11
24.87297097428814
 21
73.45133999999996
 31
0.0
  0
LINE
  5
30650
330
305FD
100
AcDbEntity
  8
Hawa6
 48
0.018543
100
AcDbLine
 10
27.50000797428834
 20
73.44908199999998
 30
0.0
 11
28.19699897428814
 21
73.19540399999993
 31
0.0
  0
LINE
  5
30651
330
305FD
100
AcDbEntity
  8
Hawa6
 48
0.018544
100
AcDbLine
 10
27.50004597428824
 20
73.44906600000001
 30
0.0
 11
26.80300997428822
 21
73.19535899999994
 31
0.0
  0
LINE
  5
30652
330
305FD
100
AcDbEntity
  8
Hawa6
 48
0.018544
100
AcDbLine
 10
29.05122397428818
 20
74.99989299999999
 30
0.0
 11
29.30492497428827
 21
75.69691499999999
 31
0.0
  0
LINE
  5
30653
330
305FD
100
AcDbEntity
  8
Hawa6
 48
0.018545
100
AcDbLine
 10
29.05092697428813
 20
74.99989299999999
 30
0.0
 11
29.30462697428834
 21
74.30284099999994
 31
0.0
  0
LINE
  5
30654
330
305FD
100
AcDbEntity
  8
Hawa6
 48
0.029599
100
AcDbLine
 10
29.30467297428823
 20
74.30294799999995
 30
0.0
 11
30.12711397428825
 21
73.451279
 31
0.0
  0
LINE
  5
30655
330
305FD
100
AcDbEntity
  8
Hawa6
 48
0.029598
100
AcDbLine
 10
29.3048179742882
 20
75.69694599999997
 30
0.0
 11
30.12723597428817
 21
76.54859999999996
 31
0.0
  0
LINE
  5
30656
330
305FD
100
AcDbEntity
  8
Hawa6
 48
0.018545
100
AcDbLine
 10
27.49997797428819
 20
76.55088799999998
 30
0.0
 11
28.19704497428825
 21
76.80459599999995
 31
0.0
  0
LINE
  5
30657
330
305FD
100
AcDbEntity
  8
Hawa6
 48
0.029598
100
AcDbLine
 10
28.19705297428823
 20
76.80462699999998
 30
0.0
 11
29.0486989742883
 21
77.62705999999997
 31
0.0
  0
LINE
  5
30658
330
305FD
100
AcDbEntity
  8
Hawa6
 48
0.029598
100
AcDbLine
 10
26.80312397428816
 20
76.80471799999998
 30
0.0
 11
25.95147797428831
 21
77.62715199999997
 31
0.0
  0
LINE
  5
30659
330
305FD
100
AcDbEntity
  8
Hawa6
 48
0.018544
100
AcDbLine
 10
25.94921197428835
 20
74.999955
 30
0.0
 11
25.69550397428816
 21
74.30291799999998
 31
0.0
  0
LINE
  5
3065A
330
305FD
100
AcDbEntity
  8
Hawa6
 48
0.029598
100
AcDbLine
 10
26.80307797428827
 20
73.19534299999998
 30
0.0
 11
25.95142397428822
 21
72.37292500000001
 31
0.0
  0
LINE
  5
3065B
330
305FD
100
AcDbEntity
  8
Hawa6
 48
0.029598
100
AcDbLine
 10
28.1972429742882
 20
73.19541999999995
 30
0.0
 11
29.04888997428816
 21
72.37300099999993
 31
0.0
  0
LINE
  5
3065C
330
305FD
100
AcDbEntity
  8
Hawa6
 48
0.018544
100
AcDbLine
 10
27.50024497428831
 20
76.55072099999995
 30
0.0
 11
26.80321597428815
 21
76.80442799999998
 31
0.0
  0
LINE
  5
3065D
330
305FD
100
AcDbEntity
  8
Hawa6
  6
DASHDOT
 48
0.325
100
AcDbLine
 10
29.50000797428834
 20
63.00001599999996
 30
0.0
 11
42.50000097428824
 21
63.0
 31
0.0
  0
LINE
  5
3065E
330
305FD
100
AcDbEntity
  8
Hawa6
  6
DASHDOT
 48
0.325
100
AcDbLine
 10
36.00000097428824
 20
56.50013799999999
 30
0.0
 11
36.00000797428834
 21
69.50013799999999
 31
0.0
  0
LINE
  5
3065F
330
305FD
100
AcDbEntity
  8
Hawa6
  6
DASHDOT
 48
0.325
100
AcDbLine
 10
27.49999297428826
 20
32.500138
 30
0.0
 11
27.49999297428826
 21
45.50013799999999
 31
0.0
  0
LINE
  5
30660
330
305FD
100
AcDbEntity
  8
Hawa6
  6
DASHDOT
 48
0.325
100
AcDbLine
 10
20.99999697428825
 20
39.00001599999996
 30
0.0
 11
34.00000097428824
 21
39.00001599999996
 31
0.0
  0
LINE
  5
30661
330
305FD
100
AcDbEntity
  8
Hawa6
  6
DASHDOT
 48
0.325
100
AcDbLine
 10
29.49999297428826
 20
27.0
 30
0.0
 11
42.49999297428826
 21
27.0
 31
0.0
  0
LINE
  5
30662
330
305FD
100
AcDbEntity
  8
Hawa6
  6
DASHDOT
 48
0.325
100
AcDbLine
 10
35.99998497428828
 20
20.50012999999996
 30
0.0
 11
35.99998497428828
 21
33.50012999999996
 31
0.0
  0
LINE
  5
30663
330
305FD
100
AcDbEntity
  8
Hawa6
  6
DASHED
 48
0.0125
100
AcDbLine
 10
46.99999297428826
 20
19.49999300000001
 30
0.0
 11
46.99999297428826
 21
18.99999299999996
 31
0.0
  0
LINE
  5
30664
330
305FD
100
AcDbEntity
  8
Hawa6
  6
DASHED
 48
0.0125
100
AcDbLine
 10
52.99999297428826
 20
19.49998499999998
 30
0.0
 11
52.99999297428826
 21
18.99998499999998
 31
0.0
  0
LINE
  5
30665
330
305FD
100
AcDbEntity
  8
Hawa6
  6
DASHED
100
AcDbLine
 10
54.09998397428831
 20
84.50006099999995
 30
0.0
 11
54.09998397428831
 21
20.49999300000002
 31
0.0
  0
LINE
  5
30666
330
305FD
100
AcDbEntity
  8
Hawa6
  6
DASHED
100
AcDbLine
 10
45.89998697428813
 20
84.50006099999995
 30
0.0
 11
45.89998697428813
 21
20.49999300000002
 31
0.0
  0
LINE
  5
30667
330
305FD
100
AcDbEntity
  8
Hawa6
 48
0.150002
100
AcDbLine
 10
53.0001069742882
 20
19.00005399999997
 30
0.0
 11
53.0001069742882
 21
12.99999299999996
 31
0.0
  0
LINE
  5
30668
330
305FD
100
AcDbEntity
  8
Hawa6
 48
0.150002
100
AcDbLine
 10
47.0001069742882
 20
19.00005399999997
 30
0.0
 11
47.0001069742882
 21
12.99999299999996
 31
0.0
  0
LINE
  5
30669
330
305FD
100
AcDbEntity
  8
Hawa6
 48
0.06
100
AcDbLine
 10
52.99989397428817
 20
88.49998499999998
 30
0.0
 11
50.59989197428831
 21
88.49998499999998
 31
0.0
  0
LINE
  5
3066A
330
305FD
100
AcDbEntity
  8
Hawa6
 48
0.03
100
AcDbLine
 10
50.6001209742883
 20
88.50006099999996
 30
0.0
 11
50.6001209742883
 21
87.30004899999995
 31
0.0
  0
LINE
  5
3066B
330
305FD
100
AcDbEntity
  8
Hawa6
 48
0.03
100
AcDbLine
 10
49.40012397428813
 20
88.50006099999996
 30
0.0
 11
49.40012397428813
 21
87.30004899999995
 31
0.0
  0
LINE
  5
3066C
330
305FD
100
AcDbEntity
  8
Hawa6
 48
0.06
100
AcDbLine
 10
49.39989497428815
 20
88.49998499999998
 30
0.0
 11
46.99989397428817
 21
88.49998499999998
 31
0.0
  0
LINE
  5
3066D
330
305FD
100
AcDbEntity
  8
Hawa6
 48
0.03
100
AcDbLine
 10
49.39989497428815
 20
87.29998799999998
 30
0.0
 11
50.59989197428831
 21
87.29998799999998
 31
0.0
  0
LINE
  5
3066E
330
305FD
100
AcDbEntity
  8
Hawa6
 48
0.302478
100
AcDbLine
 10
56.00000797428833
 20
51.0
 30
0.0
 11
43.90087197428829
 21
51.0
 31
0.0
  0
LINE
  5
3066F
330
305FD
100
AcDbEntity
  8
Hawa6
 48
0.4
100
AcDbLine
 10
43.90085697428822
 20
67.00013799999999
 30
0.0
 11
43.90085697428822
 21
83.00012199999997
 31
0.0
  0
LINE
  5
30670
330
305FD
100
AcDbEntity
  8
Hawa6
100
AcDbLine
 10
56.00000797428833
 20
85.49998499999999
 30
0.0
 11
55.99999297428826
 21
18.99999299999996
 31
0.0
  0
LINE
  5
30671
330
305FD
100
AcDbEntity
  8
Hawa6
  6
DASHDOT
100
AcDbLine
 10
49.99998497428828
 20
92.86358699999999
 30
0.0
 11
49.99998497428828
 21
-19.02768700000001
 31
0.0
  0
LINE
  5
30672
330
305FD
100
AcDbEntity
  8
Hawa6
 48
0.302478
100
AcDbLine
 10
56.00000797428833
 20
67.0
 30
0.0
 11
43.90087197428829
 21
67.0
 31
0.0
  0
LINE
  5
30673
330
305FD
100
AcDbEntity
  8
Hawa6
 48
0.3
100
AcDbLine
 10
55.99996997428821
 20
85.5
 30
0.0
 11
43.99996997428821
 21
85.49998499999999
 31
0.0
  0
LINE
  5
30674
330
305FD
100
AcDbEntity
  8
Hawa6
 48
0.106066
100
AcDbLine
 10
52.99991697428822
 20
88.49992399999996
 30
0.0
 11
55.99991697428823
 21
85.49992399999997
 31
0.0
  0
LINE
  5
30675
330
305FD
100
AcDbEntity
  8
Hawa6
 48
0.106066
100
AcDbLine
 10
46.99993997428828
 20
88.50001599999997
 30
0.0
 11
43.99994697428815
 21
85.50001599999996
 31
0.0
  0
LINE
  5
30676
330
305FD
100
AcDbEntity
  8
Hawa6
100
AcDbLine
 10
26.00829397428811
 20
18.99999299999996
 30
0.0
 11
55.99999297428826
 21
18.99999299999996
 31
0.0
  0
LINE
  5
30677
330
305FD
100
AcDbEntity
  8
Hawa6
 48
0.302478
100
AcDbLine
 10
56.00000797428833
 20
66.99998499999998
 30
0.0
 11
43.90087197428829
 21
66.99998499999998
 31
0.0
  0
LINE
  5
30678
330
305FD
100
AcDbEntity
  8
Hawa6
 48
0.302478
100
AcDbLine
 10
56.00000797428833
 20
50.99998499999998
 30
0.0
 11
43.90087997428827
 21
50.99998499999998
 31
0.0
  0
LINE
  5
30679
330
305FD
100
AcDbEntity
  8
Hawa6
 48
0.302478
100
AcDbLine
 10
56.00001597428832
 20
34.99998499999998
 30
0.0
 11
43.90087997428827
 21
34.99998499999998
 31
0.0
  0
LINE
  5
3067A
330
305FD
100
AcDbEntity
  8
Hawa6
 48
0.4
100
AcDbLine
 10
43.90085697428822
 20
35.00012999999996
 30
0.0
 11
43.90085697428822
 21
51.00013799999999
 31
0.0
  0
LINE
  5
3067B
330
305FD
100
AcDbEntity
  8
Hawa6
 48
0.3
100
AcDbLine
 10
55.99996997428821
 20
84.49998499999997
 30
0.0
 11
43.99996997428821
 21
84.49998499999997
 31
0.0
  0
LINE
  5
3067C
330
305FD
100
AcDbEntity
  8
Hawa6
 48
0.302478
100
AcDbLine
 10
56.00000797428833
 20
35.0
 30
0.0
 11
43.90087997428827
 21
35.00000799999998
 31
0.0
  0
LINE
  5
3067D
330
305FD
100
AcDbEntity
  8
Hawa6
  6
DASHDOT
 48
0.325
100
AcDbLine
 10
21.00000397428835
 20
75.00001599999996
 30
0.0
 11
34.00000797428834
 21
75.00001599999996
 31
0.0
  0
LINE
  5
3067E
330
305FD
100
AcDbEntity
  8
Hawa6
  6
DASHDOT
 48
0.325
100
AcDbLine
 10
27.50000797428834
 20
68.50013799999999
 30
0.0
 11
27.50000797428834
 21
81.50013799999999
 31
0.0
  0
LINE
  5
3067F
330
305FD
100
AcDbEntity
  8
Hawa6
 48
0.018544
100
AcDbLine
 10
34.4490519742883
 20
26.99993899999999
 30
0.0
 11
34.1953509742882
 21
27.69697599999995
 31
0.0
  0
LINE
  5
30680
330
305FD
100
AcDbEntity
  8
Hawa6
 48
0.029599
100
AcDbLine
 10
34.19532097428828
 20
27.69703699999997
 30
0.0
 11
33.37287997428826
 21
28.54870599999998
 31
0.0
  0
LINE
  5
30681
330
305FD
100
AcDbEntity
  8
Hawa6
 48
0.029598
100
AcDbLine
 10
34.1954049742883
 20
26.30299400000001
 30
0.0
 11
33.37297897428812
 21
25.45135499999998
 31
0.0
  0
LINE
  5
30682
330
305FD
100
AcDbEntity
  8
Hawa6
 48
0.018544
100
AcDbLine
 10
36.00000797428834
 20
25.44905099999994
 30
0.0
 11
36.69703697428827
 21
25.19534299999998
 31
0.0
  0
LINE
  5
30683
330
305FD
100
AcDbEntity
  8
Hawa6
 48
0.018544
100
AcDbLine
 10
36.00003897428815
 20
25.44903599999998
 30
0.0
 11
35.30300997428822
 21
25.19534299999998
 31
0.0
  0
LINE
  5
30684
330
305FD
100
AcDbEntity
  8
Hawa6
 48
0.018544
100
AcDbLine
 10
37.55115597428812
 20
26.99996199999998
 30
0.0
 11
37.80484797428812
 21
27.69699099999997
 31
0.0
  0
LINE
  5
30685
330
305FD
100
AcDbEntity
  8
Hawa6
 48
0.018545
100
AcDbLine
 10
37.55091197428829
 20
26.99992399999997
 30
0.0
 11
37.80461197428826
 21
26.30287199999998
 31
0.0
  0
LINE
  5
30686
330
305FD
100
AcDbEntity
  8
Hawa6
 48
0.029599
100
AcDbLine
 10
37.80465797428815
 20
26.30294799999996
 30
0.0
 11
38.62709897428818
 21
25.451279
 31
0.0
  0
LINE
  5
30687
330
305FD
100
AcDbEntity
  8
Hawa6
 48
0.029598
100
AcDbLine
 10
37.80477197428832
 20
27.69700699999999
 30
0.0
 11
38.62718997428828
 21
28.54866099999998
 31
0.0
  0
LINE
  5
30688
330
305FD
100
AcDbEntity
  8
Hawa6
 48
0.35
100
AcDbLine
 10
44.00000797428833
 20
52.0
 30
0.0
 11
44.00000797428833
 21
66.0
 31
0.0
  0
LINE
  5
30689
330
305FD
100
AcDbEntity
  8
Hawa6
 48
0.35
100
AcDbLine
 10
44.00001597428832
 20
20.00000799999998
 30
0.0
 11
44.00001597428832
 21
34.00000799999998
 31
0.0
  0
LINE
  5
3068A
330
305FD
100
AcDbEntity
  8
Hawa6
 48
0.4
100
AcDbLine
 10
44.00001597428832
 20
35.00000799999998
 30
0.0
 11
44.00000797428833
 21
51.0
 31
0.0
  0
LINE
  5
3068B
330
305FD
100
AcDbEntity
  8
Hawa6
 48
0.4473140000000001
100
AcDbLine
 10
26.00829397428811
 20
83.0
 30
0.0
 11
43.90087197428829
 21
83.0
 31
0.0
  0
LINE
  5
3068C
330
305FD
100
AcDbEntity
  8
Hawa6
100
AcDbLine
 10
19.99998497428828
 20
76.99998499999998
 30
0.0
 11
20.00000097428824
 21
24.99998499999998
 31
0.0
  0
LINE
  5
3068D
330
305FD
100
AcDbEntity
  8
Hawa6
 48
0.302479
100
AcDbLine
 10
43.90085697428822
 20
83.0
 30
0.0
 11
56.00000797428833
 21
83.0
 31
0.0
  0
LINE
  5
3068E
330
305FD
100
AcDbEntity
  8
Hawa6
  6
DASHED
 48
0.115002
100
AcDbLine
 10
41.5998009742882
 20
6.500137999999992
 30
0.0
 11
46.19989797428821
 21
6.500137999999992
 31
0.0
  0
LINE
  5
3068F
330
305FD
100
AcDbEntity
  8
Hawa6
  6
DASHED
 48
0.140002
100
AcDbLine
 10
41.09981597428827
 20
7.000129999999955
 30
0.0
 11
46.6998979742882
 21
7.000129999999955
 31
0.0
  0
LINE
  5
30690
330
305FD
100
AcDbEntity
  8
Hawa6
  6
DASHED
 48
0.140004
100
AcDbLine
 10
41.10003697428829
 20
10.00012199999997
 30
0.0
 11
46.70021097428821
 21
10.00012199999997
 31
0.0
  0
LINE
  5
30691
330
305FD
100
AcDbEntity
  8
Hawa6
  6
DASHED
 48
0.115003
100
AcDbLine
 10
41.60006797428832
 20
10.50015299999995
 30
0.0
 11
46.2001729742883
 21
10.50015299999995
 31
0.0
  0
LINE
  5
30692
330
305FD
100
AcDbEntity
  8
Hawa6
  6
DASHED
 48
0.25
100
AcDbLine
 10
30.99999297428826
 20
-31.99998400000004
 30
0.0
 11
40.99999297428825
 21
-31.99998400000004
 31
0.0
  0
LINE
  5
30693
330
305FD
100
AcDbEntity
  8
Hawa6
  6
DASHDOT
 48
0.183521
100
AcDbLine
 10
22.00000097428824
 20
-29.25662200000002
 30
0.0
 11
22.00000097428824
 21
-36.59744200000003
 31
0.0
  0
LINE
  5
30694
330
305FD
100
AcDbEntity
  8
Hawa6
  6
DASHDOT
 48
0.183521
100
AcDbLine
 10
36.00000097428824
 20
-29.25662200000002
 30
0.0
 11
36.00000097428824
 21
-36.59744200000003
 31
0.0
  0
LINE
  5
30695
330
305FD
100
AcDbEntity
  8
Hawa6
  6
DASHED
 48
0.0375
100
AcDbLine
 10
27.00000097428824
 20
-30.49989300000002
 30
0.0
 11
27.00000097428824
 21
-31.99989300000002
 31
0.0
  0
LINE
  5
30696
330
305FD
100
AcDbEntity
  8
Hawa6
  6
DASHED
 48
0.0375
100
AcDbLine
 10
31.00000097428824
 20
-30.49989300000002
 30
0.0
 11
31.00000097428824
 21
-31.99989300000002
 31
0.0
  0
LINE
  5
30697
330
305FD
100
AcDbEntity
  8
Hawa6
  6
DASHED
 48
0.25
100
AcDbLine
 10
16.99999697428825
 20
-31.99998400000004
 30
0.0
 11
26.99999297428826
 21
-31.99998400000004
 31
0.0
  0
LINE
  5
30698
330
305FD
100
AcDbEntity
  8
Hawa6
  6
DASHED
 48
0.075
100
AcDbLine
 10
33.4000099742882
 20
-31.99989300000002
 30
0.0
 11
33.4000099742882
 21
-34.99989300000001
 31
0.0
  0
LINE
  5
30699
330
305FD
100
AcDbEntity
  8
Hawa6
  6
DASHED
 48
0.075
100
AcDbLine
 10
38.59999197428829
 20
-31.99989300000002
 30
0.0
 11
38.59999197428829
 21
-34.99989300000001
 31
0.0
  0
LINE
  5
3069A
330
305FD
100
AcDbEntity
  8
Hawa6
  6
DASHED
 48
0.075
100
AcDbLine
 10
19.40000197428821
 20
-31.99988500000003
 30
0.0
 11
19.40000197428821
 21
-34.99988500000001
 31
0.0
  0
LINE
  5
3069B
330
305FD
100
AcDbEntity
  8
Hawa6
  6
DASHED
 48
0.075
100
AcDbLine
 10
24.59999197428829
 20
-31.99988500000003
 30
0.0
 11
24.59999197428829
 21
-34.99988500000001
 31
0.0
  0
LINE
  5
3069C
330
305FD
100
AcDbEntity
  8
Hawa6
  6
DASHDOT
 48
0.360988
100
AcDbLine
 10
29.00000097428824
 20
-27.15272500000003
 30
0.0
 11
29.00000097428824
 21
-41.59223900000003
 31
0.0
  0
LINE
  5
3069D
330
305FD
100
AcDbEntity
  8
Hawa6
100
AcDbLine
 10
-5.000007025711738
 20
-36.99999200000002
 30
0.0
 11
40.99999297428825
 21
-36.99999200000002
 31
0.0
  0
LINE
  5
3069E
330
305FD
100
AcDbEntity
  8
Hawa6
 48
0.075
100
AcDbLine
 10
27.50000797428834
 20
-29.00001500000002
 30
0.0
 11
30.49999297428826
 21
-29.00001500000002
 31
0.0
  0
LINE
  5
3069F
330
305FD
100
AcDbEntity
  8
Hawa6
 48
0.012499
100
AcDbLine
 10
31.50000097428824
 20
-29.99989300000001
 30
0.0
 11
31.50000097428824
 21
-30.49986200000001
 31
0.0
  0
LINE
  5
306A0
330
305FD
100
AcDbEntity
  8
Hawa6
 48
0.0125
100
AcDbLine
 10
26.50000097428824
 20
-29.99988500000004
 30
0.0
 11
26.50000097428824
 21
-30.49987000000002
 31
0.0
  0
LINE
  5
306A1
330
305FD
100
AcDbEntity
  8
Hawa6
 48
0.037499
100
AcDbLine
 10
27.50000097428824
 20
-28.99989300000001
 30
0.0
 11
27.50000097428824
 21
-30.49987000000002
 31
0.0
  0
LINE
  5
306A2
330
305FD
100
AcDbEntity
  8
Hawa6
 48
0.037499
100
AcDbLine
 10
30.50000097428824
 20
-28.99989300000001
 30
0.0
 11
30.50000097428824
 21
-30.49986200000001
 31
0.0
  0
LINE
  5
306A3
330
305FD
100
AcDbEntity
  8
Hawa6
 48
0.035355
100
AcDbLine
 10
26.50005397428822
 20
-29.99995400000003
 30
0.0
 11
27.50005397428822
 21
-28.99996200000001
 31
0.0
  0
LINE
  5
306A4
330
305FD
100
AcDbEntity
  8
Hawa6
 48
0.035355
100
AcDbLine
 10
30.4999319742883
 20
-28.99995400000003
 30
0.0
 11
31.4999319742883
 21
-29.99995400000003
 31
0.0
  0
LINE
  5
306A5
330
305FD
100
AcDbEntity
  8
Hawa6
 48
0.125
100
AcDbLine
 10
26.49999297428826
 20
-30.00001500000002
 30
0.0
 11
31.49999297428826
 21
-30.00001500000002
 31
0.0
  0
LINE
  5
306A6
330
305FD
100
AcDbEntity
  8
Hawa6
  6
DASHED
 48
0.05
100
AcDbLine
 10
26.50003897428815
 20
-36.99992300000003
 30
0.0
 11
27.50003897428815
 21
-35.26786800000002
 31
0.0
  0
LINE
  5
306A7
330
305FD
100
AcDbEntity
  8
Hawa6
  6
DASHED
 48
0.05
100
AcDbLine
 10
31.4999319742883
 20
-36.99992300000003
 30
0.0
 11
30.4999319742883
 21
-35.26787500000003
 31
0.0
  0
LINE
  5
306A8
330
305FD
100
AcDbEntity
  8
Hawa6
  6
DASHED
 48
0.075
100
AcDbLine
 10
27.49999297428826
 20
-35.26796700000003
 30
0.0
 11
30.49999297428826
 21
-35.26796700000003
 31
0.0
  0
LINE
  5
306A9
330
305FD
100
AcDbEntity
  8
Hawa6
100
AcDbLine
 10
16.99999697428825
 20
-30.49998400000004
 30
0.0
 11
41.00000797428833
 21
-30.49998400000004
 31
0.0
  0
LINE
  5
306AA
330
305FD
100
AcDbEntity
  8
Hawa6
100
AcDbLine
 10
-5.000007025711738
 20
-34.99999200000002
 30
0.0
 11
41.00000797428833
 21
-34.99999200000002
 31
0.0
  0
LINE
  5
306AB
330
305FD
100
AcDbEntity
  8
Hawa6
  6
DASHED
 48
0.049999
100
AcDbLine
 10
32.94999797428818
 20
-34.99989300000001
 30
0.0
 11
32.94999797428818
 21
-36.99987000000002
 31
0.0
  0
LINE
  5
306AC
330
305FD
100
AcDbEntity
  8
Hawa6
  6
DASHED
 48
0.05
100
AcDbLine
 10
25.0500039742883
 20
-34.99988500000001
 30
0.0
 11
25.0500039742883
 21
-36.99988500000001
 31
0.0
  0
LINE
  5
306AD
330
305FD
100
AcDbEntity
  8
Hawa6
  6
DASHDOT
 48
0.074247
100
AcDbLine
 10
35.50000097428824
 20
-34.59860200000003
 30
0.0
 11
35.50000097428824
 21
-37.56847400000004
 31
0.0
  0
LINE
  5
306AE
330
305FD
100
AcDbEntity
  8
Hawa6
  6
DASHDOT
 48
0.074247
100
AcDbLine
 10
22.50000097428824
 20
-34.59860200000003
 30
0.0
 11
22.50000097428824
 21
-37.56847400000004
 31
0.0
  0
LINE
  5
306AF
330
305FD
100
AcDbEntity
  8
Hawa6
  6
DASHED
 48
0.05
100
AcDbLine
 10
38.0500039742883
 20
-34.99989300000001
 30
0.0
 11
38.0500039742883
 21
-36.99989300000002
 31
0.0
  0
LINE
  5
306B0
330
305FD
100
AcDbEntity
  8
Hawa6
  6
DASHED
 48
0.05
100
AcDbLine
 10
19.95000497428828
 20
-34.99988500000001
 30
0.0
 11
19.95000497428828
 21
-36.99988500000001
 31
0.0
  0
LINE
  5
306B1
330
305FD
100
AcDbEntity
  8
Hawa6
 48
0.262501
100
AcDbLine
 10
41.00000097428824
 20
-36.99989300000002
 30
0.0
 11
41.00000097428824
 21
-26.49986200000001
 31
0.0
  0
LINE
  5
306B2
330
305FD
100
AcDbEntity
  8
Hawa6
 48
0.0775
100
AcDbLine
 10
24.75000097428824
 20
-36.99989300000002
 30
0.0
 11
24.75000097428824
 21
-40.09989100000001
 31
0.0
  0
LINE
  5
306B3
330
305FD
100
AcDbEntity
  8
Hawa6
 48
0.0775
100
AcDbLine
 10
33.25000097428824
 20
-36.99989300000002
 30
0.0
 11
33.25000097428824
 21
-40.09989100000001
 31
0.0
  0
LINE
  5
306B4
330
305FD
100
AcDbEntity
  8
Hawa6
  6
DASHED
 48
0.035
100
AcDbLine
 10
26.69059797428827
 20
-40.49989300000001
 30
0.0
 11
26.69059797428827
 21
-39.09989100000002
 31
0.0
  0
LINE
  5
306B5
330
305FD
100
AcDbEntity
  8
Hawa6
  6
DASHED
 48
0.035
100
AcDbLine
 10
27.84530697428818
 20
-40.49989300000001
 30
0.0
 11
27.84530697428818
 21
-39.09989100000002
 31
0.0
  0
LINE
  5
306B6
330
305FD
100
AcDbEntity
  8
Hawa6
  6
DASHED
 48
0.035
100
AcDbLine
 10
30.1546939742882
 20
-40.49989300000001
 30
0.0
 11
30.1546939742882
 21
-39.09989100000002
 31
0.0
  0
LINE
  5
306B7
330
305FD
100
AcDbEntity
  8
Hawa6
  6
DASHED
 48
0.035
100
AcDbLine
 10
31.30940297428833
 20
-39.09989100000002
 30
0.0
 11
31.30940297428833
 21
-40.49989300000001
 31
0.0
  0
LINE
  5
306B8
330
305FD
100
AcDbEntity
  8
Hawa6
  6
DASHED
 48
0.11547
100
AcDbLine
 10
31.30939597428824
 20
-39.10001300000002
 30
0.0
 11
26.69059097428817
 21
-39.10001300000002
 31
0.0
  0
LINE
  5
306B9
330
305FD
100
AcDbEntity
  8
Hawa6
  6
DASHED
 48
0.057735
100
AcDbLine
 10
27.00003897428814
 20
-39.09999100000002
 30
0.0
 11
29.00003897428815
 21
-37.94528900000003
 31
0.0
  0
LINE
  5
306BA
330
305FD
100
AcDbEntity
  8
Hawa6
  6
DASHED
 48
0.057735
100
AcDbLine
 10
30.99994697428815
 20
-39.09998300000001
 30
0.0
 11
28.99994697428815
 21
-37.94528200000002
 31
0.0
  0
LINE
  5
306BB
330
305FD
100
AcDbEntity
  8
Hawa6
 48
0.1925
100
AcDbLine
 10
25.15000197428822
 20
-40.50001500000002
 30
0.0
 11
32.84999897428816
 21
-40.50001500000002
 31
0.0
  0
LINE
  5
306BC
330
305FD
100
AcDbEntity
  8
Hawa6
 48
0.388104
100
AcDbLine
 10
41.00003097428817
 20
-30.99987000000002
 30
0.0
 11
45.00001597428831
 21
-15.99987000000004
 31
0.0
  0
LINE
  5
306BD
330
305FD
100
AcDbEntity
  8
Hawa6
  6
DASHED
 48
0.175
100
AcDbLine
 10
54.09999197428828
 20
6.000137999999992
 30
0.0
 11
54.09999197428828
 21
13.00013799999999
 31
0.0
  0
LINE
  5
306BE
330
305FD
100
AcDbEntity
  8
Hawa6
  6
DASHED
 48
0.012502
100
AcDbLine
 10
46.99998497428828
 20
-15.49986200000001
 30
0.0
 11
46.99998497428828
 21
-15.99992300000002
 31
0.0
  0
LINE
  5
306BF
330
305FD
100
AcDbEntity
  8
Hawa6
  6
DASHED
 48
0.012502
100
AcDbLine
 10
52.99998497428828
 20
-15.49986200000001
 30
0.0
 11
52.99998497428828
 21
-15.99992300000002
 31
0.0
  0
LINE
  5
306C0
330
305FD
100
AcDbEntity
  8
Hawa6
  6
DASHED
 48
0.037502
100
AcDbLine
 10
53.99998497428828
 20
-14.49986200000001
 30
0.0
 11
53.99998497428828
 21
-15.99992300000002
 31
0.0
  0
LINE
  5
306C1
330
305FD
100
AcDbEntity
  8
Hawa6
  6
DASHED
 48
0.037502
100
AcDbLine
 10
45.99998497428828
 20
-14.49986200000001
 30
0.0
 11
45.99998497428828
 21
-15.99992300000002
 31
0.0
  0
LINE
  5
306C2
330
305FD
100
AcDbEntity
  8
Hawa6
  6
DASHED
 48
0.035355
100
AcDbLine
 10
54.00009197428812
 20
-14.49996200000001
 30
0.0
 11
53.00009197428813
 21
-15.499954
 31
0.0
  0
LINE
  5
306C3
330
305FD
100
AcDbEntity
  8
Hawa6
  6
DASHED
 48
0.035355
100
AcDbLine
 10
46.9999319742883
 20
-15.499908
 30
0.0
 11
45.99993997428827
 21
-14.49991600000004
 31
0.0
  0
LINE
  5
306C4
330
305FD
100
AcDbEntity
  8
Hawa6
  6
DASHED
 48
0.2
100
AcDbLine
 10
45.99999297428825
 20
-14.49992300000002
 30
0.0
 11
53.99999297428826
 21
-14.49992300000002
 31
0.0
  0
LINE
  5
306C5
330
305FD
100
AcDbEntity
  8
Hawa6
  6
DASHED
 48
0.4000020000000001
100
AcDbLine
 10
46.99999297428826
 20
0.5001989999999808
 30
0.0
 11
46.99998497428828
 21
-15.49986200000001
 31
0.0
  0
LINE
  5
306C6
330
305FD
100
AcDbEntity
  8
Hawa6
  6
DASHED
 48
0.35
100
AcDbLine
 10
52.99999297428826
 20
-1.499862000000007
 30
0.0
 11
52.99998497428828
 21
-15.49986200000001
 31
0.0
  0
LINE
  5
306C7
330
305FD
100
AcDbEntity
  8
Hawa6
  6
DASHED
 48
0.162497
100
AcDbLine
 10
53.99999297428826
 20
6.000076999999976
 30
0.0
 11
53.99999297428826
 21
-0.4998010000000193
 31
0.0
  0
LINE
  5
306C8
330
305FD
100
AcDbEntity
  8
Hawa6
  6
DASHED
 48
0.162497
100
AcDbLine
 10
45.99999297428825
 20
6.000076999999976
 30
0.0
 11
45.99999297428825
 21
-0.4998010000000193
 31
0.0
  0
LINE
  5
306C9
330
305FD
100
AcDbEntity
  8
Hawa6
  6
DASHED
 48
0.15
100
AcDbLine
 10
46.99999297428826
 20
-15.49992300000002
 30
0.0
 11
53.00000097428824
 21
-15.49992300000002
 31
0.0
  0
LINE
  5
306CA
330
305FD
100
AcDbEntity
  8
Hawa6
  6
DASHED
 48
0.205
100
AcDbLine
 10
45.89998697428813
 20
6.000076999999976
 30
0.0
 11
54.09999897428815
 21
6.000076999999976
 31
0.0
  0
LINE
  5
306CB
330
305FD
100
AcDbEntity
  8
Hawa6
  6
DASHED
 48
0.175
100
AcDbLine
 10
45.89997897428816
 20
6.000137999999992
 30
0.0
 11
45.89997897428816
 21
13.00013799999999
 31
0.0
  0
LINE
  5
306CC
330
305FD
100
AcDbEntity
  8
Hawa6
 48
0.375
100
AcDbLine
 10
40.50000097428823
 20
13.00007699999997
 30
0.0
 11
55.49999297428826
 21
13.00007699999997
 31
0.0
  0
LINE
  5
306CD
330
305FD
100
AcDbEntity
  8
Hawa6
 48
0.275
100
AcDbLine
 10
44.99999297428826
 20
-15.99992300000002
 30
0.0
 11
55.99999297428826
 21
-15.99992300000002
 31
0.0
  0
LINE
  5
306CE
330
305FD
100
AcDbEntity
  8
Hawa6
 48
0.150133
100
AcDbLine
 10
39.99999297428826
 20
6.494827999999984
 30
0.0
 11
39.99999297428826
 21
12.50014499999997
 31
0.0
  0
LINE
  5
306CF
330
305FD
100
AcDbEntity
  8
Hawa6
100
AcDbLine
 10
55.99998497428828
 20
-15.99984700000004
 30
0.0
 11
55.99998497428828
 21
12.50013799999999
 31
0.0
  0
LINE
  5
306D0
330
305FD
100
AcDbEntity
  8
Hawa6
100
AcDbLine
 10
45.71512697428829
 20
-15.18468400000003
 30
0.0
 11
45.71512697428829
 21
12.43779799999998
 31
0.0
  0
LINE
  5
306D1
330
305FD
100
AcDbEntity
  8
Hawa6
  6
DASHED
 48
0.1625
100
AcDbLine
 10
26.50000097428824
 20
-30.49987000000002
 30
0.0
 11
26.50000097428824
 21
-36.99988500000001
 31
0.0
  0
LINE
  5
306D2
330
305FD
100
AcDbEntity
  8
Hawa6
  6
DASHED
 48
0.119199
100
AcDbLine
 10
27.50000097428824
 20
-30.49987000000002
 30
0.0
 11
27.50000097428824
 21
-35.26783700000001
 31
0.0
  0
LINE
  5
306D3
330
305FD
100
AcDbEntity
  8
Hawa6
  6
DASHED
 48
0.119199
100
AcDbLine
 10
30.50000097428824
 20
-30.49986200000001
 30
0.0
 11
30.50000097428824
 21
-35.26783700000001
 31
0.0
  0
LINE
  5
306D4
330
305FD
100
AcDbEntity
  8
Hawa6
  6
DASHED
 48
0.162501
100
AcDbLine
 10
31.50000097428824
 20
-30.49986200000001
 30
0.0
 11
31.50000097428824
 21
-36.99989300000002
 31
0.0
  0
LINE
  5
306D5
330
305FD
100
AcDbEntity
  8
Hawa6
100
AcDbLine
 10
17.68978597428827
 20
-28.49998400000004
 30
0.0
 11
40.35735397428811
 21
-28.49998400000004
 31
0.0
  0
LINE
  5
306D6
330
305FD
100
AcDbEntity
  8
Hawa6
  6
DASHED
 48
0.312497
100
AcDbLine
 10
47.00011497428818
 20
13.00007699999997
 30
0.0
 11
47.00011497428818
 21
0.5001989999999808
 31
0.0
  0
LINE
  5
306D7
330
305FD
100
AcDbEntity
  8
Hawa6
  6
DASHED
 48
0.312497
100
AcDbLine
 10
53.00011497428818
 20
13.00007699999997
 30
0.0
 11
53.00011497428818
 21
0.5001989999999808
 31
0.0
  0
LINE
  5
306D8
330
305FD
100
AcDbEntity
  8
Hawa6
  6
DASHED
 48
0.350002
100
AcDbLine
 10
45.99999297428825
 20
-0.4998010000000193
 30
0.0
 11
45.99998497428828
 21
-14.49986200000001
 31
0.0
  0
LINE
  5
306D9
330
305FD
100
AcDbEntity
  8
Hawa6
  6
DASHED
 48
0.350002
100
AcDbLine
 10
53.99999297428826
 20
-0.4998010000000193
 30
0.0
 11
53.99998497428828
 21
-14.49986200000001
 31
0.0
  0
LINE
  5
306DA
330
305FD
100
AcDbEntity
  8
Hawa6
 48
0.003215
100
AcDbLine
 10
43.90911197428818
 20
-20.09075900000002
 30
0.0
 11
44.0000619742882
 21
-19.99981700000001
 31
0.0
  0
CIRCLE
  5
306DB
330
305FD
100
AcDbEntity
  8
Hawa6
100
AcDbCircle
 10
35.99997797428819
 20
26.99999300000002
 30
0.0
 40
5.0
  0
CIRCLE
  5
306DC
330
305FD
100
AcDbEntity
  8
Hawa6
100
AcDbCircle
 10
27.49999297428826
 20
38.99998499999998
 30
0.0
 40
5.0
  0
ARC
  5
306DD
330
305FD
100
AcDbEntity
  8
Hawa6
  6
DASHED
100
AcDbCircle
 10
54.00000097428824
 20
19.49999300000001
 30
0.0
 40
1.0
100
AcDbArc
 50
89.99997499999748
 51
179.999978
  0
ARC
  5
306DE
330
305FD
100
AcDbEntity
  8
Hawa6
  6
DASHED
100
AcDbCircle
 10
46.00000097428824
 20
19.49999300000001
 30
0.0
 40
1.0
100
AcDbArc
 50
359.9999830000006
 51
89.99997499999748
  0
ARC
  5
306DF
330
305FD
100
AcDbEntity
  8
Hawa6
100
AcDbCircle
 10
25.99999297428826
 20
76.99998499999998
 30
0.0
 40
6.0
100
AcDbArc
 50
90.00003000000303
 51
180.0000190000006
  0
ARC
  5
306E0
330
305FD
100
AcDbEntity
  8
Hawa6
100
AcDbCircle
 10
26.00000797428834
 20
24.99998499999998
 30
0.0
 40
6.0
100
AcDbArc
 50
180.0000190000006
 51
270.0000280000002
  0
ARC
  5
306E1
330
305FD
100
AcDbEntity
  8
Hawa6
100
AcDbCircle
 10
35.99997797428819
 20
63.0
 30
0.0
 40
3.049618
100
AcDbArc
 50
210.5199810000029
 51
239.4798739999935
  0
ARC
  5
306E2
330
305FD
100
AcDbEntity
  8
Hawa6
100
AcDbCircle
 10
27.49999297428826
 20
74.99998499999998
 30
0.0
 40
3.049618
100
AcDbArc
 50
120.5199169999963
 51
149.4798369999979
  0
ARC
  5
306E3
330
305FD
100
AcDbEntity
  8
Hawa6
100
AcDbCircle
 10
35.99997797428819
 20
63.0
 30
0.0
 40
3.049618
100
AcDbArc
 50
300.5198810000032
 51
329.4797200000044
  0
ARC
  5
306E4
330
305FD
100
AcDbEntity
  8
Hawa6
100
AcDbCircle
 10
27.49999297428826
 20
38.99998499999998
 30
0.0
 40
3.049618
100
AcDbArc
 50
30.51991499999433
 51
59.47975999999556
  0
CIRCLE
  5
306E5
330
305FD
100
AcDbEntity
  8
Hawa6
100
AcDbCircle
 10
35.99997797428819
 20
63.0
 30
0.0
 40
5.0
  0
ARC
  5
306E6
330
305FD
100
AcDbEntity
  8
Hawa6
100
AcDbCircle
 10
27.49999297428826
 20
38.99998499999998
 30
0.0
 40
3.049618
100
AcDbArc
 50
120.5199169999963
 51
149.4798369999979
  0
ARC
  5
306E7
330
305FD
100
AcDbEntity
  8
Hawa6
100
AcDbCircle
 10
35.99997797428819
 20
26.99999300000002
 30
0.0
 40
3.049618
100
AcDbArc
 50
210.5199810000029
 51
239.4798739999935
  0
ARC
  5
306E8
330
305FD
100
AcDbEntity
  8
Hawa6
100
AcDbCircle
 10
35.99997797428819
 20
26.99999300000002
 30
0.0
 40
3.049618
100
AcDbArc
 50
30.51991499999433
 51
59.47975999999556
  0
ARC
  5
306E9
330
305FD
100
AcDbEntity
  8
Hawa6
100
AcDbCircle
 10
35.99997797428819
 20
26.99999300000002
 30
0.0
 40
3.049618
100
AcDbArc
 50
300.5198810000032
 51
329.4797200000044
  0
ARC
  5
306EA
330
305FD
100
AcDbEntity
  8
Hawa6
100
AcDbCircle
 10
35.99997797428819
 20
26.99999300000002
 30
0.0
 40
3.049618
100
AcDbArc
 50
120.5199169999963
 51
149.4798369999979
  0
CIRCLE
  5
306EB
330
305FD
100
AcDbEntity
  8
Hawa6
100
AcDbCircle
 10
27.49999297428826
 20
74.99998499999998
 30
0.0
 40
5.0
  0
ARC
  5
306EC
330
305FD
100
AcDbEntity
  8
Hawa6
100
AcDbCircle
 10
27.49999297428826
 20
38.99998499999998
 30
0.0
 40
3.049618
100
AcDbArc
 50
210.5199810000029
 51
239.4798739999935
  0
ARC
  5
306ED
330
305FD
100
AcDbEntity
  8
Hawa6
100
AcDbCircle
 10
35.99997797428819
 20
63.0
 30
0.0
 40
3.049618
100
AcDbArc
 50
120.5199169999963
 51
149.4798369999979
  0
ARC
  5
306EE
330
305FD
100
AcDbEntity
  8
Hawa6
100
AcDbCircle
 10
35.99997797428819
 20
63.0
 30
0.0
 40
3.049618
100
AcDbArc
 50
30.51991499999433
 51
59.47975999999556
  0
ARC
  5
306EF
330
305FD
100
AcDbEntity
  8
Hawa6
100
AcDbCircle
 10
27.49999297428826
 20
38.99998499999998
 30
0.0
 40
3.049618
100
AcDbArc
 50
300.5198810000032
 51
329.4797200000044
  0
ARC
  5
306F0
330
305FD
100
AcDbEntity
  8
Hawa6
100
AcDbCircle
 10
27.49999297428826
 20
74.99998499999998
 30
0.0
 40
3.049618
100
AcDbArc
 50
210.5199810000029
 51
239.4798739999935
  0
ARC
  5
306F1
330
305FD
100
AcDbEntity
  8
Hawa6
100
AcDbCircle
 10
27.49999297428826
 20
74.99998499999998
 30
0.0
 40
3.049618
100
AcDbArc
 50
300.5198810000032
 51
329.4797200000044
  0
ARC
  5
306F2
330
305FD
100
AcDbEntity
  8
Hawa6
100
AcDbCircle
 10
27.49999297428826
 20
74.99998499999998
 30
0.0
 40
3.049618
100
AcDbArc
 50
30.51991499999433
 51
59.47975999999556
  0
ARC
  5
306F3
330
305FD
100
AcDbEntity
  8
Hawa6
100
AcDbCircle
 10
39.00000797428834
 20
-16.999885
 30
0.0
 40
22.0
100
AcDbArc
 50
91.21913699999815
 51
180.0000050000005
  0
ARC
  5
306F4
330
305FD
100
AcDbEntity
  8
Hawa6
100
AcDbCircle
 10
38.50000797428834
 20
6.494796999999948
 30
0.0
 40
1.5
100
AcDbArc
 50
271.2194079999935
 51
0.0
  0
ARC
  5
306F5
330
305FD
100
AcDbEntity
  8
Hawa6
100
AcDbCircle
 10
32.84999897428816
 20
-40.09989100000001
 30
0.0
 40
0.4
100
AcDbArc
 50
270.0000009999949
 51
0.000009999999378
  0
ARC
  5
306F6
330
305FD
100
AcDbEntity
  8
Hawa6
100
AcDbCircle
 10
25.15000197428822
 20
-40.09989100000001
 30
0.0
 40
0.4
100
AcDbArc
 50
180.0000050000005
 51
270.0000009999949
  0
ARC
  5
306F7
330
305FD
100
AcDbEntity
  8
Hawa6
100
AcDbCircle
 10
40.50000097428823
 20
12.50014499999997
 30
0.0
 40
0.5
100
AcDbArc
 50
90.00000299999769
 51
179.9999910000004
  0
ARC
  5
306F8
330
305FD
100
AcDbEntity
  8
Hawa6
100
AcDbCircle
 10
55.49999297428826
 20
12.50013799999999
 30
0.0
 40
0.5
100
AcDbArc
 50
0.000009999999378
 51
90.00000299999769
  0
ARC
  5
306F9
330
305FD
100
AcDbEntity
  8
Hawa6
  6
DASHED
100
AcDbCircle
 10
53.99988597428819
 20
0.5001989999999808
 30
0.0
 40
1.0
100
AcDbArc
 50
179.999978
 51
269.9999729999947
  0
ARC
  5
306FA
330
305FD
100
AcDbEntity
  8
Hawa6
  6
DASHED
100
AcDbCircle
 10
45.99988597428819
 20
0.5001989999999808
 30
0.0
 40
1.0
100
AcDbArc
 50
269.9999729999947
 51
359.9999830000006
  0
LINE
  5
306FB
330
305FD
100
AcDbEntity
  8
Hawa6
 48
0.2
100
AcDbLine
 10
-11.70000402571168
 20
-34.84938000000005
 30
0.0
 11
-11.70001202571166
 21
-37.9998318429204
 31
0.0
  0
LINE
  5
306FC
330
305FD
100
AcDbEntity
  8
Hawa6
 48
0.2
100
AcDbLine
 10
-11.70000402571168
 20
-30.84941100000003
 30
0.0
 11
-11.70000402571168
 21
-34.84938000000005
 31
0.0
  0
LINE
  5
306FD
330
305FD
100
AcDbEntity
  8
Hawa6
 48
0.2
100
AcDbLine
 10
-11.70000402571168
 20
-16.19996633161258
 30
0.0
 11
-11.70000402571168
 21
-30.84941100000003
 31
0.0
  0
LINE
  5
306FE
330
305FD
100
AcDbEntity
  8
Hawa6
 48
0.2
100
AcDbLine
 10
-11.69341202571172
 20
-3.0
 30
0.0
 11
-11.70001202571166
 21
-11.2998118429204
 31
0.0
  0
LINE
  5
306FF
330
305FD
100
AcDbEntity
  8
Hawa6
 48
0.070797
100
AcDbLine
 10
-0.0000070257117386
 20
-46.16816700000003
 30
0.0
 11
-0.0000070257117386
 21
-49.00003000000004
 31
0.0
  0
LINE
  5
30700
330
305FD
100
AcDbEntity
  8
Hawa6
 48
0.3
100
AcDbLine
 10
-10.57968740317756
 20
-34.84938000000003
 30
0.0
 11
-11.70000402571168
 21
-34.84938000000003
 31
0.0
  0
LINE
  5
30701
330
305FD
100
AcDbEntity
  8
Hawa6
 48
0.150592
100
AcDbLine
 10
-9.200004025711677
 20
-6.499954000000002
 30
0.0
 11
-3.176307025711821
 21
-6.499954000000002
 31
0.0
  0
LINE
  5
30702
330
305FD
100
AcDbEntity
  8
Hawa6
 48
0.07
100
AcDbLine
 10
-9.200004025711677
 20
-9.299942000000015
 30
0.0
 11
-9.200004025711677
 21
-6.499954000000002
 31
0.0
  0
LINE
  5
30703
330
305FD
100
AcDbEntity
  8
Hawa6
 48
0.222501
100
AcDbLine
 10
-7.000053025711849
 20
-18.19996600000002
 30
0.0
 11
-7.000053025711849
 21
-9.299942000000015
 31
0.0
  0
LINE
  5
30704
330
305FD
100
AcDbEntity
  8
Hawa6
 48
0.005
100
AcDbLine
 10
10.69995897428816
 20
-12.29997200000002
 30
0.0
 11
10.49994697428815
 21
-12.29997200000002
 31
0.0
  0
LINE
  5
30705
330
305FD
100
AcDbEntity
  8
Hawa6
 48
0.07
100
AcDbLine
 10
9.199958974288165
 20
-9.299942000000015
 30
0.0
 11
9.199958974288165
 21
-6.499954000000002
 31
0.0
  0
LINE
  5
30706
330
305FD
100
AcDbEntity
  8
Hawa6
  6
DASHDOT
100
AcDbLine
 10
-0.0000220257118144
 20
-53.30506100000002
 30
0.0
 11
0.0000009742882412
 21
2.357902999999964
 31
0.0
  0
LINE
  5
30707
330
305FD
100
AcDbEntity
  8
Hawa6
 48
0.257501
100
AcDbLine
 10
-8.700004025711677
 20
-37.99998400000001
 30
0.0
 11
-8.700004025711677
 21
-27.69993600000004
 31
0.0
  0
LINE
  5
30708
330
305FD
100
AcDbEntity
  8
Hawa6
 48
0.025
100
AcDbLine
 10
-10.70000402571168
 20
-38.99995400000003
 30
0.0
 11
-9.700004025711677
 21
-38.99995400000003
 31
0.0
  0
LINE
  5
30709
330
305FD
100
AcDbEntity
  8
Hawa6
 48
0.125
100
AcDbLine
 10
-7.000053025711849
 20
-25.99995400000003
 30
0.0
 11
-7.000053025711849
 21
-20.999954
 31
0.0
  0
LINE
  5
3070A
330
305FD
100
AcDbEntity
  8
Hawa6
 48
0.025386
100
AcDbLine
 10
3.000019974288306
 20
-7.499954000000002
 30
0.0
 11
3.176346974288208
 21
-6.499954000000002
 31
0.0
  0
LINE
  5
3070B
330
305FD
100
AcDbEntity
  8
Hawa6
 48
0.005
100
AcDbLine
 10
10.69995897428816
 20
-15.19993600000004
 30
0.0
 11
10.49994697428815
 21
-15.19993600000004
 31
0.0
  0
LINE
  5
3070C
330
305FD
100
AcDbEntity
  8
Hawa6
 48
0.054999
100
AcDbLine
 10
9.199958974288165
 20
-18.19996600000002
 30
0.0
 11
7.000007974288337
 21
-18.19996600000002
 31
0.0
  0
LINE
  5
3070D
330
305FD
100
AcDbEntity
  8
Hawa6
 48
0.096547
100
AcDbLine
 10
-8.700065025711865
 20
-36.72920200000002
 30
0.0
 11
-10.57968740317756
 21
-34.84938000000003
 31
0.0
  0
LINE
  5
3070E
330
305FD
100
AcDbEntity
  8
Hawa6
 48
0.3
100
AcDbLine
 10
-10.58042670948998
 20
-30.84941100000003
 30
0.0
 11
-11.70000402571168
 21
-30.84941100000003
 31
0.0
  0
LINE
  5
3070F
330
305FD
100
AcDbEntity
  8
Hawa6
 48
0.054999
100
AcDbLine
 10
-9.200004025711677
 20
-20.999954
 30
0.0
 11
-7.000053025711849
 21
-20.999954
 31
0.0
  0
LINE
  5
30710
330
305FD
100
AcDbEntity
  8
Hawa6
 48
0.005
100
AcDbLine
 10
-7.000053025711849
 20
-6.499954000000002
 30
0.0
 11
-7.000053025711849
 21
-6.299942000000015
 31
0.0
  0
LINE
  5
30711
330
305FD
100
AcDbEntity
  8
Hawa6
 48
0.07
100
AcDbLine
 10
-9.200004025711677
 20
-20.999954
 30
0.0
 11
-9.200004025711677
 21
-18.19996600000002
 31
0.0
  0
LINE
  5
30712
330
305FD
100
AcDbEntity
  8
Hawa6
 48
0.226324
100
AcDbLine
 10
11.70658197428815
 20
-3.000053000000036
 30
0.0
 11
11.39064097428831
 21
6.047378999999978
 31
0.0
  0
LINE
  5
30713
330
305FD
100
AcDbEntity
  8
Hawa6
 48
0.010606
100
AcDbLine
 10
-0.2998800257116727
 20
-5.999824000000046
 30
0.0
 11
0.0000919742881251
 21
-5.699852000000021
 31
0.0
  0
LINE
  5
30714
330
305FD
100
AcDbEntity
  8
Hawa6
 48
0.334999
100
AcDbLine
 10
-6.700004025711677
 20
-5.999954000000002
 30
0.0
 11
6.699958974288165
 21
-5.999954000000002
 31
0.0
  0
LINE
  5
30715
330
305FD
100
AcDbEntity
  8
Hawa6
 48
0.096546
100
AcDbLine
 10
-8.699790025711763
 20
-28.96910800000004
 30
0.0
 11
-10.58042670948998
 21
-30.84941100000003
 31
0.0
  0
LINE
  5
30716
330
305FD
100
AcDbEntity
  8
Hawa6
 48
0.17
100
AcDbLine
 10
11.69995897428816
 20
-22.99998400000004
 30
0.0
 11
11.69995897428816
 21
-16.19996600000002
 31
0.0
  0
LINE
  5
30717
330
305FD
100
AcDbEntity
  8
Hawa6
 48
0.025
100
AcDbLine
 10
9.500007974288337
 20
-25.99995400000003
 30
0.0
 11
9.500007974288337
 21
-24.99995400000003
 31
0.0
  0
LINE
  5
30718
330
305FD
100
AcDbEntity
  8
Hawa6
 48
0.010607
100
AcDbLine
 10
0.3000879742883171
 20
-5.999862000000007
 30
0.0
 11
0.0000849742882565
 21
-5.699859000000031
 31
0.0
  0
LINE
  5
30719
330
305FD
100
AcDbEntity
  8
Hawa6
 48
0.125
100
AcDbLine
 10
7.000007974288337
 20
-25.99995400000003
 30
0.0
 11
7.000007974288337
 21
-20.999954
 31
0.0
  0
LINE
  5
3071A
330
305FD
100
AcDbEntity
  8
Hawa6
 48
0.054999
100
AcDbLine
 10
9.199958974288165
 20
-20.999954
 30
0.0
 11
7.000007974288337
 21
-20.999954
 31
0.0
  0
LINE
  5
3071B
330
305FD
100
AcDbEntity
  8
Hawa6
 48
0.005
100
AcDbLine
 10
10.69995897428816
 20
-23.99995400000003
 30
0.0
 11
10.49994697428815
 21
-23.99995400000003
 31
0.0
  0
LINE
  5
3071C
330
305FD
100
AcDbEntity
  8
Hawa6
 48
0.07
100
AcDbLine
 10
9.199958974288165
 20
-20.999954
 30
0.0
 11
9.199958974288165
 21
-18.19996600000002
 31
0.0
  0
LINE
  5
3071D
330
305FD
100
AcDbEntity
  8
Hawa6
 48
0.012502
100
AcDbLine
 10
8.500007974288337
 20
-26.99995400000003
 30
0.0
 11
7.99994697428815
 21
-26.99995400000003
 31
0.0
  0
LINE
  5
3071E
330
305FD
100
AcDbEntity
  8
Hawa6
 48
0.207499
100
AcDbLine
 10
11.69995897428816
 20
-11.29994200000001
 30
0.0
 11
11.69995897428816
 21
-2.99998400000004
 31
0.0
  0
LINE
  5
3071F
330
305FD
100
AcDbEntity
  8
Hawa6
 48
0.005
100
AcDbLine
 10
7.000007974288337
 20
-6.499954000000002
 30
0.0
 11
7.000007974288337
 21
-6.299942000000015
 31
0.0
  0
LINE
  5
30720
330
305FD
100
AcDbEntity
  8
Hawa6
100
AcDbLine
 10
-11.70000402571168
 20
-3.0
 30
0.0
 11
11.70659297428824
 21
-3.0
 31
0.0
  0
LINE
  5
30721
330
305FD
100
AcDbEntity
  8
Hawa6
 48
0.0225
100
AcDbLine
 10
-9.500053025711849
 20
-14.19996600000002
 30
0.0
 11
-9.500053025711849
 21
-13.29997200000002
 31
0.0
  0
LINE
  5
30722
330
305FD
100
AcDbEntity
  8
Hawa6
 48
0.0225
100
AcDbLine
 10
9.500007974288337
 20
-14.19996600000002
 30
0.0
 11
9.500007974288337
 21
-13.29997200000002
 31
0.0
  0
LINE
  5
30723
330
305FD
100
AcDbEntity
  8
Hawa6
 48
0.150591
100
AcDbLine
 10
9.199958974288165
 20
-6.499954000000002
 30
0.0
 11
3.176338974288228
 21
-6.499954000000002
 31
0.0
  0
LINE
  5
30724
330
305FD
100
AcDbEntity
  8
Hawa6
 48
0.005
100
AcDbLine
 10
-10.70000402571168
 20
-12.29997200000002
 30
0.0
 11
-10.49999202571166
 21
-12.29997200000002
 31
0.0
  0
LINE
  5
30725
330
305FD
100
AcDbEntity
  8
Hawa6
 48
0.222501
100
AcDbLine
 10
7.000007974288337
 20
-18.19996600000002
 30
0.0
 11
7.000007974288337
 21
-9.299942000000015
 31
0.0
  0
LINE
  5
30726
330
305FD
100
AcDbEntity
  8
Hawa6
 48
0.054999
100
AcDbLine
 10
9.199958974288165
 20
-9.299942000000015
 30
0.0
 11
7.000007974288337
 21
-9.299942000000015
 31
0.0
  0
LINE
  5
30727
330
305FD
100
AcDbEntity
  8
Hawa6
 48
0.054999
100
AcDbLine
 10
-9.200004025711677
 20
-18.19996600000002
 30
0.0
 11
-7.000053025711849
 21
-18.19996600000002
 31
0.0
  0
LINE
  5
30728
330
305FD
100
AcDbEntity
  8
Hawa6
 48
0.054999
100
AcDbLine
 10
-9.200004025711677
 20
-9.299942000000015
 30
0.0
 11
-7.000053025711849
 21
-9.299942000000015
 31
0.0
  0
LINE
  5
30729
330
305FD
100
AcDbEntity
  8
Hawa6
 48
0.005
100
AcDbLine
 10
-10.70000402571168
 20
-15.19993600000004
 30
0.0
 11
-10.49999202571166
 21
-15.19993600000004
 31
0.0
  0
LINE
  5
3072A
330
305FD
100
AcDbEntity
  8
Hawa6
 48
0.025386
100
AcDbLine
 10
-3.000015025711718
 20
-7.499969000000021
 30
0.0
 11
-3.176338025711856
 21
-6.499969000000021
 31
0.0
  0
LINE
  5
3072B
330
305FD
100
AcDbEntity
  8
Hawa6
 48
0.0025
100
AcDbLine
 10
-4.643409025711662
 20
-2.89999400000002
 30
0.0
 11
-4.643409025711662
 21
-3.0
 31
0.0
  0
LINE
  5
3072C
330
305FD
100
AcDbEntity
  8
Hawa6
 48
0.0025
100
AcDbLine
 10
2.656589974288181
 20
-2.89999400000002
 30
0.0
 11
2.656589974288181
 21
-3.0
 31
0.0
  0
LINE
  5
3072D
330
305FD
100
AcDbEntity
  8
Hawa6
  6
DASHED
 48
0.075919
100
AcDbLine
 10
-1.143745025711723
 20
-2.967933000000016
 30
0.0
 11
-2.498740025711867
 21
-0.25025100000002
 31
0.0
  0
LINE
  5
3072E
330
305FD
100
AcDbEntity
  8
Hawa6
  6
DASHED
 48
0.075919
100
AcDbLine
 10
1.14369997428821
 20
-2.967971000000034
 30
0.0
 11
2.498695974288239
 21
-0.2502900000000068
 31
0.0
  0
LINE
  5
3072F
330
305FD
100
AcDbEntity
  8
Hawa6
  6
DASHED
 48
0.1825
100
AcDbLine
 10
-4.643409025711662
 20
-2.89999400000002
 30
0.0
 11
2.656589974288181
 21
-2.89999400000002
 31
0.0
  0
LINE
  5
30730
330
305FD
100
AcDbEntity
  8
Hawa6
 48
0.071247
100
AcDbLine
 10
2.068344974288265
 20
-7.499954000000002
 30
0.0
 11
2.068340974288275
 21
-4.650085000000046
 31
0.0
  0
LINE
  5
30731
330
305FD
100
AcDbEntity
  8
Hawa6
  6
DASHED
 48
0.0025
100
AcDbLine
 10
2.650013974288185
 20
-2.899986000000012
 30
0.0
 11
2.650013974288185
 21
-2.99998400000004
 31
0.0
  0
LINE
  5
30732
330
305FD
100
AcDbEntity
  8
Hawa6
  6
DASHED
 48
0.090156
100
AcDbLine
 10
2.650024974288271
 20
-2.899971000000022
 30
0.0
 11
5.200020974288236
 21
-0.349975000000029
 31
0.0
  0
LINE
  5
30733
330
305FD
100
AcDbEntity
  8
Hawa6
  6
DASHED
 48
0.090156
100
AcDbLine
 10
-5.199966025711773
 20
-0.3499680000000183
 30
0.0
 11
-2.649970025711809
 21
-2.899963000000013
 31
0.0
  0
LINE
  5
30734
330
305FD
100
AcDbEntity
  8
Hawa6
  6
DASHED
 48
0.0025
100
AcDbLine
 10
-2.649986025711768
 20
-2.899986000000012
 30
0.0
 11
-2.649986025711768
 21
-2.99998400000004
 31
0.0
  0
LINE
  5
30735
330
305FD
100
AcDbEntity
  8
Hawa6
  6
DASHED
 48
0.125
100
AcDbLine
 10
-2.498657025711736
 20
-7.499954000000002
 30
0.0
 11
-2.498657025711736
 21
-12.499954
 31
0.0
  0
LINE
  5
30736
330
305FD
100
AcDbEntity
  8
Hawa6
  6
DASHED
 48
0.125
100
AcDbLine
 10
2.501342974288263
 20
-7.499954000000002
 30
0.0
 11
2.501350974288243
 21
-12.499954
 31
0.0
  0
LINE
  5
30737
330
305FD
100
AcDbEntity
  8
Hawa6
  6
DASHED
 48
0.125
100
AcDbLine
 10
-2.065658025711854
 20
-7.499954000000002
 30
0.0
 11
-2.065658025711854
 21
-12.499954
 31
0.0
  0
LINE
  5
30738
330
305FD
100
AcDbEntity
  8
Hawa6
  6
DASHED
 48
0.1325
100
AcDbLine
 10
-2.649986025711768
 20
-2.899986000000012
 30
0.0
 11
2.650013974288185
 21
-2.899986000000012
 31
0.0
  0
LINE
  5
30739
330
305FD
100
AcDbEntity
  8
Hawa6
 48
0.15
100
AcDbLine
 10
-2.999976025711703
 20
-7.49996200000001
 30
0.0
 11
3.000003974288119
 21
-7.49996200000001
 31
0.0
  0
LINE
  5
3073A
330
305FD
100
AcDbEntity
  8
Hawa6
 48
0.0625
100
AcDbLine
 10
8.899997974288226
 20
-8.999954000000002
 30
0.0
 11
8.899997974288226
 21
-6.499954000000002
 31
0.0
  0
LINE
  5
3073B
330
305FD
100
AcDbEntity
  8
Hawa6
 48
0.0625
100
AcDbLine
 10
-8.899978025711789
 20
-8.99996200000001
 30
0.0
 11
-8.899978025711789
 21
-6.49996200000001
 31
0.0
  0
LINE
  5
3073C
330
305FD
100
AcDbEntity
  8
Hawa6
 48
0.06
100
AcDbLine
 10
6.500003974288119
 20
-8.999954000000002
 30
0.0
 11
8.899997974288226
 21
-8.999954000000002
 31
0.0
  0
LINE
  5
3073D
330
305FD
100
AcDbEntity
  8
Hawa6
 48
0.06
100
AcDbLine
 10
-8.899978025711789
 20
-8.99996200000001
 30
0.0
 11
-6.499976025711703
 21
-8.99996200000001
 31
0.0
  0
LINE
  5
3073E
330
305FD
100
AcDbEntity
  8
Hawa6
 48
0.101036
100
AcDbLine
 10
4.479267974288177
 20
-12.49996200000001
 30
0.0
 11
6.499992974288261
 21
-8.999969000000021
 31
0.0
  0
LINE
  5
3073F
330
305FD
100
AcDbEntity
  8
Hawa6
 48
0.101036
100
AcDbLine
 10
-4.479247025711856
 20
-12.49994600000002
 30
0.0
 11
-6.499969025711834
 21
-8.999946000000022
 31
0.0
  0
LINE
  5
30740
330
305FD
100
AcDbEntity
  8
Hawa6
 48
0.223963
100
AcDbLine
 10
-4.479247025711856
 20
-12.49996200000001
 30
0.0
 11
4.479278974288263
 21
-12.49996200000001
 31
0.0
  0
LINE
  5
30741
330
305FD
100
AcDbEntity
  8
Hawa6
  6
DASHED
 48
0.090156
100
AcDbLine
 10
-7.193389025711667
 20
-0.34996000000001
 30
0.0
 11
-4.643386025711834
 21
-2.899955000000034
 31
0.0
  0
LINE
  5
30742
330
305FD
100
AcDbEntity
  8
Hawa6
 48
0.106064
100
AcDbLine
 10
-2.498664025711832
 20
-3.257400000000018
 30
0.0
 11
-2.498657025711736
 21
-7.499954000000002
 31
0.0
  0
LINE
  5
30743
330
305FD
100
AcDbEntity
  8
Hawa6
  6
DASHED
 48
0.125
100
AcDbLine
 10
2.068351974288134
 20
-12.499954
 30
0.0
 11
2.068344974288265
 21
-7.499954000000002
 31
0.0
  0
LINE
  5
30744
330
305FD
100
AcDbEntity
  8
Hawa6
 48
0.107892
100
AcDbLine
 10
2.501339974288157
 20
-3.184272000000021
 30
0.0
 11
2.501342974288263
 21
-7.499954000000002
 31
0.0
  0
LINE
  5
30745
330
305FD
100
AcDbEntity
  8
Hawa6
 48
0.025
100
AcDbLine
 10
-11.69341202571172
 20
-2.0
 30
0.0
 11
-11.69341202571172
 21
-3.0
 31
0.0
  0
LINE
  5
30746
330
305FD
100
AcDbEntity
  8
Hawa6
  6
DASHED
 48
0.1325
100
AcDbLine
 10
-2.650047025711728
 20
-2.90002400000003
 30
0.0
 11
2.649936974288266
 21
-2.90002400000003
 31
0.0
  0
LINE
  5
30747
330
305FD
100
AcDbEntity
  8
Hawa6
 48
0.071247
100
AcDbLine
 10
-2.065666025711834
 20
-4.650093000000026
 30
0.0
 11
-2.065658025711854
 21
-7.499954000000002
 31
0.0
  0
LINE
  5
30748
330
305FD
100
AcDbEntity
  8
Hawa6
  6
DASHED
 48
0.125
100
AcDbLine
 10
-2.498641025711776
 20
-12.34998300000001
 30
0.0
 11
2.501358974288223
 21
-12.34998300000001
 31
0.0
  0
LINE
  5
30749
330
305FD
100
AcDbEntity
  8
Hawa6
 48
0.17
100
AcDbLine
 10
11.69998197428822
 20
-22.99983200000003
 30
0.0
 11
11.69998197428822
 21
-16.19982900000002
 31
0.0
  0
LINE
  5
3074A
330
305FD
100
AcDbEntity
  8
Hawa6
 48
0.025001
100
AcDbLine
 10
9.499988974288271
 20
-25.99982400000002
 30
0.0
 11
9.499988974288271
 21
-24.99980100000002
 31
0.0
  0
LINE
  5
3074B
330
305FD
100
AcDbEntity
  8
Hawa6
 48
0.010607
100
AcDbLine
 10
0.3000569742882817
 20
-5.999740000000031
 30
0.0
 11
0.0000539742882211
 21
-5.699737000000027
 31
0.0
  0
LINE
  5
3074C
330
305FD
100
AcDbEntity
  8
Hawa6
 48
0.125
100
AcDbLine
 10
6.999988974288271
 20
-25.99982400000002
 30
0.0
 11
6.999988974288271
 21
-20.99982400000005
 31
0.0
  0
LINE
  5
3074D
330
305FD
100
AcDbEntity
  8
Hawa6
 48
0.055
100
AcDbLine
 10
9.19998197428822
 20
-20.99982400000005
 30
0.0
 11
6.999988974288271
 21
-20.99982400000005
 31
0.0
  0
LINE
  5
3074E
330
305FD
100
AcDbEntity
  8
Hawa6
 48
0.005
100
AcDbLine
 10
10.69997897428834
 20
-23.99981700000001
 30
0.0
 11
10.49997397428819
 21
-23.99981700000001
 31
0.0
  0
LINE
  5
3074F
330
305FD
100
AcDbEntity
  8
Hawa6
 48
0.07
100
AcDbLine
 10
9.19998197428822
 20
-20.99982400000005
 30
0.0
 11
9.19998197428822
 21
-18.19983600000003
 31
0.0
  0
LINE
  5
30750
330
305FD
100
AcDbEntity
  8
Hawa6
 48
0.0125
100
AcDbLine
 10
8.499984974288281
 20
-26.99980900000003
 30
0.0
 11
7.999973974288195
 21
-26.99980900000003
 31
0.0
  0
LINE
  5
30751
330
305FD
100
AcDbEntity
  8
Hawa6
 48
0.2075
100
AcDbLine
 10
11.69998197428822
 20
-11.29981200000003
 30
0.0
 11
11.69998197428822
 21
-2.999832000000026
 31
0.0
  0
LINE
  5
30752
330
305FD
100
AcDbEntity
  8
Hawa6
 48
0.005
100
AcDbLine
 10
6.999988974288271
 20
-6.499817000000007
 30
0.0
 11
6.999988974288271
 21
-6.299812000000031
 31
0.0
  0
LINE
  5
30753
330
305FD
100
AcDbEntity
  8
Hawa6
100
AcDbLine
 10
-11.70001902571175
 20
-2.999832000000026
 30
0.0
 11
11.69998197428822
 21
-2.999832000000026
 31
0.0
  0
LINE
  5
30754
330
305FD
100
AcDbEntity
  8
Hawa6
 48
0.0225
100
AcDbLine
 10
-9.500022025711814
 20
-14.19982100000004
 30
0.0
 11
-9.500022025711814
 21
-13.29982000000001
 31
0.0
  0
LINE
  5
30755
330
305FD
100
AcDbEntity
  8
Hawa6
 48
0.0225
100
AcDbLine
 10
9.499988974288271
 20
-14.19982100000004
 30
0.0
 11
9.499988974288271
 21
-13.29982000000001
 31
0.0
  0
LINE
  5
30756
330
305FD
100
AcDbEntity
  8
Hawa6
 48
0.055
100
AcDbLine
 10
9.19998197428822
 20
-6.499817000000007
 30
0.0
 11
6.999988974288271
 21
-6.499817000000007
 31
0.0
  0
LINE
  5
30757
330
305FD
100
AcDbEntity
  8
Hawa6
 48
0.005
100
AcDbLine
 10
-10.70001202571166
 20
-12.29983500000003
 30
0.0
 11
-10.50000702571174
 21
-12.29983500000003
 31
0.0
  0
LINE
  5
30758
330
305FD
100
AcDbEntity
  8
Hawa6
 48
0.222501
100
AcDbLine
 10
6.999988974288271
 20
-18.19983600000003
 30
0.0
 11
6.999988974288271
 21
-9.299804000000023
 31
0.0
  0
LINE
  5
30759
330
305FD
100
AcDbEntity
  8
Hawa6
 48
0.055
100
AcDbLine
 10
9.19998197428822
 20
-9.299804000000023
 30
0.0
 11
6.999988974288271
 21
-9.299804000000023
 31
0.0
  0
LINE
  5
3075A
330
305FD
100
AcDbEntity
  8
Hawa6
 48
0.055
100
AcDbLine
 10
-9.200019025711753
 20
-18.19983600000003
 30
0.0
 11
-7.000022025711814
 21
-18.19983600000003
 31
0.0
  0
LINE
  5
3075B
330
305FD
100
AcDbEntity
  8
Hawa6
 48
0.055
100
AcDbLine
 10
-9.200019025711753
 20
-9.299804000000023
 30
0.0
 11
-7.000022025711814
 21
-9.299804000000023
 31
0.0
  0
LINE
  5
3075C
330
305FD
100
AcDbEntity
  8
Hawa6
 48
0.005
100
AcDbLine
 10
-10.70001202571166
 20
-15.19980600000002
 30
0.0
 11
-10.50000702571174
 21
-15.19980600000002
 31
0.0
  0
LINE
  5
3075D
330
305FD
100
AcDbEntity
  8
Hawa6
 48
0.055
100
AcDbLine
 10
-9.200019025711753
 20
-6.499817000000007
 30
0.0
 11
-7.000022025711814
 21
-6.499817000000007
 31
0.0
  0
LINE
  5
3075E
330
305FD
100
AcDbEntity
  8
Hawa6
 48
0.005
100
AcDbLine
 10
10.69997897428834
 20
-15.19980600000002
 30
0.0
 11
10.49997397428819
 21
-15.19980600000002
 31
0.0
  0
LINE
  5
3075F
330
305FD
100
AcDbEntity
  8
Hawa6
 48
0.055
100
AcDbLine
 10
9.19998197428822
 20
-18.19983600000003
 30
0.0
 11
6.999988974288271
 21
-18.19983600000003
 31
0.0
  0
LINE
  5
30760
330
305FD
100
AcDbEntity
  8
Hawa6
 48
0.07
100
AcDbLine
 10
-9.200019025711753
 20
-9.299804000000023
 30
0.0
 11
-9.200019025711753
 21
-6.499817000000007
 31
0.0
  0
LINE
  5
30761
330
305FD
100
AcDbEntity
  8
Hawa6
 48
0.222501
100
AcDbLine
 10
-7.000022025711814
 20
-18.19983600000003
 30
0.0
 11
-7.000022025711814
 21
-9.299804000000023
 31
0.0
  0
LINE
  5
30762
330
305FD
100
AcDbEntity
  8
Hawa6
 48
0.005
100
AcDbLine
 10
10.69997897428834
 20
-12.29983500000003
 30
0.0
 11
10.49997397428819
 21
-12.29983500000003
 31
0.0
  0
LINE
  5
30763
330
305FD
100
AcDbEntity
  8
Hawa6
 48
0.07
100
AcDbLine
 10
9.19998197428822
 20
-9.299804000000023
 30
0.0
 11
9.19998197428822
 21
-6.499817000000007
 31
0.0
  0
LINE
  5
30764
330
305FD
100
AcDbEntity
  8
Hawa6
 48
0.257501
100
AcDbLine
 10
-8.700027025711733
 20
-37.99983200000003
 30
0.0
 11
-8.700027025711733
 21
-27.69980600000002
 31
0.0
  0
LINE
  5
30765
330
305FD
100
AcDbEntity
  8
Hawa6
 48
0.025
100
AcDbLine
 10
-10.70001202571166
 20
-38.99981700000001
 30
0.0
 11
-9.700012025711657
 21
-38.99981700000001
 31
0.0
  0
LINE
  5
30766
330
305FD
100
AcDbEntity
  8
Hawa6
 48
0.125
100
AcDbLine
 10
-7.000022025711814
 20
-25.99982400000002
 30
0.0
 11
-7.000022025711814
 21
-20.99982400000005
 31
0.0
  0
LINE
  5
30767
330
305FD
100
AcDbEntity
  8
Hawa6
 48
0.010606
100
AcDbLine
 10
-0.299964025711688
 20
-5.999786000000028
 30
0.0
 11
0.0000239742882968
 21
-5.699791000000004
 31
0.0
  0
LINE
  5
30768
330
305FD
100
AcDbEntity
  8
Hawa6
 48
0.335
100
AcDbLine
 10
-6.700019025711753
 20
-5.999824000000046
 30
0.0
 11
6.69998197428822
 21
-5.999824000000046
 31
0.0
  0
LINE
  5
30769
330
305FD
100
AcDbEntity
  8
Hawa6
 48
0.07
100
AcDbLine
 10
-9.200019025711753
 20
-20.99982400000005
 30
0.0
 11
-9.200019025711753
 21
-18.19983600000003
 31
0.0
  0
LINE
  5
3076A
330
305FD
100
AcDbEntity
  8
Hawa6
 48
0.005
100
AcDbLine
 10
-7.000022025711814
 20
-6.499817000000007
 30
0.0
 11
-7.000022025711814
 21
-6.299812000000031
 31
0.0
  0
LINE
  5
3076B
330
305FD
100
AcDbEntity
  8
Hawa6
 48
0.055
100
AcDbLine
 10
-9.200019025711753
 20
-20.99982400000005
 30
0.0
 11
-7.000022025711814
 21
-20.99982400000005
 31
0.0
  0
LINE
  5
3076C
330
305FD
100
AcDbEntity
  8
Hawa6
 48
0.05
100
AcDbLine
 10
-4.999999025711758
 20
-34.99988500000001
 30
0.0
 11
-4.999999025711758
 21
-36.99988500000001
 31
0.0
  0
LINE
  5
3076D
330
305FD
100
AcDbEntity
  8
Hawa6
 48
0.1125
100
AcDbLine
 10
-2.249999025711758
 20
-20.99996900000002
 30
0.0
 11
2.250003974288119
 21
-20.99996900000002
 31
0.0
  0
LINE
  5
3076E
330
305FD
100
AcDbEntity
  8
Hawa6
 48
0.05
100
AcDbLine
 10
-2.249999025711758
 20
-22.99988500000003
 30
0.0
 11
-2.249999025711758
 21
-20.99988500000001
 31
0.0
  0
LINE
  5
3076F
330
305FD
100
AcDbEntity
  8
Hawa6
 48
0.05
100
AcDbLine
 10
2.250000974288241
 20
-22.99988500000003
 30
0.0
 11
2.250000974288241
 21
-20.99988500000001
 31
0.0
  0
LINE
  5
30770
330
305FD
100
AcDbEntity
  8
Hawa6
 48
0.102147
100
AcDbLine
 10
-6.335876025711741
 20
-21.79996500000001
 30
0.0
 11
-2.249999025711758
 21
-21.79996500000001
 31
0.0
  0
LINE
  5
30771
330
305FD
100
AcDbEntity
  8
Hawa6
 48
0.316793
100
AcDbLine
 10
6.335872974288122
 20
-16.29992600000003
 30
0.0
 11
-6.335861025711665
 21
-16.29992600000003
 31
0.0
  0
LINE
  5
30772
330
305FD
100
AcDbEntity
  8
Hawa6
 48
0.102147
100
AcDbLine
 10
6.335861974288263
 20
-21.79996500000001
 30
0.0
 11
2.250000974288241
 21
-21.79996500000001
 31
0.0
  0
LINE
  5
30773
330
305FD
100
AcDbEntity
  8
Hawa6
 48
0.05
100
AcDbLine
 10
5.000000974288241
 20
-34.99988500000001
 30
0.0
 11
5.000000974288241
 21
-32.99988500000003
 31
0.0
  0
LINE
  5
30774
330
305FD
100
AcDbEntity
  8
Hawa6
 48
0.05
100
AcDbLine
 10
-4.999999025711758
 20
-34.99988500000001
 30
0.0
 11
-4.999999025711758
 21
-32.99987800000002
 31
0.0
  0
LINE
  5
30775
330
305FD
100
AcDbEntity
  8
Hawa6
 48
0.45
100
AcDbLine
 10
17.00000097428824
 20
-16.999885
 30
0.0
 11
17.00000097428824
 21
-34.99988500000001
 31
0.0
  0
LINE
  5
30776
330
305FD
100
AcDbEntity
  8
Hawa6
 48
0.0775
100
AcDbLine
 10
-4.249999025711758
 20
-36.99988500000001
 30
0.0
 11
-4.249999025711758
 21
-40.09988400000003
 31
0.0
  0
LINE
  5
30777
330
305FD
100
AcDbEntity
  8
Hawa6
 48
0.0775
100
AcDbLine
 10
4.250000974288241
 20
-36.99988500000001
 30
0.0
 11
4.250000974288241
 21
-40.09988400000003
 31
0.0
  0
LINE
  5
30778
330
305FD
100
AcDbEntity
  8
Hawa6
  6
DASHED
 48
0.035
100
AcDbLine
 10
-2.309402025711733
 20
-40.499885
 30
0.0
 11
-2.309402025711733
 21
-39.09988400000003
 31
0.0
  0
LINE
  5
30779
330
305FD
100
AcDbEntity
  8
Hawa6
  6
DASHED
 48
0.035
100
AcDbLine
 10
-1.154701025711801
 20
-40.499885
 30
0.0
 11
-1.154701025711801
 21
-39.09988400000003
 31
0.0
  0
LINE
  5
3077A
330
305FD
100
AcDbEntity
  8
Hawa6
  6
DASHED
 48
0.035
100
AcDbLine
 10
1.154701974288173
 20
-40.499885
 30
0.0
 11
1.154701974288173
 21
-39.09988400000003
 31
0.0
  0
LINE
  5
3077B
330
305FD
100
AcDbEntity
  8
Hawa6
  6
DASHED
 48
0.035
100
AcDbLine
 10
2.309402974288332
 20
-39.09988400000003
 30
0.0
 11
2.309402974288332
 21
-40.499885
 31
0.0
  0
LINE
  5
3077C
330
305FD
100
AcDbEntity
  8
Hawa6
  6
DASHED
 48
0.11547
100
AcDbLine
 10
2.309398974288114
 20
-39.10001300000002
 30
0.0
 11
-2.309409025711829
 21
-39.10001300000002
 31
0.0
  0
LINE
  5
3077D
330
305FD
100
AcDbEntity
  8
Hawa6
  6
DASHED
 48
0.057735
100
AcDbLine
 10
-1.999961025711854
 20
-39.09997500000003
 30
0.0
 11
0.0000389742881453
 21
-37.94527400000001
 31
0.0
  0
LINE
  5
3077E
330
305FD
100
AcDbEntity
  8
Hawa6
  6
DASHED
 48
0.057735
100
AcDbLine
 10
1.99994697428815
 20
-39.09997500000003
 30
0.0
 11
-0.00004502571187
 21
-37.94528200000002
 31
0.0
  0
LINE
  5
3077F
330
305FD
100
AcDbEntity
  8
Hawa6
 48
0.1925
100
AcDbLine
 10
-3.85000502571188
 20
-40.50000700000004
 30
0.0
 11
3.849994974288165
 21
-40.50000700000004
 31
0.0
  0
LINE
  5
30780
330
305FD
100
AcDbEntity
  8
Hawa6
 48
0.05
100
AcDbLine
 10
-2.249992025711662
 20
-32.99988500000003
 30
0.0
 11
-2.249992025711662
 21
-34.99988500000001
 31
0.0
  0
LINE
  5
30781
330
305FD
100
AcDbEntity
  8
Hawa6
 48
0.05
100
AcDbLine
 10
2.250007974288337
 20
-32.99988500000003
 30
0.0
 11
2.250007974288337
 21
-34.99988500000001
 31
0.0
  0
LINE
  5
30782
330
305FD
100
AcDbEntity
  8
Hawa6
 48
0.225001
100
AcDbLine
 10
-4.500022025711814
 20
-23.00008400000002
 30
0.0
 11
4.500007974288337
 21
-23.00008400000002
 31
0.0
  0
LINE
  5
30783
330
305FD
100
AcDbEntity
  8
Hawa6
 48
0.25
100
AcDbLine
 10
-4.999969025711834
 20
-33.00008400000002
 30
0.0
 11
5.000026974288175
 21
-33.00008400000002
 31
0.0
  0
LINE
  5
30784
330
305FD
100
AcDbEntity
  8
Hawa6
 48
0.25
100
AcDbLine
 10
-3.500007025711738
 20
-22.99984700000002
 30
0.0
 11
-3.500007025711738
 21
-32.99985500000003
 31
0.0
  0
LINE
  5
30785
330
305FD
100
AcDbEntity
  8
Hawa6
 48
0.25
100
AcDbLine
 10
3.499992974288261
 20
-22.99984700000002
 30
0.0
 11
3.499992974288261
 21
-32.99985500000003
 31
0.0
  0
LINE
  5
30786
330
305FD
100
AcDbEntity
  8
Hawa6
 48
0.25
100
AcDbLine
 10
-4.500022025711814
 20
-22.99984700000002
 30
0.0
 11
-4.500022025711814
 21
-32.99985500000003
 31
0.0
  0
LINE
  5
30787
330
305FD
100
AcDbEntity
  8
Hawa6
 48
0.25
100
AcDbLine
 10
4.500007974288337
 20
-22.99984700000002
 30
0.0
 11
4.500007974288337
 21
-32.99985500000003
 31
0.0
  0
LINE
  5
30788
330
305FD
100
AcDbEntity
  8
Hawa6
 48
0.213031
100
AcDbLine
 10
-2.241004025711845
 20
-23.80448900000002
 30
0.0
 11
-2.241004025711845
 21
-32.32572900000003
 31
0.0
  0
LINE
  5
30789
330
305FD
100
AcDbEntity
  8
Hawa6
 48
0.213031
100
AcDbLine
 10
2.24098997428814
 20
-23.68613400000004
 30
0.0
 11
2.24098997428814
 21
-32.20738200000003
 31
0.0
  0
ARC
  5
3078A
330
305FD
100
AcDbEntity
  8
Hawa6
100
AcDbCircle
 10
10.69995897428816
 20
-16.19996600000002
 30
0.0
 40
1.0
100
AcDbArc
 50
359.9999830000006
 51
90.00000299999769
  0
ARC
  5
3078B
330
305FD
100
AcDbEntity
  8
Hawa6
100
AcDbCircle
 10
-10.70000402571168
 20
-16.19996600000002
 30
0.0
 40
1.0
100
AcDbArc
 50
90.00000299999769
 51
180.0000190000006
  0
ARC
  5
3078C
330
305FD
100
AcDbEntity
  8
Hawa6
100
AcDbCircle
 10
6.699958974288165
 20
-6.299942000000015
 30
0.0
 40
0.3
100
AcDbArc
 50
0.0000070000000531
 51
90.00000299999769
  0
ARC
  5
3078D
330
305FD
100
AcDbEntity
  8
Hawa6
100
AcDbCircle
 10
-10.70000402571168
 20
-37.99998400000001
 30
0.0
 40
1.0
100
AcDbArc
 50
179.9999910000004
 51
270.0000009999949
  0
ARC
  5
3078E
330
305FD
100
AcDbEntity
  8
Hawa6
100
AcDbCircle
 10
10.49994697428815
 20
-13.29997200000002
 30
0.0
 40
1.0
100
AcDbArc
 50
90.00000299999769
 51
180.0000190000006
  0
ARC
  5
3078F
330
305FD
100
AcDbEntity
  8
Hawa6
100
AcDbCircle
 10
10.49994697428815
 20
-24.99995400000003
 30
0.0
 40
1.0
100
AcDbArc
 50
90.00000299999769
 51
180.0000190000006
  0
ARC
  5
30790
330
305FD
100
AcDbEntity
  8
Hawa6
100
AcDbCircle
 10
10.69995897428816
 20
-11.29994200000001
 30
0.0
 40
1.0
100
AcDbArc
 50
270.0000009999949
 51
0.0000070000000531
  0
ARC
  5
30791
330
305FD
100
AcDbEntity
  8
Hawa6
100
AcDbCircle
 10
10.49994697428815
 20
-14.19996600000002
 30
0.0
 40
1.0
100
AcDbArc
 50
180.0000050000005
 51
270.0000009999949
  0
ARC
  5
30792
330
305FD
100
AcDbEntity
  8
Hawa6
100
AcDbCircle
 10
-10.49999202571166
 20
-13.29997200000002
 30
0.0
 40
1.0
100
AcDbArc
 50
0.0
 51
90.00000299999769
  0
ARC
  5
30793
330
305FD
100
AcDbEntity
  8
Hawa6
100
AcDbCircle
 10
-7.999992025711662
 20
-27.69993600000004
 30
0.0
 40
0.7
100
AcDbArc
 50
90.00000299999769
 51
179.9999910000004
  0
ARC
  5
30794
330
305FD
100
AcDbEntity
  8
Hawa6
100
AcDbCircle
 10
-9.700004025711677
 20
-37.99998400000001
 30
0.0
 40
1.0
100
AcDbArc
 50
270.0000009999949
 51
0.0
  0
ARC
  5
30795
330
305FD
100
AcDbEntity
  8
Hawa6
100
AcDbCircle
 10
-7.999992025711662
 20
-25.99995400000003
 30
0.0
 40
1.0
100
AcDbArc
 50
270.0000009999949
 51
0.0
  0
ARC
  5
30796
330
305FD
100
AcDbEntity
  8
Hawa6
100
AcDbCircle
 10
8.500007974288337
 20
-25.99995400000003
 30
0.0
 40
1.0
100
AcDbArc
 50
270.0000009999949
 51
0.0000070000000531
  0
ARC
  5
30797
330
305FD
100
AcDbEntity
  8
Hawa6
100
AcDbCircle
 10
7.99994697428815
 20
-25.99995400000003
 30
0.0
 40
1.0
100
AcDbArc
 50
180.0000050000005
 51
270.0000009999949
  0
ARC
  5
30798
330
305FD
100
AcDbEntity
  8
Hawa6
100
AcDbCircle
 10
10.69995897428816
 20
-22.99998400000004
 30
0.0
 40
1.0
100
AcDbArc
 50
270.0000009999949
 51
0.0000070000000531
  0
ARC
  5
30799
330
305FD
100
AcDbEntity
  8
Hawa6
100
AcDbCircle
 10
-6.700004025711677
 20
-6.299942000000015
 30
0.0
 40
0.3
100
AcDbArc
 50
90.00000299999769
 51
179.9999910000004
  0
ARC
  5
3079A
330
305FD
100
AcDbEntity
  8
Hawa6
100
AcDbCircle
 10
-10.49999202571166
 20
-14.19996600000002
 30
0.0
 40
1.0
100
AcDbArc
 50
270.0000009999949
 51
0.0
  0
ARC
  5
3079B
330
305FD
100
AcDbEntity
  8
Hawa6
100
AcDbCircle
 10
-10.70000402571168
 20
-11.29994200000001
 30
0.0
 40
1.0
100
AcDbArc
 50
179.9999910000004
 51
270.0000009999949
  0
ARC
  5
3079C
330
305FD
100
AcDbEntity
  8
Hawa6
100
AcDbCircle
 10
-9.693412025711722
 20
-2.0
 30
0.0
 40
2.0
100
AcDbArc
 50
90.00000299999769
 51
180.0000050000005
  0
ARC
  5
3079D
330
305FD
100
AcDbEntity
  8
Hawa6
100
AcDbCircle
 10
-10.70001202571166
 20
-16.19982900000002
 30
0.0
 40
1.0
100
AcDbArc
 50
90.00000299999769
 51
180.0000190000006
  0
ARC
  5
3079E
330
305FD
100
AcDbEntity
  8
Hawa6
100
AcDbCircle
 10
7.999973974288195
 20
-25.99982400000002
 30
0.0
 40
1.0
100
AcDbArc
 50
180.0000050000005
 51
270.0000009999949
  0
ARC
  5
3079F
330
305FD
100
AcDbEntity
  8
Hawa6
100
AcDbCircle
 10
-6.700019025711753
 20
-6.299812000000031
 30
0.0
 40
0.3
100
AcDbArc
 50
90.00000299999769
 51
179.9999910000004
  0
ARC
  5
307A0
330
305FD
100
AcDbEntity
  8
Hawa6
100
AcDbCircle
 10
-10.50000702571174
 20
-14.19982100000004
 30
0.0
 40
1.0
100
AcDbArc
 50
270.0000009999949
 51
0.0
  0
ARC
  5
307A1
330
305FD
100
AcDbEntity
  8
Hawa6
100
AcDbCircle
 10
-10.70001202571166
 20
-11.29981200000003
 30
0.0
 40
1.0
100
AcDbArc
 50
179.9999910000004
 51
270.0000009999949
  0
ARC
  5
307A2
330
305FD
100
AcDbEntity
  8
Hawa6
100
AcDbCircle
 10
10.69997897428834
 20
-16.19982900000002
 30
0.0
 40
1.0
100
AcDbArc
 50
359.9999830000006
 51
90.00000299999769
  0
ARC
  5
307A3
330
305FD
100
AcDbEntity
  8
Hawa6
100
AcDbCircle
 10
6.69998197428822
 20
-6.299812000000031
 30
0.0
 40
0.3
100
AcDbArc
 50
0.0000070000000531
 51
90.00000299999769
  0
ARC
  5
307A4
330
305FD
100
AcDbEntity
  8
Hawa6
100
AcDbCircle
 10
-10.70001202571166
 20
-37.99983200000003
 30
0.0
 40
1.0
100
AcDbArc
 50
179.9999910000004
 51
270.0000009999949
  0
ARC
  5
307A5
330
305FD
100
AcDbEntity
  8
Hawa6
100
AcDbCircle
 10
10.49997397428819
 20
-13.29982000000001
 30
0.0
 40
1.0
100
AcDbArc
 50
90.00000299999769
 51
180.0000190000006
  0
ARC
  5
307A6
330
305FD
100
AcDbEntity
  8
Hawa6
100
AcDbCircle
 10
10.49997397428819
 20
-24.99980100000002
 30
0.0
 40
1.0
100
AcDbArc
 50
90.00000299999769
 51
180.0000190000006
  0
ARC
  5
307A7
330
305FD
100
AcDbEntity
  8
Hawa6
100
AcDbCircle
 10
10.69997897428834
 20
-11.29981200000003
 30
0.0
 40
1.0
100
AcDbArc
 50
270.0000009999949
 51
0.0000070000000531
  0
ARC
  5
307A8
330
305FD
100
AcDbEntity
  8
Hawa6
100
AcDbCircle
 10
10.49997397428819
 20
-14.19982100000004
 30
0.0
 40
1.0
100
AcDbArc
 50
180.0000050000005
 51
270.0000009999949
  0
ARC
  5
307A9
330
305FD
100
AcDbEntity
  8
Hawa6
100
AcDbCircle
 10
-10.50000702571174
 20
-13.29982000000001
 30
0.0
 40
1.0
100
AcDbArc
 50
0.0
 51
90.00000299999769
  0
ARC
  5
307AA
330
305FD
100
AcDbEntity
  8
Hawa6
100
AcDbCircle
 10
-8.000007025711738
 20
-27.69980600000002
 30
0.0
 40
0.7
100
AcDbArc
 50
90.00000299999769
 51
179.9999910000004
  0
ARC
  5
307AB
330
305FD
100
AcDbEntity
  8
Hawa6
100
AcDbCircle
 10
-9.700012025711657
 20
-37.99983200000003
 30
0.0
 40
1.0
100
AcDbArc
 50
270.0000009999949
 51
0.0
  0
ARC
  5
307AC
330
305FD
100
AcDbEntity
  8
Hawa6
100
AcDbCircle
 10
-8.000007025711738
 20
-25.99982400000002
 30
0.0
 40
1.0
100
AcDbArc
 50
270.0000009999949
 51
0.0
  0
ARC
  5
307AD
330
305FD
100
AcDbEntity
  8
Hawa6
100
AcDbCircle
 10
8.499984974288281
 20
-25.99982400000002
 30
0.0
 40
1.0
100
AcDbArc
 50
270.0000009999949
 51
0.0000070000000531
  0
ARC
  5
307AE
330
305FD
100
AcDbEntity
  8
Hawa6
100
AcDbCircle
 10
10.69997897428834
 20
-22.99983200000003
 30
0.0
 40
1.0
100
AcDbArc
 50
270.0000009999949
 51
0.0000070000000531
  0
ARC
  5
307AF
330
305FD
100
AcDbEntity
  8
Hawa6
100
AcDbCircle
 10
-0.5000070257117386
 20
-22.39988700000001
 30
0.0
 40
4.0
100
AcDbArc
 50
171.3730389999979
 51
188.626888999997
  0
ARC
  5
307B0
330
305FD
100
AcDbEntity
  8
Hawa6
100
AcDbCircle
 10
-6.335876025711741
 20
-21.29988100000003
 30
0.0
 40
0.5
100
AcDbArc
 50
183.2653679999997
 51
269.9999729999947
  0
ARC
  5
307B1
330
305FD
100
AcDbEntity
  8
Hawa6
100
AcDbCircle
 10
33.09999897428816
 20
-19.04991100000001
 30
0.0
 40
40.0
100
AcDbArc
 50
176.7345049999996
 51
183.2654090000006
  0
ARC
  5
307B2
330
305FD
100
AcDbEntity
  8
Hawa6
100
AcDbCircle
 10
-6.335868025711761
 20
-16.79988100000002
 30
0.0
 40
0.5
100
AcDbArc
 50
89.9999820000008
 51
176.7344920000002
  0
ARC
  5
307B3
330
305FD
100
AcDbEntity
  8
Hawa6
100
AcDbCircle
 10
6.335872974288122
 20
-16.79988800000001
 30
0.0
 40
0.5
100
AcDbArc
 50
3.265400000000071
 51
89.9999820000008
  0
ARC
  5
307B4
330
305FD
100
AcDbEntity
  8
Hawa6
100
AcDbCircle
 10
6.335865974288253
 20
-21.29988800000001
 30
0.0
 40
0.5
100
AcDbArc
 50
269.9999729999947
 51
356.734469
  0
ARC
  5
307B5
330
305FD
100
AcDbEntity
  8
Hawa6
100
AcDbCircle
 10
-33.10000502571188
 20
-19.04985000000002
 30
0.0
 40
40.0
100
AcDbArc
 50
356.7344970000003
 51
3.265386999999654
  0
ARC
  5
307B6
330
305FD
100
AcDbEntity
  8
Hawa6
100
AcDbCircle
 10
0.4999929742882614
 20
-22.39988700000001
 30
0.0
 40
4.0
100
AcDbArc
 50
351.3730439999993
 51
8.62689400000319
  0
ARC
  5
307B7
330
305FD
100
AcDbEntity
  8
Hawa6
100
AcDbCircle
 10
3.849994974288165
 20
-40.09988400000003
 30
0.0
 40
0.4
100
AcDbArc
 50
270.0000009999949
 51
0.000009999999378
  0
ARC
  5
307B8
330
305FD
100
AcDbEntity
  8
Hawa6
100
AcDbCircle
 10
-3.85000502571188
 20
-40.09988400000003
 30
0.0
 40
0.4
100
AcDbArc
 50
180.0000050000005
 51
270.0000009999949
  0
LINE
  5
307B9
330
305FD
100
AcDbEntity
  8
Hawa6
 48
0.460429
100
AcDbLine
 10
-9.693412025711722
 20
0.0
 30
0.0
 11
8.723747974288244
 21
0.0
 31
0.0
  0
LINE
  5
307BA
330
305FD
100
AcDbEntity
  8
Hawa6
  6
DASHED
 48
0.31
100
AcDbLine
 10
-7.193397025711874
 20
-0.3499830000000088
 30
0.0
 11
5.206611974288307
 21
-0.3499830000000088
 31
0.0
  0
LINE
  5
307BB
330
305FD
100
AcDbEntity
  8
Hawa6
 48
0.139207
100
AcDbLine
 10
9.223415974288172
 20
0.4824979999999642
 30
0.0
 11
9.417747974288204
 21
6.047370999999998
 31
0.0
  0
ARC
  5
307BC
330
305FD
100
AcDbEntity
  8
Hawa6
100
AcDbCircle
 10
8.723747974288244
 20
0.4999699999999621
 30
0.0
 40
0.5
100
AcDbArc
 50
270.0000009999949
 51
357.999994
  0
ARC
  5
307BD
330
305FD
100
AcDbEntity
  8
Hawa6
100
AcDbCircle
 10
10.40421397428826
 20
6.012939999999957
 30
0.0
 40
0.9870409999999999
100
AcDbArc
 50
359.9999830000006
 51
177.9999750000001
  0
ENDBLK
  5
305FF
330
305FD
100
AcDbEntity
  8
0
 48
0.2
100
AcDbBlockEnd
  0
BLOCK
  5
307C0
330
307BF
100
AcDbEntity
  8
0
 48
0.2
100
AcDbBlockBegin
  2
15861
 70
     0
 10
0.0
 20
0.0
 30
0.0
  3
15861
  1

  0
LINE
  5
307C2
330
307BF
100
AcDbEntity
  8
Hawa6
 48
0.2
100
AcDbLine
 10
23.39999399999988
 20
11.7480350409968
 30
0.0
 11
23.40000899999996
 21
9.848026163169834
 31
0.0
  0
LINE
  5
307C3
330
307BF
100
AcDbEntity
  8
Hawa6
 48
0.2
100
AcDbLine
 10
23.39999399999988
 20
29.84804904099679
 30
0.0
 11
23.39999399999988
 21
16.64805216316984
 31
0.0
  0
LINE
  5
307C4
330
307BF
100
AcDbEntity
  8
Hawa6
 48
0.2
100
AcDbLine
 10
0.0
 20
16.6480357093842
 30
0.0
 11
0.0
 21
-5.151988801923607
 31
0.0
  0
LINE
  5
307C5
330
307BF
100
AcDbEntity
  8
Hawa6
 48
0.2
100
AcDbLine
 10
0.0
 20
29.84804904099679
 30
0.0
 11
0.0
 21
21.54806119807643
 31
0.0
  0
LINE
  5
307C6
330
307BF
100
AcDbEntity
  8
Hawa6
 48
0.069865
100
AcDbLine
 10
11.73168899999996
 20
-26.3574259590032
 30
0.0
 11
11.73168899999996
 21
-29.15201195900321
 31
0.0
  0
LWPOLYLINE
  5
307C7
330
307BF
100
AcDbEntity
  8
Hawa6
100
AcDbPolyline
 90
       12
 70
     1
 43
0.0
 10
50.17808500000001
 20
81.58179804099678
 10
50.17808500000001
 20
81.41094504099681
 10
51.3524319999999
 20
81.41094504099681
 10
51.3524319999999
 20
80.90020304099676
 10
50.17808500000001
 20
80.90020304099676
 10
50.17808500000001
 20
80.7311970409968
 10
52.67808500000001
 20
80.7311970409968
 10
52.67808500000001
 20
80.90020304099676
 10
51.6586299999999
 20
80.90020304099676
 10
51.6586299999999
 20
81.41094504099681
 10
52.67808500000001
 20
81.41094504099681
 10
52.67808500000001
 20
81.58179804099678
  0
LWPOLYLINE
  5
307C8
330
307BF
100
AcDbEntity
  8
Hawa6
100
AcDbPolyline
 90
       42
 70
     1
 43
0.0
 10
50.43025199999988
 20
79.41749104099677
 10
50.41943300000003
 20
79.41749104099677
 10
50.29696599999988
 20
79.40830604099677
 10
50.21050999999989
 20
79.38074804099676
 10
50.14205900000002
 20
79.26499504099684
 10
50.17088300000001
 20
79.17498304099678
 10
50.4158319999999
 20
79.17498304099678
 10
50.40502900000001
 20
79.21355804099675
 10
50.4518579999999
 20
79.26499504099684
 10
50.59594700000002
 20
79.27418104099678
 10
51.597397
 20
79.27418104099678
 10
51.85316499999998
 20
79.29623004099676
 10
52.03327899999999
 20
79.36053004099676
 10
52.14134199999989
 20
79.47260604099676
 10
52.180969
 20
79.6305960409968
 10
52.13774100000001
 20
79.78492304099678
 10
52.01525900000001
 20
79.89883004099681
 10
51.824341
 20
79.97047004099681
 10
51.5721739999999
 20
79.9943650409968
 10
51.55056799999989
 20
79.9943650409968
 10
51.55056799999989
 20
79.84922404099677
 10
51.7018579999999
 20
79.83636004099679
 10
51.80993599999988
 20
79.79594004099681
 10
51.87477100000001
 20
79.72980804099677
 10
51.89999399999988
 20
79.63610404099677
 10
51.88197300000002
 20
79.54609204099677
 10
51.82794199999989
 20
79.48179204099677
 10
51.73428300000001
 20
79.44320204099676
 10
51.60459900000001
 20
79.43033904099678
 10
51.45330799999988
 20
79.4376940409968
 10
51.377655
 20
79.46708204099678
 10
51.34162900000001
 20
79.54056904099679
 10
51.31280500000002
 20
79.67837104099681
 10
51.2479699999999
 20
79.83636004099679
 10
51.13268999999991
 20
79.94842104099678
 10
50.95257599999991
 20
80.01456804099678
 10
50.68600500000002
 20
80.03477004099682
 10
50.44825700000001
 20
80.01639904099681
 10
50.2717439999999
 20
79.95945304099677
 10
50.16007999999988
 20
79.86759504099677
 10
50.120453
 20
79.74082504099681
 10
50.19609100000002
 20
79.56997304099679
  0
LWPOLYLINE
  5
307C9
330
307BF
100
AcDbEntity
  8
Hawa6
100
AcDbPolyline
 90
       14
 70
     1
 43
0.0
 10
50.8553159999999
 20
79.43586304099676
 10
50.66799900000001
 20
79.45789704099684
 10
50.52390999999989
 20
79.51668904099676
 10
50.43025199999988
 20
79.60486904099679
 10
50.397827
 20
79.71326804099681
 10
50.4158319999999
 20
79.78307704099677
 10
50.47347999999988
 20
79.83268304099681
 10
50.574341
 20
79.86391804099679
 10
50.7148279999999
 20
79.87310404099679
 10
50.84091199999988
 20
79.86574904099677
 10
50.930969
 20
79.83636004099679
 10
51.0318299999999
 20
79.71877604099677
 10
51.0750579999999
 20
79.56997304099679
 10
51.16151399999989
 20
79.43586304099676
  0
LWPOLYLINE
  5
307CA
330
307BF
100
AcDbEntity
  8
Hawa6
100
AcDbPolyline
 90
       13
 70
     1
 43
0.0
 10
50.17808500000001
 20
78.23789504099682
 10
51.82073999999989
 20
78.09092304099682
 10
50.17808500000001
 20
77.94395004099681
 10
50.17808500000001
 20
77.78962304099678
 10
52.11251799999991
 20
77.5471150409968
 10
52.11251799999991
 20
77.7032730409968
 10
50.46987899999999
 20
77.86678604099677
 10
52.11251799999991
 20
78.01191304099678
 10
52.11251799999991
 20
78.17174904099681
 10
50.46987899999999
 20
78.31689004099678
 10
52.11251799999991
 20
78.48040304099675
 10
52.11251799999991
 20
78.63471604099675
 10
50.17808500000001
 20
78.39222304099678
  0
LWPOLYLINE
  5
307CB
330
307BF
100
AcDbEntity
  8
Hawa6
100
AcDbPolyline
 90
       42
 70
     1
 43
0.0
 10
50.43025199999988
 20
76.35282504099677
 10
50.41943300000003
 20
76.35282504099677
 10
50.29696599999988
 20
76.34363904099678
 10
50.21050999999989
 20
76.31608204099677
 10
50.14205900000002
 20
76.20034404099681
 10
50.17088300000001
 20
76.11031704099679
 10
50.4158319999999
 20
76.11031704099679
 10
50.40502900000001
 20
76.14889104099678
 10
50.4518579999999
 20
76.20034404099681
 10
50.59594700000002
 20
76.20952904099681
 10
51.597397
 20
76.20952904099681
 10
51.85316499999998
 20
76.2315780409968
 10
52.03327899999999
 20
76.29587904099679
 10
52.14134199999989
 20
76.40793904099678
 10
52.180969
 20
76.56594404099678
 10
52.13774100000001
 20
76.72025604099679
 10
52.01525900000001
 20
76.83416304099683
 10
51.824341
 20
76.90581804099679
 10
51.5721739999999
 20
76.92969804099675
 10
51.55056799999989
 20
76.92969804099675
 10
51.55056799999989
 20
76.78455704099679
 10
51.7018579999999
 20
76.7716940409968
 10
51.80993599999988
 20
76.73128804099679
 10
51.87477100000001
 20
76.66514204099678
 10
51.89999399999988
 20
76.57145304099675
 10
51.88197300000002
 20
76.48142604099678
 10
51.82794199999989
 20
76.41712504099678
 10
51.73428300000001
 20
76.37855104099674
 10
51.60459900000001
 20
76.36568804099681
 10
51.45330799999988
 20
76.37302704099681
 10
51.377655
 20
76.40243104099681
 10
51.34162900000001
 20
76.47591704099681
 10
51.31280500000002
 20
76.61370404099682
 10
51.2479699999999
 20
76.7716940409968
 10
51.13268999999991
 20
76.88376904099675
 10
50.95257599999991
 20
76.94990104099679
 10
50.68600500000002
 20
76.97011904099679
 10
50.44825700000001
 20
76.95174704099679
 10
50.2717439999999
 20
76.89478604099679
 10
50.16007999999988
 20
76.80292804099678
 10
50.120453
 20
76.67617404099678
 10
50.19609100000002
 20
76.50530604099675
  0
LWPOLYLINE
  5
307CC
330
307BF
100
AcDbEntity
  8
Hawa6
100
AcDbPolyline
 90
       14
 70
     1
 43
0.0
 10
50.8553159999999
 20
76.37119604099678
 10
50.66799900000001
 20
76.39324504099682
 10
50.52390999999989
 20
76.4520370409968
 10
50.43025199999988
 20
76.54021804099682
 10
50.397827
 20
76.64861604099678
 10
50.4158319999999
 20
76.71842504099675
 10
50.47347999999988
 20
76.76803204099678
 10
50.574341
 20
76.79926604099683
 10
50.7148279999999
 20
76.80845204099677
 10
50.84091199999988
 20
76.80109704099681
 10
50.930969
 20
76.7716940409968
 10
51.0318299999999
 20
76.65412504099674
 10
51.0750579999999
 20
76.50530604099675
 10
51.16151399999989
 20
76.37119604099678
  0
LWPOLYLINE
  5
307CD
330
307BF
100
AcDbEntity
  8
Hawa6
100
AcDbPolyline
 90
       51
 70
     1
 43
0.0
 10
51.00300599999991
 20
73.78420604099677
 10
51.00300599999991
 20
73.95138104099681
 10
50.62116999999989
 20
73.9146380409968
 10
50.34019499999999
 20
73.8227800409968
 10
50.17088300000001
 20
73.68131604099676
 10
50.10963399999991
 20
73.49026104099675
 10
50.16728199999988
 20
73.30102104099683
 10
50.32577500000002
 20
73.15955704099678
 10
50.574341
 20
73.06954504099678
 10
50.90214500000001
 20
73.03647904099682
 10
51.19753999999989
 20
73.06403704099682
 10
51.3884579999999
 20
73.14118504099679
 10
51.51454100000001
 20
73.26612404099677
 10
51.6081999999999
 20
73.43330004099676
 10
51.67665099999999
 20
73.57659504099683
 10
51.75588999999991
 20
73.67029904099678
 10
51.87116999999989
 20
73.7235830409968
 10
52.051285
 20
73.7401080409968
 10
52.21339399999988
 20
73.7235830409968
 10
52.33586100000002
 20
73.6758070409968
 10
52.4187159999999
 20
73.60232104099679
 10
52.44753999999989
 20
73.5012770409968
 10
52.41151399999989
 20
73.39840304099675
 10
52.314255
 20
73.31756204099679
 10
52.15214500000001
 20
73.26427804099677
 10
51.93240300000002
 20
73.23856704099682
 10
51.93240300000002
 20
73.07137604099676
 10
51.93960599999991
 20
73.07137604099676
 10
52.27822900000001
 20
73.10078004099683
 10
52.53039499999999
 20
73.18711404099679
 10
52.68888799999991
 20
73.32307004099675
 10
52.74291999999991
 20
73.50678604099676
 10
52.68888799999991
 20
73.67213004099676
 10
52.53759799999989
 20
73.80073104099676
 10
52.303451
 20
73.88340304099677
 10
52.00085399999989
 20
73.91280704099677
 10
51.73068199999988
 20
73.88892704099681
 10
51.54696599999988
 20
73.81910304099676
 10
51.42448399999989
 20
73.70887304099676
 10
51.33082599999989
 20
73.55822304099678
 10
51.2479699999999
 20
73.40942004099679
 10
51.1687159999999
 20
73.29734404099679
 10
51.053451
 20
73.22938104099677
 10
50.86611900000002
 20
73.20548604099679
 10
50.67520100000002
 20
73.22753504099683
 10
50.53111300000001
 20
73.28449604099683
 10
50.441055
 20
73.37084504099675
 10
50.41223100000002
 20
73.4829060409968
 10
50.4518579999999
 20
73.60783004099676
 10
50.567139
 20
73.7033650409968
 10
50.754455
 20
73.76398804099676
  0
LWPOLYLINE
  5
307CE
330
307BF
100
AcDbEntity
  8
Hawa6
100
AcDbPolyline
 90
       13
 70
     1
 43
0.0
 10
50.17808500000001
 20
72.1085770409968
 10
51.82073999999989
 20
71.9616050409968
 10
50.17808500000001
 20
71.8146320409968
 10
50.17808500000001
 20
71.66030504099677
 10
52.11251799999991
 20
71.41779704099679
 10
52.11251799999991
 20
71.57395504099679
 10
50.46987899999999
 20
71.73746804099676
 10
52.11251799999991
 20
71.88259504099676
 10
52.11251799999991
 20
72.0424300409968
 10
50.46987899999999
 20
72.18757204099677
 10
52.11251799999991
 20
72.35108504099679
 10
52.11251799999991
 20
72.50539704099679
 10
50.17808500000001
 20
72.26288904099681
  0
LWPOLYLINE
  5
307CF
330
307BF
100
AcDbEntity
  8
Hawa6
100
AcDbPolyline
 90
       10
 70
     1
 43
0.0
 10
50.44465599999989
 20
70.31536404099677
 10
52.04768399999989
 20
70.31536404099677
 10
52.04768399999989
 20
70.73057104099678
 10
51.777511
 20
70.73057104099678
 10
51.777511
 20
70.47703104099679
 10
50.44465599999989
 20
70.47703104099679
 10
50.44465599999989
 20
70.80773504099681
 10
50.17808500000001
 20
70.80773504099681
 10
50.17808500000001
 20
69.98099904099678
 10
50.44465599999989
 20
69.98099904099678
  0
LWPOLYLINE
  5
307D0
330
307BF
100
AcDbEntity
  8
Hawa6
100
AcDbPolyline
 90
        4
 70
     1
 43
0.0
 10
52.76454100000001
 20
70.3098560409968
 10
52.76454100000001
 20
70.48070904099677
 10
52.40431199999989
 20
70.48070904099677
 10
52.40431199999989
 20
70.3098560409968
  0
LWPOLYLINE
  5
307D1
330
307BF
100
AcDbEntity
  8
Hawa6
100
AcDbPolyline
 90
       50
 70
     1
 43
0.0
 10
51.30560300000002
 20
68.79406304099678
 10
51.377655
 20
68.95022204099678
 10
51.46050999999989
 20
69.06595904099674
 10
51.62982199999987
 20
69.10453404099678
 10
51.7486879999999
 20
69.0935170409968
 10
51.8351439999999
 20
69.05494304099682
 10
51.88917500000002
 20
68.99247304099674
 10
51.910797
 20
68.90244604099677
 10
51.88917500000002
 20
68.81611204099681
 10
51.824341
 20
68.74813404099677
 10
51.727081
 20
68.70403604099681
 10
51.597397
 20
68.68566504099681
 10
51.597397
 20
68.52767504099677
 10
51.60459900000001
 20
68.52767504099677
 10
51.83874500000001
 20
68.55523304099676
 10
52.02246100000002
 20
68.63055004099681
 10
52.13774100000001
 20
68.74813404099677
 10
52.180969
 20
68.90244604099677
 10
52.13774100000001
 20
69.05860504099678
 10
52.01885999999991
 20
69.17251204099682
 10
51.84234599999991
 20
69.24416704099678
 10
51.61900300000002
 20
69.26621604099683
 10
51.40286199999991
 20
69.24967504099675
 10
51.25157199999989
 20
69.19823804099678
 10
51.14350899999999
 20
69.11371904099678
 10
51.06785599999989
 20
68.99064204099682
 10
50.98139900000001
 20
68.81058804099677
 10
50.89134199999989
 20
68.70035904099677
 10
50.81928999999991
 20
68.67097004099679
 10
50.711227
 20
68.65993804099679
 10
50.57794199999989
 20
68.67647904099681
 10
50.477081
 20
68.72057704099677
 10
50.41223100000002
 20
68.79221704099677
 10
50.390625
 20
68.88775204099681
 10
50.41223100000002
 20
68.98879604099682
 10
50.48788399999989
 20
69.06228204099682
 10
50.61036699999999
 20
69.1118880409968
 10
50.77966300000003
 20
69.13210604099674
 10
50.77966300000003
 20
69.28826504099681
 10
50.49148500000001
 20
69.26253804099679
 10
50.28254700000002
 20
69.1872210409968
 10
50.15647899999999
 20
69.06779004099679
 10
50.10963399999991
 20
68.90244604099677
 10
50.15647899999999
 20
68.72976304099677
 10
50.28254700000002
 20
68.6029930409968
 10
50.48428300000001
 20
68.52582904099676
 10
50.747253
 20
68.49827104099677
 10
50.974197
 20
68.51848904099677
 10
51.12908900000002
 20
68.5754350409968
 10
51.22996499999999
 20
68.66912404099673
  0
LWPOLYLINE
  5
307D2
330
307BF
100
AcDbEntity
  8
Hawa6
100
AcDbPolyline
 90
       50
 70
     1
 43
0.0
 10
51.30560300000002
 20
67.26173004099678
 10
51.377655
 20
67.41788804099678
 10
51.46050999999989
 20
67.53362604099675
 10
51.62982199999987
 20
67.57221604099675
 10
51.7486879999999
 20
67.56118304099675
 10
51.8351439999999
 20
67.52260904099682
 10
51.88917500000002
 20
67.46014004099681
 10
51.910797
 20
67.37012804099674
 10
51.88917500000002
 20
67.28377904099682
 10
51.824341
 20
67.21580104099678
 10
51.727081
 20
67.17170304099681
 10
51.597397
 20
67.15333104099681
 10
51.597397
 20
66.99534204099677
 10
51.60459900000001
 20
66.99534204099677
 10
51.83874500000001
 20
67.02289904099678
 10
52.02246100000002
 20
67.09821704099681
 10
52.13774100000001
 20
67.21580104099678
 10
52.180969
 20
67.37012804099674
 10
52.13774100000001
 20
67.52628704099675
 10
52.01885999999991
 20
67.64019304099679
 10
51.84234599999991
 20
67.71183304099679
 10
51.61900300000002
 20
67.73388204099678
 10
51.40286199999991
 20
67.71734204099676
 10
51.25157199999989
 20
67.66590504099679
 10
51.14350899999999
 20
67.58140104099675
 10
51.06785599999989
 20
67.45830904099682
 10
50.98139900000001
 20
67.2782700409968
 10
50.89134199999989
 20
67.16802504099678
 10
50.81928999999991
 20
67.13863704099679
 10
50.711227
 20
67.12762004099682
 10
50.57794199999989
 20
67.14414504099682
 10
50.477081
 20
67.18824304099678
 10
50.41223100000002
 20
67.25989904099674
 10
50.390625
 20
67.35541904099682
 10
50.41223100000002
 20
67.45646204099682
 10
50.48788399999989
 20
67.52996404099679
 10
50.61036699999999
 20
67.57955504099675
 10
50.77966300000003
 20
67.59977304099675
 10
50.77966300000003
 20
67.75593104099676
 10
50.49148500000001
 20
67.7302050409968
 10
50.28254700000002
 20
67.65488804099675
 10
50.15647899999999
 20
67.53547204099681
 10
50.10963399999991
 20
67.37012804099674
 10
50.15647899999999
 20
67.19742904099678
 10
50.28254700000002
 20
67.07065904099682
 10
50.48428300000001
 20
66.99349504099678
 10
50.747253
 20
66.96593804099677
 10
50.974197
 20
66.98615604099678
 10
51.12908900000002
 20
67.04310204099681
 10
51.22996499999999
 20
67.13680604099682
  0
LINE
  5
307D3
330
307BF
100
AcDbEntity
  8
Hawa6
 48
0.15
100
AcDbLine
 10
55.39984099999992
 20
46.94802404099675
 30
0.0
 11
55.39984099999992
 21
40.94804004099683
 31
0.0
  0
LINE
  5
307D4
330
307BF
100
AcDbEntity
  8
Hawa6
  6
DASHED
 48
0.47134
100
AcDbLine
 10
23.39999399999988
 20
0.3065600409967715
 30
0.0
 11
23.39999399999988
 21
-18.54705495900322
 31
0.0
  0
LINE
  5
307D5
330
307BF
100
AcDbEntity
  8
Hawa6
  6
DASHED
100
AcDbLine
 10
55.39984099999992
 20
40.94804004099683
 30
0.0
 11
55.39984099999992
 21
5.448017040996774
 31
0.0
  0
LINE
  5
307D6
330
307BF
100
AcDbEntity
  8
Hawa6
 48
0.085776
100
AcDbLine
 10
23.39999399999988
 20
-18.54705495900322
 30
0.0
 11
23.39999399999988
 21
-21.9780769590032
 31
0.0
  0
LINE
  5
307D7
330
307BF
100
AcDbEntity
  8
Hawa6
 48
0.257501
100
AcDbLine
 10
3.0
 20
-5.151988959003233
 30
0.0
 11
3.0
 21
5.148044040996808
 31
0.0
  0
LINE
  5
307D8
330
307BF
100
AcDbEntity
  8
Hawa6
 48
0.025
100
AcDbLine
 10
1.0
 20
-6.151973959003214
 30
0.0
 11
2.000014999999848
 21
-6.151973959003214
 31
0.0
  0
LINE
  5
307D9
330
307BF
100
AcDbEntity
  8
Hawa6
 48
0.005
100
AcDbLine
 10
22.39999399999988
 20
15.64803604099677
 30
0.0
 11
22.19998199999986
 21
15.64803604099677
 31
0.0
  0
LINE
  5
307DA
330
307BF
100
AcDbEntity
  8
Hawa6
 48
0.222501
100
AcDbLine
 10
18.70002699999986
 20
14.64802104099681
 30
0.0
 11
18.70002699999986
 21
23.5480610409968
 31
0.0
  0
LINE
  5
307DB
330
307BF
100
AcDbEntity
  8
Hawa6
 48
0.07
100
AcDbLine
 10
20.89999399999988
 20
23.5480610409968
 30
0.0
 11
20.89999399999988
 21
26.34806404099681
 31
0.0
  0
LINE
  5
307DC
330
307BF
100
AcDbEntity
  8
Hawa6
 48
0.054999
100
AcDbLine
 10
20.89999399999988
 20
23.5480610409968
 30
0.0
 11
18.70002699999986
 21
23.5480610409968
 31
0.0
  0
LINE
  5
307DD
330
307BF
100
AcDbEntity
  8
Hawa6
 48
0.005
100
AcDbLine
 10
22.39999399999988
 20
12.74805804099679
 30
0.0
 11
22.19998199999986
 21
12.74805804099679
 31
0.0
  0
LINE
  5
307DE
330
307BF
100
AcDbEntity
  8
Hawa6
 48
0.054999
100
AcDbLine
 10
20.89999399999988
 20
14.64802104099681
 30
0.0
 11
18.70002699999986
 21
14.64802104099681
 31
0.0
  0
LINE
  5
307DF
330
307BF
100
AcDbEntity
  8
Hawa6
 48
0.054999
100
AcDbLine
 10
20.89999399999988
 20
26.34806404099681
 30
0.0
 11
18.70002699999986
 21
26.34806404099681
 31
0.0
  0
LINE
  5
307E0
330
307BF
100
AcDbEntity
  8
Hawa6
 48
0.0225
100
AcDbLine
 10
21.20001200000002
 20
13.74804304099678
 30
0.0
 11
21.20001200000002
 21
14.64803604099677
 31
0.0
  0
LINE
  5
307E1
330
307BF
100
AcDbEntity
  8
Hawa6
 48
0.025001
100
AcDbLine
 10
21.20002699999986
 20
6.848033040996767
 30
0.0
 11
21.20002699999986
 21
7.848056040996766
 31
0.0
  0
LINE
  5
307E2
330
307BF
100
AcDbEntity
  8
Hawa6
 48
0.010607
100
AcDbLine
 10
11.99993900000004
 20
26.8480640409968
 30
0.0
 11
11.69993599999998
 21
27.14806704099681
 31
0.0
  0
LINE
  5
307E3
330
307BF
100
AcDbEntity
  8
Hawa6
 48
0.125
100
AcDbLine
 10
18.70002699999986
 20
6.848033040996767
 30
0.0
 11
18.70002699999986
 21
11.84803304099677
 31
0.0
  0
LINE
  5
307E4
330
307BF
100
AcDbEntity
  8
Hawa6
 48
0.054999
100
AcDbLine
 10
20.89999399999988
 20
11.84803304099677
 30
0.0
 11
18.70002699999986
 21
11.84803304099677
 31
0.0
  0
LINE
  5
307E5
330
307BF
100
AcDbEntity
  8
Hawa6
 48
0.005
100
AcDbLine
 10
22.40000899999996
 20
8.848041040996804
 30
0.0
 11
22.20001200000002
 21
8.848041040996804
 31
0.0
  0
LINE
  5
307E6
330
307BF
100
AcDbEntity
  8
Hawa6
 48
0.07
100
AcDbLine
 10
20.89999399999988
 20
11.84803304099677
 30
0.0
 11
20.89999399999988
 21
14.64802104099681
 31
0.0
  0
LINE
  5
307E7
330
307BF
100
AcDbEntity
  8
Hawa6
 48
0.0125
100
AcDbLine
 10
20.19999699999994
 20
5.848049040996784
 30
0.0
 11
19.70001200000001
 21
5.848049040996784
 31
0.0
  0
LINE
  5
307E8
330
307BF
100
AcDbEntity
  8
Hawa6
 48
0.005
100
AcDbLine
 10
18.70002699999986
 20
26.34806404099681
 30
0.0
 11
18.70002699999986
 21
26.5480610409968
 31
0.0
  0
LINE
  5
307E9
330
307BF
100
AcDbEntity
  8
Hawa6
100
AcDbLine
 10
0.0
 20
29.84804904099679
 30
0.0
 11
23.39999399999988
 21
29.84804904099679
 31
0.0
  0
LINE
  5
307EA
330
307BF
100
AcDbEntity
  8
Hawa6
 48
0.005
100
AcDbLine
 10
1.0
 20
20.54803004099676
 30
0.0
 11
1.200012000000015
 21
20.54803004099676
 31
0.0
  0
LINE
  5
307EB
330
307BF
100
AcDbEntity
  8
Hawa6
 48
0.222501
100
AcDbLine
 10
4.699996999999939
 20
14.64802104099681
 30
0.0
 11
4.699996999999939
 21
23.5480610409968
 31
0.0
  0
LINE
  5
307EC
330
307BF
100
AcDbEntity
  8
Hawa6
 48
0.07
100
AcDbLine
 10
2.5
 20
23.5480610409968
 30
0.0
 11
2.5
 21
26.34806404099681
 31
0.0
  0
LINE
  5
307ED
330
307BF
100
AcDbEntity
  8
Hawa6
 48
0.055
100
AcDbLine
 10
2.5
 20
23.5480610409968
 30
0.0
 11
4.699996999999939
 21
23.5480610409968
 31
0.0
  0
LINE
  5
307EE
330
307BF
100
AcDbEntity
  8
Hawa6
 48
0.005
100
AcDbLine
 10
1.0
 20
17.64805204099679
 30
0.0
 11
1.200012000000015
 21
17.64805204099679
 31
0.0
  0
LINE
  5
307EF
330
307BF
100
AcDbEntity
  8
Hawa6
 48
0.055
100
AcDbLine
 10
2.5
 20
14.64802104099681
 30
0.0
 11
4.699996999999939
 21
14.64802104099681
 31
0.0
  0
LINE
  5
307F0
330
307BF
100
AcDbEntity
  8
Hawa6
 48
0.055
100
AcDbLine
 10
2.5
 20
26.34806404099681
 30
0.0
 11
4.699996999999939
 21
26.34806404099681
 31
0.0
  0
LINE
  5
307F1
330
307BF
100
AcDbEntity
  8
Hawa6
 48
0.0225
100
AcDbLine
 10
2.199996999999939
 20
18.64803604099677
 30
0.0
 11
2.199996999999939
 21
19.54804604099684
 31
0.0
  0
LINE
  5
307F2
330
307BF
100
AcDbEntity
  8
Hawa6
 48
0.335
100
AcDbLine
 10
5.0
 20
26.84804904099678
 30
0.0
 11
18.39999399999988
 21
26.84804904099678
 31
0.0
  0
LINE
  5
307F3
330
307BF
100
AcDbEntity
  8
Hawa6
 48
0.010606
100
AcDbLine
 10
11.39993299999992
 20
26.84812504099682
 30
0.0
 11
11.6999209999999
 21
27.14811304099681
 31
0.0
  0
LINE
  5
307F4
330
307BF
100
AcDbEntity
  8
Hawa6
 48
0.125
100
AcDbLine
 10
4.699996999999939
 20
6.848033040996767
 30
0.0
 11
4.699996999999939
 21
11.84803304099677
 31
0.0
  0
LINE
  5
307F5
330
307BF
100
AcDbEntity
  8
Hawa6
 48
0.055
100
AcDbLine
 10
2.5
 20
11.84803304099677
 30
0.0
 11
4.699996999999939
 21
11.84803304099677
 31
0.0
  0
LINE
  5
307F6
330
307BF
100
AcDbEntity
  8
Hawa6
 48
0.07
100
AcDbLine
 10
2.5
 20
11.84803304099677
 30
0.0
 11
2.5
 21
14.64802104099681
 31
0.0
  0
LINE
  5
307F7
330
307BF
100
AcDbEntity
  8
Hawa6
 48
0.005
100
AcDbLine
 10
4.699996999999939
 20
26.34806404099681
 30
0.0
 11
4.699996999999939
 21
26.5480610409968
 31
0.0
  0
LINE
  5
307F8
330
307BF
100
AcDbEntity
  8
Hawa6
 48
0.3
100
AcDbLine
 10
67.399811
 20
112.4480240409968
 30
0.0
 11
55.399811
 21
112.4480240409968
 31
0.0
  0
LINE
  5
307F9
330
307BF
100
AcDbEntity
  8
Hawa6
  6
DASHED
 48
0.025
100
AcDbLine
 10
52.49996899999996
 20
35.9480090409968
 30
0.0
 11
53.49996899999997
 21
35.9480090409968
 31
0.0
  0
LINE
  5
307FA
330
307BF
100
AcDbEntity
  8
Hawa6
  6
DASHED
 48
0.175
100
AcDbLine
 10
65.49981699999989
 20
33.9480090409968
 30
0.0
 11
65.49981699999989
 21
40.94800904099679
 31
0.0
  0
LINE
  5
307FB
330
307BF
100
AcDbEntity
  8
Hawa6
 48
0.302478
100
AcDbLine
 10
67.39984099999992
 20
62.94800904099679
 30
0.0
 11
55.30071999999996
 21
62.94800904099679
 31
0.0
  0
LINE
  5
307FC
330
307BF
100
AcDbEntity
  8
Hawa6
 48
0.302478
100
AcDbLine
 10
67.39984099999992
 20
78.94800904099679
 30
0.0
 11
55.30071999999996
 21
78.94800904099679
 31
0.0
  0
LINE
  5
307FD
330
307BF
100
AcDbEntity
  8
Hawa6
 48
0.302478
100
AcDbLine
 10
67.39984099999992
 20
94.9480090409968
 30
0.0
 11
55.30070499999988
 21
94.9480090409968
 31
0.0
  0
LINE
  5
307FE
330
307BF
100
AcDbEntity
  8
Hawa6
  6
DASHED
 48
0.175
100
AcDbLine
 10
58.399811
 20
12.44800904099679
 30
0.0
 11
58.399811
 21
5.448017040996774
 31
0.0
  0
LINE
  5
307FF
330
307BF
100
AcDbEntity
  8
Hawa6
  6
DASHED
 48
0.175
100
AcDbLine
 10
64.399811
 20
12.44800904099679
 30
0.0
 11
64.399811
 21
5.448017040996774
 31
0.0
  0
LINE
  5
30800
330
307BF
100
AcDbEntity
  8
Hawa6
  6
DASHED
 48
0.2
100
AcDbLine
 10
65.399811
 20
13.44800904099679
 30
0.0
 11
65.399811
 21
5.448017040996774
 31
0.0
  0
LINE
  5
30801
330
307BF
100
AcDbEntity
  8
Hawa6
  6
DASHED
 48
0.2
100
AcDbLine
 10
57.399811
 20
13.44800904099679
 30
0.0
 11
57.399811
 21
5.448017040996774
 31
0.0
  0
LINE
  5
30802
330
307BF
100
AcDbEntity
  8
Hawa6
100
AcDbLine
 10
37.40812699999992
 20
46.94800904099679
 30
0.0
 11
67.39982599999985
 21
46.94800904099679
 31
0.0
  0
LINE
  5
30803
330
307BF
100
AcDbEntity
  8
Hawa6
  6
DASHED
 48
0.035355
100
AcDbLine
 10
65.39993299999991
 20
13.4479170409968
 30
0.0
 11
64.39993299999992
 21
12.4479170409968
 31
0.0
  0
LINE
  5
30804
330
307BF
100
AcDbEntity
  8
Hawa6
  6
DASHED
 48
0.035355
100
AcDbLine
 10
58.39990199999988
 20
12.44808504099677
 30
0.0
 11
57.39990199999988
 21
13.44808504099677
 31
0.0
  0
LINE
  5
30805
330
307BF
100
AcDbEntity
  8
Hawa6
  6
DASHED
 48
0.2
100
AcDbLine
 10
57.39982599999985
 20
13.44800904099679
 30
0.0
 11
65.39982599999984
 21
13.44800904099679
 31
0.0
  0
LINE
  5
30806
330
307BF
100
AcDbEntity
  8
Hawa6
  6
DASHED
 48
0.4000020000000001
100
AcDbLine
 10
58.39982599999984
 20
28.44808504099678
 30
0.0
 11
58.399811
 21
12.44800904099679
 31
0.0
  0
LINE
  5
30807
330
307BF
100
AcDbEntity
  8
Hawa6
  6
DASHED
 48
0.399621
100
AcDbLine
 10
64.39982599999985
 20
28.43284204099678
 30
0.0
 11
64.399811
 21
12.44800904099679
 31
0.0
  0
LINE
  5
30808
330
307BF
100
AcDbEntity
  8
Hawa6
  6
DASHED
 48
0.350002
100
AcDbLine
 10
65.39982599999984
 20
27.44807004099675
 30
0.0
 11
65.399811
 21
13.44800904099679
 31
0.0
  0
LINE
  5
30809
330
307BF
100
AcDbEntity
  8
Hawa6
  6
DASHED
 48
0.350002
100
AcDbLine
 10
57.39982599999985
 20
27.44808504099677
 30
0.0
 11
57.399811
 21
13.44800904099679
 31
0.0
  0
LINE
  5
3080A
330
307BF
100
AcDbEntity
  8
Hawa6
 48
0.106066
100
AcDbLine
 10
58.399811
 20
116.4479940409967
 30
0.0
 11
55.399811
 21
113.4480090409968
 31
0.0
  0
LINE
  5
3080B
330
307BF
100
AcDbEntity
  8
Hawa6
 48
0.106066
100
AcDbLine
 10
64.39968899999986
 20
116.4479020409967
 30
0.0
 11
67.39968899999985
 21
113.4479020409967
 31
0.0
  0
LINE
  5
3080C
330
307BF
100
AcDbEntity
  8
Hawa6
 48
0.3
100
AcDbLine
 10
67.399811
 20
113.4480240409968
 30
0.0
 11
55.399811
 21
113.4480240409968
 31
0.0
  0
LINE
  5
3080D
330
307BF
100
AcDbEntity
  8
Hawa6
  6
DASHED
 48
0.15
100
AcDbLine
 10
58.39982599999984
 20
12.44800904099679
 30
0.0
 11
64.39984099999993
 21
12.44800904099679
 31
0.0
  0
LINE
  5
3080E
330
307BF
100
AcDbEntity
  8
Hawa6
  6
DASHED
 48
0.205
100
AcDbLine
 10
57.29981999999996
 20
33.9480090409968
 30
0.0
 11
65.49983199999997
 21
33.9480090409968
 31
0.0
  0
LINE
  5
3080F
330
307BF
100
AcDbEntity
  8
Hawa6
  6
DASHED
 48
0.175
100
AcDbLine
 10
57.29980499999988
 20
33.9480090409968
 30
0.0
 11
57.29980499999988
 21
40.94800904099679
 31
0.0
  0
LINE
  5
30810
330
307BF
100
AcDbEntity
  8
Hawa6
  6
DASHED
 48
0.025
100
AcDbLine
 10
52.49996899999996
 20
35.44800904099679
 30
0.0
 11
53.49996899999997
 21
35.44800904099679
 31
0.0
  0
LINE
  5
30811
330
307BF
100
AcDbEntity
  8
Hawa6
  6
DASHED
 48
0.025
100
AcDbLine
 10
52.49996899999996
 20
37.4480090409968
 30
0.0
 11
53.49996899999997
 21
37.4480090409968
 31
0.0
  0
LINE
  5
30812
330
307BF
100
AcDbEntity
  8
Hawa6
  6
DASHED
 48
0.05
100
AcDbLine
 10
53.49996899999997
 20
35.44800904099679
 30
0.0
 11
53.49996899999997
 21
37.4480090409968
 31
0.0
  0
LINE
  5
30813
330
307BF
100
AcDbEntity
  8
Hawa6
  6
DASHED
 48
0.042427
100
AcDbLine
 10
57.19995099999983
 20
36.44802404099676
 30
0.0
 11
58.39996300000007
 21
37.64802104099681
 31
0.0
  0
LINE
  5
30814
330
307BF
100
AcDbEntity
  8
Hawa6
  6
DASHED
 48
0.042427
100
AcDbLine
 10
57.19995099999983
 20
36.4480090409968
 30
0.0
 11
58.39996300000007
 21
35.2480120409968
 31
0.0
  0
LINE
  5
30815
330
307BF
100
AcDbEntity
  8
Hawa6
  6
DASHED
 48
0.115
100
AcDbLine
 10
52.99996899999996
 20
34.44800904099679
 30
0.0
 11
57.59996000000001
 21
34.44800904099679
 31
0.0
  0
LINE
  5
30816
330
307BF
100
AcDbEntity
  8
Hawa6
  6
DASHED
 48
0.040004
100
AcDbLine
 10
51.39982599999985
 20
34.44800904099679
 30
0.0
 11
52.99996899999996
 21
34.44800904099679
 31
0.0
  0
LINE
  5
30817
330
307BF
100
AcDbEntity
  8
Hawa6
  6
DASHED
 48
0.115
100
AcDbLine
 10
52.99996899999996
 20
38.4480090409968
 30
0.0
 11
57.59996000000001
 21
38.4480090409968
 31
0.0
  0
LINE
  5
30818
330
307BF
100
AcDbEntity
  8
Hawa6
  6
DASHED
 48
0.040004
100
AcDbLine
 10
51.39982599999985
 20
38.4480090409968
 30
0.0
 11
52.99996899999996
 21
38.4480090409968
 31
0.0
  0
LINE
  5
30819
330
307BF
100
AcDbEntity
  8
Hawa6
  6
DASHED
 48
0.027503
100
AcDbLine
 10
51.39982599999985
 20
34.9480090409968
 30
0.0
 11
52.49993900000004
 21
34.9480090409968
 31
0.0
  0
LINE
  5
3081A
330
307BF
100
AcDbEntity
  8
Hawa6
  6
DASHED
 48
0.027503
100
AcDbLine
 10
51.39982599999985
 20
37.94800904099679
 30
0.0
 11
52.49995399999988
 21
37.94800904099679
 31
0.0
  0
LINE
  5
3081B
330
307BF
100
AcDbEntity
  8
Hawa6
  6
DASHED
 48
0.028284
100
AcDbLine
 10
57.59996000000001
 20
34.44802404099676
 30
0.0
 11
58.39996300000007
 21
35.2480120409968
 31
0.0
  0
LINE
  5
3081C
330
307BF
100
AcDbEntity
  8
Hawa6
  6
DASHED
 48
0.028285
100
AcDbLine
 10
57.59994499999994
 20
38.4480090409968
 30
0.0
 11
58.39996300000007
 21
37.64800604099679
 31
0.0
  0
LINE
  5
3081D
330
307BF
100
AcDbEntity
  8
Hawa6
  6
DASHED
 48
0.1
100
AcDbLine
 10
57.59994499999994
 20
34.44800904099679
 30
0.0
 11
57.59994499999994
 21
38.4480090409968
 31
0.0
  0
LINE
  5
3081E
330
307BF
100
AcDbEntity
  8
Hawa6
  6
DASHED
 48
0.017678
100
AcDbLine
 10
52.99995399999989
 20
34.44800904099679
 30
0.0
 11
52.49995399999988
 21
34.9480090409968
 31
0.0
  0
LINE
  5
3081F
330
307BF
100
AcDbEntity
  8
Hawa6
  6
DASHED
 48
0.017678
100
AcDbLine
 10
52.99996899999996
 20
38.44802404099676
 30
0.0
 11
52.49995399999988
 21
37.94802404099676
 31
0.0
  0
LINE
  5
30820
330
307BF
100
AcDbEntity
  8
Hawa6
  6
DASHED
 48
0.1
100
AcDbLine
 10
52.99996899999996
 20
34.44800904099679
 30
0.0
 11
52.99996899999996
 21
38.4480090409968
 31
0.0
  0
LINE
  5
30821
330
307BF
100
AcDbEntity
  8
Hawa6
  6
DASHED
 48
0.0075
100
AcDbLine
 10
58.09996000000001
 20
34.9480090409968
 30
0.0
 11
58.39996300000007
 21
34.9480090409968
 31
0.0
  0
LINE
  5
30822
330
307BF
100
AcDbEntity
  8
Hawa6
  6
DASHED
 48
0.0075
100
AcDbLine
 10
58.09997499999986
 20
37.94800904099679
 30
0.0
 11
58.39996300000007
 21
37.94800904099679
 31
0.0
  0
LINE
  5
30823
330
307BF
100
AcDbEntity
  8
Hawa6
  6
DASHDOT
 48
0.210065
100
AcDbLine
 10
51.23495499999989
 20
36.4480090409968
 30
0.0
 11
59.6375579999999
 21
36.4480090409968
 31
0.0
  0
LINE
  5
30824
330
307BF
100
AcDbEntity
  8
Hawa6
  6
DASHED
 48
0.025
100
AcDbLine
 10
52.49996899999996
 20
36.94800904099679
 30
0.0
 11
53.49996899999997
 21
36.94800904099679
 31
0.0
  0
LINE
  5
30825
330
307BF
100
AcDbEntity
  8
Hawa6
  6
DASHED
 48
0.028867
100
AcDbLine
 10
53.49996899999997
 20
35.44802404099676
 30
0.0
 11
54.07730100000003
 21
36.4480090409968
 31
0.0
  0
LINE
  5
30826
330
307BF
100
AcDbEntity
  8
Hawa6
  6
DASHED
 48
0.028867
100
AcDbLine
 10
53.49995399999989
 20
37.4480090409968
 30
0.0
 11
54.07730100000003
 21
36.4480090409968
 31
0.0
  0
LINE
  5
30827
330
307BF
100
AcDbEntity
  8
Hawa6
 48
0.375
100
AcDbLine
 10
51.89984099999993
 20
40.94800904099679
 30
0.0
 11
66.89982599999985
 21
40.94800904099679
 31
0.0
  0
LINE
  5
30828
330
307BF
100
AcDbEntity
  8
Hawa6
 48
0.149999
100
AcDbLine
 10
51.39982599999985
 20
34.44807004099676
 30
0.0
 11
51.39982599999985
 21
40.44802404099676
 31
0.0
  0
LINE
  5
30829
330
307BF
100
AcDbEntity
  8
Hawa6
100
AcDbLine
 10
67.399811
 20
5.448024040996756
 30
0.0
 11
67.399811
 21
40.44800904099679
 31
0.0
  0
LINE
  5
3082A
330
307BF
100
AcDbEntity
  8
Hawa6
  6
DASHDOT
100
AcDbLine
 10
61.39981099999999
 20
120.8116110409967
 30
0.0
 11
61.39981099999999
 21
0.2894930409967742
 31
0.0
  0
LINE
  5
3082B
330
307BF
100
AcDbEntity
  8
Hawa6
100
AcDbLine
 10
57.11495999999988
 20
6.263187040996797
 30
0.0
 11
57.11495999999988
 21
40.38567704099676
 31
0.0
  0
LINE
  5
3082C
330
307BF
100
AcDbEntity
  8
Hawa6
100
AcDbLine
 10
67.39984099999992
 20
113.4480240409968
 30
0.0
 11
67.39982599999985
 21
46.94800904099679
 31
0.0
  0
LINE
  5
3082D
330
307BF
100
AcDbEntity
  8
Hawa6
 48
0.4375
100
AcDbLine
 10
32.43176300000005
 20
32.95295304099682
 30
0.0
 11
49.93176300000005
 21
32.95295304099682
 31
0.0
  0
LINE
  5
3082E
330
307BF
100
AcDbEntity
  8
Hawa6
 48
0.3325
100
AcDbLine
 10
6.731735000000071
 20
0.1530260409967923
 30
0.0
 11
6.731735000000071
 21
-13.14699195900323
 31
0.0
  0
LINE
  5
3082F
330
307BF
100
AcDbEntity
  8
Hawa6
 48
0.152619
100
AcDbLine
 10
16.831772
 20
-14.5470619590032
 30
0.0
 11
22.93652299999985
 21
-14.5470619590032
 31
0.0
  0
LINE
  5
30830
330
307BF
100
AcDbEntity
  8
Hawa6
 48
0.4724779999999999
100
AcDbLine
 10
42.68804899999986
 20
-13.29338495900322
 30
0.0
 11
49.15193199999999
 21
4.465991040996811
 31
0.0
  0
LINE
  5
30831
330
307BF
100
AcDbEntity
  8
Hawa6
 48
0.202619
100
AcDbLine
 10
16.831772
 20
-0.7470289590032167
 30
0.0
 11
24.93652299999985
 21
-0.7470289590032167
 31
0.0
  0
LINE
  5
30832
330
307BF
100
AcDbEntity
  8
Hawa6
 48
0.2775
100
AcDbLine
 10
6.731765999999879
 20
-2.14705295900319
 30
0.0
 11
17.831772
 21
-2.14705295900319
 31
0.0
  0
LINE
  5
30833
330
307BF
100
AcDbEntity
  8
Hawa6
 48
0.2775
100
AcDbLine
 10
6.731765999999879
 20
-13.14705295900319
 30
0.0
 11
17.831772
 21
-13.14705295900319
 31
0.0
  0
LINE
  5
30834
330
307BF
100
AcDbEntity
  8
Hawa6
 48
0.275
100
AcDbLine
 10
8.331740999999965
 20
-13.14699195900323
 30
0.0
 11
8.331740999999965
 21
-2.146984959003191
 31
0.0
  0
LINE
  5
30835
330
307BF
100
AcDbEntity
  8
Hawa6
 48
0.035
100
AcDbLine
 10
17.83175600000004
 20
-2.14699995900321
 30
0.0
 11
17.83175600000004
 21
-0.7469909590031989
 31
0.0
  0
LINE
  5
30836
330
307BF
100
AcDbEntity
  8
Hawa6
 48
0.345
100
AcDbLine
 10
20.30725099999995
 20
-14.54700095900318
 30
0.0
 11
20.30725099999995
 21
-0.7469909590031989
 31
0.0
  0
LINE
  5
30837
330
307BF
100
AcDbEntity
  8
Hawa6
 48
0.035
100
AcDbLine
 10
17.83175600000004
 20
-14.54700095900318
 30
0.0
 11
17.83175600000004
 21
-13.14699195900323
 31
0.0
  0
LINE
  5
30838
330
307BF
100
AcDbEntity
  8
Hawa6
 48
0.345001
100
AcDbLine
 10
22.93649299999993
 20
-14.54700095900318
 30
0.0
 11
22.93649299999993
 21
-0.7469749590032393
 31
0.0
  0
LINE
  5
30839
330
307BF
100
AcDbEntity
  8
Hawa6
 48
0.135
100
AcDbLine
 10
16.83175600000004
 20
-13.14699195900323
 30
0.0
 11
16.83175600000004
 21
-18.54700095900318
 31
0.0
  0
LINE
  5
3083A
330
307BF
100
AcDbEntity
  8
Hawa6
 48
0.035001
100
AcDbLine
 10
16.83175600000004
 20
-0.7469749590032393
 30
0.0
 11
16.83175600000004
 21
-2.14699995900321
 31
0.0
  0
LINE
  5
3083B
330
307BF
100
AcDbEntity
  8
Hawa6
 48
0.115
100
AcDbLine
 10
7.481749999999919
 20
-13.14699195900323
 30
0.0
 11
7.481749999999919
 21
-17.7469909590032
 31
0.0
  0
LINE
  5
3083C
330
307BF
100
AcDbEntity
  8
Hawa6
 48
0.115
100
AcDbLine
 10
15.98174999999992
 20
-13.14699195900323
 30
0.0
 11
15.98174999999992
 21
-17.7469909590032
 31
0.0
  0
LINE
  5
3083D
330
307BF
100
AcDbEntity
  8
Hawa6
 48
0.1925
100
AcDbLine
 10
7.881775000000061
 20
-18.14705295900319
 30
0.0
 11
15.581772
 21
-18.14705295900319
 31
0.0
  0
LINE
  5
3083E
330
307BF
100
AcDbEntity
  8
Hawa6
  6
DASHED
 48
0.0725
100
AcDbLine
 10
9.422347999999828
 20
-18.14699195900323
 30
0.0
 11
9.422347999999828
 21
-15.2469909590032
 31
0.0
  0
LINE
  5
3083F
330
307BF
100
AcDbEntity
  8
Hawa6
  6
DASHED
 48
0.0725
100
AcDbLine
 10
10.57705699999996
 20
-18.14699195900323
 30
0.0
 11
10.57705699999996
 21
-15.2469909590032
 31
0.0
  0
LINE
  5
30840
330
307BF
100
AcDbEntity
  8
Hawa6
  6
DASHED
 48
0.0725
100
AcDbLine
 10
12.88645900000006
 20
-18.14699195900323
 30
0.0
 11
12.88645900000006
 21
-15.2469909590032
 31
0.0
  0
LINE
  5
30841
330
307BF
100
AcDbEntity
  8
Hawa6
  6
DASHED
 48
0.0725
100
AcDbLine
 10
14.04116799999997
 20
-15.2469909590032
 30
0.0
 11
14.04116799999997
 21
-18.14698495900319
 31
0.0
  0
LINE
  5
30842
330
307BF
100
AcDbEntity
  8
Hawa6
  6
DASHED
 48
0.11547
100
AcDbLine
 10
14.04116799999997
 20
-15.2470589590032
 30
0.0
 11
9.422362999999904
 21
-15.2470589590032
 31
0.0
  0
LINE
  5
30843
330
307BF
100
AcDbEntity
  8
Hawa6
  6
DASHED
 48
0.057735
100
AcDbLine
 10
9.731810999999879
 20
-15.24702895900321
 30
0.0
 11
11.73179600000003
 21
-14.09232795900322
 31
0.0
  0
LINE
  5
30844
330
307BF
100
AcDbEntity
  8
Hawa6
  6
DASHED
 48
0.057735
100
AcDbLine
 10
13.73174999999992
 20
-15.24702895900321
 30
0.0
 11
11.73174999999992
 21
-14.09231995900325
 31
0.0
  0
LINE
  5
30845
330
307BF
100
AcDbEntity
  8
Hawa6
 48
0.0575
100
AcDbLine
 10
16.73168899999996
 20
-2.14699195900323
 30
0.0
 11
16.73168899999996
 21
0.1530110409967733
 31
0.0
  0
LINE
  5
30846
330
307BF
100
AcDbEntity
  8
Hawa6
  6
DASHDOT
100
AcDbLine
 10
11.73168899999996
 20
-31.70996495900323
 30
0.0
 11
11.73168899999996
 21
18.70754604099682
 31
0.0
  0
LINE
  5
30847
330
307BF
100
AcDbEntity
  8
Hawa6
 48
0.2499989999999999
100
AcDbLine
 10
6.731749999999919
 20
0.1529800409967947
 30
0.0
 11
16.73170499999992
 21
0.1529800409967947
 31
0.0
  0
LINE
  5
30848
330
307BF
100
AcDbEntity
  8
Hawa6
 48
0.0575
100
AcDbLine
 10
9.48168899999996
 20
-2.14699195900323
 30
0.0
 11
9.48168899999996
 21
0.1530110409967733
 31
0.0
  0
LINE
  5
30849
330
307BF
100
AcDbEntity
  8
Hawa6
 48
0.0575
100
AcDbLine
 10
13.98168899999996
 20
-2.14699195900323
 30
0.0
 11
13.98168899999996
 21
0.1530110409967733
 31
0.0
  0
LINE
  5
3084A
330
307BF
100
AcDbEntity
  8
Hawa6
100
AcDbLine
 10
27.43173200000001
 20
27.95299904099682
 30
0.0
 11
27.43173200000001
 21
7.253002040996761
 31
0.0
  0
LINE
  5
3084B
330
307BF
100
AcDbEntity
  8
Hawa6
 48
0.4585609999999999
100
AcDbLine
 10
16.831772
 20
-18.54705495900322
 30
0.0
 11
35.17422499999998
 21
-18.54705495900322
 31
0.0
  0
LINE
  5
3084C
330
307BF
100
AcDbEntity
  8
Hawa6
 48
0.4179260000000001
100
AcDbLine
 10
50.68276999999989
 20
5.448017040996774
 30
0.0
 11
67.39982599999985
 21
5.448017040996774
 31
0.0
  0
LINE
  5
3084D
330
307BF
100
AcDbEntity
  8
Hawa6
 48
0.25
100
AcDbLine
 10
15.23167399999988
 20
10.15302604099679
 30
0.0
 11
15.23167399999988
 21
0.1530260409967923
 31
0.0
  0
LINE
  5
3084E
330
307BF
100
AcDbEntity
  8
Hawa6
 48
0.225001
100
AcDbLine
 10
7.23168899999996
 20
10.15281204099676
 30
0.0
 11
16.23171999999999
 21
10.15281204099676
 31
0.0
  0
LINE
  5
3084F
330
307BF
100
AcDbEntity
  8
Hawa6
 48
0.102147
100
AcDbLine
 10
18.06756599999994
 20
11.35292404099675
 30
0.0
 11
13.98170499999992
 21
11.35292404099675
 31
0.0
  0
LINE
  5
30850
330
307BF
100
AcDbEntity
  8
Hawa6
 48
0.316793
100
AcDbLine
 10
18.06758100000002
 20
16.85296204099677
 30
0.0
 11
5.395843000000013
 21
16.85296204099677
 31
0.0
  0
LINE
  5
30851
330
307BF
100
AcDbEntity
  8
Hawa6
 48
0.102147
100
AcDbLine
 10
5.395827999999937
 20
11.35292404099675
 30
0.0
 11
9.481704999999919
 21
11.35292404099675
 31
0.0
  0
LINE
  5
30852
330
307BF
100
AcDbEntity
  8
Hawa6
 48
0.25
100
AcDbLine
 10
8.231673999999884
 20
10.15303404099677
 30
0.0
 11
8.231673999999884
 21
0.1530260409967923
 31
0.0
  0
LINE
  5
30853
330
307BF
100
AcDbEntity
  8
Hawa6
 48
0.05
100
AcDbLine
 10
13.98168899999996
 20
10.15299604099681
 30
0.0
 11
13.98168899999996
 21
12.15299604099681
 31
0.0
  0
LINE
  5
30854
330
307BF
100
AcDbEntity
  8
Hawa6
 48
0.05
100
AcDbLine
 10
9.48168899999996
 20
10.15299604099681
 30
0.0
 11
9.48168899999996
 21
12.15299604099681
 31
0.0
  0
LINE
  5
30855
330
307BF
100
AcDbEntity
  8
Hawa6
 48
0.1125
100
AcDbLine
 10
9.481704999999919
 20
12.15292704099681
 30
0.0
 11
13.98170499999992
 21
12.15292704099681
 31
0.0
  0
LINE
  5
30856
330
307BF
100
AcDbEntity
  8
Hawa6
 48
0.25
100
AcDbLine
 10
16.23168899999996
 20
10.15302604099679
 30
0.0
 11
16.23168899999996
 21
0.1530260409967923
 31
0.0
  0
LINE
  5
30857
330
307BF
100
AcDbEntity
  8
Hawa6
 48
0.213031
100
AcDbLine
 10
9.490677000000005
 20
9.348400040996807
 30
0.0
 11
9.490677000000005
 21
0.8271520409967934
 31
0.0
  0
LINE
  5
30858
330
307BF
100
AcDbEntity
  8
Hawa6
 48
0.213031
100
AcDbLine
 10
13.97267099999999
 20
9.466739040996799
 30
0.0
 11
13.97267099999999
 21
0.9454990409967649
 31
0.0
  0
LINE
  5
30859
330
307BF
100
AcDbEntity
  8
Hawa6
 48
0.25
100
AcDbLine
 10
7.231659000000036
 20
10.15303404099677
 30
0.0
 11
7.231659000000036
 21
0.1530340409967721
 31
0.0
  0
LINE
  5
3085A
330
307BF
100
AcDbEntity
  8
Hawa6
 48
0.03
100
AcDbLine
 10
60.79972799999996
 20
115.2480120409968
 30
0.0
 11
61.9997249999999
 21
115.2480120409968
 31
0.0
  0
LINE
  5
3085B
330
307BF
100
AcDbEntity
  8
Hawa6
 48
0.06
100
AcDbLine
 10
60.79972799999996
 20
116.4480240409968
 30
0.0
 11
58.399719
 21
116.4480240409968
 31
0.0
  0
LINE
  5
3085C
330
307BF
100
AcDbEntity
  8
Hawa6
 48
0.03
100
AcDbLine
 10
60.79995699999995
 20
116.4480850409967
 30
0.0
 11
60.79995699999995
 21
115.2480730409968
 31
0.0
  0
LINE
  5
3085D
330
307BF
100
AcDbEntity
  8
Hawa6
 48
0.03
100
AcDbLine
 10
61.99995399999989
 20
116.4480850409967
 30
0.0
 11
61.99995399999989
 21
115.2480730409968
 31
0.0
  0
LINE
  5
3085E
330
307BF
100
AcDbEntity
  8
Hawa6
 48
0.06
100
AcDbLine
 10
64.399719
 20
116.4480240409968
 30
0.0
 11
61.9997249999999
 21
116.4480240409968
 31
0.0
  0
LINE
  5
3085F
330
307BF
100
AcDbEntity
  8
Hawa6
 48
0.150002
100
AcDbLine
 10
58.39993299999992
 20
46.94808504099677
 30
0.0
 11
58.39993299999992
 21
40.94800904099679
 31
0.0
  0
LINE
  5
30860
330
307BF
100
AcDbEntity
  8
Hawa6
 48
0.150002
100
AcDbLine
 10
64.39993299999992
 20
46.94807004099675
 30
0.0
 11
64.39993299999992
 21
40.94800904099679
 31
0.0
  0
LINE
  5
30861
330
307BF
100
AcDbEntity
  8
Hawa6
  6
DASHED
 48
0.312498
100
AcDbLine
 10
58.39993299999992
 20
40.94800904099679
 30
0.0
 11
58.39993299999992
 21
28.44808504099678
 31
0.0
  0
LINE
  5
30862
330
307BF
100
AcDbEntity
  8
Hawa6
  6
DASHED
 48
0.313035
100
AcDbLine
 10
64.39993299999992
 20
40.94800904099679
 30
0.0
 11
64.39993299999992
 21
28.42660104099678
 31
0.0
  0
LINE
  5
30863
330
307BF
100
AcDbEntity
  8
Hawa6
  6
DASHED
100
AcDbLine
 10
57.29981999999996
 20
112.4480850409967
 30
0.0
 11
57.29981999999996
 21
48.44800904099679
 31
0.0
  0
LINE
  5
30864
330
307BF
100
AcDbEntity
  8
Hawa6
  6
DASHED
100
AcDbLine
 10
65.49981699999989
 20
112.4480850409967
 30
0.0
 11
65.49981699999989
 21
48.44800904099679
 31
0.0
  0
LINE
  5
30865
330
307BF
100
AcDbEntity
  8
Hawa6
  6
DASHED
 48
0.0125
100
AcDbLine
 10
64.39982599999985
 20
47.44800904099679
 30
0.0
 11
64.39982599999985
 21
46.94800904099679
 31
0.0
  0
LINE
  5
30866
330
307BF
100
AcDbEntity
  8
Hawa6
  6
DASHED
 48
0.0125
100
AcDbLine
 10
58.39982599999984
 20
47.44800904099679
 30
0.0
 11
58.39982599999984
 21
46.94800904099679
 31
0.0
  0
LINE
  5
30867
330
307BF
100
AcDbEntity
  8
Hawa6
  6
DASHED
 48
0.140001
100
AcDbLine
 10
52.49993900000004
 20
34.9480090409968
 30
0.0
 11
58.09996000000001
 21
34.9480090409968
 31
0.0
  0
LINE
  5
30868
330
307BF
100
AcDbEntity
  8
Hawa6
  6
DASHED
 48
0.140001
100
AcDbLine
 10
52.49995399999988
 20
37.94800904099679
 30
0.0
 11
58.09997499999986
 21
37.94800904099679
 31
0.0
  0
LINE
  5
30869
330
307BF
100
AcDbEntity
  8
Hawa6
  6
DASHED
 48
0.075
100
AcDbLine
 10
52.49995399999988
 20
37.94800904099679
 30
0.0
 11
52.49993900000004
 21
34.9480090409968
 31
0.0
  0
LINE
  5
3086A
330
307BF
100
AcDbEntity
  8
Hawa6
  6
DASHED
 48
0.162498
100
AcDbLine
 10
65.39982599999984
 20
33.9480090409968
 30
0.0
 11
65.39982599999984
 21
27.44807004099675
 31
0.0
  0
LINE
  5
3086B
330
307BF
100
AcDbEntity
  8
Hawa6
  6
DASHED
 48
0.162498
100
AcDbLine
 10
57.39982599999985
 20
33.9480090409968
 30
0.0
 11
57.39982599999985
 21
27.44808504099677
 31
0.0
  0
LINE
  5
3086C
330
307BF
100
AcDbEntity
  8
Hawa6
  6
DASHDOT
 48
0.325
100
AcDbLine
 10
47.399811
 20
48.44816204099675
 30
0.0
 11
47.399811
 21
61.44816204099675
 31
0.0
  0
LINE
  5
3086D
330
307BF
100
AcDbEntity
  8
Hawa6
  6
DASHDOT
 48
0.325
100
AcDbLine
 10
40.89982599999984
 20
54.94802404099676
 30
0.0
 11
53.89982599999985
 21
54.94802404099676
 31
0.0
  0
LINE
  5
3086E
330
307BF
100
AcDbEntity
  8
Hawa6
  6
DASHDOT
 48
0.325
100
AcDbLine
 10
32.39982599999985
 20
66.94804004099683
 30
0.0
 11
45.39984099999992
 21
66.94804004099683
 31
0.0
  0
LINE
  5
3086F
330
307BF
100
AcDbEntity
  8
Hawa6
  6
DASHDOT
 48
0.325
100
AcDbLine
 10
38.89982599999985
 20
60.44816204099674
 30
0.0
 11
38.89982599999985
 21
73.44816204099675
 31
0.0
  0
LINE
  5
30870
330
307BF
100
AcDbEntity
  8
Hawa6
  6
DASHDOT
 48
0.325
100
AcDbLine
 10
47.39984099999992
 20
84.44816204099675
 30
0.0
 11
47.39984099999992
 21
97.44816204099675
 31
0.0
  0
LINE
  5
30871
330
307BF
100
AcDbEntity
  8
Hawa6
  6
DASHDOT
 48
0.325
100
AcDbLine
 10
40.89984099999992
 20
90.94802404099675
 30
0.0
 11
53.89984099999992
 21
90.94802404099675
 31
0.0
  0
LINE
  5
30872
330
307BF
100
AcDbEntity
  8
Hawa6
 48
0.018544
100
AcDbLine
 10
38.89996300000007
 20
104.4984390409968
 30
0.0
 11
38.20292700000005
 21
104.7521620409967
 31
0.0
  0
LINE
  5
30873
330
307BF
100
AcDbEntity
  8
Hawa6
 48
0.029598
100
AcDbLine
 10
39.59693900000002
 20
101.1433060409967
 30
0.0
 11
40.44859299999984
 21
100.3208880409968
 31
0.0
  0
LINE
  5
30874
330
307BF
100
AcDbEntity
  8
Hawa6
 48
0.029598
100
AcDbLine
 10
38.20286499999998
 20
101.1433980409967
 30
0.0
 11
37.35121099999992
 21
100.3209800409968
 31
0.0
  0
LINE
  5
30875
330
307BF
100
AcDbEntity
  8
Hawa6
 48
0.018544
100
AcDbLine
 10
37.34890699999983
 20
102.9480240409968
 30
0.0
 11
37.09521500000005
 21
102.2509880409967
 31
0.0
  0
LINE
  5
30876
330
307BF
100
AcDbEntity
  8
Hawa6
 48
0.029598
100
AcDbLine
 10
38.20280400000001
 20
104.7525900409967
 30
0.0
 11
37.35116599999992
 21
105.5750230409967
 31
0.0
  0
LINE
  5
30877
330
307BF
100
AcDbEntity
  8
Hawa6
 48
0.029598
100
AcDbLine
 10
39.59689299999991
 20
104.7526510409968
 30
0.0
 11
40.44853199999988
 21
105.5750840409968
 31
0.0
  0
LINE
  5
30878
330
307BF
100
AcDbEntity
  8
Hawa6
 48
0.018545
100
AcDbLine
 10
38.899811
 20
104.4989120409968
 30
0.0
 11
39.59687800000006
 21
104.7526200409968
 31
0.0
  0
LINE
  5
30879
330
307BF
100
AcDbEntity
  8
Hawa6
 48
0.029598
100
AcDbLine
 10
40.70459000000005
 20
103.6450300409968
 30
0.0
 11
41.52700800000002
 21
104.4966690409967
 31
0.0
  0
LINE
  5
3087A
330
307BF
100
AcDbEntity
  8
Hawa6
 48
0.029599
100
AcDbLine
 10
40.70455900000001
 20
102.2510330409968
 30
0.0
 11
41.52700800000002
 21
101.3993790409968
 31
0.0
  0
LINE
  5
3087B
330
307BF
100
AcDbEntity
  8
Hawa6
 48
0.018545
100
AcDbLine
 10
40.45051599999988
 20
102.9478260409968
 30
0.0
 11
40.70422399999984
 21
102.2507740409968
 31
0.0
  0
LINE
  5
3087C
330
307BF
100
AcDbEntity
  8
Hawa6
 48
0.018544
100
AcDbLine
 10
40.45080600000005
 20
102.9479940409967
 30
0.0
 11
40.7045129999999
 21
103.6450150409968
 31
0.0
  0
LINE
  5
3087D
330
307BF
100
AcDbEntity
  8
Hawa6
 48
0.018544
100
AcDbLine
 10
38.89988700000003
 20
101.3970900409967
 30
0.0
 11
38.2028499999999
 21
101.1433830409968
 31
0.0
  0
LINE
  5
3087E
330
307BF
100
AcDbEntity
  8
Hawa6
 48
0.018543
100
AcDbLine
 10
38.899856
 20
101.3971670409968
 30
0.0
 11
39.59686299999999
 21
101.1434890409967
 31
0.0
  0
LINE
  5
3087F
330
307BF
100
AcDbEntity
  8
Hawa6
 48
0.029598
100
AcDbLine
 10
37.09521500000005
 20
102.2510330409968
 30
0.0
 11
36.2727809999999
 21
101.3993790409968
 31
0.0
  0
LINE
  5
30880
330
307BF
100
AcDbEntity
  8
Hawa6
 48
0.029599
100
AcDbLine
 10
37.09521500000005
 20
103.6451220409968
 30
0.0
 11
36.27276600000005
 21
104.4967910409967
 31
0.0
  0
LINE
  5
30881
330
307BF
100
AcDbEntity
  8
Hawa6
 48
0.018544
100
AcDbLine
 10
37.34878499999991
 20
102.9479020409967
 30
0.0
 11
37.09507699999995
 21
103.6449240409968
 31
0.0
  0
LINE
  5
30882
330
307BF
100
AcDbEntity
  8
Hawa6
 48
0.018545
100
AcDbLine
 10
47.39996300000007
 20
92.49847004099683
 30
0.0
 11
46.70291099999985
 21
92.75219304099676
 31
0.0
  0
LINE
  5
30883
330
307BF
100
AcDbEntity
  8
Hawa6
 48
0.029598
100
AcDbLine
 10
48.09692399999994
 20
89.1433370409968
 30
0.0
 11
48.948578
 21
88.32091904099678
 31
0.0
  0
LINE
  5
30884
330
307BF
100
AcDbEntity
  8
Hawa6
 48
0.029598
100
AcDbLine
 10
46.70286499999997
 20
89.14339804099677
 30
0.0
 11
45.85122699999987
 21
88.3209800409968
 31
0.0
  0
LINE
  5
30885
330
307BF
100
AcDbEntity
  8
Hawa6
 48
0.018544
100
AcDbLine
 10
45.8488769999999
 20
90.94802404099675
 30
0.0
 11
45.59518400000001
 21
90.2510030409968
 31
0.0
  0
LINE
  5
30886
330
307BF
100
AcDbEntity
  8
Hawa6
 48
0.029599
100
AcDbLine
 10
46.70280400000001
 20
92.75260504099675
 30
0.0
 11
45.85113499999988
 21
93.57503804099678
 31
0.0
  0
LINE
  5
30887
330
307BF
100
AcDbEntity
  8
Hawa6
 48
0.029598
100
AcDbLine
 10
48.09687800000006
 20
92.75265104099673
 30
0.0
 11
48.94851700000003
 21
93.57508404099679
 31
0.0
  0
LINE
  5
30888
330
307BF
100
AcDbEntity
  8
Hawa6
 48
0.018545
100
AcDbLine
 10
47.399811
 20
92.49889704099677
 30
0.0
 11
48.09686299999999
 21
92.75262004099682
 31
0.0
  0
LINE
  5
30889
330
307BF
100
AcDbEntity
  8
Hawa6
 48
0.029598
100
AcDbLine
 10
49.20455900000002
 20
91.64506104099677
 30
0.0
 11
50.02697699999998
 21
92.49670004099675
 31
0.0
  0
LINE
  5
3088A
330
307BF
100
AcDbEntity
  8
Hawa6
 48
0.029599
100
AcDbLine
 10
49.20455900000002
 20
90.25103304099678
 30
0.0
 11
50.02700800000003
 21
89.39937904099679
 31
0.0
  0
LINE
  5
3088B
330
307BF
100
AcDbEntity
  8
Hawa6
 48
0.018545
100
AcDbLine
 10
48.95048500000007
 20
90.94784104099677
 30
0.0
 11
49.20419299999981
 21
90.25075904099679
 31
0.0
  0
LINE
  5
3088C
330
307BF
100
AcDbEntity
  8
Hawa6
 48
0.018544
100
AcDbLine
 10
48.95074499999987
 20
90.94802404099675
 30
0.0
 11
49.20443699999987
 21
91.64504604099681
 31
0.0
  0
LINE
  5
3088D
330
307BF
100
AcDbEntity
  8
Hawa6
 48
0.018543
100
AcDbLine
 10
47.39987199999996
 20
89.39707504099681
 30
0.0
 11
46.70286499999997
 21
89.14338304099681
 31
0.0
  0
LINE
  5
3088E
330
307BF
100
AcDbEntity
  8
Hawa6
 48
0.018544
100
AcDbLine
 10
47.39984099999992
 20
89.3971670409968
 30
0.0
 11
48.09686299999999
 21
89.14347404099681
 31
0.0
  0
LINE
  5
3088F
330
307BF
100
AcDbEntity
  8
Hawa6
 48
0.029598
100
AcDbLine
 10
45.59521500000005
 20
90.25103304099678
 30
0.0
 11
44.77278099999989
 21
89.39937904099679
 31
0.0
  0
LINE
  5
30890
330
307BF
100
AcDbEntity
  8
Hawa6
 48
0.029598
100
AcDbLine
 10
45.59519899999986
 20
91.64513704099681
 30
0.0
 11
44.77276600000005
 21
92.49679104099675
 31
0.0
  0
LINE
  5
30891
330
307BF
100
AcDbEntity
  8
Hawa6
 48
0.018545
100
AcDbLine
 10
45.84876999999983
 20
90.94790204099679
 30
0.0
 11
45.59507699999994
 21
91.64495404099682
 31
0.0
  0
LINE
  5
30892
330
307BF
100
AcDbEntity
  8
Hawa6
 48
0.018545
100
AcDbLine
 10
38.90000899999995
 20
68.49856104099678
 30
0.0
 11
38.2029419999999
 21
68.75228504099675
 31
0.0
  0
LINE
  5
30893
330
307BF
100
AcDbEntity
  8
Hawa6
 48
0.029598
100
AcDbLine
 10
39.59695399999987
 20
65.1433670409968
 30
0.0
 11
40.44860799999992
 21
64.3209340409968
 31
0.0
  0
LINE
  5
30894
330
307BF
100
AcDbEntity
  8
Hawa6
 48
0.029598
100
AcDbLine
 10
38.2028499999999
 20
65.14341304099679
 30
0.0
 11
37.35121099999992
 21
64.32099504099676
 31
0.0
  0
LINE
  5
30895
330
307BF
100
AcDbEntity
  8
Hawa6
 48
0.018545
100
AcDbLine
 10
37.3488769999999
 20
66.94805504099679
 30
0.0
 11
37.09518400000002
 21
66.25100304099681
 31
0.0
  0
LINE
  5
30896
330
307BF
100
AcDbEntity
  8
Hawa6
 48
0.029598
100
AcDbLine
 10
38.2028499999999
 20
68.75265104099674
 30
0.0
 11
37.35119599999985
 21
69.57508404099678
 31
0.0
  0
LINE
  5
30897
330
307BF
100
AcDbEntity
  8
Hawa6
 48
0.029598
100
AcDbLine
 10
39.59687800000006
 20
68.75266604099682
 30
0.0
 11
40.44851700000004
 21
69.57508404099678
 31
0.0
  0
LINE
  5
30898
330
307BF
100
AcDbEntity
  8
Hawa6
 48
0.018546
100
AcDbLine
 10
38.89977999999997
 20
68.4989120409968
 30
0.0
 11
39.59689299999991
 21
68.75263504099677
 31
0.0
  0
LINE
  5
30899
330
307BF
100
AcDbEntity
  8
Hawa6
 48
0.029598
100
AcDbLine
 10
40.70455900000001
 20
67.64506104099678
 30
0.0
 11
41.52697699999999
 21
68.49671504099683
 31
0.0
  0
LINE
  5
3089A
330
307BF
100
AcDbEntity
  8
Hawa6
 48
0.029599
100
AcDbLine
 10
40.70455900000001
 20
66.25103304099678
 30
0.0
 11
41.52700800000002
 21
65.39936404099683
 31
0.0
  0
LINE
  5
3089B
330
307BF
100
AcDbEntity
  8
Hawa6
 48
0.018545
100
AcDbLine
 10
40.45051599999988
 20
66.94785604099678
 30
0.0
 11
40.70422399999984
 21
66.25078904099678
 31
0.0
  0
LINE
  5
3089C
330
307BF
100
AcDbEntity
  8
Hawa6
 48
0.018544
100
AcDbLine
 10
40.45075999999994
 20
66.94804004099683
 30
0.0
 11
40.70446799999991
 21
67.64507604099674
 31
0.0
  0
LINE
  5
3089D
330
307BF
100
AcDbEntity
  8
Hawa6
 48
0.018544
100
AcDbLine
 10
38.899856
 20
65.39706004099679
 30
0.0
 11
38.20281999999997
 21
65.1433670409968
 31
0.0
  0
LINE
  5
3089E
330
307BF
100
AcDbEntity
  8
Hawa6
 48
0.018544
100
AcDbLine
 10
38.89984099999992
 20
65.39715104099679
 30
0.0
 11
39.59686299999999
 21
65.14344404099677
 31
0.0
  0
LINE
  5
3089F
330
307BF
100
AcDbEntity
  8
Hawa6
 48
0.029598
100
AcDbLine
 10
37.09519899999987
 20
66.25103304099678
 30
0.0
 11
36.2727809999999
 21
65.39937904099679
 31
0.0
  0
LINE
  5
308A0
330
307BF
100
AcDbEntity
  8
Hawa6
 48
0.029598
100
AcDbLine
 10
37.09519899999987
 20
67.6451220409968
 30
0.0
 11
36.27276600000005
 21
68.49677604099679
 31
0.0
  0
LINE
  5
308A1
330
307BF
100
AcDbEntity
  8
Hawa6
 48
0.018544
100
AcDbLine
 10
37.34880099999987
 20
66.9479170409968
 30
0.0
 11
37.09509299999991
 21
67.64495404099682
 31
0.0
  0
LINE
  5
308A2
330
307BF
100
AcDbEntity
  8
Hawa6
 48
0.018544
100
AcDbLine
 10
47.39999399999987
 20
56.49859204099676
 30
0.0
 11
46.70297199999981
 21
56.75230004099677
 31
0.0
  0
LINE
  5
308A3
330
307BF
100
AcDbEntity
  8
Hawa6
 48
0.029599
100
AcDbLine
 10
48.09695399999987
 20
53.14338304099681
 30
0.0
 11
48.94860799999992
 21
52.3209340409968
 31
0.0
  0
LINE
  5
308A4
330
307BF
100
AcDbEntity
  8
Hawa6
 48
0.029598
100
AcDbLine
 10
46.7028499999999
 20
53.1434280409968
 30
0.0
 11
45.85119599999984
 21
52.32101004099678
 31
0.0
  0
LINE
  5
308A5
330
307BF
100
AcDbEntity
  8
Hawa6
 48
0.018544
100
AcDbLine
 10
45.8488769999999
 20
54.94805504099679
 30
0.0
 11
45.59516899999993
 21
54.25101804099677
 31
0.0
  0
LINE
  5
308A6
330
307BF
100
AcDbEntity
  8
Hawa6
 48
0.029599
100
AcDbLine
 10
46.7028499999999
 20
56.75265104099674
 30
0.0
 11
45.85118099999999
 21
57.57508404099678
 31
0.0
  0
LINE
  5
308A7
330
307BF
100
AcDbEntity
  8
Hawa6
 48
0.029598
100
AcDbLine
 10
48.09686299999999
 20
56.75266604099681
 30
0.0
 11
48.94851700000003
 21
57.57508404099678
 31
0.0
  0
LINE
  5
308A8
330
307BF
100
AcDbEntity
  8
Hawa6
 48
0.018546
100
AcDbLine
 10
47.39977999999996
 20
56.4989120409968
 30
0.0
 11
48.09689299999991
 21
56.75263504099678
 31
0.0
  0
LINE
  5
308A9
330
307BF
100
AcDbEntity
  8
Hawa6
 48
0.029598
100
AcDbLine
 10
49.20452899999986
 20
55.64507604099674
 30
0.0
 11
50.02696199999991
 21
56.49673004099679
 31
0.0
  0
LINE
  5
308AA
330
307BF
100
AcDbEntity
  8
Hawa6
 48
0.029599
100
AcDbLine
 10
49.20455900000002
 20
54.25103304099678
 30
0.0
 11
50.02699299999995
 21
53.39936404099683
 31
0.0
  0
LINE
  5
308AB
330
307BF
100
AcDbEntity
  8
Hawa6
 48
0.018545
100
AcDbLine
 10
48.95049999999992
 20
54.94785604099678
 30
0.0
 11
49.20420799999988
 21
54.25080404099674
 31
0.0
  0
LINE
  5
308AC
330
307BF
100
AcDbEntity
  8
Hawa6
 48
0.018544
100
AcDbLine
 10
48.95074499999987
 20
54.94805504099679
 30
0.0
 11
49.20443699999987
 21
55.64509204099682
 31
0.0
  0
LINE
  5
308AD
330
307BF
100
AcDbEntity
  8
Hawa6
 48
0.018544
100
AcDbLine
 10
47.39987199999996
 20
53.39706004099679
 30
0.0
 11
46.7028499999999
 21
53.14336704099679
 31
0.0
  0
LINE
  5
308AE
330
307BF
100
AcDbEntity
  8
Hawa6
 48
0.018544
100
AcDbLine
 10
47.39987199999996
 20
53.39713604099677
 30
0.0
 11
48.09689299999991
 21
53.1434280409968
 31
0.0
  0
LINE
  5
308AF
330
307BF
100
AcDbEntity
  8
Hawa6
 48
0.029598
100
AcDbLine
 10
45.59521500000005
 20
54.25103304099678
 30
0.0
 11
44.77279699999985
 21
53.39939404099675
 31
0.0
  0
LINE
  5
308B0
330
307BF
100
AcDbEntity
  8
Hawa6
 48
0.029599
100
AcDbLine
 10
45.59521500000005
 20
55.64510704099678
 30
0.0
 11
44.77276600000005
 21
56.49677604099679
 31
0.0
  0
LINE
  5
308B1
330
307BF
100
AcDbEntity
  8
Hawa6
 48
0.018544
100
AcDbLine
 10
45.84875499999998
 20
54.9479170409968
 30
0.0
 11
45.59506199999987
 21
55.64495404099682
 31
0.0
  0
LINE
  5
308B2
330
307BF
100
AcDbEntity
  8
Hawa6
  6
DASHDOT
 48
0.325
100
AcDbLine
 10
38.89984099999992
 20
96.44816204099676
 30
0.0
 11
38.89984099999992
 21
109.4481620409967
 31
0.0
  0
LINE
  5
308B3
330
307BF
100
AcDbEntity
  8
Hawa6
  6
DASHDOT
 48
0.325
100
AcDbLine
 10
32.39984099999992
 20
102.9480400409968
 30
0.0
 11
45.39984099999992
 21
102.9480240409968
 31
0.0
  0
LINE
  5
308B4
330
307BF
100
AcDbEntity
  8
Hawa6
 48
0.4
100
AcDbLine
 10
55.30069000000003
 20
94.94814604099678
 30
0.0
 11
55.30069000000003
 21
110.9481460409968
 31
0.0
  0
LINE
  5
308B5
330
307BF
100
AcDbEntity
  8
Hawa6
 48
0.4
100
AcDbLine
 10
55.30069000000003
 20
62.94816204099674
 30
0.0
 11
55.30069000000003
 21
78.94814604099678
 31
0.0
  0
LINE
  5
308B6
330
307BF
100
AcDbEntity
  8
Hawa6
 48
0.302478
100
AcDbLine
 10
67.39984099999992
 20
62.94802404099676
 30
0.0
 11
55.30071999999996
 21
62.94802404099676
 31
0.0
  0
LINE
  5
308B7
330
307BF
100
AcDbEntity
  8
Hawa6
 48
0.302478
100
AcDbLine
 10
67.39984099999992
 20
78.94802404099675
 30
0.0
 11
55.30070499999988
 21
78.94802404099675
 31
0.0
  0
LINE
  5
308B8
330
307BF
100
AcDbEntity
  8
Hawa6
 48
0.302478
100
AcDbLine
 10
67.39984099999992
 20
94.94802404099681
 30
0.0
 11
55.30070499999988
 21
94.94802404099681
 31
0.0
  0
LINE
  5
308B9
330
307BF
100
AcDbEntity
  8
Hawa6
 48
0.4497930000000001
100
AcDbLine
 10
37.40812699999992
 20
110.9480240409968
 30
0.0
 11
55.39984099999992
 21
110.9480240409968
 31
0.0
  0
LINE
  5
308BA
330
307BF
100
AcDbEntity
  8
Hawa6
 48
0.35
100
AcDbLine
 10
55.39984099999992
 20
79.94802404099676
 30
0.0
 11
55.39984099999992
 21
93.94802404099676
 31
0.0
  0
LINE
  5
308BB
330
307BF
100
AcDbEntity
  8
Hawa6
 48
0.35
100
AcDbLine
 10
55.39984099999992
 20
47.94802404099676
 30
0.0
 11
55.39984099999992
 21
61.94802404099675
 31
0.0
  0
LINE
  5
308BC
330
307BF
100
AcDbEntity
  8
Hawa6
 48
0.4
100
AcDbLine
 10
55.39984099999992
 20
62.94802404099676
 30
0.0
 11
55.39984099999992
 21
78.94802404099675
 31
0.0
  0
LINE
  5
308BD
330
307BF
100
AcDbEntity
  8
Hawa6
100
AcDbLine
 10
31.399811
 20
104.9480090409968
 30
0.0
 11
31.39984099999992
 21
52.94800904099679
 31
0.0
  0
LINE
  5
308BE
330
307BF
100
AcDbEntity
  8
Hawa6
 48
0.3
100
AcDbLine
 10
55.39984099999992
 20
110.9480240409968
 30
0.0
 11
67.39984099999992
 21
110.9480240409968
 31
0.0
  0
LINE
  5
308BF
330
307BF
100
AcDbEntity
  8
Hawa6
 48
0.317698
100
AcDbLine
 10
23.93649299999993
 20
-14.54700095900318
 30
0.0
 11
23.93649299999993
 21
-1.83909295900321
 31
0.0
  0
LINE
  5
308C0
330
307BF
100
AcDbEntity
  8
Hawa6
 48
0.129168
100
AcDbLine
 10
17.76979099999994
 20
-15.5470619590032
 30
0.0
 11
22.93652299999985
 21
-15.5470619590032
 31
0.0
  0
LINE
  5
308C1
330
307BF
100
AcDbEntity
  8
Hawa6
  6
DASHDOT
 48
0.2601199999999999
100
AcDbLine
 10
4.127715999999963
 20
-0.0014769590032415
 30
0.0
 11
-6.277100000000018
 21
0.0022460409967948
 31
0.0
  0
LINE
  5
308C2
330
307BF
100
AcDbEntity
  8
Hawa6
 48
0.075
100
AcDbLine
 10
-5.000214000000141
 20
-1.498210959003188
 30
0.0
 11
-4.999138000000129
 21
1.501789040996811
 31
0.0
  0
LINE
  5
308C3
330
307BF
100
AcDbEntity
  8
Hawa6
  6
DASHED
 48
0.101801
100
AcDbLine
 10
0.6992800000000443
 20
-2.037448959003199
 30
0.0
 11
0.7007289999999103
 21
2.034572040996806
 31
0.0
  0
LINE
  5
308C4
330
307BF
100
AcDbEntity
  8
Hawa6
  6
DASHED
 48
0.075201
100
AcDbLine
 10
0.5080869999999323
 20
1.99982004099678
 30
0.0
 11
-2.499970000000075
 21
2.000896040996792
 31
0.0
  0
LINE
  5
308C5
330
307BF
100
AcDbEntity
  8
Hawa6
  6
DASHED
 48
0.075835
100
AcDbLine
 10
0.533431999999948
 20
-2.000186959003201
 30
0.0
 11
-2.499970000000075
 21
-1.999103959003207
 31
0.0
  0
LINE
  5
308C6
330
307BF
100
AcDbEntity
  8
Hawa6
  6
DASHED
 48
0.2
100
AcDbLine
 10
2.698562000000038
 20
-4.00178995900319
 30
0.0
 11
2.701415999999881
 21
3.998210040996809
 31
0.0
  0
LINE
  5
308C7
330
307BF
100
AcDbEntity
  8
Hawa6
  6
DASHED
 48
0.0075
100
AcDbLine
 10
3.001434000000017
 20
3.998104040996793
 30
0.0
 11
2.701430999999956
 21
3.998210040996809
 31
0.0
  0
LINE
  5
308C8
330
307BF
100
AcDbEntity
  8
Hawa6
  6
DASHED
 48
0.0075
100
AcDbLine
 10
2.998565999999982
 20
-4.001895959003206
 30
0.0
 11
2.698577999999997
 21
-4.00178995900319
 31
0.0
  0
LINE
  5
308C9
330
307BF
100
AcDbEntity
  8
Hawa6
  6
DASHED
 48
0.066562
100
AcDbLine
 10
0.8177949999999327
 20
2.115192040996817
 30
0.0
 11
2.701110999999855
 21
3.997180040996795
 31
0.0
  0
LINE
  5
308CA
330
307BF
100
AcDbEntity
  8
Hawa6
  6
DASHED
 48
0.066562
100
AcDbLine
 10
0.8168329999998604
 20
-2.119388959003231
 30
0.0
 11
2.698821999999836
 21
-4.002742959003228
 31
0.0
  0
LINE
  5
308CB
330
307BF
100
AcDbEntity
  8
Hawa6
  6
DASHED
 48
0.047512
100
AcDbLine
 10
-0.5995030000001407
 20
1.500217040996801
 30
0.0
 11
-2.499970000000075
 21
1.500896040996792
 31
0.0
  0
LINE
  5
308CC
330
307BF
100
AcDbEntity
  8
Hawa6
  6
DASHED
 48
0.047485
100
AcDbLine
 10
-0.6005860000000212
 20
-1.499782959003198
 30
0.0
 11
-2.499970000000075
 21
-1.499103959003207
 31
0.0
  0
LINE
  5
308CD
330
307BF
100
AcDbEntity
  8
Hawa6
 48
0.1
100
AcDbLine
 10
-4.50039700000002
 20
-1.998401959003217
 30
0.0
 11
-4.498963000000003
 21
2.001590040996802
 31
0.0
  0
LINE
  5
308CE
330
307BF
100
AcDbEntity
  8
Hawa6
 48
0.017677
100
AcDbLine
 10
-4.999146000000109
 20
1.501796040996794
 30
0.0
 11
-4.498963000000003
 21
2.001598040996782
 31
0.0
  0
LINE
  5
308CF
330
307BF
100
AcDbEntity
  8
Hawa6
 48
0.017678
100
AcDbLine
 10
-5.000214000000141
 20
-1.498210959003188
 30
0.0
 11
-4.50039700000002
 21
-1.998409959003197
 31
0.0
  0
LINE
  5
308D0
330
307BF
100
AcDbEntity
  8
Hawa6
  6
DASHED
 48
0.036086
100
AcDbLine
 10
0.9994050000000243
 20
-1.25107195900324
 30
0.0
 11
0.2782589999999345
 21
-0.0007059590031986
 31
0.0
  0
LINE
  5
308D1
330
307BF
100
AcDbEntity
  8
Hawa6
  6
DASHED
 48
0.05
100
AcDbLine
 10
3.000655999999935
 20
1.441280040996787
 30
0.0
 11
1.000655999999935
 21
1.442203040996787
 31
0.0
  0
LINE
  5
308D2
330
307BF
100
AcDbEntity
  8
Hawa6
  6
DASHED
 48
0.05
100
AcDbLine
 10
3.000335999999833
 20
0.719570040996814
 30
0.0
 11
1.000335999999833
 21
0.7204930409968143
 31
0.0
  0
LINE
  5
308D3
330
307BF
100
AcDbEntity
  8
Hawa6
  6
DASHED
 48
0.05
100
AcDbLine
 10
2.999663999999938
 20
-0.7237899590032271
 30
0.0
 11
0.9996639999999388
 21
-0.7228669590032269
 31
0.0
  0
LINE
  5
308D4
330
307BF
100
AcDbEntity
  8
Hawa6
  6
DASHED
 48
0.05
100
AcDbLine
 10
0.9993279999998776
 20
-1.444339959003229
 30
0.0
 11
2.999327999999877
 21
-1.445285959003228
 31
0.0
  0
LINE
  5
308D5
330
307BF
100
AcDbEntity
  8
Hawa6
  6
DASHED
 48
0.072169
100
AcDbLine
 10
0.9996180000000549
 20
-1.444339959003229
 30
0.0
 11
1.000945999999885
 21
1.442409040996778
 31
0.0
  0
LINE
  5
308D6
330
307BF
100
AcDbEntity
  8
Hawa6
  6
DASHED
 48
0.036084
100
AcDbLine
 10
1.000548999999864
 20
1.248943040996778
 30
0.0
 11
0.2782740000000103
 21
-0.0006989590032163
 31
0.0
  0
LINE
  5
308D7
330
307BF
100
AcDbEntity
  8
Hawa6
  6
DASHED
 48
0.1
100
AcDbLine
 10
-0.6007690000001276
 20
-2.0006149590032
 30
0.0
 11
-0.5993350000001101
 21
1.999385040996799
 31
0.0
  0
LINE
  5
308D8
330
307BF
100
AcDbEntity
  8
Hawa6
 48
0.062506
100
AcDbLine
 10
-2.499970000000075
 20
-1.499103959003207
 30
0.0
 11
-5.000214000000141
 21
-1.498210959003188
 31
0.0
  0
LINE
  5
308D9
330
307BF
100
AcDbEntity
  8
Hawa6
 48
0.050011
100
AcDbLine
 10
-2.499970000000075
 20
-1.999103959003207
 30
0.0
 11
-4.50039700000002
 21
-1.998386959003198
 31
0.0
  0
LINE
  5
308DA
330
307BF
100
AcDbEntity
  8
Hawa6
 48
0.062479
100
AcDbLine
 10
-2.499970000000075
 20
1.500896040996792
 30
0.0
 11
-4.999138000000129
 21
1.501789040996811
 31
0.0
  0
LINE
  5
308DB
330
307BF
100
AcDbEntity
  8
Hawa6
 48
0.049975
100
AcDbLine
 10
-2.499970000000075
 20
2.000896040996792
 30
0.0
 11
-4.498963000000003
 21
2.001613040996801
 31
0.0
  0
ARC
  5
308DC
330
307BF
100
AcDbEntity
  8
Hawa6
100
AcDbCircle
 10
3.700012000000015
 20
5.148044040996808
 30
0.0
 40
0.7
100
AcDbArc
 50
90.00000299999769
 51
179.9999910000004
  0
ARC
  5
308DD
330
307BF
100
AcDbEntity
  8
Hawa6
100
AcDbCircle
 10
2.000014999999848
 20
-5.151988959003233
 30
0.0
 40
1.0
100
AcDbArc
 50
270.0000009999949
 51
0.0
  0
ARC
  5
308DE
330
307BF
100
AcDbEntity
  8
Hawa6
100
AcDbCircle
 10
1.0
 20
-5.151988959003233
 30
0.0
 40
1.0
100
AcDbArc
 50
179.9999910000004
 51
270.0000009999949
  0
ARC
  5
308DF
330
307BF
100
AcDbEntity
  8
Hawa6
100
AcDbCircle
 10
22.19998199999986
 20
14.64803604099677
 30
0.0
 40
1.0
100
AcDbArc
 50
90.00000299999769
 51
180.0000190000006
  0
ARC
  5
308E0
330
307BF
100
AcDbEntity
  8
Hawa6
100
AcDbCircle
 10
22.39999399999988
 20
16.64805204099678
 30
0.0
 40
1.0
100
AcDbArc
 50
270.0000009999949
 51
0.0000070000000531
  0
ARC
  5
308E1
330
307BF
100
AcDbEntity
  8
Hawa6
100
AcDbCircle
 10
22.39999399999988
 20
11.7480350409968
 30
0.0
 40
1.0
100
AcDbArc
 50
359.999982999999
 51
90.00000299999769
  0
ARC
  5
308E2
330
307BF
100
AcDbEntity
  8
Hawa6
100
AcDbCircle
 10
22.19998199999986
 20
13.74804304099678
 30
0.0
 40
1.0
100
AcDbArc
 50
180.0000050000005
 51
270.0000009999949
  0
ARC
  5
308E3
330
307BF
100
AcDbEntity
  8
Hawa6
100
AcDbCircle
 10
22.20001200000002
 20
7.848056040996766
 30
0.0
 40
1.0
100
AcDbArc
 50
90.00000299999769
 51
180.0000190000006
  0
ARC
  5
308E4
330
307BF
100
AcDbEntity
  8
Hawa6
100
AcDbCircle
 10
22.40000899999996
 20
9.848026040996785
 30
0.0
 40
1.0
100
AcDbArc
 50
270.0000009999949
 51
0.0000070000000531
  0
ARC
  5
308E5
330
307BF
100
AcDbEntity
  8
Hawa6
100
AcDbCircle
 10
20.19999699999994
 20
6.848033040996767
 30
0.0
 40
1.0
100
AcDbArc
 50
270.0000009999949
 51
0.0000070000000531
  0
ARC
  5
308E6
330
307BF
100
AcDbEntity
  8
Hawa6
100
AcDbCircle
 10
18.39999399999988
 20
26.5480610409968
 30
0.0
 40
0.3
100
AcDbArc
 50
0.0000070000000531
 51
90.00000299999769
  0
ARC
  5
308E7
330
307BF
100
AcDbEntity
  8
Hawa6
100
AcDbCircle
 10
19.70001200000001
 20
6.848033040996767
 30
0.0
 40
1.0
100
AcDbArc
 50
180.0000050000005
 51
270.0000009999949
  0
ARC
  5
308E8
330
307BF
100
AcDbEntity
  8
Hawa6
100
AcDbCircle
 10
1.200012000000015
 20
19.54804604099684
 30
0.0
 40
1.0
100
AcDbArc
 50
0.0
 51
90.00000299999769
  0
ARC
  5
308E9
330
307BF
100
AcDbEntity
  8
Hawa6
100
AcDbCircle
 10
1.0
 20
21.5480610409968
 30
0.0
 40
1.0
100
AcDbArc
 50
179.9999910000004
 51
270.0000009999949
  0
ARC
  5
308EA
330
307BF
100
AcDbEntity
  8
Hawa6
100
AcDbCircle
 10
1.0
 20
16.64803604099677
 30
0.0
 40
1.0
100
AcDbArc
 50
90.00000299999769
 51
180.0000190000006
  0
ARC
  5
308EB
330
307BF
100
AcDbEntity
  8
Hawa6
100
AcDbCircle
 10
1.200012000000015
 20
18.64803604099677
 30
0.0
 40
1.0
100
AcDbArc
 50
270.0000009999949
 51
0.0
  0
ARC
  5
308EC
330
307BF
100
AcDbEntity
  8
Hawa6
100
AcDbCircle
 10
5.0
 20
26.5480610409968
 30
0.0
 40
0.3
100
AcDbArc
 50
90.00000299999769
 51
179.9999910000004
  0
ARC
  5
308ED
330
307BF
100
AcDbEntity
  8
Hawa6
100
AcDbCircle
 10
3.700012000000015
 20
6.848033040996767
 30
0.0
 40
1.0
100
AcDbArc
 50
270.0000009999949
 51
0.0
  0
ARC
  5
308EE
330
307BF
100
AcDbEntity
  8
Hawa6
100
AcDbCircle
 10
49.89984099999992
 20
34.45301404099678
 30
0.0
 40
1.5
100
AcDbArc
 50
271.2194079999935
 51
0.0
  0
ARC
  5
308EF
330
307BF
100
AcDbEntity
  8
Hawa6
100
AcDbCircle
 10
37.39984099999992
 20
52.94800904099679
 30
0.0
 40
6.0
100
AcDbArc
 50
180.0000190000006
 51
270.0000280000002
  0
ARC
  5
308F0
330
307BF
100
AcDbEntity
  8
Hawa6
100
AcDbCircle
 10
37.39982599999985
 20
104.9480090409968
 30
0.0
 40
6.0
100
AcDbArc
 50
90.00003000000303
 51
180.0000190000006
  0
ARC
  5
308F1
330
307BF
100
AcDbEntity
  8
Hawa6
100
AcDbCircle
 10
51.89984099999993
 20
40.44802404099676
 30
0.0
 40
0.5
100
AcDbArc
 50
90.00000299999769
 51
179.9999910000004
  0
ARC
  5
308F2
330
307BF
100
AcDbEntity
  8
Hawa6
100
AcDbCircle
 10
66.89982599999985
 20
40.44800904099679
 30
0.0
 40
0.5
100
AcDbArc
 50
0.0000099999977495
 51
90.00000299999769
  0
ARC
  5
308F3
330
307BF
100
AcDbEntity
  8
Hawa6
100
AcDbCircle
 10
50.56149299999993
 20
3.952983040996798
 30
0.0
 40
1.5
100
AcDbArc
 50
85.36192199999995
 51
159.999968000002
  0
ARC
  5
308F4
330
307BF
100
AcDbEntity
  8
Hawa6
100
AcDbCircle
 10
7.881775000000061
 20
-17.7469909590032
 30
0.0
 40
0.400001
100
AcDbArc
 50
179.9999910000004
 51
269.9999729999947
  0
ARC
  5
308F5
330
307BF
100
AcDbEntity
  8
Hawa6
100
AcDbCircle
 10
15.58175600000004
 20
-17.7469909590032
 30
0.0
 40
0.400001
100
AcDbArc
 50
269.9999729999947
 51
0.0000039999990998
  0
ARC
  5
308F6
330
307BF
100
AcDbEntity
  8
Hawa6
100
AcDbCircle
 10
32.43176300000005
 20
27.95299904099682
 30
0.0
 40
5.0
100
AcDbArc
 50
89.99999599999439
 51
179.9999910000004
  0
ARC
  5
308F7
330
307BF
100
AcDbEntity
  8
Hawa6
100
AcDbCircle
 10
35.17422499999998
 20
-10.54700095900324
 30
0.0
 40
8.0
100
AcDbArc
 50
270.0000009999949
 51
340.077904999997
  0
ARC
  5
308F8
330
307BF
100
AcDbEntity
  8
Hawa6
100
AcDbCircle
 10
19.43176300000004
 20
7.253002040996761
 30
0.0
 40
8.0
100
AcDbArc
 50
270.0000009999949
 51
359.999982999999
  0
ARC
  5
308F9
330
307BF
100
AcDbEntity
  8
Hawa6
100
AcDbCircle
 10
12.23170499999992
 20
10.75299404099678
 30
0.0
 40
4.0
100
AcDbArc
 50
351.3730440000009
 51
8.626894000001581
  0
ARC
  5
308FA
330
307BF
100
AcDbEntity
  8
Hawa6
100
AcDbCircle
 10
-21.3682940000001
 20
14.10305404099676
 30
0.0
 40
40.0
100
AcDbArc
 50
356.7344970000018
 51
3.265387000001281
  0
ARC
  5
308FB
330
307BF
100
AcDbEntity
  8
Hawa6
100
AcDbCircle
 10
18.06756599999994
 20
11.85298504099677
 30
0.0
 40
0.5
100
AcDbArc
 50
269.9999729999947
 51
356.734469
  0
ARC
  5
308FC
330
307BF
100
AcDbEntity
  8
Hawa6
100
AcDbCircle
 10
18.06758100000002
 20
16.35299304099681
 30
0.0
 40
0.5
100
AcDbArc
 50
3.265399999998446
 51
89.9999820000008
  0
ARC
  5
308FD
330
307BF
100
AcDbEntity
  8
Hawa6
100
AcDbCircle
 10
5.395843000000013
 20
16.35300804099677
 30
0.0
 40
0.5
100
AcDbArc
 50
89.9999820000008
 51
176.7344919999986
  0
ARC
  5
308FE
330
307BF
100
AcDbEntity
  8
Hawa6
100
AcDbCircle
 10
44.83171100000004
 20
14.10293104099679
 30
0.0
 40
40.0
100
AcDbArc
 50
176.7345050000012
 51
183.2654090000006
  0
ARC
  5
308FF
330
307BF
100
AcDbEntity
  8
Hawa6
100
AcDbCircle
 10
5.395827999999937
 20
11.85300804099677
 30
0.0
 40
0.5
100
AcDbArc
 50
183.265367999998
 51
269.9999729999947
  0
ARC
  5
30900
330
307BF
100
AcDbEntity
  8
Hawa6
100
AcDbCircle
 10
11.23170499999992
 20
10.75299404099678
 30
0.0
 40
4.0
100
AcDbArc
 50
171.3730389999979
 51
188.6268889999986
  0
ARC
  5
30901
330
307BF
100
AcDbEntity
  8
Hawa6
  6
DASHED
100
AcDbCircle
 10
65.39970399999993
 20
28.44807004099676
 30
0.0
 40
1.0
100
AcDbArc
 50
179.9999779999984
 51
269.9999729999947
  0
ARC
  5
30902
330
307BF
100
AcDbEntity
  8
Hawa6
  6
DASHED
100
AcDbCircle
 10
57.39970399999993
 20
28.44808504099678
 30
0.0
 40
1.0
100
AcDbArc
 50
269.9999729999947
 51
359.999982999999
  0
ARC
  5
30903
330
307BF
100
AcDbEntity
  8
Hawa6
  6
DASHED
100
AcDbCircle
 10
57.39984099999992
 20
47.44800904099679
 30
0.0
 40
1.0
100
AcDbArc
 50
359.999982999999
 51
89.99997499999748
  0
ARC
  5
30904
330
307BF
100
AcDbEntity
  8
Hawa6
  6
DASHED
100
AcDbCircle
 10
65.39984099999992
 20
47.44800904099679
 30
0.0
 40
1.0
100
AcDbArc
 50
89.99997499999748
 51
179.9999779999984
  0
CIRCLE
  5
30905
330
307BF
100
AcDbEntity
  8
Hawa6
100
AcDbCircle
 10
38.89982599999985
 20
66.94800904099679
 30
0.0
 40
5.0
  0
CIRCLE
  5
30906
330
307BF
100
AcDbEntity
  8
Hawa6
100
AcDbCircle
 10
47.399811
 20
54.9480090409968
 30
0.0
 40
5.0
  0
ARC
  5
30907
330
307BF
100
AcDbEntity
  8
Hawa6
100
AcDbCircle
 10
38.89982599999985
 20
102.9480090409968
 30
0.0
 40
3.049618
100
AcDbArc
 50
30.51991499999573
 51
59.47975999999638
  0
ARC
  5
30908
330
307BF
100
AcDbEntity
  8
Hawa6
100
AcDbCircle
 10
38.89982599999985
 20
102.9480090409968
 30
0.0
 40
3.049618
100
AcDbArc
 50
300.5198810000032
 51
329.4797200000044
  0
ARC
  5
30909
330
307BF
100
AcDbEntity
  8
Hawa6
100
AcDbCircle
 10
38.89982599999985
 20
102.9480090409968
 30
0.0
 40
3.049618
100
AcDbArc
 50
210.5199810000029
 51
239.4798739999935
  0
ARC
  5
3090A
330
307BF
100
AcDbEntity
  8
Hawa6
100
AcDbCircle
 10
38.89982599999985
 20
66.94800904099679
 30
0.0
 40
3.049618
100
AcDbArc
 50
300.5198810000032
 51
329.4797200000044
  0
ARC
  5
3090B
330
307BF
100
AcDbEntity
  8
Hawa6
100
AcDbCircle
 10
47.399811
 20
90.94802404099675
 30
0.0
 40
3.049618
100
AcDbArc
 50
30.51991499999573
 51
59.47975999999638
  0
ARC
  5
3090C
330
307BF
100
AcDbEntity
  8
Hawa6
100
AcDbCircle
 10
47.399811
 20
90.94802404099675
 30
0.0
 40
3.049618
100
AcDbArc
 50
120.5199169999963
 51
149.4798369999993
  0
ARC
  5
3090D
330
307BF
100
AcDbEntity
  8
Hawa6
100
AcDbCircle
 10
38.89982599999985
 20
66.94800904099679
 30
0.0
 40
3.049618
100
AcDbArc
 50
210.5199810000029
 51
239.4798739999935
  0
CIRCLE
  5
3090E
330
307BF
100
AcDbEntity
  8
Hawa6
100
AcDbCircle
 10
38.89982599999985
 20
102.9480090409968
 30
0.0
 40
5.0
  0
ARC
  5
3090F
330
307BF
100
AcDbEntity
  8
Hawa6
100
AcDbCircle
 10
47.399811
 20
54.9480090409968
 30
0.0
 40
3.049618
100
AcDbArc
 50
120.5199169999963
 51
149.4798369999993
  0
ARC
  5
30910
330
307BF
100
AcDbEntity
  8
Hawa6
100
AcDbCircle
 10
47.399811
 20
54.9480090409968
 30
0.0
 40
3.049618
100
AcDbArc
 50
300.5198810000032
 51
329.4797200000044
  0
ARC
  5
30911
330
307BF
100
AcDbEntity
  8
Hawa6
100
AcDbCircle
 10
47.399811
 20
54.9480090409968
 30
0.0
 40
3.049618
100
AcDbArc
 50
30.51991499999573
 51
59.47975999999638
  0
ARC
  5
30912
330
307BF
100
AcDbEntity
  8
Hawa6
100
AcDbCircle
 10
47.399811
 20
54.9480090409968
 30
0.0
 40
3.049618
100
AcDbArc
 50
210.5199810000029
 51
239.4798739999935
  0
ARC
  5
30913
330
307BF
100
AcDbEntity
  8
Hawa6
100
AcDbCircle
 10
38.89982599999985
 20
66.94800904099679
 30
0.0
 40
3.049618
100
AcDbArc
 50
120.5199169999963
 51
149.4798369999993
  0
CIRCLE
  5
30914
330
307BF
100
AcDbEntity
  8
Hawa6
100
AcDbCircle
 10
47.399811
 20
90.94802404099675
 30
0.0
 40
5.0
  0
ARC
  5
30915
330
307BF
100
AcDbEntity
  8
Hawa6
100
AcDbCircle
 10
38.89982599999985
 20
66.94800904099679
 30
0.0
 40
3.049618
100
AcDbArc
 50
30.51991499999573
 51
59.47975999999638
  0
ARC
  5
30916
330
307BF
100
AcDbEntity
  8
Hawa6
100
AcDbCircle
 10
47.399811
 20
90.94802404099675
 30
0.0
 40
3.049618
100
AcDbArc
 50
300.5198810000032
 51
329.4797200000044
  0
ARC
  5
30917
330
307BF
100
AcDbEntity
  8
Hawa6
100
AcDbCircle
 10
38.89982599999985
 20
102.9480090409968
 30
0.0
 40
3.049618
100
AcDbArc
 50
120.5199169999963
 51
149.4798369999993
  0
ARC
  5
30918
330
307BF
100
AcDbEntity
  8
Hawa6
100
AcDbCircle
 10
47.399811
 20
90.94802404099675
 30
0.0
 40
3.049618
100
AcDbArc
 50
210.5199810000029
 51
239.4798739999935
  0
ARC
  5
30919
330
307BF
100
AcDbEntity
  8
Hawa6
100
AcDbCircle
 10
22.93652299999985
 20
-14.54700095900318
 30
0.0
 40
1.0
100
AcDbArc
 50
270.0000009999949
 51
359.999982999999
  0
ARC
  5
3091A
330
307BF
100
AcDbEntity
  8
Hawa6
  6
DASHED
100
AcDbCircle
 10
0.5353999999999815
 20
2.398883040996793
 30
0.0
 40
0.4
100
AcDbArc
 50
269.9795649999984
 51
314.9608410000049
  0
ARC
  5
3091B
330
307BF
100
AcDbEntity
  8
Hawa6
  6
DASHED
100
AcDbCircle
 10
0.5332949999999528
 20
-2.401157959003171
 30
0.0
 40
0.4
100
AcDbArc
 50
44.95614499999965
 51
89.97958700000459
  0
ENDBLK
  5
307C1
330
307BF
100
AcDbEntity
  8
0
 48
0.2
100
AcDbBlockEnd
  0
ENDSEC
  0
SECTION
  2
ENTITIES
  0
LINE
  5
2C382
102
{ACAD_REACTORS
330
3092A
102
}
330
A
100
AcDbEntity
  8
Hawa4
 48
0.2
100
AcDbLine
 10
1566.2081422101
 20
250.226863277955
 30
0.0
 11
1577.9081227101
 21
250.226863277955
 31
0.0
  0
LINE
  5
2C383
102
{ACAD_REACTORS
330
3092A
102
}
330
A
100
AcDbEntity
  8
Hawa4
 48
0.2
100
AcDbLine
 10
1577.9081227101
 20
250.226863277955
 30
0.0
 11
1577.9081227101
 21
241.9268742779551
 31
0.0
  0
LINE
  5
2C386
102
{ACAD_REACTORS
330
3092A
102
}
330
A
100
AcDbEntity
  8
Hawa4
 48
0.2
100
AcDbLine
 10
1575.7081567101
 20
239.9268732779551
 30
0.0
 11
1575.7081567101
 21
239.0268492779551
 31
0.0
  0
LINE
  5
2C388
102
{ACAD_REACTORS
330
3092A
102
}
330
A
100
AcDbEntity
  8
Hawa4
 48
0.2
100
AcDbLine
 10
1576.7081257101
 20
238.026850277955
 30
0.0
 11
1576.908108779913
 21
238.0268172779551
 31
0.0
  0
LINE
  5
2C389
102
{ACAD_REACTORS
330
3092A
102
}
330
A
100
AcDbEntity
  8
Hawa4
 48
0.2
100
AcDbLine
 10
1577.9081077101
 20
237.0268182779551
 30
0.0
 11
1577.9081227101
 21
230.226862277955
 31
0.0
  0
LINE
  5
2C38B
102
{ACAD_REACTORS
330
3092A
102
}
330
A
100
AcDbEntity
  8
Hawa4
 48
0.2
100
AcDbLine
 10
1576.908123727553
 20
229.226863277955
 30
0.0
 11
1576.7081257101
 21
229.226800277955
 31
0.0
  0
LINE
  5
2C38D
102
{ACAD_REACTORS
330
3092A
102
}
330
A
100
AcDbEntity
  8
Hawa4
 48
0.2
100
AcDbLine
 10
1575.7081567101
 20
228.226861277955
 30
0.0
 11
1575.7080967101
 21
227.226832277955
 31
0.0
  0
LINE
  5
2C38F
102
{ACAD_REACTORS
330
3092A
102
}
330
A
100
AcDbEntity
  8
Hawa4
 48
0.2
100
AcDbLine
 10
1574.708097727553
 20
226.226833277955
 30
0.0
 11
1574.208111727553
 21
226.226833277955
 31
0.0
  0
LINE
  5
2C391
102
{ACAD_REACTORS
330
3092A
102
}
330
A
100
AcDbEntity
  8
Hawa4
 48
0.2
100
AcDbLine
 10
1573.2081127101
 20
227.226832277955
 30
0.0
 11
1573.2081127101
 21
232.226863277955
 31
0.0
  0
LINE
  5
2C392
102
{ACAD_REACTORS
330
3092A
102
}
330
A
100
AcDbEntity
  8
Hawa4
 48
0.2
100
AcDbLine
 10
1573.2081127101
 20
232.226863277955
 30
0.0
 11
1575.4081237101
 21
232.226863277955
 31
0.0
  0
LINE
  5
2C393
102
{ACAD_REACTORS
330
3092A
102
}
330
A
100
AcDbEntity
  8
Hawa4
 48
0.2
100
AcDbLine
 10
1575.4081237101
 20
232.226863277955
 30
0.0
 11
1575.4081237101
 21
235.026880277955
 31
0.0
  0
LINE
  5
2C394
102
{ACAD_REACTORS
330
3092A
102
}
330
A
100
AcDbEntity
  8
Hawa4
 48
0.2
100
AcDbLine
 10
1575.4081237101
 20
235.026880277955
 30
0.0
 11
1573.2081127101
 21
235.026880277955
 31
0.0
  0
LINE
  5
2C395
102
{ACAD_REACTORS
330
3092A
102
}
330
A
100
AcDbEntity
  8
Hawa4
 48
0.2
100
AcDbLine
 10
1573.2081127101
 20
235.026880277955
 30
0.0
 11
1573.2081127101
 21
243.9268422779551
 31
0.0
  0
LINE
  5
2C396
102
{ACAD_REACTORS
330
3092A
102
}
330
A
100
AcDbEntity
  8
Hawa4
 48
0.2
100
AcDbLine
 10
1573.2081127101
 20
243.9268422779551
 30
0.0
 11
1575.4081237101
 21
243.9268422779551
 31
0.0
  0
LINE
  5
2C397
102
{ACAD_REACTORS
330
3092A
102
}
330
A
100
AcDbEntity
  8
Hawa4
 48
0.2
100
AcDbLine
 10
1575.4081237101
 20
243.9268422779551
 30
0.0
 11
1575.4081237101
 21
246.726832277955
 31
0.0
  0
LINE
  5
2C398
102
{ACAD_REACTORS
330
3092A
102
}
330
A
100
AcDbEntity
  8
Hawa4
 48
0.2
100
AcDbLine
 10
1575.4081237101
 20
246.726832277955
 30
0.0
 11
1573.2081127101
 21
246.726832277955
 31
0.0
  0
LINE
  5
2C399
102
{ACAD_REACTORS
330
3092A
102
}
330
A
100
AcDbEntity
  8
Hawa4
 48
0.2
100
AcDbLine
 10
1573.2081127101
 20
246.726832277955
 30
0.0
 11
1573.2081127101
 21
246.926842277955
 31
0.0
  0
LINE
  5
2C39B
102
{ACAD_REACTORS
330
3092A
102
}
330
A
100
AcDbEntity
  8
Hawa4
 48
0.2
100
AcDbLine
 10
1572.9081247101
 20
247.226830277955
 30
0.0
 11
1566.208119720572
 21
247.226836277955
 31
0.0
  0
ARC
  5
2C3A0
102
{ACAD_REACTORS
330
3092A
102
}
330
A
100
AcDbEntity
  8
Hawa4
 48
0.2
100
AcDbCircle
 10
1572.908153677287
 20
246.9268712451418
 30
0.0
 40
0.2999590342119217
100
AcDbArc
 50
359.9944669192787
 51
90.00553308068875
  0
ARC
  5
2C3A1
102
{ACAD_REACTORS
330
3092A
102
}
330
A
100
AcDbEntity
  8
Hawa4
 48
0.2
100
AcDbCircle
 10
1576.9081087101
 20
241.926874277955
 30
0.0
 40
0.9999990000000645
100
AcDbArc
 50
270.0000010000089
 51
359.9991405688872
  0
ARC
  5
2C3A2
102
{ACAD_REACTORS
330
3092A
102
}
330
A
100
AcDbEntity
  8
Hawa4
 48
0.2
100
AcDbCircle
 10
1576.705208098105
 20
239.9297938811924
 30
0.0
 40
0.9970856654420128
100
AcDbArc
 50
89.83234430310655
 51
180.1678275841467
  0
LINE
  5
2C3A3
102
{ACAD_REACTORS
330
3092A
102
}
330
A
100
AcDbEntity
  8
Hawa4
 48
0.2
100
AcDbLine
 10
1576.7081257101
 20
240.9268752779551
 30
0.0
 11
1576.908108727553
 21
240.9268752779551
 31
0.0
  0
ARC
  5
2C3A4
102
{ACAD_REACTORS
330
3092A
102
}
330
A
100
AcDbEntity
  8
Hawa4
 48
0.2
100
AcDbCircle
 10
1576.708104497666
 20
239.026798066608
 30
0.0
 40
0.9999477888778674
100
AcDbArc
 50
179.9970656527469
 51
270.0012154463447
  0
ARC
  5
2C3A5
102
{ACAD_REACTORS
330
3092A
102
}
330
A
100
AcDbEntity
  8
Hawa4
 48
0.2
100
AcDbCircle
 10
1576.9080981033
 20
237.0267926708848
 30
0.0
 40
1.000024607127224
100
AcDbArc
 50
0.0014671409477707
 51
89.99938829021477
  0
ARC
  5
2C3A6
102
{ACAD_REACTORS
330
3092A
102
}
330
A
100
AcDbEntity
  8
Hawa4
 48
0.2
100
AcDbCircle
 10
1576.908016156766
 20
230.2269068279986
 30
0.0
 40
1.000106554326168
100
AcDbArc
 50
270.0053023504478
 51
359.997447742469
  0
ARC
  5
2C3A7
102
{ACAD_REACTORS
330
3092A
102
}
330
A
100
AcDbEntity
  8
Hawa4
 48
0.2
100
AcDbCircle
 10
1576.708002086093
 20
228.2269549052214
 30
0.0
 40
0.9998453803763172
100
AcDbArc
 50
89.99291577078883
 51
180.0053651682091
  0
ARC
  5
2C3A8
102
{ACAD_REACTORS
330
3092A
102
}
330
A
100
AcDbEntity
  8
Hawa4
 48
0.2
100
AcDbCircle
 10
1574.7080977101
 20
227.2268322779543
 30
0.0
 40
0.999998999999434
100
AcDbArc
 50
270.0000009999829
 51
0.0000000000390887
  0
ARC
  5
2C3A9
102
{ACAD_REACTORS
330
3092A
102
}
330
A
100
AcDbEntity
  8
Hawa4
 48
0.2
100
AcDbCircle
 10
1574.20811683142
 20
227.2268343992757
 30
0.0
 40
1.000004121322827
100
AcDbArc
 50
180.0001265421959
 51
269.9998794577895
  0
ARC
  5
2C3AC
102
{ACAD_REACTORS
330
3092A
102
}
330
A
100
AcDbEntity
  8
Hawa4
 48
0.2
100
AcDbCircle
 10
1556.504835711995
 20
215.2270312779549
 30
0.0
 40
1.000000000000454
100
AcDbArc
 50
273.2582339150501
 51
0.0000000000032569
  0
ARC
  5
2C3AD
102
{ACAD_REACTORS
330
3092A
102
}
330
A
100
AcDbEntity
  8
Hawa4
 48
0.2
100
AcDbCircle
 10
1555.50510646087
 20
215.2271561385245
 30
0.0
 40
1.000276951681129
100
AcDbArc
 50
183.0234738061982
 51
269.972605411079
  0
ARC
  5
2C3AE
102
{ACAD_REACTORS
330
3092A
102
}
330
A
100
AcDbEntity
  8
Hawa4
 48
0.2
100
AcDbCircle
 10
1555.507988410978
 20
237.0269530955628
 30
0.0
 40
1.000024607127224
100
AcDbArc
 50
89.99975268082611
 51
179.9976738300931
  0
ARC
  5
2C3AF
102
{ACAD_REACTORS
330
3092A
102
}
330
A
100
AcDbEntity
  8
Hawa4
 48
0.2
100
AcDbCircle
 10
1555.708012002438
 20
239.0269554925803
 30
0.0
 40
0.9999477888778674
100
AcDbArc
 50
269.9979255246962
 51
0.0020753182939956
  0
LINE
  5
2C3B0
102
{ACAD_REACTORS
330
3092A
102
}
330
A
100
AcDbEntity
  8
Hawa4
 48
0.2
100
AcDbLine
 10
1555.708019277641
 20
240.9270327040318
 30
0.0
 11
1555.50803626021
 21
240.927035702354
 31
0.0
  0
ARC
  5
2C3B1
102
{ACAD_REACTORS
330
3092A
102
}
330
A
100
AcDbEntity
  8
Hawa4
 48
0.2
100
AcDbCircle
 10
1555.710921940511
 20
239.9299512636378
 30
0.0
 40
0.9970856654420128
100
AcDbArc
 50
359.8313133868941
 51
90.16679666793432
  0
ARC
  5
2C3B2
102
{ACAD_REACTORS
330
3092A
102
}
330
A
100
AcDbEntity
  8
Hawa4
 48
0.2
100
AcDbCircle
 10
1555.508051270533
 20
241.9270347022413
 30
0.0
 40
0.9999990000000645
100
AcDbArc
 50
180.0000004021536
 51
269.999139971032
  0
ARC
  5
2C3B3
102
{ACAD_REACTORS
330
3092A
102
}
330
A
100
AcDbEntity
  8
Hawa4
 48
0.2
100
AcDbCircle
 10
1559.508081267269
 20
246.9269716980055
 30
0.0
 40
0.2999590342119217
100
AcDbArc
 50
89.99360789035213
 51
180.0046740517622
  0
LINE
  5
2C3B4
102
{ACAD_REACTORS
330
3092A
102
}
330
A
100
AcDbEntity
  8
Hawa4
 48
0.2
100
AcDbLine
 10
1559.508114731707
 20
247.2269307303507
 30
0.0
 11
1566.208119720572
 21
247.226836277955
 31
0.0
  0
LINE
  5
2C3B5
102
{ACAD_REACTORS
330
3092A
102
}
330
A
100
AcDbEntity
  8
Hawa4
 48
0.2
100
AcDbLine
 10
1559.208119235329
 20
246.726937228092
 30
0.0
 11
1559.208122234055
 21
246.9269472280696
 31
0.0
  0
LINE
  5
2C3B6
102
{ACAD_REACTORS
330
3092A
102
}
330
A
100
AcDbEntity
  8
Hawa4
 48
0.2
100
AcDbLine
 10
1557.008108235576
 20
246.7269702126011
 30
0.0
 11
1559.208119235329
 21
246.726937228092
 31
0.0
  0
LINE
  5
2C3B7
102
{ACAD_REACTORS
330
3092A
102
}
330
A
100
AcDbEntity
  8
Hawa4
 48
0.2
100
AcDbLine
 10
1557.008066255651
 20
243.9269802129159
 30
0.0
 11
1557.008108235576
 21
246.7269702126011
 31
0.0
  0
LINE
  5
2C3B8
102
{ACAD_REACTORS
330
3092A
102
}
330
A
100
AcDbEntity
  8
Hawa4
 48
0.2
100
AcDbLine
 10
1559.208077255405
 20
243.9269472284068
 30
0.0
 11
1557.008066255651
 21
243.9269802129159
 31
0.0
  0
LINE
  5
2C3B9
102
{ACAD_REACTORS
330
3092A
102
}
330
A
100
AcDbEntity
  8
Hawa4
 48
0.2
100
AcDbLine
 10
1559.207943819309
 20
235.0269852294071
 30
0.0
 11
1559.208077255405
 21
243.9269472284068
 31
0.0
  0
LINE
  5
2C3BA
102
{ACAD_REACTORS
330
3092A
102
}
330
A
100
AcDbEntity
  8
Hawa4
 48
0.2
100
AcDbLine
 10
1557.007932819556
 20
235.0270182139162
 30
0.0
 11
1559.207943819309
 21
235.0269852294071
 31
0.0
  0
LINE
  5
2C3BB
102
{ACAD_REACTORS
330
3092A
102
}
330
A
100
AcDbEntity
  8
Hawa4
 48
0.2
100
AcDbLine
 10
1557.007890839227
 20
232.2270012142308
 30
0.0
 11
1557.007932819556
 21
235.0270182139162
 31
0.0
  0
LINE
  5
2C3BC
102
{ACAD_REACTORS
330
3092A
102
}
330
A
100
AcDbEntity
  8
Hawa4
 48
0.2
100
AcDbLine
 10
1559.20790183898
 20
232.2269682297217
 30
0.0
 11
1557.007890839227
 21
232.2270012142308
 31
0.0
  0
LINE
  5
2C3BD
102
{ACAD_REACTORS
330
3092A
102
}
330
A
100
AcDbEntity
  8
Hawa4
 48
0.2
100
AcDbLine
 10
1559.207826874097
 20
227.2269372302837
 30
0.0
 11
1559.20790183898
 21
232.2269682297217
 31
0.0
  0
LINE
  5
2C3BE
102
{ACAD_REACTORS
330
3092A
102
}
330
A
100
AcDbEntity
  8
Hawa4
 48
0.2
100
AcDbLine
 10
1557.709897232227
 20
226.0220632898724
 30
0.0
 11
1558.911962499353
 21
226.519802502939
 31
0.0
  0
LINE
  5
2C3BF
102
{ACAD_REACTORS
330
3092A
102
}
330
A
100
AcDbEntity
  8
Hawa4
 48
0.2
100
AcDbLine
 10
1557.504835711995
 20
215.2270312779549
 30
0.0
 11
1557.504855711995
 21
225.5269273879107
 31
0.0
  0
LINE
  5
2C3C0
102
{ACAD_REACTORS
330
3092A
102
}
330
A
100
AcDbEntity
  8
Hawa4
 48
0.2
100
AcDbLine
 10
1555.504628202696
 20
214.2268793011771
 30
0.0
 11
1556.561671976769
 21
214.2286477649668
 31
0.0
  0
LINE
  5
2C3C1
102
{ACAD_REACTORS
330
3092A
102
}
330
A
100
AcDbEntity
  8
Hawa4
 48
0.2
100
AcDbLine
 10
1554.507978804675
 20
237.0269936956608
 30
0.0
 11
1554.506221885548
 21
215.1743964451121
 31
0.0
  0
LINE
  5
2C3C2
102
{ACAD_REACTORS
330
3092A
102
}
330
A
100
AcDbEntity
  8
Hawa4
 48
0.2
100
AcDbLine
 10
1555.707975797904
 20
238.0270077043578
 30
0.0
 11
1555.507992727618
 21
238.0269777026807
 31
0.0
  0
LINE
  5
2C3C3
102
{ACAD_REACTORS
330
3092A
102
}
330
A
100
AcDbEntity
  8
Hawa4
 48
0.2
100
AcDbLine
 10
1556.707973284615
 20
239.9270157117254
 30
0.0
 11
1556.70795979066
 21
239.0269917118265
 31
0.0
  0
LINE
  5
2C3C4
102
{ACAD_REACTORS
330
3092A
102
}
330
A
100
AcDbEntity
  8
Hawa4
 48
0.2
100
AcDbLine
 10
1554.508161711415
 20
250.227038694402
 30
0.0
 11
1554.508037270645
 21
241.927049695335
 31
0.0
  0
LINE
  5
2C3C5
102
{ACAD_REACTORS
330
3092A
102
}
330
A
100
AcDbEntity
  8
Hawa4
 48
0.2
100
AcDbLine
 10
1566.2081422101
 20
250.226863277955
 30
0.0
 11
1554.508161711415
 21
250.227038694402
 31
0.0
  0
HATCH
  5
2C3C7
102
{ACAD_REACTORS
330
3092A
102
}
330
A
100
AcDbEntity
  8
Hawa2
 48
0.2
100
AcDbHatch
 10
0.0
 20
0.0
 30
0.0
210
0.0
220
0.0
230
1.0
  2
ANSI31
 70
     0
 71
     0
 91
        1
 92
       33
 93
       56
 72
     1
 10
1566.2081422101
 20
250.226863277955
 11
1554.508161711415
 21
250.227038694402
 72
     1
 10
1554.508161711415
 20
250.227038694402
 11
1554.508037270645
 21
241.927049695335
 72
     1
 10
1556.707973284615
 20
239.9270157117254
 11
1556.70795979066
 21
239.0269917118265
 72
     1
 10
1555.707975797904
 20
238.0270077043578
 11
1555.507992727618
 21
238.0269777026807
 72
     1
 10
1554.507978804675
 20
237.0269936956608
 11
1554.506221885548
 21
215.1743964451121
 72
     1
 10
1555.504628202696
 20
214.2268793011771
 11
1556.561671976769
 21
214.2286477649668
 72
     1
 10
1557.504835711995
 20
215.2270312779549
 11
1557.504855711995
 21
225.5269273879107
 72
     1
 10
1557.709897232227
 20
226.0220632898724
 11
1558.207812863887
 21
226.2269532232651
 72
     1
 10
1559.207826874097
 20
227.2269372302837
 11
1559.20790183898
 21
232.2269682297217
 72
     1
 10
1559.20790183898
 20
232.2269682297217
 11
1557.007890839227
 21
232.2270012142308
 72
     1
 10
1557.007890839227
 20
232.2270012142308
 11
1557.007932819556
 21
235.0270182139162
 72
     1
 10
1557.007932819556
 20
235.0270182139162
 11
1559.207943819309
 21
235.0269852294071
 72
     1
 10
1559.207943819309
 20
235.0269852294071
 11
1559.208077255405
 21
243.9269472284068
 72
     1
 10
1559.208077255405
 20
243.9269472284068
 11
1557.008066255651
 21
243.9269802129159
 72
     1
 10
1557.008066255651
 20
243.9269802129159
 11
1557.008108235576
 21
246.7269702126011
 72
     1
 10
1557.008108235576
 20
246.7269702126011
 11
1559.208119235329
 21
246.726937228092
 72
     1
 10
1559.208119235329
 20
246.726937228092
 11
1559.208122234055
 21
246.9269472280696
 72
     1
 10
1559.508114731707
 20
247.2269307303507
 11
1566.208119720572
 21
247.226836277955
 72
     2
 10
1559.508081267269
 20
246.9269716980055
 40
0.2999590342119217
 50
89.99360789035213
 51
180.0046740517622
 73
     1
 72
     2
 10
1555.508051270533
 20
241.9270347022413
 40
0.9999990000000645
 50
180.0000004021536
 51
269.999139971032
 73
     1
 72
     2
 10
1555.710921940511
 20
239.9299512636378
 40
0.9970856654420128
 50
359.8313133868941
 51
450.1667966679343
 73
     1
 72
     1
 10
1555.708019277641
 20
240.9270327040318
 11
1555.50803626021
 21
240.927035702354
 72
     2
 10
1555.708012002438
 20
239.0269554925803
 40
0.9999477888778674
 50
269.9979255246962
 51
360.002075318294
 73
     1
 72
     2
 10
1555.507988410978
 20
237.0269530955628
 40
1.000024607127224
 50
89.99975268082611
 51
179.9976738300931
 73
     1
 72
     2
 10
1555.50510646087
 20
215.2271561385245
 40
1.000276951681129
 50
183.0234738061982
 51
269.972605411079
 73
     1
 72
     2
 10
1556.504835711995
 20
215.2270312779549
 40
1.000000000000454
 50
273.2582339150501
 51
360.0000000000032
 73
     1
 72
     2
 10
1556.784703109111
 20
226.1151739209438
 40
0.9298676008265552
 50
320.756814925356
 51
354.253158443889
 73
     1
 72
     2
 10
1558.20279987697
 20
227.2319773712048
 40
1.00503963502623
 50
270.2856129071991
 51
359.7126680348836
 73
     1
 72
     2
 10
1574.20811683142
 20
227.2268343992757
 40
1.000004121322827
 50
180.0001265421959
 51
269.9998794577895
 73
     1
 72
     2
 10
1574.7080977101
 20
227.2268322779543
 40
0.999998999999434
 50
270.0000009999829
 51
360.0000000000391
 73
     1
 72
     2
 10
1576.708002086093
 20
228.2269549052214
 40
0.9998453803763172
 50
89.99291577078883
 51
180.0053651682091
 73
     1
 72
     2
 10
1576.908016156766
 20
230.2269068279986
 40
1.000106554326168
 50
270.0053023504478
 51
359.997447742469
 73
     1
 72
     2
 10
1576.9080981033
 20
237.0267926708848
 40
1.000024607127224
 50
0.0014671409477707
 51
89.99938829021477
 73
     1
 72
     2
 10
1576.708104497666
 20
239.026798066608
 40
0.9999477888778674
 50
179.9970656527469
 51
270.0012154463447
 73
     1
 72
     1
 10
1576.7081257101
 20
240.9268752779551
 11
1576.908108727553
 21
240.9268752779551
 72
     2
 10
1576.705208098105
 20
239.9297938811924
 40
0.9970856654420128
 50
89.83234430310655
 51
180.1678275841467
 73
     1
 72
     2
 10
1576.9081087101
 20
241.926874277955
 40
0.9999990000000645
 50
270.0000010000089
 51
359.9991405688872
 73
     1
 72
     2
 10
1572.908153677287
 20
246.9268712451418
 40
0.2999590342119217
 50
359.9944669192787
 51
450.0055330806887
 73
     1
 72
     1
 10
1572.9081247101
 20
247.226830277955
 11
1566.208119720572
 21
247.226836277955
 72
     1
 10
1573.2081127101
 20
246.726832277955
 11
1573.2081127101
 21
246.926842277955
 72
     1
 10
1575.4081237101
 20
246.726832277955
 11
1573.2081127101
 21
246.726832277955
 72
     1
 10
1575.4081237101
 20
243.9268422779551
 11
1575.4081237101
 21
246.726832277955
 72
     1
 10
1573.2081127101
 20
243.9268422779551
 11
1575.4081237101
 21
243.9268422779551
 72
     1
 10
1573.2081127101
 20
235.026880277955
 11
1573.2081127101
 21
243.9268422779551
 72
     1
 10
1575.4081237101
 20
235.026880277955
 11
1573.2081127101
 21
235.026880277955
 72
     1
 10
1575.4081237101
 20
232.226863277955
 11
1575.4081237101
 21
235.026880277955
 72
     1
 10
1573.2081127101
 20
232.226863277955
 11
1575.4081237101
 21
232.226863277955
 72
     1
 10
1573.2081127101
 20
227.226832277955
 11
1573.2081127101
 21
232.226863277955
 72
     1
 10
1574.708097727553
 20
226.226833277955
 11
1574.208111727553
 21
226.226833277955
 72
     1
 10
1575.7081567101
 20
228.226861277955
 11
1575.7080967101
 21
227.226832277955
 72
     1
 10
1576.908123727553
 20
229.226863277955
 11
1576.7081257101
 21
229.226800277955
 72
     1
 10
1577.9081077101
 20
237.0268182779551
 11
1577.9081227101
 21
230.226862277955
 72
     1
 10
1576.7081257101
 20
238.026850277955
 11
1576.908108779913
 21
238.0268172779551
 72
     1
 10
1575.7081567101
 20
239.9268732779551
 11
1575.7081567101
 21
239.0268492779551
 72
     1
 10
1577.9081227101
 20
250.226863277955
 11
1577.9081227101
 21
241.9268742779551
 72
     1
 10
1566.2081422101
 20
250.226863277955
 11
1577.9081227101
 21
250.226863277955
 97
        0
 75
     0
 76
     1
 52
0.0
 41
0.5
 77
     0
 78
     1
 53
45.0
 43
467.1380169884708
 44
313.2287159932749
 45
-1.122532015133643
 46
1.122532015133644
 79
     0
 98
        1
 10
467.1380169884708
 20
313.2287159932749
  0
LINE
  5
2FFA9
330
A
100
AcDbEntity
  8
Hawa1
 48
0.10571
100
AcDbLine
 10
1552.554076711995
 20
408.3549462779549
 30
0.0
 11
1552.554076711995
 21
404.1265522779549
 31
0.0
  0
LINE
  5
2FFAA
330
A
100
AcDbEntity
  8
Hawa1
 48
0.01016
100
AcDbLine
 10
1552.960478711995
 20
408.3549462779549
 30
0.0
 11
1552.554076711995
 21
408.3549462779549
 31
0.0
  0
LINE
  5
2FFAB
330
A
100
AcDbEntity
  8
Hawa1
 48
0.046
100
AcDbLine
 10
1552.960478711995
 20
406.514949277955
 30
0.0
 11
1552.960478711995
 21
408.3549462779549
 31
0.0
  0
LINE
  5
2FFAC
330
A
100
AcDbEntity
  8
Hawa1
 48
0.06277
100
AcDbLine
 10
1555.471281711995
 20
406.514949277955
 30
0.0
 11
1552.960478711995
 21
406.514949277955
 31
0.0
  0
LINE
  5
2FFAD
330
A
100
AcDbEntity
  8
Hawa1
 48
0.046
100
AcDbLine
 10
1555.471281711995
 20
408.3549462779549
 30
0.0
 11
1555.471281711995
 21
406.514949277955
 31
0.0
  0
LINE
  5
2FFAE
330
A
100
AcDbEntity
  8
Hawa1
 48
0.01016
100
AcDbLine
 10
1555.877676711995
 20
408.3549462779549
 30
0.0
 11
1555.471281711995
 21
408.3549462779549
 31
0.0
  0
LINE
  5
2FFAF
330
A
100
AcDbEntity
  8
Hawa1
 48
0.10571
100
AcDbLine
 10
1555.877676711995
 20
404.1265522779549
 30
0.0
 11
1555.877676711995
 21
408.3549462779549
 31
0.0
  0
LINE
  5
2FFB0
330
A
100
AcDbEntity
  8
Hawa1
 48
0.01016
100
AcDbLine
 10
1555.471281711995
 20
404.1265522779549
 30
0.0
 11
1555.877676711995
 21
404.1265522779549
 31
0.0
  0
LINE
  5
2FFB1
330
A
100
AcDbEntity
  8
Hawa1
 48
0.05107
100
AcDbLine
 10
1555.471281711995
 20
406.169338277955
 30
0.0
 11
1555.471281711995
 21
404.1265522779549
 31
0.0
  0
LINE
  5
2FFB2
330
A
100
AcDbEntity
  8
Hawa1
 48
0.06277
100
AcDbLine
 10
1552.960478711995
 20
406.169338277955
 30
0.0
 11
1555.471281711995
 21
406.169338277955
 31
0.0
  0
LINE
  5
2FFB3
330
A
100
AcDbEntity
  8
Hawa1
 48
0.05107
100
AcDbLine
 10
1552.960478711995
 20
404.1265522779549
 30
0.0
 11
1552.960478711995
 21
406.169338277955
 31
0.0
  0
LINE
  5
2FFB4
330
A
100
AcDbEntity
  8
Hawa1
 48
0.01016
100
AcDbLine
 10
1552.554076711995
 20
404.1265522779549
 30
0.0
 11
1552.960478711995
 21
404.1265522779549
 31
0.0
  0
LINE
  5
2FFB5
330
A
100
AcDbEntity
  8
Hawa1
 48
0.07217
100
AcDbLine
 10
1655.421439711995
 20
408.3755142779549
 30
0.0
 11
1655.421439711995
 21
405.4887042779549
 31
0.0
  0
LINE
  5
2FFB6
330
A
100
AcDbEntity
  8
Hawa1
 48
0.01016
100
AcDbLine
 10
1655.827841711995
 20
408.3755142779549
 30
0.0
 11
1655.421439711995
 21
408.3755142779549
 31
0.0
  0
LINE
  5
2FFB7
330
A
100
AcDbEntity
  8
Hawa1
 48
0.07623
100
AcDbLine
 10
1655.827841711995
 20
405.3263052779549
 30
0.0
 11
1655.827841711995
 21
408.3755142779549
 31
0.0
  0
LINE
  5
2FFB8
330
A
100
AcDbEntity
  8
Hawa1
 48
0.007647
100
AcDbLine
 10
1655.807440711995
 20
405.0211142779549
 30
0.0
 11
1655.827841711995
 21
405.3263052779549
 31
0.0
  0
LINE
  5
2FFB9
330
A
100
AcDbEntity
  8
Hawa1
 48
0.00643
100
AcDbLine
 10
1655.767050711995
 20
404.767116277955
 30
0.0
 11
1655.807440711995
 21
405.0211142779549
 31
0.0
  0
LINE
  5
2FFBA
330
A
100
AcDbEntity
  8
Hawa1
 48
0.006041
100
AcDbLine
 10
1655.675436711995
 20
404.5435142779549
 30
0.0
 11
1655.767050711995
 21
404.767116277955
 31
0.0
  0
LINE
  5
2FFBB
330
A
100
AcDbEntity
  8
Hawa1
 48
0.005288
100
AcDbLine
 10
1655.553442711995
 20
404.3707082779548
 30
0.0
 11
1655.675436711995
 21
404.5435142779549
 31
0.0
  0
LINE
  5
2FFBC
330
A
100
AcDbEntity
  8
Hawa1
 48
0.005407
100
AcDbLine
 10
1655.390646711995
 20
404.2282982779549
 30
0.0
 11
1655.553442711995
 21
404.3707082779548
 31
0.0
  0
LINE
  5
2FFBD
330
A
100
AcDbEntity
  8
Hawa1
 48
0.005797
100
AcDbLine
 10
1655.177451711995
 20
404.1371112779549
 30
0.0
 11
1655.390646711995
 21
404.2282982779549
 31
0.0
  0
LINE
  5
2FFBE
330
A
100
AcDbEntity
  8
Hawa1
 48
0.006785
100
AcDbLine
 10
1654.913046711995
 20
404.0759082779548
 30
0.0
 11
1655.177451711995
 21
404.1371112779549
 31
0.0
  0
LINE
  5
2FFBF
330
A
100
AcDbEntity
  8
Hawa1
 48
0.007887
100
AcDbLine
 10
1654.598242711995
 20
404.0555072779549
 30
0.0
 11
1654.913046711995
 21
404.0759082779548
 31
0.0
  0
LINE
  5
2FFC0
330
A
100
AcDbEntity
  8
Hawa1
 48
0.008425
100
AcDbLine
 10
1654.262640711996
 20
404.0862992779549
 30
0.0
 11
1654.598242711995
 21
404.0555072779549
 31
0.0
  0
LINE
  5
2FFC1
330
A
100
AcDbEntity
  8
Hawa1
 48
0.006992
100
AcDbLine
 10
1653.998251711995
 20
404.1775162779549
 30
0.0
 11
1654.262640711996
 21
404.0862992779549
 31
0.0
  0
LINE
  5
2FFC2
330
A
100
AcDbEntity
  8
Hawa1
 48
0.006203
100
AcDbLine
 10
1653.795050711995
 20
404.3199112779549
 30
0.0
 11
1653.998251711995
 21
404.1775162779549
 31
0.0
  0
LINE
  5
2FFC3
330
A
100
AcDbEntity
  8
Hawa1
 48
0.00595
100
AcDbLine
 10
1653.642645711995
 20
404.5027122779549
 30
0.0
 11
1653.795050711995
 21
404.3199112779549
 31
0.0
  0
LINE
  5
2FFC4
330
A
100
AcDbEntity
  8
Hawa1
 48
0.006029
100
AcDbLine
 10
1653.530646711995
 20
404.7163042779549
 30
0.0
 11
1653.642645711995
 21
404.5027122779549
 31
0.0
  0
LINE
  5
2FFC5
330
A
100
AcDbEntity
  8
Hawa1
 48
0.006352
100
AcDbLine
 10
1653.459845711995
 20
404.9603082779549
 30
0.0
 11
1653.530646711995
 21
404.7163042779549
 31
0.0
  0
LINE
  5
2FFC6
330
A
100
AcDbEntity
  8
Hawa1
 48
0.006645
100
AcDbLine
 10
1653.429045711995
 20
405.2243002779549
 30
0.0
 11
1653.459845711995
 21
404.9603082779549
 31
0.0
  0
LINE
  5
2FFC7
330
A
100
AcDbEntity
  8
Hawa1
 48
0.006875
100
AcDbLine
 10
1653.419043711996
 20
405.4991112779549
 30
0.0
 11
1653.429045711995
 21
405.2243002779549
 31
0.0
  0
LINE
  5
2FFC8
330
A
100
AcDbEntity
  8
Hawa1
 48
0.00991
100
AcDbLine
 10
1653.815451711995
 20
405.4991112779549
 30
0.0
 11
1653.419043711996
 21
405.4991112779549
 31
0.0
  0
LINE
  5
2FFC9
330
A
100
AcDbEntity
  8
Hawa1
 48
0.003828
100
AcDbLine
 10
1653.825446711995
 20
405.346309277955
 30
0.0
 11
1653.815451711995
 21
405.4991112779549
 31
0.0
  0
LINE
  5
2FFCA
330
A
100
AcDbEntity
  8
Hawa1
 48
0.004328
100
AcDbLine
 10
1653.835837711995
 20
405.1735192779549
 30
0.0
 11
1653.825446711995
 21
405.346309277955
 31
0.0
  0
LINE
  5
2FFCB
330
A
100
AcDbEntity
  8
Hawa1
 48
0.004633
100
AcDbLine
 10
1653.866248711995
 20
404.9907182779549
 30
0.0
 11
1653.835837711995
 21
405.1735192779549
 31
0.0
  0
LINE
  5
2FFCC
330
A
100
AcDbEntity
  8
Hawa1
 48
0.004503
100
AcDbLine
 10
1653.917044711995
 20
404.8178972779549
 30
0.0
 11
1653.866248711995
 21
404.9907182779549
 31
0.0
  0
LINE
  5
2FFCD
330
A
100
AcDbEntity
  8
Hawa1
 48
0.004661
100
AcDbLine
 10
1654.008643711996
 20
404.6555132779549
 30
0.0
 11
1653.917044711995
 21
404.8178972779549
 31
0.0
  0
LINE
  5
2FFCE
330
A
100
AcDbEntity
  8
Hawa1
 48
0.004854
100
AcDbLine
 10
1654.150641711995
 20
404.5230972779549
 30
0.0
 11
1654.008643711996
 21
404.6555132779549
 31
0.0
  0
LINE
  5
2FFCF
330
A
100
AcDbEntity
  8
Hawa1
 48
0.005577
100
AcDbLine
 10
1654.354239711995
 20
404.4319112779549
 30
0.0
 11
1654.150641711995
 21
404.5230972779549
 31
0.0
  0
LINE
  5
2FFD0
330
A
100
AcDbEntity
  8
Hawa1
 48
0.006903
100
AcDbLine
 10
1654.628653711995
 20
404.4011192779549
 30
0.0
 11
1654.354239711995
 21
404.4319112779549
 31
0.0
  0
LINE
  5
2FFD1
330
A
100
AcDbEntity
  8
Hawa1
 48
0.005336
100
AcDbLine
 10
1654.841849711996
 20
404.4114952779549
 30
0.0
 11
1654.628653711995
 21
404.4011192779549
 31
0.0
  0
LINE
  5
2FFD2
330
A
100
AcDbEntity
  8
Hawa1
 48
0.004503
100
AcDbLine
 10
1655.014639711995
 20
404.4623062779549
 30
0.0
 11
1654.841849711996
 21
404.4114952779549
 31
0.0
  0
LINE
  5
2FFD3
330
A
100
AcDbEntity
  8
Hawa1
 48
0.004098
100
AcDbLine
 10
1655.157050711995
 20
404.5435142779549
 30
0.0
 11
1655.014639711995
 21
404.4623062779549
 31
0.0
  0
LINE
  5
2FFD4
330
A
100
AcDbEntity
  8
Hawa1
 48
0.00378
100
AcDbLine
 10
1655.258643711995
 20
404.6555132779549
 30
0.0
 11
1655.157050711995
 21
404.5435142779549
 31
0.0
  0
LINE
  5
2FFD5
330
A
100
AcDbEntity
  8
Hawa1
 48
0.004317
100
AcDbLine
 10
1655.339850711995
 20
404.807918277955
 30
0.0
 11
1655.258643711995
 21
404.6555132779549
 31
0.0
  0
LINE
  5
2FFD6
330
A
100
AcDbEntity
  8
Hawa1
 48
0.004743
100
AcDbLine
 10
1655.390646711995
 20
404.9907182779549
 30
0.0
 11
1655.339850711995
 21
404.807918277955
 31
0.0
  0
LINE
  5
2FFD7
330
A
100
AcDbEntity
  8
Hawa1
 48
0.005862
100
AcDbLine
 10
1655.411047711995
 20
405.2243002779549
 30
0.0
 11
1655.390646711995
 21
404.9907182779549
 31
0.0
  0
LINE
  5
2FFD8
330
A
100
AcDbEntity
  8
Hawa1
 48
0.006615
100
AcDbLine
 10
1655.421439711995
 20
405.4887042779549
 30
0.0
 11
1655.411047711995
 21
405.2243002779549
 31
0.0
  0
CIRCLE
  5
2FFD9
330
A
100
AcDbEntity
  8
Hawa1
100
AcDbCircle
 10
1554.131873711995
 20
406.3966172779549
 30
0.0
 40
4.0
  0
CIRCLE
  5
2FFDA
330
A
100
AcDbEntity
  8
Hawa1
100
AcDbCircle
 10
1654.895346711995
 20
406.3966172779549
 30
0.0
 40
4.0
  0
ARC
  5
30057
330
A
100
AcDbEntity
  8
Hawa5
100
AcDbCircle
 10
1651.249236711995
 20
318.556468277955
 30
0.0
 40
2.0
100
AcDbArc
 50
0.0
 51
90.00000299999769
  0
ARC
  5
30058
330
A
100
AcDbEntity
  8
Hawa5
100
AcDbCircle
 10
1651.249228711995
 20
277.556453277955
 30
0.0
 40
2.0
100
AcDbArc
 50
270.0000009999949
 51
0.0
  0
ARC
  5
30059
330
A
100
AcDbEntity
  8
Hawa5
100
AcDbCircle
 10
1640.249228711995
 20
318.5564842779549
 30
0.0
 40
2.0
100
AcDbArc
 50
90.00000299999769
 51
180.0000050000005
  0
ARC
  5
3005A
330
A
100
AcDbEntity
  8
Hawa5
100
AcDbCircle
 10
1640.249220711995
 20
277.556453277955
 30
0.0
 40
2.0
100
AcDbArc
 50
180.0000050000005
 51
270.0000009999949
  0
ARC
  5
3005B
330
A
100
AcDbEntity
  8
Hawa5
100
AcDbCircle
 10
1650.749220711995
 20
278.0564462779549
 30
0.0
 40
5.0
100
AcDbArc
 50
269.9999729999947
 51
0.0
  0
ARC
  5
3005C
330
A
100
AcDbEntity
  8
Hawa5
100
AcDbCircle
 10
1640.749220711995
 20
278.0564682779549
 30
0.0
 40
5.0
100
AcDbArc
 50
180.0000050000005
 51
270.0000009999949
  0
ARC
  5
3005D
330
A
100
AcDbEntity
  8
Hawa5
100
AcDbCircle
 10
1650.749228711995
 20
318.056468277955
 30
0.0
 40
5.0
100
AcDbArc
 50
0.0
 51
89.99997499999748
  0
ARC
  5
3005E
330
A
100
AcDbEntity
  8
Hawa5
100
AcDbCircle
 10
1640.749236711996
 20
318.056484277955
 30
0.0
 40
5.0
100
AcDbArc
 50
90.00000299999769
 51
180.0000050000005
  0
ARC
  5
3005F
330
A
100
AcDbEntity
  8
Hawa5
  6
DASHED
100
AcDbCircle
 10
1585.454710711995
 20
238.226886277955
 30
0.0
 40
7.249877999999999
100
AcDbArc
 50
136.3962140000027
 51
223.6036730000031
  0
LINE
  5
301A9
330
A
100
AcDbEntity
  8
Hawa5
  6
DASHED
100
AcDbLine
 10
1608.205000711995
 20
383.772563277955
 30
0.0
 11
1608.204855711996
 21
233.2267872779549
 31
0.0
  0
LINE
  5
301AA
330
A
100
AcDbEntity
  8
Hawa5
  6
DASHED
 48
0.196617
100
AcDbLine
 10
1608.205008711995
 20
397.3323322779549
 30
0.0
 11
1608.205008711995
 21
389.467662277955
 31
0.0
  0
LINE
  5
301AB
330
A
100
AcDbEntity
  8
Hawa5
  6
DASHED
100
AcDbLine
 10
1580.205012711996
 20
397.8747212779549
 30
0.0
 11
1580.204855711995
 21
233.226856277955
 31
0.0
  0
LINE
  5
301AC
330
A
100
AcDbEntity
  8
Hawa5
100
AcDbLine
 10
1610.204848711995
 20
411.027690277955
 30
0.0
 11
1610.204848711995
 21
336.2268792779549
 31
0.0
  0
LINE
  5
301AD
330
A
100
AcDbEntity
  8
Hawa5
  6
DASHED
 48
0.207456
100
AcDbLine
 10
1608.205023711995
 20
412.1124682779549
 30
0.0
 11
1608.205016711995
 21
403.814220277955
 31
0.0
  0
LINE
  5
301AE
330
A
100
AcDbEntity
  8
Hawa5
  6
DASHED
 48
0.176947
100
AcDbLine
 10
1580.205027711995
 20
412.1124682779549
 30
0.0
 11
1580.205019711995
 21
405.0346032779549
 31
0.0
  0
LINE
  5
301CA
330
A
100
AcDbEntity
  8
Hawa5
100
AcDbLine
 10
1711.149069711995
 20
426.2911642779549
 30
0.0
 11
1711.149069711995
 21
378.156459277955
 31
0.0
  0
LINE
  5
301CF
330
A
100
AcDbEntity
  8
Hawa5
100
AcDbLine
 10
1679.149222711995
 20
426.2911642779549
 30
0.0
 11
1679.149222711995
 21
283.5149952779549
 31
0.0
  0
LINE
  5
30295
330
A
100
AcDbEntity
  8
Hawa5
100
AcDbLine
 10
1711.149069711995
 20
288.656444277955
 30
0.0
 11
1711.149069711995
 21
223.656536277955
 31
0.0
  0
LINE
  5
302B7
330
A
100
AcDbEntity
  8
Hawa5
  6
DASHDOT
100
AcDbLine
 10
1696.148947711995
 20
223.6565432779549
 30
0.0
 11
1696.149023711996
 21
400.8660232779549
 31
0.0
  0
LINE
  5
302B8
330
A
100
AcDbEntity
  8
Hawa5
100
AcDbLine
 10
1679.149222711995
 20
248.416706277955
 30
0.0
 11
1679.149222711995
 21
223.656551277955
 31
0.0
  0
LINE
  5
302BA
330
A
100
AcDbEntity
  8
Hawa5
100
AcDbLine
 10
1635.749266711995
 20
318.056484277955
 30
0.0
 11
1635.749251711995
 21
278.0564462779549
 31
0.0
  0
LINE
  5
302BB
330
A
100
AcDbEntity
  8
Hawa5
100
AcDbLine
 10
1655.749258711995
 20
318.056484277955
 30
0.0
 11
1655.749258711995
 21
278.0564382779549
 31
0.0
  0
LINE
  5
302BC
330
A
100
AcDbEntity
  8
Hawa5
 48
0.25
100
AcDbLine
 10
1640.749251711995
 20
273.056438277955
 30
0.0
 11
1650.749251711995
 21
273.056438277955
 31
0.0
  0
LINE
  5
302BD
330
A
100
AcDbEntity
  8
Hawa5
 48
0.25
100
AcDbLine
 10
1640.749266711995
 20
323.0564842779549
 30
0.0
 11
1650.749266711995
 21
323.0564842779549
 31
0.0
  0
LINE
  5
302BE
330
A
100
AcDbEntity
  8
Hawa5
100
AcDbLine
 10
1638.249205711995
 20
273.7263372779549
 30
0.0
 11
1638.249205711995
 21
223.656566277955
 31
0.0
  0
LINE
  5
302BF
330
A
100
AcDbEntity
  8
Hawa5
100
AcDbLine
 10
1653.249205711995
 20
273.7262992779549
 30
0.0
 11
1653.249205711995
 21
223.656558277955
 31
0.0
  0
LINE
  5
302C2
330
A
100
AcDbEntity
  8
Hawa5
100
AcDbLine
 10
1638.249266711995
 20
318.5564842779549
 30
0.0
 11
1638.249251711995
 21
277.5564462779549
 31
0.0
  0
LINE
  5
302C3
330
A
100
AcDbEntity
  8
Hawa5
 48
0.275
100
AcDbLine
 10
1640.249258711995
 20
320.556484277955
 30
0.0
 11
1651.249266711995
 21
320.556484277955
 31
0.0
  0
LINE
  5
302C4
330
A
100
AcDbEntity
  8
Hawa5
100
AcDbLine
 10
1653.249258711995
 20
318.5564842779549
 30
0.0
 11
1653.249251711995
 21
277.5564382779549
 31
0.0
  0
LINE
  5
302C5
330
A
100
AcDbEntity
  8
Hawa5
 48
0.275
100
AcDbLine
 10
1640.249251711995
 20
275.5564462779549
 30
0.0
 11
1651.249258711995
 21
275.5564382779549
 31
0.0
  0
LINE
  5
302C7
330
A
100
AcDbEntity
  8
Hawa5
  6
DASHED
 48
0.4111510000000001
100
AcDbLine
 10
1580.205046711995
 20
434.2268332779549
 30
0.0
 11
1580.205031711995
 21
417.7807882779549
 31
0.0
  0
LINE
  5
302C8
330
A
100
AcDbEntity
  8
Hawa5
  6
DASHED
 48
0.4179310000000001
100
AcDbLine
 10
1608.205046711995
 20
434.2268332779549
 30
0.0
 11
1608.205031711996
 21
417.5095782779549
 31
0.0
  0
LINE
  5
302C9
330
A
100
AcDbEntity
  8
Hawa5
  6
DASHED
 48
0.070712
100
AcDbLine
 10
1612.204680711995
 20
231.227046277955
 30
0.0
 11
1614.204726711995
 21
233.2270852779549
 31
0.0
  0
LINE
  5
302CA
330
A
100
AcDbEntity
  8
Hawa5
  6
DASHED
 48
0.070711
100
AcDbLine
 10
1582.204871711996
 20
231.2268332779549
 30
0.0
 11
1580.204855711995
 21
233.2268332779549
 31
0.0
  0
LINE
  5
302CB
330
A
100
AcDbEntity
  8
Hawa5
  6
DASHED
 48
0.070711
100
AcDbLine
 10
1606.204855711996
 20
231.226802277955
 30
0.0
 11
1608.204871711995
 21
233.2267952779549
 31
0.0
  0
LINE
  5
302CC
330
A
100
AcDbEntity
  8
Hawa5
100
AcDbLine
 10
1554.504843711995
 20
196.2268332779549
 30
0.0
 11
1624.504843711995
 21
196.2268332779549
 31
0.0
  0
LINE
  5
302CD
330
A
100
AcDbEntity
  8
Hawa5
  6
DASHED
100
AcDbLine
 10
1614.204710711995
 20
233.2270622779549
 30
0.0
 11
1614.204916711996
 21
434.2268332779549
 31
0.0
  0
LINE
  5
302DB
330
A
100
AcDbEntity
  8
Hawa6
 48
0.008751
100
AcDbLine
 10
1559.011450711995
 20
253.226863277955
 30
0.0
 11
1559.011450711995
 21
252.8768272779549
 31
0.0
  0
LINE
  5
302E8
330
A
100
AcDbEntity
  8
Hawa6
  6
DASHED
 48
0.00875
100
AcDbLine
 10
1571.404856711995
 20
253.2268792779549
 30
0.0
 11
1571.404856711995
 21
252.876880277955
 31
0.0
  0
LINE
  5
302E9
330
A
100
AcDbEntity
  8
Hawa6
  6
DASHED
 48
0.00875
100
AcDbLine
 10
1561.004858711995
 20
253.2268792779549
 30
0.0
 11
1561.004858711995
 21
252.876880277955
 31
0.0
  0
LINE
  5
302F6
330
A
100
AcDbEntity
  8
Hawa5
  6
PHANTOM
100
AcDbLine
 10
1616.204855711995
 20
434.2268332779549
 30
0.0
 11
1572.204848711995
 21
434.2268332779549
 31
0.0
  0
LINE
  5
3031C
330
A
100
AcDbEntity
  8
Hawa5
 48
0.07071
100
AcDbLine
 10
1580.205283711995
 20
231.2271462779549
 30
0.0
 11
1578.205286711996
 21
233.2271232779549
 31
0.0
  0
LINE
  5
3031D
330
A
100
AcDbEntity
  8
Hawa5
 48
0.074984
100
AcDbLine
 10
1580.205481711995
 20
231.226848277955
 30
0.0
 11
1583.204855711995
 21
231.226848277955
 31
0.0
  0
LINE
  5
3031E
330
A
100
AcDbEntity
  8
Hawa5
  6
DASHED
100
AcDbLine
 10
1583.204855711995
 20
231.226848277955
 30
0.0
 11
1612.204489711995
 21
231.226848277955
 31
0.0
  0
LINE
  5
3031F
330
A
100
AcDbEntity
  8
Hawa5
  6
DASHED
 48
0.067492
100
AcDbLine
 10
1608.204939711995
 20
231.226947277955
 30
0.0
 11
1610.113913711995
 21
233.1359212779549
 31
0.0
  0
LINE
  5
30320
330
A
100
AcDbEntity
  8
Hawa5
 48
0.414541
100
AcDbLine
 10
1610.204848711995
 20
434.2268332779549
 30
0.0
 11
1610.204848711995
 21
417.6451832779549
 31
0.0
  0
LINE
  5
30322
330
A
100
AcDbEntity
  8
Hawa5
100
AcDbLine
 10
1578.204855711996
 20
434.2268332779549
 30
0.0
 11
1578.204855711996
 21
233.2268332779549
 31
0.0
  0
LINE
  5
3032F
330
A
100
AcDbEntity
  8
Hawa5
  6
PHANTOM
100
AcDbLine
 10
1717.149100711995
 20
223.656536277955
 30
0.0
 11
1632.949042711995
 21
223.656566277955
 31
0.0
  0
LINE
  5
30331
330
A
100
AcDbEntity
  8
Hawa6
 48
0.008751
100
AcDbLine
 10
1571.411444711995
 20
253.226863277955
 30
0.0
 11
1571.411444711995
 21
252.8768272779549
 31
0.0
  0
LINE
  5
3033F
330
A
100
AcDbEntity
  8
Hawa5
  6
PHANTOM
100
AcDbLine
 10
1717.149100711995
 20
426.2911642779549
 30
0.0
 11
1673.149130711995
 21
426.2911642779549
 31
0.0
  0
LINE
  5
30345
330
A
100
AcDbEntity
  8
Hawa5
100
AcDbLine
 10
1554.504843711995
 20
196.2268482779549
 30
0.0
 11
1554.504843711995
 21
250.2268792779549
 31
0.0
  0
LINE
  5
30348
330
A
100
AcDbEntity
  8
Hawa5
 48
0.3825
100
AcDbLine
 10
1539.204855711995
 20
250.2268792779549
 30
0.0
 11
1554.504843711995
 21
250.2268792779549
 31
0.0
  0
LINE
  5
303B4
330
A
100
AcDbEntity
  8
Hawa5
 48
0.303814
100
AcDbLine
 10
1580.205012711996
 20
397.8747212779549
 30
0.0
 11
1580.205012711996
 21
385.722148277955
 31
0.0
  0
DIMENSION
  5
30472
330
A
100
AcDbEntity
  8
Hawa1
 48
0.2
100
AcDbDimension
  2
*D2
 10
1614.204900665006
 20
414.1227534465379
 30
0.0
 11
1596.204878188501
 21
418.5679530464697
 31
0.0
 70
    32
 71
     5
 42
36.00004495301073
  3
HAWA-Strich
100
AcDbAlignedDimension
 13
1578.204855711996
 23
418.5693887161807
 33
0.0
 14
1614.204900665006
 24
418.5693518205702
 34
0.0
100
AcDbRotatedDimension
  0
DIMENSION
  5
3047F
330
A
100
AcDbEntity
  8
Hawa1
 48
0.2
100
AcDbDimension
  2
*D3
 10
1610.204848711995
 20
399.7289443639479
 30
0.0
 11
1594.204852211995
 21
404.1248874539888
 31
0.0
 70
    32
 71
     5
 42
31.99999299999991
  3
HAWA-Strich
100
AcDbAlignedDimension
 13
1578.204855711996
 23
405.7499543098926
 33
0.0
 14
1610.204848711995
 24
405.7499543098926
 34
0.0
100
AcDbRotatedDimension
  0
DIMENSION
  5
3048C
330
A
100
AcDbEntity
  8
Hawa1
 48
0.2
100
AcDbDimension
  2
*D4
 10
1580.205012711996
 20
386.722148277955
 30
0.0
 11
1595.204930711995
 21
391.1664986277163
 31
0.0
 70
    32
 71
     5
 42
29.99983599999996
  3
HAWA-Strich
100
AcDbAlignedDimension
 13
1610.204848711995
 23
389.4292212160542
 33
0.0
 14
1580.205012711996
 24
389.4292212160542
 34
0.0
100
AcDbRotatedDimension
  0
DIMENSION
  5
30499
330
A
100
AcDbEntity
  8
Hawa1
 48
0.2
100
AcDbDimension
  2
*D5
 10
1578.204855711996
 20
386.722148277955
 30
0.0
 11
1569.905788540884
 21
386.722148277955
 31
0.0
 70
   160
 71
     5
 42
2.000146365462114
  3
HAWA-Strich
100
AcDbAlignedDimension
 13
1580.205002077458
 23
386.722148277955
 33
0.0
 14
1578.204855711996
 24
386.722148277955
 34
0.0
100
AcDbRotatedDimension
1001
ACAD
1000
DSTYLE
1002
{
1070
   279
1070
     0
1002
}
  0
DIMENSION
  5
304C7
330
A
100
AcDbEntity
  8
Hawa1
 48
0.2
100
AcDbDimension
  2
*D6
 10
1608.204988928474
 20
373.9352970278035
 30
0.0
 11
1594.832214467551
 21
373.9352970278035
 31
0.0
 70
   160
 71
     5
 42
28.00002621647832
  3
HAWA-Strich
100
AcDbAlignedDimension
 13
1580.204962711995
 23
371.538387277955
 33
0.0
 14
1608.204988928474
 24
371.5383603093883
 34
0.0
100
AcDbRotatedDimension
1001
ACAD
1000
DSTYLE
1002
{
1070
   279
1070
     0
1002
}
  0
DIMENSION
  5
304E6
330
A
100
AcDbEntity
  8
Hawa1
 48
0.2
100
AcDbDimension
  2
*D7
 10
1566.204840711995
 20
205.2268332779549
 30
0.0
 11
1627.15524594177
 21
205.2268332779549
 31
0.0
 70
   160
  1
\A1;<> (22.5 [{\H0.7x;\S7/8;}"] / 35.5 [1 {\H0.7x;\S3/8;}"])
 71
     5
 42
28.99990899999989
  3
HAWA-Strich
100
AcDbAlignedDimension
 13
1595.204749711995
 23
205.2268332779549
 33
0.0
 14
1566.204840711995
 24
205.2268332779549
 34
0.0
100
AcDbRotatedDimension
1001
ACAD
1000
DSTYLE
1002
{
1070
   279
1070
     0
1002
}
  0
DIMENSION
  5
3052C
330
A
100
AcDbEntity
  8
Hawa1
 48
0.2
100
AcDbDimension
  2
*D8
 10
1696.148959342609
 20
251.4442294050099
 30
0.0
 11
1681.860234302282
 21
251.4442294050099
 31
0.0
 70
   160
 71
     5
 42
28.66804163061329
  3
HAWA-Strich
100
AcDbAlignedDimension
 13
1667.480917711995
 23
255.453716277955
 33
0.0
 14
1696.148959342609
 24
250.7756872347774
 34
0.0
100
AcDbRotatedDimension
1001
ACAD
1000
DSTYLE
1002
{
1070
   271
1070
     0
1070
   279
1070
     0
1002
}
  0
DIMENSION
  5
30566
330
A
100
AcDbEntity
  8
Hawa1
 48
0.2
100
AcDbDimension
  2
*D9
 10
1679.149222711995
 20
412.7322681867526
 30
0.0
 11
1695.844277591842
 21
412.7322681867526
 31
0.0
 70
   160
 71
     5
 42
31.99987800000008
  3
HAWA-Strich
100
AcDbAlignedDimension
 13
1711.149100711995
 23
413.4350242779549
 33
0.0
 14
1679.149222711995
 24
413.4350202587149
 34
0.0
100
AcDbRotatedDimension
1001
ACAD
1000
DSTYLE
1002
{
1070
   279
1070
     0
1002
}
  0
LINE
  5
305D9
330
A
100
AcDbEntity
  8
Hawa5
  6
DASHDOT
 48
0.2
100
AcDbLine
 10
1557.504843711996
 20
220.376903277955
 30
0.0
 11
1537.621226830179
 21
220.376903277955
 31
0.0
  0
INSERT
  5
305FC
330
A
100
AcDbEntity
  8
Hawa6
100
AcDbBlockReference
  2
15513
 10
1572.454904708244
 20
368.626857277955
 30
0.0
  0
INSERT
  5
307BE
330
A
100
AcDbEntity
  8
Hawa6
100
AcDbBlockReference
  2
15529_15530
 10
1566.204847737707
 20
253.226863277955
 30
0.0
  0
INSERT
  5
3091C
330
A
100
AcDbEntity
  8
Hawa6
100
AcDbBlockReference
  2
15861
 10
1655.749228711995
 20
283.2084352369582
 30
0.0
  0
INSERT
  5
3091E
330
A
100
AcDbEntity
  8
Hawa6
 48
0.2
100
AcDbBlockReference
  2
NullPunkt
 10
1566.204847593094
 20
252.876880277955
 30
0.0
  0
INSERT
  5
3091F
330
A
100
AcDbEntity
  8
Hawa6
 48
0.2
100
AcDbBlockReference
  2
NullPunkt
 10
1572.575888711995
 20
368.626857277955
 30
0.0
  0
INSERT
  5
30920
330
A
100
AcDbEntity
  8
Hawa6
 48
0.2
100
AcDbBlockReference
  2
NullPunkt
 10
1655.749258711995
 20
283.2084352262237
 30
0.0
  0
LINE
  5
30928
102
{ACAD_REACTORS
330
3092A
102
}
330
A
100
AcDbEntity
  8
Hawa4
 48
0.2
100
AcDbLine
 10
1557.709880991082
 20
226.0219020507023
 30
0.0
 11
1557.504843711996
 21
225.5269272779549
 31
0.0
  0
LINE
  5
30929
102
{ACAD_REACTORS
330
3092A
102
}
330
A
100
AcDbEntity
  8
Hawa4
 48
0.2
100
AcDbLine
 10
1559.207826874097
 20
227.2269372302837
 30
0.0
 11
1558.911947499353
 21
226.519932502939
 31
0.0
  0
LINE
  5
3096D
102
{ACAD_REACTORS
330
309BD
102
}
330
A
100
AcDbEntity
  8
Hawa4
 48
0.2
100
AcDbLine
 10
1660.44799284536
 20
290.056744941726
 30
0.0
 11
1660.152113470616
 21
289.3497402143814
 31
0.0
  0
LINE
  5
3096E
102
{ACAD_REACTORS
330
309BD
102
}
330
A
100
AcDbEntity
  8
Hawa4
 48
0.2
100
AcDbLine
 10
1658.950046962345
 20
288.8517097621447
 30
0.0
 11
1658.745009683259
 21
288.3567349893973
 31
0.0
  0
LINE
  5
30974
102
{ACAD_REACTORS
330
309BD
102
}
330
A
100
AcDbEntity
  8
Hawa4
 48
0.2
100
AcDbLine
 10
1667.448308181363
 20
313.0566709893974
 30
0.0
 11
1655.748327682679
 21
313.0568464058443
 31
0.0
  0
LINE
  5
30975
102
{ACAD_REACTORS
330
309BD
102
}
330
A
100
AcDbEntity
  8
Hawa4
 48
0.2
100
AcDbLine
 10
1655.748327682679
 20
313.0568464058443
 30
0.0
 11
1655.748203241909
 21
304.7568574067773
 31
0.0
  0
LINE
  5
30976
102
{ACAD_REACTORS
330
309BD
102
}
330
A
100
AcDbEntity
  8
Hawa4
 48
0.2
100
AcDbLine
 10
1657.948139255879
 20
302.7568234231677
 30
0.0
 11
1657.948125761923
 21
301.8567994232689
 31
0.0
  0
LINE
  5
30977
102
{ACAD_REACTORS
330
309BD
102
}
330
A
100
AcDbEntity
  8
Hawa4
 48
0.2
100
AcDbLine
 10
1656.948141769168
 20
300.8568154158001
 30
0.0
 11
1656.748158698882
 21
300.8567854141231
 31
0.0
  0
LINE
  5
30978
102
{ACAD_REACTORS
330
309BD
102
}
330
A
100
AcDbEntity
  8
Hawa4
 48
0.2
100
AcDbLine
 10
1655.748144775938
 20
299.8568014071032
 30
0.0
 11
1655.746387856812
 21
278.0042041565545
 31
0.0
  0
LINE
  5
30979
102
{ACAD_REACTORS
330
309BD
102
}
330
A
100
AcDbEntity
  8
Hawa4
 48
0.2
100
AcDbLine
 10
1656.74479417396
 20
277.0566870126195
 30
0.0
 11
1657.801837948032
 21
277.0584554764091
 31
0.0
  0
LINE
  5
3097A
102
{ACAD_REACTORS
330
309BD
102
}
330
A
100
AcDbEntity
  8
Hawa4
 48
0.2
100
AcDbLine
 10
1658.745001683259
 20
278.0568389893973
 30
0.0
 11
1658.745021683259
 21
288.356735099353
 31
0.0
  0
LINE
  5
3097B
102
{ACAD_REACTORS
330
309BD
102
}
330
A
100
AcDbEntity
  8
Hawa4
 48
0.2
100
AcDbLine
 10
1658.95006320349
 20
288.8518710013148
 30
0.0
 11
1660.152128470616
 21
289.3496102143814
 31
0.0
  0
LINE
  5
3097C
102
{ACAD_REACTORS
330
309BD
102
}
330
A
100
AcDbEntity
  8
Hawa4
 48
0.2
100
AcDbLine
 10
1660.44799284536
 20
290.056744941726
 30
0.0
 11
1660.448067810244
 21
295.056775941164
 31
0.0
  0
LINE
  5
3097D
102
{ACAD_REACTORS
330
309BD
102
}
330
A
100
AcDbEntity
  8
Hawa4
 48
0.2
100
AcDbLine
 10
1660.448067810244
 20
295.056775941164
 30
0.0
 11
1658.24805681049
 21
295.0568089256731
 31
0.0
  0
LINE
  5
3097E
102
{ACAD_REACTORS
330
309BD
102
}
330
A
100
AcDbEntity
  8
Hawa4
 48
0.2
100
AcDbLine
 10
1658.24805681049
 20
295.0568089256731
 30
0.0
 11
1658.24809879082
 21
297.8568259253585
 31
0.0
  0
LINE
  5
3097F
102
{ACAD_REACTORS
330
309BD
102
}
330
A
100
AcDbEntity
  8
Hawa4
 48
0.2
100
AcDbLine
 10
1658.24809879082
 20
297.8568259253585
 30
0.0
 11
1660.448109790572
 21
297.8567929408495
 31
0.0
  0
LINE
  5
30980
102
{ACAD_REACTORS
330
309BD
102
}
330
A
100
AcDbEntity
  8
Hawa4
 48
0.2
100
AcDbLine
 10
1660.448109790572
 20
297.8567929408495
 30
0.0
 11
1660.448243226668
 21
306.7567549398491
 31
0.0
  0
LINE
  5
30981
102
{ACAD_REACTORS
330
309BD
102
}
330
A
100
AcDbEntity
  8
Hawa4
 48
0.2
100
AcDbLine
 10
1660.448243226668
 20
306.7567549398491
 30
0.0
 11
1658.248232226915
 21
306.7567879243582
 31
0.0
  0
LINE
  5
30982
102
{ACAD_REACTORS
330
309BD
102
}
330
A
100
AcDbEntity
  8
Hawa4
 48
0.2
100
AcDbLine
 10
1658.248232226915
 20
306.7567879243582
 30
0.0
 11
1658.248274206839
 21
309.5567779240434
 31
0.0
  0
LINE
  5
30983
102
{ACAD_REACTORS
330
309BD
102
}
330
A
100
AcDbEntity
  8
Hawa4
 48
0.2
100
AcDbLine
 10
1658.248274206839
 20
309.5567779240434
 30
0.0
 11
1660.448285206592
 21
309.5567449395344
 31
0.0
  0
LINE
  5
30984
102
{ACAD_REACTORS
330
309BD
102
}
330
A
100
AcDbEntity
  8
Hawa4
 48
0.2
100
AcDbLine
 10
1660.448285206592
 20
309.5567449395344
 30
0.0
 11
1660.448288205319
 21
309.756754939512
 31
0.0
  0
LINE
  5
30985
102
{ACAD_REACTORS
330
309BD
102
}
330
A
100
AcDbEntity
  8
Hawa4
 48
0.2
100
AcDbLine
 10
1660.74828070297
 20
310.0567384417931
 30
0.0
 11
1667.448285691835
 21
310.0566439893974
 31
0.0
  0
ARC
  5
30986
102
{ACAD_REACTORS
330
309BD
102
}
330
A
100
AcDbEntity
  8
Hawa4
 48
0.2
100
AcDbCircle
 10
1660.748247238533
 20
309.7567794094479
 30
0.0
 40
0.2999590342119217
100
AcDbArc
 50
89.99360789035232
 51
180.0046740517605
  0
ARC
  5
30987
102
{ACAD_REACTORS
330
309BD
102
}
330
A
100
AcDbEntity
  8
Hawa4
 48
0.2
100
AcDbCircle
 10
1656.748217241796
 20
304.7568424136837
 30
0.0
 40
0.9999990000000645
100
AcDbArc
 50
180.000000402154
 51
269.9991399710313
  0
ARC
  5
30988
102
{ACAD_REACTORS
330
309BD
102
}
330
A
100
AcDbEntity
  8
Hawa4
 48
0.2
100
AcDbCircle
 10
1656.951087911774
 20
302.7597589750802
 30
0.0
 40
0.9970856654420128
100
AcDbArc
 50
359.8313133868964
 51
90.16679666794216
  0
LINE
  5
30989
102
{ACAD_REACTORS
330
309BD
102
}
330
A
100
AcDbEntity
  8
Hawa4
 48
0.2
100
AcDbLine
 10
1656.948185248905
 20
303.7568404154742
 30
0.0
 11
1656.748202231474
 21
303.7568434137963
 31
0.0
  0
ARC
  5
3098A
102
{ACAD_REACTORS
330
309BD
102
}
330
A
100
AcDbEntity
  8
Hawa4
 48
0.2
100
AcDbCircle
 10
1656.948177973702
 20
301.8567632040226
 30
0.0
 40
0.9999477888778674
100
AcDbArc
 50
269.9979255246968
 51
0.0020753182932536
  0
ARC
  5
3098B
102
{ACAD_REACTORS
330
309BD
102
}
330
A
100
AcDbEntity
  8
Hawa4
 48
0.2
100
AcDbCircle
 10
1656.748154382241
 20
299.8567608070052
 30
0.0
 40
1.000024607127224
100
AcDbArc
 50
89.99975268082357
 51
179.9976738300931
  0
ARC
  5
3098C
102
{ACAD_REACTORS
330
309BD
102
}
330
A
100
AcDbEntity
  8
Hawa4
 48
0.2
100
AcDbCircle
 10
1656.745272432133
 20
278.0569638499668
 30
0.0
 40
1.000276951681129
100
AcDbArc
 50
183.0234738062005
 51
269.9726054110746
  0
ARC
  5
3098D
102
{ACAD_REACTORS
330
309BD
102
}
330
A
100
AcDbEntity
  8
Hawa4
 48
0.2
100
AcDbCircle
 10
1657.745001683258
 20
278.0568389893972
 30
0.0
 40
1.000000000000454
100
AcDbArc
 50
273.25823391505
 51
0.0000000000032569
  0
ARC
  5
3098E
102
{ACAD_REACTORS
330
309BD
102
}
330
A
100
AcDbEntity
  8
Hawa4
 48
0.2
100
AcDbCircle
 10
1675.448282802684
 20
290.056642110718
 30
0.0
 40
1.000004121322827
100
AcDbArc
 50
180.0001265421946
 51
269.9998794577942
  0
ARC
  5
3098F
102
{ACAD_REACTORS
330
309BD
102
}
330
A
100
AcDbEntity
  8
Hawa4
 48
0.2
100
AcDbCircle
 10
1675.948263681364
 20
290.0566399893967
 30
0.0
 40
0.999998999999434
100
AcDbArc
 50
270.0000009999818
 51
0.0000000000390827
  0
ARC
  5
30990
102
{ACAD_REACTORS
330
309BD
102
}
330
A
100
AcDbEntity
  8
Hawa4
 48
0.2
100
AcDbCircle
 10
1677.948168057356
 20
291.0567626166637
 30
0.0
 40
0.9998453803763172
100
AcDbArc
 50
89.99291577078658
 51
180.0053651682091
  0
ARC
  5
30991
102
{ACAD_REACTORS
330
309BD
102
}
330
A
100
AcDbEntity
  8
Hawa4
 48
0.2
100
AcDbCircle
 10
1678.148182128029
 20
293.056714539441
 30
0.0
 40
1.000106554326168
100
AcDbArc
 50
270.0053023504508
 51
359.9974477424684
  0
LINE
  5
30994
102
{ACAD_REACTORS
330
309BD
102
}
330
A
100
AcDbEntity
  8
Hawa4
 48
0.2
100
AcDbLine
 10
1679.149222711995
 20
299.856487400128
 30
0.0
 11
1679.148273681251
 21
304.7566669895102
 31
0.0
  0
ARC
  5
30997
102
{ACAD_REACTORS
330
309BD
102
}
330
A
100
AcDbEntity
  8
Hawa4
 48
0.2
100
AcDbCircle
 10
1674.14831964855
 20
309.7566789565842
 30
0.0
 40
0.2999590342119217
100
AcDbArc
 50
359.9944669192786
 51
90.00553308068228
  0
LINE
  5
30998
102
{ACAD_REACTORS
330
309BD
102
}
330
A
100
AcDbEntity
  8
Hawa4
 48
0.2
100
AcDbLine
 10
1674.148290681364
 20
310.0566379893974
 30
0.0
 11
1667.448285691835
 21
310.0566439893974
 31
0.0
  0
LINE
  5
30999
102
{ACAD_REACTORS
330
309BD
102
}
330
A
100
AcDbEntity
  8
Hawa4
 48
0.2
100
AcDbLine
 10
1674.448278681363
 20
309.5566399893974
 30
0.0
 11
1674.448278681363
 21
309.7566499893974
 31
0.0
  0
LINE
  5
3099A
102
{ACAD_REACTORS
330
309BD
102
}
330
A
100
AcDbEntity
  8
Hawa4
 48
0.2
100
AcDbLine
 10
1676.648289681363
 20
309.5566399893974
 30
0.0
 11
1674.448278681363
 21
309.5566399893974
 31
0.0
  0
LINE
  5
3099B
102
{ACAD_REACTORS
330
309BD
102
}
330
A
100
AcDbEntity
  8
Hawa4
 48
0.2
100
AcDbLine
 10
1676.648289681363
 20
306.7566499893974
 30
0.0
 11
1676.648289681363
 21
309.5566399893974
 31
0.0
  0
LINE
  5
3099C
102
{ACAD_REACTORS
330
309BD
102
}
330
A
100
AcDbEntity
  8
Hawa4
 48
0.2
100
AcDbLine
 10
1674.448278681363
 20
306.7566499893974
 30
0.0
 11
1676.648289681363
 21
306.7566499893974
 31
0.0
  0
LINE
  5
3099D
102
{ACAD_REACTORS
330
309BD
102
}
330
A
100
AcDbEntity
  8
Hawa4
 48
0.2
100
AcDbLine
 10
1674.448278681363
 20
297.8566879893974
 30
0.0
 11
1674.448278681363
 21
306.7566499893974
 31
0.0
  0
LINE
  5
3099E
102
{ACAD_REACTORS
330
309BD
102
}
330
A
100
AcDbEntity
  8
Hawa4
 48
0.2
100
AcDbLine
 10
1676.648289681363
 20
297.8566879893974
 30
0.0
 11
1674.448278681363
 21
297.8566879893974
 31
0.0
  0
LINE
  5
3099F
102
{ACAD_REACTORS
330
309BD
102
}
330
A
100
AcDbEntity
  8
Hawa4
 48
0.2
100
AcDbLine
 10
1676.648289681363
 20
295.0566709893973
 30
0.0
 11
1676.648289681363
 21
297.8566879893974
 31
0.0
  0
LINE
  5
309A0
102
{ACAD_REACTORS
330
309BD
102
}
330
A
100
AcDbEntity
  8
Hawa4
 48
0.2
100
AcDbLine
 10
1674.448278681363
 20
295.0566709893973
 30
0.0
 11
1676.648289681363
 21
295.0566709893973
 31
0.0
  0
LINE
  5
309A1
102
{ACAD_REACTORS
330
309BD
102
}
330
A
100
AcDbEntity
  8
Hawa4
 48
0.2
100
AcDbLine
 10
1674.448278681363
 20
290.0566399893973
 30
0.0
 11
1674.448278681363
 21
295.0566709893973
 31
0.0
  0
LINE
  5
309A2
102
{ACAD_REACTORS
330
309BD
102
}
330
A
100
AcDbEntity
  8
Hawa4
 48
0.2
100
AcDbLine
 10
1675.948263698816
 20
289.0566409893974
 30
0.0
 11
1675.448277698816
 21
289.0566409893974
 31
0.0
  0
LINE
  5
309A3
102
{ACAD_REACTORS
330
309BD
102
}
330
A
100
AcDbEntity
  8
Hawa4
 48
0.2
100
AcDbLine
 10
1676.948322681363
 20
291.0566689893974
 30
0.0
 11
1676.948262681363
 21
290.0566399893973
 31
0.0
  0
LINE
  5
309A4
102
{ACAD_REACTORS
330
309BD
102
}
330
A
100
AcDbEntity
  8
Hawa4
 48
0.2
100
AcDbLine
 10
1678.148289698817
 20
292.0566709893974
 30
0.0
 11
1677.948291681363
 21
292.0566079893974
 31
0.0
  0
LINE
  5
309A5
102
{ACAD_REACTORS
330
309BD
102
}
330
A
100
AcDbEntity
  8
Hawa4
 48
0.2
100
AcDbLine
 10
1679.149222711995
 20
294.956469981249
 30
0.0
 11
1679.148288681363
 21
293.0566699893974
 31
0.0
  0
LINE
  5
309A8
102
{ACAD_REACTORS
330
309BD
102
}
330
A
100
AcDbEntity
  8
Hawa4
 48
0.2
100
AcDbLine
 10
1679.148288681363
 20
313.0566709893973
 30
0.0
 11
1679.148288681363
 21
304.7566819893974
 31
0.0
  0
LINE
  5
309A9
102
{ACAD_REACTORS
330
309BD
102
}
330
A
100
AcDbEntity
  8
Hawa4
 48
0.2
100
AcDbLine
 10
1667.448308181363
 20
313.0566709893973
 30
0.0
 11
1679.148288681363
 21
313.0566709893973
 31
0.0
  0
ARC
  5
309B0
102
{ACAD_REACTORS
330
309BD
102
}
330
A
100
AcDbEntity
  8
Hawa4
 48
0.2
100
AcDbCircle
 10
1678.149222711996
 20
299.8564872779549
 30
0.0
 40
0.9999999999997593
100
AcDbArc
 50
270.0000009999818
 51
357.5037387209226
  0
ARC
  5
309B1
102
{ACAD_REACTORS
330
309BD
102
}
330
A
100
AcDbEntity
  8
Hawa4
 48
0.2
100
AcDbCircle
 10
1677.949210711995
 20
297.8564712779549
 30
0.0
 40
1.000000000000041
100
AcDbArc
 50
90.00458247075023
 51
180.0000189999973
  0
LINE
  5
309B2
102
{ACAD_REACTORS
330
309BD
102
}
330
A
100
AcDbEntity
  8
Hawa4
 48
0.2
100
AcDbLine
 10
1678.149222729448
 20
298.8564872779551
 30
0.0
 11
1677.949210711995
 21
298.8564712779549
 31
0.0
  0
LINE
  5
309B4
102
{ACAD_REACTORS
330
309BD
102
}
330
A
100
AcDbEntity
  8
Hawa4
 48
0.2
100
AcDbLine
 10
1676.949240711995
 20
297.8564712779549
 30
0.0
 11
1676.949210711995
 21
296.9564781906885
 31
0.0
  0
LINE
  5
309B6
102
{ACAD_REACTORS
330
309BD
102
}
330
A
100
AcDbEntity
  8
Hawa4
 48
0.2
100
AcDbLine
 10
1677.949210729449
 20
295.9564782779549
 30
0.0
 11
1678.149222659635
 21
295.956470277955
 31
0.0
  0
ARC
  5
309B7
102
{ACAD_REACTORS
330
309BD
102
}
330
A
100
AcDbEntity
  8
Hawa4
 48
0.2
100
AcDbCircle
 10
1677.949189499563
 20
296.9564270666088
 30
0.0
 40
0.9999487888793414
100
AcDbArc
 50
179.9970656557303
 51
270.0012164451102
  0
ARC
  5
309B8
102
{ACAD_REACTORS
330
309BD
102
}
330
A
100
AcDbEntity
  8
Hawa4
 48
0.2
100
AcDbCircle
 10
1678.149222711995
 20
294.9564702779552
 30
0.0
 40
1.000000000000227
100
AcDbArc
 50
359.9999999999902
 51
89.38206988358217
  0
HATCH
  5
309BD
330
A
100
AcDbEntity
  8
Hawa2
 48
0.2
100
AcDbHatch
 10
0.0
 20
0.0
 30
0.0
210
0.0
220
0.0
230
1.0
  2
ANSI31
 70
     0
 71
     1
 91
        1
 92
       33
 93
       57
 72
     2
 10
1678.149222711995
 20
294.9564702779552
 40
1.000000000000227
 50
359.9999999999902
 51
449.3820698835821
 73
     1
 72
     2
 10
1677.949189499563
 20
296.9564270666088
 40
0.9999487888793414
 50
179.9970656557303
 51
270.0012164451102
 73
     1
 72
     1
 10
1677.949210729449
 20
295.9564782779549
 11
1678.149222659635
 21
295.956470277955
 72
     1
 10
1676.949240711995
 20
297.8564712779549
 11
1676.949210711995
 21
296.9564781906885
 72
     1
 10
1678.149222729448
 20
298.8564872779551
 11
1677.949210711995
 21
298.8564712779549
 72
     2
 10
1677.949210711995
 20
297.8564712779549
 40
1.000000000000041
 50
90.00458247075023
 51
180.0000189999973
 73
     1
 72
     2
 10
1678.149222711996
 20
299.8564872779549
 40
0.9999999999997593
 50
270.0000009999818
 51
357.5037387209226
 73
     1
 72
     1
 10
1667.448308181363
 20
313.0566709893973
 11
1679.148288681363
 21
313.0566709893973
 72
     1
 10
1679.148288681363
 20
313.0566709893973
 11
1679.148288681363
 21
304.7566819893974
 72
     1
 10
1679.149222711995
 20
294.956469981249
 11
1679.148288681363
 21
293.0566699893974
 72
     1
 10
1678.148289698817
 20
292.0566709893974
 11
1677.948291681363
 21
292.0566079893974
 72
     1
 10
1676.948322681363
 20
291.0566689893974
 11
1676.948262681363
 21
290.0566399893973
 72
     1
 10
1675.948263698816
 20
289.0566409893974
 11
1675.448277698816
 21
289.0566409893974
 72
     1
 10
1674.448278681363
 20
290.0566399893973
 11
1674.448278681363
 21
295.0566709893973
 72
     1
 10
1674.448278681363
 20
295.0566709893973
 11
1676.648289681363
 21
295.0566709893973
 72
     1
 10
1676.648289681363
 20
295.0566709893973
 11
1676.648289681363
 21
297.8566879893974
 72
     1
 10
1676.648289681363
 20
297.8566879893974
 11
1674.448278681363
 21
297.8566879893974
 72
     1
 10
1674.448278681363
 20
297.8566879893974
 11
1674.448278681363
 21
306.7566499893974
 72
     1
 10
1674.448278681363
 20
306.7566499893974
 11
1676.648289681363
 21
306.7566499893974
 72
     1
 10
1676.648289681363
 20
306.7566499893974
 11
1676.648289681363
 21
309.5566399893974
 72
     1
 10
1676.648289681363
 20
309.5566399893974
 11
1674.448278681363
 21
309.5566399893974
 72
     1
 10
1674.448278681363
 20
309.5566399893974
 11
1674.448278681363
 21
309.7566499893974
 72
     1
 10
1674.148290681364
 20
310.0566379893974
 11
1667.448285691835
 21
310.0566439893974
 72
     2
 10
1674.14831964855
 20
309.7566789565842
 40
0.2999590342119217
 50
359.9944669192786
 51
450.0055330806823
 73
     1
 72
     1
 10
1679.149222711995
 20
299.856487400128
 11
1679.148273681251
 21
304.7566669895102
 72
     2
 10
1678.148182128029
 20
293.056714539441
 40
1.000106554326168
 50
270.0053023504508
 51
359.9974477424684
 73
     1
 72
     2
 10
1677.948168057356
 20
291.0567626166637
 40
0.9998453803763172
 50
89.99291577078658
 51
180.0053651682091
 73
     1
 72
     2
 10
1675.948263681364
 20
290.0566399893967
 40
0.999998999999434
 50
270.0000009999818
 51
360.0000000000391
 73
     1
 72
     2
 10
1675.448282802684
 20
290.056642110718
 40
1.000004121322827
 50
180.0001265421946
 51
269.9998794577942
 73
     1
 72
     2
 10
1657.745001683258
 20
278.0568389893972
 40
1.000000000000454
 50
273.25823391505
 51
360.0000000000032
 73
     1
 72
     2
 10
1656.745272432133
 20
278.0569638499668
 40
1.000276951681129
 50
183.0234738062005
 51
269.9726054110746
 73
     1
 72
     2
 10
1656.748154382241
 20
299.8567608070052
 40
1.000024607127224
 50
89.99975268082357
 51
179.9976738300931
 73
     1
 72
     2
 10
1656.948177973702
 20
301.8567632040226
 40
0.9999477888778674
 50
269.9979255246968
 51
360.0020753182932
 73
     1
 72
     1
 10
1656.948185248905
 20
303.7568404154742
 11
1656.748202231474
 21
303.7568434137963
 72
     2
 10
1656.951087911774
 20
302.7597589750802
 40
0.9970856654420128
 50
359.8313133868964
 51
450.1667966679421
 73
     1
 72
     2
 10
1656.748217241796
 20
304.7568424136837
 40
0.9999990000000645
 50
180.000000402154
 51
269.9991399710313
 73
     1
 72
     2
 10
1660.748247238533
 20
309.7567794094479
 40
0.2999590342119217
 50
89.99360789035232
 51
180.0046740517605
 73
     1
 72
     1
 10
1660.74828070297
 20
310.0567384417931
 11
1667.448285691835
 21
310.0566439893974
 72
     1
 10
1660.448285206592
 20
309.5567449395344
 11
1660.448288205319
 21
309.756754939512
 72
     1
 10
1658.248274206839
 20
309.5567779240434
 11
1660.448285206592
 21
309.5567449395344
 72
     1
 10
1658.248232226915
 20
306.7567879243582
 11
1658.248274206839
 21
309.5567779240434
 72
     1
 10
1660.448243226668
 20
306.7567549398491
 11
1658.248232226915
 21
306.7567879243582
 72
     1
 10
1660.448109790572
 20
297.8567929408495
 11
1660.448243226668
 21
306.7567549398491
 72
     1
 10
1658.24809879082
 20
297.8568259253585
 11
1660.448109790572
 21
297.8567929408495
 72
     1
 10
1658.24805681049
 20
295.0568089256731
 11
1658.24809879082
 21
297.8568259253585
 72
     1
 10
1660.448067810244
 20
295.056775941164
 11
1658.24805681049
 21
295.0568089256731
 72
     1
 10
1660.44799284536
 20
290.056744941726
 11
1660.448067810244
 21
295.056775941164
 72
     1
 10
1658.95006320349
 20
288.8518710013148
 11
1660.152128470616
 21
289.3496102143814
 72
     1
 10
1658.745001683259
 20
278.0568389893973
 11
1658.745021683259
 21
288.356735099353
 72
     1
 10
1656.74479417396
 20
277.0566870126195
 11
1657.801837948032
 21
277.0584554764091
 72
     1
 10
1655.748144775938
 20
299.8568014071032
 11
1655.746387856812
 21
278.0042041565545
 72
     1
 10
1656.948141769168
 20
300.8568154158001
 11
1656.748158698882
 21
300.8567854141231
 72
     1
 10
1657.948139255879
 20
302.7568234231677
 11
1657.948125761923
 21
301.8567994232689
 72
     1
 10
1655.748327682679
 20
313.0568464058443
 11
1655.748203241909
 21
304.7568574067773
 72
     1
 10
1667.448308181363
 20
313.0566709893974
 11
1655.748327682679
 21
313.0568464058443
 72
     1
 10
1658.950046962345
 20
288.8517097621447
 11
1658.745009683259
 21
288.3567349893973
 72
     1
 10
1660.44799284536
 20
290.056744941726
 11
1660.152113470616
 21
289.3497402143814
 97
       57
330
309B8
330
309B7
330
309B6
330
309B4
330
309B2
330
309B1
330
309B0
330
309A9
330
309A8
330
309A5
330
309A4
330
309A3
330
309A2
330
309A1
330
309A0
330
3099F
330
3099E
330
3099D
330
3099C
330
3099B
330
3099A
330
30999
330
30998
330
30997
330
30994
330
30991
330
30990
330
3098F
330
3098E
330
3098D
330
3098C
330
3098B
330
3098A
330
30989
330
30988
330
30987
330
30986
330
30985
330
30984
330
30983
330
30982
330
30981
330
30980
330
3097F
330
3097E
330
3097D
330
3097C
330
3097B
330
3097A
330
30979
330
30978
330
30977
330
30976
330
30975
330
30974
330
3096E
330
3096D
 75
     0
 76
     1
 52
0.0
 41
0.5
 77
     0
 78
     1
 53
45.0
 43
-353.088219527999
 44
231.1976598478357
 45
-1.122532015133643
 46
1.122532015133644
 79
     0
 98
        1
 10
-353.088219527999
 20
231.1976598478357
  0
VIEWPORT
  5
5B0B
102
{ACAD_XDICTIONARY
360
30A2A
102
}
330
B
100
AcDbEntity
 67
     1
  8
0
 62
     0
100
AcDbViewport
 10
0.0
 20
0.0
 30
0.0
 40
1000.0
 41
1000.0
 68
     1
 69
     1
 12
0.0
 22
0.0
 13
0.0
 23
0.0
 14
1.0
 24
1.0
 15
1.0
 25
1.0
 16
0.0
 26
0.0
 36
1.0
 17
0.0
 27
0.0
 37
0.0
 42
50.0
 43
0.0
 44
0.0
 45
1000.0
 50
0.0
 51
0.0
 72
   100
 90
    32800
  1

281
     0
 71
     1
 74
     0
110
0.0
120
0.0
130
0.0
111
1.0
121
0.0
131
0.0
112
0.0
122
1.0
132
0.0
 79
     0
146
0.0
  0
ENDSEC
  0
SECTION
  2
OBJECTS
  0
DICTIONARY
  5
19
330
0
100
AcDbDictionary
281
     1
  3
ACAD_COLOR
350
5C52
  3
ACAD_GROUP
350
1A
  3
ACAD_LAYOUT
350
5C53
  3
ACAD_MATERIAL
350
5C51
  3
ACAD_MLINESTYLE
350
1B
  3
ACAD_PLOTSETTINGS
350
5C54
  3
ACAD_PLOTSTYLENAME
350
5C4F
  3
ACDBHEADERROUNDTRIPXREC
350
30A27
  3
AcDbVariableDictionary
350
C323
  0
DICTIONARY
  5
30A2A
330
5B0B
100
AcDbDictionary
280
     1
281
     1
  3
ACAD_XREC_ROUNDTRIP
360
30A2B
  0
DICTIONARY
  5
5C52
102
{ACAD_REACTORS
330
19
102
}
330
19
100
AcDbDictionary
281
     1
  0
DICTIONARY
  5
1A
102
{ACAD_REACTORS
330
19
102
}
330
19
100
AcDbDictionary
281
     1
  3
*A1
350
A88A
  3
*A10
350
3092A
  3
*A11
350
1DCB6
  3
*A12
350
FE80
  3
*A13
350
2B41F
  3
*A14
350
2B420
  3
*A15
350
1DA16
  3
*A16
350
24A8C
  3
*A17
350
249B8
  3
*A18
350
249BB
  3
*A19
350
25E93
  3
*A2
350
D552
  3
*A20
350
24AC3
  3
*A21
350
1DCF6
  3
*A22
350
2D2AD
  3
*A23
350
22D36
  3
*A24
350
2D2D2
  3
*A25
350
2DBEB
  3
*A26
350
1DD43
  3
*A27
350
1E3BE
  3
*A28
350
25E96
  3
*A29
350
ACC8
  3
*A3
350
25EFC
  3
*A30
350
C884
  3
*A31
350
C929
  3
*A4
350
24A10
  3
*A5
350
25FEB
  3
*A6
350
2B41E
  3
*A7
350
25FEC
  3
*A8
350
27BF6
  3
*A9
350
27D79
  0
DICTIONARY
  5
5C53
102
{ACAD_REACTORS
330
19
102
}
330
19
100
AcDbDictionary
281
     1
  3
Layout1
350
5C56
  3
Model
350
5C55
  0
DICTIONARY
  5
5C51
102
{ACAD_REACTORS
330
19
102
}
330
19
100
AcDbDictionary
281
     1
  0
DICTIONARY
  5
1B
102
{ACAD_REACTORS
330
19
102
}
330
19
100
AcDbDictionary
281
     1
  3
STANDARD
350
1C
  0
DICTIONARY
  5
5C54
102
{ACAD_REACTORS
330
19
102
}
330
19
100
AcDbDictionary
281
     1
  0
ACDBDICTIONARYWDFLT
  5
5C4F
102
{ACAD_REACTORS
330
19
102
}
330
19
100
AcDbDictionary
281
     1
  3
Normal
350
5C50
100
AcDbDictionaryWithDefault
340
5C50
  0
DICTIONARY
  5
30A27
102
{ACAD_REACTORS
330
19
102
}
330
19
100
AcDbDictionary
281
     1
  3
COLORDICT
350
30A29
  3
MATERIALDICT
350
30A28
  0
DICTIONARY
  5
C323
102
{ACAD_REACTORS
330
19
102
}
330
19
100
AcDbDictionary
281
     1
  3
DIMASSOC
350
C324
  3
PROJECTNAME
350
C325
  0
XRECORD
  5
30A2B
102
{ACAD_REACTORS
330
30A2A
102
}
330
30A2A
100
AcDbXrecord
280
     1
102
SHADEPLOT
 70
     0
  0
GROUP
  5
A88A
102
{ACAD_REACTORS
330
1A
102
}
330
1A
100
AcDbGroup
300

 70
     1
 71
     1
  0
GROUP
  5
3092A
102
{ACAD_REACTORS
330
1A
102
}
330
1A
100
AcDbGroup
300

 70
     1
 71
     1
340
30929
340
30928
340
2C3C7
340
2C3C5
340
2C3C4
340
2C3C3
340
2C3C2
340
2C3C1
340
2C3C0
340
2C3BF
340
2C3BE
340
2C3BD
340
2C3BC
340
2C3BB
340
2C3BA
340
2C3B9
340
2C3B8
340
2C3B7
340
2C3B6
340
2C3B5
340
2C3B4
340
2C3B3
340
2C3B2
340
2C3B1
340
2C3B0
340
2C3AF
340
2C3AE
340
2C3AD
340
2C3AC
340
2C3A9
340
2C3A8
340
2C3A7
340
2C3A6
340
2C3A5
340
2C3A4
340
2C3A3
340
2C3A2
340
2C3A1
340
2C3A0
340
2C39B
340
2C399
340
2C398
340
2C397
340
2C396
340
2C395
340
2C394
340
2C393
340
2C392
340
2C391
340
2C38F
340
2C38D
340
2C38B
340
2C389
340
2C388
340
2C386
340
2C383
340
2C382
  0
GROUP
  5
1DCB6
102
{ACAD_REACTORS
330
1A
102
}
330
1A
100
AcDbGroup
300

 70
     1
 71
     1
  0
GROUP
  5
FE80
102
{ACAD_REACTORS
330
1A
102
}
330
1A
100
AcDbGroup
300

 70
     1
 71
     1
  0
GROUP
  5
2B41F
102
{ACAD_REACTORS
330
1A
102
}
330
1A
100
AcDbGroup
300

 70
     1
 71
     1
  0
GROUP
  5
2B420
102
{ACAD_REACTORS
330
1A
102
}
330
1A
100
AcDbGroup
300

 70
     1
 71
     1
  0
GROUP
  5
1DA16
102
{ACAD_REACTORS
330
1A
102
}
330
1A
100
AcDbGroup
300

 70
     1
 71
     1
  0
GROUP
  5
24A8C
102
{ACAD_REACTORS
330
1A
102
}
330
1A
100
AcDbGroup
300

 70
     1
 71
     1
  0
GROUP
  5
249B8
102
{ACAD_REACTORS
330
1A
102
}
330
1A
100
AcDbGroup
300

 70
     1
 71
     1
  0
GROUP
  5
249BB
102
{ACAD_REACTORS
330
1A
102
}
330
1A
100
AcDbGroup
300

 70
     1
 71
     1
  0
GROUP
  5
25E93
102
{ACAD_REACTORS
330
1A
102
}
330
1A
100
AcDbGroup
300

 70
     1
 71
     1
  0
GROUP
  5
D552
102
{ACAD_REACTORS
330
1A
102
}
330
1A
100
AcDbGroup
300

 70
     1
 71
     1
  0
GROUP
  5
24AC3
102
{ACAD_REACTORS
330
1A
102
}
330
1A
100
AcDbGroup
300

 70
     1
 71
     1
  0
GROUP
  5
1DCF6
102
{ACAD_REACTORS
330
1A
102
}
330
1A
100
AcDbGroup
300

 70
     1
 71
     1
  0
GROUP
  5
2D2AD
102
{ACAD_REACTORS
330
1A
102
}
330
1A
100
AcDbGroup
300

 70
     1
 71
     1
  0
GROUP
  5
22D36
102
{ACAD_REACTORS
330
1A
102
}
330
1A
100
AcDbGroup
300

 70
     1
 71
     1
  0
GROUP
  5
2D2D2
102
{ACAD_REACTORS
330
1A
102
}
330
1A
100
AcDbGroup
300

 70
     1
 71
     1
  0
GROUP
  5
2DBEB
102
{ACAD_REACTORS
330
1A
102
}
330
1A
100
AcDbGroup
300

 70
     1
 71
     1
  0
GROUP
  5
1DD43
102
{ACAD_REACTORS
330
1A
102
}
330
1A
100
AcDbGroup
300

 70
     1
 71
     1
  0
GROUP
  5
1E3BE
102
{ACAD_REACTORS
330
1A
102
}
330
1A
100
AcDbGroup
300

 70
     1
 71
     1
  0
GROUP
  5
25E96
102
{ACAD_REACTORS
330
1A
102
}
330
1A
100
AcDbGroup
300

 70
     1
 71
     1
  0
GROUP
  5
ACC8
102
{ACAD_REACTORS
330
1A
102
}
330
1A
100
AcDbGroup
300

 70
     1
 71
     1
  0
GROUP
  5
25EFC
102
{ACAD_REACTORS
330
1A
102
}
330
1A
100
AcDbGroup
300

 70
     1
 71
     1
  0
GROUP
  5
C884
102
{ACAD_REACTORS
330
1A
102
}
330
1A
100
AcDbGroup
300

 70
     1
 71
     1
  0
GROUP
  5
C929
102
{ACAD_REACTORS
330
1A
102
}
330
1A
100
AcDbGroup
300

 70
     1
 71
     1
  0
GROUP
  5
24A10
102
{ACAD_REACTORS
330
1A
102
}
330
1A
100
AcDbGroup
300

 70
     1
 71
     1
  0
GROUP
  5
25FEB
102
{ACAD_REACTORS
330
1A
102
}
330
1A
100
AcDbGroup
300

 70
     1
 71
     1
  0
GROUP
  5
2B41E
102
{ACAD_REACTORS
330
1A
102
}
330
1A
100
AcDbGroup
300

 70
     1
 71
     1
  0
GROUP
  5
25FEC
102
{ACAD_REACTORS
330
1A
102
}
330
1A
100
AcDbGroup
300

 70
     1
 71
     1
  0
GROUP
  5
27BF6
102
{ACAD_REACTORS
330
1A
102
}
330
1A
100
AcDbGroup
300

 70
     1
 71
     1
  0
GROUP
  5
27D79
102
{ACAD_REACTORS
330
1A
102
}
330
1A
100
AcDbGroup
300

 70
     1
 71
     1
  0
LAYOUT
  5
5C56
102
{ACAD_XDICTIONARY
360
30A2E
102
}
102
{ACAD_REACTORS
330
5C53
102
}
330
5C53
100
AcDbPlotSettings
  1

  2
\\SRV203\prt101
  4

  6

 40
0.0
 41
0.0
 42
0.0
 43
0.0
 44
0.0
 45
0.0
 46
0.0
 47
0.0
 48
0.0
 49
0.0
140
0.0
141
0.0
142
1.0
143
1.0
 70
   688
 72
     0
 73
     0
 74
     5
  7

 75
    16
147
1.0
148
0.0
149
0.0
100
AcDbLayout
  1
Layout1
 70
     1
 71
     1
 10
0.0
 20
0.0
 11
420.0
 21
297.0
 12
0.0
 22
0.0
 32
0.0
 14
0.0
 24
0.0
 34
0.0
 15
221.361404
 25
334.895752
 35
2.0
146
0.0
 13
0.0
 23
0.0
 33
0.0
 16
1.0
 26
0.0
 36
0.0
 17
0.0
 27
1.0
 37
0.0
 76
     0
330
B
331
5B0B
  0
LAYOUT
  5
5C55
102
{ACAD_XDICTIONARY
360
30A2C
102
}
102
{ACAD_REACTORS
330
5C53
102
}
330
5C53
100
AcDbPlotSettings
  1

  2
\\srv203\prt133
  4
A3
  6

 40
4.233333110809326
 41
4.233341693878173
 42
4.23333740234375
 43
4.23333740234375
 44
296.9259948730469
 45
419.9466552734374
 46
38.74
 47
-11.47
 48
957.9094197769446
 49
58.4498642289218
140
1392.329263834957
141
269.4339824329281
142
1.0
143
1.0
 70
 11956
 72
     1
 73
     1
 74
     4
  7
monochrome.ctb
 75
    16
147
1.0
148
-957.9094197769446
149
-58.4498642289218
100
AcDbLayout
  1
Model
 70
     1
 71
     0
 10
0.0
 20
0.0
 11
12.0
 21
9.0
 12
0.0
 22
0.0
 32
0.0
 14
0.0
 24
0.0
 34
0.0
 15
0.0
 25
0.0
 35
0.0
146
0.0
 13
0.0
 23
0.0
 33
0.0
 16
1.0
 26
0.0
 36
0.0
 17
0.0
 27
1.0
 37
0.0
 76
     0
330
A
  0
MLINESTYLE
  5
1C
102
{ACAD_REACTORS
330
1B
102
}
330
1B
100
AcDbMlineStyle
  2
STANDARD
 70
     0
  3

 62
     0
 51
90.0
 52
90.0
 71
     2
 49
0.5
 62
   256
  6
BYLAYER
 49
-0.5
 62
   256
  6
BYLAYER
  0
ACDBPLACEHOLDER
  5
5C50
102
{ACAD_REACTORS
330
5C4F
102
}
330
5C4F
  0
XRECORD
  5
30A29
102
{ACAD_REACTORS
330
30A27
102
}
330
30A27
100
AcDbXrecord
280
     1
340
5C52
  0
XRECORD
  5
30A28
102
{ACAD_REACTORS
330
30A27
102
}
330
30A27
100
AcDbXrecord
280
     1
340
5C51
  0
DICTIONARYVAR
  5
C324
102
{ACAD_REACTORS
330
C323
102
}
330
C323
100
DictionaryVariables
280
     0
  1
1
  0
DICTIONARYVAR
  5
C325
102
{ACAD_REACTORS
330
C323
102
}
330
C323
100
DictionaryVariables
280
     0
  1

  0
DICTIONARY
  5
30A2E
330
5C56
100
AcDbDictionary
280
     1
281
     1
  3
ACAD_XREC_ROUNDTRIP
360
30A2F
  0
DICTIONARY
  5
30A2C
330
5C55
100
AcDbDictionary
280
     1
281
     1
  3
ACAD_XREC_ROUNDTRIP
360
30A2D
  0
XRECORD
  5
30A2F
102
{ACAD_REACTORS
330
30A2E
102
}
330
30A2E
100
AcDbXrecord
280
     1
102
SHADEPLOT
 70
     0
102
SHADEPLOTRESLEVEL
 70
     2
102
SHADEPLOTCUSTOMDPI
 70
   300
  0
XRECORD
  5
30A2D
102
{ACAD_REACTORS
330
30A2C
102
}
330
30A2C
100
AcDbXrecord
280
     1
102
SHADEPLOT
 70
     0
102
SHADEPLOTRESLEVEL
 70
     2
102
SHADEPLOTCUSTOMDPI
 70
   300
  0
ENDSEC
  0
EOF
