  0
SECTION
  2
HEADER
  9
$ACADVER
  1
AC1015
  9
$ACADMAINTVER
 70
     6
  9
$DWGCODEPAGE
  3
ANSI_1252
  9
$INSBASE
 10
0.0
 20
0.0
 30
0.0
  9
$EXTMIN
 10
0.0
 20
0.0
 30
0.0
  9
$EXTMAX
 10
210.0
 20
297.0
 30
0.0
  9
$LIMMIN
 10
0.0
 20
0.0
  9
$LIMMAX
 10
210.0
 20
297.0
  9
$ORTHOMODE
 70
     0
  9
$REGENMODE
 70
     1
  9
$FILLMODE
 70
     1
  9
$QTEXTMODE
 70
     0
  9
$MIRRTEXT
 70
     1
  9
$LTSCALE
 40
1.0
  9
$ATTMODE
 70
     1
  9
$TEXTSIZE
 40
2.5
  9
$TRACEWID
 40
1.0
  9
$TEXTSTYLE
  7
Standard
  9
$CLAYER
  8
0
  9
$CELTYPE
  6
ByLayer
  9
$CECOLOR
 62
   256
  9
$CELTSCALE
 40
1.0
  9
$DISPSILH
 70
     0
  9
$DIMSCALE
 40
1.0
  9
$DIMASZ
 40
2.5
  9
$DIMEXO
 40
0.625
  9
$DIMDLI
 40
3.75
  9
$DIMRND
 40
0.0
  9
$DIMDLE
 40
0.0
  9
$DIMEXE
 40
1.25
  9
$DIMTP
 40
0.0
  9
$DIMTM
 40
0.0
  9
$DIMTXT
 40
2.5
  9
$DIMCEN
 40
2.5
  9
$DIMTSZ
 40
0.0
  9
$DIMTOL
 70
     0
  9
$DIMLIM
 70
     0
  9
$DIMTIH
 70
     0
  9
$DIMTOH
 70
     0
  9
$DIMSE1
 70
     0
  9
$DIMSE2
 70
     0
  9
$DIMTAD
 70
     1
  9
$DIMZIN
 70
     8
  9
$DIMBLK
  1

  9
$DIMASO
 70
     1
  9
$DIMSHO
 70
     1
  9
$DIMPOST
  1

  9
$DIMAPOST
  1

  9
$DIMALT
 70
     0
  9
$DIMALTD
 70
     3
  9
$DIMALTF
 40
0.0393700787
  9
$DIMLFAC
 40
1.0
  9
$DIMTOFL
 70
     1
  9
$DIMTVP
 40
0.0
  9
$DIMTIX
 70
     0
  9
$DIMSOXD
 70
     0
  9
$DIMSAH
 70
     0
  9
$DIMBLK1
  1

  9
$DIMBLK2
  1

  9
$DIMSTYLE
  2
ISO-25
  9
$DIMCLRD
 70
     0
  9
$DIMCLRE
 70
     0
  9
$DIMCLRT
 70
     0
  9
$DIMTFAC
 40
1.0
  9
$DIMGAP
 40
0.625
  9
$DIMJUST
 70
     0
  9
$DIMSD1
 70
     0
  9
$DIMSD2
 70
     0
  9
$DIMTOLJ
 70
     0
  9
$DIMTZIN
 70
     8
  9
$DIMALTZ
 70
     0
  9
$DIMALTTZ
 70
     0
  9
$DIMUPT
 70
     0
  9
$DIMDEC
 70
     2
  9
$DIMTDEC
 70
     2
  9
$DIMALTU
 70
     2
  9
$DIMALTTD
 70
     3
  9
$DIMTXSTY
  7
Standard
  9
$DIMAUNIT
 70
     0
  9
$DIMADEC
 70
     0
  9
$DIMALTRND
 40
0.0
  9
$DIMAZIN
 70
     0
  9
$DIMDSEP
 70
    44
  9
$DIMATFIT
 70
     3
  9
$DIMFRAC
 70
     0
  9
$DIMLDRBLK
  1

  9
$DIMLUNIT
 70
     2
  9
$DIMLWD
 70
    -2
  9
$DIMLWE
 70
    -2
  9
$DIMTMOVE
 70
     0
  9
$LUNITS
 70
     2
  9
$LUPREC
 70
     4
  9
$SKETCHINC
 40
1.0
  9
$FILLETRAD
 40
10.0
  9
$AUNITS
 70
     0
  9
$AUPREC
 70
     0
  9
$MENU
  1
.
  9
$ELEVATION
 40
0.0
  9
$PELEVATION
 40
0.0
  9
$THICKNESS
 40
0.0
  9
$LIMCHECK
 70
     0
  9
$CHAMFERA
 40
10.0
  9
$CHAMFERB
 40
10.0
  9
$CHAMFERC
 40
20.0
  9
$CHAMFERD
 40
0.0
  9
$SKPOLY
 70
     0
  9
$TDCREATE
 40
2455327.444108739
  9
$TDUCREATE
 40
2455327.360775405
  9
$TDUPDATE
 40
2455327.44410875
  9
$TDUUPDATE
 40
2455327.360775417
  9
$TDINDWG
 40
0.0000000116
  9
$TDUSRTIMER
 40
0.0000000116
  9
$USRTIMER
 70
     1
  9
$ANGBASE
 50
0.0
  9
$ANGDIR
 70
     0
  9
$PDMODE
 70
     0
  9
$PDSIZE
 40
0.0
  9
$PLINEWID
 40
0.0
  9
$SPLFRAME
 70
     0
  9
$SPLINETYPE
 70
     6
  9
$SPLINESEGS
 70
     8
  9
$HANDSEED
  5
EF
  9
$SURFTAB1
 70
     6
  9
$SURFTAB2
 70
     6
  9
$SURFTYPE
 70
     6
  9
$SURFU
 70
     6
  9
$SURFV
 70
     6
  9
$UCSBASE
  2

  9
$UCSNAME
  2

  9
$UCSORG
 10
0.0
 20
0.0
 30
0.0
  9
$UCSXDIR
 10
1.0
 20
0.0
 30
0.0
  9
$UCSYDIR
 10
0.0
 20
1.0
 30
0.0
  9
$UCSORTHOREF
  2

  9
$UCSORTHOVIEW
 70
     0
  9
$UCSORGTOP
 10
0.0
 20
0.0
 30
0.0
  9
$UCSORGBOTTOM
 10
0.0
 20
0.0
 30
0.0
  9
$UCSORGLEFT
 10
0.0
 20
0.0
 30
0.0
  9
$UCSORGRIGHT
 10
0.0
 20
0.0
 30
0.0
  9
$UCSORGFRONT
 10
0.0
 20
0.0
 30
0.0
  9
$UCSORGBACK
 10
0.0
 20
0.0
 30
0.0
  9
$PUCSBASE
  2

  9
$PUCSNAME
  2

  9
$PUCSORG
 10
0.0
 20
0.0
 30
0.0
  9
$PUCSXDIR
 10
1.0
 20
0.0
 30
0.0
  9
$PUCSYDIR
 10
0.0
 20
1.0
 30
0.0
  9
$PUCSORTHOREF
  2

  9
$PUCSORTHOVIEW
 70
     0
  9
$PUCSORGTOP
 10
0.0
 20
0.0
 30
0.0
  9
$PUCSORGBOTTOM
 10
0.0
 20
0.0
 30
0.0
  9
$PUCSORGLEFT
 10
0.0
 20
0.0
 30
0.0
  9
$PUCSORGRIGHT
 10
0.0
 20
0.0
 30
0.0
  9
$PUCSORGFRONT
 10
0.0
 20
0.0
 30
0.0
  9
$PUCSORGBACK
 10
0.0
 20
0.0
 30
0.0
  9
$USERI1
 70
     0
  9
$USERI2
 70
     0
  9
$USERI3
 70
     0
  9
$USERI4
 70
     0
  9
$USERI5
 70
     0
  9
$USERR1
 40
0.0
  9
$USERR2
 40
0.0
  9
$USERR3
 40
0.0
  9
$USERR4
 40
0.0
  9
$USERR5
 40
0.0
  9
$WORLDVIEW
 70
     1
  9
$SHADEDGE
 70
     3
  9
$SHADEDIF
 70
    70
  9
$TILEMODE
 70
     1
  9
$MAXACTVP
 70
    64
  9
$PINSBASE
 10
0.0
 20
0.0
 30
0.0
  9
$PLIMCHECK
 70
     0
  9
$PEXTMIN
 10
0.0
 20
0.0
 30
0.0
  9
$PEXTMAX
 10
210.0
 20
297.0
 30
0.0
  9
$PLIMMIN
 10
0.0
 20
0.0
  9
$PLIMMAX
 10
210.0
 20
297.0
  9
$UNITMODE
 70
     0
  9
$VISRETAIN
 70
     1
  9
$PLINEGEN
 70
     0
  9
$PSLTSCALE
 70
     1
  9
$TREEDEPTH
 70
  3020
  9
$CMLSTYLE
  2
Standard
  9
$CMLJUST
 70
     0
  9
$CMLSCALE
 40
20.0
  9
$PROXYGRAPHICS
 70
     1
  9
$MEASUREMENT
 70
     1
  9
$CELWEIGHT
370
    -1
  9
$ENDCAPS
280
     0
  9
$JOINSTYLE
280
     0
  9
$LWDISPLAY
290
     0
  9
$INSUNITS
 70
     4
  9
$HYPERLINKBASE
  1

  9
$STYLESHEET
  1

  9
$XEDIT
290
     1
  9
$CEPSNTYPE
380
     0
  9
$PSTYLEMODE
290
     1
  9
$FINGERPRINTGUID
  2
{CAD4DAD9-34CE-4F73-B6BA-281274E81E57}
  9
$VERSIONGUID
  2
{FAEB1C32-E019-11D5-929B-00C0DF256EC4}
  9
$EXTNAMES
290
     1
  9
$PSVPSCALE
 40
0.0
  9
$OLESTARTUP
290
     0
  0
ENDSEC
  0
SECTION
  2
CLASSES
  0
CLASS
  1
ACDBDICTIONARYWDFLT
  2
AcDbDictionaryWithDefault
  3
ObjectDBX Classes
 90
        0
280
     0
281
     0
  0
CLASS
  1
VISUALSTYLE
  2
AcDbVisualStyle
  3
ObjectDBX Classes
 90
     4095
280
     0
281
     0
  0
CLASS
  1
SCALE
  2
AcDbScale
  3
ObjectDBX Classes
 90
     1153
280
     0
281
     0
  0
CLASS
  1
DICTIONARYVAR
  2
AcDbDictionaryVar
  3
ObjectDBX Classes
 90
        0
280
     0
281
     0
  0
CLASS
  1
ACDBPLACEHOLDER
  2
AcDbPlaceHolder
  3
ObjectDBX Classes
 90
        0
280
     0
281
     0
  0
CLASS
  1
LAYOUT
  2
AcDbLayout
  3
ObjectDBX Classes
 90
        0
280
     0
281
     0
  0
ENDSEC
  0
SECTION
  2
TABLES
  0
TABLE
  2
VPORT
  5
8
330
0
100
AcDbSymbolTable
 70
     1
  0
VPORT
  5
29
330
8
100
AcDbSymbolTableRecord
100
AcDbViewportTableRecord
  2
*Active
 70
     0
 10
0.0
 20
0.0
 11
1.0
 21
1.0
 12
344.1869158879
 22
148.5
 13
0.0
 23
0.0
 14
10.0
 24
10.0
 15
10.0
 25
10.0
 16
0.0
 26
0.0
 36
1.0
 17
0.0
 27
0.0
 37
0.0
 40
297.0
 41
1.9729729729
 42
50.0
 43
0.0
 44
0.0
 50
0.0
 51
0.0
 71
     0
 72
   100
 73
     1
 74
     3
 75
     0
 76
     0
 77
     0
 78
     0
281
     0
 65
     1
110
0.0
120
0.0
130
0.0
111
1.0
121
0.0
131
0.0
112
0.0
122
1.0
132
0.0
 79
     0
146
0.0
  0
ENDTAB
  0
TABLE
  2
LTYPE
  5
5
330
0
100
AcDbSymbolTable
 70
     2
  0
LTYPE
  5
14
330
5
100
AcDbSymbolTableRecord
100
AcDbLinetypeTableRecord
  2
ByBlock
 70
     0
  3

 72
    65
 73
     0
 40
0.0
  0
LTYPE
  5
15
330
5
100
AcDbSymbolTableRecord
100
AcDbLinetypeTableRecord
  2
ByLayer
 70
     0
  3

 72
    65
 73
     0
 40
0.0
  0
LTYPE
  5
16
330
5
100
AcDbSymbolTableRecord
100
AcDbLinetypeTableRecord
  2
Continuous
 70
     0
  3
Solid line
 72
    65
 73
     0
 40
0.0
  0
LTYPE
  5
78
330
5
100
AcDbSymbolTableRecord
100
AcDbLinetypeTableRecord
  2
CENTER2
 70
     0
  3
Center (.5x) ___ _ ___ _ ___ _ ___ _ ___ _ ___
 72
    65
 73
     4
 40
28.575
 49
19.05
 74
     4
 75
     0
340
0
 46
0.0
 50
0.0
 44
0.0
 45
0.0
 49
-3.175
 74
     4
 75
     0
340
0
 46
0.0
 50
0.0
 44
0.0
 45
0.0
 49
3.175
 74
     4
 75
     0
340
0
 46
0.0
 50
0.0
 44
0.0
 45
0.0
 49
-3.175
 74
     4
 75
     0
340
0
 46
0.0
 50
0.0
 44
0.0
 45
0.0
  0
ENDTAB
  0
TABLE
  2
LAYER
  5
2
330
0
100
AcDbSymbolTable
 70
     4
  0
LAYER
  5
10
330
2
100
AcDbSymbolTableRecord
100
AcDbLayerTableRecord
  2
0
 70
     0
 62
     7
  6
Continuous
370
    -3
390
F
  0
LAYER
  5
5F
330
2
100
AcDbSymbolTableRecord
100
AcDbLayerTableRecord
  2
Default
 70
     0
 62
     7
  6
Continuous
370
    -3
390
F
  0
LAYER
  5
62
330
2
100
AcDbSymbolTableRecord
100
AcDbLayerTableRecord
  2
MEGA_001166
 70
     0
 62
     7
  6
Continuous
370
    -3
390
F
  0
LAYER
  5
77
330
2
100
AcDbSymbolTableRecord
100
AcDbLayerTableRecord
  2
DV1_Standard
 70
     0
 62
     7
  6
Continuous
370
    -3
390
F
  0
ENDTAB
  0
TABLE
  2
STYLE
  5
3
330
0
100
AcDbSymbolTable
 70
     3
  0
STYLE
  5
11
330
3
100
AcDbSymbolTableRecord
100
AcDbTextStyleTableRecord
  2
Standard
 70
     0
 40
0.0
 41
1.0
 50
0.0
 71
     0
 42
2.5
  3
txt
  4

  0
STYLE
  5
5D
330
3
100
AcDbSymbolTableRecord
100
AcDbTextStyleTableRecord
  2
SEACAD_seiso_ttf
 70
     0
 40
0.0
 41
1.0
 50
0.0
 71
     0
 42
0.2
  3
seiso.ttf
  4

  0
STYLE
  5
A9
330
3
100
AcDbSymbolTableRecord
100
AcDbTextStyleTableRecord
  2
SEACAD_semeci1_ttf
 70
     0
 40
0.0
 41
1.0
 50
0.0
 71
     0
 42
0.2
  3
semeci1.ttf
  4

  0
ENDTAB
  0
TABLE
  2
VIEW
  5
6
330
0
100
AcDbSymbolTable
 70
     0
  0
ENDTAB
  0
TABLE
  2
UCS
  5
7
330
0
100
AcDbSymbolTable
 70
     0
  0
ENDTAB
  0
TABLE
  2
APPID
  5
9
330
0
100
AcDbSymbolTable
 70
     1
  0
APPID
  5
12
330
9
100
AcDbSymbolTableRecord
100
AcDbRegAppTableRecord
  2
ACAD
 70
     0
  0
ENDTAB
  0
TABLE
  2
DIMSTYLE
  5
A
330
0
100
AcDbSymbolTable
 70
     3
100
AcDbDimStyleTable
  0
DIMSTYLE
105
27
330
A
100
AcDbSymbolTableRecord
100
AcDbDimStyleTableRecord
  2
ISO-25
 70
     0
 41
2.5
 42
0.625
 43
3.75
 44
1.25
 73
     0
 74
     0
 77
     1
 78
     8
140
2.5
141
2.5
143
0.0393700787
147
0.625
171
     3
172
     1
271
     2
272
     2
274
     3
278
    44
283
     0
284
     8
340
11
  0
DIMSTYLE
105
81
330
A
100
AcDbSymbolTableRecord
100
AcDbDimStyleTableRecord
  2
Standard
 70
     0
340
11
  0
DIMSTYLE
105
93
102
{ACAD_REACTORS
330
94
330
9E
330
A8
330
B4
330
BE
330
C8
330
D3
330
DE
102
}
330
A
100
AcDbSymbolTableRecord
100
AcDbDimStyleTableRecord
  2
DIN
 70
     0
 41
3.0
 42
0.0
 44
1.5
 73
     0
 74
     0
 77
     1
 78
     8
140
3.0
141
1.5
147
1.5
172
     1
173
     1
271
     2
272
     2
278
    44
284
     8
340
5D
343
8E
344
8E
  0
ENDTAB
  0
TABLE
  2
BLOCK_RECORD
  5
1
330
0
100
AcDbSymbolTable
 70
    13
  0
BLOCK_RECORD
  5
1F
330
1
100
AcDbSymbolTableRecord
100
AcDbBlockTableRecord
  2
*Model_Space
340
22
  0
BLOCK_RECORD
  5
1B
330
1
100
AcDbSymbolTableRecord
100
AcDbBlockTableRecord
  2
*Paper_Space
340
1E
  0
BLOCK_RECORD
  5
60
330
1
100
AcDbSymbolTableRecord
100
AcDbBlockTableRecord
  2
SE
340
0
102
{BLKREFS
331
61
102
}
  0
BLOCK_RECORD
  5
82
330
1
100
AcDbSymbolTableRecord
100
AcDbBlockTableRecord
  2
_OBLIQUE
340
0
  0
BLOCK_RECORD
  5
86
330
1
100
AcDbSymbolTableRecord
100
AcDbBlockTableRecord
  2
_DOT
340
0
  0
BLOCK_RECORD
  5
8E
330
1
100
AcDbSymbolTableRecord
100
AcDbBlockTableRecord
  2
_SE_FILLED
340
0
  0
BLOCK_RECORD
  5
95
330
1
100
AcDbSymbolTableRecord
100
AcDbBlockTableRecord
  2
DMBLK89
340
0
  0
BLOCK_RECORD
  5
9F
330
1
100
AcDbSymbolTableRecord
100
AcDbBlockTableRecord
  2
DMBLK90
340
0
  0
BLOCK_RECORD
  5
AA
330
1
100
AcDbSymbolTableRecord
100
AcDbBlockTableRecord
  2
DMBLK91
340
0
  0
BLOCK_RECORD
  5
B5
330
1
100
AcDbSymbolTableRecord
100
AcDbBlockTableRecord
  2
DMBLK92
340
0
  0
BLOCK_RECORD
  5
BF
330
1
100
AcDbSymbolTableRecord
100
AcDbBlockTableRecord
  2
DMBLK93
340
0
  0
BLOCK_RECORD
  5
C9
330
1
100
AcDbSymbolTableRecord
100
AcDbBlockTableRecord
  2
DMBLK94
340
0
  0
BLOCK_RECORD
  5
D4
330
1
100
AcDbSymbolTableRecord
100
AcDbBlockTableRecord
  2
DMBLK95
340
0
  0
BLOCK_RECORD
  5
DF
330
1
100
AcDbSymbolTableRecord
100
AcDbBlockTableRecord
  2
DMBLK96
340
0
  0
ENDTAB
  0
ENDSEC
  0
SECTION
  2
BLOCKS
  0
BLOCK
  5
20
330
1F
100
AcDbEntity
  8
0
100
AcDbBlockBegin
  2
*Model_Space
 70
     0
 10
0.0
 20
0.0
 30
0.0
  3
*Model_Space
  1

  0
ENDBLK
  5
21
330
1F
100
AcDbEntity
  8
0
100
AcDbBlockEnd
  0
BLOCK
  5
1C
330
1B
100
AcDbEntity
 67
     1
  8
0
100
AcDbBlockBegin
  2
*Paper_Space
 70
     0
 10
0.0
 20
0.0
 30
0.0
  3
*Paper_Space
  1

  0
ENDBLK
  5
1D
330
1B
100
AcDbEntity
 67
     1
  8
0
100
AcDbBlockEnd
  0
BLOCK
  5
7F
330
60
100
AcDbEntity
  8
0
100
AcDbBlockBegin
  2
SE
 70
     0
 10
0.0
 20
0.0
 30
0.0
  3
SE
  1

  0
LINE
  5
63
330
60
100
AcDbEntity
  8
MEGA_001166
  6
Continuous
 62
     7
100
AcDbLine
 10
76.8100455221
 20
227.5776893433
 30
0.0
 11
56.8100455221
 21
227.5776893433
 31
0.0
  0
LINE
  5
64
330
60
100
AcDbEntity
  8
MEGA_001166
  6
Continuous
 62
     7
100
AcDbLine
 10
170.8400455221
 20
207.5776893433
 30
0.0
 11
184.8400450848
 21
207.5776893433
 31
0.0
  0
LINE
  5
65
330
60
100
AcDbEntity
  8
MEGA_001166
  6
Continuous
 62
     7
100
AcDbLine
 10
74.8100455221
 20
236.5776893433
 30
0.0
 11
58.8100455221
 21
236.5776893433
 31
0.0
  0
LINE
  5
66
330
60
100
AcDbEntity
  8
MEGA_001166
  6
Continuous
 62
     7
100
AcDbLine
 10
74.3100455221
 20
237.0776893433
 30
0.0
 11
59.3100455221
 21
237.0776893433
 31
0.0
  0
ARC
  5
67
330
60
100
AcDbEntity
  8
MEGA_001166
  6
Continuous
 62
     7
100
AcDbCircle
 10
46.8384492581
 20
222.3027734548
 30
0.0
 40
10.35904662828319
100
AcDbArc
 50
347.8313621573
 51
15.2996531973
  0
ARC
  5
68
330
60
100
AcDbEntity
  8
MEGA_001166
  6
Continuous
 62
     7
100
AcDbCircle
 10
-362.2769027306
 20
193.3096367827
 30
0.0
 40
420.1086292435888
100
AcDbArc
 50
0.582100886
 51
3.6600919073
  0
LINE
  5
69
330
60
100
AcDbEntity
  8
MEGA_001166
  6
Continuous
 62
     7
100
AcDbLine
 10
56.8100455221
 20
227.5776893433
 30
0.0
 11
56.8477725432
 21
225.0311154165
 31
0.0
  0
SPLINE
  5
6A
330
60
100
AcDbEntity
  8
MEGA_001166
  6
Continuous
 62
     7
100
AcDbSpline
210
0.0
220
0.0
230
1.0
 70
     8
 71
     3
 72
    13
 73
     9
 74
     0
 42
0.0000000003331003
 43
0.0000000001
 40
0.0
 40
0.0
 40
0.0
 40
0.0
 40
0.1665764687217585
 40
0.3332488587491111
 40
0.5000000000000003
 40
0.6667511412508895
 40
0.8334235312782418
 40
1.0
 40
1.0
 40
1.0
 40
1.0
 10
75.81004552210226
 20
197.5776893432818
 30
0.0
 10
75.82703065321449
 20
199.4111451809985
 30
0.0
 10
75.85779987081405
 20
202.5023284142773
 30
0.0
 10
76.06206793417181
 20
207.5981622692943
 30
0.0
 10
76.31004552210226
 20
212.5776893432818
 30
0.0
 10
76.5580231100327
 20
217.5572164172694
 30
0.0
 10
76.76229117339045
 20
222.6530502722863
 30
0.0
 10
76.79306039099002
 20
225.7442335055652
 30
0.0
 10
76.81004552210226
 20
227.5776893432818
 30
0.0
  0
ARC
  5
6B
330
60
100
AcDbEntity
  8
MEGA_001166
  6
Continuous
 62
     7
100
AcDbCircle
 10
85.9361186147
 20
197.7037624359
 30
0.0
 40
28.12635564797606
100
AcDbArc
 50
180.2568224763
 51
269.7431775237
  0
ARC
  5
6C
330
60
100
AcDbEntity
  8
MEGA_001166
  6
Continuous
 62
     7
100
AcDbCircle
 10
85.6729508787
 20
197.4405946998
 30
0.0
 40
9.863858120101318
100
AcDbArc
 50
179.2036384461
 51
270.7963615539
  0
LINE
  5
6D
330
60
100
AcDbEntity
  8
MEGA_001166
  6
Continuous
 62
     7
100
AcDbLine
 10
158.8400455221
 20
187.5776893433
 30
0.0
 11
85.8100455221
 21
187.5776893433
 31
0.0
  0
LINE
  5
6E
330
60
100
AcDbEntity
  8
MEGA_001166
  6
Continuous
 62
     7
100
AcDbLine
 10
85.8100455221
 20
169.5776893433
 30
0.0
 11
158.8400455221
 21
169.5776893433
 31
0.0
  0
SPLINE
  5
6F
330
60
100
AcDbEntity
  8
MEGA_001166
  6
Continuous
 62
     7
100
AcDbSpline
210
0.0
220
0.0
230
1.0
 70
     8
 71
     3
 72
    39
 73
    35
 74
     0
 42
0.0000000001924306
 43
0.0000000001
 40
0.0
 40
0.0
 40
0.0
 40
0.0
 40
0.0413444967378295
 40
0.082907203689453
 40
0.1234903677418745
 40
0.1621873193299268
 40
0.1987373797705703
 40
0.2332669848017264
 40
0.2658827515127151
 40
0.2966632745875691
 40
0.3296339916570167
 40
0.3602530464281695
 40
0.3885191825729992
 40
0.4144317790248838
 40
0.4379914974474259
 40
0.4592040360340705
 40
0.4793125946152013
 40
0.4991966514737841
 40
0.5214654346647036
 40
0.5461400085117156
 40
0.5732496497983564
 40
0.6028030330521029
 40
0.6347428790982989
 40
0.668967670943917
 40
0.705330337112007
 40
0.7337754252828906
 40
0.7632939739584673
 40
0.7938344637572357
 40
0.824377866902892
 40
0.8527755781876312
 40
0.8788377124078108
 40
0.919220205106066
 40
0.9606813890097182
 40
1.0
 40
1.0
 40
1.0
 40
1.0
 10
158.8400455221022
 20
169.5776893432818
 30
0.0
 10
159.6272293192366
 20
169.5967648358468
 30
0.0
 10
160.9584774597103
 20
169.6357134171885
 30
0.0
 10
163.1240893907426
 20
169.9101737357244
 30
0.0
 10
165.167994612586
 20
170.3103449644697
 30
0.0
 10
167.1083839835017
 20
170.8345913645555
 30
0.0
 10
168.9048578746138
 20
171.4576038203864
 30
0.0
 10
170.5597780971842
 20
172.157355258029
 30
0.0
 10
172.0776573723403
 20
172.9150778619455
 30
0.0
 10
173.5244270677354
 20
173.747975480273
 30
0.0
 10
174.8904738427326
 20
174.6463030757791
 30
0.0
 10
176.1662071604713
 20
175.5973535944616
 30
0.0
 10
177.294247238514
 20
176.53811787659
 30
0.0
 10
178.2836778830649
 20
177.4513606873122
 30
0.0
 10
179.14402160382
 20
178.3222954757163
 30
0.0
 10
179.8995756748602
 20
179.1539650993213
 30
0.0
 10
180.5815883040715
 20
179.9653461080249
 30
0.0
 10
181.2441812672196
 20
180.8159573750301
 30
0.0
 10
181.9191153992709
 20
181.7561530448675
 30
0.0
 10
182.6210246053321
 20
182.8296317213939
 30
0.0
 10
183.334562390797
 20
184.0444332414804
 30
0.0
 10
184.0418987009994
 20
185.4065176142537
 30
0.0
 10
184.7231632021815
 20
186.9182704241011
 30
0.0
 10
185.3549388567775
 20
188.5783738415263
 30
0.0
 10
185.8604426429297
 20
190.2182562980035
 30
0.0
 10
186.244572134689
 20
191.8063551405044
 30
0.0
 10
186.521770999986
 20
193.3143434129643
 30
0.0
 10
186.7121440301148
 20
194.8722547653462
 30
0.0
 10
186.8197242011332
 20
196.4185609380139
 30
0.0
 10
186.8536647579265
 20
197.8898542499357
 30
0.0
 10
186.8402745062456
 20
199.5337426948199
 30
0.0
 10
186.8402944610743
 20
201.3915119305952
 30
0.0
 10
186.8399850464666
 20
203.5317850730427
 30
0.0
 10
186.8400290905356
 20
204.8288578885367
 30
0.0
 10
186.8400455221023
 20
205.5776893432818
 30
0.0
  0
SPLINE
  5
70
330
60
100
AcDbEntity
  8
MEGA_001166
  6
Continuous
 62
     7
100
AcDbSpline
210
0.0
220
0.0
230
1.0
 70
     8
 71
     3
 72
    33
 73
    29
 74
     0
 42
0.0000000004209768
 43
0.0000000001
 40
0.0
 40
0.0
 40
0.0
 40
0.0
 40
0.0766202369194218
 40
0.158487156957571
 40
0.2346346368386261
 40
0.2757396206596436
 40
0.3130901489552954
 40
0.3439794785345007
 40
0.3688048092282819
 40
0.4063536712212738
 40
0.439702202095488
 40
0.4693974842258669
 40
0.4957901299336642
 40
0.5192596075445363
 40
0.5370032785355634
 40
0.557423321478307
 40
0.5821941884994457
 40
0.6113986261191552
 40
0.6450307399352992
 40
0.6830006436573297
 40
0.7252180310094388
 40
0.7716763087249837
 40
0.8222598992857714
 40
0.8623194888615382
 40
0.9033693152596521
 40
0.931910227116087
 40
0.9633728137602634
 40
1.0
 40
1.0
 40
1.0
 40
1.0
 10
168.8400455221023
 20
205.5776893432818
 30
0.0
 10
168.8400455221023
 20
204.9108514955741
 30
0.0
 10
168.8400979689976
 20
203.7478015900653
 30
0.0
 10
168.8398543978542
 20
201.8532522612104
 30
0.0
 10
168.8407577882502
 20
200.2867183144424
 30
0.0
 10
168.8434587989613
 20
199.0622879546438
 30
0.0
 10
168.8485475323007
 20
198.1974006972935
 30
0.0
 10
168.8417118361998
 20
197.4609710182283
 30
0.0
 10
168.8084932034735
 20
196.7236388045604
 30
0.0
 10
168.7239178280197
 20
195.9699923416962
 30
0.0
 10
168.5693285114903
 20
195.1884785602674
 30
0.0
 10
168.3826126172814
 20
194.5053550942224
 30
0.0
 10
168.1755715177978
 20
193.910441401764
 30
0.0
 10
167.96803615501
 20
193.4170914474884
 30
0.0
 10
167.7555022882493
 20
192.9780325556691
 30
0.0
 10
167.5171278880202
 20
192.5406176589358
 30
0.0
 10
167.2072942043915
 20
192.039743322185
 30
0.0
 10
166.8055290290069
 20
191.4742503313339
 30
0.0
 10
166.2968858496272
 20
190.8588573400098
 30
0.0
 10
165.6661313783456
 20
190.2144194875843
 30
0.0
 10
164.8989254642914
 20
189.5672728394063
 30
0.0
 10
163.985399442341
 20
188.9473794374655
 30
0.0
 10
163.021102055879
 20
188.444513443169
 30
0.0
 10
162.0516941307519
 20
188.06016828765
 30
0.0
 10
161.2158955234427
 20
187.816789186979
 30
0.0
 10
160.4328978259942
 20
187.6687605690763
 30
0.0
 10
159.6573220077166
 20
187.5901545327142
 30
0.0
 10
159.1587991390937
 20
187.581122297869
 30
0.0
 10
158.8400455221022
 20
187.5776893432818
 30
0.0
  0
ARC
  5
71
330
60
100
AcDbEntity
  8
MEGA_001166
  6
Continuous
 62
     7
100
AcDbCircle
 10
184.8400323625
 20
205.5776893431
 30
0.0
 40
2.00000000017502
100
AcDbArc
 50
359.9986719065
 51
90.0007542497
  0
ARC
  5
72
330
60
100
AcDbEntity
  8
MEGA_001166
  6
Continuous
 62
     7
100
AcDbCircle
 10
170.8400669552
 20
205.5776893393
 30
0.0
 40
2.000000004013625
100
AcDbArc
 50
89.9987714388
 51
180.0187536686
  0
LINE
  5
73
330
60
100
AcDbEntity
  8
MEGA_001166
  6
Continuous
 62
     7
100
AcDbLine
 10
74.8100455221
 20
227.5776893433
 30
0.0
 11
74.8100455221
 21
236.5776893433
 31
0.0
  0
LINE
  5
74
330
60
100
AcDbEntity
  8
MEGA_001166
  6
Continuous
 62
     7
100
AcDbLine
 10
58.8100455221
 20
236.5776893433
 30
0.0
 11
58.8100455221
 21
227.5776893433
 31
0.0
  0
LINE
  5
75
330
60
100
AcDbEntity
  8
MEGA_001166
  6
Continuous
 62
     7
100
AcDbLine
 10
74.8100455221
 20
236.5776893433
 30
0.0
 11
74.3100455221
 21
237.0776893433
 31
0.0
  0
LINE
  5
76
330
60
100
AcDbEntity
  8
MEGA_001166
  6
Continuous
 62
     7
100
AcDbLine
 10
59.3100455221
 20
237.0776893433
 30
0.0
 11
58.8100455221
 21
236.5776893433
 31
0.0
  0
LINE
  5
79
330
60
100
AcDbEntity
  8
DV1_Standard
  6
CENTER2
 62
     7
100
AcDbLine
 10
66.8100455221
 20
239.7775623002
 30
0.0
 11
66.8100455221
 21
197.5776893433
 31
0.0
  0
LINE
  5
7A
330
60
100
AcDbEntity
  8
DV1_Standard
  6
CENTER2
 62
     7
100
AcDbLine
 10
177.8400453034
 20
210.2987579368
 30
0.0
 11
177.8400453034
 21
197.5776893433
 31
0.0
  0
LINE
  5
7B
330
60
100
AcDbEntity
  8
DV1_Standard
  6
CENTER2
 62
     7
100
AcDbLine
 10
85.8100455221
 20
178.5776893433
 30
0.0
 11
158.8400453034
 21
178.5776893433
 31
0.0
  0
ARC
  5
7C
330
60
100
AcDbEntity
  8
DV1_Standard
  6
CENTER2
 62
     7
100
AcDbCircle
 10
85.8100455221
 20
197.5776893433
 30
0.0
 40
19.0
100
AcDbArc
 50
180.0
 51
270.0
  0
ARC
  5
7D
330
60
100
AcDbEntity
  8
DV1_Standard
  6
CENTER2
 62
     7
100
AcDbCircle
 10
158.8400453034
 20
197.5776893433
 30
0.0
 40
19.0
100
AcDbArc
 50
270.0
 51
0.0
  0
LINE
  5
7E
330
60
100
AcDbEntity
  8
DV1_Standard
  6
Continuous
 62
     7
100
AcDbLine
 10
76.8100455221
 20
227.5776893433
 30
0.0
 11
76.2307854668
 21
210.9806432708
 31
0.0
  0
ENDBLK
  5
80
330
60
100
AcDbEntity
  8
0
100
AcDbBlockEnd
  0
BLOCK
  5
83
330
82
100
AcDbEntity
  8
0
100
AcDbBlockBegin
  2
_OBLIQUE
 70
     0
 10
0.0
 20
0.0
 30
0.0
  3
_OBLIQUE
  1

  0
LINE
  5
85
330
82
100
AcDbEntity
  8
0
  6
ByBlock
 62
     0
370
    -2
100
AcDbLine
 10
-0.5
 20
-0.5
 30
0.0
 11
0.5
 21
0.5
 31
0.0
  0
ENDBLK
  5
84
330
82
100
AcDbEntity
  8
0
100
AcDbBlockEnd
  0
BLOCK
  5
87
330
86
100
AcDbEntity
  8
0
100
AcDbBlockBegin
  2
_DOT
 70
     0
 10
0.0
 20
0.0
 30
0.0
  3
_DOT
  1

  0
POLYLINE
  5
89
330
86
100
AcDbEntity
  8
0
  6
ByBlock
 62
     0
100
AcDb2dPolyline
 66
     1
 10
0.0
 20
0.0
 30
0.0
 70
     1
 40
0.5
 41
0.5
  0
VERTEX
  5
8C
330
89
100
AcDbEntity
  8
0
  6
ByBlock
 62
     0
100
AcDbVertex
100
AcDb2dVertex
 10
-0.25
 20
0.0
 30
0.0
 42
1.0
  0
VERTEX
  5
8D
330
89
100
AcDbEntity
  8
0
  6
ByBlock
 62
     0
100
AcDbVertex
100
AcDb2dVertex
 10
0.25
 20
0.0
 30
0.0
 42
1.0
  0
SEQEND
  5
8B
330
89
100
AcDbEntity
  8
0
  6
ByBlock
 62
     0
  0
LINE
  5
8A
330
86
100
AcDbEntity
  8
0
  6
ByBlock
 62
     0
370
    -2
100
AcDbLine
 10
-0.5
 20
0.0
 30
0.0
 11
-1.0
 21
0.0
 31
0.0
  0
ENDBLK
  5
88
330
86
100
AcDbEntity
  8
0
100
AcDbBlockEnd
  0
BLOCK
  5
91
330
8E
100
AcDbEntity
  8
0
100
AcDbBlockBegin
  2
_SE_FILLED
 70
     0
 10
0.0
 20
0.0
 30
0.0
  3
_SE_FILLED
  1

  0
SOLID
  5
8F
330
8E
100
AcDbEntity
  8
0
 62
     0
100
AcDbTrace
 10
0.0
 20
0.0
 30
0.0
 11
-1.0
 21
-0.1665
 31
0.0
 12
-1.0
 22
0.1665
 32
0.0
 13
0.0
 23
0.0
 33
0.0
  0
LINE
  5
90
330
8E
100
AcDbEntity
  8
0
 62
     0
100
AcDbLine
 10
0.0
 20
0.0
 30
0.0
 11
-1.0
 21
0.0
 31
0.0
  0
ENDBLK
  5
92
330
8E
100
AcDbEntity
  8
0
100
AcDbBlockEnd
  0
BLOCK
  5
9C
330
95
100
AcDbEntity
  8
0
100
AcDbBlockBegin
  2
DMBLK89
 70
     0
 10
0.0
 20
0.0
 30
0.0
  3
DMBLK89
  1

  0
HATCH
  5
96
330
95
100
AcDbEntity
  8
Default
  6
Continuous
 62
     7
100
AcDbHatch
 10
0.0
 20
0.0
 30
0.0
210
0.0
220
0.0
230
1.0
  2
SOLID
 70
     1
 71
     0
 91
        1
 92
        1
 93
        3
 72
     1
 10
24.76910451777125
 20
224.5776893172048
 11
25.76910452646359
 21
224.5776893172048
 72
     1
 10
25.76910452646359
 20
224.5776893172048
 11
25.26910452211742
 21
227.5776893432818
 72
     1
 10
25.26910452211742
 20
227.5776893432818
 11
24.76910451777125
 21
224.5776893172048
 97
        0
 75
     0
 76
     1
 98
        0
  0
HATCH
  5
97
330
95
100
AcDbEntity
  8
Default
  6
Continuous
 62
     7
100
AcDbHatch
 10
0.0
 20
0.0
 30
0.0
210
0.0
220
0.0
230
1.0
  2
SOLID
 70
     1
 71
     0
 91
        1
 92
        1
 93
        3
 72
     1
 10
24.76910451777125
 20
172.5776910382889
 11
25.26910452211742
 21
169.5776910122119
 72
     1
 10
25.26910452211742
 20
169.5776910122119
 11
25.76910452646359
 21
172.5776910382889
 72
     1
 10
25.76910452646359
 20
172.5776910382889
 11
24.76910451777125
 21
172.5776910382889
 97
        0
 75
     0
 76
     1
 98
        0
  0
LINE
  5
98
330
95
100
AcDbEntity
  8
Default
  6
Continuous
 62
     7
100
AcDbLine
 10
76.8100455221
 20
227.5776893433
 30
0.0
 11
23.7691045091
 21
227.5776893433
 31
0.0
  0
LINE
  5
99
330
95
100
AcDbEntity
  8
Default
  6
Continuous
 62
     7
100
AcDbLine
 10
85.8100455221
 20
169.5776893433
 30
0.0
 11
23.7691045091
 21
169.5776893433
 31
0.0
  0
LINE
  5
9A
330
95
100
AcDbEntity
  8
Default
  6
Continuous
 62
     7
100
AcDbLine
 10
25.2691045221
 20
227.5776893433
 30
0.0
 11
25.2691045221
 21
169.5776910122
 31
0.0
  0
TEXT
  5
9B
330
95
100
AcDbEntity
  8
Default
  6
Continuous
 62
     7
100
AcDbText
 10
24.5191045221
 20
196.7708719959
 30
0.0
 40
3.0
  1
58
 50
90.0
  7
SEACAD_seiso_ttf
 11
21.5191045221
 21
196.7708719959
 31
0.0
100
AcDbText
 73
     3
  0
ENDBLK
  5
9D
330
95
100
AcDbEntity
  8
0
100
AcDbBlockEnd
  0
BLOCK
  5
A6
330
9F
100
AcDbEntity
  8
0
100
AcDbBlockBegin
  2
DMBLK90
 70
     0
 10
0.0
 20
0.0
 30
0.0
  3
DMBLK90
  1

  0
HATCH
  5
A0
330
9F
100
AcDbEntity
  8
Default
  6
Continuous
 62
     7
100
AcDbHatch
 10
0.0
 20
0.0
 30
0.0
210
0.0
220
0.0
230
1.0
  2
SOLID
 70
     1
 71
     0
 91
        1
 92
        1
 93
        3
 72
     1
 10
24.76910451777125
 20
230.5776893693589
 11
25.26910452211742
 21
227.5776893432818
 72
     1
 10
25.26910452211742
 20
227.5776893432818
 11
25.76910452646359
 21
230.5776893693589
 72
     1
 10
25.76910452646359
 20
230.5776893693589
 11
24.76910451777125
 21
230.5776893693589
 97
        0
 75
     0
 76
     1
 98
        0
  0
HATCH
  5
A1
330
9F
100
AcDbEntity
  8
Default
  6
Continuous
 62
     7
100
AcDbHatch
 10
0.0
 20
0.0
 30
0.0
210
0.0
220
0.0
230
1.0
  2
SOLID
 70
     1
 71
     0
 91
        1
 92
        1
 93
        3
 72
     1
 10
24.76910451777125
 20
234.077689011731
 11
25.76910452646359
 21
234.077689011731
 72
     1
 10
25.76910452646359
 20
234.077689011731
 11
25.26910452211742
 21
237.077689037808
 72
     1
 10
25.26910452211742
 20
237.077689037808
 11
24.76910451777125
 21
234.077689011731
 97
        0
 75
     0
 76
     1
 98
        0
  0
LINE
  5
A2
330
9F
100
AcDbEntity
  8
Default
  6
Continuous
 62
     7
100
AcDbLine
 10
76.8100455221
 20
227.5776893433
 30
0.0
 11
23.7691045091
 21
227.5776893433
 31
0.0
  0
LINE
  5
A3
330
9F
100
AcDbEntity
  8
Default
  6
Continuous
 62
     7
100
AcDbLine
 10
59.3100455221
 20
237.0776893433
 30
0.0
 11
23.7691045091
 21
237.0776893433
 31
0.0
  0
LINE
  5
A4
330
9F
100
AcDbEntity
  8
Default
  6
Continuous
 62
     7
100
AcDbLine
 10
25.2691045221
 20
227.5776893433
 30
0.0
 11
25.2691045221
 21
237.0776890378
 31
0.0
  0
TEXT
  5
A5
330
9F
100
AcDbEntity
  8
Default
  6
Continuous
 62
     7
100
AcDbText
 10
24.5191045221
 20
230.2822346451
 30
0.0
 40
3.0
  1
9,5
 50
90.0
  7
SEACAD_seiso_ttf
 11
21.5191045221
 21
230.2822346451
 31
0.0
100
AcDbText
 73
     3
  0
ENDBLK
  5
A7
330
9F
100
AcDbEntity
  8
0
100
AcDbBlockEnd
  0
BLOCK
  5
B2
330
AA
100
AcDbEntity
  8
0
100
AcDbBlockBegin
  2
DMBLK91
 70
     0
 10
0.0
 20
0.0
 30
0.0
  3
DMBLK91
  1

  0
HATCH
  5
AB
330
AA
100
AcDbEntity
  8
Default
  6
Continuous
 62
     7
100
AcDbHatch
 10
0.0
 20
0.0
 30
0.0
210
0.0
220
0.0
230
1.0
  2
SOLID
 70
     1
 71
     0
 91
        1
 92
        1
 93
        3
 72
     1
 10
171.8400455481793
 20
217.9872636178764
 11
168.8400455221023
 21
217.4872636135302
 72
     1
 10
168.8400455221023
 20
217.4872636135302
 11
171.8400455481793
 21
216.9872636091841
 72
     1
 10
171.8400455481793
 20
216.9872636091841
 11
171.8400455481793
 21
217.9872636178764
 97
        0
 75
     0
 76
     1
 98
        0
  0
HATCH
  5
AC
330
AA
100
AcDbEntity
  8
Default
  6
Continuous
 62
     7
100
AcDbHatch
 10
0.0
 20
0.0
 30
0.0
210
0.0
220
0.0
230
1.0
  2
SOLID
 70
     1
 71
     0
 91
        1
 92
        1
 93
        3
 72
     1
 10
183.8400447211648
 20
217.9872636178764
 11
183.8400447211648
 21
216.9872636091841
 72
     1
 10
183.8400447211648
 20
216.9872636091841
 11
186.8400447472419
 21
217.4872636135302
 72
     1
 10
186.8400447472419
 20
217.4872636135302
 11
183.8400447211648
 21
217.9872636178764
 97
        0
 75
     0
 76
     1
 98
        0
  0
LINE
  5
AD
330
AA
100
AcDbEntity
  8
Default
  6
Continuous
 62
     7
100
AcDbLine
 10
168.8400455221
 20
205.5776893433
 30
0.0
 11
168.8400455221
 21
218.9872636266
 31
0.0
  0
LINE
  5
AE
330
AA
100
AcDbEntity
  8
Default
  6
Continuous
 62
     7
100
AcDbLine
 10
186.8400455221
 20
205.5776893433
 30
0.0
 11
186.8400455221
 21
218.9872636266
 31
0.0
  0
LINE
  5
AF
330
AA
100
AcDbEntity
  8
Default
  6
Continuous
 62
     7
100
AcDbLine
 10
168.8400455221
 20
217.4872636135
 30
0.0
 11
186.8400447472
 21
217.4872636135
 31
0.0
  0
TEXT
  5
B0
330
AA
100
AcDbEntity
  8
Default
  6
Continuous
 62
     7
100
AcDbText
 10
178.0921689933
 20
218.2372636135
 30
0.0
 40
3.0
  1
18
  7
SEACAD_seiso_ttf
 11
178.0921689933
 21
221.2372636135
 31
0.0
100
AcDbText
 73
     3
  0
TEXT
  5
B1
330
AA
100
AcDbEntity
  8
Default
  6
Continuous
 62
     7
100
AcDbText
 10
174.4515576396
 20
218.2372636135
 30
0.0
 40
3.0
  1
O
  7
SEACAD_semeci1_ttf
 11
174.4515576396
 21
221.2372636135
 31
0.0
100
AcDbText
 73
     3
  0
ENDBLK
  5
B3
330
AA
100
AcDbEntity
  8
0
100
AcDbBlockEnd
  0
BLOCK
  5
BC
330
B5
100
AcDbEntity
  8
0
100
AcDbBlockBegin
  2
DMBLK92
 70
     0
 10
0.0
 20
0.0
 30
0.0
  3
DMBLK92
  1

  0
HATCH
  5
B6
330
B5
100
AcDbEntity
  8
Default
  6
Continuous
 62
     7
100
AcDbHatch
 10
0.0
 20
0.0
 30
0.0
210
0.0
220
0.0
230
1.0
  2
SOLID
 70
     1
 71
     0
 91
        1
 92
        1
 93
        3
 72
     1
 10
201.1327259933947
 20
204.5776893172049
 11
200.6327259890485
 21
207.5776893432819
 72
     1
 10
200.6327259890485
 20
207.5776893432819
 11
200.1327259847024
 21
204.5776893172049
 72
     1
 10
200.1327259847024
 20
204.5776893172049
 11
201.1327259933947
 21
204.5776893172049
 97
        0
 75
     0
 76
     1
 98
        0
  0
HATCH
  5
B7
330
B5
100
AcDbEntity
  8
Default
  6
Continuous
 62
     7
100
AcDbHatch
 10
0.0
 20
0.0
 30
0.0
210
0.0
220
0.0
230
1.0
  2
SOLID
 70
     1
 71
     0
 91
        1
 92
        1
 93
        3
 72
     1
 10
201.1327259933947
 20
172.5776905912541
 11
200.1327259847024
 21
172.5776905912541
 72
     1
 10
200.1327259847024
 20
172.5776905912541
 11
200.6327259890485
 21
169.5776905651771
 72
     1
 10
200.6327259890485
 20
169.5776905651771
 11
201.1327259933947
 21
172.5776905912541
 97
        0
 75
     0
 76
     1
 98
        0
  0
LINE
  5
B8
330
B5
100
AcDbEntity
  8
Default
  6
Continuous
 62
     7
100
AcDbLine
 10
184.8400450848
 20
207.5776893433
 30
0.0
 11
202.1327260021
 21
207.5776893433
 31
0.0
  0
LINE
  5
B9
330
B5
100
AcDbEntity
  8
Default
  6
Continuous
 62
     7
100
AcDbLine
 10
158.8400455221
 20
169.5776893433
 30
0.0
 11
202.1327260021
 21
169.5776893433
 31
0.0
  0
LINE
  5
BA
330
B5
100
AcDbEntity
  8
Default
  6
Continuous
 62
     7
100
AcDbLine
 10
200.632725989
 20
207.5776893433
 30
0.0
 11
200.632725989
 21
169.5776905652
 31
0.0
  0
TEXT
  5
BB
330
B5
100
AcDbEntity
  8
Default
  6
Continuous
 62
     7
100
AcDbText
 10
199.882725989
 20
186.8390535906
 30
0.0
 40
3.0
  1
38
 50
90.0
  7
SEACAD_seiso_ttf
 11
196.882725989
 21
186.8390535906
 31
0.0
100
AcDbText
 73
     3
  0
ENDBLK
  5
BD
330
B5
100
AcDbEntity
  8
0
100
AcDbBlockEnd
  0
BLOCK
  5
C6
330
BF
100
AcDbEntity
  8
0
100
AcDbBlockBegin
  2
DMBLK93
 70
     0
 10
0.0
 20
0.0
 30
0.0
  3
DMBLK93
  1

  0
HATCH
  5
C0
330
BF
100
AcDbEntity
  8
Default
  6
Continuous
 62
     7
100
AcDbHatch
 10
0.0
 20
0.0
 30
0.0
210
0.0
220
0.0
230
1.0
  2
SOLID
 70
     1
 71
     0
 91
        1
 92
        1
 93
        3
 72
     1
 10
59.8100455481794
 20
142.3549245488775
 11
59.8100455481794
 21
143.3549245575699
 72
     1
 10
59.8100455481794
 20
143.3549245575699
 11
56.81004552210236
 21
142.8549245532237
 72
     1
 10
56.81004552210236
 20
142.8549245532237
 11
59.8100455481794
 21
142.3549245488775
 97
        0
 75
     0
 76
     1
 98
        0
  0
HATCH
  5
C1
330
BF
100
AcDbEntity
  8
Default
  6
Continuous
 62
     7
100
AcDbHatch
 10
0.0
 20
0.0
 30
0.0
210
0.0
220
0.0
230
1.0
  2
SOLID
 70
     1
 71
     0
 91
        1
 92
        1
 93
        3
 72
     1
 10
183.8400516662982
 20
142.3549245488775
 11
186.8400516923752
 21
142.8549245532237
 72
     1
 10
186.8400516923752
 20
142.8549245532237
 11
183.8400516662982
 21
143.3549245575699
 72
     1
 10
183.8400516662982
 20
143.3549245575699
 11
183.8400516662982
 21
142.3549245488775
 97
        0
 75
     0
 76
     1
 98
        0
  0
LINE
  5
C2
330
BF
100
AcDbEntity
  8
Default
  6
Continuous
 62
     7
100
AcDbLine
 10
56.8100455221
 20
227.5776893433
 30
0.0
 11
56.8100455221
 21
141.3549245402
 31
0.0
  0
LINE
  5
C3
330
BF
100
AcDbEntity
  8
Default
  6
Continuous
 62
     7
100
AcDbLine
 10
186.8400455221
 20
205.5776893433
 30
0.0
 11
186.8400455221
 21
141.3549245402
 31
0.0
  0
LINE
  5
C4
330
BF
100
AcDbEntity
  8
Default
  6
Continuous
 62
     7
100
AcDbLine
 10
56.8100455221
 20
142.8549245532
 30
0.0
 11
186.8400516924
 21
142.8549245532
 31
0.0
  0
TEXT
  5
C5
330
BF
100
AcDbEntity
  8
Default
  6
Continuous
 62
     7
100
AcDbText
 10
119.5409576981
 20
143.6049245532
 30
0.0
 40
3.0
  1
130
  7
SEACAD_seiso_ttf
 11
119.5409576981
 21
146.6049245532
 31
0.0
100
AcDbText
 73
     3
  0
ENDBLK
  5
C7
330
BF
100
AcDbEntity
  8
0
100
AcDbBlockEnd
  0
BLOCK
  5
D1
330
C9
100
AcDbEntity
  8
0
100
AcDbBlockBegin
  2
DMBLK94
 70
     0
 10
0.0
 20
0.0
 30
0.0
  3
DMBLK94
  1

  0
HATCH
  5
CA
330
C9
100
AcDbEntity
  8
Default
  6
Continuous
 62
     7
100
AcDbHatch
 10
0.0
 20
0.0
 30
0.0
210
0.0
220
0.0
230
1.0
  2
SOLID
 70
     1
 71
     0
 91
        1
 92
        1
 93
        3
 72
     1
 10
59.76004549602523
 20
247.6165029237303
 11
59.76004549602523
 21
246.6165029150379
 72
     1
 10
59.76004549602523
 20
246.6165029150379
 11
62.76004552210227
 21
247.1165029193841
 72
     1
 10
62.76004552210227
 20
247.1165029193841
 11
59.76004549602523
 21
247.6165029237303
 97
        0
 75
     0
 76
     1
 98
        0
  0
HATCH
  5
CB
330
C9
100
AcDbEntity
  8
Default
  6
Continuous
 62
     7
100
AcDbHatch
 10
0.0
 20
0.0
 30
0.0
210
0.0
220
0.0
230
1.0
  2
SOLID
 70
     1
 71
     0
 91
        1
 92
        1
 93
        3
 72
     1
 10
73.86004554817929
 20
247.6165029237303
 11
70.86004552210225
 21
247.1165029193841
 72
     1
 10
70.86004552210225
 20
247.1165029193841
 11
73.86004554817929
 21
246.6165029150379
 72
     1
 10
73.86004554817929
 20
246.6165029150379
 11
73.86004554817929
 21
247.6165029237303
 97
        0
 75
     0
 76
     1
 98
        0
  0
LINE
  5
CC
330
C9
100
AcDbEntity
  8
Default
  6
Continuous
 62
     7
100
AcDbLine
 10
62.7600455221
 20
237.0776893433
 30
0.0
 11
62.7600455221
 21
248.6165029324
 31
0.0
  0
LINE
  5
CD
330
C9
100
AcDbEntity
  8
Default
  6
Continuous
 62
     7
100
AcDbLine
 10
70.8600455221
 20
237.0776893433
 30
0.0
 11
70.8600455221
 21
248.6165029324
 31
0.0
  0
LINE
  5
CE
330
C9
100
AcDbEntity
  8
Default
  6
Continuous
 62
     7
100
AcDbLine
 10
56.7600454699
 20
247.1165029194
 30
0.0
 11
76.8600457844
 21
247.1165029194
 31
0.0
  0
TEXT
  5
CF
330
C9
100
AcDbEntity
  8
Default
  6
Continuous
 62
     7
100
AcDbText
 10
67.7085569412
 20
247.8665029194
 30
0.0
 40
3.0
  1
8
  7
SEACAD_seiso_ttf
 11
67.7085569412
 21
250.8665029194
 31
0.0
100
AcDbText
 73
     3
  0
TEXT
  5
D0
330
C9
100
AcDbEntity
  8
Default
  6
Continuous
 62
     7
100
AcDbText
 10
64.0024434041
 20
247.8665029194
 30
0.0
 40
3.0
  1
q
  7
SEACAD_semeci1_ttf
 11
64.0024434041
 21
250.8665029194
 31
0.0
100
AcDbText
 73
     3
  0
ENDBLK
  5
D2
330
C9
100
AcDbEntity
  8
0
100
AcDbBlockEnd
  0
BLOCK
  5
DC
330
D4
100
AcDbEntity
  8
0
100
AcDbBlockBegin
  2
DMBLK95
 70
     0
 10
0.0
 20
0.0
 30
0.0
  3
DMBLK95
  1

  0
HATCH
  5
D5
330
D4
100
AcDbEntity
  8
Default
  6
Continuous
 62
     7
100
AcDbHatch
 10
0.0
 20
0.0
 30
0.0
210
0.0
220
0.0
230
1.0
  2
SOLID
 70
     1
 71
     0
 91
        1
 92
        1
 93
        3
 72
     1
 10
61.81004554817929
 20
255.7079462239775
 11
58.81004552210226
 21
255.2079462196313
 72
     1
 10
58.81004552210226
 20
255.2079462196313
 11
61.81004554817929
 21
254.7079462152851
 72
     1
 10
61.81004554817929
 20
254.7079462152851
 11
61.81004554817929
 21
255.7079462239775
 97
        0
 75
     0
 76
     1
 98
        0
  0
HATCH
  5
D6
330
D4
100
AcDbEntity
  8
Default
  6
Continuous
 62
     7
100
AcDbHatch
 10
0.0
 20
0.0
 30
0.0
210
0.0
220
0.0
230
1.0
  2
SOLID
 70
     1
 71
     0
 91
        1
 92
        1
 93
        3
 72
     1
 10
71.81004625598445
 20
255.7079462239775
 11
71.81004625598445
 21
254.7079462152851
 72
     1
 10
71.81004625598445
 20
254.7079462152851
 11
74.81004628206148
 21
255.2079462196313
 72
     1
 10
74.81004628206148
 20
255.2079462196313
 11
71.81004625598445
 21
255.7079462239775
 97
        0
 75
     0
 76
     1
 98
        0
  0
LINE
  5
D7
330
D4
100
AcDbEntity
  8
Default
  6
Continuous
 62
     7
100
AcDbLine
 10
58.8100455221
 20
236.5776893433
 30
0.0
 11
58.8100455221
 21
256.7079462327
 31
0.0
  0
LINE
  5
D8
330
D4
100
AcDbEntity
  8
Default
  6
Continuous
 62
     7
100
AcDbLine
 10
74.8100455221
 20
236.5776893433
 30
0.0
 11
74.8100455221
 21
256.7079462327
 31
0.0
  0
LINE
  5
D9
330
D4
100
AcDbEntity
  8
Default
  6
Continuous
 62
     7
100
AcDbLine
 10
58.8100455221
 20
255.2079462196
 30
0.0
 11
74.8100462821
 21
255.2079462196
 31
0.0
  0
TEXT
  5
DA
330
D4
100
AcDbEntity
  8
Default
  6
Continuous
 62
     7
100
AcDbText
 10
67.0962606698
 20
255.9579462196
 30
0.0
 40
3.0
  1
16
  7
SEACAD_seiso_ttf
 11
67.0962606698
 21
258.9579462196
 31
0.0
100
AcDbText
 73
     3
  0
TEXT
  5
DB
330
D4
100
AcDbEntity
  8
Default
  6
Continuous
 62
     7
100
AcDbText
 10
63.4556493161
 20
255.9579462196
 30
0.0
 40
3.0
  1
O
  7
SEACAD_semeci1_ttf
 11
63.4556493161
 21
258.9579462196
 31
0.0
100
AcDbText
 73
     3
  0
ENDBLK
  5
DD
330
D4
100
AcDbEntity
  8
0
100
AcDbBlockEnd
  0
BLOCK
  5
E7
330
DF
100
AcDbEntity
  8
0
100
AcDbBlockBegin
  2
DMBLK96
 70
     0
 10
0.0
 20
0.0
 30
0.0
  3
DMBLK96
  1

  0
HATCH
  5
E0
330
DF
100
AcDbEntity
  8
Default
  6
Continuous
 62
     7
100
AcDbHatch
 10
0.0
 20
0.0
 30
0.0
210
0.0
220
0.0
230
1.0
  2
SOLID
 70
     1
 71
     0
 91
        1
 92
        1
 93
        3
 72
     1
 10
73.81004549602513
 20
263.3478922525676
 11
73.81004549602513
 21
262.3478922438753
 72
     1
 10
73.81004549602513
 20
262.3478922438753
 11
76.81004552210216
 21
262.8478922482215
 72
     1
 10
76.81004552210216
 20
262.8478922482215
 11
73.81004549602513
 21
263.3478922525676
 97
        0
 75
     0
 76
     1
 98
        0
  0
HATCH
  5
E1
330
DF
100
AcDbEntity
  8
Default
  6
Continuous
 62
     7
100
AcDbHatch
 10
0.0
 20
0.0
 30
0.0
210
0.0
220
0.0
230
1.0
  2
SOLID
 70
     1
 71
     0
 91
        1
 92
        1
 93
        3
 72
     1
 10
59.81004599521403
 20
263.3478922525676
 11
56.81004596913699
 21
262.8478922482215
 72
     1
 10
56.81004596913699
 20
262.8478922482215
 11
59.81004599521403
 21
262.3478922438753
 72
     1
 10
59.81004599521403
 20
262.3478922438753
 11
59.81004599521403
 21
263.3478922525676
 97
        0
 75
     0
 76
     1
 98
        0
  0
LINE
  5
E2
330
DF
100
AcDbEntity
  8
Default
  6
Continuous
 62
     7
100
AcDbLine
 10
76.8100455221
 20
227.5776893433
 30
0.0
 11
76.8100455221
 21
264.3478922613
 31
0.0
  0
LINE
  5
E3
330
DF
100
AcDbEntity
  8
Default
  6
Continuous
 62
     7
100
AcDbLine
 10
56.8100455221
 20
227.5776893433
 30
0.0
 11
56.8100455221
 21
264.3478922613
 31
0.0
  0
LINE
  5
E4
330
DF
100
AcDbEntity
  8
Default
  6
Continuous
 62
     7
100
AcDbLine
 10
76.8100455221
 20
262.8478922482
 30
0.0
 11
56.8100459691
 21
262.8478922482
 31
0.0
  0
TEXT
  5
E5
330
DF
100
AcDbEntity
  8
Default
  6
Continuous
 62
     7
100
AcDbText
 10
66.8235332407
 20
263.5978922482
 30
0.0
 40
3.0
  1
20
  7
SEACAD_seiso_ttf
 11
66.8235332407
 21
266.5978922482
 31
0.0
100
AcDbText
 73
     3
  0
TEXT
  5
E6
330
DF
100
AcDbEntity
  8
Default
  6
Continuous
 62
     7
100
AcDbText
 10
63.1829218869
 20
263.5978922482
 30
0.0
 40
3.0
  1
O
  7
SEACAD_semeci1_ttf
 11
63.1829218869
 21
266.5978922482
 31
0.0
100
AcDbText
 73
     3
  0
ENDBLK
  5
E8
330
DF
100
AcDbEntity
  8
0
100
AcDbBlockEnd
  0
ENDSEC
  0
SECTION
  2
ENTITIES
  0
TEXT
  5
5E
330
1F
100
AcDbEntity
  8
Default
  6
Continuous
 62
     7
100
AcDbText
 10
110.0981926839
 20
121.0648791839
 30
0.0
 40
5.0
  1
32.250
  7
SEACAD_seiso_ttf
 11
110.0981926839
 21
126.0648791839
 31
0.0
100
AcDbText
 73
     3
  0
INSERT
  5
61
330
1F
100
AcDbEntity
  8
0
100
AcDbBlockReference
  2
SE
 10
0.0
 20
0.0
 30
0.0
  0
DIMENSION
  5
94
330
1F
100
AcDbEntity
  8
Default
  6
Continuous
 62
     7
100
AcDbDimension
  2
DMBLK89
 10
25.2691045221
 20
169.5776893433
 30
0.0
 11
25.2691045221
 21
198.5776901777
 31
0.0
 70
   160
  1
\A1;<>
 71
     5
 42
-1.0
  3
DIN
100
AcDbAlignedDimension
 13
76.8100455221
 23
227.5776893433
 33
0.0
 14
85.8100455221
 24
169.5776893433
 34
0.0
 50
90.0
100
AcDbRotatedDimension
  0
DIMENSION
  5
9E
330
1F
100
AcDbEntity
  8
Default
  6
Continuous
 62
     7
100
AcDbDimension
  2
DMBLK90
 10
25.2691045221
 20
237.0776893433
 30
0.0
 11
25.2691045221
 21
232.3276891905
 31
0.0
 70
   160
  1
\A1;<>
 71
     5
 42
-1.0
  3
DIN
100
AcDbAlignedDimension
 13
76.8100455221
 23
227.5776893433
 33
0.0
 14
59.3100455221
 24
237.0776893433
 34
0.0
 50
90.0
100
AcDbRotatedDimension
  0
DIMENSION
  5
A8
330
1F
100
AcDbEntity
  8
Default
  6
Continuous
 62
     7
100
AcDbDimension
  2
DMBLK91
 10
168.8400455221
 20
217.4872636135
 30
0.0
 11
177.8400451347
 21
217.4872636135
 31
0.0
 70
   161
  1
\A1;%%C <>
 71
     5
 42
-1.0
  3
DIN
100
AcDbAlignedDimension
 13
168.8400455221
 23
205.5776893433
 33
0.0
 14
186.8400455221
 24
205.5776893433
 34
0.0
  0
DIMENSION
  5
B4
330
1F
100
AcDbEntity
  8
Default
  6
Continuous
 62
     7
100
AcDbDimension
  2
DMBLK92
 10
200.632725989
 20
169.5776893433
 30
0.0
 11
200.632725989
 21
188.5776899542
 31
0.0
 70
   160
  1
\A1;<>
 71
     5
 42
-1.0
  3
DIN
100
AcDbAlignedDimension
 13
184.8400450848
 23
207.5776893433
 33
0.0
 14
158.8400455221
 24
169.5776893433
 34
0.0
 50
90.0
100
AcDbRotatedDimension
  0
DIMENSION
  5
BE
330
1F
100
AcDbEntity
  8
Default
  6
Continuous
 62
     7
100
AcDbDimension
  2
DMBLK93
 10
186.8400455221
 20
142.8549245532
 30
0.0
 11
121.8250486072
 21
142.8549245532
 31
0.0
 70
   160
  1
\A1;<>
 71
     5
 42
-1.0
  3
DIN
100
AcDbAlignedDimension
 13
56.8100455221
 23
227.5776893433
 33
0.0
 14
186.8400455221
 24
205.5776893433
 34
0.0
100
AcDbRotatedDimension
1001
ACAD
1000
DSTYLE
1002
{
1070
   271
1070
     0
1070
   272
1070
     0
1070
     0
1002
}
  0
DIMENSION
  5
C8
330
1F
100
AcDbEntity
  8
Default
  6
Continuous
 62
     7
100
AcDbDimension
  2
DMBLK94
 10
62.7600455221
 20
247.1165029194
 30
0.0
 11
66.8100456272
 21
247.1165029194
 31
0.0
 70
   161
  1
\A1;{\Fsemeca1.ttf;q} <>
 71
     5
 42
-1.0
  3
DIN
100
AcDbAlignedDimension
 13
62.7600455221
 23
237.0776893433
 33
0.0
 14
70.8600455221
 24
237.0776893433
 34
0.0
1001
ACAD
1000
DSTYLE
1002
{
1070
   271
1070
     0
1070
   272
1070
     0
1070
     0
1002
}
  0
DIMENSION
  5
D3
330
1F
100
AcDbEntity
  8
Default
  6
Continuous
 62
     7
100
AcDbDimension
  2
DMBLK95
 10
58.8100455221
 20
255.2079462196
 30
0.0
 11
66.8100459021
 21
255.2079462196
 31
0.0
 70
   161
  1
\A1;%%C <>
 71
     5
 42
-1.0
  3
DIN
100
AcDbAlignedDimension
 13
58.8100455221
 23
236.5776893433
 33
0.0
 14
74.8100455221
 24
236.5776893433
 34
0.0
  0
DIMENSION
  5
DE
330
1F
100
AcDbEntity
  8
Default
  6
Continuous
 62
     7
100
AcDbDimension
  2
DMBLK96
 10
56.8100455221
 20
262.8478922482
 30
0.0
 11
66.8100457456
 21
262.8478922482
 31
0.0
 70
   160
  1
\A1;%%C <>
 71
     5
 42
-1.0
  3
DIN
100
AcDbAlignedDimension
 13
76.8100455221
 23
227.5776893433
 33
0.0
 14
56.8100455221
 24
227.5776893433
 34
0.0
100
AcDbRotatedDimension
  0
ENDSEC
  0
SECTION
  2
OBJECTS
  0
DICTIONARY
  5
C
330
0
100
AcDbDictionary
281
     1
  3
ACAD_GROUP
350
D
  3
ACAD_LAYOUT
350
1A
  3
ACAD_MLEADERSTYLE
350
EC
  3
ACAD_MLINESTYLE
350
17
  3
ACAD_PLOTSETTINGS
350
19
  3
ACAD_PLOTSTYLENAME
350
E
  3
ACAD_SCALELIST
350
3B
  3
ACAD_TABLESTYLE
350
EB
  3
ACAD_VISUALSTYLE
350
2A
  3
AcDbVariableDictionary
350
E9
  0
DICTIONARY
  5
D
102
{ACAD_REACTORS
330
C
102
}
330
C
100
AcDbDictionary
281
     1
  0
DICTIONARY
  5
1A
102
{ACAD_REACTORS
330
C
102
}
330
C
100
AcDbDictionary
281
     1
  3
Layout1
350
1E
  3
Model
350
22
  0
DICTIONARY
  5
EC
102
{ACAD_REACTORS
330
C
102
}
330
C
100
AcDbDictionary
281
     1
  0
DICTIONARY
  5
17
102
{ACAD_REACTORS
330
C
102
}
330
C
100
AcDbDictionary
281
     1
  3
Standard
350
18
  0
DICTIONARY
  5
19
102
{ACAD_REACTORS
330
C
102
}
330
C
100
AcDbDictionary
281
     1
  0
ACDBDICTIONARYWDFLT
  5
E
102
{ACAD_REACTORS
330
C
102
}
330
C
100
AcDbDictionary
281
     1
  3
Normal
350
F
100
AcDbDictionaryWithDefault
340
F
  0
DICTIONARY
  5
3B
102
{ACAD_REACTORS
330
C
102
}
330
C
100
AcDbDictionary
281
     1
  3
A0
350
3C
  3
A1
350
3D
  3
A2
350
3E
  3
A3
350
3F
  3
A4
350
40
  3
A5
350
41
  3
A6
350
42
  3
A7
350
43
  3
A8
350
44
  3
A9
350
45
  3
B0
350
46
  3
B1
350
47
  3
B2
350
48
  3
B3
350
49
  3
B4
350
4A
  3
B5
350
4B
  3
B6
350
4C
  3
B7
350
4D
  3
B8
350
4E
  3
B9
350
4F
  3
C0
350
50
  3
C1
350
51
  3
C2
350
52
  3
C3
350
53
  3
C4
350
54
  3
C5
350
55
  3
C6
350
56
  3
C7
350
57
  3
C8
350
58
  3
C9
350
59
  3
D0
350
5A
  3
D1
350
5B
  3
D2
350
5C
  0
DICTIONARY
  5
EB
102
{ACAD_REACTORS
330
C
102
}
330
C
100
AcDbDictionary
281
     1
  0
DICTIONARY
  5
2A
102
{ACAD_REACTORS
330
C
102
}
330
C
100
AcDbDictionary
281
     1
  3
2dWireframe
350
2F
  3
3D Hidden
350
31
  3
3dWireframe
350
30
  3
Basic
350
32
  3
Brighten
350
36
  3
ColorChange
350
3A
  3
Conceptual
350
34
  3
Dim
350
35
  3
Facepattern
350
39
  3
Flat
350
2B
  3
FlatWithEdges
350
2C
  3
Gouraud
350
2D
  3
GouraudWithEdges
350
2E
  3
Linepattern
350
38
  3
Realistic
350
33
  3
Thicken
350
37
  0
DICTIONARY
  5
E9
102
{ACAD_REACTORS
330
C
102
}
330
C
100
AcDbDictionary
281
     1
  3
CANNOSCALE
350
EA
  3
PSOLHEIGHT
350
EE
  3
PSOLWIDTH
350
ED
  0
LAYOUT
  5
1E
102
{ACAD_REACTORS
330
1A
102
}
330
1A
100
AcDbPlotSettings
  1

  2
none_device
  4

  6

 40
0.0
 41
0.0
 42
0.0
 43
0.0
 44
0.0
 45
0.0
 46
0.0
 47
0.0
 48
0.0
 49
0.0
140
0.0
141
0.0
142
1.0
143
1.0
 70
   688
 72
     0
 73
     0
 74
     5
  7

 75
    16
147
1.0
148
0.0
149
0.0
100
AcDbLayout
  1
Layout1
 70
     1
 71
     1
 10
0.0
 20
0.0
 11
210.0
 21
297.0
 12
0.0
 22
0.0
 32
0.0
 14
0.0
 24
0.0
 34
0.0
 15
210.0
 25
297.0
 35
0.0
146
0.0
 13
0.0
 23
0.0
 33
0.0
 16
1.0
 26
0.0
 36
0.0
 17
0.0
 27
1.0
 37
0.0
 76
     0
330
1B
  0
LAYOUT
  5
22
102
{ACAD_REACTORS
330
1A
102
}
330
1A
100
AcDbPlotSettings
  1

  2
none_device
  4

  6

 40
0.0
 41
0.0
 42
0.0
 43
0.0
 44
0.0
 45
0.0
 46
0.0
 47
0.0
 48
0.0
 49
0.0
140
0.0
141
0.0
142
1.0
143
1.0
 70
  1712
 72
     0
 73
     0
 74
     0
  7

 75
     0
147
1.0
148
0.0
149
0.0
100
AcDbLayout
  1
Model
 70
     1
 71
     0
 10
0.0
 20
0.0
 11
210.0
 21
297.0
 12
0.0
 22
0.0
 32
0.0
 14
0.0
 24
0.0
 34
0.0
 15
210.0
 25
297.0
 35
0.0
146
0.0
 13
0.0
 23
0.0
 33
0.0
 16
1.0
 26
0.0
 36
0.0
 17
0.0
 27
1.0
 37
0.0
 76
     0
330
1F
331
29
  0
MLINESTYLE
  5
18
102
{ACAD_REACTORS
330
17
102
}
330
17
100
AcDbMlineStyle
  2
Standard
 70
     0
  3

 62
   256
 51
90.0
 52
90.0
 71
     2
 49
0.5
 62
   256
  6
BYLAYER
 49
-0.5
 62
   256
  6
BYLAYER
  0
ACDBPLACEHOLDER
  5
F
102
{ACAD_REACTORS
330
E
102
}
330
E
  0
SCALE
  5
3C
102
{ACAD_REACTORS
330
3B
102
}
330
3B
100
AcDbScale
 70
     0
300
1:1
140
1.0
141
1.0
290
     1
  0
SCALE
  5
3D
102
{ACAD_REACTORS
330
3B
102
}
330
3B
100
AcDbScale
 70
     0
300
1:2
140
1.0
141
2.0
290
     0
  0
SCALE
  5
3E
102
{ACAD_REACTORS
330
3B
102
}
330
3B
100
AcDbScale
 70
     0
300
1:4
140
1.0
141
4.0
290
     0
  0
SCALE
  5
3F
102
{ACAD_REACTORS
330
3B
102
}
330
3B
100
AcDbScale
 70
     0
300
1:5
140
1.0
141
5.0
290
     0
  0
SCALE
  5
40
102
{ACAD_REACTORS
330
3B
102
}
330
3B
100
AcDbScale
 70
     0
300
1:8
140
1.0
141
8.0
290
     0
  0
SCALE
  5
41
102
{ACAD_REACTORS
330
3B
102
}
330
3B
100
AcDbScale
 70
     0
300
1:10
140
1.0
141
10.0
290
     0
  0
SCALE
  5
42
102
{ACAD_REACTORS
330
3B
102
}
330
3B
100
AcDbScale
 70
     0
300
1:16
140
1.0
141
16.0
290
     0
  0
SCALE
  5
43
102
{ACAD_REACTORS
330
3B
102
}
330
3B
100
AcDbScale
 70
     0
300
1:20
140
1.0
141
20.0
290
     0
  0
SCALE
  5
44
102
{ACAD_REACTORS
330
3B
102
}
330
3B
100
AcDbScale
 70
     0
300
1:30
140
1.0
141
30.0
290
     0
  0
SCALE
  5
45
102
{ACAD_REACTORS
330
3B
102
}
330
3B
100
AcDbScale
 70
     0
300
1:40
140
1.0
141
40.0
290
     0
  0
SCALE
  5
46
102
{ACAD_REACTORS
330
3B
102
}
330
3B
100
AcDbScale
 70
     0
300
1:50
140
1.0
141
50.0
290
     0
  0
SCALE
  5
47
102
{ACAD_REACTORS
330
3B
102
}
330
3B
100
AcDbScale
 70
     0
300
1:100
140
1.0
141
100.0
290
     0
  0
SCALE
  5
48
102
{ACAD_REACTORS
330
3B
102
}
330
3B
100
AcDbScale
 70
     0
300
2:1
140
2.0
141
1.0
290
     0
  0
SCALE
  5
49
102
{ACAD_REACTORS
330
3B
102
}
330
3B
100
AcDbScale
 70
     0
300
4:1
140
4.0
141
1.0
290
     0
  0
SCALE
  5
4A
102
{ACAD_REACTORS
330
3B
102
}
330
3B
100
AcDbScale
 70
     0
300
8:1
140
8.0
141
1.0
290
     0
  0
SCALE
  5
4B
102
{ACAD_REACTORS
330
3B
102
}
330
3B
100
AcDbScale
 70
     0
300
10:1
140
10.0
141
1.0
290
     0
  0
SCALE
  5
4C
102
{ACAD_REACTORS
330
3B
102
}
330
3B
100
AcDbScale
 70
     0
300
100:1
140
100.0
141
1.0
290
     0
  0
SCALE
  5
4D
102
{ACAD_REACTORS
330
3B
102
}
330
3B
100
AcDbScale
 70
     0
300
1/128" = 1'-0"
140
0.0078125
141
12.0
290
     0
  0
SCALE
  5
4E
102
{ACAD_REACTORS
330
3B
102
}
330
3B
100
AcDbScale
 70
     0
300
1/64" = 1'-0"
140
0.015625
141
12.0
290
     0
  0
SCALE
  5
4F
102
{ACAD_REACTORS
330
3B
102
}
330
3B
100
AcDbScale
 70
     0
300
1/32" = 1'-0"
140
0.03125
141
12.0
290
     0
  0
SCALE
  5
50
102
{ACAD_REACTORS
330
3B
102
}
330
3B
100
AcDbScale
 70
     0
300
1/16" = 1'-0"
140
0.0625
141
12.0
290
     0
  0
SCALE
  5
51
102
{ACAD_REACTORS
330
3B
102
}
330
3B
100
AcDbScale
 70
     0
300
3/32" = 1'-0"
140
0.09375
141
12.0
290
     0
  0
SCALE
  5
52
102
{ACAD_REACTORS
330
3B
102
}
330
3B
100
AcDbScale
 70
     0
300
1/8" = 1'-0"
140
0.125
141
12.0
290
     0
  0
SCALE
  5
53
102
{ACAD_REACTORS
330
3B
102
}
330
3B
100
AcDbScale
 70
     0
300
3/16" = 1'-0"
140
0.1875
141
12.0
290
     0
  0
SCALE
  5
54
102
{ACAD_REACTORS
330
3B
102
}
330
3B
100
AcDbScale
 70
     0
300
1/4" = 1'-0"
140
0.25
141
12.0
290
     0
  0
SCALE
  5
55
102
{ACAD_REACTORS
330
3B
102
}
330
3B
100
AcDbScale
 70
     0
300
3/8" = 1'-0"
140
0.375
141
12.0
290
     0
  0
SCALE
  5
56
102
{ACAD_REACTORS
330
3B
102
}
330
3B
100
AcDbScale
 70
     0
300
1/2" = 1'-0"
140
0.5
141
12.0
290
     0
  0
SCALE
  5
57
102
{ACAD_REACTORS
330
3B
102
}
330
3B
100
AcDbScale
 70
     0
300
3/4" = 1'-0"
140
0.75
141
12.0
290
     0
  0
SCALE
  5
58
102
{ACAD_REACTORS
330
3B
102
}
330
3B
100
AcDbScale
 70
     0
300
1" = 1'-0"
140
1.0
141
12.0
290
     0
  0
SCALE
  5
59
102
{ACAD_REACTORS
330
3B
102
}
330
3B
100
AcDbScale
 70
     0
300
1-1/2" = 1'-0"
140
1.5
141
12.0
290
     0
  0
SCALE
  5
5A
102
{ACAD_REACTORS
330
3B
102
}
330
3B
100
AcDbScale
 70
     0
300
3" = 1'-0"
140
3.0
141
12.0
290
     0
  0
SCALE
  5
5B
102
{ACAD_REACTORS
330
3B
102
}
330
3B
100
AcDbScale
 70
     0
300
6" = 1'-0"
140
6.0
141
12.0
290
     0
  0
SCALE
  5
5C
102
{ACAD_REACTORS
330
3B
102
}
330
3B
100
AcDbScale
 70
     0
300
1'-0" = 1'-0"
140
12.0
141
12.0
290
     0
  0
VISUALSTYLE
  5
2F
102
{ACAD_REACTORS
330
2A
102
}
330
2A
100
AcDbVisualStyle
  2
2dWireframe
 70
     4
 71
     0
 72
     2
 73
     0
 90
        0
 40
-0.6
 41
-30.0
 62
     5
 63
     7
 74
     1
 91
        4
 64
     7
 65
   257
 75
     1
175
     1
 42
1.0
 92
        0
 66
   257
 43
1.0
 76
     1
 77
     6
 78
     2
 67
     7
 79
     5
170
     0
171
     0
290
     0
174
     0
 93
        1
 44
0.0
173
     0
291
     0
 45
0.0
1001
ACAD
1000
AcDbSavedByObjectVersion
1070
     0
  0
VISUALSTYLE
  5
31
102
{ACAD_REACTORS
330
2A
102
}
330
2A
100
AcDbVisualStyle
  2
3D Hidden
 70
     6
 71
     1
 72
     2
 73
     2
 90
        0
 40
-0.6
 41
-30.0
 62
     5
 63
     7
 74
     2
 91
        2
 64
     7
 65
   257
 75
     2
175
     1
 42
40.0
 92
        0
 66
   257
 43
1.0
 76
     1
 77
     6
 78
     2
 67
     7
 79
     3
170
     0
171
     0
290
     0
174
     0
 93
        1
 44
0.0
173
     0
291
     0
 45
0.0
1001
ACAD
1000
AcDbSavedByObjectVersion
1070
     0
  0
VISUALSTYLE
  5
30
102
{ACAD_REACTORS
330
2A
102
}
330
2A
100
AcDbVisualStyle
  2
3dWireframe
 70
     5
 71
     0
 72
     2
 73
     0
 90
        0
 40
-0.6
 41
-30.0
 62
     5
 63
     7
 74
     1
 91
        4
 64
     7
 65
   257
 75
     1
175
     1
 42
1.0
 92
        0
 66
   257
 43
1.0
 76
     1
 77
     6
 78
     2
 67
     7
 79
     5
170
     0
171
     0
290
     0
174
     0
 93
        1
 44
0.0
173
     0
291
     0
 45
0.0
1001
ACAD
1000
AcDbSavedByObjectVersion
1070
     0
  0
VISUALSTYLE
  5
32
102
{ACAD_REACTORS
330
2A
102
}
330
2A
100
AcDbVisualStyle
  2
Basic
 70
     7
 71
     1
 72
     0
 73
     1
 90
        0
 40
-0.6
 41
-30.0
 62
     5
 63
     7
 74
     0
 91
        4
 64
     7
 65
   257
 75
     1
175
     1
 42
1.0
 92
        8
 66
     7
 43
1.0
 76
     1
 77
     6
 78
     2
 67
     7
 79
     5
170
     0
171
     0
290
     0
174
     0
 93
        1
 44
0.0
173
     0
291
     1
 45
0.0
1001
ACAD
1000
AcDbSavedByObjectVersion
1070
     0
  0
VISUALSTYLE
  5
36
102
{ACAD_REACTORS
330
2A
102
}
330
2A
100
AcDbVisualStyle
  2
Brighten
 70
    12
 71
     2
 72
     2
 73
     0
 90
        0
 40
-0.6
 41
-30.0
 62
     5
 63
     7
 74
     1
 91
        4
 64
     7
 65
   257
 75
     1
175
     1
 42
1.0
 92
        8
 66
     7
 43
1.0
 76
     1
 77
     6
 78
     2
 67
     7
 79
     5
170
     0
171
     0
290
     0
174
     0
 93
        1
 44
50.0
173
     0
291
     1
 45
0.0
1001
ACAD
1000
AcDbSavedByObjectVersion
1070
     0
  0
VISUALSTYLE
  5
3A
102
{ACAD_REACTORS
330
2A
102
}
330
2A
100
AcDbVisualStyle
  2
ColorChange
 70
    16
 71
     2
 72
     2
 73
     3
 90
        0
 40
-0.6
 41
-30.0
 62
     5
 63
     8
 74
     1
 91
        4
 64
     7
 65
   257
 75
     1
175
     1
 42
1.0
 92
        8
 66
     8
 43
1.0
 76
     1
 77
     6
 78
     2
 67
     7
 79
     5
170
     0
171
     0
290
     0
174
     0
 93
        1
 44
0.0
173
     0
291
     1
 45
0.0
1001
ACAD
1000
AcDbSavedByObjectVersion
1070
     0
  0
VISUALSTYLE
  5
34
102
{ACAD_REACTORS
330
2A
102
}
330
2A
100
AcDbVisualStyle
  2
Conceptual
 70
     9
 71
     3
 72
     2
 73
     0
 90
        0
 40
-0.6
 41
-30.0
 62
     5
 63
     7
 74
     2
 91
        2
 64
     7
 65
   257
 75
     1
175
     1
 42
40.0
 92
        8
 66
     7
 43
1.0
 76
     1
 77
     6
 78
     2
 67
     7
 79
     3
170
     0
171
     0
290
     0
174
     0
 93
        1
 44
0.0
173
     0
291
     0
 45
0.0
1001
ACAD
1000
AcDbSavedByObjectVersion
1070
     0
  0
VISUALSTYLE
  5
35
102
{ACAD_REACTORS
330
2A
102
}
330
2A
100
AcDbVisualStyle
  2
Dim
 70
    11
 71
     2
 72
     2
 73
     0
 90
        0
 40
-0.6
 41
-30.0
 62
     5
 63
     7
 74
     1
 91
        4
 64
     7
 65
   257
 75
     1
175
     1
 42
1.0
 92
        8
 66
     7
 43
1.0
 76
     1
 77
     6
 78
     2
 67
     7
 79
     5
170
     0
171
     0
290
     0
174
     0
 93
        1
 44
-50.0
173
     0
291
     1
 45
0.0
1001
ACAD
1000
AcDbSavedByObjectVersion
1070
     0
  0
VISUALSTYLE
  5
39
102
{ACAD_REACTORS
330
2A
102
}
330
2A
100
AcDbVisualStyle
  2
Facepattern
 70
    15
 71
     2
 72
     2
 73
     0
 90
        0
 40
-0.6
 41
-30.0
 62
     5
 63
     7
 74
     1
 91
        4
 64
     7
 65
   257
 75
     1
175
     1
 42
1.0
 92
        8
 66
     7
 43
1.0
 76
     1
 77
     6
 78
     2
 67
     7
 79
     5
170
     0
171
     0
290
     0
174
     0
 93
        1
 44
0.0
173
     0
291
     1
 45
0.0
1001
ACAD
1000
AcDbSavedByObjectVersion
1070
     0
  0
VISUALSTYLE
  5
2B
102
{ACAD_REACTORS
330
2A
102
}
330
2A
100
AcDbVisualStyle
  2
Flat
 70
     0
 71
     2
 72
     1
 73
     1
 90
        2
 40
-0.6
 41
30.0
 62
     5
 63
     7
 74
     0
 91
        4
 64
     7
 65
   257
 75
     1
175
     1
 42
1.0
 92
        8
 66
     7
 43
1.0
 76
     1
 77
     6
 78
     2
 67
     7
 79
     5
170
     0
171
     0
290
     0
174
     0
 93
       13
 44
0.0
173
     0
291
     1
 45
0.0
1001
ACAD
1000
AcDbSavedByObjectVersion
1070
     0
  0
VISUALSTYLE
  5
2C
102
{ACAD_REACTORS
330
2A
102
}
330
2A
100
AcDbVisualStyle
  2
FlatWithEdges
 70
     1
 71
     2
 72
     1
 73
     1
 90
        2
 40
-0.6
 41
30.0
 62
     5
 63
     7
 74
     1
 91
        4
 64
     7
 65
   257
 75
     1
175
     1
 42
1.0
 92
        0
 66
   257
 43
1.0
 76
     1
 77
     6
 78
     2
 67
     7
 79
     5
170
     0
171
     0
290
     0
174
     0
 93
       13
 44
0.0
173
     0
291
     1
 45
0.0
1001
ACAD
1000
AcDbSavedByObjectVersion
1070
     0
  0
VISUALSTYLE
  5
2D
102
{ACAD_REACTORS
330
2A
102
}
330
2A
100
AcDbVisualStyle
  2
Gouraud
 70
     2
 71
     2
 72
     2
 73
     1
 90
        2
 40
-0.6
 41
30.0
 62
     5
 63
     7
 74
     0
 91
        4
 64
     7
 65
   257
 75
     1
175
     1
 42
1.0
 92
        0
 66
     7
 43
1.0
 76
     1
 77
     6
 78
     2
 67
     7
 79
     5
170
     0
171
     0
290
     0
174
     0
 93
       13
 44
0.0
173
     0
291
     1
 45
0.0
1001
ACAD
1000
AcDbSavedByObjectVersion
1070
     0
  0
VISUALSTYLE
  5
2E
102
{ACAD_REACTORS
330
2A
102
}
330
2A
100
AcDbVisualStyle
  2
GouraudWithEdges
 70
     3
 71
     2
 72
     2
 73
     1
 90
        2
 40
-0.6
 41
30.0
 62
     5
 63
     7
 74
     1
 91
        4
 64
     7
 65
   257
 75
     1
175
     1
 42
1.0
 92
        0
 66
   257
 43
1.0
 76
     1
 77
     6
 78
     2
 67
     7
 79
     5
170
     0
171
     0
290
     0
174
     0
 93
       13
 44
0.0
173
     0
291
     1
 45
0.0
1001
ACAD
1000
AcDbSavedByObjectVersion
1070
     0
  0
VISUALSTYLE
  5
38
102
{ACAD_REACTORS
330
2A
102
}
330
2A
100
AcDbVisualStyle
  2
Linepattern
 70
    14
 71
     2
 72
     2
 73
     0
 90
        0
 40
-0.6
 41
-30.0
 62
     5
 63
     7
 74
     1
 91
        4
 64
     7
 65
   257
 75
     7
175
     7
 42
1.0
 92
        8
 66
     7
 43
1.0
 76
     1
 77
     6
 78
     2
 67
     7
 79
     5
170
     0
171
     0
290
     0
174
     0
 93
        1
 44
0.0
173
     0
291
     1
 45
0.0
1001
ACAD
1000
AcDbSavedByObjectVersion
1070
     0
  0
VISUALSTYLE
  5
33
102
{ACAD_REACTORS
330
2A
102
}
330
2A
100
AcDbVisualStyle
  2
Realistic
 70
     8
 71
     2
 72
     2
 73
     0
 90
        0
 40
-0.6
 41
-30.0
 62
     5
 63
     7
 74
     1
 91
        0
 64
     7
 65
   257
 75
     1
175
     1
 42
1.0
 92
        8
 66
     8
 43
1.0
 76
     1
 77
     6
 78
     2
 67
     7
 79
     5
170
     0
171
     0
290
     0
174
     0
 93
       13
 44
0.0
173
     0
291
     0
 45
0.0
1001
ACAD
1000
AcDbSavedByObjectVersion
1070
     0
  0
VISUALSTYLE
  5
37
102
{ACAD_REACTORS
330
2A
102
}
330
2A
100
AcDbVisualStyle
  2
Thicken
 70
    13
 71
     2
 72
     2
 73
     0
 90
        0
 40
-0.6
 41
-30.0
 62
     5
 63
     7
 74
     1
 91
        4
 64
     7
 65
   257
 75
     1
175
     1
 42
1.0
 92
       12
 66
     7
 43
1.0
 76
     1
 77
     6
 78
     2
 67
     7
 79
     5
170
     0
171
     0
290
     0
174
     0
 93
        1
 44
0.0
173
     0
291
     1
 45
0.0
1001
ACAD
1000
AcDbSavedByObjectVersion
1070
     0
  0
DICTIONARYVAR
  5
EA
102
{ACAD_REACTORS
330
E9
102
}
330
E9
100
DictionaryVariables
280
     0
  1
1:1
  0
DICTIONARYVAR
  5
EE
102
{ACAD_REACTORS
330
E9
102
}
330
E9
100
DictionaryVariables
280
     0
  1
80.000000
  0
DICTIONARYVAR
  5
ED
102
{ACAD_REACTORS
330
E9
102
}
330
E9
100
DictionaryVariables
280
     0
  1
5.000000
  0
ENDSEC
  0
EOF
