  0
SECTION
  2
HEADER
  9
$ACADVER
  1
AC1009
  9
$INSBASE
 10
0
 20
0
  9
$EXTMIN
 10
-181.279639537156
 20
-134.1539800556397
  9
$EXTMAX
 10
197.09
 20
422.5
  9
$LIMMIN
 10
-181.279639537156
 20
-134.1539800556397
  9
$LIMMAX
 10
197.09
 20
422.5
  9
$VIEWCTR
 10
10
 20
10
  9
$VIEWSIZE
 40
10
  9
$SNAPMODE
 70
0
  9
$SNAPUNIT
 10
1
 20
1
  9
$SNAPBASE
 10
0
 20
0
  9
$SNAPANG
 50
0
  9
$SNAPSTYLE
 70
0
  9
$SNAPISOPAIR
 70
0
  9
$GRIDMODE
 70
0
  9
$GRIDUNIT
 10
0
 20
0
  9
$ORTHOMODE
 70
0
  9
$REGENMODE
 70
1
  9
$FILLMODE
 70
1
  9
$QTEXTMODE
 70
0
  9
$DRAGMODE
 70
2
  9
$LTSCALE
 40
1
  9
$OSMODE
 70
0
  9
$ATTMODE
 70
1
  9
$TEXTSIZE
 40
3.5
  9
$TRACEWID
 40
0.5
  9
$TEXTSTYLE
  7
STANDARD
  9
$CLAYER
  8
0
  9
$CELTYPE
  6
BYLAYER
  9
$CECOLOR
 62
256
  9
$DIMSCALE
 40
1
  9
$DIMASZ
 40
0.18
  9
$DIMEXO
 40
0.0625
  9
$DIMDLI
 40
0.38
  9
$DIMRND
 40
0
  9
$DIMDLE
 40
0
  9
$DIMEXE
 40
0.18
  9
$DIMTP
 40
0
  9
$DIMTM
 40
0
  9
$DIMTXT
 40
0.18
  9
$DIMCEN
 40
0.09
  9
$DIMTSZ
 40
0
  9
$DIMTOL
 70
0
  9
$DIMLIM
 70
0
  9
$DIMTIH
 70
1
  9
$DIMTOH
 70
1
  9
$DIMSE1
 70
0
  9
$DIMSE2
 70
0
  9
$DIMTAD
 70
0
  9
$DIMZIN
 70
0
  9
$DIMBLK
  1

  9
$DIMASO
 70
1
  9
$DIMSHO
 70
1
  9
$DIMPOST
  1

  9
$DIMAPOST
  1

  9
$DIMALT
 70
0
  9
$DIMALTD
 70
2
  9
$DIMALTF
 40
25.4
  9
$DIMLFAC
 40
1
  9
$DIMTOFL
 70
0
  9
$DIMTVP
 40
0
  9
$DIMTIX
 70
0
  9
$DIMSOXD
 70
0
  9
$DIMSAH
 70
0
  9
$DIMBLK1
  1

  9
$DIMBLK2
  1

  9
$DIMSTYLE
  2
*UNNAMED
  9
$DIMCLRD
 70
0
  9
$DIMCLRE
 70
0
  9
$DIMCLRT
 70
0
  9
$DIMTFAC
 40
1
  9
$DIMGAP
 40
0.09
  9
$LUNITS
 70
2
  9
$LUPREC
 70
4
  9
$AXISMODE
 70
0
  9
$AXISUNIT
 10
0
 20
0
  9
$SKETCHINC
 40
0.1
  9
$FILLETRAD
 40
2
  9
$AUNITS
 70
0
  9
$AUPREC
 70
0
  9
$MENU
  1
ACAD
  9
$ELEVATION
 40
0
  9
$THICKNESS
 40
0
  9
$VIEWDIR
 10
0
 20
0
 30
1
  9
$LIMCHECK
 70
0
  9
$BLIPMODE
 70
1
  9
$CHAMFERA
 40
0
  9
$CHAMFERB
 40
0
  9
$FASTZOOM
 70
1
  9
$SKPOLY
 70
0
  9
$ANGBASE
 50
0
  9
$ANGDIR
 70
0
  9
$PDMODE
 70
0
  9
$PDSIZE
 40
0
  9
$PLINEWID
 40
0
  9
$COORDS
 70
2
  0
ENDSEC
  0
SECTION
  2
TABLES
  0
TABLE
  2
DIMSTYLE
 70
4
  0
DIMSTYLE
  2
DMST_1
 70
0
  3

  4

  5

  6

  7

 40
1
 41
5
 42
0
 43
7
 44
2
 45
0
 46
0
 47
0
 48
0
140
5
141
0
142
0
143
25.4
144
1
145
0
146
1
147
0.09
 71
0
 72
0
 73
0
 74
0
 75
0
 76
0
 77
1
 78
9
170
0
171
2
172
0
173
0
174
0
175
0
176
1
177
1
178
7
  0
DIMSTYLE
  2
DMST_2
 70
0
  3

  4

  5

  6

  7

 40
1
 41
5
 42
0
 43
7
 44
1.5
 45
0
 46
0
 47
0
 48
0
140
5
141
0
142
0
143
25.4
144
1
145
0
146
1
147
0.09
 71
0
 72
0
 73
0
 74
0
 75
0
 76
0
 77
1
 78
1
170
0
171
2
172
0
173
0
174
0
175
0
176
1
177
1
178
7
  0
DIMSTYLE
  2
DMST_3
 70
0
  3

  4

  5

  6

  7

 40
1
 41
5
 42
0
 43
7
 44
1.5
 45
0
 46
0
 47
0
 48
0
140
5
141
0
142
0
143
25.4
144
1
145
0
146
1
147
0.09
 71
0
 72
0
 73
0
 74
0
 75
0
 76
0
 77
1
 78
9
170
0
171
2
172
0
173
0
174
0
175
0
176
1
177
1
178
7
  0
DIMSTYLE
  2
DMST_4
 70
0
  3
x90%%d
  4

  5

  6

  7

 40
1
 41
5
 42
0
 43
7
 44
2
 45
0
 46
0
 47
0
 48
0
140
5
141
-1.5
142
0
143
25.4
144
1
145
0
146
1
147
0.09
 71
0
 72
0
 73
0
 74
0
 75
0
 76
0
 77
1
 78
9
170
0
171
2
172
1
173
0
174
0
175
0
176
1
177
1
178
7
  0
ENDTAB
  0
TABLE
  2
LTYPE
 70
9
  0
LTYPE
  2
CONTINUOUS
 70
64
  3
Solid line
 72
65
 73
0
 40
0
  0
LTYPE
  2
BORDER
 70
64
  3
__ __ . __ __ .
 72
65
 73
6
 40
25.63538066045709
 49
7.324394474416312
 49
-3.662197237208156
 49
7.324394474416312
 49
-3.662197237208156
 49
0
 49
-3.662197237208156
  0
LTYPE
  2
CENTER
 70
64
  3
____ _ ____ _
 72
65
 73
4
 40
29.29757789766525
 49
18.31098618604078
 49
-3.662197237208156
 49
3.662197237208156
 49
-3.662197237208156
  0
LTYPE
  2
DASHDOT
 70
64
  3
__ . __ . __ .
 72
65
 73
4
 40
14.64878894883262
 49
7.324394474416312
 49
-3.662197237208156
 49
0
 49
-3.662197237208156
  0
LTYPE
  2
DASHED
 70
64
  3
__ __ __ __ __
 72
65
 73
2
 40
10.98659171162447
 49
7.324394474416312
 49
-3.662197237208156
  0
LTYPE
  2
DIVIDE
 70
64
  3
__ . . __ . . 
 72
65
 73
6
 40
18.31098618604078
 49
7.324394474416312
 49
-3.662197237208156
 49
0
 49
-3.662197237208156
 49
0
 49
-3.662197237208156
  0
LTYPE
  2
DOT
 70
64
  3
..............
 72
65
 73
4
 40
7.324394474416312
 49
0
 49
-3.662197237208156
 49
0
 49
-3.662197237208156
  0
LTYPE
  2
HIDDEN
 70
64
  3
_ _ _ _ _ _ _
 72
65
 73
2
 40
5.493295855812234
 49
3.662197237208156
 49
-1.831098618604078
  0
LTYPE
  2
PHANTOM
 70
64
  3
_____ _ _ _____ _ _ 
 72
65
 73
6
 40
36.62197237208156
 49
18.31098618604078
 49
-3.662197237208156
 49
3.662197237208156
 49
-3.662197237208156
 49
3.662197237208156
 49
-3.662197237208156
  0
ENDTAB
  0
TABLE
  2
LAYER
 70
3
  0
LAYER
  2
1
 70
0
 62
7
  6
CONTINUOUS
  0
LAYER
  2
0
 70
0
 62
7
  6
CONTINUOUS
  0
ENDTAB
  0
TABLE
  2
STYLE
 70
4
  0
STYLE
  2
STANDARD
 70
0
 40
0
 41
1
 50
0
 71
0
 42
3.5
  3
txt
  4

  0
STYLE
  2
SIMPLEX
 70
0
 40
0
 41
1
 50
0
 71
0
 42
3.5
  3
simplex
  4

  0
STYLE
  2
COMPLEX
 70
0
 40
0
 41
1
 50
0
 71
0
 42
3.5
  3
complex
  4

  0
STYLE
  2
ITALIC
 70
0
 40
0
 41
1
 50
0
 71
0
 42
3.5
  3
italic
  4

  0
ENDTAB
  0
TABLE
  2
VIEW
 70
0
  0
ENDTAB
  0
ENDSEC
  0
SECTION
  2
BLOCKS
  0
BLOCK
  8
0
  2
3-10905
 70
0
 10
-12.45443982415901
 20
365.8274274095205
 30
0
  0
LINE
  8
1
 62
2
  6
PHANTOM
 10
67.25196245324179
 20
35.32231599761359
 30
0
 11
73.70064063514121
 21
41.7709941795127
 31
0
  0
LINE
  8
1
 62
2
  6
PHANTOM
 10
47.52476913210023
 20
36.6669047558312
 30
0
 11
43.28212844498069
 21
40.90954544295049
 31
0
  0
LINE
  8
1
 62
2
  6
PHANTOM
 10
45.40344878854023
 20
34.54558441227159
 30
0
 11
47.52476913210023
 21
36.6669047558312
 31
0
  0
LINE
  8
1
 62
2
  6
PHANTOM
 10
41.16080810142108
 20
38.78822509939089
 30
0
 11
45.40344878854023
 21
34.54558441227159
 31
0
  0
LINE
  8
1
 62
2
  6
PHANTOM
 10
43.28212844498069
 20
40.90954544295049
 30
0
 11
41.16080810142108
 21
38.78822509939089
 31
0
  0
LINE
  8
1
 62
2
  6
PHANTOM
 10
46.46410896032023
 20
37.72756492761097
 30
0
 11
44.34278861676046
 21
35.60624458405148
 31
0
  0
LINE
  8
1
 62
2
  6
PHANTOM
 10
40.29935936485879
 20
41.7709941795127
 30
0
 11
46.74803754675816
 21
35.32231599761359
 31
0
  0
LINE
  8
1
 62
2
  6
PHANTOM
 10
72.83919189857892
 20
38.78822509939089
 30
0
 11
70.71787155501863
 21
40.90954544295049
 31
0
  0
LINE
  8
1
 62
2
  6
PHANTOM
 10
68.59655121145931
 20
34.54558441227159
 30
0
 11
72.83919189857892
 21
38.78822509939089
 31
0
  0
LINE
  8
1
 62
2
  6
PHANTOM
 10
66.47523086789909
 20
36.6669047558312
 30
0
 11
68.59655121145931
 21
34.54558441227159
 31
0
  0
LINE
  8
1
 62
2
  6
PHANTOM
 10
70.71787155501863
 20
40.90954544295049
 30
0
 11
66.47523086789909
 21
36.6669047558312
 31
0
  0
LINE
  8
1
 62
2
  6
PHANTOM
 10
69.6572113832396
 20
35.60624458405148
 30
0
 11
67.53589103967983
 21
37.72756492761097
 31
0
  0
LINE
  8
1
 62
2
  6
PHANTOM
 10
51.01908674880468
 20
12
 30
0
 11
63.11140590394859
 21
12
 31
0
  0
LINE
  8
1
 62
2
  6
PHANTOM
 10
62.10000000000002
 20
12
 30
0
 11
62.10000000000002
 21
25.07540614909438
 31
0
  0
LINE
  8
1
 62
2
  6
PHANTOM
 10
51.89999999999998
 20
12
 30
0
 11
51.89999999999998
 21
25.07540614909438
 31
0
  0
ARC
  8
1
 62
2
  6
PHANTOM
 10
57
 20
31.99999999999999
 30
0
 40
6.999999999999893
 50
0
 51
180
  0
ARC
  8
1
 62
2
  6
PHANTOM
 10
57
 20
31.99999999999999
 30
0
 40
7.000000000000107
 50
180
 51
0
  0
ARC
  8
1
 62
2
  6
PHANTOM
 10
57
 20
12.94999999999999
 30
0
 40
5.112500000000011
 50
180
 51
0
  0
ARC
  8
1
 62
2
  6
PHANTOM
 10
57
 20
31.99999999999999
 30
0
 40
8.6
 50
306.3718424099346
 51
233.6281575900654
  0
ARC
  8
1
 62
2
  6
PHANTOM
 10
57
 20
12
 30
0
 40
5.100000000000023
 50
180
 51
0
  0
CIRCLE
  8
1
 62
2
  6
PHANTOM
 10
67
 20
17.49999999999999
 30
0
 40
2.599999999999909
  0
CIRCLE
  8
1
 62
2
  6
PHANTOM
 10
47
 20
17.49999999999999
 30
0
 40
2.599999999999909
  0
ENDBLK
  8
0
  0
BLOCK
  8
0
  2
1607_BB_RZ_PZ_WC_DM_50_60_300
 70
0
 10
-301.889142628816
 20
18.2452600216685
 30
0
  0
LINE
  8
1
 62
2
  6
DASHED
 10
55.75
 20
26.2
 30
0
 11
55.75
 21
28.7308257923445
 31
0
  0
LINE
  8
1
 62
2
  6
DASHED
 10
54.10000000000002
 20
25.53335672737207
 30
0
 11
55.75
 21
26.2
 31
0
  0
LINE
  8
1
 62
2
  6
DASHED
 10
54.10000000000002
 20
23.76089305106827
 30
0
 11
54.10000000000002
 21
25.53335672737207
 31
0
  0
LINE
  8
1
 62
2
  6
DASHED
 10
57.5
 20
23.09999999999998
 30
0
 11
54.10000000000002
 21
23.76089305106827
 31
0
  0
LINE
  8
1
 62
2
  6
DASHED
 10
57.5
 20
19.09999999999998
 30
0
 11
57.5
 21
23.09999999999998
 31
0
  0
LINE
  8
1
 62
2
  6
DASHED
 10
54.10000000000002
 20
18.50048826559119
 30
0
 11
57.5
 21
19.09999999999998
 31
0
  0
LINE
  8
1
 62
2
  6
DASHED
 10
54.10000000000002
 20
16.74500453720879
 30
0
 11
54.10000000000002
 21
18.50048826559119
 31
0
  0
LINE
  8
1
 62
2
  6
DASHED
 10
59.90000000000001
 20
25.5333567273719
 30
0
 11
59.90000000000001
 21
16.74500453720879
 31
0
  0
LINE
  8
1
 62
2
  6
DASHED
 10
58.25
 20
26.2
 30
0
 11
59.90000000000001
 21
25.5333567273719
 31
0
  0
LINE
  8
1
 62
2
  6
DASHED
 10
58.25
 20
28.7308257923445
 30
0
 11
58.25
 21
26.2
 31
0
  0
ARC
  8
1
 62
2
  6
DASHED
 10
57
 20
19.49999999999999
 30
0
 40
3.999999999999996
 50
223.5311521673729
 51
316.4688478326275
  0
ARC
  8
1
 62
2
  6
DASHED
 10
57
 20
31.99999999999999
 30
0
 40
3.499999999999984
 50
290.9248324276384
 51
249.0751675723616
  0
INSERT
  8
0
  2
3-10905
 10
-12.45443982415901
 20
365.8274274095205
 30
0
  0
ENDBLK
  8
0
  0
BLOCK
  8
1
  2
*D0
 70
1
 10
0
 20
0
 30
0
  0
LINE
  8
1
 62
1
 10
-91.8454767063922
 20
414.671051962818
 30
0
 11
-57.3454767063922
 21
414.671051962818
 31
0
  0
LINE
  8
1
 62
1
 10
-57.3454767063922
 20
395.286971830986
 30
0
 11
-57.3454767063922
 21
416.171051962818
 31
0
  0
LINE
  8
1
 62
1
 10
-91.8454767063922
 20
390.286971830986
 30
0
 11
-91.8454767063922
 21
416.171051962818
 31
0
  0
SOLID
  8
1
 62
1
 10
-91.8454767063922
 20
414.671051962818
 30
0
 11
-86.8454767063922
 21
415.321051962818
 31
0
 12
-86.8454767063922
 22
414.021051962818
 32
0
 13
-86.8454767063922
 23
414.021051962818
 33
0
  0
SOLID
  8
1
 62
1
 10
-57.3454767063922
 20
414.671051962818
 30
0
 11
-62.3454767063922
 21
414.021051962818
 31
0
 12
-62.3454767063922
 22
415.321051962818
 32
0
 13
-62.3454767063922
 23
415.321051962818
 33
0
  0
TEXT
  8
1
 62
7
 10
-76.6883856006948
 20
416.171051962818
 30
0
 40
5
  1
34,5
 41
0.9
  0
ENDBLK
  8
0
  0
BLOCK
  8
1
  2
*D1
 70
1
 10
0
 20
0
 30
0
  0
LINE
  8
1
 62
1
 10
-103.588272650949
 20
335.286971830986
 30
0
 11
-103.588272650949
 21
395.286971830986
 31
0
  0
LINE
  8
1
 62
1
 10
-86.8454767063922
 20
395.286971830986
 30
0
 11
-105.088272650949
 21
395.286971830986
 31
0
  0
LINE
  8
1
 62
1
 10
-91.8454767063922
 20
335.286971830986
 30
0
 11
-105.088272650949
 21
335.286971830986
 31
0
  0
SOLID
  8
1
 62
1
 10
-103.588272650949
 20
335.286971830986
 30
0
 11
-104.238272650949
 21
340.286971830986
 31
0
 12
-102.938272650949
 22
340.286971830986
 32
0
 13
-102.938272650949
 23
340.286971830986
 33
0
  0
SOLID
  8
1
 62
1
 10
-103.588272650949
 20
395.286971830986
 30
0
 11
-102.938272650949
 21
390.286971830986
 31
0
 12
-104.238272650949
 22
390.286971830986
 32
0
 13
-104.238272650949
 23
390.286971830986
 33
0
  0
TEXT
  8
1
 62
7
 10
-104.588272650949
 20
361.536971830986
 30
0
 40
5
  1
60
 50
90
 41
0.9
  0
ENDBLK
  8
0
  0
BLOCK
  8
1
  2
*D2
 70
1
 10
0
 20
0
 30
0
  0
LINE
  8
1
 62
1
 10
-122.221129122849
 20
324.395159543812
 30
0
 11
-112.221129122849
 21
324.395159543812
 31
0
  0
LINE
  8
1
 62
1
 10
-130.221129122849
 20
324.395159543812
 30
0
 11
-140.221129122849
 21
324.395159543812
 31
0
  0
LINE
  8
1
 62
1
 10
-130.221129122849
 20
324.395159543812
 30
0
 11
-122.221129122849
 21
324.395159543812
 31
0
  0
LINE
  8
1
 62
1
 10
-122.221129122849
 20
343.286971830986
 30
0
 11
-122.221129122849
 21
322.895159543812
 31
0
  0
LINE
  8
1
 62
1
 10
-130.221129122849
 20
338.886971830986
 30
0
 11
-130.221129122849
 21
322.895159543812
 31
0
  0
SOLID
  8
1
 62
1
 10
-130.221129122849
 20
324.395159543812
 30
0
 11
-135.221129122849
 21
323.745159543812
 31
0
 12
-135.221129122849
 22
325.045159543812
 32
0
 13
-135.221129122849
 23
325.045159543812
 33
0
  0
SOLID
  8
1
 62
1
 10
-122.221129122849
 20
324.395159543812
 30
0
 11
-117.221129122849
 21
325.045159543812
 31
0
 12
-117.221129122849
 22
323.745159543812
 32
0
 13
-117.221129122849
 23
323.745159543812
 33
0
  0
TEXT
  8
1
 62
7
 10
-127.721129122849
 20
325.395159543812
 30
0
 40
5
  1
8
 41
0.9
  0
ENDBLK
  8
0
  0
BLOCK
  8
1
  2
*D3
 70
1
 10
0
 20
0
 30
0
  0
LINE
  8
1
 62
1
 10
-154.221129122849
 20
324.395159543812
 30
0
 11
-130.221129122849
 21
324.395159543812
 31
0
  0
LINE
  8
1
 62
1
 10
-130.221129122849
 20
338.886971830986
 30
0
 11
-130.221129122849
 21
322.895159543812
 31
0
  0
LINE
  8
1
 62
1
 10
-154.221129122849
 20
338.886971830986
 30
0
 11
-154.221129122849
 21
322.895159543812
 31
0
  0
SOLID
  8
1
 62
1
 10
-154.221129122849
 20
324.395159543812
 30
0
 11
-149.221129122849
 21
325.045159543812
 31
0
 12
-149.221129122849
 22
323.745159543812
 32
0
 13
-149.221129122849
 23
323.745159543812
 33
0
  0
SOLID
  8
1
 62
1
 10
-130.221129122849
 20
324.395159543812
 30
0
 11
-135.221129122849
 21
323.745159543812
 31
0
 12
-135.221129122849
 22
325.045159543812
 32
0
 13
-135.221129122849
 23
325.045159543812
 33
0
  0
TEXT
  8
1
 62
7
 10
-145.971129122849
 20
325.395159543812
 30
0
 40
5
  1
24
 41
0.9
  0
ENDBLK
  8
0
  0
BLOCK
  8
1
  2
*D4
 70
1
 10
0
 20
0
 30
0
  0
LINE
  8
1
 62
1
 10
-154.221129122849
 20
324.395159543812
 30
0
 11
-144.221129122849
 21
324.395159543812
 31
0
  0
LINE
  8
1
 62
1
 10
-162.221129122849
 20
324.395159543812
 30
0
 11
-172.221129122849
 21
324.395159543812
 31
0
  0
LINE
  8
1
 62
1
 10
-162.221129122849
 20
324.395159543812
 30
0
 11
-154.221129122849
 21
324.395159543812
 31
0
  0
LINE
  8
1
 62
1
 10
-154.221129122849
 20
338.886971830986
 30
0
 11
-154.221129122849
 21
322.895159543812
 31
0
  0
LINE
  8
1
 62
1
 10
-162.221129122849
 20
343.286971830986
 30
0
 11
-162.221129122849
 21
322.895159543812
 31
0
  0
SOLID
  8
1
 62
1
 10
-162.221129122849
 20
324.395159543812
 30
0
 11
-167.221129122849
 21
323.745159543812
 31
0
 12
-167.221129122849
 22
325.045159543812
 32
0
 13
-167.221129122849
 23
325.045159543812
 33
0
  0
SOLID
  8
1
 62
1
 10
-154.221129122849
 20
324.395159543812
 30
0
 11
-149.221129122849
 21
325.045159543812
 31
0
 12
-149.221129122849
 22
323.745159543812
 32
0
 13
-149.221129122849
 23
323.745159543812
 33
0
  0
TEXT
  8
1
 62
7
 10
-159.721129122849
 20
325.395159543812
 30
0
 40
5
  1
8
 41
0.9
  0
ENDBLK
  8
0
  0
BLOCK
  8
1
  2
*D5
 70
1
 10
0
 20
0
 30
0
  0
LINE
  8
1
 62
1
 10
-175.279639537156
 20
343.286971830986
 30
0
 11
-175.279639537156
 21
375.286971830986
 31
0
  0
LINE
  8
1
 62
1
 10
-158.621129122849
 20
375.286971830986
 30
0
 11
-176.779639537156
 21
375.286971830986
 31
0
  0
LINE
  8
1
 62
1
 10
-158.621129122849
 20
343.286971830986
 30
0
 11
-176.779639537156
 21
343.286971830986
 31
0
  0
SOLID
  8
1
 62
1
 10
-175.279639537156
 20
375.286971830986
 30
0
 11
-174.629639537156
 21
370.286971830986
 31
0
 12
-175.929639537156
 22
370.286971830986
 32
0
 13
-175.929639537156
 23
370.286971830986
 33
0
  0
SOLID
  8
1
 62
1
 10
-175.279639537156
 20
343.286971830986
 30
0
 11
-175.929639537156
 21
348.286971830986
 31
0
 12
-174.629639537156
 22
348.286971830986
 32
0
 13
-174.629639537156
 23
348.286971830986
 33
0
  0
TEXT
  8
1
 62
7
 10
-176.279639537156
 20
355.536971830986
 30
0
 40
5
  1
32
 50
90
 41
0.9
  0
ENDBLK
  8
0
  0
BLOCK
  8
1
  2
*D6
 70
1
 10
0
 20
0
 30
0
  0
LINE
  8
1
 62
1
 10
-175.279639537156
 20
375.286971830986
 30
0
 11
-175.279639537156
 21
395.286971830986
 31
0
  0
LINE
  8
1
 62
1
 10
-162.221129122849
 20
395.286971830986
 30
0
 11
-176.779639537156
 21
395.286971830986
 31
0
  0
LINE
  8
1
 62
1
 10
-158.621129122849
 20
375.286971830986
 30
0
 11
-176.779639537156
 21
375.286971830986
 31
0
  0
SOLID
  8
1
 62
1
 10
-175.279639537156
 20
395.286971830986
 30
0
 11
-174.629639537156
 21
390.286971830986
 31
0
 12
-175.929639537156
 22
390.286971830986
 32
0
 13
-175.929639537156
 23
390.286971830986
 33
0
  0
SOLID
  8
1
 62
1
 10
-175.279639537156
 20
375.286971830986
 30
0
 11
-175.929639537156
 21
380.286971830986
 31
0
 12
-174.629639537156
 22
380.286971830986
 32
0
 13
-174.629639537156
 23
380.286971830986
 33
0
  0
TEXT
  8
1
 62
7
 10
-176.279639537156
 20
381.536971830986
 30
0
 40
5
  1
20
 50
90
 41
0.9
  0
ENDBLK
  8
0
  0
BLOCK
  8
1
  2
*D7
 70
1
 10
0
 20
0
 30
0
  0
LINE
  8
1
 62
1
 10
-135.221129122849
 20
255.697914233463
 30
0
 11
-125.221129122849
 21
255.697914233463
 31
0
  0
LINE
  8
1
 62
1
 10
-149.221129122849
 20
255.697914233463
 30
0
 11
-159.221129122849
 21
255.697914233463
 31
0
  0
LINE
  8
1
 62
1
 10
-149.221129122849
 20
255.697914233463
 30
0
 11
-135.221129122849
 21
255.697914233463
 31
0
  0
LINE
  8
1
 62
1
 10
-135.221129122849
 20
277.286971830986
 30
0
 11
-135.221129122849
 21
254.197914233463
 31
0
  0
LINE
  8
1
 62
1
 10
-149.221129122849
 20
277.286971830986
 30
0
 11
-149.221129122849
 21
254.197914233463
 31
0
  0
SOLID
  8
1
 62
1
 10
-149.221129122849
 20
255.697914233463
 30
0
 11
-154.221129122849
 21
255.047914233463
 31
0
 12
-154.221129122849
 22
256.347914233463
 32
0
 13
-154.221129122849
 23
256.347914233463
 33
0
  0
SOLID
  8
1
 62
1
 10
-135.221129122849
 20
255.697914233463
 30
0
 11
-130.221129122849
 21
256.347914233463
 31
0
 12
-130.221129122849
 22
255.047914233463
 32
0
 13
-130.221129122849
 23
255.047914233463
 33
0
  0
TEXT
  8
1
 62
7
 10
-145.221129122849
 20
256.697914233463
 30
0
 40
5
  1
14
 41
0.9
  0
ENDBLK
  8
0
  0
BLOCK
  8
1
  2
*D8
 70
1
 10
0
 20
0
 30
0
  0
LINE
  8
1
 62
1
 10
-108.810553156965
 20
282.786971830986
 30
0
 11
-108.810553156965
 21
297.286971830986
 31
0
  0
LINE
  8
1
 62
1
 10
-136.221129122849
 20
297.286971830986
 30
0
 11
-107.310553156965
 21
297.286971830986
 31
0
  0
LINE
  8
1
 62
1
 10
-135.221129122849
 20
282.786971830986
 30
0
 11
-107.310553156965
 21
282.786971830986
 31
0
  0
SOLID
  8
1
 62
1
 10
-108.810553156965
 20
282.786971830986
 30
0
 11
-109.460553156965
 21
287.786971830986
 31
0
 12
-108.160553156965
 22
287.786971830986
 32
0
 13
-108.160553156965
 23
287.786971830986
 33
0
  0
SOLID
  8
1
 62
1
 10
-108.810553156965
 20
297.286971830986
 30
0
 11
-108.160553156965
 21
292.286971830986
 31
0
 12
-109.460553156965
 22
292.286971830986
 32
0
 13
-109.460553156965
 23
292.286971830986
 33
0
  0
TEXT
  8
1
 62
7
 10
-109.810553156965
 20
287.036971830986
 30
0
 40
5
  1
12
 50
90
 41
0.9
  0
ENDBLK
  8
0
  0
BLOCK
  8
1
  2
*D9
 70
1
 10
0
 20
0
 30
0
  0
LINE
  8
1
 62
1
 10
-108.815304539756
 20
305.286971830986
 30
0
 11
-108.815304539756
 21
315.286971830986
 31
0
  0
LINE
  8
1
 62
1
 10
-108.815304539756
 20
297.286971830986
 30
0
 11
-108.815304539756
 21
287.286971830986
 31
0
  0
LINE
  8
1
 62
1
 10
-108.815304539756
 20
297.286971830986
 30
0
 11
-108.815304539756
 21
305.286971830986
 31
0
  0
LINE
  8
1
 62
1
 10
-122.221129122849
 20
305.286971830986
 30
0
 11
-107.315304539756
 21
305.286971830986
 31
0
  0
LINE
  8
1
 62
1
 10
-136.221129122849
 20
297.286971830986
 30
0
 11
-107.315304539756
 21
297.286971830986
 31
0
  0
SOLID
  8
1
 62
1
 10
-108.815304539756
 20
305.286971830986
 30
0
 11
-109.465304539756
 21
310.286971830986
 31
0
 12
-108.165304539756
 22
310.286971830986
 32
0
 13
-108.165304539756
 23
310.286971830986
 33
0
  0
SOLID
  8
1
 62
1
 10
-108.815304539756
 20
297.286971830986
 30
0
 11
-108.165304539756
 21
292.286971830986
 31
0
 12
-109.465304539756
 22
292.286971830986
 32
0
 13
-109.465304539756
 23
292.286971830986
 33
0
  0
TEXT
  8
1
 62
7
 10
-109.815304539756
 20
299.786971830986
 30
0
 40
5
  1
8
 50
90
 41
0.9
  0
ENDBLK
  8
0
  0
BLOCK
  8
1
  2
*D10
 70
1
 10
0
 20
0
 30
0
  0
LINE
  8
1
 62
1
 10
60.99999999999999
 20
131.304714524332
 30
0
 11
71
 21
131.304714524332
 31
0
  0
LINE
  8
1
 62
1
 10
52.99999999999998
 20
131.304714524332
 30
0
 11
42.99999999999999
 21
131.304714524332
 31
0
  0
LINE
  8
1
 62
1
 10
52.99999999999998
 20
131.304714524332
 30
0
 11
60.99999999999999
 21
131.304714524332
 31
0
  0
LINE
  8
1
 62
1
 10
60.99999999999999
 20
114
 30
0
 11
60.99999999999999
 21
132.804714524332
 31
0
  0
LINE
  8
1
 62
1
 10
52.99999999999998
 20
114
 30
0
 11
52.99999999999998
 21
132.804714524332
 31
0
  0
SOLID
  8
1
 62
1
 10
52.99999999999998
 20
131.304714524332
 30
0
 11
47.99999999999998
 21
130.654714524332
 31
0
 12
47.99999999999998
 22
131.954714524332
 32
0
 13
47.99999999999998
 23
131.954714524332
 33
0
  0
SOLID
  8
1
 62
1
 10
60.99999999999999
 20
131.304714524332
 30
0
 11
66
 21
131.954714524332
 31
0
 12
66
 22
130.654714524332
 32
0
 13
66
 23
130.654714524332
 33
0
  0
TEXT
  8
1
 62
7
 10
31.94619374999999
 20
131.894714524332
 30
0
 40
5
  1
8 oder/au 8,5
 41
0.88209
  0
ENDBLK
  8
0
  0
BLOCK
  8
1
  2
*D11
 70
1
 10
0
 20
0
 30
0
  0
LINE
  8
1
 62
1
 10
129.59
 20
0
 30
0
 11
129.59
 21
160
 31
0
  0
LINE
  8
1
 62
1
 10
77
 20
160
 30
0
 11
131.09
 21
160
 31
0
  0
LINE
  8
1
 62
1
 10
77
 20
0
 30
0
 11
131.09
 21
0
 31
0
  0
SOLID
  8
1
 62
1
 10
129.59
 20
160
 30
0
 11
130.24
 21
155
 31
0
 12
128.94
 22
155
 32
0
 13
128.94
 23
155
 33
0
  0
SOLID
  8
1
 62
1
 10
129.59
 20
0
 30
0
 11
128.94
 21
5
 31
0
 12
130.24
 22
5
 32
0
 13
130.24
 23
5
 33
0
  0
TEXT
  8
1
 62
7
 10
129.5
 20
74.85447500000001
 30
0
 40
5
  1
160
 50
90
 41
0.88209
  0
ENDBLK
  8
0
  0
BLOCK
  8
1
  2
*D12
 70
1
 10
0
 20
0
 30
0
  0
LINE
  8
1
 62
1
 10
15.6
 20
148.650990739839
 30
0
 11
29.4628391379447
 21
148.650990739839
 31
0
  0
LINE
  8
1
 62
1
 10
-3
 20
148.650990739839
 30
0
 11
15.6
 21
148.650990739839
 31
0
  0
LINE
  8
1
 62
1
 10
15.6
 20
160
 30
0
 11
15.6
 21
147.150990739839
 31
0
  0
LINE
  8
1
 62
1
 10
-3
 20
279.9999999999998
 30
0
 11
-3
 21
147.150990739839
 31
0
  0
SOLID
  8
1
 62
1
 10
15.6
 20
148.650990739839
 30
0
 11
10.6
 21
148.000990739839
 31
0
 12
10.6
 22
149.300990739839
 32
0
 13
10.6
 23
149.300990739839
 33
0
  0
SOLID
  8
1
 62
1
 10
-3
 20
148.650990739839
 30
0
 11
2.000000000000001
 21
149.300990739839
 31
0
 12
2.000000000000001
 22
148.000990739839
 32
0
 13
2.000000000000001
 23
148.000990739839
 33
0
  0
TEXT
  8
1
 62
7
 10
23.5822391379447
 20
148.740990739839
 30
0
 40
5
  1
19
 41
0.88209
  0
ENDBLK
  8
0
  0
BLOCK
  8
1
  2
*D13
 70
1
 10
0
 20
0
 30
0
  0
LINE
  8
1
 62
1
 10
31.59
 20
160
 30
0
 11
31.59
 21
218
 31
0
  0
LINE
  8
1
 62
1
 10
16
 20
218
 30
0
 11
33.09
 21
218
 31
0
  0
LINE
  8
1
 62
1
 10
0
 20
160
 30
0
 11
33.09
 21
160
 31
0
  0
SOLID
  8
1
 62
1
 10
31.59
 20
218
 30
0
 11
32.24
 21
213
 31
0
 12
30.94
 22
213
 32
0
 13
30.94
 23
213
 33
0
  0
SOLID
  8
1
 62
1
 10
31.59
 20
160
 30
0
 11
30.94
 21
165
 31
0
 12
32.23999999999999
 22
165
 32
0
 13
32.23999999999999
 23
165
 33
0
  0
TEXT
  8
1
 62
7
 10
31.5
 20
185.324625
 30
0
 40
5
  1
58
 50
90
 41
0.88209
  0
ENDBLK
  8
0
  0
BLOCK
  8
1
  2
*D14
 70
1
 10
0
 20
0
 30
0
  0
LINE
  8
1
 62
1
 10
159.5
 20
417.41
 30
0
 11
169.5
 21
417.41
 31
0
  0
LINE
  8
1
 62
1
 10
150.5
 20
417.41
 30
0
 11
140.5
 21
417.41
 31
0
  0
LINE
  8
1
 62
1
 10
150.5
 20
417.41
 30
0
 11
159.5
 21
417.41
 31
0
  0
LINE
  8
1
 62
1
 10
159.5
 20
405
 30
0
 11
159.5
 21
418.91
 31
0
  0
LINE
  8
1
 62
1
 10
150.5
 20
405
 30
0
 11
150.5
 21
418.91
 31
0
  0
SOLID
  8
1
 62
1
 10
150.5
 20
417.41
 30
0
 11
145.5
 21
416.76
 31
0
 12
145.5
 22
418.06
 32
0
 13
145.5
 23
418.06
 33
0
  0
SOLID
  8
1
 62
1
 10
159.5
 20
417.41
 30
0
 11
164.5
 21
418.06
 31
0
 12
164.5
 22
416.76
 32
0
 13
164.5
 23
416.76
 33
0
  0
TEXT
  8
1
 62
7
 10
153.52985
 20
417.5
 30
0
 40
5
  1
9
 41
0.88209
  0
ENDBLK
  8
0
  0
BLOCK
  8
1
  2
*D15
 70
1
 10
0
 20
0
 30
0
  0
LINE
  8
1
 62
1
 10
14
 20
417.41
 30
0
 11
24
 21
417.41
 31
0
  0
LINE
  8
1
 62
1
 10
2.75
 20
417.41
 30
0
 11
-7.25
 21
417.41
 31
0
  0
LINE
  8
1
 62
1
 10
2.75
 20
417.41
 30
0
 11
14
 21
417.41
 31
0
  0
LINE
  8
1
 62
1
 10
14
 20
402.9999999999998
 30
0
 11
14
 21
418.91
 31
0
  0
LINE
  8
1
 62
1
 10
2.75
 20
398.8142105483753
 30
0
 11
2.75
 21
418.91
 31
0
  0
SOLID
  8
1
 62
1
 10
2.75
 20
417.41
 30
0
 11
-2.25
 21
416.76
 31
0
 12
-2.25
 22
418.06
 32
0
 13
-2.25
 23
418.06
 33
0
  0
SOLID
  8
1
 62
1
 10
14
 20
417.41
 30
0
 11
19
 21
418.06
 31
0
 12
19
 22
416.76
 32
0
 13
19
 23
416.76
 33
0
  0
TEXT
  8
1
 62
7
 10
6.169775
 20
417.5
 30
0
 40
5
  1
11
 41
0.88209
  0
ENDBLK
  8
0
  0
BLOCK
  8
1
  2
*D16
 70
1
 10
0
 20
0
 30
0
  0
LINE
  8
1
 62
1
 10
195.59
 20
-34.99999999999999
 30
0
 11
195.59
 21
279.9999999999998
 31
0
  0
LINE
  8
1
 62
1
 10
163
 20
279.9999999999998
 30
0
 11
197.09
 21
279.9999999999998
 31
0
  0
LINE
  8
1
 62
1
 10
155
 20
-34.99999999999999
 30
0
 11
197.09
 21
-34.99999999999999
 31
0
  0
SOLID
  8
1
 62
1
 10
195.59
 20
279.9999999999998
 30
0
 11
196.24
 21
274.9999999999998
 31
0
 12
194.94
 22
274.9999999999998
 32
0
 13
194.94
 23
274.9999999999998
 33
0
  0
SOLID
  8
1
 62
1
 10
195.59
 20
-34.99999999999999
 30
0
 11
194.94
 21
-29.99999999999999
 31
0
 12
196.24
 22
-29.99999999999999
 32
0
 13
196.24
 23
-29.99999999999999
 33
0
  0
TEXT
  8
1
 62
7
 10
195.5
 20
117.3544749999999
 30
0
 40
5
  1
315
 50
90
 41
0.88209
  0
ENDBLK
  8
0
  0
BLOCK
  8
1
  2
*D17
 70
1
 10
0
 20
0
 30
0
  0
LINE
  8
1
 62
1
 10
195.59
 20
279.9999999999998
 30
0
 11
195.59
 21
373
 31
0
  0
LINE
  8
1
 62
1
 10
165
 20
373
 30
0
 11
197.09
 21
373
 31
0
  0
LINE
  8
1
 62
1
 10
163
 20
279.9999999999998
 30
0
 11
197.09
 21
279.9999999999998
 31
0
  0
SOLID
  8
1
 62
1
 10
195.59
 20
279.9999999999998
 30
0
 11
194.94
 21
284.9999999999998
 31
0
 12
196.24
 22
284.9999999999998
 32
0
 13
196.24
 23
284.9999999999998
 33
0
  0
SOLID
  8
1
 62
1
 10
195.59
 20
373
 30
0
 11
196.24
 21
368
 31
0
 12
194.94
 22
368
 32
0
 13
194.94
 23
368
 33
0
  0
TEXT
  8
1
 62
7
 10
195.5
 20
310.1445812499999
 30
0
 40
5
  1
max. 1188
 50
90
 41
0.88209
  0
ENDBLK
  8
0
  0
BLOCK
  8
1
  2
*D18
 70
1
 10
0
 20
0
 30
0
  0
LINE
  8
1
 62
1
 10
180.59
 20
-27
 30
0
 11
180.59
 21
-17
 31
0
  0
LINE
  8
1
 62
1
 10
180.59
 20
-35
 30
0
 11
180.59
 21
-45
 31
0
  0
LINE
  8
1
 62
1
 10
180.59
 20
-35
 30
0
 11
180.59
 21
-27
 31
0
  0
LINE
  8
1
 62
1
 10
161.64
 20
-27
 30
0
 11
182.09
 21
-27
 31
0
  0
LINE
  8
1
 62
1
 10
155
 20
-35
 30
0
 11
182.09
 21
-35
 31
0
  0
SOLID
  8
1
 62
1
 10
180.59
 20
-27
 30
0
 11
179.94
 21
-22
 31
0
 12
181.24
 22
-22
 32
0
 13
181.24
 23
-22
 33
0
  0
SOLID
  8
1
 62
1
 10
180.59
 20
-35
 30
0
 11
181.24
 21
-40
 31
0
 12
179.94
 22
-40
 32
0
 13
179.94
 23
-40
 33
0
  0
TEXT
  8
1
 62
7
 10
180.5
 20
-32.47015
 30
0
 40
5
  1
8
 50
90
 41
0.88209
  0
ENDBLK
  8
0
  0
BLOCK
  8
1
  2
*D19
 70
1
 10
0
 20
0
 30
0
  0
LINE
  8
1
 62
1
 10
180.59
 20
279.9999999999998
 30
0
 11
180.59
 21
289.9999999999998
 31
0
  0
LINE
  8
1
 62
1
 10
180.59
 20
272.0000000000001
 30
0
 11
180.59
 21
262.0000000000001
 31
0
  0
LINE
  8
1
 62
1
 10
180.59
 20
272.0000000000001
 30
0
 11
180.59
 21
279.9999999999998
 31
0
  0
LINE
  8
1
 62
1
 10
163
 20
279.9999999999998
 30
0
 11
182.09
 21
279.9999999999998
 31
0
  0
LINE
  8
1
 62
1
 10
161.64
 20
272.0000000000001
 30
0
 11
182.09
 21
272.0000000000001
 31
0
  0
SOLID
  8
1
 62
1
 10
180.59
 20
279.9999999999998
 30
0
 11
179.94
 21
284.9999999999998
 31
0
 12
181.24
 22
284.9999999999998
 32
0
 13
181.24
 23
284.9999999999998
 33
0
  0
SOLID
  8
1
 62
1
 10
180.59
 20
272.0000000000001
 30
0
 11
181.24
 21
267.0000000000001
 31
0
 12
179.94
 22
267.0000000000001
 32
0
 13
179.94
 23
267.0000000000001
 33
0
  0
TEXT
  8
1
 62
7
 10
180.5
 20
274.5298499999999
 30
0
 40
5
  1
8
 50
90
 41
0.88209
  0
ENDBLK
  8
0
  0
BLOCK
  8
1
  2
*D20
 70
1
 10
0
 20
0
 30
0
  0
LINE
  8
1
 62
1
 10
180.59
 20
-27.00000000000001
 30
0
 11
180.59
 21
272.0000000000001
 31
0
  0
LINE
  8
1
 62
1
 10
161.64
 20
272.0000000000001
 30
0
 11
182.09
 21
272.0000000000001
 31
0
  0
LINE
  8
1
 62
1
 10
161.64
 20
-27.00000000000001
 30
0
 11
182.09
 21
-27.00000000000001
 31
0
  0
SOLID
  8
1
 62
1
 10
180.59
 20
272.0000000000001
 30
0
 11
181.24
 21
267.0000000000001
 31
0
 12
179.94
 22
267.0000000000001
 32
0
 13
179.94
 23
267.0000000000001
 33
0
  0
SOLID
  8
1
 62
1
 10
180.59
 20
-27.00000000000001
 30
0
 11
179.94
 21
-22.00000000000001
 31
0
 12
181.24
 22
-22.00000000000001
 32
0
 13
181.24
 23
-22.00000000000001
 33
0
  0
TEXT
  8
1
 62
7
 10
180.5
 20
116.6194000000001
 30
0
 40
5
  1
299
 50
90
 41
0.88209
  0
ENDBLK
  8
0
  0
BLOCK
  8
1
  2
*D21
 70
1
 10
0
 20
0
 30
0
  0
LINE
  8
1
 62
1
 10
114.59
 20
0
 30
0
 11
114.59
 21
31.99999999999999
 31
0
  0
LINE
  8
1
 62
1
 10
68.95204191523088
 20
31.99999999999999
 30
0
 11
116.09
 21
31.99999999999999
 31
0
  0
LINE
  8
1
 62
1
 10
77
 20
0
 30
0
 11
116.09
 21
0
 31
0
  0
SOLID
  8
1
 62
1
 10
114.59
 20
31.99999999999999
 30
0
 11
115.24
 21
26.99999999999999
 31
0
 12
113.94
 22
26.99999999999999
 32
0
 13
113.94
 23
26.99999999999999
 33
0
  0
SOLID
  8
1
 62
1
 10
114.59
 20
0
 30
0
 11
113.94
 21
5
 31
0
 12
115.24
 22
5
 32
0
 13
115.24
 23
5
 33
0
  0
TEXT
  8
1
 62
7
 10
114.5
 20
12.32462499999999
 30
0
 40
5
  1
32
 50
90
 41
0.88209
  0
ENDBLK
  8
0
  0
BLOCK
  8
1
  2
*D22
 70
1
 10
0
 20
0
 30
0
  0
LINE
  8
1
 62
1
 10
114.59
 20
110
 30
0
 11
114.59
 21
160
 31
0
  0
LINE
  8
1
 62
1
 10
77
 20
160
 30
0
 11
116.09
 21
160
 31
0
  0
LINE
  8
1
 62
1
 10
86.55183585313169
 20
110
 30
0
 11
116.09
 21
110
 31
0
  0
SOLID
  8
1
 62
1
 10
114.59
 20
110
 30
0
 11
113.94
 21
115
 31
0
 12
115.24
 22
115
 32
0
 13
115.24
 23
115
 33
0
  0
SOLID
  8
1
 62
1
 10
114.59
 20
160
 30
0
 11
115.24
 21
155
 31
0
 12
113.94
 22
155
 32
0
 13
113.94
 23
155
 33
0
  0
TEXT
  8
1
 62
7
 10
114.5
 20
131.324625
 30
0
 40
5
  1
50
 50
90
 41
0.88209
  0
ENDBLK
  8
0
  0
BLOCK
  8
1
  2
*D23
 70
1
 10
0
 20
0
 30
0
  0
LINE
  8
1
 62
1
 10
114.59
 20
31.99999999999999
 30
0
 11
114.59
 21
110
 31
0
  0
LINE
  8
1
 62
1
 10
86.55183585313169
 20
110
 30
0
 11
116.09
 21
110
 31
0
  0
LINE
  8
1
 62
1
 10
68.95204191523088
 20
31.99999999999999
 30
0
 11
116.09
 21
31.99999999999999
 31
0
  0
SOLID
  8
1
 62
1
 10
114.59
 20
31.99999999999999
 30
0
 11
113.94
 21
36.99999999999999
 31
0
 12
115.24
 22
36.99999999999999
 32
0
 13
115.24
 23
36.99999999999999
 33
0
  0
SOLID
  8
1
 62
1
 10
114.59
 20
110
 30
0
 11
115.24
 21
105
 31
0
 12
113.94
 22
105
 32
0
 13
113.94
 23
105
 33
0
  0
TEXT
  8
1
 62
7
 10
114.5
 20
67.324625
 30
0
 40
5
  1
78
 50
90
 41
0.88209
  0
ENDBLK
  8
0
  0
BLOCK
  8
1
  2
*D24
 70
1
 10
0
 20
0
 30
0
  0
LINE
  8
1
 62
1
 10
-3
 20
-74.5
 30
0
 11
56.99999999999999
 21
-74.5
 31
0
  0
LINE
  8
1
 62
1
 10
56.99999999999999
 20
-85
 30
0
 11
56.99999999999999
 21
-73
 31
0
  0
LINE
  8
1
 62
1
 10
-3
 20
-85
 30
0
 11
-3
 21
-73
 31
0
  0
SOLID
  8
1
 62
1
 10
-3
 20
-74.5
 30
0
 11
2.000000000000001
 21
-73.84999999999999
 31
0
 12
2.000000000000001
 22
-75.15000000000001
 32
0
 13
2.000000000000001
 23
-75.15000000000001
 33
0
  0
SOLID
  8
1
 62
1
 10
56.99999999999999
 20
-74.5
 30
0
 11
51.99999999999999
 21
-75.15000000000001
 31
0
 12
51.99999999999999
 22
-73.84999999999999
 32
0
 13
51.99999999999999
 23
-73.84999999999999
 33
0
  0
TEXT
  8
1
 62
7
 10
23.25
 20
-72.5
 30
0
 40
5
  1
60
 41
0.9
  0
ENDBLK
  8
0
  0
BLOCK
  8
1
  2
*D25
 70
1
 10
0
 20
0
 30
0
  0
LINE
  8
1
 62
1
 10
114.766362824219
 20
-102.5
 30
0
 11
114.766362824219
 21
-87.50000000000001
 31
0
  0
LINE
  8
1
 62
1
 10
96.99999999999999
 20
-87.50000000000001
 30
0
 11
116.266362824219
 21
-87.50000000000001
 31
0
  0
LINE
  8
1
 62
1
 10
96.99999999999999
 20
-102.5
 30
0
 11
116.266362824219
 21
-102.5
 31
0
  0
SOLID
  8
1
 62
1
 10
114.766362824219
 20
-87.50000000000001
 30
0
 11
115.416362824219
 21
-92.50000000000001
 31
0
 12
114.116362824219
 22
-92.50000000000001
 32
0
 13
114.116362824219
 23
-92.50000000000001
 33
0
  0
SOLID
  8
1
 62
1
 10
114.766362824219
 20
-102.5
 30
0
 11
114.116362824219
 21
-97.5
 31
0
 12
115.416362824219
 22
-97.5
 32
0
 13
115.416362824219
 23
-97.5
 33
0
  0
TEXT
  8
1
 62
7
 10
112.766362824219
 20
-98
 30
0
 40
5
  1
15
 50
90
 41
0.9
  0
ENDBLK
  8
0
  0
BLOCK
  8
1
  2
*D26
 70
1
 10
0
 20
0
 30
0
  0
LINE
  8
1
 62
1
 10
114.75
 20
-85
 30
0
 11
114.75
 21
-70.375
 31
0
  0
LINE
  8
1
 62
1
 10
114.75
 20
-87.50000000000001
 30
0
 11
114.75
 21
-85
 31
0
  0
LINE
  8
1
 62
1
 10
114.75
 20
-97.50000000000001
 30
0
 11
114.75
 21
-87.50000000000001
 31
0
  0
LINE
  8
1
 62
1
 10
56.99999999999999
 20
-85
 30
0
 11
116.25
 21
-85
 31
0
  0
LINE
  8
1
 62
1
 10
96.99999999999999
 20
-87.50000000000001
 30
0
 11
116.25
 21
-87.50000000000001
 31
0
  0
SOLID
  8
1
 62
1
 10
114.75
 20
-87.50000000000001
 30
0
 11
115.4
 21
-92.50000000000001
 31
0
 12
114.1
 22
-92.50000000000001
 32
0
 13
114.1
 23
-92.50000000000001
 33
0
  0
SOLID
  8
1
 62
1
 10
114.75
 20
-85
 30
0
 11
114.1
 21
-80
 31
0
 12
115.4
 22
-80
 32
0
 13
115.4
 23
-80
 33
0
  0
TEXT
  8
1
 62
7
 10
112.25
 20
-79.625
 30
0
 40
5
  1
2,5
 50
90
 41
0.9
  0
ENDBLK
  8
0
  0
BLOCK
  8
1
  2
*D27
 70
1
 10
0
 20
0
 30
0
  0
LINE
  8
1
 62
1
 10
-20.5
 20
-105
 30
0
 11
-20.5
 21
-85
 31
0
  0
LINE
  8
1
 62
1
 10
-3
 20
-85
 30
0
 11
-22
 21
-85
 31
0
  0
LINE
  8
1
 62
1
 10
-3
 20
-105
 30
0
 11
-22
 21
-105
 31
0
  0
SOLID
  8
1
 62
1
 10
-20.5
 20
-85
 30
0
 11
-19.85
 21
-90
 31
0
 12
-21.15
 22
-90
 32
0
 13
-21.15
 23
-90
 33
0
  0
SOLID
  8
1
 62
1
 10
-20.5
 20
-105
 30
0
 11
-21.15
 21
-100
 31
0
 12
-19.85
 22
-100
 32
0
 13
-19.85
 23
-100
 33
0
  0
TEXT
  8
1
 62
7
 10
-22.5
 20
-98.75
 30
0
 40
5
  1
20
 50
90
 41
0.9
  0
ENDBLK
  8
0
  0
BLOCK
  8
1
  2
*D28
 70
1
 10
0
 20
0
 30
0
  0
LINE
  8
1
 62
1
 10
0
 20
-54.5
 30
0
 11
11.5
 21
-54.5
 31
0
  0
LINE
  8
1
 62
1
 10
-3
 20
-54.5
 30
0
 11
0
 21
-54.5
 31
0
  0
LINE
  8
1
 62
1
 10
-13
 20
-54.5
 30
0
 11
-3
 21
-54.5
 31
0
  0
LINE
  8
1
 62
1
 10
0
 20
-35
 30
0
 11
0
 21
-56
 31
0
  0
LINE
  8
1
 62
1
 10
-3
 20
-35
 30
0
 11
-3
 21
-56
 31
0
  0
SOLID
  8
1
 62
1
 10
-3
 20
-54.5
 30
0
 11
-8
 21
-55.15
 31
0
 12
-8
 22
-53.85
 32
0
 13
-8
 23
-53.85
 33
0
  0
SOLID
  8
1
 62
1
 10
0
 20
-54.5
 30
0
 11
5.000000000000001
 21
-53.85
 31
0
 12
5.000000000000001
 22
-55.15
 32
0
 13
5.000000000000001
 23
-55.15
 33
0
  0
TEXT
  8
1
 62
7
 10
8.5
 20
-52.5
 30
0
 40
5
  1
3
 41
0.9
  0
ENDBLK
  8
0
  0
BLOCK
  8
1
  2
*D29
 70
1
 10
0
 20
0
 30
0
  0
LINE
  8
1
 62
1
 10
147
 20
-54.5
 30
0
 11
163
 21
-54.5
 31
0
  0
LINE
  8
1
 62
1
 10
163
 20
-27
 30
0
 11
163
 21
-56
 31
0
  0
LINE
  8
1
 62
1
 10
147
 20
-27
 30
0
 11
147
 21
-56
 31
0
  0
SOLID
  8
1
 62
1
 10
147
 20
-54.5
 30
0
 11
152
 21
-53.85
 31
0
 12
152
 22
-55.15
 32
0
 13
152
 23
-55.15
 33
0
  0
SOLID
  8
1
 62
1
 10
163
 20
-54.5
 30
0
 11
158
 21
-55.15
 31
0
 12
158
 22
-53.85
 32
0
 13
158
 23
-53.85
 33
0
  0
TEXT
  8
1
 62
7
 10
152
 20
-52.5
 30
0
 40
5
  1
16
 41
0.9
  0
ENDBLK
  8
0
  0
BLOCK
  8
1
  2
*D30
 70
1
 10
0
 20
0
 30
0
  0
LINE
  8
1
 62
1
 10
-3
 20
-14.5
 30
0
 11
56.99999999999999
 21
-14.5
 31
0
  0
LINE
  8
1
 62
1
 10
56.99999999999999
 20
6.541179009833389
 30
0
 11
56.99999999999999
 21
-16
 31
0
  0
LINE
  8
1
 62
1
 10
-3
 20
-35
 30
0
 11
-3
 21
-13
 31
0
  0
SOLID
  8
1
 62
1
 10
-3
 20
-14.5
 30
0
 11
2.000000000000001
 21
-13.85
 31
0
 12
2.000000000000001
 22
-15.15
 32
0
 13
2.000000000000001
 23
-15.15
 33
0
  0
SOLID
  8
1
 62
1
 10
56.99999999999999
 20
-14.5
 30
0
 11
51.99999999999999
 21
-15.15
 31
0
 12
51.99999999999999
 22
-13.85
 32
0
 13
51.99999999999999
 23
-13.85
 33
0
  0
TEXT
  8
1
 62
7
 10
23.25
 20
-12.5
 30
0
 40
5
  1
60
 41
0.9
  0
ENDBLK
  8
0
  0
BLOCK
  8
1
  2
*D31
 70
1
 10
0
 20
0
 30
0
  0
LINE
  8
1
 62
1
 10
-3
 20
-29.5
 30
0
 11
96.99999999999999
 21
-29.5
 31
0
  0
LINE
  8
1
 62
1
 10
96.99999999999999
 20
20
 30
0
 11
96.99999999999999
 21
-31
 31
0
  0
LINE
  8
1
 62
1
 10
-3
 20
-35
 30
0
 11
-3
 21
-28
 31
0
  0
SOLID
  8
1
 62
1
 10
-3
 20
-29.5
 30
0
 11
2.000000000000001
 21
-28.85
 31
0
 12
2.000000000000001
 22
-30.15
 32
0
 13
2.000000000000001
 23
-30.15
 33
0
  0
SOLID
  8
1
 62
1
 10
96.99999999999999
 20
-29.5
 30
0
 11
91.99999999999999
 21
-30.15
 31
0
 12
91.99999999999999
 22
-28.85
 32
0
 13
91.99999999999999
 23
-28.85
 33
0
  0
TEXT
  8
1
 62
7
 10
41.74999999999999
 20
-27.5
 30
0
 40
5
  1
100
 41
0.9
  0
ENDBLK
  8
0
  0
BLOCK
  8
1
  2
*D32
 70
1
 10
0
 20
0
 30
0
  0
LINE
  8
1
 62
1
 10
-20.5
 20
-35
 30
0
 11
-20.5
 21
0
 31
0
  0
LINE
  8
1
 62
1
 10
0
 20
0
 30
0
 11
-22
 21
0
 31
0
  0
LINE
  8
1
 62
1
 10
-3
 20
-35
 30
0
 11
-22
 21
-35
 31
0
  0
SOLID
  8
1
 62
1
 10
-20.5
 20
-35
 30
0
 11
-21.15
 21
-30
 31
0
 12
-19.85
 22
-30
 32
0
 13
-19.85
 23
-30
 33
0
  0
SOLID
  8
1
 62
1
 10
-20.5
 20
0
 30
0
 11
-19.85
 21
-5
 31
0
 12
-21.15
 22
-5
 32
0
 13
-21.15
 23
-5
 33
0
  0
TEXT
  8
1
 62
7
 10
-22.5
 20
-21.25
 30
0
 40
5
  1
35
 50
90
 41
0.9
  0
ENDBLK
  8
0
  0
BLOCK
  8
1
  2
*D33
 70
1
 10
0
 20
0
 30
0
  0
LINE
  8
1
 62
1
 10
-20.5
 20
0
 30
0
 11
-20.5
 21
160
 31
0
  0
LINE
  8
1
 62
1
 10
0
 20
160
 30
0
 11
-22
 21
160
 31
0
  0
LINE
  8
1
 62
1
 10
0
 20
0
 30
0
 11
-22
 21
0
 31
0
  0
SOLID
  8
1
 62
1
 10
-20.5
 20
0
 30
0
 11
-21.15
 21
5
 31
0
 12
-19.85
 22
5
 32
0
 13
-19.85
 23
5
 33
0
  0
SOLID
  8
1
 62
1
 10
-20.5
 20
160
 30
0
 11
-19.85
 21
155
 31
0
 12
-21.15
 22
155
 32
0
 13
-21.15
 23
155
 33
0
  0
TEXT
  8
1
 62
7
 10
-22.5
 20
74.75
 30
0
 40
5
  1
160
 50
90
 41
0.9
  0
ENDBLK
  8
0
  0
BLOCK
  8
1
  2
*D34
 70
1
 10
0
 20
0
 30
0
  0
LINE
  8
1
 62
1
 10
-20.5
 20
160
 30
0
 11
-20.5
 21
279.9999999999998
 31
0
  0
LINE
  8
1
 62
1
 10
-3
 20
279.9999999999998
 30
0
 11
-22
 21
279.9999999999998
 31
0
  0
LINE
  8
1
 62
1
 10
0
 20
160
 30
0
 11
-22
 21
160
 31
0
  0
SOLID
  8
1
 62
1
 10
-20.5
 20
160
 30
0
 11
-21.15
 21
165
 31
0
 12
-19.85
 22
165
 32
0
 13
-19.85
 23
165
 33
0
  0
SOLID
  8
1
 62
1
 10
-20.5
 20
279.9999999999998
 30
0
 11
-19.85
 21
274.9999999999998
 31
0
 12
-21.15
 22
274.9999999999998
 32
0
 13
-21.15
 23
274.9999999999998
 33
0
  0
TEXT
  8
1
 62
7
 10
-22.5
 20
214.7499999999999
 30
0
 40
5
  1
120
 50
90
 41
0.9
  0
ENDBLK
  8
0
  0
BLOCK
  8
1
  2
*D35
 70
1
 10
0
 20
0
 30
0
  0
LINE
  8
1
 62
1
 10
34.5
 20
404.9999999999998
 30
0
 11
34.5
 21
414.9999999999998
 31
0
  0
LINE
  8
1
 62
1
 10
34.5
 20
392.9999999999999
 30
0
 11
34.5
 21
382.9999999999999
 31
0
  0
LINE
  8
1
 62
1
 10
34.5
 20
392.9999999999999
 30
0
 11
34.5
 21
404.9999999999998
 31
0
  0
LINE
  8
1
 62
1
 10
12
 20
404.9999999999998
 30
0
 11
36
 21
404.9999999999998
 31
0
  0
LINE
  8
1
 62
1
 10
12
 20
392.9999999999999
 30
0
 11
36
 21
392.9999999999999
 31
0
  0
SOLID
  8
1
 62
1
 10
34.5
 20
404.9999999999998
 30
0
 11
33.85
 21
409.9999999999998
 31
0
 12
35.15
 22
409.9999999999998
 32
0
 13
35.15
 23
409.9999999999998
 33
0
  0
SOLID
  8
1
 62
1
 10
34.5
 20
392.9999999999999
 30
0
 11
35.15
 21
387.9999999999999
 31
0
 12
33.85
 22
387.9999999999999
 32
0
 13
33.85
 23
387.9999999999999
 33
0
  0
TEXT
  8
1
 62
7
 10
32.5
 20
395.9999999999998
 30
0
 40
5
  1
12
 50
90
 41
0.9
  0
ENDBLK
  8
0
  0
BLOCK
  8
1
  2
*D36
 70
1
 10
0
 20
0
 30
0
  0
LINE
  8
1
 62
1
 10
74.5
 20
375.9999999999999
 30
0
 11
74.5
 21
404.9999999999998
 31
0
  0
LINE
  8
1
 62
1
 10
12
 20
404.9999999999998
 30
0
 11
76
 21
404.9999999999998
 31
0
  0
LINE
  8
1
 62
1
 10
56.99999999999999
 20
375.9999999999999
 30
0
 11
76
 21
375.9999999999999
 31
0
  0
SOLID
  8
1
 62
1
 10
74.5
 20
404.9999999999998
 30
0
 11
75.15000000000001
 21
399.9999999999998
 31
0
 12
73.84999999999999
 22
399.9999999999998
 32
0
 13
73.84999999999999
 23
399.9999999999998
 33
0
  0
SOLID
  8
1
 62
1
 10
74.5
 20
375.9999999999999
 30
0
 11
73.84999999999999
 21
380.9999999999999
 31
0
 12
75.14999999999999
 22
380.9999999999999
 32
0
 13
75.14999999999999
 23
380.9999999999999
 33
0
  0
TEXT
  8
1
 62
7
 10
72.5
 20
386.7499999999998
 30
0
 40
5
  1
29
 50
90
 41
0.9
  0
ENDBLK
  8
0
  0
BLOCK
  8
1
  2
*D37
 70
1
 10
0
 20
0
 30
0
  0
LINE
  8
1
 62
1
 10
74.5
 20
373
 30
0
 11
74.5
 21
363
 31
0
  0
LINE
  8
1
 62
1
 10
74.5
 20
373
 30
0
 11
74.5
 21
375.9999999999999
 31
0
  0
LINE
  8
1
 62
1
 10
74.5
 20
385.9999999999999
 30
0
 11
74.5
 21
375.9999999999999
 31
0
  0
LINE
  8
1
 62
1
 10
56.99999999999999
 20
375.9999999999999
 30
0
 11
76
 21
375.9999999999999
 31
0
  0
LINE
  8
1
 62
1
 10
56.99999999999999
 20
373
 30
0
 11
76
 21
373
 31
0
  0
SOLID
  8
1
 62
1
 10
74.5
 20
375.9999999999999
 30
0
 11
73.84999999999999
 21
380.9999999999999
 31
0
 12
75.14999999999999
 22
380.9999999999999
 32
0
 13
75.14999999999999
 23
380.9999999999999
 33
0
  0
SOLID
  8
1
 62
1
 10
74.5
 20
373
 30
0
 11
75.15000000000001
 21
368
 31
0
 12
73.84999999999999
 22
368
 32
0
 13
73.84999999999999
 23
368
 33
0
  0
TEXT
  8
1
 62
7
 10
72.5
 20
363.5
 30
0
 40
5
  1
3
 50
90
 41
0.9
  0
ENDBLK
  8
0
  0
BLOCK
  8
1
  2
*D38
 70
1
 10
0
 20
0
 30
0
  0
LINE
  8
1
 62
1
 10
89.5
 20
373
 30
0
 11
89.5
 21
404.9999999999998
 31
0
  0
LINE
  8
1
 62
1
 10
12
 20
404.9999999999998
 30
0
 11
91
 21
404.9999999999998
 31
0
  0
LINE
  8
1
 62
1
 10
56.99999999999999
 20
373
 30
0
 11
91
 21
373
 31
0
  0
SOLID
  8
1
 62
1
 10
89.5
 20
373
 30
0
 11
88.84999999999999
 21
378
 31
0
 12
90.14999999999999
 22
378
 32
0
 13
90.14999999999999
 23
378
 33
0
  0
SOLID
  8
1
 62
1
 10
89.5
 20
404.9999999999998
 30
0
 11
90.15000000000001
 21
399.9999999999998
 31
0
 12
88.84999999999999
 22
399.9999999999998
 32
0
 13
88.84999999999999
 23
399.9999999999998
 33
0
  0
TEXT
  8
1
 62
7
 10
87.5
 20
385.2499999999999
 30
0
 40
5
  1
32
 50
90
 41
0.9
  0
ENDBLK
  8
0
  0
BLOCK
  8
1
  2
*D39
 70
1
 10
0
 20
0
 30
0
  0
LINE
  8
1
 62
1
 10
-149.821129122849
 20
343.286971830986
 30
0
 11
-158.621129122849
 21
343.286971830986
 31
0
  0
LINE
  8
1
 62
1
 10
-154.221129122849
 20
347.686971830986
 30
0
 11
-154.221129122849
 21
338.886971830986
 31
0
  0
LINE
  8
1
 62
1
 10
-159.9253411367224
 20
333.3013839514076
 30
0
 11
-141.4090335666376
 21
365.7153643568853
 31
0
  0
SOLID
  8
1
 62
1
 10
-152.237055378893
 20
346.7602197891002
 30
0
 11
-150.3213659921416
 21
351.4241917201358
 31
0
 12
-149.1925604057545
 22
350.7793677533501
 32
0
 13
-149.1925604057545
 23
350.7793677533501
 33
0
  0
SOLID
  8
1
 62
1
 10
-156.205202866805
 20
339.8137238728718
 30
0
 11
-158.1208922535564
 21
335.1497519418361
 31
0
 12
-159.2496978399435
 22
335.7945759086219
 32
0
 13
-159.2496978399435
 23
335.7945759086219
 33
0
  0
TEXT
  8
1
 62
7
 10
-152.693732711935
 20
347.9768310127747
 30
0
 40
5
  1
8
 50
60.26307039657063
 41
0.9
  0
TEXT
  8
1
 62
7
 10
-149.9656313139956
 20
352.7525469551817
 30
0
 40
5
  1
x90%%d
 50
60.26307039657063
 41
0.9
  0
ENDBLK
  8
0
  0
ENDSEC
  0
SECTION
  2
ENTITIES
  0
POLYLINE
  8
1
 62
1
 66
1
  0
VERTEX
  8
1
 10
163
 20
310.1123659563187
 30
0
  0
VERTEX
  8
1
 10
162.6024419587698
 20
310.3733774738413
 30
0
 42
0.115685510496298
  0
VERTEX
  8
1
 10
161.821887667479
 20
310.5734496692374
 30
0
 42
0.07452167442524051
  0
VERTEX
  8
1
 10
161.0562843925546
 20
310.4665735921722
 30
0
 42
0.02603303320894557
  0
VERTEX
  8
1
 10
160.3002744877648
 20
310.1995326591312
 30
0
 42
-0.01746680688068559
  0
VERTEX
  8
1
 10
159.5485003068779
 20
309.9191102865997
 30
0
 42
-0.06691612296716579
  0
VERTEX
  8
1
 10
158.7956042036622
 20
309.7720898910633
 30
0
 42
-0.07373759723293601
  0
VERTEX
  8
1
 10
157.8872743334892
 20
309.8943472597656
 30
0
 42
-0.007784043071607855
  0
VERTEX
  8
1
 10
156.9666893592196
 20
310.1739617787621
 30
0
 42
0.05432288128895235
  0
VERTEX
  8
1
 10
156.0308611734603
 20
310.3675730052585
 30
0
 42
0.05970721073606246
  0
VERTEX
  8
1
 10
155.0112252716765
 20
310.2964214775616
 30
0
 42
-0.003019898521922225
  0
VERTEX
  8
1
 10
153.9960812412086
 20
310.109397176469
 30
0
 42
-0.07095676467666109
  0
VERTEX
  8
1
 10
153.0109110943163
 20
310.069831448162
 30
0
 42
-0.0647151977953408
  0
VERTEX
  8
1
 10
152.2785880517275
 20
310.2722092494279
 30
0
 42
-0.03033442565902501
  0
VERTEX
  8
1
 10
151.5667511930569
 20
310.6250758865341
 30
0
 42
-0.001373399146300319
  0
VERTEX
  8
1
 10
150.8624373057454
 20
311.0311435673974
 30
0
 42
0.02787806919733526
  0
VERTEX
  8
1
 10
150.1526831772338
 20
311.3931244999342
 30
0
 42
0.06256566954883627
  0
VERTEX
  8
1
 10
149.4245255949627
 20
311.6137308920613
 30
0
 42
0.09219387339190496
  0
VERTEX
  8
1
 10
148.6650013463729
 20
311.5956749516948
 30
0
 42
0.08864768658039994
  0
VERTEX
  8
1
 10
147.8611472189051
 20
311.2416688867517
 30
0
 42
0.06184119422439067
  0
VERTEX
  8
1
 10
147
 20
310.4544249051484
 30
0
  0
SEQEND
  8
1
  0
POLYLINE
  8
1
 62
1
 66
1
  0
VERTEX
  8
1
 10
163
 20
304.1123672883187
 30
0
  0
VERTEX
  8
1
 10
162.6024419587698
 20
304.3733788058414
 30
0
 42
0.1156855104962872
  0
VERTEX
  8
1
 10
161.821887667479
 20
304.5734510012375
 30
0
 42
0.07452167442524196
  0
VERTEX
  8
1
 10
161.0562843925546
 20
304.4665749241722
 30
0
 42
0.02603303320907678
  0
VERTEX
  8
1
 10
160.3002744877648
 20
304.1995339911312
 30
0
 42
-0.01746680688048458
  0
VERTEX
  8
1
 10
159.5485003068779
 20
303.9191116185998
 30
0
 42
-0.06691612296709018
  0
VERTEX
  8
1
 10
158.7956042036622
 20
303.7720912230633
 30
0
 42
-0.07373759723287483
  0
VERTEX
  8
1
 10
157.8872743334892
 20
303.8943485917657
 30
0
 42
-0.007784043071552118
  0
VERTEX
  8
1
 10
156.9666893592196
 20
304.1739631107621
 30
0
 42
0.05432288128901427
  0
VERTEX
  8
1
 10
156.0308611734603
 20
304.3675743372585
 30
0
 42
0.05970721073606598
  0
VERTEX
  8
1
 10
155.0112252716765
 20
304.2964228095617
 30
0
 42
-0.00301989852186738
  0
VERTEX
  8
1
 10
153.9960812412086
 20
304.109398508469
 30
0
 42
-0.07095676467666177
  0
VERTEX
  8
1
 10
153.0109110943163
 20
304.0698327801621
 30
0
 42
-0.06471519779534124
  0
VERTEX
  8
1
 10
152.2785880517275
 20
304.2722105814281
 30
0
 42
-0.03033442565902523
  0
VERTEX
  8
1
 10
151.5667511930569
 20
304.6250772185343
 30
0
 42
-0.001373399146360715
  0
VERTEX
  8
1
 10
150.8624373057454
 20
305.0311448993976
 30
0
 42
0.02787806919727132
  0
VERTEX
  8
1
 10
150.1526831772338
 20
305.3931258319344
 30
0
 42
0.0625656695488413
  0
VERTEX
  8
1
 10
149.4245255949627
 20
305.6137322240613
 30
0
 42
0.09219387339204374
  0
VERTEX
  8
1
 10
148.6650013463729
 20
305.595676283695
 30
0
 42
0.0886476865803404
  0
VERTEX
  8
1
 10
147.8611472189051
 20
305.2416702187517
 30
0
 42
0.06184119422435578
  0
VERTEX
  8
1
 10
147
 20
304.4544262371484
 30
0
  0
SEQEND
  8
1
  0
POLYLINE
  8
1
 62
1
 66
1
  0
VERTEX
  8
1
 10
16
 20
310.1123659563187
 30
0
 42
0.04198310944740679
  0
VERTEX
  8
1
 10
13.85308655276085
 20
310.5209560691274
 30
0
 42
0.04881001349811451
  0
VERTEX
  8
1
 10
12.21065493598819
 20
310.5492062012321
 30
0
 42
0.04441090644275142
  0
VERTEX
  8
1
 10
10.95915817212044
 20
310.3438997691183
 30
0
 42
0.01972764752539412
  0
VERTEX
  8
1
 10
9.985049283596009
 20
310.0518201892714
 30
0
 42
-0.0305375065004784
  0
VERTEX
  8
1
 10
9.17478129285333
 20
309.8197508781768
 30
0
 42
-0.08209031947415395
  0
VERTEX
  8
1
 10
8.251909560036005
 20
309.8129332694529
 30
0
 42
-0.03152482000578388
  0
VERTEX
  8
1
 10
7.151930191556072
 20
310.1171316041933
 30
0
 42
0.05747489046533739
  0
VERTEX
  8
1
 10
6.030861173460249
 20
310.3675730052585
 30
0
 42
0.06373561939486366
  0
VERTEX
  8
1
 10
4.807021691485287
 20
310.2598598361369
 30
0
 42
-0.02657344736935502
  0
VERTEX
  8
1
 10
3.596989323736085
 20
310.0611293010258
 30
0
 42
-0.1140275709267043
  0
VERTEX
  8
1
 10
2.617000737708542
 20
310.1531198347055
 30
0
 42
-0.04740924432486326
  0
VERTEX
  8
1
 10
1.849857240058667
 20
310.4720969900841
 30
0
 42
-0.01241806553216223
  0
VERTEX
  8
1
 10
1.097172914115452
 20
310.8958818659566
 30
0
 42
0.01991137987185767
  0
VERTEX
  8
1
 10
0.3432152210217767
 20
311.3064031152494
 30
0
 42
0.0577270931566576
  0
VERTEX
  8
1
 10
-0.427748378079484
 20
311.5855893908886
 30
0
 42
0.09469970422873802
  0
VERTEX
  8
1
 10
-1.231450422045451
 20
311.6153693458006
 30
0
 42
0.09619288579440444
  0
VERTEX
  8
1
 10
-2.083623449733248
 20
311.2776716329118
 30
0
 42
0.06653537332347136
  0
VERTEX
  8
1
 10
-2.999999999999999
 20
310.4544249051484
 30
0
  0
SEQEND
  8
1
  0
POLYLINE
  8
1
 62
1
 66
1
  0
VERTEX
  8
1
 10
16
 20
304.1123672883187
 30
0
 42
0.04198310944740662
  0
VERTEX
  8
1
 10
13.85308655276085
 20
304.5209574011274
 30
0
 42
0.04881001349811451
  0
VERTEX
  8
1
 10
12.21065493598819
 20
304.5492075332321
 30
0
 42
0.04441090644270152
  0
VERTEX
  8
1
 10
10.95915817212044
 20
304.3439011011184
 30
0
 42
0.01972764752522347
  0
VERTEX
  8
1
 10
9.985049283596009
 20
304.0518215212715
 30
0
 42
-0.03053750650054396
  0
VERTEX
  8
1
 10
9.17478129285333
 20
303.8197522101768
 30
0
 42
-0.08209031947429075
  0
VERTEX
  8
1
 10
8.251909560036005
 20
303.812934601453
 30
0
 42
-0.031524820005831
  0
VERTEX
  8
1
 10
7.151930191556072
 20
304.1171329361934
 30
0
 42
0.05747489046534106
  0
VERTEX
  8
1
 10
6.030861173460249
 20
304.3675743372585
 30
0
 42
0.06373561939495456
  0
VERTEX
  8
1
 10
4.807021691485287
 20
304.259861168137
 30
0
 42
-0.02657344736926281
  0
VERTEX
  8
1
 10
3.596989323736085
 20
304.0611306330259
 30
0
 42
-0.1140275709266447
  0
VERTEX
  8
1
 10
2.617000737708542
 20
304.1531211667057
 30
0
 42
-0.04740924432486215
  0
VERTEX
  8
1
 10
1.849857240058667
 20
304.4720983220842
 30
0
 42
-0.01241806553216201
  0
VERTEX
  8
1
 10
1.097172914115452
 20
304.8958831979567
 30
0
 42
0.01991137987203615
  0
VERTEX
  8
1
 10
0.3432152210217767
 20
305.3064044472495
 30
0
 42
0.05772709315679178
  0
VERTEX
  8
1
 10
-0.427748378079484
 20
305.5855907228887
 30
0
 42
0.09469970422880467
  0
VERTEX
  8
1
 10
-1.231450422045451
 20
305.6153706778007
 30
0
 42
0.09619288579429312
  0
VERTEX
  8
1
 10
-2.083623449733248
 20
305.2776729649119
 30
0
 42
0.06653537332347047
  0
VERTEX
  8
1
 10
-2.999999999999999
 20
304.4544262371484
 30
0
  0
SEQEND
  8
1
  0
LINE
  8
1
 62
1
 10
-108.810553156965
 20
282.786971830986
 30
0
 11
-108.810553156965
 21
270.786971830986
 31
0
  0
LINE
  8
1
 62
2
 10
-76.3454767063922
 20
396.786971830986
 30
0
 11
-71.3454767063922
 21
396.786971830986
 31
0
  0
LINE
  8
1
 62
7
 10
-72.04547670639219
 20
397.586971830986
 30
0
 11
-75.64547670639222
 21
397.586971830986
 31
0
  0
LINE
  8
1
 62
1
 10
-72.04547670639219
 20
397.586971830986
 30
0
 11
-72.04547670639219
 21
395.286971830986
 31
0
  0
LINE
  8
1
 62
7
 10
-75.64547670639222
 20
395.286971830986
 30
0
 11
-72.04547670639219
 21
395.286971830986
 31
0
  0
LINE
  8
1
 62
7
 10
-75.64547670639222
 20
397.586971830986
 30
0
 11
-75.90525835544322
 21
397.586971830986
 31
0
  0
LINE
  8
1
 62
1
 10
-75.64547670639222
 20
397.586971830986
 30
0
 11
-75.64547670639222
 21
395.286971830986
 31
0
  0
LINE
  8
1
 62
7
 10
-71.78569505734119
 20
397.586971830986
 30
0
 11
-71.3454767063922
 21
396.786971830986
 31
0
  0
LINE
  8
1
 62
7
 10
-71.3454767063922
 20
396.786971830986
 30
0
 11
-71.3454767063922
 21
395.286971830986
 31
0
  0
LINE
  8
1
 62
7
 10
-76.3454767063922
 20
396.786971830986
 30
0
 11
-75.90525835544322
 21
397.586971830986
 31
0
  0
LINE
  8
1
 62
7
 10
-76.3454767063922
 20
395.286971830986
 30
0
 11
-75.64547670639222
 21
395.286971830986
 31
0
  0
LINE
  8
1
 62
7
 10
-76.3454767063922
 20
395.286971830986
 30
0
 11
-76.3454767063922
 21
396.786971830986
 31
0
  0
LINE
  8
1
 62
7
 10
-71.78569505734119
 20
397.586971830986
 30
0
 11
-72.04547670639219
 21
397.586971830986
 31
0
  0
LINE
  8
1
 62
2
 10
-131.221129122849
 20
396.786971830986
 30
0
 11
-126.221129122849
 21
396.786971830986
 31
0
  0
LINE
  8
1
 62
7
 10
-126.921129122849
 20
397.586971830986
 30
0
 11
-130.521129122849
 21
397.586971830986
 31
0
  0
LINE
  8
1
 62
1
 10
-126.921129122849
 20
397.586971830986
 30
0
 11
-126.921129122849
 21
395.286971830986
 31
0
  0
LINE
  8
1
 62
7
 10
-130.521129122849
 20
395.286971830986
 30
0
 11
-126.921129122849
 21
395.286971830986
 31
0
  0
LINE
  8
1
 62
7
 10
-130.521129122849
 20
397.586971830986
 30
0
 11
-130.7809107719
 21
397.586971830986
 31
0
  0
LINE
  8
1
 62
1
 10
-130.521129122849
 20
397.586971830986
 30
0
 11
-130.521129122849
 21
395.286971830986
 31
0
  0
LINE
  8
1
 62
7
 10
-126.661347473798
 20
397.586971830986
 30
0
 11
-126.221129122849
 21
396.786971830986
 31
0
  0
LINE
  8
1
 62
7
 10
-126.221129122849
 20
396.786971830986
 30
0
 11
-126.221129122849
 21
395.286971830986
 31
0
  0
LINE
  8
1
 62
7
 10
-131.221129122849
 20
396.786971830986
 30
0
 11
-130.7809107719
 21
397.586971830986
 31
0
  0
LINE
  8
1
 62
7
 10
-131.221129122849
 20
395.286971830986
 30
0
 11
-130.521129122849
 21
395.286971830986
 31
0
  0
LINE
  8
1
 62
7
 10
-131.221129122849
 20
395.286971830986
 30
0
 11
-131.221129122849
 21
396.786971830986
 31
0
  0
LINE
  8
1
 62
7
 10
-126.661347473798
 20
397.586971830986
 30
0
 11
-126.921129122849
 21
397.586971830986
 31
0
  0
LINE
  8
1
 62
2
 10
-158.221129122849
 20
396.786971830986
 30
0
 11
-153.221129122849
 21
396.786971830986
 31
0
  0
LINE
  8
1
 62
7
 10
-153.921129122849
 20
395.286971830986
 30
0
 11
-149.221129122849
 21
395.286971830986
 31
0
  0
LINE
  8
1
 62
7
 10
-153.921129122849
 20
397.586971830986
 30
0
 11
-157.521129122849
 21
397.586971830986
 31
0
  0
LINE
  8
1
 62
1
 10
-153.921129122849
 20
397.586971830986
 30
0
 11
-153.921129122849
 21
395.286971830986
 31
0
  0
LINE
  8
1
 62
7
 10
-157.521129122849
 20
395.286971830986
 30
0
 11
-153.921129122849
 21
395.286971830986
 31
0
  0
LINE
  8
1
 62
7
 10
-157.521129122849
 20
397.586971830986
 30
0
 11
-157.7809107719
 21
397.586971830986
 31
0
  0
LINE
  8
1
 62
1
 10
-157.521129122849
 20
397.586971830986
 30
0
 11
-157.521129122849
 21
395.286971830986
 31
0
  0
LINE
  8
1
 62
7
 10
-153.661347473798
 20
397.586971830986
 30
0
 11
-153.221129122849
 21
396.786971830986
 31
0
  0
LINE
  8
1
 62
7
 10
-153.221129122849
 20
396.786971830986
 30
0
 11
-153.221129122849
 21
395.286971830986
 31
0
  0
LINE
  8
1
 62
7
 10
-158.221129122849
 20
396.786971830986
 30
0
 11
-157.7809107719
 21
397.586971830986
 31
0
  0
LINE
  8
1
 62
7
 10
-158.221129122849
 20
395.286971830986
 30
0
 11
-157.521129122849
 21
395.286971830986
 31
0
  0
LINE
  8
1
 62
7
 10
-158.221129122849
 20
395.286971830986
 30
0
 11
-158.221129122849
 21
396.786971830986
 31
0
  0
LINE
  8
1
 62
7
 10
-153.661347473798
 20
397.586971830986
 30
0
 11
-153.921129122849
 21
397.586971830986
 31
0
  0
LINE
  8
1
 62
7
 10
-138.221129122849
 20
392.3888956196326
 30
0
 11
-138.221129122849
 21
389.486971830986
 31
0
  0
LINE
  8
1
 62
7
 10
-146.221129122849
 20
392.3888956196326
 30
0
 11
-146.221129122849
 21
389.486971830986
 31
0
  0
LINE
  8
1
 62
7
 10
-146.221129122849
 20
392.3888956196326
 30
0
 11
-138.221129122849
 21
392.3888956196326
 31
0
  0
LINE
  8
1
 62
2
 10
-138.221129122849
 20
392.786971830986
 30
0
 11
-122.221129122849
 21
392.786971830986
 31
0
  0
LINE
  8
1
 62
7
 10
-146.221129122849
 20
394.986971830986
 30
0
 11
-138.221129122849
 21
394.986971830986
 31
0
  0
LINE
  8
1
 62
2
  6
DIVIDE
 10
-142.221129122849
 20
331.686199178879
 30
0
 11
-142.221129122849
 21
400.1586288989
 31
0
  0
LINE
  8
1
 62
2
  6
PHANTOM
 10
-128.721129122849
 20
398.428475113537
 30
0
 11
-128.721129122849
 21
389.486971830986
 31
0
  0
LINE
  8
1
 62
2
  6
PHANTOM
 10
-128.721129122849
 20
389.486971830986
 30
0
 11
-128.721129122849
 21
386.4036284593415
 31
0
  0
LINE
  8
1
 62
7
 10
-128.721129122849
 20
389.486971830986
 30
0
 11
-124.2211291228379
 21
389.486971830986
 31
0
  0
LINE
  8
1
 62
7
 10
-128.721129122849
 20
386.4036284593415
 30
0
 11
-128.721129122849
 21
389.486971830986
 31
0
  0
LINE
  8
1
 62
7
 10
-124.771129122849
 20
387.186971830986
 30
0
 11
-124.771129122849
 21
389.486971830986
 31
0
  0
LINE
  8
1
 62
7
 10
-124.771129122849
 20
386.4036284593415
 30
0
 11
-124.771129122849
 21
387.186971830986
 31
0
  0
LINE
  8
1
 62
7
 10
-132.671129122849
 20
387.186971830986
 30
0
 11
-132.671129122849
 21
389.486971830986
 31
0
  0
LINE
  8
1
 62
2
  6
PHANTOM
 10
-128.721129122849
 20
386.4036284593415
 30
0
 11
-128.721129122849
 21
383.167545857695
 31
0
  0
LINE
  8
1
 62
7
 10
-130.6730929994513
 20
385.686971830986
 30
0
 11
-126.7691652462467
 21
385.686971830986
 31
0
  0
LINE
  8
1
 62
2
  6
DASHED
 10
-132.671129122849
 20
387.186971830986
 30
0
 11
-124.771129122849
 21
387.186971830986
 31
0
  0
LINE
  8
1
 62
7
 10
-133.2211291228601
 20
389.486971830986
 30
0
 11
-128.721129122849
 21
389.486971830986
 31
0
  0
LINE
  8
1
 62
7
 10
-132.671129122849
 20
386.4036284593415
 30
0
 11
-132.671129122849
 21
387.186971830986
 31
0
  0
LINE
  8
1
 62
2
  6
PHANTOM
 10
-155.721129122849
 20
389.486971830986
 30
0
 11
-155.721129122849
 21
386.4036284593415
 31
0
  0
LINE
  8
1
 62
7
 10
-155.721129122849
 20
389.486971830986
 30
0
 11
-151.2211291228379
 21
389.486971830986
 31
0
  0
LINE
  8
1
 62
7
 10
-155.721129122849
 20
389.486971830986
 30
0
 11
-149.221129122849
 21
389.486971830986
 31
0
  0
LINE
  8
1
 62
7
 10
-155.721129122849
 20
386.4036284593415
 30
0
 11
-155.721129122849
 21
389.486971830986
 31
0
  0
LINE
  8
1
 62
7
 10
-151.771129122849
 20
387.186971830986
 30
0
 11
-151.771129122849
 21
389.486971830986
 31
0
  0
LINE
  8
1
 62
7
 10
-151.771129122849
 20
386.4036284593415
 30
0
 11
-151.771129122849
 21
387.186971830986
 31
0
  0
LINE
  8
1
 62
7
 10
-159.671129122849
 20
387.186971830986
 30
0
 11
-159.671129122849
 21
389.486971830986
 31
0
  0
LINE
  8
1
 62
2
  6
PHANTOM
 10
-155.721129122849
 20
386.4036284593415
 30
0
 11
-155.721129122849
 21
383.167545857695
 31
0
  0
LINE
  8
1
 62
2
  6
PHANTOM
 10
-155.721129122849
 20
398.428475113537
 30
0
 11
-155.721129122849
 21
389.486971830986
 31
0
  0
LINE
  8
1
 62
7
 10
-157.6730929994513
 20
385.686971830986
 30
0
 11
-153.7691652462467
 21
385.686971830986
 31
0
  0
LINE
  8
1
 62
2
  6
DASHED
 10
-159.671129122849
 20
387.186971830986
 30
0
 11
-151.771129122849
 21
387.186971830986
 31
0
  0
LINE
  8
1
 62
7
 10
-160.2211291228601
 20
389.486971830986
 30
0
 11
-155.721129122849
 21
389.486971830986
 31
0
  0
LINE
  8
1
 62
7
 10
-159.671129122849
 20
386.4036284593415
 30
0
 11
-159.671129122849
 21
387.186971830986
 31
0
  0
LINE
  8
1
 62
7
 10
-149.221129122849
 20
389.486971830986
 30
0
 11
-146.221129122849
 21
389.486971830986
 31
0
  0
LINE
  8
1
 62
7
 10
-149.221129122849
 20
392.286971830986
 30
0
 11
-149.221129122849
 21
389.486971830986
 31
0
  0
LINE
  8
1
 62
7
 10
-135.221129122849
 20
389.486971830986
 30
0
 11
-122.221129122849
 21
389.486971830986
 31
0
  0
LINE
  8
1
 62
7
 10
-135.221129122849
 20
392.286971830986
 30
0
 11
-135.221129122849
 21
389.486971830986
 31
0
  0
LINE
  8
1
 62
7
 10
-138.221129122849
 20
389.486971830986
 30
0
 11
-135.221129122849
 21
389.486971830986
 31
0
  0
LINE
  8
1
 62
7
 10
-138.221129122849
 20
392.286971830986
 30
0
 11
-135.221129122849
 21
392.286971830986
 31
0
  0
LINE
  8
1
 62
7
 10
-138.221129122849
 20
394.986971830986
 30
0
 11
-138.221129122849
 21
392.3888956196326
 31
0
  0
LINE
  8
1
 62
7
 10
-146.221129122849
 20
389.486971830986
 30
0
 11
-138.221129122849
 21
389.486971830986
 31
0
  0
LINE
  8
1
 62
7
 10
-146.221129122849
 20
394.986971830986
 30
0
 11
-146.221129122849
 21
392.3888956196326
 31
0
  0
LINE
  8
1
 62
7
 10
-162.221129122849
 20
389.486971830986
 30
0
 11
-162.221129122849
 21
395.286971830986
 31
0
  0
LINE
  8
1
 62
7
 10
-122.221129122849
 20
389.486971830986
 30
0
 11
-122.221129122849
 21
395.286971830986
 31
0
  0
LINE
  8
1
 62
7
 10
-162.221129122849
 20
389.486971830986
 30
0
 11
-155.721129122849
 21
389.486971830986
 31
0
  0
LINE
  8
1
 62
2
  6
PHANTOM
 10
-151.596129122849
 20
279.286971830986
 30
0
 11
-159.846129122849
 21
279.286971830986
 31
0
  0
LINE
  8
1
 62
2
  6
PHANTOM
 10
-151.596129122849
 20
292.286971830986
 30
0
 11
-159.846129122849
 21
292.286971830986
 31
0
  0
LINE
  8
1
 62
2
  6
DASHED
 10
-152.971129122849
 20
279.286971830986
 30
0
 11
-152.971129122849
 21
292.286971830986
 31
0
  0
LINE
  8
1
 62
2
  6
DASHED
 10
-158.471129122849
 20
279.286971830986
 30
0
 11
-158.471129122849
 21
292.286971830986
 31
0
  0
LINE
  8
1
 62
2
  6
PHANTOM
 10
-124.596129122849
 20
292.286971830986
 30
0
 11
-132.846129122849
 21
292.286971830986
 31
0
  0
LINE
  8
1
 62
2
  6
PHANTOM
 10
-124.596129122849
 20
279.286971830986
 30
0
 11
-132.846129122849
 21
279.286971830986
 31
0
  0
LINE
  8
1
 62
2
  6
DASHED
 10
-125.971129122849
 20
279.286971830986
 30
0
 11
-125.971129122849
 21
292.286971830986
 31
0
  0
LINE
  8
1
 62
2
  6
DASHED
 10
-131.471129122849
 20
279.286971830986
 30
0
 11
-131.471129122849
 21
292.286971830986
 31
0
  0
LINE
  8
1
 62
2
  6
DASHED
 10
-155.721129122849
 20
282.7869718309748
 30
0
 11
-151.8240148058094
 21
285.0369718309804
 31
0
  0
LINE
  8
1
 62
2
  6
DASHED
 10
-159.6182434398887
 20
289.5369718309915
 30
0
 11
-155.721129122849
 21
291.7869718309971
 31
0
  0
LINE
  8
1
 62
2
  6
DASHED
 10
-151.8240148058094
 20
289.5369718309915
 30
0
 11
-151.8240148058094
 21
285.0369718309804
 31
0
  0
LINE
  8
1
 62
2
  6
DASHED
 10
-155.721129122849
 20
291.7869718309971
 30
0
 11
-151.8240148058094
 21
289.5369718309915
 31
0
  0
LINE
  8
1
 62
2
  6
DASHED
 10
-155.721129122849
 20
282.7869718309748
 30
0
 11
-159.6182434398887
 21
285.0369718309804
 31
0
  0
LINE
  8
1
 62
2
  6
DASHED
 10
-159.6182434398887
 20
285.0369718309804
 30
0
 11
-159.6182434398887
 21
289.5369718309915
 31
0
  0
LINE
  8
1
 62
2
  6
DASHED
 10
-128.721129122849
 20
282.7869718309748
 30
0
 11
-124.8240148058094
 21
285.0369718309804
 31
0
  0
LINE
  8
1
 62
2
  6
DASHED
 10
-132.6182434398886
 20
289.5369718309915
 30
0
 11
-128.721129122849
 21
291.7869718309971
 31
0
  0
LINE
  8
1
 62
2
  6
DASHED
 10
-124.8240148058094
 20
289.5369718309915
 30
0
 11
-124.8240148058094
 21
285.0369718309804
 31
0
  0
LINE
  8
1
 62
2
  6
DASHED
 10
-128.721129122849
 20
291.7869718309971
 30
0
 11
-124.8240148058094
 21
289.5369718309915
 31
0
  0
LINE
  8
1
 62
2
  6
DASHED
 10
-128.721129122849
 20
282.7869718309748
 30
0
 11
-132.6182434398886
 21
285.0369718309804
 31
0
  0
LINE
  8
1
 62
2
  6
DASHED
 10
-132.6182434398886
 20
285.0369718309804
 30
0
 11
-132.6182434398886
 21
289.5369718309915
 31
0
  0
LINE
  8
1
 62
2
  6
DIVIDE
 10
-155.721129122849
 20
284.536971830986
 30
0
 11
-155.7211291228491
 21
295.887002044153
 31
0
  0
LINE
  8
1
 62
2
  6
DIVIDE
 10
-150.543765501199
 20
287.286971830986
 30
0
 11
-160.97386884994
 21
287.286971830986
 31
0
  0
LINE
  8
1
 62
7
 10
-149.221129122849
 20
270.786971830986
 30
0
 11
-162.221129122849
 21
270.786971830986
 31
0
  0
LINE
  8
1
 62
7
 10
-135.221129122849
 20
270.786971830986
 30
0
 11
-122.221129122849
 21
270.786971830986
 31
0
  0
LINE
  8
1
 62
2
 10
-147.721129122849
 20
276.786971830986
 30
0
 11
-136.721129122849
 21
276.786971830986
 31
0
  0
LINE
  8
1
 62
7
 10
-144.612251070727
 20
270.786971830986
 30
0
 11
-138.221129122849
 21
270.786971830986
 31
0
  0
LINE
  8
1
 62
7
 10
-135.221129122849
 20
270.786971830986
 30
0
 11
-135.221129122849
 21
275.286971830986
 31
0
  0
LINE
  8
1
 62
7
 10
-138.221129122849
 20
270.786971830986
 30
0
 11
-138.221129122849
 21
275.286971830986
 31
0
  0
LINE
  8
1
 62
7
 10
-149.221129122849
 20
275.286971830986
 30
0
 11
-149.221129122849
 21
270.786971830986
 31
0
  0
LINE
  8
1
 62
7
 10
-146.221129122849
 20
275.286971830986
 30
0
 11
-146.221129122849
 21
270.786971830986
 31
0
  0
LINE
  8
1
 62
7
 10
-146.221129122849
 20
270.786971830986
 30
0
 11
-139.830007174971
 21
270.786971830986
 31
0
  0
LINE
  8
1
 62
7
 10
-149.221129122849
 20
282.786971830986
 30
0
 11
-149.221129122849
 21
277.286971830986
 31
0
  0
LINE
  8
1
 62
7
 10
-135.221129122849
 20
282.786971830986
 30
0
 11
-135.221129122849
 21
277.286971830986
 31
0
  0
LINE
  8
1
 62
7
 10
-149.221129122849
 20
282.786971830986
 30
0
 11
-135.221129122849
 21
282.786971830986
 31
0
  0
LINE
  8
1
 62
3
  6
DASHED
 10
-122.221129122849
 20
298.786971830986
 30
0
 11
-135.221129122849
 21
298.786971830986
 31
0
  0
LINE
  8
1
 62
3
  6
DASHED
 10
-135.221129122849
 20
296.286971830986
 30
0
 11
-135.221129122849
 21
298.786971830986
 31
0
  0
LINE
  8
1
 62
2
  6
DIVIDE
 10
-142.221129122849
 20
312.05125113589
 30
0
 11
-142.221129122849
 21
265.893217318395
 31
0
  0
LINE
  8
1
 62
3
  6
DASHED
 10
-149.221129122849
 20
298.786971830986
 30
0
 11
-149.221129122849
 21
296.286971830986
 31
0
  0
LINE
  8
1
 62
3
  6
DASHED
 10
-149.221129122849
 20
298.786971830986
 30
0
 11
-162.221129122849
 21
298.786971830986
 31
0
  0
LINE
  8
1
 62
7
 10
-149.221129122849
 20
296.286971830986
 30
0
 11
-149.221129122849
 21
282.786971830986
 31
0
  0
LINE
  8
1
 62
7
 10
-162.221129122849
 20
270.786971830986
 30
0
 11
-162.221129122849
 21
305.286971830986
 31
0
  0
LINE
  8
1
 62
7
 10
-62.54162912909882
 20
389.486971830986
 30
0
 11
-57.3454767063922
 21
389.486971830986
 31
0
  0
LINE
  8
1
 62
3
  6
DASHED
 10
-57.51534968746999
 20
392.3888956196326
 30
0
 11
-59.01534968747001
 21
394.986971830986
 31
0
  0
LINE
  8
1
 62
3
  6
DASHED
 10
-62.54162912909882
 20
389.486971830986
 30
0
 11
-57.51534968746999
 21
392.3888956196326
 31
0
  0
LINE
  8
1
 62
3
  6
DASHED
 10
-63.3454767063922
 20
392.486971830986
 30
0
 11
-59.01534968747001
 21
394.986971830986
 31
0
  0
LINE
  8
1
 62
3
  6
DASHED
 10
-63.0954767063922
 20
392.536971830986
 30
0
 11
-63.0954767063922
 21
389.486971830986
 31
0
  0
LINE
  8
1
 62
7
 10
-81.59547670639222
 20
389.486971830986
 30
0
 11
-78.34547670640333
 21
389.486971830986
 31
0
  0
LINE
  8
1
 62
7
 10
-81.5954767063922
 20
392.536971830986
 30
0
 11
-81.8454767063922
 21
392.286971830986
 31
0
  0
LINE
  8
1
 62
3
  6
DASHED
 10
-81.5954767063922
 20
392.536971830986
 30
0
 11
-81.59547670639222
 21
389.486971830986
 31
0
  0
LINE
  8
1
 62
7
 10
-74.49547670639221
 20
387.186971830986
 30
0
 11
-74.49547670639221
 21
385.686971830986
 31
0
  0
LINE
  8
1
 62
7
 10
-73.1954767063922
 20
385.686971830986
 30
0
 11
-70.3916894563402
 21
385.686971830986
 31
0
  0
LINE
  8
1
 62
7
 10
-73.1954767063922
 20
387.186971830986
 30
0
 11
-73.1954767063922
 21
385.686971830986
 31
0
  0
LINE
  8
1
 62
7
 10
-74.49547670639221
 20
387.186971830986
 30
0
 11
-73.1954767063922
 21
387.186971830986
 31
0
  0
LINE
  8
1
 62
7
 10
-78.34547670640333
 20
389.486971830986
 30
0
 11
-76.1454767063922
 21
389.486971830986
 31
0
  0
LINE
  8
1
 62
7
 10
-78.34547670640333
 20
386.4036284593228
 30
0
 11
-78.34547670640333
 21
389.486971830986
 31
0
  0
LINE
  8
1
 62
7
 10
-69.34547670638108
 20
389.486971830986
 30
0
 11
-62.54162912909882
 21
389.486971830986
 31
0
  0
LINE
  8
1
 62
7
 10
-69.34547670638108
 20
386.403628459343
 30
0
 11
-69.34547670638108
 21
389.486971830986
 31
0
  0
LINE
  8
1
 62
7
 10
-71.54547670639221
 20
389.486971830986
 30
0
 11
-69.34547670638108
 21
389.486971830986
 31
0
  0
LINE
  8
1
 62
7
 10
-71.54547670639221
 20
386.4036284593228
 30
0
 11
-71.54547670639221
 21
389.486971830986
 31
0
  0
LINE
  8
1
 62
7
 10
-76.1454767063922
 20
389.486971830986
 30
0
 11
-71.54547670639221
 21
389.486971830986
 31
0
  0
LINE
  8
1
 62
7
 10
-76.1454767063922
 20
386.403628459343
 30
0
 11
-76.1454767063922
 21
389.486971830986
 31
0
  0
LINE
  8
1
 62
7
 10
-77.19168945635133
 20
385.686971830986
 30
0
 11
-74.49547670639221
 21
385.686971830986
 31
0
  0
LINE
  8
1
 62
7
 10
-57.3454767063922
 20
389.486971830986
 30
0
 11
-57.3454767063922
 21
392.786971830986
 31
0
  0
LINE
  8
1
 62
7
 10
-85.34547670639219
 20
389.486971830986
 30
0
 11
-81.59547670639222
 21
389.486971830986
 31
0
  0
LINE
  8
1
 62
7
 10
-85.3454767063922
 20
392.786971830986
 30
0
 11
-85.34547670639219
 21
389.486971830986
 31
0
  0
LINE
  8
1
 62
7
 10
-135.221129122849
 20
392.286971830986
 30
0
 11
-122.221129122849
 21
392.286971830986
 31
0
  0
LINE
  8
1
 62
7
 10
-135.221129122849
 20
395.286971830986
 30
0
 11
-122.221129122849
 21
395.286971830986
 31
0
  0
LINE
  8
1
 62
7
 10
-135.221129122849
 20
395.286971830986
 30
0
 11
-135.221129122849
 21
392.286971830986
 31
0
  0
LINE
  8
1
 62
7
 10
-149.221129122849
 20
392.286971830986
 30
0
 11
-146.221129122849
 21
392.286971830986
 31
0
  0
LINE
  8
1
 62
7
 10
-149.221129122849
 20
395.286971830986
 30
0
 11
-135.221129122849
 21
395.286971830986
 31
0
  0
LINE
  8
1
 62
7
 10
-149.221129122849
 20
395.286971830986
 30
0
 11
-149.221129122849
 21
392.286971830986
 31
0
  0
LINE
  8
1
 62
2
  6
DIVIDE
 10
-155.721129122849
 20
284.536971830986
 30
0
 11
-155.721129122849
 21
274.536971830986
 31
0
  0
LINE
  8
1
 62
2
  6
DIVIDE
 10
-152.971129122849
 20
277.286971830986
 30
0
 11
-158.471129122849
 21
277.286971830986
 31
0
  0
LINE
  8
1
 62
2
  6
DIVIDE
 10
-128.721129122849
 20
284.428525587226
 30
0
 11
-128.721129122849
 21
274.536971830986
 31
0
  0
LINE
  8
1
 62
2
  6
DIVIDE
 10
-125.971129122849
 20
277.286971830986
 30
0
 11
-131.471129122849
 21
277.286971830986
 31
0
  0
LINE
  8
1
 62
2
  6
DIVIDE
 10
-128.721129122849
 20
295.830926219698
 30
0
 11
-128.721129122849
 21
284.536971830986
 31
0
  0
LINE
  8
1
 62
2
  6
DIVIDE
 10
-123.459142289146
 20
287.286971830986
 30
0
 11
-133.945321462343
 21
287.286971830986
 31
0
  0
LINE
  8
1
 62
7
 10
-135.221129122849
 20
296.286971830986
 30
0
 11
-135.221129122849
 21
282.786971830986
 31
0
  0
LINE
  8
1
 62
7
 10
-148.221129122849
 20
297.286971830986
 30
0
 11
-136.221129122849
 21
297.286971830986
 31
0
  0
LINE
  8
1
 62
2
  6
DASHED
 10
-156.721129122849
 20
303.786971830986
 30
0
 11
-156.721129122849
 21
305.286971830986
 31
0
  0
LINE
  8
1
 62
2
  6
DASHED
 10
-151.721129122849
 20
303.786971830986
 30
0
 11
-151.721129122849
 21
305.286971830986
 31
0
  0
LINE
  8
1
 62
2
  6
DASHED
 10
-151.721129122849
 20
303.786971830986
 30
0
 11
-156.721129122849
 21
303.786971830986
 31
0
  0
LINE
  8
1
 62
2
  6
DASHED
 10
-150.221129122849
 20
302.286971830986
 30
0
 11
-151.721129122849
 21
303.786971830986
 31
0
  0
LINE
  8
1
 62
2
  6
DASHED
 10
-158.221129122849
 20
302.286971830986
 30
0
 11
-156.721129122849
 21
303.786971830986
 31
0
  0
LINE
  8
1
 62
2
  6
PHANTOM
 10
-154.221129122849
 20
309.4028673457529
 30
0
 11
-154.221129122849
 21
298.4028673457529
 31
0
  0
LINE
  8
1
 62
2
  6
DASHED
 10
-132.721129122849
 20
303.786971830986
 30
0
 11
-132.721129122849
 21
305.286971830986
 31
0
  0
LINE
  8
1
 62
2
  6
DASHED
 10
-127.721129122849
 20
303.786971830986
 30
0
 11
-127.721129122849
 21
305.286971830986
 31
0
  0
LINE
  8
1
 62
2
  6
DASHED
 10
-127.721129122849
 20
303.786971830986
 30
0
 11
-132.721129122849
 21
303.786971830986
 31
0
  0
LINE
  8
1
 62
2
  6
DASHED
 10
-126.221129122849
 20
302.286971830986
 30
0
 11
-127.721129122849
 21
303.786971830986
 31
0
  0
LINE
  8
1
 62
2
  6
DASHED
 10
-134.221129122849
 20
302.286971830986
 30
0
 11
-132.721129122849
 21
303.786971830986
 31
0
  0
LINE
  8
1
 62
2
  6
PHANTOM
 10
-130.221129122849
 20
309.4028673457529
 30
0
 11
-130.221129122849
 21
298.4028673457529
 31
0
  0
LINE
  8
1
 62
3
  6
DASHED
 10
-162.221129122849
 20
302.286971830986
 30
0
 11
-122.221129122849
 21
302.286971830986
 31
0
  0
LINE
  8
1
 62
7
 10
-122.221129122849
 20
270.786971830986
 30
0
 11
-122.221129122849
 21
305.286971830986
 31
0
  0
LINE
  8
1
 62
7
 10
-162.221129122849
 20
305.286971830986
 30
0
 11
-122.221129122849
 21
305.286971830986
 31
0
  0
LINE
  8
1
 62
2
  6
DASHED
 10
-90.34547670639219
 20
340.786971830986
 30
0
 11
-91.8454767063922
 21
340.786971830986
 31
0
  0
LINE
  8
1
 62
2
  6
DASHED
 10
-90.34547670639219
 20
345.786971830986
 30
0
 11
-91.8454767063922
 21
345.786971830986
 31
0
  0
LINE
  8
1
 62
2
  6
DASHED
 10
-90.34547670639219
 20
345.786971830986
 30
0
 11
-90.34547670639219
 21
340.786971830986
 31
0
  0
LINE
  8
1
 62
2
  6
DASHED
 10
-88.8454767063922
 20
347.286971830986
 30
0
 11
-90.34547670639219
 21
345.786971830986
 31
0
  0
LINE
  8
1
 62
2
  6
DASHED
 10
-88.8454767063922
 20
339.286971830986
 30
0
 11
-90.34547670639219
 21
340.786971830986
 31
0
  0
LINE
  8
1
 62
2
  6
DASHED
 10
-90.34547670639219
 20
372.786971830986
 30
0
 11
-91.8454767063922
 21
372.786971830986
 31
0
  0
LINE
  8
1
 62
2
  6
DASHED
 10
-90.34547670639219
 20
377.786971830986
 30
0
 11
-91.8454767063922
 21
377.786971830986
 31
0
  0
LINE
  8
1
 62
2
  6
DASHED
 10
-90.34547670639219
 20
377.786971830986
 30
0
 11
-90.34547670639219
 21
372.786971830986
 31
0
  0
LINE
  8
1
 62
2
  6
DASHED
 10
-88.8454767063922
 20
379.286971830986
 30
0
 11
-90.34547670639219
 21
377.786971830986
 31
0
  0
LINE
  8
1
 62
2
  6
DASHED
 10
-88.8454767063922
 20
371.286971830986
 30
0
 11
-90.34547670639219
 21
372.786971830986
 31
0
  0
LINE
  8
1
 62
2
  6
DIVIDE
 10
-154.221129122849
 20
379.686971830986
 30
0
 11
-154.221129122849
 21
370.886971830986
 31
0
  0
LINE
  8
1
 62
2
  6
DIVIDE
 10
-149.821129122849
 20
375.286971830986
 30
0
 11
-158.621129122849
 21
375.286971830986
 31
0
  0
LINE
  8
1
 62
2
  6
DIVIDE
 10
-130.221129122849
 20
379.686971830986
 30
0
 11
-130.221129122849
 21
370.886971830986
 31
0
  0
LINE
  8
1
 62
2
  6
DIVIDE
 10
-125.821129122849
 20
375.286971830986
 30
0
 11
-134.621129122849
 21
375.286971830986
 31
0
  0
LINE
  8
1
 62
2
  6
DIVIDE
 10
-130.221129122849
 20
347.686971830986
 30
0
 11
-130.221129122849
 21
338.886971830986
 31
0
  0
LINE
  8
1
 62
2
  6
DIVIDE
 10
-125.821129122849
 20
343.286971830986
 30
0
 11
-134.621129122849
 21
343.286971830986
 31
0
  0
LINE
  8
1
 62
2
 10
-162.221129122849
 20
392.786971830986
 30
0
 11
-146.221129122849
 21
392.786971830986
 31
0
  0
LINE
  8
1
 62
7
 10
-162.221129122849
 20
392.286971830986
 30
0
 11
-149.221129122849
 21
392.286971830986
 31
0
  0
LINE
  8
1
 62
7
 10
-162.221129122849
 20
395.286971830986
 30
0
 11
-158.221129122849
 21
395.286971830986
 31
0
  0
LINE
  8
1
 62
7
 10
-154.221129122849
 20
335.286971830986
 30
0
 11
-130.221129122849
 21
335.286971830986
 31
0
  0
LINE
  8
1
 62
7
 10
-162.221129122849
 20
343.286971830986
 30
0
 11
-162.221129122849
 21
389.486971830986
 31
0
  0
LINE
  8
1
 62
7
 10
-122.221129122849
 20
343.286971830986
 30
0
 11
-122.221129122849
 21
389.486971830986
 31
0
  0
LINE
  8
1
 62
7
 10
-86.3454767063922
 20
392.786971830986
 30
0
 11
-86.8454767063922
 21
392.286971830986
 31
0
  0
LINE
  8
1
 62
7
 10
-85.8454767063922
 20
392.286971830986
 30
0
 11
-86.3454767063922
 21
392.786971830986
 31
0
  0
LINE
  8
1
 62
7
 10
-85.3454767063922
 20
392.786971830986
 30
0
 11
-85.8454767063922
 21
392.286971830986
 31
0
  0
LINE
  8
1
 62
7
 10
-84.8454767063922
 20
392.286971830986
 30
0
 11
-85.3454767063922
 21
392.786971830986
 31
0
  0
LINE
  8
1
 62
7
 10
-84.3454767063922
 20
392.786971830986
 30
0
 11
-84.8454767063922
 21
392.286971830986
 31
0
  0
LINE
  8
1
 62
7
 10
-83.8454767063922
 20
392.286971830986
 30
0
 11
-84.3454767063922
 21
392.786971830986
 31
0
  0
LINE
  8
1
 62
7
 10
-83.3454767063922
 20
392.786971830986
 30
0
 11
-83.8454767063922
 21
392.286971830986
 31
0
  0
LINE
  8
1
 62
7
 10
-82.8454767063922
 20
392.286971830986
 30
0
 11
-83.3454767063922
 21
392.786971830986
 31
0
  0
LINE
  8
1
 62
7
 10
-82.3454767063922
 20
392.786971830986
 30
0
 11
-82.8454767063922
 21
392.286971830986
 31
0
  0
LINE
  8
1
 62
7
 10
-81.8454767063922
 20
392.286971830986
 30
0
 11
-82.3454767063922
 21
392.786971830986
 31
0
  0
LINE
  8
1
 62
7
 10
-81.3454767063922
 20
392.786971830986
 30
0
 11
-81.5954767063922
 21
392.536971830986
 31
0
  0
LINE
  8
1
 62
7
 10
-80.8454767063922
 20
392.286971830986
 30
0
 11
-81.3454767063922
 21
392.786971830986
 31
0
  0
LINE
  8
1
 62
7
 10
-80.3454767063922
 20
392.786971830986
 30
0
 11
-80.8454767063922
 21
392.286971830986
 31
0
  0
LINE
  8
1
 62
7
 10
-79.8454767063922
 20
392.286971830986
 30
0
 11
-80.3454767063922
 21
392.786971830986
 31
0
  0
LINE
  8
1
 62
7
 10
-79.3454767063922
 20
392.786971830986
 30
0
 11
-79.8454767063922
 21
392.286971830986
 31
0
  0
LINE
  8
1
 62
7
 10
-78.8454767063922
 20
392.286971830986
 30
0
 11
-79.3454767063922
 21
392.786971830986
 31
0
  0
LINE
  8
1
 62
7
 10
-78.3454767063922
 20
392.786971830986
 30
0
 11
-78.8454767063922
 21
392.286971830986
 31
0
  0
LINE
  8
1
 62
7
 10
-77.8454767063922
 20
392.286971830986
 30
0
 11
-78.3454767063922
 21
392.786971830986
 31
0
  0
LINE
  8
1
 62
7
 10
-77.3454767063922
 20
392.786971830986
 30
0
 11
-77.8454767063922
 21
392.286971830986
 31
0
  0
LINE
  8
1
 62
7
 10
-76.8454767063922
 20
392.286971830986
 30
0
 11
-77.3454767063922
 21
392.786971830986
 31
0
  0
LINE
  8
1
 62
7
 10
-76.3454767063922
 20
392.786971830986
 30
0
 11
-76.8454767063922
 21
392.286971830986
 31
0
  0
LINE
  8
1
 62
7
 10
-75.8454767063922
 20
392.286971830986
 30
0
 11
-76.3454767063922
 21
392.786971830986
 31
0
  0
LINE
  8
1
 62
7
 10
-75.3454767063922
 20
392.786971830986
 30
0
 11
-75.8454767063922
 21
392.286971830986
 31
0
  0
LINE
  8
1
 62
7
 10
-74.8454767063922
 20
392.286971830986
 30
0
 11
-75.3454767063922
 21
392.786971830986
 31
0
  0
LINE
  8
1
 62
7
 10
-74.3454767063922
 20
392.786971830986
 30
0
 11
-74.8454767063922
 21
392.286971830986
 31
0
  0
LINE
  8
1
 62
7
 10
-73.8454767063922
 20
392.286971830986
 30
0
 11
-74.3454767063922
 21
392.786971830986
 31
0
  0
LINE
  8
1
 62
7
 10
-73.3454767063922
 20
392.786971830986
 30
0
 11
-73.8454767063922
 21
392.286971830986
 31
0
  0
LINE
  8
1
 62
7
 10
-72.8454767063922
 20
392.286971830986
 30
0
 11
-73.3454767063922
 21
392.786971830986
 31
0
  0
LINE
  8
1
 62
7
 10
-72.3454767063922
 20
392.786971830986
 30
0
 11
-72.8454767063922
 21
392.286971830986
 31
0
  0
LINE
  8
1
 62
7
 10
-71.8454767063922
 20
392.286971830986
 30
0
 11
-72.3454767063922
 21
392.786971830986
 31
0
  0
LINE
  8
1
 62
7
 10
-71.3454767063922
 20
392.786971830986
 30
0
 11
-71.8454767063922
 21
392.286971830986
 31
0
  0
LINE
  8
1
 62
7
 10
-70.8454767063922
 20
392.286971830986
 30
0
 11
-71.3454767063922
 21
392.786971830986
 31
0
  0
LINE
  8
1
 62
7
 10
-70.3454767063922
 20
392.786971830986
 30
0
 11
-70.8454767063922
 21
392.286971830986
 31
0
  0
LINE
  8
1
 62
7
 10
-69.8454767063922
 20
392.286971830986
 30
0
 11
-70.3454767063922
 21
392.786971830986
 31
0
  0
LINE
  8
1
 62
7
 10
-69.3454767063922
 20
392.786971830986
 30
0
 11
-69.8454767063922
 21
392.286971830986
 31
0
  0
LINE
  8
1
 62
7
 10
-68.8454767063922
 20
392.286971830986
 30
0
 11
-69.3454767063922
 21
392.786971830986
 31
0
  0
LINE
  8
1
 62
7
 10
-68.3454767063922
 20
392.786971830986
 30
0
 11
-68.8454767063922
 21
392.286971830986
 31
0
  0
LINE
  8
1
 62
7
 10
-67.8454767063922
 20
392.286971830986
 30
0
 11
-68.3454767063922
 21
392.786971830986
 31
0
  0
LINE
  8
1
 62
7
 10
-67.3454767063922
 20
392.786971830986
 30
0
 11
-67.8454767063922
 21
392.286971830986
 31
0
  0
LINE
  8
1
 62
7
 10
-66.8454767063922
 20
392.286971830986
 30
0
 11
-67.3454767063922
 21
392.786971830986
 31
0
  0
LINE
  8
1
 62
7
 10
-66.3454767063922
 20
392.786971830986
 30
0
 11
-66.8454767063922
 21
392.286971830986
 31
0
  0
LINE
  8
1
 62
7
 10
-65.8454767063922
 20
392.286971830986
 30
0
 11
-66.3454767063922
 21
392.786971830986
 31
0
  0
LINE
  8
1
 62
7
 10
-65.3454767063922
 20
392.786971830986
 30
0
 11
-65.8454767063922
 21
392.286971830986
 31
0
  0
LINE
  8
1
 62
7
 10
-64.8454767063922
 20
392.286971830986
 30
0
 11
-65.3454767063922
 21
392.786971830986
 31
0
  0
LINE
  8
1
 62
7
 10
-64.3454767063922
 20
392.786971830986
 30
0
 11
-64.8454767063922
 21
392.286971830986
 31
0
  0
LINE
  8
1
 62
7
 10
-63.8454767063922
 20
392.286971830986
 30
0
 11
-64.3454767063922
 21
392.786971830986
 31
0
  0
LINE
  8
1
 62
7
 10
-63.3454767063922
 20
392.786971830986
 30
0
 11
-63.8454767063922
 21
392.286971830986
 31
0
  0
LINE
  8
1
 62
7
 10
-62.8454767063922
 20
392.286971830986
 30
0
 11
-63.3454767063922
 21
392.786971830986
 31
0
  0
LINE
  8
1
 62
7
 10
-62.3454767063922
 20
392.786971830986
 30
0
 11
-62.8454767063922
 21
392.286971830986
 31
0
  0
LINE
  8
1
 62
7
 10
-61.8454767063922
 20
392.286971830986
 30
0
 11
-62.3454767063922
 21
392.786971830986
 31
0
  0
LINE
  8
1
 62
7
 10
-61.3454767063922
 20
392.786971830986
 30
0
 11
-61.8454767063922
 21
392.286971830986
 31
0
  0
LINE
  8
1
 62
7
 10
-60.8454767063922
 20
392.286971830986
 30
0
 11
-61.3454767063922
 21
392.786971830986
 31
0
  0
LINE
  8
1
 62
7
 10
-60.3454767063922
 20
392.786971830986
 30
0
 11
-60.8454767063922
 21
392.286971830986
 31
0
  0
LINE
  8
1
 62
7
 10
-59.8454767063922
 20
392.286971830986
 30
0
 11
-60.3454767063922
 21
392.786971830986
 31
0
  0
LINE
  8
1
 62
7
 10
-59.3454767063922
 20
392.786971830986
 30
0
 11
-59.8454767063922
 21
392.286971830986
 31
0
  0
LINE
  8
1
 62
7
 10
-58.8454767063922
 20
392.286971830986
 30
0
 11
-59.3454767063922
 21
392.786971830986
 31
0
  0
LINE
  8
1
 62
7
 10
-58.3454767063922
 20
392.786971830986
 30
0
 11
-58.8454767063922
 21
392.286971830986
 31
0
  0
LINE
  8
1
 62
7
 10
-57.8454767063922
 20
392.286971830986
 30
0
 11
-58.3454767063922
 21
392.786971830986
 31
0
  0
LINE
  8
1
 62
7
 10
-57.3454767063922
 20
392.786971830986
 30
0
 11
-57.8454767063922
 21
392.286971830986
 31
0
  0
LINE
  8
1
 62
2
  6
PHANTOM
 10
-63.8454767063922
 20
398.428475113537
 30
0
 11
-63.8454767063922
 21
383.167545857695
 31
0
  0
LINE
  8
1
 62
2
  6
PHANTOM
 10
-73.8454767063922
 20
398.428475113537
 30
0
 11
-73.84547670639219
 21
383.167545857695
 31
0
  0
LINE
  8
1
 62
2
  6
PHANTOM
 10
-95.9613722211591
 20
343.286971830986
 30
0
 11
-84.9613722211591
 21
343.286971830986
 31
0
  0
LINE
  8
1
 62
2
  6
PHANTOM
 10
-95.9613722211591
 20
375.286971830986
 30
0
 11
-84.9613722211591
 21
375.286971830986
 31
0
  0
LINE
  8
1
 62
7
 10
-91.8454767063922
 20
335.286971830986
 30
0
 11
-88.8454767063922
 21
335.286971830986
 31
0
  0
LINE
  8
1
 62
7
 10
-57.3454767063922
 20
395.286971830986
 30
0
 11
-57.3454767063922
 21
392.786971830986
 31
0
  0
LINE
  8
1
 62
7
 10
-88.8454767063922
 20
335.286971830986
 30
0
 11
-88.8454767063922
 21
390.286971830986
 31
0
  0
LINE
  8
1
 62
7
 10
-86.8454767063922
 20
395.286971830986
 30
0
 11
-57.3454767063922
 21
395.286971830986
 31
0
  0
LINE
  8
1
 62
7
 10
-91.8454767063922
 20
335.286971830986
 30
0
 11
-91.8454767063922
 21
390.286971830986
 31
0
  0
LINE
  8
1
 62
2
  6
PHANTOM
 10
44.9183966547937
 20
31.99999999999999
 30
0
 11
68.95204191523088
 21
31.99999999999999
 31
0
  0
LINE
  8
1
 62
2
  6
PHANTOM
 10
51.00778386363771
 20
12.94999999999999
 30
0
 11
62.79787399139928
 21
12.94999999999999
 31
0
  0
LINE
  8
1
 62
2
  6
PHANTOM
 10
56.99999999999999
 20
44.50267799262638
 30
0
 11
56.99999999999999
 21
6.541179009833389
 31
0
  0
LINE
  8
1
 62
7
 10
62.1125
 20
12.94999999999999
 30
0
 11
62.11249999999999
 21
22.13338963980029
 31
0
  0
LINE
  8
1
 62
7
 10
51.8875
 20
12.94999999999999
 30
0
 11
51.8875
 21
22.13338963980029
 31
0
  0
LINE
  8
1
 62
7
 10
16
 20
218
 30
0
 11
9.500000000000002
 21
218
 31
0
  0
LINE
  8
1
 62
7
 10
0
 20
218
 30
0
 11
16
 21
218
 31
0
  0
LINE
  8
1
 62
7
 10
2.599999999999993
 20
161.8
 30
0
 11
2.600000000000001
 21
160
 31
0
  0
LINE
  8
1
 62
7
 10
0.6000000000000013
 20
161.8
 30
0
 11
2.599999999999993
 21
161.8
 31
0
  0
LINE
  8
1
 62
7
 10
0.6000000000000013
 20
183.3
 30
0
 11
0.6000000000000013
 21
161.8
 31
0
  0
LINE
  8
1
 62
7
 10
15.6
 20
175.3
 30
0
 11
15.6
 21
160
 31
0
  0
LINE
  8
1
 62
7
 10
7.600000000000001
 20
175.3
 30
0
 11
15.6
 21
175.3
 31
0
  0
LINE
  8
1
 62
7
 10
7.600000000000001
 20
183.3
 30
0
 11
7.600000000000001
 21
175.3
 31
0
  0
LINE
  8
1
 62
7
 10
0.6000000000000013
 20
185.8
 30
0
 11
0.6000000000000013
 21
183.3
 31
0
  0
LINE
  8
1
 62
7
 10
15.6
 20
185.8
 30
0
 11
12
 21
185.8
 31
0
  0
LINE
  8
1
 62
7
 10
15.6
 20
183.3
 30
0
 11
15.6
 21
185.8
 31
0
  0
LINE
  8
1
 62
7
 10
0.6000000000000013
 20
183.3
 30
0
 11
10
 21
183.3
 31
0
  0
LINE
  8
1
 62
7
 10
-2.999999999999999
 20
279.9999999999998
 30
0
 11
-2.999999999999999
 21
-35
 31
0
  0
LINE
  8
1
 62
7
 10
0
 20
279.9999999999998
 30
0
 11
-2.999999999999999
 21
279.9999999999998
 31
0
  0
LINE
  8
1
 62
7
 10
0
 20
-35
 30
0
 11
0
 21
279.9999999999998
 31
0
  0
LINE
  8
1
 62
7
 10
-2.999999999999999
 20
-35
 30
0
 11
0
 21
-35
 31
0
  0
LINE
  8
1
 62
2
  6
DASHED
 10
44.29999999999999
 20
9.500000000000002
 30
0
 11
44.29999999999999
 21
4.900000000000001
 31
0
  0
LINE
  8
1
 62
2
  6
DASHED
 10
47.00000000000001
 20
9.500000000000002
 30
0
 11
44.29999999999999
 21
9.500000000000002
 31
0
  0
LINE
  8
1
 62
2
  6
DASHED
 10
47.00000000000001
 20
4.900000000000001
 30
0
 11
47.00000000000001
 21
9.500000000000002
 31
0
  0
LINE
  8
1
 62
2
  6
DASHED
 10
44.29999999999999
 20
4.900000000000001
 30
0
 11
47.00000000000001
 21
4.900000000000001
 31
0
  0
LINE
  8
1
 62
2
  6
PHANTOM
 10
56.99999999999999
 20
100.158747300216
 30
0
 11
56.99999999999999
 21
119.841252699784
 31
0
  0
LINE
  8
1
 62
2
  6
PHANTOM
 10
47.158747300216
 20
110
 30
0
 11
66.84125269978399
 21
110
 31
0
  0
LINE
  8
1
 62
2
  6
PHANTOM
 10
56.99999999999999
 20
82.65657114601451
 30
0
 11
56.99999999999999
 21
93.3434288539855
 31
0
  0
LINE
  8
1
 62
2
  6
PHANTOM
 10
51.6565711460145
 20
87.99999999999999
 30
0
 11
62.34342885398549
 21
87.99999999999999
 31
0
  0
LINE
  8
1
 62
7
 10
54.20000000000001
 20
85.50550606334671
 30
0
 11
54.20000000000001
 21
90.4944939366533
 31
0
  0
LINE
  8
1
 62
7
 10
59.79999999999999
 20
90.4944939366533
 30
0
 11
59.79999999999999
 21
85.50550606334671
 31
0
  0
LINE
  8
1
 62
7
 10
52.99999999999998
 20
114
 30
0
 11
52.99999999999998
 21
106
 31
0
  0
LINE
  8
1
 62
7
 10
60.99999999999999
 20
114
 30
0
 11
52.99999999999998
 21
114
 31
0
  0
LINE
  8
1
 62
7
 10
60.99999999999999
 20
106
 30
0
 11
60.99999999999999
 21
114
 31
0
  0
LINE
  8
1
 62
7
 10
52.99999999999998
 20
106
 30
0
 11
60.99999999999999
 21
106
 31
0
  0
LINE
  8
1
 62
7
 10
53.94947517693148
 20
103.1484090676805
 30
0
 11
52.85128624062683
 21
100.6818363320455
 31
0
  0
LINE
  8
1
 62
7
 10
61.14871375937315
 20
100.6818363320455
 30
0
 11
60.05052482306849
 21
103.1484090676805
 31
0
  0
LINE
  8
1
 62
7
 10
51.42641380891953
 20
104.9815204523086
 30
0
 11
49.41992278013057
 21
103.1748678151396
 31
0
  0
LINE
  8
1
 62
2
  6
PHANTOM
 10
28.55183585313171
 20
25
 30
0
 11
46.55183585313172
 21
25
 31
0
  0
LINE
  8
1
 62
2
  6
PHANTOM
 10
37.00000000000001
 20
30.97766468099399
 30
0
 11
37.00000000000001
 21
18.977664680994
 31
0
  0
LINE
  8
1
 62
7
 10
41.14246303544159
 20
22.2
 30
0
 11
32.85753696455841
 21
22.2
 31
0
  0
LINE
  8
1
 62
7
 10
32.85753696455841
 20
27.8
 30
0
 11
41.14246303544159
 21
27.8
 31
0
  0
LINE
  8
1
 62
2
  6
PHANTOM
 10
68.55183585313171
 20
25
 30
0
 11
86.55183585313169
 21
25
 31
0
  0
LINE
  8
1
 62
2
  6
PHANTOM
 10
77
 20
30.97766468099399
 30
0
 11
77
 21
18.977664680994
 31
0
  0
LINE
  8
1
 62
7
 10
81.14246303544158
 20
22.2
 30
0
 11
72.85753696455842
 21
22.2
 31
0
  0
LINE
  8
1
 62
7
 10
72.85753696455842
 20
27.8
 30
0
 11
81.14246303544158
 21
27.8
 31
0
  0
LINE
  8
1
 62
2
  6
PHANTOM
 10
28.55183585313171
 20
110
 30
0
 11
46.55183585313172
 21
110
 31
0
  0
LINE
  8
1
 62
2
  6
PHANTOM
 10
37.00000000000001
 20
115.977664680994
 30
0
 11
37.00000000000001
 21
103.977664680994
 31
0
  0
LINE
  8
1
 62
7
 10
41.14246303544159
 20
107.2
 30
0
 11
32.85753696455841
 21
107.2
 31
0
  0
LINE
  8
1
 62
7
 10
32.85753696455841
 20
112.8
 30
0
 11
41.14246303544159
 21
112.8
 31
0
  0
LINE
  8
1
 62
2
  6
PHANTOM
 10
68.55183585313171
 20
110
 30
0
 11
86.55183585313169
 21
110
 31
0
  0
LINE
  8
1
 62
2
  6
PHANTOM
 10
77
 20
115.977664680994
 30
0
 11
77
 21
103.977664680994
 31
0
  0
LINE
  8
1
 62
7
 10
81.14246303544158
 20
107.2
 30
0
 11
72.85753696455842
 21
107.2
 31
0
  0
LINE
  8
1
 62
7
 10
72.85753696455842
 20
112.8
 30
0
 11
81.14246303544158
 21
112.8
 31
0
  0
LINE
  8
1
 62
7
 10
0
 20
160
 30
0
 11
0
 21
0
 31
0
  0
LINE
  8
1
 62
7
 10
77
 20
160
 30
0
 11
0
 21
160
 31
0
  0
LINE
  8
1
 62
7
 10
96.99999999999999
 20
20
 30
0
 11
96.99999999999999
 21
140
 31
0
  0
LINE
  8
1
 62
7
 10
0
 20
0
 30
0
 11
77
 21
0
 31
0
  0
LINE
  8
1
 62
7
 10
10
 20
179.3
 30
0
 11
12
 21
179.3
 31
0
  0
LINE
  8
1
 62
7
 10
12
 20
179.3
 30
0
 11
12
 21
218
 31
0
  0
LINE
  8
1
 62
7
 10
12
 20
218
 30
0
 11
10
 21
218
 31
0
  0
LINE
  8
1
 62
7
 10
10
 20
218
 30
0
 11
10
 21
179.3
 31
0
  0
LINE
  8
1
 62
7
 10
10
 20
185.8
 30
0
 11
0.6000000000000013
 21
185.8
 31
0
  0
LINE
  8
1
 62
7
 10
12
 20
183.3
 30
0
 11
15.6
 21
183.3
 31
0
  0
LINE
  8
1
 62
7
 10
-2.999999999999999
 20
373
 30
0
 11
56.99999999999999
 21
373
 31
0
  0
LINE
  8
1
 62
7
 10
56.99999999999999
 20
373
 30
0
 11
56.99999999999999
 21
375.9999999999999
 31
0
  0
LINE
  8
1
 62
7
 10
56.99999999999999
 20
375.9999999999999
 30
0
 11
-2.999999999999999
 21
375.9999999999999
 31
0
  0
LINE
  8
1
 62
7
 10
-2.999999999999999
 20
375.9999999999999
 30
0
 11
-2.999999999999999
 21
373
 31
0
  0
LINE
  8
1
 62
7
 10
16
 20
218
 30
0
 11
16
 21
304.1123672883187
 31
0
  0
LINE
  8
1
 62
7
 10
2.5
 20
375.9999999999999
 30
0
 11
2.5
 21
386.0000000000001
 31
0
  0
LINE
  8
1
 62
7
 10
2.5
 20
386.0000000000001
 30
0
 11
14
 21
386.0000000000001
 31
0
  0
LINE
  8
1
 62
7
 10
14
 20
386.0000000000001
 30
0
 11
14
 21
375.9999999999999
 31
0
  0
LINE
  8
1
 62
7
 10
10
 20
190.5
 30
0
 11
12
 21
190.5
 31
0
  0
LINE
  8
1
 62
7
 10
-2.999999999999999
 20
373
 30
0
 11
-2.999999999999999
 21
310.4544249051484
 31
0
  0
LINE
  8
1
 62
7
 10
0
 20
279.9999999999998
 30
0
 11
-1.054711873393899e-15
 21
305.4550962630989
 31
0
  0
LINE
  8
1
 62
7
 10
2.75
 20
386.0000000000001
 30
0
 11
2.75
 21
398.8142105483753
 31
0
  0
LINE
  8
1
 62
7
 10
3.749999999999999
 20
400.5462613559442
 30
0
 11
11
 21
404.7320508075687
 31
0
  0
LINE
  8
1
 62
7
 10
14
 20
402.9999999999998
 30
0
 11
14
 21
386.0000000000001
 31
0
  0
LINE
  8
1
 62
3
  6
PHANTOM
 10
3.749999999999999
 20
388.5462613559442
 30
0
 11
11
 21
392.732050807569
 31
0
  0
LINE
  8
1
 62
7
 10
-2.999999999999999
 20
-105
 30
0
 11
56.99999999999999
 21
-105
 31
0
  0
LINE
  8
1
 62
7
 10
56.99999999999999
 20
-105
 30
0
 11
56.99999999999999
 21
-85
 31
0
  0
LINE
  8
1
 62
7
 10
56.99999999999999
 20
-85
 30
0
 11
-2.999999999999999
 21
-85
 31
0
  0
LINE
  8
1
 62
7
 10
-2.999999999999999
 20
-85
 30
0
 11
-2.999999999999999
 21
-105
 31
0
  0
LINE
  8
1
 62
7
 10
2
 20
-101.2
 30
0
 11
14.4
 21
-101.2
 31
0
  0
LINE
  8
1
 62
7
 10
14.4
 20
-101.2
 30
0
 11
14.4
 21
-88.79999999999998
 31
0
  0
LINE
  8
1
 62
7
 10
14.4
 20
-88.79999999999998
 30
0
 11
2
 21
-88.79999999999998
 31
0
  0
LINE
  8
1
 62
7
 10
2
 20
-88.79999999999998
 30
0
 11
2
 21
-101.2
 31
0
  0
LINE
  8
1
 62
7
 10
56.99999999999999
 20
-87.50000000000001
 30
0
 11
96.99999999999999
 21
-87.50000000000001
 31
0
  0
LINE
  8
1
 62
7
 10
56.99999999999999
 20
-89.49999999999999
 30
0
 11
96.99999999999999
 21
-89.49999999999999
 31
0
  0
LINE
  8
1
 62
7
 10
56.99999999999999
 20
-100.5
 30
0
 11
96.99999999999999
 21
-100.5
 31
0
  0
LINE
  8
1
 62
7
 10
56.99999999999999
 20
-102.5
 30
0
 11
96.99999999999999
 21
-102.5
 31
0
  0
LINE
  8
1
 62
7
 10
96.99999999999999
 20
-87.50000000000001
 30
0
 11
96.99999999999999
 21
-102.5
 31
0
  0
LINE
  8
1
 62
2
  6
PHANTOM
 10
20.44
 20
-93
 30
0
 11
33.56
 21
-93
 31
0
  0
LINE
  8
1
 62
2
  6
PHANTOM
 10
27
 20
-99.56
 30
0
 11
27
 21
-86.44000000000001
 31
0
  0
LINE
  8
1
 62
2
  6
PHANTOM
 10
42.43999999999998
 20
-96.99999999999999
 30
0
 11
55.55999999999998
 21
-96.99999999999999
 31
0
  0
LINE
  8
1
 62
2
  6
PHANTOM
 10
48.99999999999999
 20
-103.56
 30
0
 11
48.99999999999999
 21
-90.43999999999998
 31
0
  0
LINE
  8
1
 62
7
 10
2.75
 20
-99.49999999999999
 30
0
 11
14
 21
-99.49999999999999
 31
0
  0
LINE
  8
1
 62
7
 10
14
 20
-99.49999999999999
 30
0
 11
14
 21
-90.49999999999999
 31
0
  0
LINE
  8
1
 62
7
 10
14
 20
-90.49999999999999
 30
0
 11
2.75
 21
-90.49999999999999
 31
0
  0
LINE
  8
1
 62
7
 10
2.75
 20
-90.49999999999999
 30
0
 11
2.75
 21
-99.49999999999999
 31
0
  0
LINE
  8
1
 62
7
 10
163
 20
373
 30
0
 11
147
 21
373
 31
0
  0
LINE
  8
1
 62
7
 10
147
 20
373
 30
0
 11
147
 21
310.4544249051484
 31
0
  0
LINE
  8
1
 62
7
 10
163
 20
-27
 30
0
 11
163
 21
304.1123672883187
 31
0
  0
LINE
  8
1
 62
7
 10
147
 20
279.9999999999998
 30
0
 11
163
 21
279.9999999999998
 31
0
  0
LINE
  8
1
 62
2
  6
PHANTOM
 10
148.36
 20
272.0000000000001
 30
0
 11
161.64
 21
272.0000000000001
 31
0
  0
LINE
  8
1
 62
2
  6
PHANTOM
 10
155
 20
265.36
 30
0
 11
155
 21
278.64
 31
0
  0
LINE
  8
1
 62
2
  6
PHANTOM
 10
148.36
 20
-27
 30
0
 11
161.64
 21
-27
 31
0
  0
LINE
  8
1
 62
2
  6
PHANTOM
 10
155
 20
-33.64000000000001
 30
0
 11
155
 21
-20.36
 31
0
  0
LINE
  8
1
 62
2
  6
PHANTOM
 10
147.4
 20
13
 30
0
 11
162.6
 21
13
 31
0
  0
LINE
  8
1
 62
2
  6
PHANTOM
 10
155
 20
5.4
 30
0
 11
155
 21
20.6
 31
0
  0
LINE
  8
1
 62
2
  6
PHANTOM
 10
148.44
 20
287.9999999999999
 30
0
 11
161.56
 21
287.9999999999999
 31
0
  0
LINE
  8
1
 62
2
  6
PHANTOM
 10
155
 20
281.4399999999999
 30
0
 11
155
 21
294.56
 31
0
  0
LINE
  8
1
 62
7
 10
145
 20
373
 30
0
 11
165
 21
373
 31
0
  0
LINE
  8
1
 62
7
 10
165
 20
373
 30
0
 11
165
 21
375.9999999999999
 31
0
  0
LINE
  8
1
 62
7
 10
165
 20
375.9999999999999
 30
0
 11
145
 21
375.9999999999999
 31
0
  0
LINE
  8
1
 62
7
 10
145
 20
375.9999999999999
 30
0
 11
145
 21
373
 31
0
  0
LINE
  8
1
 62
2
  6
PHANTOM
 10
148.44
 20
327.9999999999999
 30
0
 11
161.56
 21
327.9999999999999
 31
0
  0
LINE
  8
1
 62
2
  6
PHANTOM
 10
155
 20
321.44
 30
0
 11
155
 21
334.5600000000001
 31
0
  0
LINE
  8
1
 62
7
 10
149.25
 20
375.9999999999999
 30
0
 11
149.25
 21
386.0000000000001
 31
0
  0
LINE
  8
1
 62
7
 10
149.25
 20
386.0000000000001
 30
0
 11
160.75
 21
386.0000000000001
 31
0
  0
LINE
  8
1
 62
7
 10
160.75
 20
386.0000000000001
 30
0
 11
160.75
 21
375.9999999999999
 31
0
  0
LINE
  8
1
 62
7
 10
153.1
 20
386.0000000000001
 30
0
 11
153.1
 21
375.9999999999999
 31
0
  0
LINE
  8
1
 62
7
 10
156.9
 20
386.0000000000001
 30
0
 11
156.9
 21
375.9999999999999
 31
0
  0
LINE
  8
1
 62
7
 10
150.5
 20
386.0000000000001
 30
0
 11
150.5
 21
405
 31
0
  0
LINE
  8
1
 62
7
 10
150.5
 20
405
 30
0
 11
159.5
 21
405
 31
0
  0
LINE
  8
1
 62
7
 10
159.5
 20
405
 30
0
 11
159.5
 21
386.0000000000001
 31
0
  0
LINE
  8
1
 62
7
 10
150.5
 20
399.8142105483751
 30
0
 11
159.5
 21
399.8142105483751
 31
0
  0
LINE
  8
1
 62
7
 10
147
 20
304.4544262371484
 30
0
 11
147
 21
-27
 31
0
  0
LINE
  8
1
 62
7
 10
163
 20
310.1123659563187
 30
0
 11
163
 21
373
 31
0
  0
LINE
  8
1
 62
7
 10
-2.999999999999999
 20
373
 30
0
 11
-2.999999999999999
 21
310.4544249051484
 31
0
  0
LINE
  8
1
 62
7
 10
-2.999999999999999
 20
304.4544262371484
 30
0
 11
-2.999999999999999
 21
279.9999999999998
 31
0
  0
LINE
  8
1
 62
7
 10
16
 20
310.1123659563187
 30
0
 11
16
 21
373
 31
0
  0
LINE
  8
1
 62
7
 10
-6.661338147750939e-16
 20
311.4550949310992
 30
0
 11
0
 21
373
 31
0
  0
ARC
  8
1
 62
7
 10
-127.1236001885276
 20
389.818722292222
 30
0
 40
4.146924885048367
 50
274.9030144174373
 51
304.560827851506
  0
ARC
  8
1
 62
7
 10
-126.3597485992114
 20
389.818722292222
 30
0
 40
4.151985532825613
 50
235.3379222068277
 51
264.3410139163523
  0
ARC
  8
1
 62
7
 10
-130.3186580571704
 20
389.818722292222
 30
0
 40
4.146924885048347
 50
235.439172148494
 51
265.0969855825628
  0
ARC
  8
1
 62
7
 10
-131.0825096464866
 20
389.818722292222
 30
0
 40
4.151985532825635
 50
275.6589860836476
 51
304.6620777931727
  0
ARC
  8
1
 62
7
 10
-154.1236001885276
 20
389.818722292222
 30
0
 40
4.146924885048367
 50
274.9030144174373
 51
304.560827851506
  0
ARC
  8
1
 62
7
 10
-153.3597485992114
 20
389.818722292222
 30
0
 40
4.151985532825613
 50
235.3379222068277
 51
264.3410139163523
  0
ARC
  8
1
 62
7
 10
-157.3186580571704
 20
389.818722292222
 30
0
 40
4.146924885048347
 50
235.439172148494
 51
265.0969855825628
  0
ARC
  8
1
 62
7
 10
-158.0825096464866
 20
389.818722292222
 30
0
 40
4.151985532825635
 50
275.6589860836476
 51
304.6620777931727
  0
ARC
  8
1
 62
2
  6
DASHED
 10
-155.721129122849
 20
279.286971830986
 30
0
 40
2.75
 50
180
 51
229.1645747266911
  0
ARC
  8
1
 62
2
  6
DASHED
 10
-155.721129122849
 20
279.286971830986
 30
0
 40
2.750000000000011
 50
310.8354252733084
 51
0
  0
ARC
  8
1
 62
7
 10
-155.721129122849
 20
279.286971830986
 30
0
 40
2.75000000000003
 50
229.1645747266911
 51
310.8354252733084
  0
ARC
  8
1
 62
2
  6
DASHED
 10
-155.721129122849
 20
292.286971830986
 30
0
 40
2.75
 50
0
 51
180
  0
ARC
  8
1
 62
7
 10
-128.721129122849
 20
279.286971830986
 30
0
 40
2.75000000000003
 50
229.1645747266911
 51
310.8354252733087
  0
ARC
  8
1
 62
2
  6
DASHED
 10
-128.721129122849
 20
279.286971830986
 30
0
 40
2.75
 50
180
 51
229.1645747266911
  0
ARC
  8
1
 62
2
  6
DASHED
 10
-128.721129122849
 20
292.286971830986
 30
0
 40
2.749999999999986
 50
0
 51
180
  0
ARC
  8
1
 62
2
  6
DASHED
 10
-128.721129122849
 20
279.286971830986
 30
0
 40
2.75000000000002
 50
310.8354252733087
 51
0
  0
ARC
  8
1
 62
1
 10
-155.721129122849
 20
287.286971830986
 30
0
 40
1.800000000000097
 50
180
 51
9.566397296143228
  0
ARC
  8
1
 62
1
 10
-155.721129122849
 20
287.286971830986
 30
0
 40
1.799999999999891
 50
78.55974546661065
 51
180
  0
ARC
  8
1
 62
7
 10
-155.721129122849
 20
287.286971830986
 30
0
 40
2.5
 50
180
 51
56.63298703076922
  0
ARC
  8
1
 62
7
 10
-155.721129122849
 20
287.286971830986
 30
0
 40
2.500000000000064
 50
56.63298703076922
 51
180
  0
ARC
  8
1
 62
1
 10
-128.721129122849
 20
287.286971830986
 30
0
 40
1.800000000000024
 50
170.4336027038569
 51
0
  0
ARC
  8
1
 62
1
 10
-128.721129122849
 20
287.286971830986
 30
0
 40
1.799999999999997
 50
0
 51
101.4402545333929
  0
ARC
  8
1
 62
1
 10
-128.721129122849
 20
277.286971830986
 30
0
 40
2.499999999999986
 50
0
 51
53.13010235415624
  0
ARC
  8
1
 62
7
 10
-136.721129122849
 20
275.286971830986
 30
0
 40
1.5
 50
0
 51
90
  0
ARC
  8
1
 62
7
 10
-147.721129122849
 20
275.286971830986
 30
0
 40
1.5
 50
0
 51
90
  0
ARC
  8
1
 62
7
 10
-136.721129122849
 20
275.286971830986
 30
0
 40
1.5
 50
90
 51
180
  0
ARC
  8
1
 62
7
 10
-147.721129122849
 20
275.286971830986
 30
0
 40
1.5
 50
90
 51
180
  0
ARC
  8
1
 62
7
 10
-73.8454767063922
 20
389.7360495157015
 30
0
 40
4.049077684716772
 50
235.386993090177
 51
260.762317000801
  0
ARC
  8
1
 62
7
 10
-73.8454767063922
 20
389.7360495157015
 30
0
 40
4.049077684716856
 50
279.237682999199
 51
304.6130069096727
  0
ARC
  8
1
 62
7
 10
-77.2454767064022
 20
386.8874795683293
 30
0
 40
1.201712068546076
 50
203.7429967692444
 51
272.5653502305743
  0
ARC
  8
1
 62
7
 10
-70.44547670639108
 20
386.8874795683293
 30
0
 40
1.201712068546076
 50
203.7429967692444
 51
272.5653502305743
  0
ARC
  8
1
 62
7
 10
-77.2454767064022
 20
386.8874795683293
 30
0
 40
1.201712068546011
 50
272.5653502305743
 51
336.2570032318066
  0
ARC
  8
1
 62
7
 10
-70.44547670639108
 20
386.8874795683293
 30
0
 40
1.201712068546011
 50
272.5653502305743
 51
336.2570032318066
  0
ARC
  8
1
 62
7
 10
-73.8454767063922
 20
389.7360495157015
 30
0
 40
4.049077684732163
 50
304.6130069096727
 51
304.613006909861
  0
ARC
  8
1
 62
1
 10
-155.721129122849
 20
277.286971830986
 30
0
 40
2.499999999999966
 50
165.8698447643289
 51
0
  0
ARC
  8
1
 62
1
 10
-155.721129122849
 20
277.286971830986
 30
0
 40
2.5
 50
0
 51
106.0940682565658
  0
ARC
  8
1
 62
1
 10
-128.721129122849
 20
277.286971830986
 30
0
 40
2.499999999999966
 50
165.8698447643289
 51
0
  0
ARC
  8
1
 62
1
 10
-128.721129122849
 20
277.286971830986
 30
0
 40
2.499999999999992
 50
53.13010235415624
 51
106.0940682565658
  0
ARC
  8
1
 62
7
 10
-128.721129122849
 20
287.286971830986
 30
0
 40
2.500000000000064
 50
123.3670129692308
 51
0
  0
ARC
  8
1
 62
7
 10
-128.721129122849
 20
287.286971830986
 30
0
 40
2.499999999999986
 50
0
 51
123.3670129692308
  0
ARC
  8
1
 62
7
 10
-128.721129122849
 20
277.286971830986
 30
0
 40
6.5
 50
180
 51
0
  0
ARC
  8
1
 62
7
 10
-155.721129122849
 20
277.286971830986
 30
0
 40
6.5
 50
180
 51
0
  0
ARC
  8
1
 62
7
 10
77
 20
20
 30
0
 40
20
 50
270
 51
0
  0
ARC
  8
1
 62
7
 10
77
 20
140
 30
0
 40
19.99999999999999
 50
0
 51
90
  0
ARC
  8
1
 62
7
 10
56.99999999999999
 20
31.99999999999999
 30
0
 40
11.1125
 50
297.3914626952543
 51
242.6085373047457
  0
ARC
  8
1
 62
7
 10
56.99999999999999
 20
12.94999999999999
 30
0
 40
5.11249999999999
 50
180
 51
0
  0
ARC
  8
1
 62
7
 10
56.99999999999999
 20
87.99999999999999
 30
0
 40
3.749999999999972
 50
270
 51
318.3024533968376
  0
ARC
  8
1
 62
7
 10
56.99999999999999
 20
87.99999999999999
 30
0
 40
3.750000000000014
 50
90
 51
138.302453396837
  0
ARC
  8
1
 62
7
 10
56.99999999999999
 20
110
 30
0
 40
7.499999999999981
 50
221.9999999999997
 51
245.9999999999999
  0
ARC
  8
1
 62
7
 10
56.99999999999999
 20
110
 30
0
 40
10.20000000000003
 50
222.0000000000001
 51
294
  0
ARC
  8
1
 62
7
 10
56.99999999999999
 20
110
 30
0
 40
7.499999999999989
 50
294
 51
221.9999999999997
  0
ARC
  8
1
 62
7
  6
PHANTOM
 10
37.00000000000001
 20
25
 30
0
 40
4.999999999999987
 50
325.944202257432
 51
34.05579774256802
  0
ARC
  8
1
 62
7
 10
37.00000000000001
 20
25
 30
0
 40
4.999999999999998
 50
145.9442022574321
 51
214.0557977425679
  0
ARC
  8
1
 62
7
 10
77
 20
25
 30
0
 40
4.999999999999987
 50
325.944202257432
 51
34.05579774256802
  0
ARC
  8
1
 62
7
 10
77
 20
25
 30
0
 40
4.999999999999987
 50
145.944202257432
 51
214.055797742568
  0
ARC
  8
1
 62
7
 10
37.00000000000001
 20
110
 30
0
 40
4.999999999999985
 50
325.944202257432
 51
34.05579774256798
  0
ARC
  8
1
 62
7
 10
37.00000000000001
 20
110
 30
0
 40
4.999999999999996
 50
145.9442022574321
 51
214.0557977425679
  0
ARC
  8
1
 62
7
 10
77
 20
110
 30
0
 40
4.999999999999986
 50
0
 51
34.05579774256798
  0
ARC
  8
1
 62
7
 10
77
 20
110
 30
0
 40
4.999999999999986
 50
180
 51
214.055797742568
  0
ARC
  8
1
 62
7
 10
4.749999999999999
 20
398.8142105483753
 30
0
 40
2.000000000000016
 50
119.9999999999997
 51
180
  0
ARC
  8
1
 62
7
 10
12
 20
402.9999999999998
 30
0
 40
2
 50
90
 51
119.9999999999989
  0
ARC
  8
1
 62
3
  6
PHANTOM
 10
4.749999999999999
 20
386.8142105483753
 30
0
 40
2.000000000000016
 50
119.9999999999997
 51
180
  0
ARC
  8
1
 62
3
  6
PHANTOM
 10
12
 20
390.9999999999999
 30
0
 40
2
 50
90
 51
119.9999999999965
  0
ARC
  8
1
 62
7
 10
155
 20
-27
 30
0
 40
8
 50
270
 51
0
  0
ARC
  8
1
 62
7
 10
155
 20
-27
 30
0
 40
8
 50
180
 51
270
  0
ARC
  8
1
 62
3
  6
PHANTOM
 10
12
 20
390.9999999999999
 30
0
 40
2
 50
0
 51
90
  0
ARC
  8
1
 62
7
 10
12
 20
402.9999999999998
 30
0
 40
2
 50
0
 51
90
  0
ARC
  8
1
 62
7
 10
77
 20
110
 30
0
 40
4.999999999999985
 50
145.944202257432
 51
180
  0
ARC
  8
1
 62
7
 10
77
 20
110
 30
0
 40
4.999999999999985
 50
325.944202257432
 51
0
  0
ARC
  8
1
 62
7
 10
56.99999999999999
 20
87.99999999999999
 30
0
 40
3.749999999999978
 50
221.6975466031625
 51
270
  0
ARC
  8
1
 62
7
 10
56.99999999999999
 20
87.99999999999999
 30
0
 40
3.750000000000018
 50
41.69754660316287
 51
90
  0
CIRCLE
  8
1
 62
7
 10
-128.721129122849
 20
277.286971830986
 30
0
 40
1.799999999999997
  0
CIRCLE
  8
1
 62
7
 10
-155.721129122849
 20
277.286971830986
 30
0
 40
1.799999999999983
  0
CIRCLE
  8
1
 62
7
 10
-154.221129122849
 20
343.286971830986
 30
0
 40
4
  0
CIRCLE
  8
1
 62
7
 10
-130.221129122849
 20
343.286971830986
 30
0
 40
3.999999999999986
  0
CIRCLE
  8
1
 62
7
 10
-130.221129122849
 20
375.286971830986
 30
0
 40
3.999999999999986
  0
CIRCLE
  8
1
 62
7
 10
-154.221129122849
 20
375.286971830986
 30
0
 40
4
  0
CIRCLE
  8
1
 62
7
 10
-154.221129122849
 20
375.286971830986
 30
0
 40
2.5
  0
CIRCLE
  8
1
 62
7
 10
-130.221129122849
 20
375.286971830986
 30
0
 40
2.499999999999986
  0
CIRCLE
  8
1
 62
7
 10
-154.221129122849
 20
343.286971830986
 30
0
 40
2.5
  0
CIRCLE
  8
1
 62
7
 10
-130.221129122849
 20
343.286971830986
 30
0
 40
2.499999999999986
  0
CIRCLE
  8
1
 62
3
  6
DASHED
 10
27
 20
-93
 30
0
 40
4.100000000000001
  0
CIRCLE
  8
1
 62
7
 10
27
 20
-93
 30
0
 40
2.500000000000011
  0
CIRCLE
  8
1
 62
3
  6
DASHED
 10
48.99999999999999
 20
-96.99999999999999
 30
0
 40
4.099999999999994
  0
CIRCLE
  8
1
 62
7
 10
48.99999999999999
 20
-96.99999999999999
 30
0
 40
2.5
  0
CIRCLE
  8
1
 62
7
 10
155
 20
272.0000000000001
 30
0
 40
4.150000000000006
  0
CIRCLE
  8
1
 62
7
 10
155
 20
272.0000000000001
 30
0
 40
2.400000000000006
  0
CIRCLE
  8
1
 62
7
 10
155
 20
-27
 30
0
 40
4.150000000000006
  0
CIRCLE
  8
1
 62
7
 10
155
 20
-27
 30
0
 40
2.400000000000006
  0
CIRCLE
  8
1
 62
7
 10
155
 20
13
 30
0
 40
4.75
  0
CIRCLE
  8
1
 62
7
 10
155
 20
13
 30
0
 40
3.25
  0
CIRCLE
  8
1
 62
7
 10
155
 20
287.9999999999999
 30
0
 40
4.099999999999994
  0
CIRCLE
  8
1
 62
7
 10
155
 20
287.9999999999999
 30
0
 40
2.25
  0
CIRCLE
  8
1
 62
7
 10
155
 20
327.9999999999999
 30
0
 40
4.099999999999994
  0
CIRCLE
  8
1
 62
7
 10
155
 20
327.9999999999999
 30
0
 40
2.25
  0
ARC
  8
1
 62
7
 10
-136.221129122849
 20
296.286971830986
 30
0
 40
1
 50
0
 51
90
  0
ARC
  8
1
 62
7
 10
-148.221129122849
 20
296.286971830986
 30
0
 40
1
 50
90
 51
180
  0
ARC
  8
1
 62
7
 10
-154.221129122849
 20
343.286971830986
 30
0
 40
8
 50
180
 51
270
  0
ARC
  8
1
 62
7
 10
-130.221129122849
 20
343.286971830986
 30
0
 40
8
 50
270
 51
0
  0
ARC
  8
1
 62
7
 10
-86.8454767063922
 20
390.286971830986
 30
0
 40
5
 50
90
 51
180
  0
ARC
  8
1
 62
7
 10
-86.8454767063922
 20
390.286971830986
 30
0
 40
2
 50
90
 51
180
  0
TEXT
  8
1
 62
7
 10
10.61454848285069
 20
-133.5539800556397
 30
0
 40
6
  1
1630.BB_RZ_PZ_WC.DM_60.X80
 41
0.8304702249851283
  0
TEXT
  8
1
 62
7
 10
-86.51605430128031
 20
410.011903404231
 30
0
 40
3.5
  1
max. 50
 41
0.9
  0
TEXT
  8
1
 62
7
 10
-85.51605430128031
 20
416.011903404231
 30
0
 40
3.5
  1
min.
 41
0.9
  0
TEXT
  8
1
 62
7
 10
-102.2312069738054
 20
273.1238429292753
 30
0
 40
3.5
  1
max. 30
 50
90
 41
0.9
  0
TEXT
  8
1
 62
7
 10
-110.2312069738054
 20
273.1238429292753
 30
0
 40
3.5
  1
min.
 50
90
 41
0.9
  0
DIMENSION
  8
1
  6
CONTINUOUS
 62
1
  2
*D0
  3
DMST_1
 10
-57.3454767063922
 20
414.671051962818
 30
0
 11
-69.8133856006948
 21
418.421051962818
 31
0
 12
0
 22
0
 32
0
 70
0
 13
-91.8454767063922
 23
390.286971830986
 33
0
 14
-57.3454767063922
 24
395.286971830986
 34
0
 53
0
  0
DIMENSION
  8
1
  6
CONTINUOUS
 62
1
  2
*D1
  3
DMST_1
 10
-103.588272650949
 20
395.286971830986
 30
0
 11
-107.088272650949
 21
365.286971830986
 31
0
 12
0
 22
0
 32
0
 70
0
 13
-91.8454767063922
 23
335.286971830986
 33
0
 14
-86.8454767063922
 24
395.286971830986
 34
0
 50
90
 53
0
  0
DIMENSION
  8
1
  6
CONTINUOUS
 62
1
  2
*D2
  3
DMST_1
 10
-130.221129122849
 20
324.395159543812
 30
0
 11
-126.221129122849
 21
327.895159543812
 31
0
 12
0
 22
0
 32
0
 70
0
 13
-122.221129122849
 23
343.286971830986
 33
0
 14
-130.221129122849
 24
338.886971830986
 34
0
 53
0
  0
DIMENSION
  8
1
  6
CONTINUOUS
 62
1
  2
*D3
  3
DMST_1
 10
-130.221129122849
 20
324.395159543812
 30
0
 11
-142.221129122849
 21
327.895159543812
 31
0
 12
0
 22
0
 32
0
 70
0
 13
-154.221129122849
 23
338.886971830986
 33
0
 14
-130.221129122849
 24
338.886971830986
 34
0
 53
0
  0
DIMENSION
  8
1
  6
CONTINUOUS
 62
1
  2
*D4
  3
DMST_1
 10
-154.221129122849
 20
324.395159543812
 30
0
 11
-158.221129122849
 21
327.895159543812
 31
0
 12
0
 22
0
 32
0
 70
0
 13
-162.221129122849
 23
343.286971830986
 33
0
 14
-154.221129122849
 24
338.886971830986
 34
0
 53
0
  0
DIMENSION
  8
1
  6
CONTINUOUS
 62
1
  2
*D5
  3
DMST_1
 10
-175.279639537156
 20
375.286971830986
 30
0
 11
-178.779639537156
 21
359.286971830986
 31
0
 12
0
 22
0
 32
0
 70
0
 13
-158.621129122849
 23
343.286971830986
 33
0
 14
-158.621129122849
 24
375.286971830986
 34
0
 50
90
 53
0
  0
DIMENSION
  8
1
  6
CONTINUOUS
 62
1
  2
*D6
  3
DMST_1
 10
-175.279639537156
 20
395.286971830986
 30
0
 11
-178.779639537156
 21
385.286971830986
 31
0
 12
0
 22
0
 32
0
 70
0
 13
-158.621129122849
 23
375.286971830986
 33
0
 14
-162.221129122849
 24
395.286971830986
 34
0
 50
90
 53
0
  0
DIMENSION
  8
1
  6
CONTINUOUS
 62
1
  2
*D7
  3
DMST_1
 10
-135.221129122849
 20
255.697914233463
 30
0
 11
-142.221129122849
 21
259.197914233463
 31
0
 12
0
 22
0
 32
0
 70
0
 13
-149.221129122849
 23
277.286971830986
 33
0
 14
-135.221129122849
 24
277.286971830986
 34
0
 53
0
  0
DIMENSION
  8
1
  6
CONTINUOUS
 62
1
  2
*D8
  3
DMST_1
 10
-108.810553156965
 20
297.286971830986
 30
0
 11
-112.310553156965
 21
290.036971830986
 31
0
 12
0
 22
0
 32
0
 70
0
  1
12
 13
-135.221129122849
 23
282.786971830986
 33
0
 14
-136.221129122849
 24
297.286971830986
 34
0
 50
90
 53
0
  0
DIMENSION
  8
1
  6
CONTINUOUS
 62
1
  2
*D9
  3
DMST_1
 10
-108.815304539756
 20
305.286971830986
 30
0
 11
-112.315304539756
 21
301.286971830986
 31
0
 12
0
 22
0
 32
0
 70
0
 13
-136.221129122849
 23
297.286971830986
 33
0
 14
-122.221129122849
 24
305.286971830986
 34
0
 50
90
 53
0
  0
DIMENSION
  8
1
  6
CONTINUOUS
 62
1
  2
*D10
  3
DMST_2
 10
60.99999999999999
 20
131.304714524332
 30
0
 11
56.99999999999999
 21
134.144714524332
 31
0
 12
0
 22
0
 32
0
 70
0
  1
8 oder/au 8,5
 13
52.99999999999998
 23
114
 33
0
 14
60.99999999999999
 24
114
 34
0
 53
0
  0
DIMENSION
  8
1
  6
CONTINUOUS
 62
1
  2
*D11
  3
DMST_2
 10
129.59
 20
160
 30
0
 11
127
 21
80
 31
0
 12
0
 22
0
 32
0
 70
0
 13
77
 23
0
 33
0
 14
77
 24
160
 34
0
 50
90
 53
0
  0
DIMENSION
  8
1
  6
CONTINUOUS
 62
1
  2
*D12
  3
DMST_2
 10
15.6
 20
148.650990739839
 30
0
 11
26.5225391379447
 21
151.240990739839
 31
0
 12
0
 22
0
 32
0
 70
0
 13
-2.999999999999999
 23
279.9999999999998
 33
0
 14
15.6
 24
160
 34
0
 53
0
  0
DIMENSION
  8
1
  6
CONTINUOUS
 62
1
  2
*D13
  3
DMST_2
 10
31.59
 20
218
 30
0
 11
29
 21
189
 31
0
 12
0
 22
0
 32
0
 70
0
 13
0
 23
160
 33
0
 14
16
 24
218
 34
0
 50
90
 53
0
  0
DIMENSION
  8
1
  6
CONTINUOUS
 62
1
  2
*D14
  3
DMST_2
 10
159.5
 20
417.41
 30
0
 11
155
 21
420
 31
0
 12
0
 22
0
 32
0
 70
0
 13
150.5
 23
405
 33
0
 14
159.5
 24
405
 34
0
 53
0
  0
DIMENSION
  8
1
  6
CONTINUOUS
 62
1
  2
*D15
  3
DMST_2
 10
14
 20
417.41
 30
0
 11
8.375
 21
420
 31
0
 12
0
 22
0
 32
0
 70
0
 13
2.75
 23
398.8142105483753
 33
0
 14
14
 24
402.9999999999998
 34
0
 53
0
  0
DIMENSION
  8
1
  6
CONTINUOUS
 62
1
  2
*D16
  3
DMST_2
 10
195.59
 20
279.9999999999998
 30
0
 11
193
 21
122.4999999999999
 31
0
 12
0
 22
0
 32
0
 70
0
 13
155
 23
-35
 33
0
 14
163
 24
279.9999999999998
 34
0
 50
90
 53
0
  0
DIMENSION
  8
1
  6
CONTINUOUS
 62
1
  2
*D17
  3
DMST_2
 10
195.59
 20
373
 30
0
 11
193
 21
326.4999999999999
 31
0
 12
0
 22
0
 32
0
 70
0
  1
max. 1188
 13
163
 23
279.9999999999998
 33
0
 14
165
 24
373
 34
0
 50
90
 53
0
  0
DIMENSION
  8
1
  6
CONTINUOUS
 62
1
  2
*D18
  3
DMST_2
 10
180.59
 20
-27
 30
0
 11
178
 21
-31
 31
0
 12
0
 22
0
 32
0
 70
0
 13
155
 23
-35
 33
0
 14
161.64
 24
-27
 34
0
 50
90
 53
0
  0
DIMENSION
  8
1
  6
CONTINUOUS
 62
1
  2
*D19
  3
DMST_2
 10
180.59
 20
272.0000000000001
 30
0
 11
178
 21
275.9999999999999
 31
0
 12
0
 22
0
 32
0
 70
0
 13
163
 23
279.9999999999998
 33
0
 14
161.64
 24
272.0000000000001
 34
0
 50
90
 53
0
  0
DIMENSION
  8
1
  6
CONTINUOUS
 62
1
  2
*D20
  3
DMST_2
 10
180.59
 20
272.0000000000001
 30
0
 11
178
 21
122.5000000000001
 31
0
 12
0
 22
0
 32
0
 70
0
 13
161.64
 23
-27
 33
0
 14
161.64
 24
272.0000000000001
 34
0
 50
90
 53
0
  0
DIMENSION
  8
1
  6
CONTINUOUS
 62
1
  2
*D21
  3
DMST_2
 10
114.59
 20
0
 30
0
 11
112
 21
15.99999999999999
 31
0
 12
0
 22
0
 32
0
 70
0
 13
68.95204191523088
 23
31.99999999999999
 33
0
 14
77
 24
0
 34
0
 50
90
 53
0
  0
DIMENSION
  8
1
  6
CONTINUOUS
 62
1
  2
*D22
  3
DMST_2
 10
114.59
 20
160
 30
0
 11
112
 21
135
 31
0
 12
0
 22
0
 32
0
 70
0
 13
86.55183585313169
 23
110
 33
0
 14
77
 24
160
 34
0
 50
90
 53
0
  0
DIMENSION
  8
1
  6
CONTINUOUS
 62
1
  2
*D23
  3
DMST_2
 10
114.59
 20
110
 30
0
 11
112
 21
71
 31
0
 12
0
 22
0
 32
0
 70
0
 13
68.95204191523088
 23
31.99999999999999
 33
0
 14
86.55183585313169
 24
110
 34
0
 50
90
 53
0
  0
DIMENSION
  8
1
  6
CONTINUOUS
 62
1
  2
*D24
  3
DMST_3
 10
56.99999999999999
 20
-74.5
 30
0
 11
27
 21
-70
 31
0
 12
0
 22
0
 32
0
 70
0
 13
-2.999999999999999
 23
-85
 33
0
 14
56.99999999999999
 24
-85
 34
0
 53
0
  0
DIMENSION
  8
1
  6
CONTINUOUS
 62
1
  2
*D25
  3
DMST_3
 10
114.766362824219
 20
-87.50000000000001
 30
0
 11
110.266362824219
 21
-95
 31
0
 12
0
 22
0
 32
0
 70
0
 13
96.99999999999999
 23
-102.5
 33
0
 14
96.99999999999999
 24
-87.50000000000001
 34
0
 50
90
 53
0
  0
DIMENSION
  8
1
  6
CONTINUOUS
 62
1
  2
*D26
  3
DMST_3
 10
114.75
 20
-85
 30
0
 11
110
 21
-75
 31
0
 12
0
 22
0
 32
0
 70
0
 13
96.99999999999999
 23
-87.50000000000001
 33
0
 14
56.99999999999999
 24
-85
 34
0
 50
90
 53
0
  0
DIMENSION
  8
1
  6
CONTINUOUS
 62
1
  2
*D27
  3
DMST_3
 10
-20.5
 20
-85
 30
0
 11
-25
 21
-95
 31
0
 12
0
 22
0
 32
0
 70
0
 13
-2.999999999999999
 23
-105
 33
0
 14
-2.999999999999999
 24
-85
 34
0
 50
90
 53
0
  0
DIMENSION
  8
1
  6
CONTINUOUS
 62
1
  2
*D28
  3
DMST_3
 10
0
 20
-54.5
 30
0
 11
10
 21
-50
 31
0
 12
0
 22
0
 32
0
 70
0
 13
-2.999999999999999
 23
-35
 33
0
 14
0
 24
-35
 34
0
 53
0
  0
DIMENSION
  8
1
  6
CONTINUOUS
 62
1
  2
*D29
  3
DMST_3
 10
163
 20
-54.5
 30
0
 11
155
 21
-50
 31
0
 12
0
 22
0
 32
0
 70
0
 13
147
 23
-27
 33
0
 14
163
 24
-27
 34
0
 53
0
  0
DIMENSION
  8
1
  6
CONTINUOUS
 62
1
  2
*D30
  3
DMST_3
 10
56.99999999999999
 20
-14.5
 30
0
 11
27
 21
-10
 31
0
 12
0
 22
0
 32
0
 70
0
 13
-2.999999999999999
 23
-35
 33
0
 14
56.99999999999999
 24
6.541179009833389
 34
0
 53
0
  0
DIMENSION
  8
1
  6
CONTINUOUS
 62
1
  2
*D31
  3
DMST_3
 10
96.99999999999999
 20
-29.5
 30
0
 11
46.99999999999999
 21
-25
 31
0
 12
0
 22
0
 32
0
 70
0
 13
-2.999999999999999
 23
-35
 33
0
 14
96.99999999999999
 24
20
 34
0
 53
0
  0
DIMENSION
  8
1
  6
CONTINUOUS
 62
1
  2
*D32
  3
DMST_3
 10
-20.5
 20
0
 30
0
 11
-25
 21
-17.5
 31
0
 12
0
 22
0
 32
0
 70
0
 13
-2.999999999999999
 23
-35
 33
0
 14
0
 24
0
 34
0
 50
90
 53
0
  0
DIMENSION
  8
1
  6
CONTINUOUS
 62
1
  2
*D33
  3
DMST_3
 10
-20.5
 20
160
 30
0
 11
-25
 21
80
 31
0
 12
0
 22
0
 32
0
 70
0
 13
0
 23
0
 33
0
 14
0
 24
160
 34
0
 50
90
 53
0
  0
DIMENSION
  8
1
  6
CONTINUOUS
 62
1
  2
*D34
  3
DMST_3
 10
-20.5
 20
279.9999999999998
 30
0
 11
-25
 21
219.9999999999999
 31
0
 12
0
 22
0
 32
0
 70
0
 13
0
 23
160
 33
0
 14
-2.999999999999999
 24
279.9999999999998
 34
0
 50
90
 53
0
  0
DIMENSION
  8
1
  6
CONTINUOUS
 62
1
  2
*D35
  3
DMST_3
 10
34.5
 20
392.9999999999999
 30
0
 11
30
 21
398.9999999999998
 31
0
 12
0
 22
0
 32
0
 70
0
 13
12
 23
404.9999999999998
 33
0
 14
12
 24
392.9999999999999
 34
0
 50
90
 53
0
  0
DIMENSION
  8
1
  6
CONTINUOUS
 62
1
  2
*D36
  3
DMST_3
 10
74.5
 20
375.9999999999999
 30
0
 11
70
 21
390.4999999999998
 31
0
 12
0
 22
0
 32
0
 70
0
 13
12
 23
404.9999999999998
 33
0
 14
56.99999999999999
 24
375.9999999999999
 34
0
 50
90
 53
0
  0
DIMENSION
  8
1
  6
CONTINUOUS
 62
1
  2
*D37
  3
DMST_3
 10
74.5
 20
373
 30
0
 11
70
 21
365
 31
0
 12
0
 22
0
 32
0
 70
0
 13
56.99999999999999
 23
375.9999999999999
 33
0
 14
56.99999999999999
 24
373
 34
0
 50
90
 53
0
  0
DIMENSION
  8
1
  6
CONTINUOUS
 62
1
  2
*D38
  3
DMST_3
 10
89.5
 20
404.9999999999998
 30
0
 11
85
 21
388.9999999999999
 31
0
 12
0
 22
0
 32
0
 70
0
 13
56.99999999999999
 23
373
 33
0
 14
12
 24
404.9999999999998
 34
0
 50
90
 53
0
  0
DIMENSION
  8
1
  6
CONTINUOUS
 62
1
  2
*D39
  3
DMST_4
 10
-156.205202866805
 20
339.8137238728718
 30
0
 11
-149.656319107872
 21
358.334152992797
 31
0
 12
0
 22
0
 32
0
 70
3
 15
-152.237055378893
 25
346.7602197891002
 35
0
 40
0
 53
0
  0
INSERT
  8
0
  2
1607_BB_RZ_PZ_WC_DM_50_60_300
 10
-301.889142628816
 20
18.2452600216685
 30
0
  0
ENDSEC
  0
EOF
