  0
SECTION
  2
HEADER
  9
$ACADVER
  1
AC1009
  9
$INSBASE
 10
0
 20
0
  9
$EXTMIN
 10
-14.2960239288593
 20
-25.70999305672306
  9
$EXTMAX
 10
217.799937197225
 20
214.493734451229
  9
$LIMMIN
 10
-14.2960239288593
 20
-25.70999305672306
  9
$LIMMAX
 10
217.799937197225
 20
214.493734451229
  9
$VIEWCTR
 10
10
 20
10
  9
$VIEWSIZE
 40
10
  9
$SNAPMODE
 70
0
  9
$SNAPUNIT
 10
1
 20
1
  9
$SNAPBASE
 10
0
 20
0
  9
$SNAPANG
 50
0
  9
$SNAPSTYLE
 70
0
  9
$SNAPISOPAIR
 70
0
  9
$GRIDMODE
 70
0
  9
$GRIDUNIT
 10
0
 20
0
  9
$ORTHOMODE
 70
0
  9
$REGENMODE
 70
1
  9
$FILLMODE
 70
1
  9
$QTEXTMODE
 70
0
  9
$DRAGMODE
 70
2
  9
$LTSCALE
 40
1
  9
$OSMODE
 70
0
  9
$ATTMODE
 70
1
  9
$TEXTSIZE
 40
3.5
  9
$TRACEWID
 40
0.5
  9
$TEXTSTYLE
  7
STANDARD
  9
$CLAYER
  8
0
  9
$CELTYPE
  6
BYLAYER
  9
$CECOLOR
 62
256
  9
$DIMSCALE
 40
1
  9
$DIMASZ
 40
0.18
  9
$DIMEXO
 40
0.0625
  9
$DIMDLI
 40
0.38
  9
$DIMRND
 40
0
  9
$DIMDLE
 40
0
  9
$DIMEXE
 40
0.18
  9
$DIMTP
 40
0
  9
$DIMTM
 40
0
  9
$DIMTXT
 40
0.18
  9
$DIMCEN
 40
0.09
  9
$DIMTSZ
 40
0
  9
$DIMTOL
 70
0
  9
$DIMLIM
 70
0
  9
$DIMTIH
 70
1
  9
$DIMTOH
 70
1
  9
$DIMSE1
 70
0
  9
$DIMSE2
 70
0
  9
$DIMTAD
 70
0
  9
$DIMZIN
 70
0
  9
$DIMBLK
  1

  9
$DIMASO
 70
1
  9
$DIMSHO
 70
1
  9
$DIMPOST
  1

  9
$DIMAPOST
  1

  9
$DIMALT
 70
0
  9
$DIMALTD
 70
2
  9
$DIMALTF
 40
25.4
  9
$DIMLFAC
 40
1
  9
$DIMTOFL
 70
0
  9
$DIMTVP
 40
0
  9
$DIMTIX
 70
0
  9
$DIMSOXD
 70
0
  9
$DIMSAH
 70
0
  9
$DIMBLK1
  1

  9
$DIMBLK2
  1

  9
$DIMSTYLE
  2
*UNNAMED
  9
$DIMCLRD
 70
0
  9
$DIMCLRE
 70
0
  9
$DIMCLRT
 70
0
  9
$DIMTFAC
 40
1
  9
$DIMGAP
 40
0.09
  9
$LUNITS
 70
2
  9
$LUPREC
 70
4
  9
$AXISMODE
 70
0
  9
$AXISUNIT
 10
0
 20
0
  9
$SKETCHINC
 40
0.1
  9
$FILLETRAD
 40
2
  9
$AUNITS
 70
0
  9
$AUPREC
 70
0
  9
$MENU
  1
ACAD
  9
$ELEVATION
 40
0
  9
$THICKNESS
 40
0
  9
$VIEWDIR
 10
0
 20
0
 30
1
  9
$LIMCHECK
 70
0
  9
$BLIPMODE
 70
1
  9
$CHAMFERA
 40
0
  9
$CHAMFERB
 40
0
  9
$FASTZOOM
 70
1
  9
$SKPOLY
 70
0
  9
$ANGBASE
 50
0
  9
$ANGDIR
 70
0
  9
$PDMODE
 70
0
  9
$PDSIZE
 40
0
  9
$PLINEWID
 40
0
  9
$COORDS
 70
2
  0
ENDSEC
  0
SECTION
  2
TABLES
  0
TABLE
  2
DIMSTYLE
 70
1
  0
DIMSTYLE
  2
DMST_1
 70
0
  3

  4

  5

  6

  7

 40
1
 41
5
 42
0
 43
7
 44
1.5
 45
0
 46
0
 47
0
 48
0
140
5
141
0
142
0
143
25.4
144
1
145
0
146
1
147
0.09
 71
0
 72
0
 73
0
 74
0
 75
0
 76
0
 77
1
 78
1
170
0
171
2
172
0
173
0
174
0
175
0
176
1
177
1
178
7
  0
ENDTAB
  0
TABLE
  2
LTYPE
 70
9
  0
LTYPE
  2
CONTINUOUS
 70
64
  3
Solid line
 72
65
 73
0
 40
0
  0
LTYPE
  2
BORDER
 70
64
  3
__ __ . __ __ .
 72
65
 73
6
 40
11.06201376681358
 49
3.160575361946737
 49
-1.580287680973369
 49
3.160575361946737
 49
-1.580287680973369
 49
0
 49
-1.580287680973369
  0
LTYPE
  2
CENTER
 70
64
  3
____ _ ____ _
 72
65
 73
4
 40
12.64230144778695
 49
7.901438404866843
 49
-1.580287680973369
 49
1.580287680973369
 49
-1.580287680973369
  0
LTYPE
  2
DASHDOT
 70
64
  3
__ . __ . __ .
 72
65
 73
4
 40
6.321150723893474
 49
3.160575361946737
 49
-1.580287680973369
 49
0
 49
-1.580287680973369
  0
LTYPE
  2
DASHED
 70
64
  3
__ __ __ __ __
 72
65
 73
2
 40
4.740863042920106
 49
3.160575361946737
 49
-1.580287680973369
  0
LTYPE
  2
DIVIDE
 70
64
  3
__ . . __ . . 
 72
65
 73
6
 40
7.901438404866843
 49
3.160575361946737
 49
-1.580287680973369
 49
0
 49
-1.580287680973369
 49
0
 49
-1.580287680973369
  0
LTYPE
  2
DOT
 70
64
  3
..............
 72
65
 73
4
 40
3.160575361946737
 49
0
 49
-1.580287680973369
 49
0
 49
-1.580287680973369
  0
LTYPE
  2
HIDDEN
 70
64
  3
_ _ _ _ _ _ _
 72
65
 73
2
 40
2.370431521460053
 49
1.580287680973369
 49
-0.7901438404866843
  0
LTYPE
  2
PHANTOM
 70
64
  3
_____ _ _ _____ _ _ 
 72
65
 73
6
 40
15.80287680973369
 49
7.901438404866843
 49
-1.580287680973369
 49
1.580287680973369
 49
-1.580287680973369
 49
1.580287680973369
 49
-1.580287680973369
  0
ENDTAB
  0
TABLE
  2
LAYER
 70
3
  0
LAYER
  2
1
 70
0
 62
7
  6
CONTINUOUS
  0
LAYER
  2
0
 70
0
 62
7
  6
CONTINUOUS
  0
ENDTAB
  0
TABLE
  2
STYLE
 70
4
  0
STYLE
  2
STANDARD
 70
0
 40
0
 41
1
 50
0
 71
0
 42
3.5
  3
txt
  4

  0
STYLE
  2
SIMPLEX
 70
0
 40
0
 41
1
 50
0
 71
0
 42
3.5
  3
simplex
  4

  0
STYLE
  2
COMPLEX
 70
0
 40
0
 41
1
 50
0
 71
0
 42
3.5
  3
complex
  4

  0
STYLE
  2
ITALIC
 70
0
 40
0
 41
1
 50
0
 71
0
 42
3.5
  3
italic
  4

  0
ENDTAB
  0
TABLE
  2
VIEW
 70
0
  0
ENDTAB
  0
ENDSEC
  0
SECTION
  2
BLOCKS
  0
BLOCK
  8
0
  2
3-10905
 70
0
 10
289.434702804657
 20
347.582167387852
 30
0
  0
LINE
  8
1
 62
2
  6
DIVIDE
 10
85.675812567714
 20
130.6677369989166
 30
0
 11
85.675812567714
 21
92.44398699891661
 31
0
  0
LINE
  8
1
 62
2
  6
DIVIDE
 10
97.899562567714
 20
118.4439869989166
 30
0
 11
73.45206256771401
 21
118.4439869989166
 31
0
  0
LINE
  8
1
 62
2
  6
PHANTOM
 10
68.97581256771396
 20
102.2439869989166
 30
0
 11
72.175812567714
 21
102.2439869989166
 31
0
  0
LINE
  8
1
 62
2
  6
PHANTOM
 10
72.175812567714
 20
97.74398699891663
 30
0
 11
68.97581256771396
 21
97.74398699891663
 31
0
  0
LINE
  8
1
 62
2
  6
PHANTOM
 10
68.97581256771396
 20
97.74398699891663
 30
0
 11
68.97581256771396
 21
102.2439869989166
 31
0
  0
LINE
  8
1
 62
2
  6
PHANTOM
 10
72.175812567714
 20
102.2439869989166
 30
0
 11
72.175812567714
 21
97.74398699891663
 31
0
  0
LINE
  8
1
 62
2
  6
PHANTOM
 10
95.92777502095579
 20
121.7663029965302
 30
0
 11
102.3764532028552
 21
128.2149811784293
 31
0
  0
LINE
  8
1
 62
2
  6
PHANTOM
 10
76.20058169981424
 20
123.1108917547478
 30
0
 11
71.95794101269469
 21
127.3535324418671
 31
0
  0
LINE
  8
1
 62
2
  6
PHANTOM
 10
74.07926135625424
 20
120.9895714111882
 30
0
 11
76.20058169981424
 21
123.1108917547478
 31
0
  0
LINE
  8
1
 62
2
  6
PHANTOM
 10
69.83662066913509
 20
125.2322120983075
 30
0
 11
74.07926135625424
 21
120.9895714111882
 31
0
  0
LINE
  8
1
 62
2
  6
PHANTOM
 10
71.95794101269469
 20
127.3535324418671
 30
0
 11
69.83662066913509
 21
125.2322120983075
 31
0
  0
LINE
  8
1
 62
2
  6
PHANTOM
 10
75.13992152803424
 20
124.1715519265276
 30
0
 11
73.01860118447446
 21
122.0502315829681
 31
0
  0
LINE
  8
1
 62
2
  6
PHANTOM
 10
68.97517193257279
 20
128.2149811784293
 30
0
 11
75.42385011447216
 21
121.7663029965302
 31
0
  0
LINE
  8
1
 62
2
  6
PHANTOM
 10
101.5150044662929
 20
125.2322120983075
 30
0
 11
99.39368412273261
 21
127.3535324418671
 31
0
  0
LINE
  8
1
 62
2
  6
PHANTOM
 10
97.27236377917329
 20
120.9895714111882
 30
0
 11
101.5150044662929
 21
125.2322120983075
 31
0
  0
LINE
  8
1
 62
2
  6
PHANTOM
 10
95.15104343561309
 20
123.1108917547478
 30
0
 11
97.27236377917329
 21
120.9895714111882
 31
0
  0
LINE
  8
1
 62
2
  6
PHANTOM
 10
99.39368412273261
 20
127.3535324418671
 30
0
 11
95.15104343561309
 21
123.1108917547478
 31
0
  0
LINE
  8
1
 62
2
  6
PHANTOM
 10
98.3330239509536
 20
122.0502315829681
 30
0
 11
96.2117036073938
 21
124.1715519265276
 31
0
  0
LINE
  8
1
 62
2
  6
PHANTOM
 10
79.69489931651869
 20
98.44398699891661
 30
0
 11
91.7872184716626
 21
98.44398699891661
 31
0
  0
LINE
  8
1
 62
2
  6
PHANTOM
 10
90.775812567714
 20
98.44398699891661
 30
0
 11
90.775812567714
 21
111.519393148011
 31
0
  0
LINE
  8
1
 62
2
  6
PHANTOM
 10
80.57581256771398
 20
98.44398699891661
 30
0
 11
80.57581256771398
 21
111.519393148011
 31
0
  0
ARC
  8
1
 62
2
  6
PHANTOM
 10
85.675812567714
 20
118.4439869989166
 30
0
 40
6.999999999999886
 50
0
 51
180
  0
ARC
  8
1
 62
2
  6
PHANTOM
 10
85.675812567714
 20
118.4439869989166
 30
0
 40
7.000000000000114
 50
180
 51
0
  0
ARC
  8
1
 62
2
  6
PHANTOM
 10
85.675812567714
 20
118.4439869989166
 30
0
 40
11.1125
 50
297.3914626952543
 51
242.6085373047455
  0
ARC
  8
1
 62
2
  6
PHANTOM
 10
85.675812567714
 20
99.3939869989166
 30
0
 40
5.112500000000011
 50
180
 51
0
  0
ARC
  8
1
 62
2
  6
PHANTOM
 10
85.675812567714
 20
118.4439869989166
 30
0
 40
8.599999999999971
 50
306.3718424099345
 51
233.6281575900653
  0
ARC
  8
1
 62
2
  6
PHANTOM
 10
85.675812567714
 20
98.44398699891661
 30
0
 40
5.100000000000023
 50
180
 51
0
  0
CIRCLE
  8
1
 62
2
  6
PHANTOM
 10
95.675812567714
 20
103.9439869989166
 30
0
 40
2.599999999999881
  0
CIRCLE
  8
1
 62
2
  6
PHANTOM
 10
75.675812567714
 20
103.9439869989166
 30
0
 40
2.599999999999909
  0
ENDBLK
  8
0
  0
BLOCK
  8
1
  2
*D0
 70
1
 10
0
 20
0
 30
0
  0
LINE
  8
1
 62
1
 10
216.299937197225
 20
76.94398699891661
 30
0
 11
216.299937197225
 21
197.9439869989166
 31
0
  0
LINE
  8
1
 62
1
 10
193.185812567714
 20
76.94398699891661
 30
0
 11
217.799937197225
 21
76.94398699891661
 31
0
  0
LINE
  8
1
 62
1
 10
194.09987899321
 20
197.9439869989166
 30
0
 11
217.799937197225
 21
197.9439869989166
 31
0
  0
SOLID
  8
1
 62
1
 10
216.299937197225
 20
197.9439869989166
 30
0
 11
216.949937197225
 21
192.9439869989166
 31
0
 12
215.649937197225
 22
192.9439869989166
 32
0
 13
215.649937197225
 23
192.9439869989166
 33
0
  0
SOLID
  8
1
 62
1
 10
216.299937197225
 20
76.94398699891661
 30
0
 11
215.649937197225
 21
81.94398699891661
 31
0
 12
216.949937197225
 22
81.94398699891661
 32
0
 13
216.949937197225
 23
81.94398699891661
 33
0
  0
TEXT
  8
1
 62
7
 10
216.209937197225
 20
132.9889869989166
 30
0
 40
5
  1
121
 50
90
 41
0.891
  0
ENDBLK
  8
0
  0
BLOCK
  8
1
  2
*D1
 70
1
 10
0
 20
0
 30
0
  0
LINE
  8
1
 62
1
 10
216.230743591205
 20
86.9439869989166
 30
0
 11
216.230743591205
 21
76.9439869989166
 31
0
  0
LINE
  8
1
 62
1
 10
216.230743591205
 20
64.44398699891659
 30
0
 11
216.230743591205
 21
76.9439869989166
 31
0
  0
LINE
  8
1
 62
1
 10
216.230743591205
 20
64.44398699891659
 30
0
 11
216.230743591205
 21
50.9793358039863
 31
0
  0
LINE
  8
1
 62
1
 10
188.675812567714
 20
64.44398699891659
 30
0
 11
217.730743591205
 21
64.44398699891659
 31
0
  0
LINE
  8
1
 62
1
 10
193.185812567714
 20
76.9439869989166
 30
0
 11
217.730743591205
 21
76.9439869989166
 31
0
  0
SOLID
  8
1
 62
1
 10
216.230743591205
 20
64.44398699891659
 30
0
 11
216.880743591205
 21
59.44398699891659
 31
0
 12
215.580743591205
 22
59.44398699891659
 32
0
 13
215.580743591205
 23
59.44398699891659
 33
0
  0
SOLID
  8
1
 62
1
 10
216.230743591205
 20
76.9439869989166
 30
0
 11
215.580743591205
 21
81.9439869989166
 31
0
 12
216.880743591205
 22
81.9439869989166
 32
0
 13
216.880743591205
 23
81.9439869989166
 33
0
  0
TEXT
  8
1
 62
7
 10
214.42013967577
 20
50.9793358039863
 30
0
 40
5
  1
12,5
 50
90
 41
0.891
  0
ENDBLK
  8
0
  0
BLOCK
  8
1
  2
*D2
 70
1
 10
0
 20
0
 30
0
  0
LINE
  8
1
 62
1
 10
25.675812567714
 20
47.2371481983828
 30
0
 11
35.675812567714
 21
47.2371481983828
 31
0
  0
LINE
  8
1
 62
1
 10
35.675812567714
 20
47.2371481983828
 30
0
 11
38.675812567714
 21
47.2371481983828
 31
0
  0
LINE
  8
1
 62
1
 10
38.675812567714
 20
47.2371481983828
 30
0
 11
49.3163757703519
 21
47.2371481983828
 31
0
  0
LINE
  8
1
 62
1
 10
35.675812567714
 20
64.44398699891659
 30
0
 11
35.675812567714
 21
45.7371481983828
 31
0
  0
LINE
  8
1
 62
1
 10
38.675812567714
 20
64.4439869989166
 30
0
 11
38.675812567714
 21
45.7371481983828
 31
0
  0
SOLID
  8
1
 62
1
 10
38.675812567714
 20
47.2371481983828
 30
0
 11
43.675812567714
 21
47.8871481983828
 31
0
 12
43.675812567714
 22
46.5871481983828
 32
0
 13
43.675812567714
 23
46.5871481983828
 33
0
  0
SOLID
  8
1
 62
1
 10
35.675812567714
 20
47.2371481983828
 30
0
 11
30.675812567714
 21
46.5871481983828
 31
0
 12
30.675812567714
 22
47.8871481983828
 32
0
 13
30.675812567714
 23
47.8871481983828
 33
0
  0
TEXT
  8
1
 62
7
 10
46.3463757703519
 20
49.5393237564717
 30
0
 40
5
  1
3
 41
0.891
  0
ENDBLK
  8
0
  0
BLOCK
  8
1
  2
*D3
 70
1
 10
0
 20
0
 30
0
  0
LINE
  8
1
 62
1
 10
45.675812567714
 20
170.222099805266
 30
0
 11
35.675812567714
 21
170.222099805266
 31
0
  0
LINE
  8
1
 62
1
 10
31.675812567714
 20
170.222099805266
 30
0
 11
35.675812567714
 21
170.222099805266
 31
0
  0
LINE
  8
1
 62
1
 10
31.675812567714
 20
170.222099805266
 30
0
 11
21.675812567714
 21
170.222099805266
 31
0
  0
LINE
  8
1
 62
1
 10
31.675812567714
 20
145.4439869989166
 30
0
 11
31.675812567714
 21
171.722099805266
 31
0
  0
LINE
  8
1
 62
1
 10
35.675812567714
 20
160.4439869989166
 30
0
 11
35.675812567714
 21
171.722099805266
 31
0
  0
SOLID
  8
1
 62
1
 10
35.675812567714
 20
170.222099805266
 30
0
 11
40.675812567714
 21
170.872099805266
 31
0
 12
40.675812567714
 22
169.572099805266
 32
0
 13
40.675812567714
 23
169.572099805266
 33
0
  0
SOLID
  8
1
 62
1
 10
31.675812567714
 20
170.222099805266
 30
0
 11
26.675812567714
 21
169.572099805266
 31
0
 12
26.675812567714
 22
170.872099805266
 32
0
 13
26.675812567714
 23
170.872099805266
 33
0
  0
TEXT
  8
1
 62
7
 10
23.7846569652449
 20
171.748633950801
 30
0
 40
5
  1
4
 41
0.891
  0
ENDBLK
  8
0
  0
BLOCK
  8
1
  2
*D4
 70
1
 10
0
 20
0
 30
0
  0
LINE
  8
1
 62
1
 10
-7.772695310017781
 20
92.4439869989166
 30
0
 11
-7.772695310017781
 21
127.4439869989166
 31
0
  0
LINE
  8
1
 62
1
 10
38.675812567714
 20
92.4439869989166
 30
0
 11
-9.272695310017781
 21
92.4439869989166
 31
0
  0
LINE
  8
1
 62
1
 10
28.675812567714
 20
127.4439869989166
 30
0
 11
-9.272695310017781
 21
127.4439869989166
 31
0
  0
SOLID
  8
1
 62
1
 10
-7.772695310017781
 20
92.4439869989166
 30
0
 11
-8.422695310017783
 21
97.4439869989166
 31
0
 12
-7.122695310017783
 22
97.4439869989166
 32
0
 13
-7.122695310017783
 23
97.4439869989166
 33
0
  0
SOLID
  8
1
 62
1
 10
-7.772695310017781
 20
127.4439869989166
 30
0
 11
-7.122695310017782
 21
122.4439869989166
 31
0
 12
-8.422695310017781
 22
122.4439869989166
 32
0
 13
-8.422695310017781
 23
122.4439869989166
 33
0
  0
TEXT
  8
1
 62
7
 10
-9.296023928859301
 20
106.648389002998
 30
0
 40
5
  1
35
 50
90
 41
0.88209
  0
ENDBLK
  8
0
  0
BLOCK
  8
1
  2
*D5
 70
1
 10
0
 20
0
 30
0
  0
LINE
  8
1
 62
1
 10
-7.772695310017781
 20
127.4439869989166
 30
0
 11
-7.772695310017781
 21
160.4439869989166
 31
0
  0
LINE
  8
1
 62
1
 10
28.675812567714
 20
127.4439869989166
 30
0
 11
-9.272695310017781
 21
127.4439869989166
 31
0
  0
LINE
  8
1
 62
1
 10
35.675812567714
 20
160.4439869989166
 30
0
 11
-9.272695310017781
 21
160.4439869989166
 31
0
  0
SOLID
  8
1
 62
1
 10
-7.772695310017781
 20
160.4439869989166
 30
0
 11
-7.122695310017782
 21
155.4439869989166
 31
0
 12
-8.422695310017781
 22
155.4439869989166
 32
0
 13
-8.422695310017781
 23
155.4439869989166
 33
0
  0
SOLID
  8
1
 62
1
 10
-7.772695310017781
 20
127.4439869989166
 30
0
 11
-8.422695310017783
 21
132.4439869989166
 31
0
 12
-7.122695310017783
 22
132.4439869989166
 32
0
 13
-7.122695310017783
 23
132.4439869989166
 33
0
  0
TEXT
  8
1
 62
7
 10
-9.296023928859301
 20
140.222375320121
 30
0
 40
5
  1
33
 50
90
 41
0.88209
  0
ENDBLK
  8
0
  0
BLOCK
  8
1
  2
*D6
 70
1
 10
0
 20
0
 30
0
  0
LINE
  8
1
 62
1
 10
-7.772695310017781
 20
160.4439869989166
 30
0
 11
-7.772695310017781
 21
178.4439869989166
 31
0
  0
LINE
  8
1
 62
1
 10
35.675812567714
 20
160.4439869989166
 30
0
 11
-9.272695310017781
 21
160.4439869989166
 31
0
  0
LINE
  8
1
 62
1
 10
38.675812567714
 20
178.4439869989166
 30
0
 11
-9.272695310017781
 21
178.4439869989166
 31
0
  0
SOLID
  8
1
 62
1
 10
-7.772695310017781
 20
160.4439869989166
 30
0
 11
-8.422695310017783
 21
165.4439869989166
 31
0
 12
-7.122695310017783
 22
165.4439869989166
 32
0
 13
-7.122695310017783
 23
165.4439869989166
 33
0
  0
SOLID
  8
1
 62
1
 10
-7.772695310017781
 20
178.4439869989166
 30
0
 11
-7.122695310017782
 21
173.4439869989166
 31
0
 12
-8.422695310017781
 22
173.4439869989166
 32
0
 13
-8.422695310017781
 23
173.4439869989166
 33
0
  0
TEXT
  8
1
 62
7
 10
-8.758840147785399
 20
166.742271811672
 30
0
 40
5
  1
18
 50
90
 41
0.88209
  0
ENDBLK
  8
0
  0
BLOCK
  8
1
  2
*D7
 70
1
 10
0
 20
0
 30
0
  0
LINE
  8
1
 62
1
 10
-7.772695310017781
 20
178.4439869989166
 30
0
 11
-7.772695310017781
 21
210.4439869989166
 31
0
  0
LINE
  8
1
 62
1
 10
38.675812567714
 20
178.4439869989166
 30
0
 11
-9.272695310017781
 21
178.4439869989166
 31
0
  0
LINE
  8
1
 62
1
 10
35.675812567714
 20
210.4439869989166
 30
0
 11
-9.272695310017781
 21
210.4439869989166
 31
0
  0
SOLID
  8
1
 62
1
 10
-7.772695310017781
 20
210.4439869989166
 30
0
 11
-7.122695310017782
 21
205.4439869989166
 31
0
 12
-8.422695310017781
 22
205.4439869989166
 32
0
 13
-8.422695310017781
 23
205.4439869989166
 33
0
  0
SOLID
  8
1
 62
1
 10
-7.772695310017781
 20
178.4439869989166
 30
0
 11
-8.422695310017783
 21
183.4439869989166
 31
0
 12
-7.122695310017783
 22
183.4439869989166
 32
0
 13
-7.122695310017783
 23
183.4439869989166
 33
0
  0
TEXT
  8
1
 62
7
 10
-9.027432038322401
 20
190.717650741075
 30
0
 40
5
  1
32
 50
90
 41
0.88209
  0
ENDBLK
  8
0
  0
BLOCK
  8
1
  2
*D8
 70
1
 10
0
 20
0
 30
0
  0
LINE
  8
1
 62
1
 10
-7.772695310017781
 20
64.44398699891659
 30
0
 11
-7.772695310017781
 21
92.4439869989166
 31
0
  0
LINE
  8
1
 62
1
 10
35.675812567714
 20
64.44398699891659
 30
0
 11
-9.272695310017781
 21
64.44398699891659
 31
0
  0
LINE
  8
1
 62
1
 10
38.675812567714
 20
92.4439869989166
 30
0
 11
-9.272695310017781
 21
92.4439869989166
 31
0
  0
SOLID
  8
1
 62
1
 10
-7.772695310017781
 20
92.4439869989166
 30
0
 11
-7.122695310017782
 21
87.4439869989166
 31
0
 12
-8.422695310017781
 22
87.4439869989166
 32
0
 13
-8.422695310017781
 23
87.4439869989166
 33
0
  0
SOLID
  8
1
 62
1
 10
-7.772695310017781
 20
64.44398699891659
 30
0
 11
-8.422695310017783
 21
69.44398699891659
 31
0
 12
-7.122695310017783
 22
69.44398699891659
 32
0
 13
-7.122695310017783
 23
69.44398699891659
 33
0
  0
TEXT
  8
1
 62
7
 10
-9.296023928859301
 20
75.2231378101705
 30
0
 40
5
  1
28
 50
90
 41
0.88209
  0
ENDBLK
  8
0
  0
BLOCK
  8
1
  2
*D9
 70
1
 10
0
 20
0
 30
0
  0
LINE
  8
1
 62
1
 10
128.265812567714
 20
118.4439869989166
 30
0
 11
128.265812567714
 21
178.4439869989166
 31
0
  0
LINE
  8
1
 62
1
 10
89.52581256771398
 20
118.4439869989166
 30
0
 11
129.765812567714
 21
118.4439869989166
 31
0
  0
LINE
  8
1
 62
1
 10
102.628313270049
 20
178.4439869989166
 30
0
 11
129.765812567714
 21
178.4439869989166
 31
0
  0
SOLID
  8
1
 62
1
 10
128.265812567714
 20
178.4439869989166
 30
0
 11
128.915812567714
 21
173.4439869989166
 31
0
 12
127.615812567714
 22
173.4439869989166
 32
0
 13
127.615812567714
 23
173.4439869989166
 33
0
  0
SOLID
  8
1
 62
1
 10
128.265812567714
 20
118.4439869989166
 30
0
 11
127.615812567714
 21
123.4439869989166
 31
0
 12
128.915812567714
 22
123.4439869989166
 32
0
 13
128.915812567714
 23
123.4439869989166
 33
0
  0
TEXT
  8
1
 62
7
 10
127.215804436565
 20
144.31840165081
 30
0
 40
5
  1
60
 50
90
 41
0.88209
  0
ENDBLK
  8
0
  0
BLOCK
  8
1
  2
*D10
 70
1
 10
0
 20
0
 30
0
  0
LINE
  8
1
 62
1
 10
128.265812567714
 20
92.4439869989166
 30
0
 11
128.265812567714
 21
118.4439869989166
 31
0
  0
LINE
  8
1
 62
1
 10
102.5939660801613
 20
92.4439869989166
 30
0
 11
129.765812567714
 21
92.4439869989166
 31
0
  0
LINE
  8
1
 62
1
 10
89.525812567714
 20
118.4439869989166
 30
0
 11
129.765812567714
 21
118.4439869989166
 31
0
  0
SOLID
  8
1
 62
1
 10
128.265812567714
 20
92.4439869989166
 30
0
 11
127.615812567714
 21
97.4439869989166
 31
0
 12
128.915812567714
 22
97.4439869989166
 32
0
 13
128.915812567714
 23
97.4439869989166
 33
0
  0
SOLID
  8
1
 62
1
 10
128.265812567714
 20
118.4439869989166
 30
0
 11
128.915812567714
 21
113.4439869989166
 31
0
 12
127.615812567714
 22
113.4439869989166
 32
0
 13
127.615812567714
 23
113.4439869989166
 33
0
  0
TEXT
  8
1
 62
7
 10
127.081508491296
 20
101.880882945966
 30
0
 40
5
  1
26
 50
90
 41
0.88209
  0
ENDBLK
  8
0
  0
BLOCK
  8
1
  2
*D11
 70
1
 10
0
 20
0
 30
0
  0
LINE
  8
1
 62
1
 10
166.265812567714
 20
64.44398699891659
 30
0
 11
166.265812567714
 21
210.4439869989166
 31
0
  0
LINE
  8
1
 62
1
 10
188.675812567714
 20
64.44398699891659
 30
0
 11
164.765812567714
 21
64.44398699891659
 31
0
  0
LINE
  8
1
 62
1
 10
188.675812567714
 20
210.4439869989166
 30
0
 11
164.765812567714
 21
210.4439869989166
 31
0
  0
SOLID
  8
1
 62
1
 10
166.265812567714
 20
64.44398699891659
 30
0
 11
165.615812567714
 21
69.44398699891659
 31
0
 12
166.915812567714
 22
69.44398699891659
 32
0
 13
166.915812567714
 23
69.44398699891659
 33
0
  0
SOLID
  8
1
 62
1
 10
166.265812567714
 20
210.4439869989166
 30
0
 11
166.915812567714
 21
205.4439869989166
 31
0
 12
165.615812567714
 22
205.4439869989166
 32
0
 13
165.615812567714
 23
205.4439869989166
 33
0
  0
TEXT
  8
1
 62
7
 10
164.370837469447
 20
131.436332645708
 30
0
 40
5
  1
146
 50
90
 41
0.88209
  0
ENDBLK
  8
0
  0
BLOCK
  8
1
  2
*D12
 70
1
 10
0
 20
0
 30
0
  0
LINE
  8
1
 62
1
 10
143.265812567714
 20
92.4439869989166
 30
0
 11
143.265812567714
 21
178.4439869989166
 31
0
  0
LINE
  8
1
 62
1
 10
102.5939660801613
 20
92.4439869989166
 30
0
 11
144.765812567714
 21
92.4439869989166
 31
0
  0
LINE
  8
1
 62
1
 10
102.628313270049
 20
178.4439869989166
 30
0
 11
144.765812567714
 21
178.4439869989166
 31
0
  0
SOLID
  8
1
 62
1
 10
143.265812567714
 20
92.4439869989166
 30
0
 11
142.615812567714
 21
97.4439869989166
 31
0
 12
143.915812567714
 22
97.4439869989166
 32
0
 13
143.915812567714
 23
97.4439869989166
 33
0
  0
SOLID
  8
1
 62
1
 10
143.265812567714
 20
178.4439869989166
 30
0
 11
143.915812567714
 21
173.4439869989166
 31
0
 12
142.615812567714
 22
173.4439869989166
 32
0
 13
142.615812567714
 23
173.4439869989166
 33
0
  0
TEXT
  8
1
 62
7
 10
141.316878689756
 20
130.620215233424
 30
0
 40
5
  1
86
 50
90
 41
0.88209
  0
ENDBLK
  8
0
  0
BLOCK
  8
1
  2
*D13
 70
1
 10
0
 20
0
 30
0
  0
LINE
  8
1
 62
1
 10
128.265812567714
 20
8.6939869989166
 30
0
 11
128.265812567714
 21
22.19398699891659
 31
0
  0
LINE
  8
1
 62
1
 10
128.265812567714
 20
8.6939869989166
 30
0
 11
128.265812567714
 21
-1.3060130010834
 31
0
  0
LINE
  8
1
 62
1
 10
128.265812567714
 20
22.19398699891659
 30
0
 11
128.265812567714
 21
32.19398699891659
 31
0
  0
LINE
  8
1
 62
1
 10
110.675812567714
 20
8.6939869989166
 30
0
 11
129.765812567714
 21
8.6939869989166
 31
0
  0
LINE
  8
1
 62
1
 10
110.675812567714
 20
22.19398699891659
 30
0
 11
129.765812567714
 21
22.19398699891659
 31
0
  0
SOLID
  8
1
 62
1
 10
128.265812567714
 20
22.19398699891659
 30
0
 11
127.615812567714
 21
27.19398699891659
 31
0
 12
128.915812567714
 22
27.19398699891659
 32
0
 13
128.915812567714
 23
27.19398699891659
 33
0
  0
SOLID
  8
1
 62
1
 10
128.265812567714
 20
8.6939869989166
 30
0
 11
128.915812567714
 21
3.6939869989166
 31
0
 12
127.615812567714
 22
3.6939869989166
 32
0
 13
127.615812567714
 23
3.6939869989166
 33
0
  0
TEXT
  8
1
 62
7
 10
126.818129411458
 20
11.8100503633471
 30
0
 40
5
  1
14
 50
90
 41
0.88209
  0
ENDBLK
  8
0
  0
BLOCK
  8
1
  2
*D14
 70
1
 10
0
 20
0
 30
0
  0
LINE
  8
1
 62
1
 10
35.675812567714
 20
81.37769956886029
 30
0
 11
85.675812567714
 21
81.37769956886029
 31
0
  0
LINE
  8
1
 62
1
 10
85.675812567714
 20
114.5939869989166
 30
0
 11
85.675812567714
 21
79.87769956886029
 31
0
  0
LINE
  8
1
 62
1
 10
35.675812567714
 20
64.44398699891659
 30
0
 11
35.675812567714
 21
82.87769956886029
 31
0
  0
SOLID
  8
1
 62
1
 10
35.675812567714
 20
81.37769956886029
 30
0
 11
40.675812567714
 21
82.0276995688603
 31
0
 12
40.675812567714
 22
80.72769956886029
 32
0
 13
40.675812567714
 23
80.72769956886029
 33
0
  0
SOLID
  8
1
 62
1
 10
85.675812567714
 20
81.37769956886029
 30
0
 11
80.675812567714
 21
80.72769956886029
 31
0
 12
80.675812567714
 22
82.0276995688603
 32
0
 13
80.675812567714
 23
82.0276995688603
 33
0
  0
TEXT
  8
1
 62
7
 10
47.3381263792985
 20
83.3147539914979
 30
0
 40
5
  1
50 / 60
 41
0.88209
  0
ENDBLK
  8
0
  0
BLOCK
  8
1
  2
*D15
 70
1
 10
0
 20
0
 30
0
  0
LINE
  8
1
 62
1
 10
35.675812567714
 20
68.0046802491752
 30
0
 11
110.675812567714
 21
68.0046802491752
 31
0
  0
LINE
  8
1
 62
1
 10
110.675812567714
 20
100.5258334864693
 30
0
 11
110.675812567714
 21
66.5046802491752
 31
0
  0
LINE
  8
1
 62
1
 10
35.675812567714
 20
64.44398699891659
 30
0
 11
35.675812567714
 21
69.5046802491752
 31
0
  0
SOLID
  8
1
 62
1
 10
110.675812567714
 20
68.0046802491752
 30
0
 11
105.675812567714
 21
67.35468024917519
 31
0
 12
105.675812567714
 22
68.6546802491752
 32
0
 13
105.675812567714
 23
68.6546802491752
 33
0
  0
SOLID
  8
1
 62
1
 10
35.675812567714
 20
68.0046802491752
 30
0
 11
40.675812567714
 21
68.6546802491752
 31
0
 12
40.675812567714
 22
67.35468024917519
 32
0
 13
40.675812567714
 23
67.35468024917519
 33
0
  0
TEXT
  8
1
 62
7
 10
58.8204296997547
 20
69.9523074372828
 30
0
 40
5
  1
75 / 85
 41
0.88209
  0
ENDBLK
  8
0
  0
BLOCK
  8
1
  2
*D16
 70
1
 10
0
 20
0
 30
0
  0
LINE
  8
1
 62
1
 10
178.675812567714
 20
46.8539869989166
 30
0
 11
198.675812567714
 21
46.8539869989166
 31
0
  0
LINE
  8
1
 62
1
 10
178.675812567714
 20
74.44398699891659
 30
0
 11
178.675812567714
 21
45.3539869989166
 31
0
  0
LINE
  8
1
 62
1
 10
198.675812567714
 20
74.4439869989166
 30
0
 11
198.675812567714
 21
45.3539869989166
 31
0
  0
SOLID
  8
1
 62
1
 10
178.675812567714
 20
46.8539869989166
 30
0
 11
183.675812567714
 21
47.5039869989166
 31
0
 12
183.675812567714
 22
46.2039869989166
 32
0
 13
183.675812567714
 23
46.2039869989166
 33
0
  0
SOLID
  8
1
 62
1
 10
198.675812567714
 20
46.8539869989166
 30
0
 11
193.675812567714
 21
46.2039869989166
 31
0
 12
193.675812567714
 22
47.5039869989166
 32
0
 13
193.675812567714
 23
47.5039869989166
 33
0
  0
TEXT
  8
1
 62
7
 10
185.000437567714
 20
48.4698478895867
 30
0
 40
5
  1
20
 41
0.88209
  0
ENDBLK
  8
0
  0
BLOCK
  8
1
  2
*D17
 70
1
 10
0
 20
0
 30
0
  0
LINE
  8
1
 62
1
 10
28.675812567714
 20
113.572005338473
 30
0
 11
35.675812567714
 21
113.572005338473
 31
0
  0
LINE
  8
1
 62
1
 10
28.675812567714
 20
113.572005338473
 30
0
 11
18.675812567714
 21
113.572005338473
 31
0
  0
LINE
  8
1
 62
1
 10
35.675812567714
 20
113.572005338473
 30
0
 11
45.675812567714
 21
113.572005338473
 31
0
  0
LINE
  8
1
 62
1
 10
28.675812567714
 20
127.4439869989166
 30
0
 11
28.675812567714
 21
112.072005338473
 31
0
  0
LINE
  8
1
 62
1
 10
35.675812567714
 20
160.4439869989166
 30
0
 11
35.675812567714
 21
112.072005338473
 31
0
  0
SOLID
  8
1
 62
1
 10
35.675812567714
 20
113.572005338473
 30
0
 11
40.675812567714
 21
114.222005338473
 31
0
 12
40.675812567714
 22
112.922005338473
 32
0
 13
40.675812567714
 23
112.922005338473
 33
0
  0
SOLID
  8
1
 62
1
 10
28.675812567714
 20
113.572005338473
 30
0
 11
23.675812567714
 21
112.922005338473
 31
0
 12
23.675812567714
 22
114.222005338473
 32
0
 13
23.675812567714
 23
114.222005338473
 33
0
  0
TEXT
  8
1
 62
7
 10
30.5143042286696
 20
115.075745047497
 30
0
 40
5
  1
7
 41
0.88209
  0
ENDBLK
  8
0
  0
BLOCK
  8
1
  2
*D18
 70
1
 10
0
 20
0
 30
0
  0
LINE
  8
1
 62
1
 10
19.675812567714
 20
101.189580042468
 30
0
 11
35.675812567714
 21
101.189580042468
 31
0
  0
LINE
  8
1
 62
1
 10
19.675812567714
 20
136.4439869989166
 30
0
 11
19.675812567714
 21
99.689580042468
 31
0
  0
LINE
  8
1
 62
1
 10
35.675812567714
 20
160.4439869989166
 30
0
 11
35.675812567714
 21
99.689580042468
 31
0
  0
SOLID
  8
1
 62
1
 10
35.675812567714
 20
101.189580042468
 30
0
 11
30.675812567714
 21
100.539580042468
 31
0
 12
30.675812567714
 22
101.839580042468
 32
0
 13
30.675812567714
 23
101.839580042468
 33
0
  0
SOLID
  8
1
 62
1
 10
19.675812567714
 20
101.189580042468
 30
0
 11
24.675812567714
 21
101.839580042468
 31
0
 12
24.675812567714
 22
100.539580042468
 32
0
 13
24.675812567714
 23
100.539580042468
 33
0
  0
TEXT
  8
1
 62
7
 10
23.9409083084668
 20
103.257701863869
 30
0
 40
5
  1
16
 41
0.88209
  0
ENDBLK
  8
0
  0
BLOCK
  8
1
  2
*D19
 70
1
 10
0
 20
0
 30
0
  0
LINE
  8
1
 62
1
 10
7.227304689982223
 20
127.4439869989166
 30
0
 11
7.227304689982223
 21
145.4439869989166
 31
0
  0
LINE
  8
1
 62
1
 10
28.675812567714
 20
127.4439869989166
 30
0
 11
5.727304689982223
 21
127.4439869989166
 31
0
  0
LINE
  8
1
 62
1
 10
31.675812567714
 20
145.4439869989166
 30
0
 11
5.727304689982223
 21
145.4439869989166
 31
0
  0
SOLID
  8
1
 62
1
 10
7.227304689982223
 20
145.4439869989166
 30
0
 11
7.877304689982221
 21
140.4439869989166
 31
0
 12
6.577304689982222
 22
140.4439869989166
 32
0
 13
6.577304689982222
 23
140.4439869989166
 33
0
  0
SOLID
  8
1
 62
1
 10
7.227304689982223
 20
127.4439869989166
 30
0
 11
6.577304689982221
 21
132.4439869989166
 31
0
 12
7.87730468998222
 22
132.4439869989166
 32
0
 13
7.87730468998222
 23
132.4439869989166
 33
0
  0
TEXT
  8
1
 62
7
 10
7.137304689982223
 20
133.5036869989166
 30
0
 40
5
  1
18
 50
90
 41
0.88209
  0
ENDBLK
  8
0
  0
ENDSEC
  0
SECTION
  2
ENTITIES
  0
LINE
  8
1
 62
2
  6
DIVIDE
 10
85.675812567714
 20
122.2939869989166
 30
0
 11
85.675812567714
 21
114.5939869989166
 31
0
  0
LINE
  8
1
 62
2
  6
DIVIDE
 10
89.525812567714
 20
118.4439869989166
 30
0
 11
81.82581256771401
 21
118.4439869989166
 31
0
  0
LINE
  8
1
 62
7
 10
84.425812567714
 20
112.6439869989166
 30
0
 11
84.425812567714
 21
115.1748127912611
 31
0
  0
LINE
  8
1
 62
7
 10
82.77581256771403
 20
111.9773437262887
 30
0
 11
84.425812567714
 21
112.6439869989166
 31
0
  0
LINE
  8
1
 62
7
 10
82.77581256771403
 20
110.2048800499849
 30
0
 11
82.77581256771403
 21
111.9773437262887
 31
0
  0
LINE
  8
1
 62
7
 10
86.175812567714
 20
109.5439869989166
 30
0
 11
82.77581256771403
 21
110.2048800499849
 31
0
  0
LINE
  8
1
 62
7
 10
86.175812567714
 20
105.5439869989166
 30
0
 11
86.175812567714
 21
109.5439869989166
 31
0
  0
LINE
  8
1
 62
7
 10
82.77581256771403
 20
104.9444752645078
 30
0
 11
86.175812567714
 21
105.5439869989166
 31
0
  0
LINE
  8
1
 62
7
 10
82.77581256771403
 20
103.1889915361254
 30
0
 11
82.77581256771403
 21
104.9444752645078
 31
0
  0
LINE
  8
1
 62
7
 10
88.575812567714
 20
111.9773437262885
 30
0
 11
88.575812567714
 21
103.1889915361254
 31
0
  0
LINE
  8
1
 62
7
 10
86.925812567714
 20
112.6439869989166
 30
0
 11
88.575812567714
 21
111.9773437262885
 31
0
  0
LINE
  8
1
 62
7
 10
86.925812567714
 20
115.1748127912611
 30
0
 11
86.925812567714
 21
112.6439869989166
 31
0
  0
LINE
  8
1
 62
2
  6
DASHED
 10
188.675812567714
 20
81.45398699891659
 30
0
 11
188.675812567714
 21
72.43398699891661
 31
0
  0
LINE
  8
1
 62
2
  6
DASHED
 10
193.185812567714
 20
76.9439869989166
 30
0
 11
184.165812567714
 21
76.9439869989166
 31
0
  0
LINE
  8
1
 62
2
  6
DASHED
 10
188.675812567714
 20
192.5199205734206
 30
0
 11
188.675812567714
 21
203.3680534244126
 31
0
  0
LINE
  8
1
 62
2
  6
DASHED
 10
183.251746142218
 20
197.9439869989166
 30
0
 11
194.09987899321
 21
197.9439869989166
 31
0
  0
LINE
  8
1
 62
2
 10
65.175812567714
 20
173.2439869989166
 30
0
 11
65.175812567714
 21
171.5439869989166
 31
0
  0
LINE
  8
1
 62
2
 10
65.175812567714
 20
171.5439869989166
 30
0
 11
66.87581256771401
 21
171.5439869989166
 31
0
  0
LINE
  8
1
 62
2
 10
66.87581256771401
 20
171.5439869989166
 30
0
 11
66.87581256771401
 21
170.5439869989166
 31
0
  0
LINE
  8
1
 62
2
 10
66.87581256771401
 20
170.5439869989166
 30
0
 11
65.175812567714
 21
170.5439869989166
 31
0
  0
LINE
  8
1
 62
2
 10
65.175812567714
 20
170.5439869989166
 30
0
 11
65.175812567714
 21
168.8439869989166
 31
0
  0
LINE
  8
1
 62
2
 10
65.175812567714
 20
168.8439869989166
 30
0
 11
64.175812567714
 21
168.8439869989166
 31
0
  0
LINE
  8
1
 62
2
 10
64.175812567714
 20
168.8439869989166
 30
0
 11
64.175812567714
 21
170.5439869989166
 31
0
  0
LINE
  8
1
 62
2
 10
64.175812567714
 20
170.5439869989166
 30
0
 11
62.475812567714
 21
170.5439869989166
 31
0
  0
LINE
  8
1
 62
2
 10
62.475812567714
 20
170.5439869989166
 30
0
 11
62.475812567714
 21
171.5439869989166
 31
0
  0
LINE
  8
1
 62
2
 10
62.475812567714
 20
171.5439869989166
 30
0
 11
64.175812567714
 21
171.5439869989166
 31
0
  0
LINE
  8
1
 62
2
 10
64.175812567714
 20
171.5439869989166
 30
0
 11
64.175812567714
 21
173.2439869989166
 31
0
  0
LINE
  8
1
 62
2
 10
64.175812567714
 20
173.2439869989166
 30
0
 11
65.175812567714
 21
173.2439869989166
 31
0
  0
LINE
  8
1
 62
2
  6
DASHDOT
 10
60.175812567714
 20
171.0439869989166
 30
0
 11
61.675812567714
 21
171.0439869989166
 31
0
  0
LINE
  8
1
 62
2
  6
DASHDOT
 10
67.675812567714
 20
171.0439869989166
 30
0
 11
69.72370547508031
 21
171.0439869989166
 31
0
  0
LINE
  8
1
 62
2
  6
DASHDOT
 10
64.675812567714
 20
176.0915631642247
 30
0
 11
64.675812567714
 21
174.0439869989166
 31
0
  0
LINE
  8
1
 62
2
  6
DASHDOT
 10
64.675812567714
 20
168.0439869989166
 30
0
 11
64.675812567714
 21
166.7897741004861
 31
0
  0
LINE
  8
1
 62
2
 10
103.675812567714
 20
102.1439869989166
 30
0
 11
103.675812567714
 21
100.4439869989166
 31
0
  0
LINE
  8
1
 62
2
 10
103.675812567714
 20
100.4439869989166
 30
0
 11
105.375812567714
 21
100.4439869989166
 31
0
  0
LINE
  8
1
 62
2
 10
105.375812567714
 20
100.4439869989166
 30
0
 11
105.375812567714
 21
99.4439869989166
 31
0
  0
LINE
  8
1
 62
2
 10
105.375812567714
 20
99.4439869989166
 30
0
 11
103.675812567714
 21
99.4439869989166
 31
0
  0
LINE
  8
1
 62
2
 10
103.675812567714
 20
99.4439869989166
 30
0
 11
103.675812567714
 21
97.7439869989166
 31
0
  0
LINE
  8
1
 62
2
 10
103.675812567714
 20
97.7439869989166
 30
0
 11
102.675812567714
 21
97.7439869989166
 31
0
  0
LINE
  8
1
 62
2
 10
102.675812567714
 20
97.7439869989166
 30
0
 11
102.675812567714
 21
99.4439869989166
 31
0
  0
LINE
  8
1
 62
2
 10
102.675812567714
 20
99.4439869989166
 30
0
 11
100.975812567714
 21
99.4439869989166
 31
0
  0
LINE
  8
1
 62
2
 10
100.975812567714
 20
99.4439869989166
 30
0
 11
100.975812567714
 21
100.4439869989166
 31
0
  0
LINE
  8
1
 62
2
 10
100.975812567714
 20
100.4439869989166
 30
0
 11
102.675812567714
 21
100.4439869989166
 31
0
  0
LINE
  8
1
 62
2
 10
102.675812567714
 20
100.4439869989166
 30
0
 11
102.675812567714
 21
102.1439869989166
 31
0
  0
LINE
  8
1
 62
2
 10
102.675812567714
 20
102.1439869989166
 30
0
 11
103.675812567714
 21
102.1439869989166
 31
0
  0
LINE
  8
1
 62
2
  6
DASHDOT
 10
97.535416721212
 20
99.9439869989166
 30
0
 11
100.175812567714
 21
99.9439869989166
 31
0
  0
LINE
  8
1
 62
2
  6
DASHDOT
 10
106.175812567714
 20
99.9439869989166
 30
0
 11
108.1580904287644
 21
99.9439869989166
 31
0
  0
LINE
  8
1
 62
2
  6
DASHDOT
 10
103.175812567714
 20
104.8764780373837
 30
0
 11
103.175812567714
 21
102.9439869989166
 31
0
  0
LINE
  8
1
 62
2
  6
DASHDOT
 10
103.175812567714
 20
96.9439869989166
 30
0
 11
103.175812567714
 21
95.12096136718256
 31
0
  0
LINE
  8
1
 62
2
 10
62.175812567714
 20
158.4439869989166
 30
0
 11
62.175812567714
 21
146.4439869989166
 31
0
  0
LINE
  8
1
 62
7
 10
184.175812567714
 20
136.4439869989166
 30
0
 11
193.175812567714
 21
136.4439869989166
 31
0
  0
LINE
  8
1
 62
7
 10
19.63730468998222
 20
10.9439869989166
 30
0
 11
19.63730468998222
 21
19.94398699891657
 31
0
  0
LINE
  8
1
 62
7
 10
35.675812567714
 20
160.4439869989166
 30
0
 11
35.675812567714
 21
64.44398699891659
 31
0
  0
LINE
  8
1
 62
7
 10
28.675812567714
 20
127.4439869989166
 30
0
 11
19.675812567714
 21
136.4439869989166
 31
0
  0
LINE
  8
1
 62
7
 10
31.675812567714
 20
145.4439869989166
 30
0
 11
28.675812567714
 21
127.4439869989166
 31
0
  0
LINE
  8
1
 62
7
 10
35.675812567714
 20
145.4439869989166
 30
0
 11
31.675812567714
 21
145.4439869989166
 31
0
  0
LINE
  8
1
 62
7
 10
184.175812567714
 20
160.4439869989166
 30
0
 11
184.175812567714
 21
127.4439869989166
 31
0
  0
LINE
  8
1
 62
7
 10
193.175812567714
 20
160.4439869989166
 30
0
 11
184.175812567714
 21
160.4439869989166
 31
0
  0
LINE
  8
1
 62
7
 10
193.175812567714
 20
127.4439869989166
 30
0
 11
193.175812567714
 21
160.4439869989166
 31
0
  0
LINE
  8
1
 62
7
 10
184.175812567714
 20
127.4439869989166
 30
0
 11
193.175812567714
 21
127.4439869989166
 31
0
  0
LINE
  8
1
 62
7
 10
102.628313270049
 20
178.4439869989166
 30
0
 11
38.675812567714
 21
178.4439869989166
 31
0
  0
LINE
  8
1
 62
7
 10
35.675812567714
 20
64.44398699891659
 30
0
 11
38.675812567714
 21
64.4439869989166
 31
0
  0
LINE
  8
1
 62
7
 10
38.675812567714
 20
64.4439869989166
 30
0
 11
38.675812567714
 21
210.4439869989166
 31
0
  0
LINE
  8
1
 62
7
 10
38.675812567714
 20
210.4439869989166
 30
0
 11
35.675812567714
 21
210.4439869989166
 31
0
  0
LINE
  8
1
 62
7
 10
35.675812567714
 20
210.4439869989166
 30
0
 11
35.675812567714
 21
160.4439869989166
 31
0
  0
LINE
  8
1
 62
7
 10
38.675812567714
 20
92.4439869989166
 30
0
 11
102.5939660801613
 21
92.4439869989166
 31
0
  0
LINE
  8
1
 62
7
 10
110.675812567714
 20
170.4439869989166
 30
0
 11
110.675812567714
 21
100.5258334864693
 31
0
  0
LINE
  8
1
 62
7
 10
198.675812567714
 20
74.4439869989166
 30
0
 11
198.675812567714
 21
200.4439869989166
 31
0
  0
LINE
  8
1
 62
7
 10
178.675812567714
 20
200.4439869989166
 30
0
 11
178.675812567714
 21
74.44398699891659
 31
0
  0
LINE
  8
1
 62
7
 10
35.675812567714
 20
4.4439869989166
 30
0
 11
38.675812567714
 21
4.4439869989166
 31
0
  0
LINE
  8
1
 62
7
 10
38.675812567714
 20
4.4439869989166
 30
0
 11
38.675812567714
 21
26.44398699891659
 31
0
  0
LINE
  8
1
 62
7
 10
38.675812567714
 20
26.44398699891659
 30
0
 11
35.67581256771417
 21
26.44398699891659
 31
0
  0
LINE
  8
1
 62
7
 10
35.67581256771417
 20
26.44398699891659
 30
0
 11
35.675812567714
 21
4.4439869989166
 31
0
  0
LINE
  8
1
 62
7
 10
110.675812567714
 20
22.19398699891659
 30
0
 11
38.675812567714
 21
22.19398699891659
 31
0
  0
LINE
  8
1
 62
7
 10
110.675812567714
 20
8.6939869989166
 30
0
 11
38.675812567714
 21
8.6939869989166
 31
0
  0
LINE
  8
1
 62
7
 10
110.675812567714
 20
22.19398699891659
 30
0
 11
110.675812567714
 21
8.6939869989166
 31
0
  0
LINE
  8
1
 62
7
 10
35.675812567714
 20
19.9439869989166
 30
0
 11
19.63730468998222
 21
19.94398699891657
 31
0
  0
LINE
  8
1
 62
7
 10
19.63730468998222
 20
10.9439869989166
 30
0
 11
35.675812567714
 21
10.9439869989166
 31
0
  0
LINE
  8
1
 62
2
 10
38.675812567714
 20
164.4439869989166
 30
0
 11
68.675812567714
 21
164.4439869989166
 31
0
  0
LINE
  8
1
 62
7
 10
38.675812567714
 20
158.4439869989166
 30
0
 11
72.675812567714
 21
158.4439869989166
 31
0
  0
LINE
  8
1
 62
7
 10
38.675812567714
 20
146.4439869989166
 30
0
 11
72.675812567714
 21
146.4439869989166
 31
0
  0
LINE
  8
1
 62
2
 10
38.675812567714
 20
140.4439869989166
 30
0
 11
68.675812567714
 21
140.4439869989166
 31
0
  0
LINE
  8
1
 62
2
 10
72.675812567714
 20
160.4439869989166
 30
0
 11
72.675812567714
 21
158.4439869989166
 31
0
  0
LINE
  8
1
 62
3
 10
72.675812567714
 20
158.4439869989166
 30
0
 11
72.675812567714
 21
146.4439869989166
 31
0
  0
LINE
  8
1
 62
2
 10
72.675812567714
 20
146.4439869989166
 30
0
 11
72.675812567714
 21
144.4439869989166
 31
0
  0
LINE
  8
1
 62
7
 10
102.675812567714
 20
92.52583348646927
 30
0
 11
110.5939660801613
 21
100.4439869989166
 31
0
  0
LINE
  8
1
 62
7
 10
102.675812567714
 20
178.3967680595586
 30
0
 11
110.675812567714
 21
170.4439869989166
 31
0
  0
LINE
  8
1
 62
2
  6
DASHDOT
 10
188.675812567714
 20
81.45398699891659
 30
0
 11
188.675812567714
 21
192.5199205734206
 31
0
  0
LINE
  8
1
 62
2
  6
DASHDOT
 10
188.675812567714
 20
203.3680534244126
 30
0
 11
188.675812567714
 21
214.493734451229
 31
0
  0
LINE
  8
1
 62
2
  6
DASHDOT
 10
188.675812567714
 20
72.43398699891661
 30
0
 11
188.675812567714
 21
59.0607939283119
 31
0
  0
ARC
  8
1
 62
7
 10
85.675812567714
 20
105.9439869989166
 30
0
 40
3.999999999999996
 50
223.5311521673729
 51
316.4688478326273
  0
ARC
  8
1
 62
7
 10
85.675812567714
 20
118.4439869989166
 30
0
 40
3.499999999999992
 50
290.9248324276383
 51
249.0751675723616
  0
ARC
  8
1
 62
7
 10
43.63730468998222
 20
137.8029922507378
 30
0
 40
24.00000000000001
 50
109.3737425806006
 51
183.2461223674398
  0
ARC
  8
1
 62
7
 10
188.675812567714
 20
197.9439869989166
 30
0
 40
4.100000000000023
 50
0
 51
180
  0
ARC
  8
1
 62
7
 10
188.675812567714
 20
197.9439869989166
 30
0
 40
4.099999999999994
 50
180
 51
0
  0
ARC
  8
1
 62
7
 10
188.675812567714
 20
197.9439869989166
 30
0
 40
2.5
 50
0
 51
180
  0
ARC
  8
1
 62
7
 10
188.675812567714
 20
197.9439869989166
 30
0
 40
2.5
 50
180
 51
0
  0
ARC
  8
1
 62
2
 10
68.675812567714
 20
160.4439869989166
 30
0
 40
4
 50
0
 51
90
  0
ARC
  8
1
 62
2
 10
68.675812567714
 20
144.4439869989166
 30
0
 40
4
 50
270
 51
0
  0
ARC
  8
1
 62
7
 10
188.675812567714
 20
200.4439869989167
 30
0
 40
9.999999999999915
 50
90
 51
180
  0
ARC
  8
1
 62
7
 10
188.675812567714
 20
74.44398699891656
 30
0
 40
9.999999999999972
 50
270
 51
0
  0
ARC
  8
1
 62
7
 10
188.675812567714
 20
200.4439869989167
 30
0
 40
10
 50
0
 51
90
  0
ARC
  8
1
 62
7
 10
188.675812567714
 20
74.44398699891656
 30
0
 40
10
 50
180
 51
270
  0
CIRCLE
  8
1
 62
2
 10
64.675812567714
 20
171.0439869989166
 30
0
 40
3
  0
CIRCLE
  8
1
 62
2
 10
103.175812567714
 20
99.9439869989166
 30
0
 40
3
  0
CIRCLE
  8
1
 62
7
 10
188.675812567714
 20
76.9439869989166
 30
0
 40
2.5
  0
CIRCLE
  8
1
 62
7
 10
188.675812567714
 20
76.9439869989166
 30
0
 40
4.100000000000023
  0
TEXT
  8
1
 62
7
 10
39.29036105056471
 20
-25.10999305672306
 30
0
 40
6
  1
1607.BB_RZ_PZ_WC.DM_50_60.300
 41
0.8304702249851284
  0
DIMENSION
  8
1
  6
CONTINUOUS
 62
1
  2
*D0
  3
DMST_1
 10
216.299937197225
 20
197.9439869989166
 30
0
 11
213.709937197225
 21
137.4439869989166
 31
0
 12
0
 22
0
 32
0
 70
0
 13
193.185812567714
 23
76.9439869989166
 33
0
 14
194.09987899321
 24
197.9439869989166
 34
0
 50
90
 53
0
  0
DIMENSION
  8
1
  6
CONTINUOUS
 62
1
  2
*D1
  3
DMST_1
 10
216.230743591205
 20
64.44398699891659
 30
0
 11
212.17013967577
 21
57.0430858039863
 31
0
 12
0
 22
0
 32
0
 70
0
  1
12,5
 13
193.185812567714
 23
76.9439869989166
 33
0
 14
188.675812567714
 24
64.44398699891659
 34
0
 50
90
 53
0
  0
DIMENSION
  8
1
  6
CONTINUOUS
 62
1
  2
*D2
  3
DMST_1
 10
38.675812567714
 20
47.2371481983828
 30
0
 11
47.8313757703519
 21
52.0393237564717
 31
0
 12
0
 22
0
 32
0
 70
0
 13
35.675812567714
 23
64.44398699891659
 33
0
 14
38.675812567714
 24
64.4439869989166
 34
0
 53
0
  0
DIMENSION
  8
1
  6
CONTINUOUS
 62
1
  2
*D3
  3
DMST_1
 10
31.675812567714
 20
170.222099805266
 30
0
 11
25.2696569652449
 21
174.248633950801
 31
0
 12
0
 22
0
 32
0
 70
0
 13
35.675812567714
 23
160.4439869989166
 33
0
 14
31.675812567714
 24
145.4439869989166
 34
0
 53
0
  0
DIMENSION
  8
1
  6
CONTINUOUS
 62
1
  2
*D4
  3
DMST_1
 10
-7.772695310017781
 20
127.4439869989166
 30
0
 11
-11.7960239288593
 21
110.323764002998
 31
0
 12
0
 22
0
 32
0
 70
0
 13
38.675812567714
 23
92.4439869989166
 33
0
 14
28.675812567714
 24
127.4439869989166
 34
0
 50
90
 53
0
  0
DIMENSION
  8
1
  6
CONTINUOUS
 62
1
  2
*D5
  3
DMST_1
 10
-7.772695310017781
 20
127.4439869989166
 30
0
 11
-11.7960239288593
 21
143.897750320121
 31
0
 12
0
 22
0
 32
0
 70
0
 13
35.675812567714
 23
160.4439869989166
 33
0
 14
28.675812567714
 24
127.4439869989166
 34
0
 50
90
 53
0
  0
DIMENSION
  8
1
  6
CONTINUOUS
 62
1
  2
*D6
  3
DMST_1
 10
-7.772695310017781
 20
178.4439869989166
 30
0
 11
-11.2588401477854
 21
169.682571811672
 31
0
 12
0
 22
0
 32
0
 70
0
 13
35.675812567714
 23
160.4439869989166
 33
0
 14
38.675812567714
 24
178.4439869989166
 34
0
 50
90
 53
0
  0
DIMENSION
  8
1
  6
CONTINUOUS
 62
1
  2
*D7
  3
DMST_1
 10
-7.772695310017781
 20
178.4439869989166
 30
0
 11
-11.5274320383224
 21
194.393025741075
 31
0
 12
0
 22
0
 32
0
 70
0
 13
35.675812567714
 23
210.4439869989166
 33
0
 14
38.675812567714
 24
178.4439869989166
 34
0
 50
90
 53
0
  0
DIMENSION
  8
1
  6
CONTINUOUS
 62
1
  2
*D8
  3
DMST_1
 10
-7.772695310017781
 20
92.4439869989166
 30
0
 11
-11.7960239288593
 21
78.8985128101705
 31
0
 12
0
 22
0
 32
0
 70
0
 13
35.675812567714
 23
64.44398699891659
 33
0
 14
38.675812567714
 24
92.4439869989166
 34
0
 50
90
 53
0
  0
DIMENSION
  8
1
  6
CONTINUOUS
 62
1
  2
*D9
  3
DMST_1
 10
128.265812567714
 20
118.4439869989166
 30
0
 11
124.715804436565
 21
147.99377665081
 31
0
 12
0
 22
0
 32
0
 70
0
 13
102.628313270049
 23
178.4439869989166
 33
0
 14
89.525812567714
 24
118.4439869989166
 34
0
 50
90
 53
0
  0
DIMENSION
  8
1
  6
CONTINUOUS
 62
1
  2
*D10
  3
DMST_1
 10
128.265812567714
 20
118.4439869989166
 30
0
 11
124.581508491296
 21
105.556257945966
 31
0
 12
0
 22
0
 32
0
 70
0
 13
102.5939660801613
 23
92.4439869989166
 33
0
 14
89.525812567714
 24
118.4439869989166
 34
0
 50
90
 53
0
  0
DIMENSION
  8
1
  6
CONTINUOUS
 62
1
  2
*D11
  3
DMST_1
 10
166.265812567714
 20
64.44398699891659
 30
0
 11
161.870837469447
 21
136.581857645708
 31
0
 12
0
 22
0
 32
0
 70
0
 13
188.675812567714
 23
210.4439869989166
 33
0
 14
188.675812567714
 24
64.44398699891659
 34
0
 50
90
 53
0
  0
DIMENSION
  8
1
  6
CONTINUOUS
 62
1
  2
*D12
  3
DMST_1
 10
143.265812567714
 20
92.4439869989166
 30
0
 11
138.816878689756
 21
134.295590233424
 31
0
 12
0
 22
0
 32
0
 70
0
 13
102.628313270049
 23
178.4439869989166
 33
0
 14
102.5939660801613
 24
92.4439869989166
 34
0
 50
90
 53
0
  0
DIMENSION
  8
1
  6
CONTINUOUS
 62
1
  2
*D13
  3
DMST_1
 10
128.265812567714
 20
8.6939869989166
 30
0
 11
124.318129411458
 21
14.7503503633471
 31
0
 12
0
 22
0
 32
0
 70
0
 13
110.675812567714
 23
22.19398699891659
 33
0
 14
110.675812567714
 24
8.6939869989166
 34
0
 50
90
 53
0
  0
DIMENSION
  8
1
  6
CONTINUOUS
 62
1
  2
*D14
  3
DMST_1
 10
85.67581256771402
 20
81.37769956886029
 30
0
 11
61.0595263792985
 21
85.8147539914979
 31
0
 12
0
 22
0
 32
0
 70
0
  1
50 / 60
 13
35.675812567714
 23
64.44398699891659
 33
0
 14
85.675812567714
 24
114.5939869989166
 34
0
 53
0
  0
DIMENSION
  8
1
  6
CONTINUOUS
 62
1
  2
*D15
  3
DMST_1
 10
35.675812567714
 20
68.0046802491752
 30
0
 11
72.5418296997547
 21
72.4523074372828
 31
0
 12
0
 22
0
 32
0
 70
0
  1
75 / 85
 13
110.675812567714
 23
100.5258334864693
 33
0
 14
35.675812567714
 24
64.44398699891659
 34
0
 53
0
  0
DIMENSION
  8
1
  6
CONTINUOUS
 62
1
  2
*D16
  3
DMST_1
 10
178.675812567714
 20
46.8539869989166
 30
0
 11
188.675812567714
 21
50.9698478895867
 31
0
 12
0
 22
0
 32
0
 70
0
 13
198.675812567714
 23
74.4439869989166
 33
0
 14
178.675812567714
 24
74.44398699891659
 34
0
 53
0
  0
DIMENSION
  8
1
  6
CONTINUOUS
 62
1
  2
*D17
  3
DMST_1
 10
28.675812567714
 20
113.572005338473
 30
0
 11
31.9844542286696
 21
117.575745047497
 31
0
 12
0
 22
0
 32
0
 70
0
 13
35.675812567714
 23
160.4439869989166
 33
0
 14
28.675812567714
 24
127.4439869989166
 34
0
 53
0
  0
DIMENSION
  8
1
  6
CONTINUOUS
 62
1
  2
*D18
  3
DMST_1
 10
19.675812567714
 20
101.189580042468
 30
0
 11
26.8812083084668
 21
105.757701863869
 31
0
 12
0
 22
0
 32
0
 70
0
 13
35.675812567714
 23
160.4439869989166
 33
0
 14
19.675812567714
 24
136.4439869989166
 34
0
 53
0
  0
DIMENSION
  8
1
  6
CONTINUOUS
 62
1
  2
*D19
  3
DMST_1
 10
7.227304689982223
 20
145.4439869989166
 30
0
 11
4.637304689982223
 21
136.4439869989166
 31
0
 12
0
 22
0
 32
0
 70
0
 13
28.675812567714
 23
127.4439869989166
 33
0
 14
31.675812567714
 24
145.4439869989166
 34
0
 50
90
 53
0
  0
INSERT
  8
0
  2
3-10905
 10
289.434702804657
 20
347.582167387852
 30
0
  0
ENDSEC
  0
EOF
