  0
SECTION
  2
HEADER
  9
$ACADVER
  1
AC1015
  9
$ACADMAINTVER
 70
    20
  9
$DWGCODEPAGE
  3
ANSI_1252
  9
$INSBASE
 10
0.0
 20
0.0
 30
0.0
  9
$EXTMIN
 10
42.1884165543463
 20
50.97436598522404
 30
-0.0000610304997082
  9
$EXTMAX
 10
170.0097663118618
 20
257.6725165148645
 30
0.000091555062788
  9
$LIMMIN
 10
0.0
 20
0.0
  9
$LIMMAX
 10
420.0
 20
297.0
  9
$ORTHOMODE
 70
     0
  9
$REGENMODE
 70
     1
  9
$FILLMODE
 70
     1
  9
$QTEXTMODE
 70
     0
  9
$MIRRTEXT
 70
     1
  9
$LTSCALE
 40
1.0
  9
$ATTMODE
 70
     1
  9
$TEXTSIZE
 40
2.5
  9
$TRACEWID
 40
1.0
  9
$TEXTSTYLE
  7
STANDARD
  9
$CLAYER
  8
0
  9
$CELTYPE
  6
BYLAYER
  9
$CECOLOR
 62
   256
  9
$CELTSCALE
 40
1.0
  9
$DISPSILH
 70
     0
  9
$DIMSCALE
 40
1.0
  9
$DIMASZ
 40
2.5
  9
$DIMEXO
 40
0.625
  9
$DIMDLI
 40
3.75
  9
$DIMRND
 40
0.0
  9
$DIMDLE
 40
0.0
  9
$DIMEXE
 40
1.25
  9
$DIMTP
 40
0.0
  9
$DIMTM
 40
0.0
  9
$DIMTXT
 40
2.5
  9
$DIMCEN
 40
2.5
  9
$DIMTSZ
 40
0.0
  9
$DIMTOL
 70
     0
  9
$DIMLIM
 70
     0
  9
$DIMTIH
 70
     0
  9
$DIMTOH
 70
     0
  9
$DIMSE1
 70
     0
  9
$DIMSE2
 70
     0
  9
$DIMTAD
 70
     1
  9
$DIMZIN
 70
     8
  9
$DIMBLK
  1

  9
$DIMASO
 70
     1
  9
$DIMSHO
 70
     1
  9
$DIMPOST
  1

  9
$DIMAPOST
  1

  9
$DIMALT
 70
     0
  9
$DIMALTD
 70
     3
  9
$DIMALTF
 40
0.03937
  9
$DIMLFAC
 40
1.0
  9
$DIMTOFL
 70
     1
  9
$DIMTVP
 40
0.0
  9
$DIMTIX
 70
     0
  9
$DIMSOXD
 70
     0
  9
$DIMSAH
 70
     0
  9
$DIMBLK1
  1

  9
$DIMBLK2
  1

  9
$DIMSTYLE
  2
STANDARD
  9
$DIMCLRD
 70
     0
  9
$DIMCLRE
 70
     0
  9
$DIMCLRT
 70
     0
  9
$DIMTFAC
 40
1.0
  9
$DIMGAP
 40
0.625
  9
$DIMJUST
 70
     0
  9
$DIMSD1
 70
     0
  9
$DIMSD2
 70
     0
  9
$DIMTOLJ
 70
     0
  9
$DIMTZIN
 70
     8
  9
$DIMALTZ
 70
     0
  9
$DIMALTTZ
 70
     0
  9
$DIMUPT
 70
     0
  9
$DIMDEC
 70
     2
  9
$DIMTDEC
 70
     2
  9
$DIMALTU
 70
     2
  9
$DIMALTTD
 70
     3
  9
$DIMTXSTY
  7
STANDARD
  9
$DIMAUNIT
 70
     0
  9
$DIMADEC
 70
     0
  9
$DIMALTRND
 40
0.0
  9
$DIMAZIN
 70
     0
  9
$DIMDSEP
 70
    46
  9
$DIMATFIT
 70
     0
  9
$DIMFRAC
 70
     0
  9
$DIMLDRBLK
  1

  9
$DIMLUNIT
 70
     2
  9
$DIMLWD
 70
    -2
  9
$DIMLWE
 70
    -2
  9
$DIMTMOVE
 70
     0
  9
$LUNITS
 70
     2
  9
$LUPREC
 70
     4
  9
$SKETCHINC
 40
1.0
  9
$FILLETRAD
 40
2.5
  9
$AUNITS
 70
     0
  9
$AUPREC
 70
     0
  9
$MENU
  1
.
  9
$ELEVATION
 40
0.0
  9
$PELEVATION
 40
0.0
  9
$THICKNESS
 40
0.0
  9
$LIMCHECK
 70
     0
  9
$CHAMFERA
 40
2.5
  9
$CHAMFERB
 40
2.5
  9
$CHAMFERC
 40
0.0
  9
$CHAMFERD
 40
0.0
  9
$SKPOLY
 70
     0
  9
$TDCREATE
 40
2447893.000000000
  9
$TDUCREATE
 40
2447892.916666666
  9
$TDUPDATE
 40
2454272.407437141
  9
$TDUUPDATE
 40
2454272.324103808
  9
$TDINDWG
 40
0.0032933681
  9
$TDUSRTIMER
 40
0.0032931944
  9
$USRTIMER
 70
     1
  9
$ANGBASE
 50
0.0
  9
$ANGDIR
 70
     0
  9
$PDMODE
 70
     0
  9
$PDSIZE
 40
0.0
  9
$PLINEWID
 40
0.0
  9
$SPLFRAME
 70
     0
  9
$SPLINETYPE
 70
     6
  9
$SPLINESEGS
 70
     8
  9
$HANDSEED
  5
2E4
  9
$SURFTAB1
 70
     6
  9
$SURFTAB2
 70
     6
  9
$SURFTYPE
 70
     6
  9
$SURFU
 70
     6
  9
$SURFV
 70
     6
  9
$UCSBASE
  2

  9
$UCSNAME
  2

  9
$UCSORG
 10
0.0
 20
0.0
 30
0.0
  9
$UCSXDIR
 10
1.0
 20
0.0
 30
0.0
  9
$UCSYDIR
 10
0.0
 20
1.0
 30
0.0
  9
$UCSORTHOREF
  2

  9
$UCSORTHOVIEW
 70
     0
  9
$UCSORGTOP
 10
0.0
 20
0.0
 30
0.0
  9
$UCSORGBOTTOM
 10
0.0
 20
0.0
 30
0.0
  9
$UCSORGLEFT
 10
0.0
 20
0.0
 30
0.0
  9
$UCSORGRIGHT
 10
0.0
 20
0.0
 30
0.0
  9
$UCSORGFRONT
 10
0.0
 20
0.0
 30
0.0
  9
$UCSORGBACK
 10
0.0
 20
0.0
 30
0.0
  9
$PUCSBASE
  2

  9
$PUCSNAME
  2

  9
$PUCSORG
 10
0.0
 20
0.0
 30
0.0
  9
$PUCSXDIR
 10
1.0
 20
0.0
 30
0.0
  9
$PUCSYDIR
 10
0.0
 20
1.0
 30
0.0
  9
$PUCSORTHOREF
  2

  9
$PUCSORTHOVIEW
 70
     0
  9
$PUCSORGTOP
 10
0.0
 20
0.0
 30
0.0
  9
$PUCSORGBOTTOM
 10
0.0
 20
0.0
 30
0.0
  9
$PUCSORGLEFT
 10
0.0
 20
0.0
 30
0.0
  9
$PUCSORGRIGHT
 10
0.0
 20
0.0
 30
0.0
  9
$PUCSORGFRONT
 10
0.0
 20
0.0
 30
0.0
  9
$PUCSORGBACK
 10
0.0
 20
0.0
 30
0.0
  9
$USERI1
 70
     0
  9
$USERI2
 70
     0
  9
$USERI3
 70
     0
  9
$USERI4
 70
     0
  9
$USERI5
 70
     0
  9
$USERR1
 40
0.0
  9
$USERR2
 40
0.0
  9
$USERR3
 40
0.0
  9
$USERR4
 40
0.0
  9
$USERR5
 40
0.0
  9
$WORLDVIEW
 70
     1
  9
$SHADEDGE
 70
     3
  9
$SHADEDIF
 70
    70
  9
$TILEMODE
 70
     1
  9
$MAXACTVP
 70
    48
  9
$PINSBASE
 10
0.0
 20
0.0
 30
0.0
  9
$PLIMCHECK
 70
     0
  9
$PEXTMIN
 10
0.0
 20
0.0
 30
0.0
  9
$PEXTMAX
 10
43.690506
 20
118.348518
 30
2.0
  9
$PLIMMIN
 10
0.0
 20
0.0
  9
$PLIMMAX
 10
420.0
 20
297.0
  9
$UNITMODE
 70
     0
  9
$VISRETAIN
 70
     0
  9
$PLINEGEN
 70
     0
  9
$PSLTSCALE
 70
     1
  9
$TREEDEPTH
 70
  3020
  9
$CMLSTYLE
  2
STANDARD
  9
$CMLJUST
 70
     0
  9
$CMLSCALE
 40
20.0
  9
$PROXYGRAPHICS
 70
     1
  9
$MEASUREMENT
 70
     1
  9
$CELWEIGHT
370
    -1
  9
$ENDCAPS
280
     0
  9
$JOINSTYLE
280
     0
  9
$LWDISPLAY
290
     0
  9
$INSUNITS
 70
     0
  9
$HYPERLINKBASE
  1

  9
$STYLESHEET
  1

  9
$XEDIT
290
     1
  9
$CEPSNTYPE
380
     0
  9
$PSTYLEMODE
290
     1
  9
$FINGERPRINTGUID
  2
{43A41DDB-3A07-4F1F-A419-4A5C6726F1BB}
  9
$VERSIONGUID
  2
{FCC090D8-777C-43B5-AE83-AEF36C8BE306}
  9
$EXTNAMES
290
     1
  9
$PSVPSCALE
 40
0.0
  9
$OLESTARTUP
290
     0
  0
ENDSEC
  0
SECTION
  2
CLASSES
  0
CLASS
  1
IMAGE
  2
AcDbRasterImage
  3
ISM
 90
    34943
280
     0
281
     1
  0
CLASS
  1
DICTIONARYVAR
  2
AcDbDictionaryVar
  3
ObjectDBX Classes
 90
        0
280
     0
281
     0
  0
CLASS
  1
RASTERVARIABLES
  2
AcDbRasterVariables
  3
ISM
 90
    32768
280
     0
281
     0
  0
CLASS
  1
IMAGEDEF
  2
AcDbRasterImageDef
  3
ISM
 90
    32768
280
     0
281
     0
  0
CLASS
  1
IMAGEDEF_REACTOR
  2
AcDbRasterImageDefReactor
  3
ISM
 90
    32769
280
     0
281
     0
  0
CLASS
  1
IDBUFFER
  2
AcDbIdBuffer
  3
ObjectDBX Classes
 90
    32768
280
     0
281
     0
  0
CLASS
  1
SPATIAL_FILTER
  2
AcDbSpatialFilter
  3
ObjectDBX Classes
 90
    32768
280
     0
281
     0
  0
CLASS
  1
SORTENTSTABLE
  2
AcDbSortentsTable
  3
ObjectDBX Classes
 90
    32768
280
     0
281
     0
  0
CLASS
  1
LAYER_INDEX
  2
AcDbLayerIndex
  3
ObjectDBX Classes
 90
    32768
280
     0
281
     0
  0
CLASS
  1
SPATIAL_INDEX
  2
AcDbSpatialIndex
  3
ObjectDBX Classes
 90
    32768
280
     0
281
     0
  0
CLASS
  1
OBJECT_PTR
  2
CAseDLPNTableRecord
  3
ASE-LPNTableRecord
 90
    32769
280
     0
281
     0
  0
CLASS
  1
LAYOUT
  2
AcDbLayout
  3
ObjectDBX Classes
 90
        0
280
     0
281
     0
  0
CLASS
  1
PLOTSETTINGS
  2
AcDbPlotSettings
  3
ObjectDBX Classes
 90
    32768
280
     0
281
     0
  0
CLASS
  1
ACDBDICTIONARYWDFLT
  2
AcDbDictionaryWithDefault
  3
ObjectDBX Classes
 90
        0
280
     0
281
     0
  0
CLASS
  1
ACDBPLACEHOLDER
  2
AcDbPlaceHolder
  3
ObjectDBX Classes
 90
        0
280
     0
281
     0
  0
CLASS
  1
VBA_PROJECT
  2
AcDbVbaProject
  3
acad
 90
    32768
280
     0
281
     0
  0
CLASS
  1
WIPEOUT
  2
AcDbWipeout
  3
"WipeOut|Product Desc: Object Enabler for WipeOut entity                        |Company: Autodesk, Inc.                        |WEB Address: www.autodesk.com"
 90
    34943
280
     0
281
     1
  0
CLASS
  1
WIPEOUTVARIABLES
  2
AcDbWipeoutVariables
  3
"WipeOut|Product Desc:     WipeOut Dbx Application|Company:          Autodesk, Inc.|WEB Address:      www.autodesk.com"
 90
    32768
280
     0
281
     0
  0
CLASS
  1
RTEXT
  2
RText
  3
RText|AutoCAD Express Tool|expresstools@autodesk.com
 90
    32768
280
     0
281
     1
  0
CLASS
  1
ARCALIGNEDTEXT
  2
AcDbArcAlignedText
  3
ATEXT|AutoCAD Express Tool|expresstools@autodesk.com
 90
    32768
280
     0
281
     1
  0
CLASS
  1
MATERIAL
  2
AcDbMaterial
  3
ObjectDBX Classes
 90
     1024
280
     0
281
     0
  0
CLASS
  1
VISUALSTYLE
  2
AcDbVisualStyle
  3
ObjectDBX Classes
 90
     4095
280
     0
281
     0
  0
CLASS
  1
TABLESTYLE
  2
AcDbTableStyle
  3
ObjectDBX Classes
 90
     4095
280
     0
281
     0
  0
ENDSEC
  0
SECTION
  2
TABLES
  0
TABLE
  2
VPORT
  5
7
330
0
100
AcDbSymbolTable
 70
     1
  0
VPORT
  5
15
330
7
100
AcDbSymbolTableRecord
100
AcDbViewportTableRecord
  2
*ACTIVE
 70
     0
 10
0.0
 20
0.0
 11
1.0
 21
1.0
 12
106.099091433104
 22
154.3234412500442
 13
0.0
 23
0.0
 14
1.0
 24
1.0
 15
0.0
 25
0.0
 16
0.0
 26
0.0
 36
1.0
 17
0.0
 27
0.0
 37
0.0
 40
208.3299780338218
 41
1.434782608695651
 42
50.0
 43
0.0
 44
0.0
 50
0.0
 51
0.0
 71
     0
 72
   100
 73
     1
 74
     1
 75
     0
 76
     0
 77
     0
 78
     0
281
     0
 65
     1
110
0.0
120
0.0
130
0.0
111
1.0
121
0.0
131
0.0
112
0.0
122
1.0
132
0.0
 79
     0
146
0.0
  0
ENDTAB
  0
TABLE
  2
LTYPE
  5
4
330
0
100
AcDbSymbolTable
 70
     8
  0
LTYPE
  5
11
330
4
100
AcDbSymbolTableRecord
100
AcDbLinetypeTableRecord
  2
BYBLOCK
 70
     0
  3

 72
    65
 73
     0
 40
0.0
  0
LTYPE
  5
12
330
4
100
AcDbSymbolTableRecord
100
AcDbLinetypeTableRecord
  2
BYLAYER
 70
     0
  3

 72
    65
 73
     0
 40
0.0
  0
LTYPE
  5
13
330
4
100
AcDbSymbolTableRecord
100
AcDbLinetypeTableRecord
  2
CONTINUOUS
 70
     0
  3
Solid line
 72
    65
 73
     0
 40
0.0
  0
LTYPE
  5
1D
330
4
100
AcDbSymbolTableRecord
100
AcDbLinetypeTableRecord
  2
DASHED
 70
     0
  3
__ __ __ __ __ __ __ __ __ __ __ __ __ __ __ __
 72
    65
 73
     2
 40
15.0
 49
12.0
 74
     0
 49
-3.0
 74
     0
  0
LTYPE
  5
1E
330
4
100
AcDbSymbolTableRecord
100
AcDbLinetypeTableRecord
  2
DASHDOT
 70
     0
  3
 __ . __ . __ . __ . __ . __ . __ . 
 72
    65
 73
     4
 40
18.5
 49
12.0
 74
     0
 49
-3.0
 74
     0
 49
0.5
 74
     0
 49
-3.0
 74
     0
  0
LTYPE
  5
1F
330
4
100
AcDbSymbolTableRecord
100
AcDbLinetypeTableRecord
  2
DOT
 70
     0
  3
 . . . . . . . . . . . . . . . .
 72
    65
 73
     2
 40
3.5
 49
0.5
 74
     0
 49
-3.0
 74
     0
  0
LTYPE
  5
20
330
4
100
AcDbSymbolTableRecord
100
AcDbLinetypeTableRecord
  2
DASHSPACE
 70
     0
  3
__    __    __    __    __   
 72
    65
 73
     2
 40
30.0
 49
12.0
 74
     0
 49
-18.0
 74
     0
  0
LTYPE
  5
21
330
4
100
AcDbSymbolTableRecord
100
AcDbLinetypeTableRecord
  2
DASHDOT2
 70
     0
  3
__ . . __ . . __ . . __ 
 72
    65
 73
     6
 40
22.0
 49
12.0
 74
     0
 49
-3.0
 74
     0
 49
0.5
 74
     0
 49
-3.0
 74
     0
 49
0.5
 74
     0
 49
-3.0
 74
     0
  0
LTYPE
  5
22
330
4
100
AcDbSymbolTableRecord
100
AcDbLinetypeTableRecord
  2
PHANTOM
 70
     0
  3
____________    ____    ____   _
 72
    65
 73
     6
 40
20.0
 49
10.0
 74
     0
 49
-2.0
 74
     0
 49
2.0
 74
     0
 49
-2.0
 74
     0
 49
2.0
 74
     0
 49
-2.0
 74
     0
  0
LTYPE
  5
23
330
4
100
AcDbSymbolTableRecord
100
AcDbLinetypeTableRecord
  2
AXES
 70
     0
  3
________  __  ________  __  _____
 72
    65
 73
     4
 40
24.0
 49
15.0
 74
     0
 49
-3.0
 74
     0
 49
3.0
 74
     0
 49
-3.0
 74
     0
  0
ENDTAB
  0
TABLE
  2
LAYER
  5
2
330
0
100
AcDbSymbolTable
 70
     5
  0
LAYER
  5
14
330
2
100
AcDbSymbolTableRecord
100
AcDbLayerTableRecord
  2
0
 70
     0
 62
     7
  6
CONTINUOUS
370
    -3
390
2B4
  0
LAYER
  5
2A9
330
2
100
AcDbSymbolTableRecord
100
AcDbLayerTableRecord
  2
Hawa1
 70
     0
 62
     2
  6
CONTINUOUS
370
    -3
390
2B4
  0
LAYER
  5
2AA
330
2
100
AcDbSymbolTableRecord
100
AcDbLayerTableRecord
  2
Hawa2
 70
     0
 62
     9
  6
CONTINUOUS
370
    -3
390
2B4
  0
LAYER
  5
2AB
330
2
100
AcDbSymbolTableRecord
100
AcDbLayerTableRecord
  2
Hawa4
 70
     0
 62
     4
  6
CONTINUOUS
370
    -3
390
2B4
  0
LAYER
  5
2AC
330
2
100
AcDbSymbolTableRecord
100
AcDbLayerTableRecord
  2
Hawa5
 70
     0
 62
     1
  6
CONTINUOUS
370
    -3
390
2B4
  0
ENDTAB
  0
TABLE
  2
STYLE
  5
3
330
0
100
AcDbSymbolTable
 70
     2
  0
STYLE
  5
17
330
3
100
AcDbSymbolTableRecord
100
AcDbTextStyleTableRecord
  2
STANDARD
 70
     0
 40
0.0
 41
1.0
 50
0.0
 71
     0
 42
2.5
  3
isocp.shx
  4

  0
STYLE
  5
24
330
3
100
AcDbSymbolTableRecord
100
AcDbTextStyleTableRecord
  2
GDT
 70
     0
 40
0.0
 41
1.0
 50
0.0
 71
     0
 42
2.5
  3
amgdt.shx
  4

  0
ENDTAB
  0
TABLE
  2
VIEW
  5
5
330
0
100
AcDbSymbolTable
 70
     0
  0
ENDTAB
  0
TABLE
  2
UCS
  5
6
330
0
100
AcDbSymbolTable
 70
     0
  0
ENDTAB
  0
TABLE
  2
APPID
  5
8
330
0
100
AcDbSymbolTable
 70
     1
  0
APPID
  5
16
330
8
100
AcDbSymbolTableRecord
100
AcDbRegAppTableRecord
  2
ACAD
 70
     0
  0
ENDTAB
  0
TABLE
  2
DIMSTYLE
  5
9
330
0
100
AcDbSymbolTable
 70
     1
100
AcDbDimStyleTable
 71
     0
  0
DIMSTYLE
105
18
102
{ACAD_REACTORS
330
26
330
28
330
2A
330
2C
330
2E
330
30
330
32
330
34
330
36
330
38
330
3A
330
3C
330
3E
330
40
330
42
330
44
102
}
330
9
100
AcDbSymbolTableRecord
100
AcDbDimStyleTableRecord
  2
STANDARD
 70
     0
 41
2.5
 42
0.625
 43
3.75
 44
1.25
 73
     0
 74
     0
 77
     1
 78
     8
140
2.5
141
2.5
143
0.03937
147
0.625
171
     3
172
     1
271
     2
272
     2
274
     3
283
     0
284
     8
289
     0
340
17
  0
ENDTAB
  0
TABLE
  2
BLOCK_RECORD
  5
1
330
0
100
AcDbSymbolTable
 70
    19
  0
BLOCK_RECORD
  5
A
330
1
100
AcDbSymbolTableRecord
100
AcDbBlockTableRecord
  2
*MODEL_SPACE
340
268
  0
BLOCK_RECORD
  5
B
330
1
100
AcDbSymbolTableRecord
100
AcDbBlockTableRecord
  2
*PAPER_SPACE
340
269
  0
BLOCK_RECORD
  5
25
330
1
100
AcDbSymbolTableRecord
100
AcDbBlockTableRecord
  2
*D0
340
0
  0
BLOCK_RECORD
  5
27
330
1
100
AcDbSymbolTableRecord
100
AcDbBlockTableRecord
  2
*D1
340
0
  0
BLOCK_RECORD
  5
29
330
1
100
AcDbSymbolTableRecord
100
AcDbBlockTableRecord
  2
*D2
340
0
  0
BLOCK_RECORD
  5
2B
330
1
100
AcDbSymbolTableRecord
100
AcDbBlockTableRecord
  2
*D3
340
0
  0
BLOCK_RECORD
  5
2D
330
1
100
AcDbSymbolTableRecord
100
AcDbBlockTableRecord
  2
*D4
340
0
  0
BLOCK_RECORD
  5
2F
330
1
100
AcDbSymbolTableRecord
100
AcDbBlockTableRecord
  2
*D5
340
0
  0
BLOCK_RECORD
  5
31
330
1
100
AcDbSymbolTableRecord
100
AcDbBlockTableRecord
  2
*D6
340
0
  0
BLOCK_RECORD
  5
33
330
1
100
AcDbSymbolTableRecord
100
AcDbBlockTableRecord
  2
*D7
340
0
  0
BLOCK_RECORD
  5
35
330
1
100
AcDbSymbolTableRecord
100
AcDbBlockTableRecord
  2
*D8
340
0
  0
BLOCK_RECORD
  5
37
330
1
100
AcDbSymbolTableRecord
100
AcDbBlockTableRecord
  2
*D9
340
0
  0
BLOCK_RECORD
  5
39
330
1
100
AcDbSymbolTableRecord
100
AcDbBlockTableRecord
  2
*D10
340
0
  0
BLOCK_RECORD
  5
3B
330
1
100
AcDbSymbolTableRecord
100
AcDbBlockTableRecord
  2
*D11
340
0
  0
BLOCK_RECORD
  5
3D
330
1
100
AcDbSymbolTableRecord
100
AcDbBlockTableRecord
  2
*D12
340
0
  0
BLOCK_RECORD
  5
3F
330
1
100
AcDbSymbolTableRecord
100
AcDbBlockTableRecord
  2
*D13
340
0
  0
BLOCK_RECORD
  5
41
330
1
100
AcDbSymbolTableRecord
100
AcDbBlockTableRecord
  2
*D14
340
0
  0
BLOCK_RECORD
  5
43
330
1
100
AcDbSymbolTableRecord
100
AcDbBlockTableRecord
  2
*D15
340
0
  0
BLOCK_RECORD
  5
149
330
1
100
AcDbSymbolTableRecord
100
AcDbBlockTableRecord
  2
BLOCK0
340
0
  0
BLOCK_RECORD
  5
14A
330
1
100
AcDbSymbolTableRecord
100
AcDbBlockTableRecord
  2
BLOCK1
340
0
  0
BLOCK_RECORD
  5
14B
330
1
100
AcDbSymbolTableRecord
100
AcDbBlockTableRecord
  2
BLOCK2
340
0
  0
ENDTAB
  0
ENDSEC
  0
SECTION
  2
BLOCKS
  0
BLOCK
  5
D
330
A
100
AcDbEntity
  8
0
100
AcDbBlockBegin
  2
*MODEL_SPACE
 70
     0
 10
0.0
 20
0.0
 30
0.0
  3
*MODEL_SPACE
  1

  0
ENDBLK
  5
E
330
A
100
AcDbEntity
  8
0
100
AcDbBlockEnd
  0
BLOCK
  5
F
330
B
100
AcDbEntity
 67
     1
  8
0
100
AcDbBlockBegin
  2
*PAPER_SPACE
 70
     0
 10
0.0
 20
0.0
 30
0.0
  3
*PAPER_SPACE
  1

  0
ENDBLK
  5
10
330
B
100
AcDbEntity
 67
     1
  8
0
100
AcDbBlockEnd
  0
BLOCK
  5
14C
330
25
100
AcDbEntity
  8
Hawa2
 62
     9
100
AcDbBlockBegin
  2
*D0
 70
     1
 10
0.0
 20
0.0
 30
0.0
  3
*D0
  1

  0
TEXT
  5
14D
330
25
100
AcDbEntity
  8
Hawa1
 62
     2
100
AcDbText
 10
67.057152
 20
213.161232
 30
0.0
 40
3.5
  1
18
 50
90.0
 41
1.644876734693881
 72
     5
 11
67.057152
 21
219.206154
 31
0.0
100
AcDbText
  0
TEXT
  5
14E
330
25
100
AcDbEntity
  8
Hawa1
 62
     2
100
AcDbText
 10
64.95715
 20
222.206154
 30
0.0
 40
2.33345
  1
23
 50
90.0
 41
1.337380094441016
 72
     5
 11
64.95715
 21
226.236305
 31
0.0
100
AcDbText
  0
TEXT
  5
14F
330
25
100
AcDbEntity
  8
Hawa1
 62
     2
100
AcDbText
 10
67.990601
 20
222.206154
 30
0.0
 40
2.33345
  1
32
 50
90.0
 41
1.318353709796759
 72
     5
 11
67.990601
 21
226.236305
 31
0.0
100
AcDbText
  0
TEXT
  5
150
330
25
100
AcDbEntity
  8
Hawa1
 62
     2
100
AcDbText
 10
66.182152
 20
226.236305
 30
0.0
 40
3.5
  1
"
 50
90.0
 41
1.629629206349205
 72
     5
 11
66.182152
 21
228.802971
 31
0.0
100
AcDbText
  0
TEXT
  5
151
330
25
100
AcDbEntity
  8
Hawa1
 62
     2
100
AcDbText
 10
65.807152
 20
220.206154
 30
0.0
 40
1.0
  1
/
 50
90.0
 41
1.818181818181818
 72
     5
 11
65.807152
 21
221.206154
 31
0.0
100
AcDbText
  0
LINE
  5
152
330
25
100
AcDbEntity
  8
Hawa1
 62
     2
 48
0.100754
100
AcDbLine
 10
65.307152
 20
222.206154
 30
0.0
 11
65.307152
 21
226.236305
 31
0.0
  0
LINE
  5
153
330
25
100
AcDbEntity
  8
Hawa1
 62
     2
100
AcDbLine
 10
94.99060099999999
 20
211.982101
 30
0.0
 11
67.990601
 21
211.982101
 31
0.0
  0
LINE
  5
154
330
25
100
AcDbEntity
  8
Hawa1
 62
     2
100
AcDbLine
 10
89.99060099999999
 20
229.982101
 30
0.0
 11
67.990601
 21
229.982101
 31
0.0
  0
LINE
  5
155
330
25
100
AcDbEntity
  8
Hawa1
 62
     2
 48
0.075
100
AcDbLine
 10
70.05126199999999
 20
228.92144
 30
0.0
 11
67.929939
 21
231.042763
 31
0.0
  0
LINE
  5
156
330
25
100
AcDbEntity
  8
Hawa1
 62
     2
 48
0.075
100
AcDbLine
 10
67.929939
 20
213.042763
 30
0.0
 11
70.05126199999999
 21
210.92144
 31
0.0
  0
LINE
  5
157
330
25
100
AcDbEntity
  8
Hawa1
 62
     2
 48
0.45
100
AcDbLine
 10
68.99060099999999
 20
211.982101
 30
0.0
 11
68.99060099999999
 21
229.982101
 31
0.0
  0
ENDBLK
  5
158
330
25
100
AcDbEntity
  8
Hawa2
 62
     9
100
AcDbBlockEnd
  0
BLOCK
  5
159
330
27
100
AcDbEntity
  8
Hawa2
 62
     9
100
AcDbBlockBegin
  2
*D1
 70
     1
 10
0.0
 20
0.0
 30
0.0
  3
*D1
  1

  0
TEXT
  5
15A
330
27
100
AcDbEntity
  8
Hawa1
 62
     2
100
AcDbText
 10
67.057152
 20
147.161223
 30
0.0
 40
3.5
  1
21
 50
90.0
 41
1.644877278911558
 72
     5
 11
67.057152
 21
153.206147
 31
0.0
100
AcDbText
  0
TEXT
  5
15B
330
27
100
AcDbEntity
  8
Hawa1
 62
     2
100
AcDbText
 10
64.95715
 20
156.206146
 30
0.0
 40
2.33345
  1
13
 50
90.0
 41
1.582451758019548
 72
     5
 11
64.95715
 21
160.236298
 31
0.0
100
AcDbText
  0
TEXT
  5
15C
330
27
100
AcDbEntity
  8
Hawa1
 62
     2
100
AcDbText
 10
67.990601
 20
156.206146
 30
0.0
 40
2.33345
  1
16
 50
90.0
 41
1.570672744558266
 72
     5
 11
67.990601
 21
160.236298
 31
0.0
100
AcDbText
  0
TEXT
  5
15D
330
27
100
AcDbEntity
  8
Hawa1
 62
     2
100
AcDbText
 10
66.182152
 20
160.236298
 30
0.0
 40
3.5
  1
"
 50
90.0
 41
1.629628571428553
 72
     5
 11
66.182152
 21
162.802963
 31
0.0
100
AcDbText
  0
TEXT
  5
15E
330
27
100
AcDbEntity
  8
Hawa1
 62
     2
100
AcDbText
 10
65.807152
 20
154.206147
 30
0.0
 40
1.0
  1
/
 50
90.0
 41
1.818181818181818
 72
     5
 11
65.807152
 21
155.206147
 31
0.0
100
AcDbText
  0
LINE
  5
15F
330
27
100
AcDbEntity
  8
Hawa1
 62
     2
 48
0.100754
100
AcDbLine
 10
65.307152
 20
156.206146
 30
0.0
 11
65.307152
 21
160.236298
 31
0.0
  0
LINE
  5
160
330
27
100
AcDbEntity
  8
Hawa1
 62
     2
100
AcDbLine
 10
89.99060099999999
 20
144.482086
 30
0.0
 11
67.990601
 21
144.482086
 31
0.0
  0
LINE
  5
161
330
27
100
AcDbEntity
  8
Hawa1
 62
     2
100
AcDbLine
 10
89.99060099999999
 20
165.482101
 30
0.0
 11
67.990601
 21
165.482101
 31
0.0
  0
LINE
  5
162
330
27
100
AcDbEntity
  8
Hawa1
 62
     2
 48
0.075
100
AcDbLine
 10
67.929939
 20
145.542747
 30
0.0
 11
70.05126199999999
 21
143.421426
 31
0.0
  0
LINE
  5
163
330
27
100
AcDbEntity
  8
Hawa1
 62
     2
 48
0.075
100
AcDbLine
 10
70.05126199999999
 20
164.421442
 30
0.0
 11
67.929939
 21
166.542761
 31
0.0
  0
LINE
  5
164
330
27
100
AcDbEntity
  8
Hawa1
 62
     2
100
AcDbLine
 10
68.99060099999999
 20
144.482086
 30
0.0
 11
68.99060099999999
 21
165.482101
 31
0.0
  0
ENDBLK
  5
165
330
27
100
AcDbEntity
  8
Hawa2
 62
     9
100
AcDbBlockEnd
  0
BLOCK
  5
166
330
29
100
AcDbEntity
  8
Hawa2
 62
     9
100
AcDbBlockBegin
  2
*D2
 70
     1
 10
0.0
 20
0.0
 30
0.0
  3
*D2
  1

  0
TEXT
  5
167
330
29
100
AcDbEntity
  8
Hawa1
 62
     2
100
AcDbText
 10
67.057152
 20
72.16121700000001
 30
0.0
 40
3.5
  1
23
 50
90.0
 41
1.337379595812722
 72
     5
 11
67.057152
 21
78.20613900000001
 31
0.0
100
AcDbText
  0
TEXT
  5
168
330
29
100
AcDbEntity
  8
Hawa1
 62
     2
100
AcDbText
 10
64.95715
 20
81.206139
 30
0.0
 40
2.33345
  1
29
 50
90.0
 41
1.306847561530304
 72
     5
 11
64.95715
 21
85.23628999999999
 31
0.0
100
AcDbText
  0
TEXT
  5
169
330
29
100
AcDbEntity
  8
Hawa1
 62
     2
100
AcDbText
 10
67.990601
 20
81.206139
 30
0.0
 40
2.33345
  1
32
 50
90.0
 41
1.318353709796759
 72
     5
 11
67.990601
 21
85.23628999999999
 31
0.0
100
AcDbText
  0
TEXT
  5
16A
330
29
100
AcDbEntity
  8
Hawa1
 62
     2
100
AcDbText
 10
66.182152
 20
85.23628999999999
 30
0.0
 40
3.5
  1
"
 50
90.0
 41
1.629629206349214
 72
     5
 11
66.182152
 21
87.802956
 31
0.0
100
AcDbText
  0
TEXT
  5
16B
330
29
100
AcDbEntity
  8
Hawa1
 62
     2
100
AcDbText
 10
65.807152
 20
79.20613900000001
 30
0.0
 40
1.0
  1
/
 50
90.0
 41
1.818181818181818
 72
     5
 11
65.807152
 21
80.206139
 31
0.0
100
AcDbText
  0
LINE
  5
16C
330
29
100
AcDbEntity
  8
Hawa1
 62
     2
 48
0.100754
100
AcDbLine
 10
65.307152
 20
81.206139
 30
0.0
 11
65.307152
 21
85.23628999999999
 31
0.0
  0
LINE
  5
16D
330
29
100
AcDbEntity
  8
Hawa1
 62
     2
100
AcDbLine
 10
89.99060099999999
 20
68.48208599999999
 30
0.0
 11
67.990601
 21
68.48208599999999
 31
0.0
  0
LINE
  5
16E
330
29
100
AcDbEntity
  8
Hawa1
 62
     2
100
AcDbLine
 10
94.99060099999999
 20
91.482086
 30
0.0
 11
67.990601
 21
91.482086
 31
0.0
  0
LINE
  5
16F
330
29
100
AcDbEntity
  8
Hawa1
 62
     2
 48
0.075
100
AcDbLine
 10
70.05126199999999
 20
90.421425
 30
0.0
 11
67.929939
 21
92.54274699999999
 31
0.0
  0
LINE
  5
170
330
29
100
AcDbEntity
  8
Hawa1
 62
     2
 48
0.075
100
AcDbLine
 10
67.929939
 20
69.54274699999999
 30
0.0
 11
70.05126199999999
 21
67.42142499999999
 31
0.0
  0
LINE
  5
171
330
29
100
AcDbEntity
  8
Hawa1
 62
     2
100
AcDbLine
 10
68.99060099999999
 20
68.48208599999999
 30
0.0
 11
68.99060099999999
 21
91.482086
 31
0.0
  0
ENDBLK
  5
172
330
29
100
AcDbEntity
  8
Hawa2
 62
     9
100
AcDbBlockEnd
  0
BLOCK
  5
173
330
2B
100
AcDbEntity
  8
Hawa2
 62
     9
100
AcDbBlockBegin
  2
*D3
 70
     1
 10
0.0
 20
0.0
 30
0.0
  3
*D3
  1

  0
TEXT
  5
174
330
2B
100
AcDbEntity
  8
Hawa1
 62
     2
100
AcDbText
 10
67.057152
 20
52.921486
 30
0.0
 40
3.5
  1
4
 50
90.0
 41
1.174705494505494
 72
     5
 11
67.057152
 21
55.593941
 31
0.0
100
AcDbText
  0
TEXT
  5
175
330
2B
100
AcDbEntity
  8
Hawa1
 62
     2
100
AcDbText
 10
64.95715
 20
59.718155
 30
0.0
 40
2.33345
  1
5
 50
90.0
 41
1.291054821585633
 72
     5
 11
64.95715
 21
61.499878
 31
0.0
100
AcDbText
  0
TEXT
  5
176
330
2B
100
AcDbEntity
  8
Hawa1
 62
     2
100
AcDbText
 10
67.990601
 20
58.593941
 30
0.0
 40
2.33345
  1
32
 50
90.0
 41
1.318353709796764
 72
     5
 11
67.990601
 21
62.624092
 31
0.0
100
AcDbText
  0
TEXT
  5
177
330
2B
100
AcDbEntity
  8
Hawa1
 62
     2
100
AcDbText
 10
66.182152
 20
62.624092
 30
0.0
 40
3.5
  1
"
 50
90.0
 41
1.629629206349205
 72
     5
 11
66.182152
 21
65.190758
 31
0.0
100
AcDbText
  0
TEXT
  5
178
330
2B
100
AcDbEntity
  8
Hawa1
 62
     2
100
AcDbText
 10
65.807152
 20
56.593941
 30
0.0
 40
1.0
  1
/
 50
90.0
 41
1.818181818181818
 72
     5
 11
65.807152
 21
57.593941
 31
0.0
100
AcDbText
  0
LINE
  5
179
330
2B
100
AcDbEntity
  8
Hawa1
 62
     2
 48
0.100754
100
AcDbLine
 10
65.307152
 20
58.593941
 30
0.0
 11
65.307152
 21
62.624092
 31
0.0
  0
LINE
  5
17A
330
2B
100
AcDbEntity
  8
Hawa1
 62
     2
100
AcDbLine
 10
94.99060099999999
 20
64.482086
 30
0.0
 11
67.990601
 21
64.482086
 31
0.0
  0
LINE
  5
17B
330
2B
100
AcDbEntity
  8
Hawa1
 62
     2
100
AcDbLine
 10
94.99060099999999
 20
68.48214699999999
 30
0.0
 11
67.990601
 21
68.48214699999999
 31
0.0
  0
LINE
  5
17C
330
2B
100
AcDbEntity
  8
Hawa1
 62
     2
 48
0.075
100
AcDbLine
 10
70.05126199999999
 20
63.421425
 30
0.0
 11
67.929939
 21
65.54274699999999
 31
0.0
  0
LINE
  5
17D
330
2B
100
AcDbEntity
  8
Hawa1
 62
     2
 48
0.075
100
AcDbLine
 10
67.929939
 20
69.54280899999999
 30
0.0
 11
70.05126199999999
 21
67.421486
 31
0.0
  0
LINE
  5
17E
330
2B
100
AcDbEntity
  8
Hawa1
 62
     2
 48
0.389017
100
AcDbLine
 10
68.99060099999999
 20
52.921486
 30
0.0
 11
68.99060099999999
 21
68.48214699999999
 31
0.0
  0
ENDBLK
  5
17F
330
2B
100
AcDbEntity
  8
Hawa2
 62
     9
100
AcDbBlockEnd
  0
BLOCK
  5
180
330
2D
100
AcDbEntity
  8
Hawa2
 62
     9
100
AcDbBlockBegin
  2
*D4
 70
     1
 10
0.0
 20
0.0
 30
0.0
  3
*D4
  1

  0
TEXT
  5
181
330
2D
100
AcDbEntity
  8
Hawa1
 62
     2
100
AcDbText
 10
67.057152
 20
96.564346
 30
0.0
 40
3.5
  1
4
 50
90.0
 41
1.174709010989008
 72
     5
 11
67.057152
 21
99.236809
 31
0.0
100
AcDbText
  0
TEXT
  5
182
330
2D
100
AcDbEntity
  8
Hawa1
 62
     2
100
AcDbText
 10
64.95715
 20
103.361019
 30
0.0
 40
2.33345
  1
5
 50
90.0
 41
1.291060618467968
 72
     5
 11
64.95715
 21
105.14275
 31
0.0
100
AcDbText
  0
TEXT
  5
183
330
2D
100
AcDbEntity
  8
Hawa1
 62
     2
100
AcDbText
 10
67.990601
 20
102.236809
 30
0.0
 40
2.33345
  1
32
 50
90.0
 41
1.318353709796768
 72
     5
 11
67.990601
 21
106.26696
 31
0.0
100
AcDbText
  0
TEXT
  5
184
330
2D
100
AcDbEntity
  8
Hawa1
 62
     2
100
AcDbText
 10
66.182152
 20
106.26696
 30
0.0
 40
3.5
  1
"
 50
90.0
 41
1.629630476190471
 72
     5
 11
66.182152
 21
108.833628
 31
0.0
100
AcDbText
  0
TEXT
  5
185
330
2D
100
AcDbEntity
  8
Hawa1
 62
     2
100
AcDbText
 10
65.807152
 20
100.236809
 30
0.0
 40
1.0
  1
/
 50
90.0
 41
1.818181818181818
 72
     5
 11
65.807152
 21
101.236809
 31
0.0
100
AcDbText
  0
LINE
  5
186
330
2D
100
AcDbEntity
  8
Hawa1
 62
     2
 48
0.100754
100
AcDbLine
 10
65.307152
 20
102.236809
 30
0.0
 11
65.307152
 21
106.26696
 31
0.0
  0
LINE
  5
187
330
2D
100
AcDbEntity
  8
Hawa1
 62
     2
100
AcDbLine
 10
89.99060099999999
 20
91.482086
 30
0.0
 11
67.990601
 21
91.482086
 31
0.0
  0
LINE
  5
188
330
2D
100
AcDbEntity
  8
Hawa1
 62
     2
100
AcDbLine
 10
94.99060099999999
 20
95.48208199999999
 30
0.0
 11
67.990601
 21
95.48208199999999
 31
0.0
  0
LINE
  5
189
330
2D
100
AcDbEntity
  8
Hawa1
 62
     2
 48
0.075
100
AcDbLine
 10
67.929939
 20
96.542744
 30
0.0
 11
70.05126199999999
 21
94.42142099999999
 31
0.0
  0
LINE
  5
18A
330
2D
100
AcDbEntity
  8
Hawa1
 62
     2
 48
0.075
100
AcDbLine
 10
70.05126199999999
 20
90.421425
 30
0.0
 11
67.929939
 21
92.54274699999999
 31
0.0
  0
LINE
  5
18B
330
2D
100
AcDbEntity
  8
Hawa1
 62
     2
 48
0.4337890000000001
100
AcDbLine
 10
68.99060099999999
 20
91.482086
 30
0.0
 11
68.99060099999999
 21
108.833628
 31
0.0
  0
ENDBLK
  5
18C
330
2D
100
AcDbEntity
  8
Hawa2
 62
     9
100
AcDbBlockEnd
  0
BLOCK
  5
18D
330
2F
100
AcDbEntity
  8
Hawa2
 62
     9
100
AcDbBlockBegin
  2
*D5
 70
     1
 10
0.0
 20
0.0
 30
0.0
  3
*D5
  1

  0
TEXT
  5
18E
330
2F
100
AcDbEntity
  8
Hawa1
 62
     2
100
AcDbText
 10
67.057152
 20
128.545757
 30
0.0
 40
3.5
  1
4
 50
90.0
 41
1.174709010989008
 72
     5
 11
67.057152
 21
131.21822
 31
0.0
100
AcDbText
  0
TEXT
  5
18F
330
2F
100
AcDbEntity
  8
Hawa1
 62
     2
100
AcDbText
 10
64.95715
 20
135.342429
 30
0.0
 40
2.33345
  1
5
 50
90.0
 41
1.291060618467967
 72
     5
 11
64.95715
 21
137.12416
 31
0.0
100
AcDbText
  0
TEXT
  5
190
330
2F
100
AcDbEntity
  8
Hawa1
 62
     2
100
AcDbText
 10
67.990601
 20
134.218219
 30
0.0
 40
2.33345
  1
32
 50
90.0
 41
1.318353709796759
 72
     5
 11
67.990601
 21
138.24837
 31
0.0
100
AcDbText
  0
TEXT
  5
191
330
2F
100
AcDbEntity
  8
Hawa1
 62
     2
100
AcDbText
 10
66.182152
 20
138.24837
 30
0.0
 40
3.5
  1
"
 50
90.0
 41
1.629629841269856
 72
     5
 11
66.182152
 21
140.815037
 31
0.0
100
AcDbText
  0
TEXT
  5
192
330
2F
100
AcDbEntity
  8
Hawa1
 62
     2
100
AcDbText
 10
65.807152
 20
132.218219
 30
0.0
 40
1.0
  1
/
 50
90.0
 41
1.818181818181818
 72
     5
 11
65.807152
 21
133.218219
 31
0.0
100
AcDbText
  0
LINE
  5
193
330
2F
100
AcDbEntity
  8
Hawa1
 62
     2
 48
0.100754
100
AcDbLine
 10
65.307152
 20
134.218219
 30
0.0
 11
65.307152
 21
138.24837
 31
0.0
  0
LINE
  5
194
330
2F
100
AcDbEntity
  8
Hawa1
 62
     2
100
AcDbLine
 10
94.99060099999999
 20
140.482086
 30
0.0
 11
67.990601
 21
140.482086
 31
0.0
  0
LINE
  5
195
330
2F
100
AcDbEntity
  8
Hawa1
 62
     2
100
AcDbLine
 10
94.99060099999999
 20
144.482086
 30
0.0
 11
67.990601
 21
144.482086
 31
0.0
  0
LINE
  5
196
330
2F
100
AcDbEntity
  8
Hawa1
 62
     2
 48
0.075
100
AcDbLine
 10
70.05126199999999
 20
139.421426
 30
0.0
 11
67.929939
 21
141.542746
 31
0.0
  0
LINE
  5
197
330
2F
100
AcDbEntity
  8
Hawa1
 62
     2
 48
0.075
100
AcDbLine
 10
67.929939
 20
145.542747
 30
0.0
 11
70.05126199999999
 21
143.421426
 31
0.0
  0
LINE
  5
198
330
2F
100
AcDbEntity
  8
Hawa1
 62
     2
 48
0.398408
100
AcDbLine
 10
68.99060099999999
 20
128.545757
 30
0.0
 11
68.99060099999999
 21
144.482086
 31
0.0
  0
ENDBLK
  5
199
330
2F
100
AcDbEntity
  8
Hawa2
 62
     9
100
AcDbBlockEnd
  0
BLOCK
  5
19A
330
31
100
AcDbEntity
  8
Hawa2
 62
     9
100
AcDbBlockBegin
  2
*D6
 70
     1
 10
0.0
 20
0.0
 30
0.0
  3
*D6
  1

  0
TEXT
  5
19B
330
31
100
AcDbEntity
  8
Hawa1
 62
     2
100
AcDbText
 10
67.057152
 20
171.392422
 30
0.0
 40
3.5
  1
4
 50
90.0
 41
1.174708571428569
 72
     5
 11
67.057152
 21
174.064884
 31
0.0
100
AcDbText
  0
TEXT
  5
19C
330
31
100
AcDbEntity
  8
Hawa1
 62
     2
100
AcDbText
 10
64.95715
 20
178.189095
 30
0.0
 40
2.33345
  1
5
 50
90.0
 41
1.291059893857658
 72
     5
 11
64.95715
 21
179.970825
 31
0.0
100
AcDbText
  0
TEXT
  5
19D
330
31
100
AcDbEntity
  8
Hawa1
 62
     2
100
AcDbText
 10
67.990601
 20
177.064884
 30
0.0
 40
2.33345
  1
32
 50
90.0
 41
1.318354036919426
 72
     5
 11
67.990601
 21
181.095036
 31
0.0
100
AcDbText
  0
TEXT
  5
19E
330
31
100
AcDbEntity
  8
Hawa1
 62
     2
100
AcDbText
 10
66.182152
 20
181.095036
 30
0.0
 40
3.5
  1
"
 50
90.0
 41
1.629628571428553
 72
     5
 11
66.182152
 21
183.661701
 31
0.0
100
AcDbText
  0
TEXT
  5
19F
330
31
100
AcDbEntity
  8
Hawa1
 62
     2
100
AcDbText
 10
65.807152
 20
175.064884
 30
0.0
 40
1.0
  1
/
 50
90.0
 41
1.818181818181818
 72
     5
 11
65.807152
 21
176.064884
 31
0.0
100
AcDbText
  0
LINE
  5
1A0
330
31
100
AcDbEntity
  8
Hawa1
 62
     2
 48
0.100754
100
AcDbLine
 10
65.307152
 20
177.064884
 30
0.0
 11
65.307152
 21
181.095036
 31
0.0
  0
LINE
  5
1A1
330
31
100
AcDbEntity
  8
Hawa1
 62
     2
100
AcDbLine
 10
94.99060099999999
 20
165.482101
 30
0.0
 11
67.990601
 21
165.482101
 31
0.0
  0
LINE
  5
1A2
330
31
100
AcDbEntity
  8
Hawa1
 62
     2
100
AcDbLine
 10
94.99060099999999
 20
169.482086
 30
0.0
 11
67.990601
 21
169.482086
 31
0.0
  0
LINE
  5
1A3
330
31
100
AcDbEntity
  8
Hawa1
 62
     2
 48
0.075
100
AcDbLine
 10
67.929939
 20
170.542746
 30
0.0
 11
70.05126199999999
 21
168.421427
 31
0.0
  0
LINE
  5
1A4
330
31
100
AcDbEntity
  8
Hawa1
 62
     2
 48
0.075
100
AcDbLine
 10
70.05126199999999
 20
164.421442
 30
0.0
 11
67.929939
 21
166.542761
 31
0.0
  0
LINE
  5
1A5
330
31
100
AcDbEntity
  8
Hawa1
 62
     2
 48
0.45449
100
AcDbLine
 10
68.99060099999999
 20
165.482101
 30
0.0
 11
68.99060099999999
 21
183.661701
 31
0.0
  0
ENDBLK
  5
1A6
330
31
100
AcDbEntity
  8
Hawa2
 62
     9
100
AcDbBlockEnd
  0
BLOCK
  5
1A7
330
33
100
AcDbEntity
  8
Hawa2
 62
     9
100
AcDbBlockBegin
  2
*D7
 70
     1
 10
0.0
 20
0.0
 30
0.0
  3
*D7
  1

  0
TEXT
  5
1A8
330
33
100
AcDbEntity
  8
Hawa1
 62
     2
100
AcDbText
 10
67.057152
 20
236.107002
 30
0.0
 40
3.5
  1
4
 50
90.0
 41
1.174705494505488
 72
     5
 11
67.057152
 21
238.779457
 31
0.0
100
AcDbText
  0
TEXT
  5
1A9
330
33
100
AcDbEntity
  8
Hawa1
 62
     2
100
AcDbText
 10
64.95715
 20
242.903671
 30
0.0
 40
2.33345
  1
5
 50
90.0
 41
1.291054821585633
 72
     5
 11
64.95715
 21
244.685394
 31
0.0
100
AcDbText
  0
TEXT
  5
1AA
330
33
100
AcDbEntity
  8
Hawa1
 62
     2
100
AcDbText
 10
67.990601
 20
241.779457
 30
0.0
 40
2.33345
  1
32
 50
90.0
 41
1.318353709796768
 72
     5
 11
67.990601
 21
245.809608
 31
0.0
100
AcDbText
  0
TEXT
  5
1AB
330
33
100
AcDbEntity
  8
Hawa1
 62
     2
100
AcDbText
 10
66.182152
 20
245.809608
 30
0.0
 40
3.5
  1
"
 50
90.0
 41
1.629629206349223
 72
     5
 11
66.182152
 21
248.376274
 31
0.0
100
AcDbText
  0
TEXT
  5
1AC
330
33
100
AcDbEntity
  8
Hawa1
 62
     2
100
AcDbText
 10
65.807152
 20
239.779457
 30
0.0
 40
1.0
  1
/
 50
90.0
 41
1.818181818181818
 72
     5
 11
65.807152
 21
240.779457
 31
0.0
100
AcDbText
  0
LINE
  5
1AD
330
33
100
AcDbEntity
  8
Hawa1
 62
     2
 48
0.100754
100
AcDbLine
 10
65.307152
 20
241.779457
 30
0.0
 11
65.307152
 21
245.809608
 31
0.0
  0
LINE
  5
1AE
330
33
100
AcDbEntity
  8
Hawa1
 62
     2
100
AcDbLine
 10
94.99060099999999
 20
229.982101
 30
0.0
 11
67.990601
 21
229.982101
 31
0.0
  0
LINE
  5
1AF
330
33
100
AcDbEntity
  8
Hawa1
 62
     2
100
AcDbLine
 10
94.99060099999999
 20
233.982101
 30
0.0
 11
67.990601
 21
233.982101
 31
0.0
  0
LINE
  5
1B0
330
33
100
AcDbEntity
  8
Hawa1
 62
     2
 48
0.075
100
AcDbLine
 10
70.05126199999999
 20
228.92144
 30
0.0
 11
67.929939
 21
231.042763
 31
0.0
  0
LINE
  5
1B1
330
33
100
AcDbEntity
  8
Hawa1
 62
     2
 48
0.075
100
AcDbLine
 10
67.929939
 20
235.042763
 30
0.0
 11
70.05126199999999
 21
232.92144
 31
0.0
  0
LINE
  5
1B2
330
33
100
AcDbEntity
  8
Hawa1
 62
     2
 48
0.459854
100
AcDbLine
 10
68.99060099999999
 20
229.982101
 30
0.0
 11
68.99060099999999
 21
248.376274
 31
0.0
  0
ENDBLK
  5
1B3
330
33
100
AcDbEntity
  8
Hawa2
 62
     9
100
AcDbBlockEnd
  0
BLOCK
  5
1B4
330
35
100
AcDbEntity
  8
Hawa2
 62
     9
100
AcDbBlockBegin
  2
*D8
 70
     1
 10
0.0
 20
0.0
 30
0.0
  3
*D8
  1

  0
TEXT
  5
1B5
330
35
100
AcDbEntity
  8
Hawa1
 62
     2
100
AcDbText
 10
67.057152
 20
194.738346
 30
0.0
 40
3.5
  1
4
 50
90.0
 41
1.174709010989008
 72
     5
 11
67.057152
 21
197.410809
 31
0.0
100
AcDbText
  0
TEXT
  5
1B6
330
35
100
AcDbEntity
  8
Hawa1
 62
     2
100
AcDbText
 10
64.95715
 20
201.535019
 30
0.0
 40
2.33345
  1
5
 50
90.0
 41
1.291060618467968
 72
     5
 11
64.95715
 21
203.31675
 31
0.0
100
AcDbText
  0
TEXT
  5
1B7
330
35
100
AcDbEntity
  8
Hawa1
 62
     2
100
AcDbText
 10
67.990601
 20
200.410809
 30
0.0
 40
2.33345
  1
32
 50
90.0
 41
1.318352401306128
 72
     5
 11
67.990601
 21
204.440956
 31
0.0
100
AcDbText
  0
TEXT
  5
1B8
330
35
100
AcDbEntity
  8
Hawa1
 62
     2
100
AcDbText
 10
66.182152
 20
204.440956
 30
0.0
 40
3.5
  1
"
 50
90.0
 41
1.629629206349205
 72
     5
 11
66.182152
 21
207.007622
 31
0.0
100
AcDbText
  0
TEXT
  5
1B9
330
35
100
AcDbEntity
  8
Hawa1
 62
     2
100
AcDbText
 10
65.807152
 20
198.410809
 30
0.0
 40
1.0
  1
/
 50
90.0
 41
1.818181818181818
 72
     5
 11
65.807152
 21
199.410809
 31
0.0
100
AcDbText
  0
LINE
  5
1BA
330
35
100
AcDbEntity
  8
Hawa1
 62
     2
 48
0.100754
100
AcDbLine
 10
65.307152
 20
200.410809
 30
0.0
 11
65.307152
 21
204.440956
 31
0.0
  0
LINE
  5
1BB
330
35
100
AcDbEntity
  8
Hawa1
 62
     2
100
AcDbLine
 10
94.99060099999999
 20
207.982101
 30
0.0
 11
67.990601
 21
207.982101
 31
0.0
  0
LINE
  5
1BC
330
35
100
AcDbEntity
  8
Hawa1
 62
     2
100
AcDbLine
 10
89.99060099999999
 20
211.982101
 30
0.0
 11
67.990601
 21
211.982101
 31
0.0
  0
LINE
  5
1BD
330
35
100
AcDbEntity
  8
Hawa1
 62
     2
 48
0.075
100
AcDbLine
 10
67.929939
 20
213.042763
 30
0.0
 11
70.05126199999999
 21
210.92144
 31
0.0
  0
LINE
  5
1BE
330
35
100
AcDbEntity
  8
Hawa1
 62
     2
 48
0.075
100
AcDbLine
 10
70.05126199999999
 20
206.92144
 30
0.0
 11
67.929939
 21
209.042763
 31
0.0
  0
LINE
  5
1BF
330
35
100
AcDbEntity
  8
Hawa1
 62
     2
 48
0.431094
100
AcDbLine
 10
68.99060099999999
 20
194.738346
 30
0.0
 11
68.99060099999999
 21
211.982101
 31
0.0
  0
ENDBLK
  5
1C0
330
35
100
AcDbEntity
  8
Hawa2
 62
     9
100
AcDbBlockEnd
  0
BLOCK
  5
1C1
330
37
100
AcDbEntity
  8
Hawa2
 62
     9
100
AcDbBlockBegin
  2
*D9
 70
     1
 10
0.0
 20
0.0
 30
0.0
  3
*D9
  1

  0
TEXT
  5
1C2
330
37
100
AcDbEntity
  8
Hawa1
 62
     2
100
AcDbText
 10
46.518135
 20
69.512489
 30
0.0
 40
3.5
  1
50
 50
90.0
 41
1.380826645082962
 72
     5
 11
46.518135
 21
75.557411
 31
0.0
100
AcDbText
  0
TEXT
  5
1C3
330
37
100
AcDbEntity
  8
Hawa1
 62
     2
100
AcDbText
 10
45.268135
 20
76.55740699999999
 30
0.0
 40
1.0
  1
/
 50
90.0
 41
1.818181818181818
 72
     5
 11
45.268135
 21
77.557407
 31
0.0
100
AcDbText
  0
TEXT
  5
1C4
330
37
100
AcDbEntity
  8
Hawa1
 62
     2
100
AcDbText
 10
46.518135
 20
78.557407
 30
0.0
 40
3.5
  1
1
 50
90.0
 41
2.181602448979586
 72
     5
 11
46.518135
 21
81.22987
 31
0.0
100
AcDbText
  0
TEXT
  5
1C5
330
37
100
AcDbEntity
  8
Hawa1
 62
     2
100
AcDbText
 10
44.41813699999999
 20
83.85486999999999
 30
0.0
 40
2.33345
  1
31
 50
90.0
 41
1.644877347969337
 72
     5
 11
44.41813699999999
 21
87.885021
 31
0.0
100
AcDbText
  0
TEXT
  5
1C6
330
37
100
AcDbEntity
  8
Hawa1
 62
     2
100
AcDbText
 10
47.451584
 20
83.85486999999999
 30
0.0
 40
2.33345
  1
32
 50
90.0
 41
1.318353709796763
 72
     5
 11
47.451584
 21
87.885021
 31
0.0
100
AcDbText
  0
TEXT
  5
1C7
330
37
100
AcDbEntity
  8
Hawa1
 62
     2
100
AcDbText
 10
45.64313499999999
 20
87.885021
 30
0.0
 40
3.5
  1
"
 50
90.0
 41
1.629629206349204
 72
     5
 11
45.64313499999999
 21
90.45168699999999
 31
0.0
100
AcDbText
  0
LINE
  5
1C8
330
37
100
AcDbEntity
  8
Hawa1
 62
     2
 48
0.100754
100
AcDbLine
 10
44.768135
 20
83.85486999999999
 30
0.0
 11
44.768135
 21
87.885021
 31
0.0
  0
LINE
  5
1C9
330
37
100
AcDbEntity
  8
Hawa1
 62
     2
 48
0.378603
100
AcDbLine
 10
62.595703
 20
54.98208599999999
 30
0.0
 11
47.451584
 21
54.98208599999999
 31
0.0
  0
LINE
  5
1CA
330
37
100
AcDbEntity
  8
Hawa1
 62
     2
 48
0.330727
100
AcDbLine
 10
60.680679
 20
104.982086
 30
0.0
 11
47.451584
 21
104.982086
 31
0.0
  0
LINE
  5
1CB
330
37
100
AcDbEntity
  8
Hawa1
 62
     2
 48
0.075
100
AcDbLine
 10
47.390923
 20
56.042747
 30
0.0
 11
49.512245
 21
53.921425
 31
0.0
  0
LINE
  5
1CC
330
37
100
AcDbEntity
  8
Hawa1
 62
     2
 48
0.075
100
AcDbLine
 10
49.512245
 20
103.921425
 30
0.0
 11
47.390923
 21
106.042747
 31
0.0
  0
LINE
  5
1CD
330
37
100
AcDbEntity
  8
Hawa1
 62
     2
100
AcDbLine
 10
48.451584
 20
54.98208599999999
 30
0.0
 11
48.451584
 21
104.982086
 31
0.0
  0
ENDBLK
  5
1CE
330
37
100
AcDbEntity
  8
Hawa2
 62
     9
100
AcDbBlockEnd
  0
BLOCK
  5
1CF
330
39
100
AcDbEntity
  8
Hawa2
 62
     9
100
AcDbBlockBegin
  2
*D10
 70
     1
 10
0.0
 20
0.0
 30
0.0
  3
*D10
  1

  0
TEXT
  5
1D0
330
39
100
AcDbEntity
  8
Hawa1
 62
     2
100
AcDbText
 10
46.518135
 20
142.379085
 30
0.0
 40
3.5
  1
40
 50
90.0
 41
1.278603024524297
 72
     5
 11
46.518135
 21
148.424008
 31
0.0
100
AcDbText
  0
TEXT
  5
1D1
330
39
100
AcDbEntity
  8
Hawa1
 62
     2
100
AcDbText
 10
45.268135
 20
149.424008
 30
0.0
 40
1.0
  1
/
 50
90.0
 41
1.818181818181818
 72
     5
 11
45.268135
 21
150.424008
 31
0.0
100
AcDbText
  0
TEXT
  5
1D2
330
39
100
AcDbEntity
  8
Hawa1
 62
     2
100
AcDbText
 10
46.518135
 20
151.424008
 30
0.0
 40
3.5
  1
1
 50
90.0
 41
2.181602448979586
 72
     5
 11
46.518135
 21
154.096471
 31
0.0
100
AcDbText
  0
TEXT
  5
1D3
330
39
100
AcDbEntity
  8
Hawa1
 62
     2
100
AcDbText
 10
44.41813699999999
 20
157.84568
 30
0.0
 40
2.33345
  1
9
 50
90.0
 41
1.228392587362947
 72
     5
 11
44.41813699999999
 21
159.627411
 31
0.0
100
AcDbText
  0
TEXT
  5
1D4
330
39
100
AcDbEntity
  8
Hawa1
 62
     2
100
AcDbText
 10
47.451584
 20
156.72147
 30
0.0
 40
2.33345
  1
16
 50
90.0
 41
1.570672354827868
 72
     5
 11
47.451584
 21
160.751621
 31
0.0
100
AcDbText
  0
TEXT
  5
1D5
330
39
100
AcDbEntity
  8
Hawa1
 62
     2
100
AcDbText
 10
45.64313499999999
 20
160.751621
 30
0.0
 40
3.5
  1
"
 50
90.0
 41
1.629629206349205
 72
     5
 11
45.64313499999999
 21
163.318287
 31
0.0
100
AcDbText
  0
LINE
  5
1D6
330
39
100
AcDbEntity
  8
Hawa1
 62
     2
 48
0.100754
100
AcDbLine
 10
44.768135
 20
156.72147
 30
0.0
 11
44.768135
 21
160.751621
 31
0.0
  0
LINE
  5
1D7
330
39
100
AcDbEntity
  8
Hawa1
 62
     2
 48
0.339693
100
AcDbLine
 10
61.039322
 20
134.982056
 30
0.0
 11
47.451584
 21
134.982056
 31
0.0
  0
LINE
  5
1D8
330
39
100
AcDbEntity
  8
Hawa1
 62
     2
 48
0.350428
100
AcDbLine
 10
61.46871899999999
 20
174.982086
 30
0.0
 11
47.451584
 21
174.982086
 31
0.0
  0
LINE
  5
1D9
330
39
100
AcDbEntity
  8
Hawa1
 62
     2
 48
0.075
100
AcDbLine
 10
47.390923
 20
136.042716
 30
0.0
 11
49.512245
 21
133.921395
 31
0.0
  0
LINE
  5
1DA
330
39
100
AcDbEntity
  8
Hawa1
 62
     2
 48
0.075
100
AcDbLine
 10
49.512245
 20
173.921425
 30
0.0
 11
47.390923
 21
176.042747
 31
0.0
  0
LINE
  5
1DB
330
39
100
AcDbEntity
  8
Hawa1
 62
     2
100
AcDbLine
 10
48.451584
 20
134.982056
 30
0.0
 11
48.451584
 21
174.982086
 31
0.0
  0
ENDBLK
  5
1DC
330
39
100
AcDbEntity
  8
Hawa2
 62
     9
100
AcDbBlockEnd
  0
BLOCK
  5
1DD
330
3B
100
AcDbEntity
  8
Hawa2
 62
     9
100
AcDbBlockBegin
  2
*D11
 70
     1
 10
0.0
 20
0.0
 30
0.0
  3
*D11
  1

  0
TEXT
  5
1DE
330
3B
100
AcDbEntity
  8
Hawa1
 62
     2
100
AcDbText
 10
46.518135
 20
210.512505
 30
0.0
 40
3.5
  1
36
 50
90.0
 41
1.328956536114594
 72
     5
 11
46.518135
 21
216.557426
 31
0.0
100
AcDbText
  0
TEXT
  5
1DF
330
3B
100
AcDbEntity
  8
Hawa1
 62
     2
100
AcDbText
 10
45.268135
 20
217.557426
 30
0.0
 40
1.0
  1
/
 50
90.0
 41
1.818181818181818
 72
     5
 11
45.268135
 21
218.557426
 31
0.0
100
AcDbText
  0
TEXT
  5
1E0
330
3B
100
AcDbEntity
  8
Hawa1
 62
     2
100
AcDbText
 10
46.518135
 20
219.557426
 30
0.0
 40
3.5
  1
1
 50
90.0
 41
2.18159591836738
 72
     5
 11
46.518135
 21
222.229881
 31
0.0
100
AcDbText
  0
TEXT
  5
1E1
330
3B
100
AcDbEntity
  8
Hawa1
 62
     2
100
AcDbText
 10
44.41813699999999
 20
224.854889
 30
0.0
 40
2.33345
  1
13
 50
90.0
 41
1.582451365366417
 72
     5
 11
44.41813699999999
 21
228.88504
 31
0.0
100
AcDbText
  0
TEXT
  5
1E2
330
3B
100
AcDbEntity
  8
Hawa1
 62
     2
100
AcDbText
 10
47.451584
 20
224.854889
 30
0.0
 40
2.33345
  1
32
 50
90.0
 41
1.318353709796759
 72
     5
 11
47.451584
 21
228.88504
 31
0.0
100
AcDbText
  0
TEXT
  5
1E3
330
3B
100
AcDbEntity
  8
Hawa1
 62
     2
100
AcDbText
 10
45.64313499999999
 20
228.88504
 30
0.0
 40
3.5
  1
"
 50
90.0
 41
1.629629206349205
 72
     5
 11
45.64313499999999
 21
231.451706
 31
0.0
100
AcDbText
  0
LINE
  5
1E4
330
3B
100
AcDbEntity
  8
Hawa1
 62
     2
 48
0.100754
100
AcDbLine
 10
44.768135
 20
224.854889
 30
0.0
 11
44.768135
 21
228.885033
 31
0.0
  0
LINE
  5
1E5
330
3B
100
AcDbEntity
  8
Hawa1
 62
     2
 48
0.339807
100
AcDbLine
 10
61.043854
 20
202.982101
 30
0.0
 11
47.451584
 21
202.982101
 31
0.0
  0
LINE
  5
1E6
330
3B
100
AcDbEntity
  8
Hawa1
 62
     2
 48
0.354852
100
AcDbLine
 10
61.645653
 20
238.982101
 30
0.0
 11
47.451584
 21
238.982101
 31
0.0
  0
LINE
  5
1E7
330
3B
100
AcDbEntity
  8
Hawa1
 62
     2
 48
0.075
100
AcDbLine
 10
47.390923
 20
204.042763
 30
0.0
 11
49.512245
 21
201.92144
 31
0.0
  0
LINE
  5
1E8
330
3B
100
AcDbEntity
  8
Hawa1
 62
     2
 48
0.075
100
AcDbLine
 10
49.512245
 20
237.92144
 30
0.0
 11
47.390923
 21
240.042763
 31
0.0
  0
LINE
  5
1E9
330
3B
100
AcDbEntity
  8
Hawa1
 62
     2
100
AcDbLine
 10
48.451584
 20
202.982101
 30
0.0
 11
48.451584
 21
238.982101
 31
0.0
  0
ENDBLK
  5
1EA
330
3B
100
AcDbEntity
  8
Hawa2
 62
     9
100
AcDbBlockEnd
  0
BLOCK
  5
1EB
330
3D
100
AcDbEntity
  8
Hawa2
 62
     9
100
AcDbBlockBegin
  2
*D12
 70
     1
 10
0.0
 20
0.0
 30
0.0
  3
*D12
  1

  0
TEXT
  5
1EC
330
3D
100
AcDbEntity
  8
Hawa1
 62
     2
100
AcDbText
 10
92.59277299999999
 20
119.821299
 30
0.0
 40
3.5
  1
7
 41
1.388292467532471
 72
     5
 11
95.265236
 21
119.821299
 31
0.0
100
AcDbText
  0
TEXT
  5
1ED
330
3D
100
AcDbEntity
  8
Hawa1
 62
     2
100
AcDbText
 10
99.38944800000001
 20
121.921297
 30
0.0
 40
2.33345
  1
9
 41
1.228392587362948
 72
     5
 11
101.171179
 21
121.921297
 31
0.0
100
AcDbText
  0
TEXT
  5
1EE
330
3D
100
AcDbEntity
  8
Hawa1
 62
     2
100
AcDbText
 10
98.265238
 20
118.887848
 30
0.0
 40
2.33345
  1
32
 41
1.318353709796764
 72
     5
 11
102.295389
 21
118.887848
 31
0.0
100
AcDbText
  0
TEXT
  5
1EF
330
3D
100
AcDbEntity
  8
Hawa1
 62
     2
100
AcDbText
 10
102.295389
 20
120.696299
 30
0.0
 40
3.5
  1
"
 41
1.629629206349205
 72
     5
 11
104.862055
 21
120.696299
 31
0.0
100
AcDbText
  0
TEXT
  5
1F0
330
3D
100
AcDbEntity
  8
Hawa1
 62
     2
100
AcDbText
 10
96.26523800000001
 20
121.071299
 30
0.0
 40
1.0
  1
/
 41
1.818181818181818
 72
     5
 11
97.265238
 21
121.071299
 31
0.0
100
AcDbText
  0
LINE
  5
1F1
330
3D
100
AcDbEntity
  8
Hawa1
 62
     2
 48
0.100754
100
AcDbLine
 10
98.265238
 20
121.571299
 30
0.0
 11
102.295387
 21
121.571299
 31
0.0
  0
LINE
  5
1F2
330
3D
100
AcDbEntity
  8
Hawa1
 62
     2
100
AcDbLine
 10
82.99053599999998
 20
79.98209
 30
0.0
 11
82.99053599999998
 21
118.887848
 31
0.0
  0
LINE
  5
1F3
330
3D
100
AcDbEntity
  8
Hawa1
 62
     2
 48
0.472644
100
AcDbLine
 10
89.99060099999999
 20
99.98208599999999
 30
0.0
 11
89.99060099999999
 21
118.887848
 31
0.0
  0
LINE
  5
1F4
330
3D
100
AcDbEntity
  8
Hawa1
 62
     2
 48
0.075
100
AcDbLine
 10
91.05126199999999
 20
118.948507
 30
0.0
 11
88.929939
 21
116.827188
 31
0.0
  0
LINE
  5
1F5
330
3D
100
AcDbEntity
  8
Hawa1
 62
     2
 48
0.075
100
AcDbLine
 10
81.92987399999999
 20
116.827188
 30
0.0
 11
84.051197
 21
118.948507
 31
0.0
  0
LINE
  5
1F6
330
3D
100
AcDbEntity
  8
Hawa1
 62
     2
100
AcDbLine
 10
82.99053599999998
 20
117.887848
 30
0.0
 11
104.862055
 21
117.887848
 31
0.0
  0
ENDBLK
  5
1F7
330
3D
100
AcDbEntity
  8
Hawa2
 62
     9
100
AcDbBlockEnd
  0
BLOCK
  5
1F8
330
3F
100
AcDbEntity
  8
Hawa2
 62
     9
100
AcDbBlockBegin
  2
*D13
 70
     1
 10
0.0
 20
0.0
 30
0.0
  3
*D13
  1

  0
TEXT
  5
1F9
330
3F
100
AcDbEntity
  8
Hawa1
 62
     2
100
AcDbText
 10
92.643406
 20
189.577187
 30
0.0
 40
3.5
  1
8
 41
1.388291948051953
 72
     5
 11
95.31586800000001
 21
189.577187
 31
0.0
100
AcDbText
  0
TEXT
  5
1FA
330
3F
100
AcDbEntity
  8
Hawa1
 62
     2
100
AcDbText
 10
99.440079
 20
191.677189
 30
0.0
 40
2.33345
  1
5
 41
1.291059893857668
 72
     5
 11
101.221809
 21
191.677189
 31
0.0
100
AcDbText
  0
TEXT
  5
1FB
330
3F
100
AcDbEntity
  8
Hawa1
 62
     2
100
AcDbText
 10
98.31586800000001
 20
188.643738
 30
0.0
 40
2.33345
  1
16
 41
1.570672744558255
 72
     5
 11
102.34602
 21
188.643738
 31
0.0
100
AcDbText
  0
TEXT
  5
1FC
330
3F
100
AcDbEntity
  8
Hawa1
 62
     2
100
AcDbText
 10
102.34602
 20
190.452187
 30
0.0
 40
3.5
  1
"
 41
1.62962857142858
 72
     5
 11
104.912685
 21
190.452187
 31
0.0
100
AcDbText
  0
TEXT
  5
1FD
330
3F
100
AcDbEntity
  8
Hawa1
 62
     2
100
AcDbText
 10
96.315868
 20
190.827187
 30
0.0
 40
1.0
  1
/
 41
1.818181818181818
 72
     5
 11
97.31586800000002
 21
190.827187
 31
0.0
100
AcDbText
  0
LINE
  5
1FE
330
3F
100
AcDbEntity
  8
Hawa1
 62
     2
 48
0.100754
100
AcDbLine
 10
98.31586800000001
 20
191.327187
 30
0.0
 11
102.346018
 21
191.327187
 31
0.0
  0
LINE
  5
1FF
330
3F
100
AcDbEntity
  8
Hawa1
 62
     2
100
AcDbLine
 10
81.99054
 20
153.738152
 30
0.0
 11
81.99054
 21
188.643738
 31
0.0
  0
LINE
  5
200
330
3F
100
AcDbEntity
  8
Hawa1
 62
     2
 48
0.466541
100
AcDbLine
 10
89.99060099999999
 20
169.982086
 30
0.0
 11
89.99060099999999
 21
188.643738
 31
0.0
  0
LINE
  5
201
330
3F
100
AcDbEntity
  8
Hawa1
 62
     2
 48
0.075
100
AcDbLine
 10
91.05126199999999
 20
188.704399
 30
0.0
 11
88.929939
 21
186.583076
 31
0.0
  0
LINE
  5
202
330
3F
100
AcDbEntity
  8
Hawa1
 62
     2
 48
0.075
100
AcDbLine
 10
80.92987800000001
 20
186.583076
 30
0.0
 11
83.05120100000001
 21
188.704399
 31
0.0
  0
LINE
  5
203
330
3F
100
AcDbEntity
  8
Hawa1
 62
     2
100
AcDbLine
 10
81.99054
 20
187.643738
 30
0.0
 11
104.912685
 21
187.643738
 31
0.0
  0
ENDBLK
  5
204
330
3F
100
AcDbEntity
  8
Hawa2
 62
     9
100
AcDbBlockEnd
  0
BLOCK
  5
205
330
41
100
AcDbEntity
  8
Hawa2
 62
     9
100
AcDbBlockBegin
  2
*D14
 70
     1
 10
0.0
 20
0.0
 30
0.0
  3
*D14
  1

  0
TEXT
  5
206
330
41
100
AcDbEntity
  8
Hawa1
 62
     2
100
AcDbText
 10
76.66973099999999
 20
253.333099
 30
0.0
 40
3.5
  1
11
 41
2.031906554621848
 72
     5
 11
82.714653
 21
253.333099
 31
0.0
100
AcDbText
  0
TEXT
  5
207
330
41
100
AcDbEntity
  8
Hawa1
 62
     2
100
AcDbText
 10
86.83886300000001
 20
255.433098
 30
0.0
 40
2.33345
  1
7
 41
1.388292403561634
 72
     5
 11
88.62059399999999
 21
255.433098
 31
0.0
100
AcDbText
  0
TEXT
  5
208
330
41
100
AcDbEntity
  8
Hawa1
 62
     2
100
AcDbText
 10
85.71465299999999
 20
252.399651
 30
0.0
 40
2.33345
  1
16
 41
1.570672354827863
 72
     5
 11
89.744804
 21
252.399651
 31
0.0
100
AcDbText
  0
TEXT
  5
209
330
41
100
AcDbEntity
  8
Hawa1
 62
     2
100
AcDbText
 10
89.744804
 20
254.208099
 30
0.0
 40
3.5
  1
"
 41
1.629629206349205
 72
     5
 11
92.31146999999999
 21
254.208099
 31
0.0
100
AcDbText
  0
TEXT
  5
20A
330
41
100
AcDbEntity
  8
Hawa1
 62
     2
100
AcDbText
 10
83.714653
 20
254.583099
 30
0.0
 40
1.0
  1
/
 41
1.818181818181818
 72
     5
 11
84.714653
 21
254.583099
 31
0.0
100
AcDbText
  0
LINE
  5
20B
330
41
100
AcDbEntity
  8
Hawa1
 62
     2
 48
0.100754
100
AcDbLine
 10
85.71465299999999
 20
255.0830990000001
 30
0.0
 11
89.744804
 21
255.0830990000001
 31
0.0
  0
LINE
  5
20C
330
41
100
AcDbEntity
  8
Hawa1
 62
     2
100
AcDbLine
 10
78.99060099999999
 20
220.982086
 30
0.0
 11
78.99060099999999
 21
252.399651
 31
0.0
  0
LINE
  5
20D
330
41
100
AcDbEntity
  8
Hawa1
 62
     2
 48
0.335439
100
AcDbLine
 10
89.99060099999999
 20
238.982101
 30
0.0
 11
89.99060099999999
 21
252.399651
 31
0.0
  0
LINE
  5
20E
330
41
100
AcDbEntity
  8
Hawa1
 62
     2
 48
0.075
100
AcDbLine
 10
91.05126199999999
 20
252.460312
 30
0.0
 11
88.929939
 21
250.338989
 31
0.0
  0
LINE
  5
20F
330
41
100
AcDbEntity
  8
Hawa1
 62
     2
 48
0.075
100
AcDbLine
 10
77.929939
 20
250.338989
 30
0.0
 11
80.05126199999999
 21
252.460312
 31
0.0
  0
LINE
  5
210
330
41
100
AcDbEntity
  8
Hawa1
 62
     2
 48
0.391043
100
AcDbLine
 10
76.66973099999999
 20
251.399651
 30
0.0
 11
92.31146999999999
 21
251.399651
 31
0.0
  0
ENDBLK
  5
211
330
41
100
AcDbEntity
  8
Hawa2
 62
     9
100
AcDbBlockEnd
  0
BLOCK
  5
212
330
43
100
AcDbEntity
  8
Hawa2
 62
     9
100
AcDbBlockBegin
  2
*D15
 70
     1
 10
0.0
 20
0.0
 30
0.0
  3
*D15
  1

  0
TEXT
  5
213
330
43
100
AcDbEntity
  8
Hawa1
 62
     2
100
AcDbText
 10
100.612278
 20
253.333099
 30
0.0
 40
3.5
  1
8
 41
1.388291948051945
 72
     5
 11
103.28474
 21
253.333099
 31
0.0
100
AcDbText
  0
TEXT
  5
214
330
43
100
AcDbEntity
  8
Hawa1
 62
     2
100
AcDbText
 10
107.408951
 20
255.433098
 30
0.0
 40
2.33345
  1
5
 41
1.291059893857678
 72
     5
 11
109.190681
 21
255.433098
 31
0.0
100
AcDbText
  0
TEXT
  5
215
330
43
100
AcDbEntity
  8
Hawa1
 62
     2
100
AcDbText
 10
106.28474
 20
252.399651
 30
0.0
 40
2.33345
  1
16
 41
1.57067274455826
 72
     5
 11
110.314892
 21
252.399651
 31
0.0
100
AcDbText
  0
TEXT
  5
216
330
43
100
AcDbEntity
  8
Hawa1
 62
     2
100
AcDbText
 10
110.31489
 20
254.208099
 30
0.0
 40
3.5
  1
"
 41
1.629629841269847
 72
     5
 11
112.881557
 21
254.208099
 31
0.0
100
AcDbText
  0
TEXT
  5
217
330
43
100
AcDbEntity
  8
Hawa1
 62
     2
100
AcDbText
 10
104.28474
 20
254.583099
 30
0.0
 40
1.0
  1
/
 41
1.818181818181792
 72
     5
 11
105.28474
 21
254.583099
 31
0.0
100
AcDbText
  0
LINE
  5
218
330
43
100
AcDbEntity
  8
Hawa1
 62
     2
 48
0.100754
100
AcDbLine
 10
106.28474
 20
255.0830990000001
 30
0.0
 11
110.314891
 21
255.0830990000001
 31
0.0
  0
LINE
  5
219
330
43
100
AcDbEntity
  8
Hawa1
 62
     2
 48
0.335439
100
AcDbLine
 10
89.99060099999999
 20
238.982101
 30
0.0
 11
89.99060099999999
 21
252.399651
 31
0.0
  0
LINE
  5
21A
330
43
100
AcDbEntity
  8
Hawa1
 62
     2
 48
0.4604390000000001
100
AcDbLine
 10
97.99053999999999
 20
233.982101
 30
0.0
 11
97.99053999999999
 21
252.399651
 31
0.0
  0
LINE
  5
21B
330
43
100
AcDbEntity
  8
Hawa1
 62
     2
 48
0.075
100
AcDbLine
 10
99.051199
 20
252.460312
 30
0.0
 11
96.92988000000001
 21
250.338989
 31
0.0
  0
LINE
  5
21C
330
43
100
AcDbEntity
  8
Hawa1
 62
     2
 48
0.075
100
AcDbLine
 10
88.929939
 20
250.338989
 30
0.0
 11
91.05126199999999
 21
252.460312
 31
0.0
  0
LINE
  5
21D
330
43
100
AcDbEntity
  8
Hawa1
 62
     2
100
AcDbLine
 10
89.99060099999999
 20
251.399651
 30
0.0
 11
112.881557
 21
251.399651
 31
0.0
  0
ENDBLK
  5
21E
330
43
100
AcDbEntity
  8
Hawa2
 62
     9
100
AcDbBlockEnd
  0
BLOCK
  5
21F
330
149
100
AcDbEntity
  8
Hawa2
 62
     9
100
AcDbBlockBegin
  2
BLOCK0
 70
     0
 10
0.0
 20
0.0
 30
0.0
  3
BLOCK0
  1

  0
LINE
  5
220
330
149
100
AcDbEntity
  8
Hawa2
 62
     9
 48
0.002714
100
AcDbLine
 10
-36.386272
 20
-78.81268299999999
 30
0.0
 11
-36.309502
 21
-78.73590899999999
 31
0.0
  0
LINE
  5
221
330
149
100
AcDbEntity
  8
Hawa2
 62
     9
 48
0.022153
100
AcDbLine
 10
-32.10022700000001
 20
-74.526634
 30
0.0
 11
-31.47364
 21
-73.900047
 31
0.0
  0
LINE
  5
222
330
149
100
AcDbEntity
  8
Hawa2
 62
     9
 48
0.068643
100
AcDbLine
 10
-31.251076
 20
-73.67748299999999
 30
0.0
 11
-29.309555
 21
-71.735962
 31
0.0
  0
LINE
  5
223
330
149
100
AcDbEntity
  8
Hawa2
 62
     9
 48
0.029575
100
AcDbLine
 10
-37.49176
 20
-77.089745
 30
0.0
 11
-36.655266
 21
-76.253242
 31
0.0
  0
LINE
  5
224
330
149
100
AcDbEntity
  8
Hawa2
 62
     9
 48
0.016438
100
AcDbLine
 10
-35.279514
 20
-74.87749499999999
 30
0.0
 11
-34.81459
 21
-74.41256700000001
 31
0.0
  0
LINE
  5
225
330
149
100
AcDbEntity
  8
Hawa2
 62
     9
 48
0.004864
100
AcDbLine
 10
-34.559639
 20
-74.157616
 30
0.0
 11
-34.42205
 21
-74.020027
 31
0.0
  0
LINE
  5
226
330
149
100
AcDbEntity
  8
Hawa2
 62
     9
 48
0.075482
100
AcDbLine
 10
-34.079456
 20
-73.677437
 30
0.0
 11
-31.944498
 21
-71.54247999999999
 31
0.0
  0
LINE
  5
227
330
149
100
AcDbEntity
  8
Hawa2
 62
     9
 48
0.00106
100
AcDbLine
 10
-31.309494
 20
-70.907471
 30
0.0
 11
-31.27951400000001
 21
-70.877495
 31
0.0
  0
LINE
  5
228
330
149
100
AcDbEntity
  8
Hawa2
 62
     9
 48
0.124568
100
AcDbLine
 10
-38.13205300000001
 20
-74.901604
 30
0.0
 11
-34.608734
 21
-71.378288
 31
0.0
  0
LINE
  5
229
330
149
100
AcDbEntity
  8
Hawa2
 62
     9
 48
0.087075
100
AcDbLine
 10
-38.772343
 20
-72.71347
 30
0.0
 11
-36.309494
 21
-70.250618
 31
0.0
  0
LINE
  5
22A
330
149
100
AcDbEntity
  8
Hawa2
 62
     9
 48
0.076393
100
AcDbLine
 10
-39.495895
 20
-70.608597
 30
0.0
 11
-37.33517800000001
 21
-68.447876
 31
0.0
  0
LINE
  5
22B
330
149
100
AcDbEntity
  8
Hawa2
 62
     9
 48
0.063604
100
AcDbLine
 10
-40.498871
 20
-68.783142
 30
0.0
 11
-38.699886
 21
-66.984154
 31
0.0
  0
LINE
  5
22C
330
149
100
AcDbEntity
  8
Hawa2
 62
     9
 48
0.050337
100
AcDbLine
 10
-41.468327
 20
-66.924171
 30
0.0
 11
-40.04458999999999
 21
-65.500435
 31
0.0
  0
LINE
  5
22D
330
149
100
AcDbEntity
  8
Hawa2
 62
     9
 48
0.043437
100
AcDbLine
 10
-42.32999399999999
 20
-64.957413
 30
0.0
 11
-41.101402
 21
-63.728817
 31
0.0
  0
LINE
  5
22E
330
149
100
AcDbEntity
  8
Hawa2
 62
     9
 48
0.045734
100
AcDbLine
 10
-42.88668799999999
 20
-62.68568000000001
 30
0.0
 11
-41.593143
 21
-61.392136
 31
0.0
  0
LINE
  5
22F
330
149
100
AcDbEntity
  8
Hawa2
 62
     9
 48
0.05111
100
AcDbLine
 10
-43.18327299999999
 20
-60.153835
 30
0.0
 11
-41.737659
 21
-58.708225
 31
0.0
  0
LINE
  5
230
330
149
100
AcDbEntity
  8
Hawa2
 62
     9
 48
0.056445
100
AcDbLine
 10
-30.906933
 20
-47.877495
 30
0.0
 11
-29.310431
 21
-46.28099399999999
 31
0.0
  0
LINE
  5
231
330
149
100
AcDbEntity
  8
Hawa2
 62
     9
 48
0.069283
100
AcDbLine
 10
-43.18327
 20
-57.325405
 30
0.0
 11
-41.223663
 21
-55.36579899999999
 31
0.0
  0
LINE
  5
232
330
149
100
AcDbEntity
  8
Hawa2
 62
     9
 48
0.098996
100
AcDbLine
 10
-33.735359
 20
-47.877495
 30
0.0
 11
-30.935316
 21
-45.077454
 31
0.0
  0
LINE
  5
233
330
149
100
AcDbEntity
  8
Hawa2
 62
     9
 48
0.025633
100
AcDbLine
 10
-30.812965
 20
-44.95510099999999
 30
0.0
 11
-30.087957
 21
-44.23009099999999
 31
0.0
  0
LINE
  5
234
330
149
100
AcDbEntity
  8
Hawa2
 62
     9
 48
0.301097
100
AcDbLine
 10
-42.28005999999999
 20
-53.59376899999999
 30
0.0
 11
-33.763744
 21
-45.07744999999999
 31
0.0
  0
LINE
  5
235
330
149
100
AcDbEntity
  8
Hawa2
 62
     9
 48
0.024959
100
AcDbLine
 10
-33.55159
 20
-44.86529899999999
 30
0.0
 11
-32.845638
 21
-44.159348
 31
0.0
  0
LINE
  5
236
330
149
100
AcDbEntity
  8
Hawa2
 62
     9
 48
0.141498
100
AcDbLine
 10
-39.394386
 20
-47.879665
 30
0.0
 11
-35.39222
 21
-43.877502
 31
0.0
  0
LINE
  5
237
330
149
100
AcDbEntity
  8
Hawa2
 62
     9
 48
0.053724
100
AcDbLine
 10
-38.105389
 20
-43.762245
 30
0.0
 11
-36.585857
 21
-42.242714
 31
0.0
  0
ENDBLK
  5
238
330
149
100
AcDbEntity
  8
Hawa2
 62
     9
100
AcDbBlockEnd
  0
BLOCK
  5
239
330
14A
100
AcDbEntity
  8
Hawa2
 62
     9
100
AcDbBlockBegin
  2
BLOCK1
 70
     0
 10
0.0
 20
0.0
 30
0.0
  3
BLOCK1
  1

  0
LINE
  5
23A
330
14A
100
AcDbEntity
  8
Hawa2
 62
     9
 48
0.01198
100
AcDbLine
 10
-36.64834600000001
 20
-2.707219999999999
 30
0.0
 11
-36.309494
 21
-2.368368
 31
0.0
  0
LINE
  5
23B
330
14A
100
AcDbEntity
  8
Hawa2
 62
     9
 48
0.076174
100
AcDbLine
 10
-31.618608
 20
2.322518
 30
0.0
 11
-29.464075
 21
4.47705
 31
0.0
  0
LINE
  5
23C
330
14A
100
AcDbEntity
  8
Hawa2
 62
     9
 48
0.02977
100
AcDbLine
 10
-37.574955
 20
-0.8054029999999999
 30
0.0
 11
-36.732941
 21
0.036614
 31
0.0
  0
LINE
  5
23D
330
14A
100
AcDbEntity
  8
Hawa2
 62
     9
 48
0.124407
100
AcDbLine
 10
-35.647049
 20
1.122504999999999
 30
0.0
 11
-32.128281
 21
4.641270999999999
 31
0.0
  0
LINE
  5
23E
330
14A
100
AcDbEntity
  8
Hawa2
 62
     9
 48
0.121012
100
AcDbLine
 10
-38.21524
 20
1.382738
 30
0.0
 11
-34.792492
 21
4.805487
 31
0.0
  0
LINE
  5
23F
330
14A
100
AcDbEntity
  8
Hawa2
 62
     9
 48
0.090016
100
AcDbLine
 10
-38.855526
 20
3.570879
 30
0.0
 11
-36.309494
 21
6.116912999999999
 31
0.0
  0
LINE
  5
240
330
14A
100
AcDbEntity
  8
Hawa2
 62
     9
 48
0.073729
100
AcDbLine
 10
-39.610714
 20
5.644121
 30
0.0
 11
-37.525337
 21
7.729495
 31
0.0
  0
LINE
  5
241
330
14A
100
AcDbEntity
  8
Hawa2
 62
     9
 48
0.062602
100
AcDbLine
 10
-40.645988
 20
7.437272
 30
0.0
 11
-38.875324
 21
9.207936999999999
 31
0.0
  0
LINE
  5
242
330
14A
100
AcDbEntity
  8
Hawa2
 62
     9
 48
0.051476
100
AcDbLine
 10
-41.68126299999999
 20
9.230424000000001
 30
0.0
 11
-40.22530699999999
 21
10.686379
 31
0.0
  0
LINE
  5
243
330
14A
100
AcDbEntity
  8
Hawa2
 62
     9
 48
0.042766
100
AcDbLine
 10
-42.716541
 20
11.023576
 30
0.0
 11
-41.506939
 21
12.233175
 31
0.0
  0
LINE
  5
244
330
14A
100
AcDbEntity
  8
Hawa2
 62
     9
 48
0.040264
100
AcDbLine
 10
-43.62697599999999
 20
12.941567
 30
0.0
 11
-42.48813199999999
 21
14.08041
 31
0.0
  0
LINE
  5
245
330
14A
100
AcDbEntity
  8
Hawa2
 62
     9
 48
0.040167
100
AcDbLine
 10
-30.446022
 20
26.12252
 30
0.0
 11
-29.309927
 21
27.25861500000001
 31
0.0
  0
LINE
  5
246
330
14A
100
AcDbEntity
  8
Hawa2
 62
     9
 48
0.057161
100
AcDbLine
 10
-44.172226
 20
15.224743
 30
0.0
 11
-42.55547299999999
 21
16.841497
 31
0.0
  0
LINE
  5
247
330
14A
100
AcDbEntity
  8
Hawa2
 62
     9
 48
0.120449
100
AcDbLine
 10
-33.274448
 20
26.12252
 30
0.0
 11
-29.86764
 21
29.529329
 31
0.0
  0
LINE
  5
248
330
14A
100
AcDbEntity
  8
Hawa2
 62
     9
 48
0.251189
100
AcDbLine
 10
-43.41418499999999
 20
18.811211
 30
0.0
 11
-36.309494
 21
25.915903
 31
0.0
  0
LINE
  5
249
330
14A
100
AcDbEntity
  8
Hawa2
 62
     9
 48
0.098995
100
AcDbLine
 10
-36.102875
 20
26.12252
 30
0.0
 11
-33.302872
 21
28.922525
 31
0.0
  0
LINE
  5
24A
330
14A
100
AcDbEntity
  8
Hawa2
 62
     9
 48
0.024349
100
AcDbLine
 10
-33.23441300000001
 20
28.990986
 30
0.0
 11
-32.545715
 21
29.67968
 31
0.0
  0
LINE
  5
24B
330
14A
100
AcDbEntity
  8
Hawa2
 62
     9
 48
0.169662
100
AcDbLine
 10
-39.826244
 20
25.227579
 30
0.0
 11
-35.027473
 21
30.026348
 31
0.0
  0
LINE
  5
24C
330
14A
100
AcDbEntity
  8
Hawa2
 62
     9
 48
0.054498
100
AcDbLine
 10
-38.29602100000001
 20
29.586229
 30
0.0
 11
-36.754574
 21
31.127676
 31
0.0
  0
LINE
  5
24D
330
14A
100
AcDbEntity
  8
Hawa2
 62
     9
 48
0.002113
100
AcDbLine
 10
-36.892311
 20
33.818367
 30
0.0
 11
-36.83255
 21
33.87812800000001
 31
0.0
  0
ENDBLK
  5
24E
330
14A
100
AcDbEntity
  8
Hawa2
 62
     9
100
AcDbBlockEnd
  0
BLOCK
  5
24F
330
14B
100
AcDbEntity
  8
Hawa2
 62
     9
100
AcDbBlockBegin
  2
BLOCK2
 70
     0
 10
0.0
 20
0.0
 30
0.0
  3
BLOCK2
  1

  0
LINE
  5
250
330
14B
100
AcDbEntity
  8
Hawa2
 62
     9
 48
0.020668
100
AcDbLine
 10
-36.894066
 20
64.929314
 30
0.0
 11
-36.309494
 21
65.513885
 31
0.0
  0
LINE
  5
251
330
14B
100
AcDbEntity
  8
Hawa2
 62
     9
 48
0.116614
100
AcDbLine
 10
-32.953514
 20
68.86985799999999
 30
0.0
 11
-29.65519
 21
72.16819
 31
0.0
  0
LINE
  5
252
330
14B
100
AcDbEntity
  8
Hawa2
 62
     9
 48
0.03012
100
AcDbLine
 10
-37.66148
 20
66.99032599999999
 30
0.0
 11
-36.809555
 21
67.842247
 31
0.0
  0
LINE
  5
253
330
14B
100
AcDbEntity
  8
Hawa2
 62
     9
 48
0.131164
100
AcDbLine
 10
-36.029282
 20
68.62251999999999
 30
0.0
 11
-32.319393
 21
72.332405
 31
0.0
  0
LINE
  5
254
330
14B
100
AcDbEntity
  8
Hawa2
 62
     9
 48
0.117314
100
AcDbLine
 10
-38.301758
 20
69.17847399999999
 30
0.0
 11
-34.983604
 21
72.496628
 31
0.0
  0
LINE
  5
255
330
14B
100
AcDbEntity
  8
Hawa2
 62
     9
 48
0.095519
100
AcDbLine
 10
-39.011192
 20
71.29746199999999
 30
0.0
 11
-36.309494
 21
73.999161
 31
0.0
  0
LINE
  5
256
330
14B
100
AcDbEntity
  8
Hawa2
 62
     9
 48
0.077568
100
AcDbLine
 10
-40.095745
 20
73.04134399999999
 30
0.0
 11
-37.901779
 21
75.235306
 31
0.0
  0
LINE
  5
257
330
14B
100
AcDbEntity
  8
Hawa2
 62
     9
 48
0.062349
100
AcDbLine
 10
-41.559505
 20
74.406006
 30
0.0
 11
-39.796017
 21
76.169495
 31
0.0
  0
LINE
  5
258
330
14B
100
AcDbEntity
  8
Hawa2
 62
     9
 48
0.05116
100
AcDbLine
 10
-43.137283
 20
75.656654
 30
0.0
 11
-41.690258
 21
77.10368299999998
 31
0.0
  0
LINE
  5
259
330
14B
100
AcDbEntity
  8
Hawa2
 62
     9
 48
0.040015
100
AcDbLine
 10
-44.715061
 20
76.907303
 30
0.0
 11
-43.58325599999999
 21
78.039108
 31
0.0
  0
LINE
  5
25A
330
14B
100
AcDbEntity
  8
Hawa2
 62
     9
 48
0.059727
100
AcDbLine
 10
-30.999857
 20
90.62250500000001
 30
0.0
 11
-29.310532
 21
92.31183599999999
 31
0.0
  0
LINE
  5
25B
330
14B
100
AcDbEntity
  8
Hawa2
 62
     9
 48
0.0357
100
AcDbLine
 10
-46.07666799999999
 20
78.37413000000001
 30
0.0
 11
-45.06692499999999
 21
79.383865
 31
0.0
  0
LINE
  5
25C
330
14B
100
AcDbEntity
  8
Hawa2
 62
     9
 48
0.098331
100
AcDbLine
 10
-33.809494
 20
90.64129599999999
 30
0.0
 11
-31.028288
 21
93.422508
 31
0.0
  0
LINE
  5
25D
330
14B
100
AcDbEntity
  8
Hawa2
 62
     9
 48
0.025438
100
AcDbLine
 10
-30.876934
 20
93.57385999999999
 30
0.0
 11
-30.157425
 21
94.29336500000001
 31
0.0
  0
LINE
  5
25E
330
14B
100
AcDbEntity
  8
Hawa2
 62
     9
 48
0.043344
100
AcDbLine
 10
-47.001556
 20
80.277664
 30
0.0
 11
-45.775597
 21
81.503624
 31
0.0
  0
LINE
  5
25F
330
14B
100
AcDbEntity
  8
Hawa2
 62
     9
 48
0.238425
100
AcDbLine
 10
-40.600384
 20
86.678841
 30
0.0
 11
-33.856693
 21
93.422523
 31
0.0
  0
LINE
  5
260
330
14B
100
AcDbEntity
  8
Hawa2
 62
     9
 48
0.025637
100
AcDbLine
 10
-33.641171
 20
93.63804599999999
 30
0.0
 11
-32.91603900000001
 21
94.363182
 31
0.0
  0
LINE
  5
261
330
14B
100
AcDbEntity
  8
Hawa2
 62
     9
 48
0.405711
100
AcDbLine
 10
-46.96036099999999
 20
83.14728499999999
 30
0.0
 11
-35.485126
 21
94.62251999999999
 31
0.0
  0
LINE
  5
262
330
14B
100
AcDbEntity
  8
Hawa2
 62
     9
 48
0.053566
100
AcDbLine
 10
-38.066902
 20
94.86917099999999
 30
0.0
 11
-36.551834
 21
96.38423900000001
 31
0.0
  0
ENDBLK
  5
263
330
14B
100
AcDbEntity
  8
Hawa2
 62
     9
100
AcDbBlockEnd
  0
ENDSEC
  0
SECTION
  2
ENTITIES
  0
DIMENSION
  5
26
330
A
100
AcDbEntity
  8
Hawa2
 62
     9
100
AcDbDimension
  2
*D0
 10
68.99060099999999
 20
229.982101
 30
0.0
 11
68.99060099999999
 21
220.982101
 31
0.0
 70
   160
 71
     5
 42
-1.0
 52
89.999523
  3
STANDARD
100
AcDbAlignedDimension
 13
94.99060099999999
 23
211.982101
 33
0.0
 14
89.99060099999999
 24
229.982101
 34
0.0
 50
89.999523
100
AcDbRotatedDimension
  0
DIMENSION
  5
28
330
A
100
AcDbEntity
  8
Hawa2
 62
     9
100
AcDbDimension
  2
*D1
 10
68.99060099999999
 20
144.482086
 30
0.0
 11
68.99060099999999
 21
154.982094
 31
0.0
 70
   161
 71
     5
 42
-1.0
 52
89.999523
  3
STANDARD
100
AcDbAlignedDimension
 13
89.99060099999999
 23
165.482101
 33
0.0
 14
89.99060099999999
 24
144.482086
 34
0.0
  0
DIMENSION
  5
2A
330
A
100
AcDbEntity
  8
Hawa2
 62
     9
100
AcDbDimension
  2
*D2
 10
68.99060099999999
 20
91.482086
 30
0.0
 11
68.99060099999999
 21
79.98208599999999
 31
0.0
 70
   160
 71
     5
 42
-1.0
 52
89.999523
  3
STANDARD
100
AcDbAlignedDimension
 13
89.99060099999999
 23
68.48208599999999
 33
0.0
 14
94.99060099999999
 24
91.482086
 34
0.0
 50
89.999523
100
AcDbRotatedDimension
  0
DIMENSION
  5
2C
330
A
100
AcDbEntity
  8
Hawa2
 62
     9
100
AcDbDimension
  2
*D3
 10
68.99060099999999
 20
64.482086
 30
0.0
 11
68.99060099999999
 21
59.056122
 31
0.0
 70
   161
 71
     5
 42
-1.0
 52
89.999523
  3
STANDARD
100
AcDbAlignedDimension
 13
94.99060099999999
 23
68.48214699999999
 33
0.0
 14
94.99060099999999
 24
64.482086
 34
0.0
  0
DIMENSION
  5
2E
330
A
100
AcDbEntity
  8
Hawa2
 62
     9
100
AcDbDimension
  2
*D4
 10
68.99060099999999
 20
95.48208199999999
 30
0.0
 11
68.99060099999999
 21
102.698988
 31
0.0
 70
   160
 71
     5
 42
-1.0
 52
89.999523
  3
STANDARD
100
AcDbAlignedDimension
 13
89.99060099999999
 23
91.482086
 33
0.0
 14
94.99060099999999
 24
95.48208199999999
 34
0.0
 50
89.999523
100
AcDbRotatedDimension
  0
DIMENSION
  5
30
330
A
100
AcDbEntity
  8
Hawa2
 62
     9
100
AcDbDimension
  2
*D5
 10
68.99060099999999
 20
140.482086
 30
0.0
 11
68.99060099999999
 21
134.680397
 31
0.0
 70
   161
 71
     5
 42
-1.0
 52
89.999523
  3
STANDARD
100
AcDbAlignedDimension
 13
94.99060099999999
 23
144.482086
 33
0.0
 14
94.99060099999999
 24
140.482086
 34
0.0
  0
DIMENSION
  5
32
330
A
100
AcDbEntity
  8
Hawa2
 62
     9
100
AcDbDimension
  2
*D6
 10
68.99060099999999
 20
169.482086
 30
0.0
 11
68.99060099999999
 21
177.527061
 31
0.0
 70
   161
 71
     5
 42
-1.0
 52
89.999523
  3
STANDARD
100
AcDbAlignedDimension
 13
94.99060099999999
 23
165.482101
 33
0.0
 14
94.99060099999999
 24
169.482086
 34
0.0
  0
DIMENSION
  5
34
330
A
100
AcDbEntity
  8
Hawa2
 62
     9
100
AcDbDimension
  2
*D7
 10
68.99060099999999
 20
229.982101
 30
0.0
 11
68.99060099999999
 21
242.241638
 31
0.0
 70
   161
 71
     5
 42
-1.0
 52
89.999523
  3
STANDARD
100
AcDbAlignedDimension
 13
94.99060099999999
 23
233.982101
 33
0.0
 14
94.99060099999999
 24
229.982101
 34
0.0
  0
DIMENSION
  5
36
330
A
100
AcDbEntity
  8
Hawa2
 62
     9
100
AcDbDimension
  2
*D8
 10
68.99060099999999
 20
211.982101
 30
0.0
 11
68.99060099999999
 21
200.872986
 31
0.0
 70
   160
 71
     5
 42
-1.0
 52
89.999523
  3
STANDARD
100
AcDbAlignedDimension
 13
94.99060099999999
 23
207.982101
 33
0.0
 14
89.99060099999999
 24
211.982101
 34
0.0
 50
89.999523
100
AcDbRotatedDimension
  0
DIMENSION
  5
38
330
A
100
AcDbEntity
  8
Hawa2
 62
     9
100
AcDbDimension
  2
*D9
 10
48.451584
 20
54.98208599999999
 30
0.0
 11
48.451584
 21
79.98208599999999
 31
0.0
 70
   160
 71
     5
 42
-1.0
 52
89.999523
  3
STANDARD
100
AcDbAlignedDimension
 13
65.726715
 23
104.982086
 33
0.0
 14
66.44381
 24
54.98208599999999
 34
0.0
 50
269.998569
100
AcDbRotatedDimension
  0
DIMENSION
  5
3A
330
A
100
AcDbEntity
  8
Hawa2
 62
     9
100
AcDbDimension
  2
*D10
 10
48.451584
 20
134.982056
 30
0.0
 11
48.451584
 21
152.848686
 31
0.0
 70
   160
 71
     5
 42
-1.0
 52
89.999523
  3
STANDARD
100
AcDbAlignedDimension
 13
70.979218
 23
174.982086
 33
0.0
 14
70.597591
 24
134.982056
 34
0.0
 50
269.998569
100
AcDbRotatedDimension
  0
DIMENSION
  5
3C
330
A
100
AcDbEntity
  8
Hawa2
 62
     9
100
AcDbDimension
  2
*D11
 10
48.451584
 20
202.982101
 30
0.0
 11
48.451584
 21
220.982101
 31
0.0
 70
   160
 71
     5
 42
-1.0
 52
89.999523
  3
STANDARD
100
AcDbAlignedDimension
 13
71.141773
 23
238.982101
 33
0.0
 14
70.943844
 24
202.982101
 34
0.0
 50
269.998569
100
AcDbRotatedDimension
  0
DIMENSION
  5
3E
330
A
100
AcDbEntity
  8
Hawa2
 62
     9
100
AcDbDimension
  2
*D12
 10
89.99060099999999
 20
117.887848
 30
0.0
 11
98.72741500000001
 21
117.887848
 31
0.0
 70
   160
 71
     5
 42
-1.0
 52
89.999523
  3
STANDARD
100
AcDbAlignedDimension
 13
82.99053599999998
 23
79.98209
 33
0.0
 14
89.99060099999999
 24
99.98208599999999
 34
0.0
 50
359.998092
100
AcDbRotatedDimension
  0
DIMENSION
  5
40
330
A
100
AcDbEntity
  8
Hawa2
 62
     9
100
AcDbDimension
  2
*D13
 10
89.99060099999999
 20
187.643738
 30
0.0
 11
98.77804600000001
 21
187.643738
 31
0.0
 70
   160
 71
     5
 42
-1.0
 52
89.999523
  3
STANDARD
100
AcDbAlignedDimension
 13
81.99054
 23
153.738152
 33
0.0
 14
89.99060099999999
 24
169.982086
 34
0.0
 50
359.998092
100
AcDbRotatedDimension
  0
DIMENSION
  5
42
330
A
100
AcDbEntity
  8
Hawa2
 62
     9
100
AcDbDimension
  2
*D14
 10
89.99060099999999
 20
251.399651
 30
0.0
 11
84.490601
 21
251.399651
 31
0.0
 70
   160
 71
     5
 42
-1.0
 52
89.999523
  3
STANDARD
100
AcDbAlignedDimension
 13
78.99060099999999
 23
220.982086
 33
0.0
 14
89.99060099999999
 24
238.982101
 34
0.0
 50
359.998092
100
AcDbRotatedDimension
  0
DIMENSION
  5
44
330
A
100
AcDbEntity
  8
Hawa2
 62
     9
100
AcDbDimension
  2
*D15
 10
97.99053999999999
 20
251.399651
 30
0.0
 11
106.746918
 21
251.399651
 31
0.0
 70
   160
 71
     5
 42
-1.0
 52
89.999523
  3
STANDARD
100
AcDbAlignedDimension
 13
89.99060099999999
 23
238.982101
 33
0.0
 14
97.99053999999999
 24
233.982101
 34
0.0
 50
359.998092
100
AcDbRotatedDimension
  0
LINE
  5
45
330
A
100
AcDbEntity
  8
Hawa5
 62
     1
 48
0.125
100
AcDbLine
 10
89.99060099999999
 20
233.982094
 30
0.0
 11
89.99060099999999
 21
238.982094
 31
0.0
  0
LINE
  5
46
330
A
100
AcDbEntity
  8
Hawa5
 62
     1
100
AcDbLine
 10
89.99060099999999
 20
134.982056
 30
0.0
 11
169.990601
 21
134.982056
 31
0.0
  0
LINE
  5
47
330
A
100
AcDbEntity
  8
Hawa5
 62
     1
100
AcDbLine
 10
89.99060099999999
 20
174.982086
 30
0.0
 11
169.990601
 21
174.982086
 31
0.0
  0
LINE
  5
48
330
A
100
AcDbEntity
  8
Hawa5
 62
     1
100
AcDbLine
 10
89.99060099999999
 20
104.982086
 30
0.0
 11
169.990601
 21
104.982086
 31
0.0
  0
LINE
  5
49
330
A
100
AcDbEntity
  8
Hawa5
 62
     1
100
AcDbLine
 10
89.99060099999999
 20
54.98208599999999
 30
0.0
 11
169.990601
 21
54.98208599999999
 31
0.0
  0
LINE
  5
4A
330
A
100
AcDbEntity
  8
Hawa5
 62
     1
 48
0.2375
100
AcDbLine
 10
89.99060099999999
 20
95.48208199999999
 30
0.0
 11
89.99060099999999
 21
104.982086
 31
0.0
  0
LINE
  5
4B
330
A
100
AcDbEntity
  8
Hawa5
 62
     1
 48
0.1375
100
AcDbLine
 10
89.99060099999999
 20
169.482086
 30
0.0
 11
89.99060099999999
 21
174.982086
 31
0.0
  0
LINE
  5
4C
330
A
100
AcDbEntity
  8
Hawa5
 62
     1
 48
0.199998
100
AcDbLine
 10
89.99060099999999
 20
68.48208599999999
 30
0.0
 11
97.99053999999999
 21
68.48208599999999
 31
0.0
  0
LINE
  5
4D
330
A
100
AcDbEntity
  8
Hawa5
 62
     1
 48
0.199998
100
AcDbLine
 10
89.99060099999999
 20
91.482086
 30
0.0
 11
97.99053999999999
 21
91.482086
 31
0.0
  0
LINE
  5
4E
330
A
100
AcDbEntity
  8
Hawa5
 62
     1
 48
0.199998
100
AcDbLine
 10
89.99060099999999
 20
144.482086
 30
0.0
 11
97.99053999999999
 21
144.482086
 31
0.0
  0
LINE
  5
4F
330
A
100
AcDbEntity
  8
Hawa5
 62
     1
 48
0.199998
100
AcDbLine
 10
89.99060099999999
 20
165.482101
 30
0.0
 11
97.99053999999999
 21
165.482101
 31
0.0
  0
LINE
  5
50
330
A
100
AcDbEntity
  8
Hawa5
 62
     1
 48
0.199998
100
AcDbLine
 10
89.99060099999999
 20
211.982117
 30
0.0
 11
97.99053999999999
 21
211.982117
 31
0.0
  0
LINE
  5
51
330
A
100
AcDbEntity
  8
Hawa5
 62
     1
 48
0.199998
100
AcDbLine
 10
89.99060099999999
 20
229.982101
 30
0.0
 11
97.99053999999999
 21
229.982101
 31
0.0
  0
LINE
  5
52
330
A
100
AcDbEntity
  8
Hawa5
 62
     1
 48
0.199998
100
AcDbLine
 10
89.99060099999999
 20
233.982101
 30
0.0
 11
97.99053999999999
 21
233.982101
 31
0.0
  0
LINE
  5
53
330
A
100
AcDbEntity
  8
Hawa5
 62
     1
 48
0.199998
100
AcDbLine
 10
89.99060099999999
 20
207.982101
 30
0.0
 11
97.99053999999999
 21
207.982101
 31
0.0
  0
LINE
  5
54
330
A
100
AcDbEntity
  8
Hawa5
 62
     1
 48
0.199998
100
AcDbLine
 10
89.99060099999999
 20
140.482086
 30
0.0
 11
97.99053999999999
 21
140.482086
 31
0.0
  0
LINE
  5
55
330
A
100
AcDbEntity
  8
Hawa5
 62
     1
 48
0.199998
100
AcDbLine
 10
89.99060099999999
 20
95.48208199999999
 30
0.0
 11
97.99053999999999
 21
95.48208199999999
 31
0.0
  0
LINE
  5
56
330
A
100
AcDbEntity
  8
Hawa5
 62
     1
 48
0.199998
100
AcDbLine
 10
89.99060099999999
 20
64.482086
 30
0.0
 11
97.99053999999999
 21
64.482086
 31
0.0
  0
LINE
  5
57
330
A
100
AcDbEntity
  8
Hawa5
 62
     1
 48
0.1
100
AcDbLine
 10
97.99053999999999
 20
91.482086
 30
0.0
 11
97.99053999999999
 21
95.48208199999999
 31
0.0
  0
LINE
  5
58
330
A
100
AcDbEntity
  8
Hawa5
 62
     1
 48
0.1
100
AcDbLine
 10
97.99053999999999
 20
165.482101
 30
0.0
 11
97.99053999999999
 21
169.482086
 31
0.0
  0
LINE
  5
59
330
A
100
AcDbEntity
  8
Hawa5
 62
     1
 48
0.1
100
AcDbLine
 10
97.99053999999999
 20
229.982086
 30
0.0
 11
97.99053999999999
 21
233.982094
 31
0.0
  0
LINE
  5
5A
330
A
100
AcDbEntity
  8
Hawa5
 62
     1
 48
0.1
100
AcDbLine
 10
97.99053999999999
 20
207.982101
 30
0.0
 11
97.99053999999999
 21
211.982101
 31
0.0
  0
LINE
  5
5B
330
A
100
AcDbEntity
  8
Hawa5
 62
     1
 48
0.1
100
AcDbLine
 10
97.99053999999999
 20
140.482086
 30
0.0
 11
97.99053999999999
 21
144.482086
 31
0.0
  0
LINE
  5
5C
330
A
100
AcDbEntity
  8
Hawa5
 62
     1
 48
0.1
100
AcDbLine
 10
97.99053999999999
 20
64.482086
 30
0.0
 11
97.99053999999999
 21
68.48208599999999
 31
0.0
  0
LINE
  5
5D
330
A
100
AcDbEntity
  8
Hawa5
 62
     1
 48
0.199998
100
AcDbLine
 10
89.99060099999999
 20
169.482086
 30
0.0
 11
97.99053999999999
 21
169.482086
 31
0.0
  0
LINE
  5
5E
330
A
100
AcDbEntity
  8
Hawa5
 62
     1
100
AcDbLine
 10
89.99060099999999
 20
202.982101
 30
0.0
 11
169.990601
 21
202.982101
 31
0.0
  0
LINE
  5
5F
330
A
100
AcDbEntity
  8
Hawa5
 62
     1
100
AcDbLine
 10
89.99060099999999
 20
238.982101
 30
0.0
 11
169.990601
 21
238.982101
 31
0.0
  0
LINE
  5
60
330
A
100
AcDbEntity
  8
Hawa5
 62
     1
 48
0.1375
100
AcDbLine
 10
89.99060099999999
 20
134.982086
 30
0.0
 11
89.99060099999999
 21
140.482086
 31
0.0
  0
LINE
  5
61
330
A
100
AcDbEntity
  8
Hawa5
 62
     1
100
AcDbLine
 10
89.99060099999999
 20
144.482086
 30
0.0
 11
89.99060099999999
 21
165.482101
 31
0.0
  0
LINE
  5
62
330
A
100
AcDbEntity
  8
Hawa5
 62
     1
100
AcDbLine
 10
89.99060099999999
 20
68.48208599999999
 30
0.0
 11
89.99060099999999
 21
91.482086
 31
0.0
  0
LINE
  5
63
330
A
100
AcDbEntity
  8
Hawa5
 62
     1
 48
0.125
100
AcDbLine
 10
89.99060099999999
 20
202.982101
 30
0.0
 11
89.99060099999999
 21
207.982101
 31
0.0
  0
LINE
  5
64
330
A
100
AcDbEntity
  8
Hawa5
 62
     1
 48
0.45
100
AcDbLine
 10
89.99060099999999
 20
211.982101
 30
0.0
 11
89.99060099999999
 21
229.982086
 31
0.0
  0
LINE
  5
65
330
A
100
AcDbEntity
  8
Hawa5
 62
     1
 48
0.2375
100
AcDbLine
 10
89.99060099999999
 20
64.482086
 30
0.0
 11
89.99060099999999
 21
54.98208599999999
 31
0.0
  0
LINE
  5
66
330
A
100
AcDbEntity
  8
Hawa5
  6
PHANTOM
 62
     1
100
AcDbLine
 10
169.990601
 20
50.982079
 30
0.0
 11
169.990601
 21
108.982086
 31
0.0
  0
LINE
  5
67
330
A
100
AcDbEntity
  8
Hawa5
  6
PHANTOM
 62
     1
100
AcDbLine
 10
169.990601
 20
130.982116
 30
0.0
 11
169.990601
 21
178.982101
 31
0.0
  0
LINE
  5
68
330
A
100
AcDbEntity
  8
Hawa5
  6
PHANTOM
 62
     1
100
AcDbLine
 10
169.990601
 20
198.982086
 30
0.0
 11
169.990601
 21
242.982109
 31
0.0
  0
LINE
  5
69
330
A
100
AcDbEntity
  8
Hawa4
 62
     4
 48
0.03
100
AcDbLine
 10
96.190613
 20
68.48208599999999
 30
0.0
 11
94.99060099999999
 21
68.48208599999999
 31
0.0
  0
LINE
  5
6A
330
A
100
AcDbEntity
  8
Hawa4
 62
     4
 48
0.05
100
AcDbLine
 10
96.990522
 20
65.682114
 30
0.0
 11
96.990522
 21
67.682114
 31
0.0
  0
LINE
  5
6B
330
A
100
AcDbEntity
  8
Hawa4
 62
     4
 48
0.032675
100
AcDbLine
 10
95.75720200000001
 20
65.68203699999999
 30
0.0
 11
94.45019499999999
 21
65.68203699999999
 31
0.0
  0
LINE
  5
6C
330
A
100
AcDbEntity
  8
Hawa4
 62
     4
 48
0.028284
100
AcDbLine
 10
96.990633
 20
67.682114
 30
0.0
 11
96.19064100000001
 21
68.48210899999999
 31
0.0
  0
LINE
  5
6D
330
A
100
AcDbEntity
  8
Hawa4
 62
     4
 48
0.032671
100
AcDbLine
 10
93.216736
 20
65.682159
 30
0.0
 11
91.90990799999999
 21
65.682159
 31
0.0
  0
LINE
  5
6E
330
A
100
AcDbEntity
  8
Hawa4
 62
     4
 48
0.02
100
AcDbLine
 10
94.990585
 20
67.682045
 30
0.0
 11
94.990585
 21
68.482063
 31
0.0
  0
LINE
  5
6F
330
A
100
AcDbEntity
  8
Hawa4
 62
     4
 48
0.012502
100
AcDbLine
 10
94.99060099999999
 20
67.682159
 30
0.0
 11
94.49054
 21
67.682159
 31
0.0
  0
LINE
  5
70
330
A
100
AcDbEntity
  8
Hawa4
 62
     4
 48
0.028284
100
AcDbLine
 10
94.49055300000001
 20
67.68220500000001
 30
0.0
 11
93.69055600000001
 21
68.48219300000001
 31
0.0
  0
LINE
  5
71
330
A
100
AcDbEntity
  8
Hawa4
 62
     4
 48
0.012502
100
AcDbLine
 10
92.49060099999999
 20
67.68209099999999
 30
0.0
 11
91.99054
 21
67.68209099999999
 31
0.0
  0
LINE
  5
72
330
A
100
AcDbEntity
  8
Hawa4
 62
     4
 48
0.02
100
AcDbLine
 10
89.49055899999999
 20
63.68211399999999
 30
0.0
 11
89.49055899999999
 21
64.48213199999999
 31
0.0
  0
LINE
  5
73
330
A
100
AcDbEntity
  8
Hawa4
 62
     4
 48
0.03
100
AcDbLine
 10
93.690613
 20
68.48208599999999
 30
0.0
 11
92.49060099999999
 21
68.48208599999999
 31
0.0
  0
LINE
  5
74
330
A
100
AcDbEntity
  8
Hawa4
 62
     4
 48
0.03
100
AcDbLine
 10
91.19060899999999
 20
68.48208599999999
 30
0.0
 11
89.99060099999999
 21
68.48208599999999
 31
0.0
  0
LINE
  5
75
330
A
100
AcDbEntity
  8
Hawa4
 62
     4
 48
0.043164
100
AcDbLine
 10
91.217102
 20
64.482086
 30
0.0
 11
89.49054
 21
64.482086
 31
0.0
  0
LINE
  5
76
330
A
100
AcDbEntity
  8
Hawa4
 62
     4
 48
0.048297
100
AcDbLine
 10
89.990547
 20
61.815834
 30
0.0
 11
89.49054699999999
 21
63.68186999999999
 31
0.0
  0
LINE
  5
77
330
A
100
AcDbEntity
  8
Hawa4
 62
     4
 48
0.02
100
AcDbLine
 10
92.49050099999999
 20
67.68208299999999
 30
0.0
 11
92.49050099999999
 21
68.482101
 31
0.0
  0
LINE
  5
78
330
A
100
AcDbEntity
  8
Hawa4
 62
     4
 48
0.028286
100
AcDbLine
 10
91.99019599999999
 20
67.68214399999999
 30
0.0
 11
91.19015500000001
 21
68.482178
 31
0.0
  0
LINE
  5
79
330
A
100
AcDbEntity
  8
Hawa4
 62
     4
 48
0.05
100
AcDbLine
 10
89.990585
 20
68.48210899999999
 30
0.0
 11
89.990585
 21
70.482117
 31
0.0
  0
LINE
  5
7A
330
A
100
AcDbEntity
  8
Hawa4
 62
     4
 48
0.034639
100
AcDbLine
 10
91.21706800000001
 20
64.48204799999999
 30
0.0
 11
91.909851
 21
65.68198399999999
 31
0.0
  0
LINE
  5
7B
330
A
100
AcDbEntity
  8
Hawa4
 62
     4
 48
0.096212
100
AcDbLine
 10
86.28793299999999
 20
73.81264499999999
 30
0.0
 11
88.882919
 21
70.97068799999999
 31
0.0
  0
LINE
  5
7C
330
A
100
AcDbEntity
  8
Hawa4
 62
     4
 48
0.164001
100
AcDbLine
 10
87.269661
 20
67.527946
 30
0.0
 11
89.11198399999999
 21
61.231903
 31
0.0
  0
LINE
  5
7D
330
A
100
AcDbEntity
  8
Hawa4
 62
     4
 48
0.03
100
AcDbLine
 10
96.190613
 20
144.482086
 30
0.0
 11
94.99060099999999
 21
144.482086
 31
0.0
  0
LINE
  5
7E
330
A
100
AcDbEntity
  8
Hawa4
 62
     4
 48
0.05
100
AcDbLine
 10
96.99054
 20
141.682112
 30
0.0
 11
96.99054100000001
 21
143.682112
 31
0.0
  0
LINE
  5
7F
330
A
100
AcDbEntity
  8
Hawa4
 62
     4
 48
0.032675
100
AcDbLine
 10
95.75720200000001
 20
141.682098
 30
0.0
 11
94.45019499999999
 21
141.682098
 31
0.0
  0
LINE
  5
80
330
A
100
AcDbEntity
  8
Hawa4
 62
     4
 48
0.028284
100
AcDbLine
 10
96.99061800000002
 20
143.682067
 30
0.0
 11
96.190636
 21
144.482051
 31
0.0
  0
LINE
  5
81
330
A
100
AcDbEntity
  8
Hawa4
 62
     4
 48
0.032674
100
AcDbLine
 10
93.216785
 20
141.682089
 30
0.0
 11
91.90984
 21
141.68209
 31
0.0
  0
LINE
  5
82
330
A
100
AcDbEntity
  8
Hawa4
 62
     4
 48
0.02
100
AcDbLine
 10
94.99056800000001
 20
143.682073
 30
0.0
 11
94.99056999999998
 21
144.482091
 31
0.0
  0
LINE
  5
83
330
A
100
AcDbEntity
  8
Hawa4
 62
     4
 48
0.0125
100
AcDbLine
 10
94.990593
 20
143.682089
 30
0.0
 11
94.490589
 21
143.68209
 31
0.0
  0
LINE
  5
84
330
A
100
AcDbEntity
  8
Hawa4
 62
     4
 48
0.028283
100
AcDbLine
 10
94.490463
 20
143.682056
 30
0.0
 11
93.690495
 21
144.482027
 31
0.0
  0
LINE
  5
85
330
A
100
AcDbEntity
  8
Hawa4
 62
     4
 48
0.0125
100
AcDbLine
 10
92.49058899999999
 20
143.682094
 30
0.0
 11
91.99058499999999
 21
143.682095
 31
0.0
  0
LINE
  5
86
330
A
100
AcDbEntity
  8
Hawa4
 62
     4
 48
0.02
100
AcDbLine
 10
89.490578
 20
139.68209
 30
0.0
 11
89.490578
 21
140.482108
 31
0.0
  0
LINE
  5
87
330
A
100
AcDbEntity
  8
Hawa4
 62
     4
 48
0.03
100
AcDbLine
 10
93.690613
 20
144.482086
 30
0.0
 11
92.49060099999999
 21
144.482086
 31
0.0
  0
LINE
  5
88
330
A
100
AcDbEntity
  8
Hawa4
 62
     4
 48
0.03
100
AcDbLine
 10
91.19060899999999
 20
144.482086
 30
0.0
 11
89.99060099999999
 21
144.482086
 31
0.0
  0
LINE
  5
89
330
A
100
AcDbEntity
  8
Hawa4
 62
     4
 48
0.043163
100
AcDbLine
 10
91.21702199999999
 20
140.482099
 30
0.0
 11
89.490513
 21
140.4821
 31
0.0
  0
LINE
  5
8A
330
A
100
AcDbEntity
  8
Hawa4
 62
     4
 48
0.048296
100
AcDbLine
 10
89.990459
 20
137.816149
 30
0.0
 11
89.49045899999999
 21
139.682176
 31
0.0
  0
LINE
  5
8B
330
A
100
AcDbEntity
  8
Hawa4
 62
     4
 48
0.02
100
AcDbLine
 10
92.490524
 20
143.682086
 30
0.0
 11
92.490524
 21
144.482074
 31
0.0
  0
LINE
  5
8C
330
A
100
AcDbEntity
  8
Hawa4
 62
     4
 48
0.028285
100
AcDbLine
 10
91.99064599999999
 20
143.682036
 30
0.0
 11
91.19061700000001
 21
144.482063
 31
0.0
  0
LINE
  5
8D
330
A
100
AcDbEntity
  8
Hawa4
 62
     4
 48
0.03464
100
AcDbLine
 10
91.21686600000002
 20
140.482365
 30
0.0
 11
91.909676
 21
141.682345
 31
0.0
  0
LINE
  5
8E
330
A
100
AcDbEntity
  8
Hawa4
 62
     4
 48
0.189807
100
AcDbLine
 10
86.990513
 20
144.482115
 30
0.0
 11
83.19436999999998
 21
151.057231
 31
0.0
  0
LINE
  5
8F
330
A
100
AcDbEntity
  8
Hawa4
 62
     4
 48
0.134843
100
AcDbLine
 10
85.24599499999998
 20
150.953691
 30
0.0
 11
88.882919
 21
146.970623
 31
0.0
  0
LINE
  5
90
330
A
100
AcDbEntity
  8
Hawa4
 62
     4
 48
0.188856
100
AcDbLine
 10
86.990475
 20
144.482047
 30
0.0
 11
89.112
 21
137.231837
 31
0.0
  0
LINE
  5
91
330
A
100
AcDbEntity
  8
Hawa4
 62
     4
 48
0.03
100
AcDbLine
 10
96.190613
 20
211.982117
 30
0.0
 11
94.99060099999999
 21
211.982117
 31
0.0
  0
LINE
  5
92
330
A
100
AcDbEntity
  8
Hawa4
 62
     4
 48
0.05
100
AcDbLine
 10
96.990557
 20
209.182083
 30
0.0
 11
96.990557
 21
211.182091
 31
0.0
  0
LINE
  5
93
330
A
100
AcDbEntity
  8
Hawa4
 62
     4
 48
0.032674
100
AcDbLine
 10
95.75712000000001
 20
209.182152
 30
0.0
 11
94.450178
 21
209.182152
 31
0.0
  0
LINE
  5
94
330
A
100
AcDbEntity
  8
Hawa4
 62
     4
 48
0.028282
100
AcDbLine
 10
96.990578
 20
211.182037
 30
0.0
 11
96.19063800000001
 21
211.981979
 31
0.0
  0
LINE
  5
95
330
A
100
AcDbEntity
  8
Hawa4
 62
     4
 48
0.032672
100
AcDbLine
 10
93.216797
 20
209.182068
 30
0.0
 11
91.90990799999999
 21
209.182068
 31
0.0
  0
LINE
  5
96
330
A
100
AcDbEntity
  8
Hawa4
 62
     4
 48
0.02
100
AcDbLine
 10
94.990486
 20
211.182068
 30
0.0
 11
94.990488
 21
211.982086
 31
0.0
  0
LINE
  5
97
330
A
100
AcDbEntity
  8
Hawa4
 62
     4
 48
0.012502
100
AcDbLine
 10
94.99060099999999
 20
211.182045
 30
0.0
 11
94.49054
 21
211.182045
 31
0.0
  0
LINE
  5
98
330
A
100
AcDbEntity
  8
Hawa4
 62
     4
 48
0.028283
100
AcDbLine
 10
94.490583
 20
211.182152
 30
0.0
 11
93.69061999999999
 21
211.982117
 31
0.0
  0
LINE
  5
99
330
A
100
AcDbEntity
  8
Hawa4
 62
     4
 48
0.012502
100
AcDbLine
 10
92.49060099999999
 20
211.182098
 30
0.0
 11
91.99054
 21
211.182098
 31
0.0
  0
LINE
  5
9A
330
A
100
AcDbEntity
  8
Hawa4
 62
     4
 48
0.02
100
AcDbLine
 10
89.49051700000001
 20
207.182083
 30
0.0
 11
89.49051700000001
 21
207.982086
 31
0.0
  0
LINE
  5
9B
330
A
100
AcDbEntity
  8
Hawa4
 62
     4
 48
0.03
100
AcDbLine
 10
93.690613
 20
211.982117
 30
0.0
 11
92.49060099999999
 21
211.982117
 31
0.0
  0
LINE
  5
9C
330
A
100
AcDbEntity
  8
Hawa4
 62
     4
 48
0.03
100
AcDbLine
 10
91.19060899999999
 20
211.982101
 30
0.0
 11
89.99060099999999
 21
211.982101
 31
0.0
  0
LINE
  5
9D
330
A
100
AcDbEntity
  8
Hawa4
 62
     4
 48
0.043164
100
AcDbLine
 10
91.217102
 20
207.982101
 30
0.0
 11
89.49054
 21
207.982101
 31
0.0
  0
LINE
  5
9E
330
A
100
AcDbEntity
  8
Hawa4
 62
     4
 48
0.048296
100
AcDbLine
 10
89.990646
 20
205.316063
 30
0.0
 11
89.49065
 21
207.182076
 31
0.0
  0
LINE
  5
9F
330
A
100
AcDbEntity
  8
Hawa4
 62
     4
 48
0.02
100
AcDbLine
 10
92.490547
 20
211.182091
 30
0.0
 11
92.490547
 21
211.982086
 31
0.0
  0
LINE
  5
A0
330
A
100
AcDbEntity
  8
Hawa4
 62
     4
 48
0.028285
100
AcDbLine
 10
91.990555
 20
211.181992
 30
0.0
 11
91.19053599999999
 21
211.98201
 31
0.0
  0
LINE
  5
A1
330
A
100
AcDbEntity
  8
Hawa4
 62
     4
 48
0.049999
100
AcDbLine
 10
89.990593
 20
211.982086
 30
0.0
 11
89.990593
 21
213.982063
 31
0.0
  0
LINE
  5
A2
330
A
100
AcDbEntity
  8
Hawa4
 62
     4
 48
0.03464
100
AcDbLine
 10
91.21713599999999
 20
207.982185
 30
0.0
 11
91.90994599999999
 21
209.182167
 31
0.0
  0
LINE
  5
A3
330
A
100
AcDbEntity
  8
Hawa4
 62
     4
 48
0.141147
100
AcDbLine
 10
87.52644699999999
 20
210.150551
 30
0.0
 11
89.11203
 21
204.731888
 31
0.0
  0
LINE
  5
A4
330
A
100
AcDbEntity
  8
Hawa4
 62
     4
 48
0.03
100
AcDbLine
 10
96.190613
 20
91.482086
 30
0.0
 11
94.99060099999999
 21
91.482086
 31
0.0
  0
LINE
  5
A5
330
A
100
AcDbEntity
  8
Hawa4
 62
     4
 48
0.05
100
AcDbLine
 10
96.990551
 20
94.28208899999999
 30
0.0
 11
96.990551
 21
92.282089
 31
0.0
  0
LINE
  5
A6
330
A
100
AcDbEntity
  8
Hawa4
 62
     4
 48
0.032675
100
AcDbLine
 10
95.75720200000001
 20
94.282131
 30
0.0
 11
94.45019499999999
 21
94.282131
 31
0.0
  0
LINE
  5
A7
330
A
100
AcDbEntity
  8
Hawa4
 62
     4
 48
0.028282
100
AcDbLine
 10
96.990685
 20
92.28166999999999
 30
0.0
 11
96.190744
 21
91.48172800000001
 31
0.0
  0
LINE
  5
A8
330
A
100
AcDbEntity
  8
Hawa4
 62
     4
 48
0.032672
100
AcDbLine
 10
93.216797
 20
94.282131
 30
0.0
 11
91.90990799999999
 21
94.282131
 31
0.0
  0
LINE
  5
A9
330
A
100
AcDbEntity
  8
Hawa4
 62
     4
 48
0.02
100
AcDbLine
 10
94.99054499999999
 20
92.282127
 30
0.0
 11
94.99054499999999
 21
91.482109
 31
0.0
  0
LINE
  5
AA
330
A
100
AcDbEntity
  8
Hawa4
 62
     4
 48
0.012502
100
AcDbLine
 10
94.99060099999999
 20
92.28213100000001
 30
0.0
 11
94.49054
 21
92.28213100000001
 31
0.0
  0
LINE
  5
AB
330
A
100
AcDbEntity
  8
Hawa4
 62
     4
 48
0.028285
100
AcDbLine
 10
94.49068999999999
 20
92.281746
 30
0.0
 11
93.69066600000001
 21
91.48171600000001
 31
0.0
  0
LINE
  5
AC
330
A
100
AcDbEntity
  8
Hawa4
 62
     4
 48
0.012502
100
AcDbLine
 10
92.49060099999999
 20
92.28213100000001
 30
0.0
 11
91.99054
 21
92.28213100000001
 31
0.0
  0
LINE
  5
AD
330
A
100
AcDbEntity
  8
Hawa4
 62
     4
 48
0.02
100
AcDbLine
 10
89.490505
 20
96.28206999999999
 30
0.0
 11
89.490505
 21
95.48208199999999
 31
0.0
  0
LINE
  5
AE
330
A
100
AcDbEntity
  8
Hawa4
 62
     4
 48
0.03
100
AcDbLine
 10
93.690613
 20
91.482086
 30
0.0
 11
92.49060099999999
 21
91.482086
 31
0.0
  0
LINE
  5
AF
330
A
100
AcDbEntity
  8
Hawa4
 62
     4
 48
0.03
100
AcDbLine
 10
91.19060899999999
 20
91.482086
 30
0.0
 11
89.99060099999999
 21
91.482086
 31
0.0
  0
LINE
  5
B0
330
A
100
AcDbEntity
  8
Hawa4
 62
     4
 48
0.043164
100
AcDbLine
 10
91.217102
 20
95.48208199999999
 30
0.0
 11
89.49054
 21
95.48208199999999
 31
0.0
  0
LINE
  5
B1
330
A
100
AcDbEntity
  8
Hawa4
 62
     4
 48
0.048298
100
AcDbLine
 10
89.99079899999999
 20
98.147953
 30
0.0
 11
89.49078399999999
 21
96.281864
 31
0.0
  0
LINE
  5
B2
330
A
100
AcDbEntity
  8
Hawa4
 62
     4
 48
0.02
100
AcDbLine
 10
92.490631
 20
92.28208199999999
 30
0.0
 11
92.490631
 21
91.48209399999998
 31
0.0
  0
LINE
  5
B3
330
A
100
AcDbEntity
  8
Hawa4
 62
     4
 48
0.028285
100
AcDbLine
 10
91.99071100000001
 20
92.28189099999999
 30
0.0
 11
91.190685
 21
91.481861
 31
0.0
  0
LINE
  5
B4
330
A
100
AcDbEntity
  8
Hawa4
 62
     4
 48
0.034644
100
AcDbLine
 10
91.21703000000001
 20
95.48223099999999
 30
0.0
 11
91.90990799999999
 21
94.282131
 31
0.0
  0
LINE
  5
B5
330
A
100
AcDbEntity
  8
Hawa4
 62
     4
 48
0.096211
100
AcDbLine
 10
86.28784600000001
 20
86.151657
 30
0.0
 11
88.88282399999999
 21
88.99360300000001
 31
0.0
  0
LINE
  5
B6
330
A
100
AcDbEntity
  8
Hawa4
 62
     4
 48
0.164002
100
AcDbLine
 10
87.26927899999999
 20
92.436386
 30
0.0
 11
89.11160999999999
 21
98.73246800000002
 31
0.0
  0
LINE
  5
B7
330
A
100
AcDbEntity
  8
Hawa4
 62
     4
 48
0.03
100
AcDbLine
 10
96.190613
 20
165.482101
 30
0.0
 11
94.99060099999999
 21
165.482101
 31
0.0
  0
LINE
  5
B8
330
A
100
AcDbEntity
  8
Hawa4
 62
     4
 48
0.05
100
AcDbLine
 10
96.99053200000001
 20
168.282104
 30
0.0
 11
96.990534
 21
166.282122
 31
0.0
  0
LINE
  5
B9
330
A
100
AcDbEntity
  8
Hawa4
 62
     4
 48
0.032675
100
AcDbLine
 10
95.75720200000001
 20
168.282103
 30
0.0
 11
94.45019499999999
 21
168.282103
 31
0.0
  0
LINE
  5
BA
330
A
100
AcDbEntity
  8
Hawa4
 62
     4
 48
0.028285
100
AcDbLine
 10
96.990709
 20
166.281979
 30
0.0
 11
96.190683
 21
165.481951
 31
0.0
  0
LINE
  5
BB
330
A
100
AcDbEntity
  8
Hawa4
 62
     4
 48
0.032672
100
AcDbLine
 10
93.216797
 20
168.282103
 30
0.0
 11
91.90990799999999
 21
168.282103
 31
0.0
  0
LINE
  5
BC
330
A
100
AcDbEntity
  8
Hawa4
 62
     4
 48
0.02
100
AcDbLine
 10
94.990562
 20
166.282084
 30
0.0
 11
94.990562
 21
165.48208
 31
0.0
  0
LINE
  5
BD
330
A
100
AcDbEntity
  8
Hawa4
 62
     4
 48
0.012502
100
AcDbLine
 10
94.99060099999999
 20
166.282074
 30
0.0
 11
94.49054
 21
166.282074
 31
0.0
  0
LINE
  5
BE
330
A
100
AcDbEntity
  8
Hawa4
 62
     4
 48
0.028285
100
AcDbLine
 10
94.490025
 20
166.282583
 30
0.0
 11
93.689999
 21
165.482553
 31
0.0
  0
LINE
  5
BF
330
A
100
AcDbEntity
  8
Hawa4
 62
     4
 48
0.012502
100
AcDbLine
 10
92.49060099999999
 20
166.282074
 30
0.0
 11
91.99054
 21
166.282074
 31
0.0
  0
LINE
  5
C0
330
A
100
AcDbEntity
  8
Hawa4
 62
     4
 48
0.02
100
AcDbLine
 10
89.490543
 20
170.2821139999999
 30
0.0
 11
89.490543
 21
169.482109
 31
0.0
  0
LINE
  5
C1
330
A
100
AcDbEntity
  8
Hawa4
 62
     4
 48
0.03
100
AcDbLine
 10
93.690613
 20
165.482101
 30
0.0
 11
92.49060099999999
 21
165.482101
 31
0.0
  0
LINE
  5
C2
330
A
100
AcDbEntity
  8
Hawa4
 62
     4
 48
0.03
100
AcDbLine
 10
91.19060899999999
 20
165.482101
 30
0.0
 11
89.99060099999999
 21
165.482101
 31
0.0
  0
LINE
  5
C3
330
A
100
AcDbEntity
  8
Hawa4
 62
     4
 48
0.043164
100
AcDbLine
 10
91.217102
 20
169.482086
 30
0.0
 11
89.49054
 21
169.482086
 31
0.0
  0
LINE
  5
C4
330
A
100
AcDbEntity
  8
Hawa4
 62
     4
 48
0.048297
100
AcDbLine
 10
89.990547
 20
172.1481629999999
 30
0.0
 11
89.49054
 21
170.282106
 31
0.0
  0
LINE
  5
C5
330
A
100
AcDbEntity
  8
Hawa4
 62
     4
 48
0.02
100
AcDbLine
 10
92.490608
 20
166.282118
 30
0.0
 11
92.490608
 21
165.4821
 31
0.0
  0
LINE
  5
C6
330
A
100
AcDbEntity
  8
Hawa4
 62
     4
 48
0.028284
100
AcDbLine
 10
91.99062299999999
 20
166.281982
 30
0.0
 11
91.190639
 21
165.481997
 31
0.0
  0
LINE
  5
C7
330
A
100
AcDbEntity
  8
Hawa4
 62
     4
 48
0.03464
100
AcDbLine
 10
91.217064
 20
169.482103
 30
0.0
 11
91.90986999999999
 21
168.282129
 31
0.0
  0
LINE
  5
C8
330
A
100
AcDbEntity
  8
Hawa4
 62
     4
 48
0.189807
100
AcDbLine
 10
86.990707
 20
165.481998
 30
0.0
 11
83.194561
 21
158.906883
 31
0.0
  0
LINE
  5
C9
330
A
100
AcDbEntity
  8
Hawa4
 62
     4
 48
0.134842
100
AcDbLine
 10
85.24591800000001
 20
159.010529
 30
0.0
 11
88.882828
 21
162.993576
 31
0.0
  0
LINE
  5
CA
330
A
100
AcDbEntity
  8
Hawa4
 62
     4
 48
0.188856
100
AcDbLine
 10
86.99062299999999
 20
165.482052
 30
0.0
 11
89.11214800000001
 21
172.732262
 31
0.0
  0
LINE
  5
CB
330
A
100
AcDbEntity
  8
Hawa4
 62
     4
 48
0.03
100
AcDbLine
 10
96.190613
 20
229.982101
 30
0.0
 11
94.99060099999999
 21
229.982101
 31
0.0
  0
LINE
  5
CC
330
A
100
AcDbEntity
  8
Hawa4
 62
     4
 48
0.05
100
AcDbLine
 10
96.99051700000001
 20
232.782089
 30
0.0
 11
96.990519
 21
230.782104
 31
0.0
  0
LINE
  5
CD
330
A
100
AcDbEntity
  8
Hawa4
 62
     4
 48
0.032675
100
AcDbLine
 10
95.75720200000001
 20
232.782089
 30
0.0
 11
94.45019499999999
 21
232.782089
 31
0.0
  0
LINE
  5
CE
330
A
100
AcDbEntity
  8
Hawa4
 62
     4
 48
0.028284
100
AcDbLine
 10
96.990616
 20
230.782188
 30
0.0
 11
96.190636
 21
229.982201
 31
0.0
  0
LINE
  5
CF
330
A
100
AcDbEntity
  8
Hawa4
 62
     4
 48
0.032672
100
AcDbLine
 10
93.216797
 20
232.782089
 30
0.0
 11
91.90990799999999
 21
232.782089
 31
0.0
  0
LINE
  5
D0
330
A
100
AcDbEntity
  8
Hawa4
 62
     4
 48
0.02
100
AcDbLine
 10
94.99058000000001
 20
230.782112
 30
0.0
 11
94.99058199999998
 21
229.982094
 31
0.0
  0
LINE
  5
D1
330
A
100
AcDbEntity
  8
Hawa4
 62
     4
 48
0.012502
100
AcDbLine
 10
94.99060099999999
 20
230.782104
 30
0.0
 11
94.49054
 21
230.782104
 31
0.0
  0
LINE
  5
D2
330
A
100
AcDbEntity
  8
Hawa4
 62
     4
 48
0.028284
100
AcDbLine
 10
94.49054100000001
 20
230.782265
 30
0.0
 11
93.69055899999999
 21
229.982285
 31
0.0
  0
LINE
  5
D3
330
A
100
AcDbEntity
  8
Hawa4
 62
     4
 48
0.012502
100
AcDbLine
 10
92.49060099999999
 20
230.782104
 30
0.0
 11
91.99054
 21
230.782104
 31
0.0
  0
LINE
  5
D4
330
A
100
AcDbEntity
  8
Hawa4
 62
     4
 48
0.02
100
AcDbLine
 10
89.490578
 20
234.782104
 30
0.0
 11
89.490578
 21
233.982101
 31
0.0
  0
LINE
  5
D5
330
A
100
AcDbEntity
  8
Hawa4
 62
     4
 48
0.03
100
AcDbLine
 10
93.690613
 20
229.982101
 30
0.0
 11
92.49060099999999
 21
229.982101
 31
0.0
  0
LINE
  5
D6
330
A
100
AcDbEntity
  8
Hawa4
 62
     4
 48
0.03
100
AcDbLine
 10
91.19060899999999
 20
229.982101
 30
0.0
 11
89.99060099999999
 21
229.982101
 31
0.0
  0
LINE
  5
D7
330
A
100
AcDbEntity
  8
Hawa4
 62
     4
 48
0.043164
100
AcDbLine
 10
91.217102
 20
233.982101
 30
0.0
 11
89.49054
 21
233.982101
 31
0.0
  0
LINE
  5
D8
330
A
100
AcDbEntity
  8
Hawa4
 62
     4
 48
0.048296
100
AcDbLine
 10
89.990631
 20
236.648048
 30
0.0
 11
89.49063499999999
 21
234.782021
 31
0.0
  0
LINE
  5
D9
330
A
100
AcDbEntity
  8
Hawa4
 62
     4
 48
0.02
100
AcDbLine
 10
92.49058899999999
 20
230.78212
 30
0.0
 11
92.49058899999999
 21
229.982101
 31
0.0
  0
LINE
  5
DA
330
A
100
AcDbEntity
  8
Hawa4
 62
     4
 48
0.028284
100
AcDbLine
 10
91.991104
 20
230.781776
 30
0.0
 11
91.19111600000001
 21
229.981789
 31
0.0
  0
LINE
  5
DB
330
A
100
AcDbEntity
  8
Hawa4
 62
     4
 48
0.05
100
AcDbLine
 10
89.99060400000001
 20
229.982101
 30
0.0
 11
89.99060400000001
 21
227.982117
 31
0.0
  0
LINE
  5
DC
330
A
100
AcDbEntity
  8
Hawa4
 62
     4
 48
0.034642
100
AcDbLine
 10
91.21704900000001
 20
233.982071
 30
0.0
 11
91.90989300000001
 21
232.782036
 31
0.0
  0
LINE
  5
DD
330
A
100
AcDbEntity
  8
Hawa4
 62
     4
 48
0.141147
100
AcDbLine
 10
87.52659200000001
 20
231.813606
 30
0.0
 11
89.11217499999999
 21
237.232262
 31
0.0
  0
LINE
  5
DE
330
A
100
AcDbEntity
  8
Hawa4
 62
     4
 48
0.141037
100
AcDbLine
 10
85.495026
 20
213.167603
 30
0.0
 11
81.074005
 21
216.672005
 31
0.0
  0
LINE
  5
DF
330
A
100
AcDbEntity
  8
Hawa4
 62
     4
 48
0.141039
100
AcDbLine
 10
85.49459099999999
 20
228.797112
 30
0.0
 11
81.07352400000001
 21
225.292656
 31
0.0
  0
LINE
  5
E0
330
A
100
AcDbEntity
  8
Hawa4
 62
     4
 48
0.184135
100
AcDbLine
 10
89.327099
 20
227.827446
 30
0.0
 11
82.72134799999999
 21
224.569618
 31
0.0
  0
LINE
  5
E1
330
A
100
AcDbEntity
  8
Hawa4
 62
     4
 48
0.184136
100
AcDbLine
 10
82.72126400000001
 20
217.394646
 30
0.0
 11
89.32704499999999
 21
214.136795
 31
0.0
  0
LINE
  5
E3
330
A
100
AcDbEntity
  8
Hawa4
 62
     4
 48
0.030002
100
AcDbLine
 10
92.490482
 20
68.482162
 30
0.0
 11
93.69055899999999
 21
68.48215500000001
 31
0.0
  0
LINE
  5
E6
330
A
100
AcDbEntity
  8
Hawa4
 62
     4
 48
0.05
100
AcDbLine
 10
89.990532
 20
89.48209799999998
 30
0.0
 11
89.990532
 21
91.482101
 31
0.0
  0
LINE
  5
E8
330
A
100
AcDbEntity
  8
Hawa4
 62
     4
 48
0.032501
100
AcDbLine
 10
89.99060099999999
 20
98.148098
 30
0.0
 11
89.99060099999999
 21
99.44815099999999
 31
0.0
  0
LINE
  5
E9
330
A
100
AcDbEntity
  8
Hawa4
 62
     4
 48
0.032501
100
AcDbLine
 10
89.99060099999999
 20
61.81607099999999
 30
0.0
 11
89.99060099999999
 21
60.516022
 31
0.0
  0
LINE
  5
EA
330
A
100
AcDbEntity
  8
Hawa4
 62
     4
 48
0.014024
100
AcDbLine
 10
95.11364699999999
 20
95.48208199999999
 30
0.0
 11
94.552673
 21
95.48208199999999
 31
0.0
  0
LINE
  5
EB
330
A
100
AcDbEntity
  8
Hawa4
 62
     4
 48
0.014026
100
AcDbLine
 10
92.57330300000001
 20
95.48208199999999
 30
0.0
 11
92.01227199999999
 21
95.48208199999999
 31
0.0
  0
LINE
  5
EC
330
A
100
AcDbEntity
  8
Hawa4
 62
     4
 48
0.014024
100
AcDbLine
 10
95.11364699999999
 20
64.482086
 30
0.0
 11
94.552673
 21
64.482086
 31
0.0
  0
LINE
  5
ED
330
A
100
AcDbEntity
  8
Hawa4
 62
     4
 48
0.014026
100
AcDbLine
 10
92.57330300000001
 20
64.482086
 30
0.0
 11
92.01227199999999
 21
64.482086
 31
0.0
  0
LINE
  5
EE
330
A
100
AcDbEntity
  8
Hawa4
 62
     4
 48
0.0325
100
AcDbLine
 10
89.99055099999999
 20
136.516046
 30
0.0
 11
89.99055099999999
 21
137.816065
 31
0.0
  0
LINE
  5
F1
330
A
100
AcDbEntity
  8
Hawa4
 62
     4
 48
0.014024
100
AcDbLine
 10
94.552673
 20
140.482086
 30
0.0
 11
95.11364699999999
 21
140.482086
 31
0.0
  0
LINE
  5
F2
330
A
100
AcDbEntity
  8
Hawa4
 62
     4
 48
0.014026
100
AcDbLine
 10
92.01227199999999
 20
140.482086
 30
0.0
 11
92.57330300000001
 21
140.482086
 31
0.0
  0
LINE
  5
F4
330
A
100
AcDbEntity
  8
Hawa4
 62
     4
 48
0.029999
100
AcDbLine
 10
96.190496
 20
165.48209
 30
0.0
 11
94.99054499999999
 21
165.48209
 31
0.0
  0
LINE
  5
F5
330
A
100
AcDbEntity
  8
Hawa4
 62
     4
 48
0.014024
100
AcDbLine
 10
95.11364699999999
 20
169.482086
 30
0.0
 11
94.552673
 21
169.482086
 31
0.0
  0
LINE
  5
F6
330
A
100
AcDbEntity
  8
Hawa4
 62
     4
 48
0.014026
100
AcDbLine
 10
92.57330300000001
 20
169.482086
 30
0.0
 11
92.01227199999999
 21
169.482086
 31
0.0
  0
LINE
  5
F7
330
A
100
AcDbEntity
  8
Hawa4
 62
     4
 48
0.0325
100
AcDbLine
 10
89.99058899999999
 20
172.148106
 30
0.0
 11
89.99058899999999
 21
173.448124
 31
0.0
  0
LINE
  5
F8
330
A
100
AcDbEntity
  8
Hawa4
 62
     4
 48
0.05
100
AcDbLine
 10
89.99060099999999
 20
165.482101
 30
0.0
 11
89.99060099999999
 21
163.482084
 31
0.0
  0
LINE
  5
FA
330
A
100
AcDbEntity
  8
Hawa4
 62
     4
 48
0.05
100
AcDbLine
 10
89.99060099999999
 20
144.482086
 30
0.0
 11
89.99060099999999
 21
146.482085
 31
0.0
  0
LINE
  5
FC
330
A
100
AcDbEntity
  8
Hawa4
 62
     4
 48
0.014024
100
AcDbLine
 10
95.11364699999999
 20
207.982101
 30
0.0
 11
94.552673
 21
207.982101
 31
0.0
  0
LINE
  5
FD
330
A
100
AcDbEntity
  8
Hawa4
 62
     4
 48
0.014026
100
AcDbLine
 10
92.57330300000001
 20
207.982101
 30
0.0
 11
92.01227199999999
 21
207.982101
 31
0.0
  0
LINE
  5
FE
330
A
100
AcDbEntity
  8
Hawa4
 62
     4
 48
0.0325
100
AcDbLine
 10
89.990505
 20
205.316055
 30
0.0
 11
89.990505
 21
204.016037
 31
0.0
  0
LINE
  5
FF
330
A
100
AcDbEntity
  8
Hawa4
 62
     4
 48
0.032501
100
AcDbLine
 10
89.99051300000001
 20
236.648109
 30
0.0
 11
89.99051300000001
 21
237.948143
 31
0.0
  0
LINE
  5
100
330
A
100
AcDbEntity
  8
Hawa4
 62
     4
 48
0.014026
100
AcDbLine
 10
92.57330300000001
 20
233.982101
 30
0.0
 11
92.01227199999999
 21
233.982101
 31
0.0
  0
LINE
  5
101
330
A
100
AcDbEntity
  8
Hawa4
 62
     4
 48
0.014024
100
AcDbLine
 10
95.11364699999999
 20
233.982101
 30
0.0
 11
94.552673
 21
233.982101
 31
0.0
  0
LINE
  5
102
330
A
100
AcDbEntity
  8
Hawa1
 62
     2
 48
0.4591510000000001
100
AcDbLine
 10
71.54455899999999
 20
134.982056
 30
0.0
 11
89.91059900000001
 21
134.982056
 31
0.0
  0
LINE
  5
103
330
A
100
AcDbEntity
  8
Hawa1
 62
     2
 48
0.4496100000000001
100
AcDbLine
 10
71.926186
 20
174.982086
 30
0.0
 11
89.91059900000001
 21
174.982086
 31
0.0
  0
LINE
  5
104
330
A
100
AcDbEntity
  8
Hawa1
 62
     2
 48
0.444757
100
AcDbLine
 10
72.120312
 20
238.982101
 30
0.0
 11
89.91059900000001
 21
238.982101
 31
0.0
  0
LINE
  5
105
330
A
100
AcDbEntity
  8
Hawa1
 62
     2
 48
0.449705
100
AcDbLine
 10
71.922382
 20
202.982101
 30
0.0
 11
89.91059900000001
 21
202.982101
 31
0.0
  0
LINE
  5
106
330
A
100
AcDbEntity
  8
Hawa1
 62
     2
 48
0.2675619999999999
100
AcDbLine
 10
79.20811500000001
 20
54.98208599999999
 30
0.0
 11
89.91059900000001
 21
54.98208599999999
 31
0.0
  0
LINE
  5
107
330
A
100
AcDbEntity
  8
Hawa1
 62
     2
 48
0.2675619999999999
100
AcDbLine
 10
79.20811500000001
 20
104.982086
 30
0.0
 11
89.91059900000001
 21
104.982086
 31
0.0
  0
ARC
  5
108
330
A
100
AcDbEntity
  8
Hawa4
 62
     4
100
AcDbCircle
 10
89.99060099999999
 20
71.982086
 30
0.0
 40
1.5
100
AcDbArc
 50
222.399113
 51
270.000001
  0
ARC
  5
109
330
A
100
AcDbEntity
  8
Hawa4
 62
     4
100
AcDbCircle
 10
90.071835
 20
61.512726
 30
0.0
 40
1.0
100
AcDbArc
 50
196.310292
 51
265.3379319999999
  0
ARC
  5
10A
330
A
100
AcDbEntity
  8
Hawa4
 62
     4
100
AcDbCircle
 10
89.99060099999999
 20
147.9821
 30
0.0
 40
1.5
100
AcDbArc
 50
222.399113
 51
270.000001
  0
ARC
  5
10B
330
A
100
AcDbEntity
  8
Hawa4
 62
     4
100
AcDbCircle
 10
90.071835
 20
137.512695
 30
0.0
 40
1.0
100
AcDbArc
 50
196.310292
 51
265.337959
  0
ARC
  5
10C
330
A
100
AcDbEntity
  8
Hawa4
 62
     4
100
AcDbCircle
 10
89.99060099999999
 20
215.482101
 30
0.0
 40
1.5
100
AcDbArc
 50
243.748332
 51
270.000001
  0
ARC
  5
10D
330
A
100
AcDbEntity
  8
Hawa4
 62
     4
100
AcDbCircle
 10
90.071835
 20
205.012741
 30
0.0
 40
1.0
100
AcDbArc
 50
196.310292
 51
265.337959
  0
ARC
  5
10E
330
A
100
AcDbEntity
  8
Hawa4
 62
     4
100
AcDbCircle
 10
89.99060099999999
 20
87.98208199999999
 30
0.0
 40
1.5
100
AcDbArc
 50
90.00000300000001
 51
137.600882
  0
ARC
  5
10F
330
A
100
AcDbEntity
  8
Hawa4
 62
     4
100
AcDbCircle
 10
90.071835
 20
98.45144300000001
 30
0.0
 40
1.0
100
AcDbArc
 50
94.66203699999999
 51
163.68969
  0
ARC
  5
110
330
A
100
AcDbEntity
  8
Hawa4
 62
     4
100
AcDbCircle
 10
89.99060099999999
 20
161.982086
 30
0.0
 40
1.5
100
AcDbArc
 50
90.00000300000001
 51
137.600882
  0
ARC
  5
111
330
A
100
AcDbEntity
  8
Hawa4
 62
     4
100
AcDbCircle
 10
90.071835
 20
172.451447
 30
0.0
 40
1.0
100
AcDbArc
 50
94.66203699999999
 51
163.68969
  0
ARC
  5
112
330
A
100
AcDbEntity
  8
Hawa4
 62
     4
100
AcDbCircle
 10
89.99060099999999
 20
226.482094
 30
0.0
 40
1.5
100
AcDbArc
 50
90.00000300000001
 51
116.251596
  0
ARC
  5
113
330
A
100
AcDbEntity
  8
Hawa4
 62
     4
100
AcDbCircle
 10
90.071835
 20
236.951454
 30
0.0
 40
1.0
100
AcDbArc
 50
94.66205
 51
163.68969
  0
ARC
  5
114
330
A
100
AcDbEntity
  8
Hawa4
 62
     4
100
AcDbCircle
 10
100.49054
 20
79.98209
 30
0.0
 40
17.5
100
AcDbArc
 50
145.573557
 51
214.426438
  0
ARC
  5
115
330
A
100
AcDbEntity
  8
Hawa4
 62
     4
100
AcDbCircle
 10
100.49054
 20
79.98209
 30
0.0
 40
16.0
100
AcDbArc
 50
167.738531
 51
192.261465
  0
ARC
  5
116
330
A
100
AcDbEntity
  8
Hawa4
 62
     4
100
AcDbCircle
 10
88.990597
 20
154.982085
 30
0.0
 40
7.0
100
AcDbArc
 50
145.896105
 51
214.10415
  0
ARC
  5
117
330
A
100
AcDbEntity
  8
Hawa4
 62
     4
100
AcDbCircle
 10
88.990597
 20
154.982085
 30
0.0
 40
5.5
100
AcDbArc
 50
132.909403
 51
227.090773
  0
ARC
  5
118
330
A
100
AcDbEntity
  8
Hawa4
 62
     4
100
AcDbCircle
 10
84.49054
 20
220.982086
 30
0.0
 40
5.5
100
AcDbArc
 50
128.402856
 51
231.59718
  0
ARC
  5
119
330
A
100
AcDbEntity
  8
Hawa4
 62
     4
100
AcDbCircle
 10
84.49054
 20
220.982086
 30
0.0
 40
4.0
100
AcDbArc
 50
116.251622
 51
243.748332
  0
ARC
  5
11A
330
A
100
AcDbEntity
  8
Hawa4
 62
     4
100
AcDbCircle
 10
81.768005
 20
208.465523
 30
0.0
 40
6.000001999999999
100
AcDbArc
 50
16.31029599999999
 51
51.597195
  0
ARC
  5
11B
330
A
100
AcDbEntity
  8
Hawa4
 62
     4
100
AcDbCircle
 10
81.768005
 20
233.498642
 30
0.0
 40
6.000001999999999
100
AcDbArc
 50
308.402822
 51
343.68971
  0
ARC
  5
11C
330
A
100
AcDbEntity
  8
Hawa4
 62
     4
100
AcDbCircle
 10
78.63201899999999
 20
65.00039699999999
 30
0.0
 40
9.000002
100
AcDbArc
 50
16.310322
 51
34.42647
  0
ARC
  5
11D
330
A
100
AcDbEntity
  8
Hawa4
 62
     4
100
AcDbCircle
 10
78.63201899999999
 20
94.963837
 30
0.0
 40
9.000002
100
AcDbArc
 50
325.573562
 51
343.68971
  0
ARC
  5
11E
330
A
100
AcDbEntity
  8
Hawa4
 62
     4
100
AcDbCircle
 10
90.71863200000001
 20
82.105869
 30
0.0
 40
6.000001
100
AcDbArc
 50
137.600882
 51
167.738531
  0
ARC
  5
11F
330
A
100
AcDbEntity
  8
Hawa4
 62
     4
100
AcDbCircle
 10
90.71863200000001
 20
77.858372
 30
0.0
 40
6.000001
100
AcDbArc
 50
192.261451
 51
222.399086
  0
ARC
  5
120
330
A
100
AcDbEntity
  8
Hawa4
 62
     4
100
AcDbCircle
 10
95.002075
 20
231.743553
 30
0.0
 40
2.241322999999999
100
AcDbArc
 50
27.604489
 51
87.148965
  0
ARC
  5
121
330
A
100
AcDbEntity
  8
Hawa4
 62
     4
100
AcDbCircle
 10
95.002075
 20
231.743553
 30
0.0
 40
1.284005999999999
100
AcDbArc
 50
53.982464
 51
100.557815
  0
ARC
  5
122
330
A
100
AcDbEntity
  8
Hawa4
 62
     4
100
AcDbCircle
 10
94.675232
 20
233.497345
 30
0.0
 40
0.5000020000000001
100
AcDbArc
 50
104.192296
 51
280.557806
  0
ARC
  5
123
330
A
100
AcDbEntity
  8
Hawa4
 62
     4
100
AcDbCircle
 10
92.461731
 20
231.743553
 30
0.0
 40
2.241322999999999
100
AcDbArc
 50
27.604489
 51
87.148965
  0
ARC
  5
124
330
A
100
AcDbEntity
  8
Hawa4
 62
     4
100
AcDbCircle
 10
92.461731
 20
231.743553
 30
0.0
 40
1.284005999999999
100
AcDbArc
 50
53.982464
 51
100.557815
  0
ARC
  5
125
330
A
100
AcDbEntity
  8
Hawa4
 62
     4
100
AcDbCircle
 10
92.134888
 20
233.497345
 30
0.0
 40
0.5000020000000001
100
AcDbArc
 50
104.192296
 51
280.557806
  0
ARC
  5
126
330
A
100
AcDbEntity
  8
Hawa4
 62
     4
100
AcDbCircle
 10
95.002075
 20
167.243578
 30
0.0
 40
2.241322999999999
100
AcDbArc
 50
27.604489
 51
87.148965
  0
ARC
  5
127
330
A
100
AcDbEntity
  8
Hawa4
 62
     4
100
AcDbCircle
 10
95.002075
 20
167.243578
 30
0.0
 40
1.284005999999999
100
AcDbArc
 50
53.982464
 51
100.557815
  0
ARC
  5
128
330
A
100
AcDbEntity
  8
Hawa4
 62
     4
100
AcDbCircle
 10
94.675232
 20
168.997358
 30
0.0
 40
0.5000020000000001
100
AcDbArc
 50
104.192296
 51
280.557806
  0
ARC
  5
129
330
A
100
AcDbEntity
  8
Hawa4
 62
     4
100
AcDbCircle
 10
92.461731
 20
167.243578
 30
0.0
 40
2.241322999999999
100
AcDbArc
 50
27.604489
 51
87.148965
  0
ARC
  5
12A
330
A
100
AcDbEntity
  8
Hawa4
 62
     4
100
AcDbCircle
 10
92.461731
 20
167.243578
 30
0.0
 40
1.284005999999999
100
AcDbArc
 50
53.982464
 51
100.557815
  0
ARC
  5
12B
330
A
100
AcDbEntity
  8
Hawa4
 62
     4
100
AcDbCircle
 10
92.134888
 20
168.997358
 30
0.0
 40
0.5000020000000001
100
AcDbArc
 50
104.192296
 51
280.557806
  0
ARC
  5
12C
330
A
100
AcDbEntity
  8
Hawa4
 62
     4
100
AcDbCircle
 10
95.002075
 20
93.24356100000001
 30
0.0
 40
2.241322999999999
100
AcDbArc
 50
27.604489
 51
87.148965
  0
ARC
  5
12D
330
A
100
AcDbEntity
  8
Hawa4
 62
     4
100
AcDbCircle
 10
95.002075
 20
93.24356100000001
 30
0.0
 40
1.284005999999999
100
AcDbArc
 50
53.982464
 51
100.557815
  0
ARC
  5
12E
330
A
100
AcDbEntity
  8
Hawa4
 62
     4
100
AcDbCircle
 10
94.675171
 20
94.997406
 30
0.0
 40
0.5000020000000001
100
AcDbArc
 50
104.192296
 51
280.557806
  0
ARC
  5
12F
330
A
100
AcDbEntity
  8
Hawa4
 62
     4
100
AcDbCircle
 10
92.461731
 20
93.24356100000001
 30
0.0
 40
2.241322999999999
100
AcDbArc
 50
27.604489
 51
87.148965
  0
ARC
  5
130
330
A
100
AcDbEntity
  8
Hawa4
 62
     4
100
AcDbCircle
 10
92.461731
 20
93.24356100000001
 30
0.0
 40
1.284005999999999
100
AcDbArc
 50
53.982464
 51
100.557815
  0
ARC
  5
131
330
A
100
AcDbEntity
  8
Hawa4
 62
     4
100
AcDbCircle
 10
92.134888
 20
94.997345
 30
0.0
 40
0.5000020000000001
100
AcDbArc
 50
104.192296
 51
280.557806
  0
ARC
  5
132
330
A
100
AcDbEntity
  8
Hawa4
 62
     4
100
AcDbCircle
 10
95.002075
 20
210.220642
 30
0.0
 40
2.241322999999999
100
AcDbArc
 50
272.851031
 51
332.395499
  0
ARC
  5
133
330
A
100
AcDbEntity
  8
Hawa4
 62
     4
100
AcDbCircle
 10
95.002075
 20
210.220642
 30
0.0
 40
1.284005999999999
100
AcDbArc
 50
259.442195
 51
306.017529
  0
ARC
  5
134
330
A
100
AcDbEntity
  8
Hawa4
 62
     4
100
AcDbCircle
 10
94.675232
 20
208.46682
 30
0.0
 40
0.5000020000000001
100
AcDbArc
 50
79.44219
 51
255.807687
  0
ARC
  5
135
330
A
100
AcDbEntity
  8
Hawa4
 62
     4
100
AcDbCircle
 10
92.461731
 20
210.220642
 30
0.0
 40
2.241322999999999
100
AcDbArc
 50
272.851031
 51
332.395499
  0
ARC
  5
136
330
A
100
AcDbEntity
  8
Hawa4
 62
     4
100
AcDbCircle
 10
92.461731
 20
210.220642
 30
0.0
 40
1.284005999999999
100
AcDbArc
 50
259.442195
 51
306.017529
  0
ARC
  5
137
330
A
100
AcDbEntity
  8
Hawa4
 62
     4
100
AcDbCircle
 10
92.134888
 20
208.46682
 30
0.0
 40
0.5000020000000001
100
AcDbArc
 50
79.44219
 51
255.807687
  0
ARC
  5
138
330
A
100
AcDbEntity
  8
Hawa4
 62
     4
100
AcDbCircle
 10
95.002075
 20
142.720611
 30
0.0
 40
2.241322999999999
100
AcDbArc
 50
272.851031
 51
332.395499
  0
ARC
  5
139
330
A
100
AcDbEntity
  8
Hawa4
 62
     4
100
AcDbCircle
 10
95.002075
 20
142.720611
 30
0.0
 40
1.284005999999999
100
AcDbArc
 50
259.442195
 51
306.017529
  0
ARC
  5
13A
330
A
100
AcDbEntity
  8
Hawa4
 62
     4
100
AcDbCircle
 10
94.675232
 20
140.966827
 30
0.0
 40
0.5000020000000001
100
AcDbArc
 50
79.44219
 51
255.807687
  0
ARC
  5
13B
330
A
100
AcDbEntity
  8
Hawa4
 62
     4
100
AcDbCircle
 10
92.461731
 20
142.720611
 30
0.0
 40
2.241322999999999
100
AcDbArc
 50
272.851031
 51
332.395499
  0
ARC
  5
13C
330
A
100
AcDbEntity
  8
Hawa4
 62
     4
100
AcDbCircle
 10
92.461731
 20
142.720611
 30
0.0
 40
1.284005999999999
100
AcDbArc
 50
259.442195
 51
306.017529
  0
ARC
  5
13D
330
A
100
AcDbEntity
  8
Hawa4
 62
     4
100
AcDbCircle
 10
92.134888
 20
140.966827
 30
0.0
 40
0.5000020000000001
100
AcDbArc
 50
79.44219
 51
255.807687
  0
ARC
  5
13E
330
A
100
AcDbEntity
  8
Hawa4
 62
     4
100
AcDbCircle
 10
95.002075
 20
66.72067300000001
 30
0.0
 40
2.241322999999999
100
AcDbArc
 50
272.851031
 51
332.395499
  0
ARC
  5
13F
330
A
100
AcDbEntity
  8
Hawa4
 62
     4
100
AcDbCircle
 10
95.002075
 20
66.72067300000001
 30
0.0
 40
1.284005999999999
100
AcDbArc
 50
259.442195
 51
306.017529
  0
ARC
  5
140
330
A
100
AcDbEntity
  8
Hawa4
 62
     4
100
AcDbCircle
 10
94.675232
 20
64.966827
 30
0.0
 40
0.5000020000000001
100
AcDbArc
 50
79.44219
 51
255.807687
  0
ARC
  5
141
330
A
100
AcDbEntity
  8
Hawa4
 62
     4
100
AcDbCircle
 10
92.461731
 20
66.72067300000001
 30
0.0
 40
2.241322999999999
100
AcDbArc
 50
272.851031
 51
332.395499
  0
ARC
  5
142
330
A
100
AcDbEntity
  8
Hawa4
 62
     4
100
AcDbCircle
 10
92.461731
 20
66.72067300000001
 30
0.0
 40
1.284005999999999
100
AcDbArc
 50
259.442195
 51
306.017529
  0
ARC
  5
143
330
A
100
AcDbEntity
  8
Hawa4
 62
     4
100
AcDbCircle
 10
92.134888
 20
64.96689599999999
 30
0.0
 40
0.5000020000000001
100
AcDbArc
 50
79.44219
 51
255.807687
  0
LINE
  5
144
330
A
100
AcDbEntity
  8
Hawa1
 62
     2
 48
0.05
100
AcDbLine
 10
66.44381
 20
54.98208599999999
 30
0.0
 11
68.44381
 21
54.98208599999999
 31
0.0
  0
LINE
  5
145
330
A
100
AcDbEntity
  8
Hawa1
 62
     2
 48
0.05
100
AcDbLine
 10
65.726715
 20
104.982086
 30
0.0
 11
67.726715
 21
104.982086
 31
0.0
  0
LINE
  5
146
330
A
100
AcDbEntity
  8
Hawa1
 62
     2
 48
0.05
100
AcDbLine
 10
70.979218
 20
174.982086
 30
0.0
 11
72.97921800000001
 21
174.982086
 31
0.0
  0
LINE
  5
147
330
A
100
AcDbEntity
  8
Hawa1
 62
     2
 48
0.05
100
AcDbLine
 10
70.943844
 20
202.982101
 30
0.0
 11
72.943844
 21
202.982101
 31
0.0
  0
LINE
  5
26A
330
A
100
AcDbEntity
  8
Hawa2
 62
     9
 48
0.002714
100
AcDbLine
 10
89.91382300000003
 20
60.54689799999998
 30
0.0
 11
89.99059299999997
 21
60.62367199999997
 31
0.0
  0
LINE
  5
26B
330
A
100
AcDbEntity
  8
Hawa2
 62
     9
 48
0.022153
100
AcDbLine
 10
94.199868
 20
64.83294699999999
 30
0.0
 11
94.82645500000002
 21
65.45953399999999
 31
0.0
  0
LINE
  5
26C
330
A
100
AcDbEntity
  8
Hawa2
 62
     9
 48
0.068643
100
AcDbLine
 10
95.049019
 20
65.68209799999999
 30
0.0
 11
96.99054
 21
67.62361899999999
 31
0.0
  0
LINE
  5
26D
330
A
100
AcDbEntity
  8
Hawa2
 62
     9
 48
0.029575
100
AcDbLine
 10
88.80833499999999
 20
62.269836
 30
0.0
 11
89.644829
 21
63.10633899999999
 31
0.0
  0
LINE
  5
26E
330
A
100
AcDbEntity
  8
Hawa2
 62
     9
 48
0.016438
100
AcDbLine
 10
91.020581
 20
64.482086
 30
0.0
 11
91.485505
 21
64.947014
 31
0.0
  0
LINE
  5
26F
330
A
100
AcDbEntity
  8
Hawa2
 62
     9
 48
0.004864
100
AcDbLine
 10
91.74045600000001
 20
65.20196499999999
 30
0.0
 11
91.878045
 21
65.33955399999999
 31
0.0
  0
LINE
  5
270
330
A
100
AcDbEntity
  8
Hawa2
 62
     9
 48
0.075482
100
AcDbLine
 10
92.220639
 20
65.68214399999999
 30
0.0
 11
94.355597
 21
67.81710099999999
 31
0.0
  0
LINE
  5
271
330
A
100
AcDbEntity
  8
Hawa2
 62
     9
 48
0.00106
100
AcDbLine
 10
94.99060099999999
 20
68.45210999999999
 30
0.0
 11
95.02058100000001
 21
68.48208599999999
 31
0.0
  0
LINE
  5
272
330
A
100
AcDbEntity
  8
Hawa2
 62
     9
 48
0.124568
100
AcDbLine
 10
88.16804199999999
 20
64.45797699999999
 30
0.0
 11
91.69136100000001
 21
67.98129300000001
 31
0.0
  0
LINE
  5
273
330
A
100
AcDbEntity
  8
Hawa2
 62
     9
 48
0.087075
100
AcDbLine
 10
87.52775199999998
 20
66.64611099999999
 30
0.0
 11
89.99060099999999
 21
69.10896299999999
 31
0.0
  0
LINE
  5
274
330
A
100
AcDbEntity
  8
Hawa2
 62
     9
 48
0.076393
100
AcDbLine
 10
86.80420000000003
 20
68.75098399999998
 30
0.0
 11
88.964917
 21
70.911705
 31
0.0
  0
LINE
  5
275
330
A
100
AcDbEntity
  8
Hawa2
 62
     9
 48
0.063604
100
AcDbLine
 10
85.80122399999998
 20
70.57643900000001
 30
0.0
 11
87.60020899999998
 21
72.37542699999998
 31
0.0
  0
LINE
  5
276
330
A
100
AcDbEntity
  8
Hawa2
 62
     9
 48
0.050337
100
AcDbLine
 10
84.831768
 20
72.43540999999997
 30
0.0
 11
86.25550500000001
 21
73.85914599999999
 31
0.0
  0
LINE
  5
277
330
A
100
AcDbEntity
  8
Hawa2
 62
     9
 48
0.043437
100
AcDbLine
 10
83.97010100000001
 20
74.40216799999998
 30
0.0
 11
85.19869299999998
 21
75.63076399999999
 31
0.0
  0
LINE
  5
278
330
A
100
AcDbEntity
  8
Hawa2
 62
     9
 48
0.045734
100
AcDbLine
 10
83.41340699999999
 20
76.673901
 30
0.0
 11
84.70695199999999
 21
77.96744499999999
 31
0.0
  0
LINE
  5
279
330
A
100
AcDbEntity
  8
Hawa2
 62
     9
 48
0.05111
100
AcDbLine
 10
83.11682199999999
 20
79.20574599999998
 30
0.0
 11
84.56243599999998
 21
80.65135599999997
 31
0.0
  0
LINE
  5
27A
330
A
100
AcDbEntity
  8
Hawa2
 62
     9
 48
0.056445
100
AcDbLine
 10
95.393162
 20
91.48208599999998
 30
0.0
 11
96.98966400000001
 21
93.078587
 31
0.0
  0
LINE
  5
27B
330
A
100
AcDbEntity
  8
Hawa2
 62
     9
 48
0.069283
100
AcDbLine
 10
83.11682500000001
 20
82.03417599999999
 30
0.0
 11
85.076432
 21
83.99378199999999
 31
0.0
  0
LINE
  5
27C
330
A
100
AcDbEntity
  8
Hawa2
 62
     9
 48
0.098996
100
AcDbLine
 10
92.56473599999999
 20
91.48208599999998
 30
0.0
 11
95.36477899999999
 21
94.28212700000001
 31
0.0
  0
LINE
  5
27D
330
A
100
AcDbEntity
  8
Hawa2
 62
     9
 48
0.025633
100
AcDbLine
 10
95.48712999999999
 20
94.40448000000001
 30
0.0
 11
96.21213799999999
 21
95.12949
 31
0.0
  0
LINE
  5
27E
330
A
100
AcDbEntity
  8
Hawa2
 62
     9
 48
0.301097
100
AcDbLine
 10
84.02003500000002
 20
85.76581199999997
 30
0.0
 11
92.536351
 21
94.282131
 31
0.0
  0
LINE
  5
27F
330
A
100
AcDbEntity
  8
Hawa2
 62
     9
 48
0.024959
100
AcDbLine
 10
92.74850500000001
 20
94.49428199999999
 30
0.0
 11
93.454457
 21
95.200233
 31
0.0
  0
LINE
  5
280
330
A
100
AcDbEntity
  8
Hawa2
 62
     9
 48
0.141498
100
AcDbLine
 10
86.905709
 20
91.47991600000001
 30
0.0
 11
90.90787500000001
 21
95.48207899999999
 31
0.0
  0
LINE
  5
281
330
A
100
AcDbEntity
  8
Hawa2
 62
     9
 48
0.053724
100
AcDbLine
 10
88.194706
 20
95.59733599999999
 30
0.0
 11
89.714238
 21
97.11686699999999
 31
0.0
  0
LINE
  5
282
330
A
100
AcDbEntity
  8
Hawa2
 62
     9
 48
0.01198
100
AcDbLine
 10
89.65174899999999
 20
136.652361
 30
0.0
 11
89.99060099999999
 21
136.991213
 31
0.0
  0
LINE
  5
283
330
A
100
AcDbEntity
  8
Hawa2
 62
     9
 48
0.076174
100
AcDbLine
 10
94.681487
 20
141.682099
 30
0.0
 11
96.83602
 21
143.836631
 31
0.0
  0
LINE
  5
284
330
A
100
AcDbEntity
  8
Hawa2
 62
     9
 48
0.02977
100
AcDbLine
 10
88.72514
 20
138.554178
 30
0.0
 11
89.567154
 21
139.396195
 31
0.0
  0
LINE
  5
285
330
A
100
AcDbEntity
  8
Hawa2
 62
     9
 48
0.124407
100
AcDbLine
 10
90.65304600000001
 20
140.482086
 30
0.0
 11
94.171814
 21
144.000852
 31
0.0
  0
LINE
  5
286
330
A
100
AcDbEntity
  8
Hawa2
 62
     9
 48
0.121012
100
AcDbLine
 10
88.08485500000001
 20
140.742319
 30
0.0
 11
91.50760299999999
 21
144.165068
 31
0.0
  0
LINE
  5
287
330
A
100
AcDbEntity
  8
Hawa2
 62
     9
 48
0.090016
100
AcDbLine
 10
87.44456900000001
 20
142.93046
 30
0.0
 11
89.99060099999999
 21
145.476494
 31
0.0
  0
LINE
  5
288
330
A
100
AcDbEntity
  8
Hawa2
 62
     9
 48
0.073729
100
AcDbLine
 10
86.68938100000001
 20
145.003702
 30
0.0
 11
88.77475799999997
 21
147.089076
 31
0.0
  0
LINE
  5
289
330
A
100
AcDbEntity
  8
Hawa2
 62
     9
 48
0.062602
100
AcDbLine
 10
85.65410699999999
 20
146.796853
 30
0.0
 11
87.42477099999998
 21
148.567518
 31
0.0
  0
LINE
  5
28A
330
A
100
AcDbEntity
  8
Hawa2
 62
     9
 48
0.051476
100
AcDbLine
 10
84.618832
 20
148.590005
 30
0.0
 11
86.074788
 21
150.04596
 31
0.0
  0
LINE
  5
28B
330
A
100
AcDbEntity
  8
Hawa2
 62
     9
 48
0.042766
100
AcDbLine
 10
83.58355399999998
 20
150.383157
 30
0.0
 11
84.79315600000001
 21
151.592756
 31
0.0
  0
LINE
  5
28C
330
A
100
AcDbEntity
  8
Hawa2
 62
     9
 48
0.040264
100
AcDbLine
 10
82.67311900000001
 20
152.301148
 30
0.0
 11
83.81196299999997
 21
153.439991
 31
0.0
  0
LINE
  5
28D
330
A
100
AcDbEntity
  8
Hawa2
 62
     9
 48
0.040167
100
AcDbLine
 10
95.85407299999999
 20
165.482101
 30
0.0
 11
96.99016800000002
 21
166.618196
 31
0.0
  0
LINE
  5
28E
330
A
100
AcDbEntity
  8
Hawa2
 62
     9
 48
0.057161
100
AcDbLine
 10
82.12786899999999
 20
154.584324
 30
0.0
 11
83.74462199999998
 21
156.201078
 31
0.0
  0
LINE
  5
28F
330
A
100
AcDbEntity
  8
Hawa2
 62
     9
 48
0.120449
100
AcDbLine
 10
93.02564700000001
 20
165.482101
 30
0.0
 11
96.432455
 21
168.88891
 31
0.0
  0
LINE
  5
290
330
A
100
AcDbEntity
  8
Hawa2
 62
     9
 48
0.251189
100
AcDbLine
 10
82.88591
 20
158.170792
 30
0.0
 11
89.99060099999999
 21
165.275484
 31
0.0
  0
LINE
  5
291
330
A
100
AcDbEntity
  8
Hawa2
 62
     9
 48
0.098995
100
AcDbLine
 10
90.19721999999999
 20
165.482101
 30
0.0
 11
92.997223
 21
168.282106
 31
0.0
  0
LINE
  5
292
330
A
100
AcDbEntity
  8
Hawa2
 62
     9
 48
0.024349
100
AcDbLine
 10
93.06568199999999
 20
168.350567
 30
0.0
 11
93.75438
 21
169.039261
 31
0.0
  0
LINE
  5
293
330
A
100
AcDbEntity
  8
Hawa2
 62
     9
 48
0.169662
100
AcDbLine
 10
86.47385099999999
 20
164.58716
 30
0.0
 11
91.272622
 21
169.385929
 31
0.0
  0
LINE
  5
294
330
A
100
AcDbEntity
  8
Hawa2
 62
     9
 48
0.054498
100
AcDbLine
 10
88.004074
 20
168.94581
 30
0.0
 11
89.54552100000002
 21
170.487257
 31
0.0
  0
LINE
  5
295
330
A
100
AcDbEntity
  8
Hawa2
 62
     9
 48
0.002113
100
AcDbLine
 10
89.40778399999997
 20
173.177948
 30
0.0
 11
89.467545
 21
173.237709
 31
0.0
  0
LINE
  5
296
330
A
100
AcDbEntity
  8
Hawa2
 62
     9
 48
0.020668
100
AcDbLine
 10
89.40602899999998
 20
204.288895
 30
0.0
 11
89.99060099999999
 21
204.873466
 31
0.0
  0
LINE
  5
297
330
A
100
AcDbEntity
  8
Hawa2
 62
     9
 48
0.116614
100
AcDbLine
 10
93.346581
 20
208.229439
 30
0.0
 11
96.64490500000001
 21
211.527771
 31
0.0
  0
LINE
  5
298
330
A
100
AcDbEntity
  8
Hawa2
 62
     9
 48
0.03012
100
AcDbLine
 10
88.638615
 20
206.349907
 30
0.0
 11
89.49054
 21
207.201828
 31
0.0
  0
LINE
  5
299
330
A
100
AcDbEntity
  8
Hawa2
 62
     9
 48
0.131164
100
AcDbLine
 10
90.270813
 20
207.982101
 30
0.0
 11
93.98070199999999
 21
211.691986
 31
0.0
  0
LINE
  5
29A
330
A
100
AcDbEntity
  8
Hawa2
 62
     9
 48
0.117314
100
AcDbLine
 10
87.99833699999998
 20
208.538055
 30
0.0
 11
91.316491
 21
211.856209
 31
0.0
  0
LINE
  5
29B
330
A
100
AcDbEntity
  8
Hawa2
 62
     9
 48
0.095519
100
AcDbLine
 10
87.28890300000001
 20
210.657043
 30
0.0
 11
89.99060099999999
 21
213.358742
 31
0.0
  0
LINE
  5
29C
330
A
100
AcDbEntity
  8
Hawa2
 62
     9
 48
0.077568
100
AcDbLine
 10
86.20435
 20
212.400925
 30
0.0
 11
88.39831600000001
 21
214.594887
 31
0.0
  0
LINE
  5
29D
330
A
100
AcDbEntity
  8
Hawa2
 62
     9
 48
0.062349
100
AcDbLine
 10
84.74059
 20
213.765587
 30
0.0
 11
86.50407799999998
 21
215.529076
 31
0.0
  0
LINE
  5
29E
330
A
100
AcDbEntity
  8
Hawa2
 62
     9
 48
0.05116
100
AcDbLine
 10
83.162812
 20
215.016235
 30
0.0
 11
84.60983699999999
 21
216.463264
 31
0.0
  0
LINE
  5
29F
330
A
100
AcDbEntity
  8
Hawa2
 62
     9
 48
0.040015
100
AcDbLine
 10
81.58503400000002
 20
216.266884
 30
0.0
 11
82.71683900000001
 21
217.398689
 31
0.0
  0
LINE
  5
2A0
330
A
100
AcDbEntity
  8
Hawa2
 62
     9
 48
0.059727
100
AcDbLine
 10
95.300238
 20
229.982086
 30
0.0
 11
96.989563
 21
231.671417
 31
0.0
  0
LINE
  5
2A1
330
A
100
AcDbEntity
  8
Hawa2
 62
     9
 48
0.0357
100
AcDbLine
 10
80.22342700000001
 20
217.733711
 30
0.0
 11
81.23317
 21
218.743446
 31
0.0
  0
LINE
  5
2A2
330
A
100
AcDbEntity
  8
Hawa2
 62
     9
 48
0.098331
100
AcDbLine
 10
92.49060099999999
 20
230.000877
 30
0.0
 11
95.271807
 21
232.782089
 31
0.0
  0
LINE
  5
2A3
330
A
100
AcDbEntity
  8
Hawa2
 62
     9
 48
0.025438
100
AcDbLine
 10
95.42316099999998
 20
232.933441
 30
0.0
 11
96.14266999999999
 21
233.652946
 31
0.0
  0
LINE
  5
2A4
330
A
100
AcDbEntity
  8
Hawa2
 62
     9
 48
0.043344
100
AcDbLine
 10
79.29853900000001
 20
219.637245
 30
0.0
 11
80.52449799999999
 21
220.863205
 31
0.0
  0
LINE
  5
2A5
330
A
100
AcDbEntity
  8
Hawa2
 62
     9
 48
0.238425
100
AcDbLine
 10
85.69971100000001
 20
226.038422
 30
0.0
 11
92.44340200000001
 21
232.782104
 31
0.0
  0
LINE
  5
2A6
330
A
100
AcDbEntity
  8
Hawa2
 62
     9
 48
0.025637
100
AcDbLine
 10
92.658924
 20
232.997627
 30
0.0
 11
93.38405599999999
 21
233.722763
 31
0.0
  0
LINE
  5
2A7
330
A
100
AcDbEntity
  8
Hawa2
 62
     9
 48
0.405711
100
AcDbLine
 10
79.33973399999998
 20
222.506866
 30
0.0
 11
90.81496900000001
 21
233.982101
 31
0.0
  0
LINE
  5
2A8
330
A
100
AcDbEntity
  8
Hawa2
 62
     9
 48
0.053566
100
AcDbLine
 10
88.23319299999999
 20
234.228752
 30
0.0
 11
89.74826099999999
 21
235.74382
 31
0.0
  0
VIEWPORT
  5
148
102
{ACAD_XDICTIONARY
360
2D6
102
}
330
B
100
AcDbEntity
 67
     1
  8
0
 62
     9
100
AcDbViewport
 10
0.0
 20
0.0
 30
0.0
 40
1000.0
 41
1000.0
 68
     1
 69
     1
 12
0.0
 22
0.0
 13
0.0
 23
0.0
 14
1.0
 24
1.0
 15
1.0
 25
1.0
 16
0.0
 26
0.0
 36
1.0
 17
0.0
 27
0.0
 37
0.0
 42
50.0
 43
0.0
 44
0.0
 45
1000.0
 50
0.0
 51
0.0
 72
   100
 90
   557216
  1

281
     0
 71
     1
 74
     0
110
0.0
120
0.0
130
0.0
111
1.0
121
0.0
131
0.0
112
0.0
122
1.0
132
0.0
 79
     0
146
0.0
  0
ENDSEC
  0
SECTION
  2
OBJECTS
  0
DICTIONARY
  5
19
330
0
100
AcDbDictionary
281
     1
  3
ACAD_COLOR
350
2CA
  3
ACAD_GROUP
350
1A
  3
ACAD_LAYOUT
350
267
  3
ACAD_MATERIAL
350
2B5
  3
ACAD_MLINESTYLE
350
1B
  3
ACAD_PLOTSETTINGS
350
2CD
  3
ACAD_PLOTSTYLENAME
350
2B3
  3
ACAD_TABLESTYLE
350
2CB
  3
ACAD_VISUALSTYLE
350
2B9
  3
AcDbVariableDictionary
350
2D0
  3
DWGPROPS
350
2D5
  0
DICTIONARY
  5
2D6
330
148
100
AcDbDictionary
280
     1
281
     1
  3
ACAD_XREC_ROUNDTRIP
360
2D7
  0
DICTIONARY
  5
2CA
102
{ACAD_REACTORS
330
19
102
}
330
19
100
AcDbDictionary
281
     1
  0
DICTIONARY
  5
1A
102
{ACAD_REACTORS
330
19
102
}
330
19
100
AcDbDictionary
281
     1
  0
DICTIONARY
  5
267
102
{ACAD_REACTORS
330
19
102
}
330
19
100
AcDbDictionary
281
     1
  3
Layout1
350
269
  3
Model
350
268
  0
DICTIONARY
  5
2B5
102
{ACAD_REACTORS
330
19
102
}
330
19
100
AcDbDictionary
281
     1
  3
ByBlock
350
2B7
  3
ByLayer
350
2B6
  3
Global
350
2B8
  0
DICTIONARY
  5
1B
102
{ACAD_REACTORS
330
19
102
}
330
19
100
AcDbDictionary
281
     1
  3
STANDARD
350
1C
  0
DICTIONARY
  5
2CD
102
{ACAD_REACTORS
330
19
102
}
330
19
100
AcDbDictionary
281
     1
  0
ACDBDICTIONARYWDFLT
  5
2B3
102
{ACAD_REACTORS
330
19
102
}
330
19
100
AcDbDictionary
281
     1
  3
Normal
350
2B4
100
AcDbDictionaryWithDefault
340
2B4
  0
DICTIONARY
  5
2CB
102
{ACAD_REACTORS
330
19
102
}
330
19
100
AcDbDictionary
281
     1
  3
Standard
350
2CC
  0
DICTIONARY
  5
2B9
102
{ACAD_REACTORS
330
19
102
}
330
19
100
AcDbDictionary
281
     1
  3
2dWireframe
350
2BF
  3
3D Hidden
350
2C1
  3
3dWireframe
350
2C0
  3
Basic
350
2BE
  3
Brighten
350
2C5
  3
ColorChange
350
2C9
  3
Conceptual
350
2C2
  3
Dim
350
2C4
  3
Facepattern
350
2C8
  3
Flat
350
2BA
  3
FlatWithEdges
350
2BB
  3
Gouraud
350
2BC
  3
GouraudWithEdges
350
2BD
  3
Linepattern
350
2C7
  3
Realistic
350
2C3
  3
Thicken
350
2C6
  0
DICTIONARY
  5
2D0
102
{ACAD_REACTORS
330
19
102
}
330
19
100
AcDbDictionary
281
     1
  3
CTABLESTYLE
350
2D1
  3
DIMASSOC
350
2D4
  3
INDEXCTL
350
2D3
  3
SORTENTS
350
2D2
  0
XRECORD
  5
2D5
102
{ACAD_REACTORS
330
19
102
}
330
19
100
AcDbXrecord
280
     1
  1
DWGPROPS COOKIE
  2

  3

  4

  6

  7

  8
rhu
  9

300
=
301
=
302
=
303
=
304
=
305
=
306
=
307
=
308
=
309
=
 40
0.0032933680555556
 41
2447893.0
 42
2454272.407437141
  1

 90
        0
  0
XRECORD
  5
2D7
102
{ACAD_REACTORS
330
2D6
102
}
330
2D6
100
AcDbXrecord
280
     1
102
SHADEPLOT
 70
     0
  0
LAYOUT
  5
269
102
{ACAD_XDICTIONARY
360
2DA
102
}
102
{ACAD_REACTORS
330
267
102
}
330
267
100
AcDbPlotSettings
  1

  2
none_device
  4

  6

 40
0.0
 41
0.0
 42
0.0
 43
0.0
 44
0.0
 45
0.0
 46
0.0
 47
0.0
 48
0.0
 49
0.0
140
0.0
141
0.0
142
1.0
143
1.0
 70
   688
 72
     0
 73
     0
 74
     5
  7

 75
    16
147
1.0
148
0.0
149
0.0
100
AcDbLayout
  1
Layout1
 70
     1
 71
     1
 10
0.0
 20
0.0
 11
420.0
 21
297.0
 12
0.0
 22
0.0
 32
0.0
 14
0.0
 24
0.0
 34
0.0
 15
43.690506
 25
118.348518
 35
2.0
146
0.0
 13
0.0
 23
0.0
 33
0.0
 16
1.0
 26
0.0
 36
0.0
 17
0.0
 27
1.0
 37
0.0
 76
     0
330
B
331
148
  0
LAYOUT
  5
268
102
{ACAD_XDICTIONARY
360
2D8
102
}
102
{ACAD_REACTORS
330
267
102
}
330
267
100
AcDbPlotSettings
  1

  2
none_device
  4

  6

 40
0.0
 41
0.0
 42
0.0
 43
0.0
 44
0.0
 45
0.0
 46
0.0
 47
0.0
 48
0.0
 49
0.0
140
0.0
141
0.0
142
1.0
143
1.0
 70
   688
 72
     0
 73
     0
 74
     5
  7

 75
    16
147
1.0
148
0.0
149
0.0
100
AcDbLayout
  1
Model
 70
     1
 71
     0
 10
0.0
 20
0.0
 11
0.0
 21
0.0
 12
0.0
 22
0.0
 32
0.0
 14
0.0
 24
0.0
 34
0.0
 15
0.0
 25
0.0
 35
0.0
146
0.0
 13
0.0
 23
0.0
 33
0.0
 16
1.0
 26
0.0
 36
0.0
 17
0.0
 27
1.0
 37
0.0
 76
     0
330
A
331
15
  0
MATERIAL
  5
2B7
102
{ACAD_XDICTIONARY
360
2DE
102
}
102
{ACAD_REACTORS
330
2B5
102
}
330
2B5
100
AcDbMaterial
  1
ByBlock
  0
MATERIAL
  5
2B6
102
{ACAD_XDICTIONARY
360
2DC
102
}
102
{ACAD_REACTORS
330
2B5
102
}
330
2B5
100
AcDbMaterial
  1
ByLayer
  0
MATERIAL
  5
2B8
102
{ACAD_XDICTIONARY
360
2E0
102
}
102
{ACAD_REACTORS
330
2B5
102
}
330
2B5
100
AcDbMaterial
  1
Global
  0
MLINESTYLE
  5
1C
102
{ACAD_REACTORS
330
1B
102
}
330
1B
100
AcDbMlineStyle
  2
STANDARD
 70
     0
  3

 62
     0
 51
90.0
 52
90.0
 71
     2
 49
0.5
 62
   256
  6
BYLAYER
 49
-0.5
 62
   256
  6
BYLAYER
  0
ACDBPLACEHOLDER
  5
2B4
102
{ACAD_REACTORS
330
2B3
102
}
330
2B3
  0
TABLESTYLE
  5
2CC
102
{ACAD_XDICTIONARY
360
2E2
102
}
102
{ACAD_REACTORS
330
2CB
102
}
330
2CB
100
AcDbTableStyle
  3
Standard
 70
     0
 71
     0
 40
1.5
 41
1.5
280
     0
281
     0
  7
STANDARD
140
4.5
170
     2
 62
     0
 63
     7
283
     0
274
    -2
284
     1
 64
     0
275
    -2
285
     1
 65
     0
276
    -2
286
     1
 66
     0
277
    -2
287
     1
 67
     0
278
    -2
288
     1
 68
     0
279
    -2
289
     1
 69
     0
  7
STANDARD
140
6.0
170
     5
 62
     0
 63
     7
283
     0
274
    -2
284
     1
 64
     0
275
    -2
285
     1
 65
     0
276
    -2
286
     1
 66
     0
277
    -2
287
     1
 67
     0
278
    -2
288
     1
 68
     0
279
    -2
289
     1
 69
     0
  7
STANDARD
140
4.5
170
     5
 62
     0
 63
     7
283
     0
274
    -2
284
     1
 64
     0
275
    -2
285
     1
 65
     0
276
    -2
286
     1
 66
     0
277
    -2
287
     1
 67
     0
278
    -2
288
     1
 68
     0
279
    -2
289
     1
 69
     0
  0
VISUALSTYLE
  5
2BF
102
{ACAD_REACTORS
330
2B9
102
}
330
2B9
100
AcDbVisualStyle
  2
2dWireframe
 70
     4
 71
     0
 72
     2
 73
     0
 90
        0
 40
-0.6
 41
-30.0
 62
     5
 63
     7
 74
     1
 91
        4
 64
     7
 65
   257
 75
     1
175
     1
 42
1.0
 92
        0
 66
   257
 43
1.0
 76
     1
 77
     6
 78
     2
 67
     7
 79
     5
170
     0
171
     0
290
     0
174
     0
 93
        1
 44
0.0
173
     0
291
     0
 45
0.0
1001
ACAD
1000
AcDbSavedByObjectVersion
1070
     0
  0
VISUALSTYLE
  5
2C1
102
{ACAD_REACTORS
330
2B9
102
}
330
2B9
100
AcDbVisualStyle
  2
3D Hidden
 70
     6
 71
     1
 72
     2
 73
     2
 90
        0
 40
-0.6
 41
-30.0
 62
     5
 63
     7
 74
     2
 91
        2
 64
     7
 65
   257
 75
     2
175
     1
 42
40.0
 92
        0
 66
   257
 43
1.0
 76
     1
 77
     6
 78
     2
 67
     7
 79
     3
170
     0
171
     0
290
     0
174
     0
 93
        1
 44
0.0
173
     0
291
     0
 45
0.0
1001
ACAD
1000
AcDbSavedByObjectVersion
1070
     0
  0
VISUALSTYLE
  5
2C0
102
{ACAD_REACTORS
330
2B9
102
}
330
2B9
100
AcDbVisualStyle
  2
3dWireframe
 70
     5
 71
     0
 72
     2
 73
     0
 90
        0
 40
-0.6
 41
-30.0
 62
     5
 63
     7
 74
     1
 91
        4
 64
     7
 65
   257
 75
     1
175
     1
 42
1.0
 92
        0
 66
   257
 43
1.0
 76
     1
 77
     6
 78
     2
 67
     7
 79
     5
170
     0
171
     0
290
     0
174
     0
 93
        1
 44
0.0
173
     0
291
     0
 45
0.0
1001
ACAD
1000
AcDbSavedByObjectVersion
1070
     0
  0
VISUALSTYLE
  5
2BE
102
{ACAD_REACTORS
330
2B9
102
}
330
2B9
100
AcDbVisualStyle
  2
Basic
 70
     7
 71
     1
 72
     0
 73
     1
 90
        0
 40
-0.6
 41
-30.0
 62
     5
 63
     7
 74
     0
 91
        4
 64
     7
 65
   257
 75
     1
175
     1
 42
1.0
 92
        8
 66
     7
 43
1.0
 76
     1
 77
     6
 78
     2
 67
     7
 79
     5
170
     0
171
     0
290
     0
174
     0
 93
        1
 44
0.0
173
     0
291
     1
 45
0.0
1001
ACAD
1000
AcDbSavedByObjectVersion
1070
     0
  0
VISUALSTYLE
  5
2C5
102
{ACAD_REACTORS
330
2B9
102
}
330
2B9
100
AcDbVisualStyle
  2
Brighten
 70
    12
 71
     2
 72
     2
 73
     0
 90
        0
 40
-0.6
 41
-30.0
 62
     5
 63
     7
 74
     1
 91
        4
 64
     7
 65
   257
 75
     1
175
     1
 42
1.0
 92
        8
 66
     7
 43
1.0
 76
     1
 77
     6
 78
     2
 67
     7
 79
     5
170
     0
171
     0
290
     0
174
     0
 93
        1
 44
50.0
173
     0
291
     1
 45
0.0
1001
ACAD
1000
AcDbSavedByObjectVersion
1070
     0
  0
VISUALSTYLE
  5
2C9
102
{ACAD_REACTORS
330
2B9
102
}
330
2B9
100
AcDbVisualStyle
  2
ColorChange
 70
    16
 71
     2
 72
     2
 73
     3
 90
        0
 40
-0.6
 41
-30.0
 62
     5
 63
     8
 74
     1
 91
        4
 64
     7
 65
   257
 75
     1
175
     1
 42
1.0
 92
        8
 66
     8
 43
1.0
 76
     1
 77
     6
 78
     2
 67
     7
 79
     5
170
     0
171
     0
290
     0
174
     0
 93
        1
 44
0.0
173
     0
291
     1
 45
0.0
1001
ACAD
1000
AcDbSavedByObjectVersion
1070
     0
  0
VISUALSTYLE
  5
2C2
102
{ACAD_REACTORS
330
2B9
102
}
330
2B9
100
AcDbVisualStyle
  2
Conceptual
 70
     9
 71
     3
 72
     2
 73
     0
 90
        0
 40
-0.6
 41
-30.0
 62
     5
 63
     7
 74
     2
 91
        2
 64
     7
 65
   257
 75
     1
175
     1
 42
40.0
 92
        8
 66
     7
 43
1.0
 76
     1
 77
     6
 78
     2
 67
     7
 79
     3
170
     0
171
     0
290
     0
174
     0
 93
        1
 44
0.0
173
     0
291
     0
 45
0.0
1001
ACAD
1000
AcDbSavedByObjectVersion
1070
     0
  0
VISUALSTYLE
  5
2C4
102
{ACAD_REACTORS
330
2B9
102
}
330
2B9
100
AcDbVisualStyle
  2
Dim
 70
    11
 71
     2
 72
     2
 73
     0
 90
        0
 40
-0.6
 41
-30.0
 62
     5
 63
     7
 74
     1
 91
        4
 64
     7
 65
   257
 75
     1
175
     1
 42
1.0
 92
        8
 66
     7
 43
1.0
 76
     1
 77
     6
 78
     2
 67
     7
 79
     5
170
     0
171
     0
290
     0
174
     0
 93
        1
 44
-50.0
173
     0
291
     1
 45
0.0
1001
ACAD
1000
AcDbSavedByObjectVersion
1070
     0
  0
VISUALSTYLE
  5
2C8
102
{ACAD_REACTORS
330
2B9
102
}
330
2B9
100
AcDbVisualStyle
  2
Facepattern
 70
    15
 71
     2
 72
     2
 73
     0
 90
        0
 40
-0.6
 41
-30.0
 62
     5
 63
     7
 74
     1
 91
        4
 64
     7
 65
   257
 75
     1
175
     1
 42
1.0
 92
        8
 66
     7
 43
1.0
 76
     1
 77
     6
 78
     2
 67
     7
 79
     5
170
     0
171
     0
290
     0
174
     0
 93
        1
 44
0.0
173
     0
291
     1
 45
0.0
1001
ACAD
1000
AcDbSavedByObjectVersion
1070
     0
  0
VISUALSTYLE
  5
2BA
102
{ACAD_REACTORS
330
2B9
102
}
330
2B9
100
AcDbVisualStyle
  2
Flat
 70
     0
 71
     2
 72
     1
 73
     1
 90
        2
 40
-0.6
 41
30.0
 62
     5
 63
     7
 74
     0
 91
        4
 64
     7
 65
   257
 75
     1
175
     1
 42
1.0
 92
        8
 66
     7
 43
1.0
 76
     1
 77
     6
 78
     2
 67
     7
 79
     5
170
     0
171
     0
290
     0
174
     0
 93
       13
 44
0.0
173
     0
291
     1
 45
0.0
1001
ACAD
1000
AcDbSavedByObjectVersion
1070
     0
  0
VISUALSTYLE
  5
2BB
102
{ACAD_REACTORS
330
2B9
102
}
330
2B9
100
AcDbVisualStyle
  2
FlatWithEdges
 70
     1
 71
     2
 72
     1
 73
     1
 90
        2
 40
-0.6
 41
30.0
 62
     5
 63
     7
 74
     1
 91
        4
 64
     7
 65
   257
 75
     1
175
     1
 42
1.0
 92
        0
 66
   257
 43
1.0
 76
     1
 77
     6
 78
     2
 67
     7
 79
     5
170
     0
171
     0
290
     0
174
     0
 93
       13
 44
0.0
173
     0
291
     1
 45
0.0
1001
ACAD
1000
AcDbSavedByObjectVersion
1070
     0
  0
VISUALSTYLE
  5
2BC
102
{ACAD_REACTORS
330
2B9
102
}
330
2B9
100
AcDbVisualStyle
  2
Gouraud
 70
     2
 71
     2
 72
     2
 73
     1
 90
        2
 40
-0.6
 41
30.0
 62
     5
 63
     7
 74
     0
 91
        4
 64
     7
 65
   257
 75
     1
175
     1
 42
1.0
 92
        0
 66
     7
 43
1.0
 76
     1
 77
     6
 78
     2
 67
     7
 79
     5
170
     0
171
     0
290
     0
174
     0
 93
       13
 44
0.0
173
     0
291
     1
 45
0.0
1001
ACAD
1000
AcDbSavedByObjectVersion
1070
     0
  0
VISUALSTYLE
  5
2BD
102
{ACAD_REACTORS
330
2B9
102
}
330
2B9
100
AcDbVisualStyle
  2
GouraudWithEdges
 70
     3
 71
     2
 72
     2
 73
     1
 90
        2
 40
-0.6
 41
30.0
 62
     5
 63
     7
 74
     1
 91
        4
 64
     7
 65
   257
 75
     1
175
     1
 42
1.0
 92
        0
 66
   257
 43
1.0
 76
     1
 77
     6
 78
     2
 67
     7
 79
     5
170
     0
171
     0
290
     0
174
     0
 93
       13
 44
0.0
173
     0
291
     1
 45
0.0
1001
ACAD
1000
AcDbSavedByObjectVersion
1070
     0
  0
VISUALSTYLE
  5
2C7
102
{ACAD_REACTORS
330
2B9
102
}
330
2B9
100
AcDbVisualStyle
  2
Linepattern
 70
    14
 71
     2
 72
     2
 73
     0
 90
        0
 40
-0.6
 41
-30.0
 62
     5
 63
     7
 74
     1
 91
        4
 64
     7
 65
   257
 75
     7
175
     7
 42
1.0
 92
        8
 66
     7
 43
1.0
 76
     1
 77
     6
 78
     2
 67
     7
 79
     5
170
     0
171
     0
290
     0
174
     0
 93
        1
 44
0.0
173
     0
291
     1
 45
0.0
1001
ACAD
1000
AcDbSavedByObjectVersion
1070
     0
  0
VISUALSTYLE
  5
2C3
102
{ACAD_REACTORS
330
2B9
102
}
330
2B9
100
AcDbVisualStyle
  2
Realistic
 70
     8
 71
     2
 72
     2
 73
     0
 90
        0
 40
-0.6
 41
-30.0
 62
     5
 63
     7
 74
     1
 91
        0
 64
     7
 65
   257
 75
     1
175
     1
 42
1.0
 92
        8
 66
     8
 43
1.0
 76
     1
 77
     6
 78
     2
 67
     7
 79
     5
170
     0
171
     0
290
     0
174
     0
 93
       13
 44
0.0
173
     0
291
     0
 45
0.0
1001
ACAD
1000
AcDbSavedByObjectVersion
1070
     0
  0
VISUALSTYLE
  5
2C6
102
{ACAD_REACTORS
330
2B9
102
}
330
2B9
100
AcDbVisualStyle
  2
Thicken
 70
    13
 71
     2
 72
     2
 73
     0
 90
        0
 40
-0.6
 41
-30.0
 62
     5
 63
     7
 74
     1
 91
        4
 64
     7
 65
   257
 75
     1
175
     1
 42
1.0
 92
       12
 66
     7
 43
1.0
 76
     1
 77
     6
 78
     2
 67
     7
 79
     5
170
     0
171
     0
290
     0
174
     0
 93
        1
 44
0.0
173
     0
291
     1
 45
0.0
1001
ACAD
1000
AcDbSavedByObjectVersion
1070
     0
  0
DICTIONARYVAR
  5
2D1
102
{ACAD_REACTORS
330
2D0
102
}
330
2D0
100
DictionaryVariables
280
     0
  1
STANDARD
  0
DICTIONARYVAR
  5
2D4
102
{ACAD_REACTORS
330
2D0
102
}
330
2D0
100
DictionaryVariables
280
     0
  1
1
  0
DICTIONARYVAR
  5
2D3
102
{ACAD_REACTORS
330
2D0
102
}
330
2D0
100
DictionaryVariables
280
     0
  1
0
  0
DICTIONARYVAR
  5
2D2
102
{ACAD_REACTORS
330
2D0
102
}
330
2D0
100
DictionaryVariables
280
     0
  1
127
  0
DICTIONARY
  5
2DA
330
269
100
AcDbDictionary
280
     1
281
     1
  3
ACAD_XREC_ROUNDTRIP
360
2DB
  0
DICTIONARY
  5
2D8
330
268
100
AcDbDictionary
280
     1
281
     1
  3
ACAD_XREC_ROUNDTRIP
360
2D9
  0
DICTIONARY
  5
2DE
330
2B7
100
AcDbDictionary
280
     1
281
     1
  3
ACAD_XREC_ROUNDTRIP
360
2DF
  0
DICTIONARY
  5
2DC
330
2B6
100
AcDbDictionary
280
     1
281
     1
  3
ACAD_XREC_ROUNDTRIP
360
2DD
  0
DICTIONARY
  5
2E0
330
2B8
100
AcDbDictionary
280
     1
281
     1
  3
ACAD_XREC_ROUNDTRIP
360
2E1
  0
DICTIONARY
  5
2E2
330
2CC
100
AcDbDictionary
280
     1
281
     1
  3
ACAD_XREC_ROUNDTRIP
360
2E3
  0
XRECORD
  5
2DB
102
{ACAD_REACTORS
330
2DA
102
}
330
2DA
100
AcDbXrecord
280
     1
102
SHADEPLOT
 70
     0
102
SHADEPLOTRESLEVEL
 70
     2
102
SHADEPLOTCUSTOMDPI
 70
   300
  0
XRECORD
  5
2D9
102
{ACAD_REACTORS
330
2D8
102
}
330
2D8
100
AcDbXrecord
280
     1
102
SHADEPLOT
 70
     0
102
SHADEPLOTRESLEVEL
 70
     2
102
SHADEPLOTCUSTOMDPI
 70
   300
  0
XRECORD
  5
2DF
102
{ACAD_REACTORS
330
2DE
102
}
330
2DE
100
AcDbXrecord
280
     1
102
MATERIAL
148
0.0
149
0.0
149
0.0
 93
        0
 94
       63
282
     0
 72
     1
 77
     1
171
     1
175
     1
179
     1
273
     0
  0
XRECORD
  5
2DD
102
{ACAD_REACTORS
330
2DC
102
}
330
2DC
100
AcDbXrecord
280
     1
102
MATERIAL
148
0.0
149
0.0
149
0.0
 93
        0
 94
       63
282
     0
 72
     1
 77
     1
171
     1
175
     1
179
     1
273
     0
  0
XRECORD
  5
2E1
102
{ACAD_REACTORS
330
2E0
102
}
330
2E0
100
AcDbXrecord
280
     1
102
MATERIAL
148
0.0
149
0.0
149
0.0
 93
        0
 94
       63
282
     0
 72
     1
 77
     1
171
     1
175
     1
179
     1
273
     0
  0
XRECORD
  5
2E3
102
{ACAD_REACTORS
330
2E2
102
}
330
2E2
100
AcDbXrecord
280
     1
102
ACAD_ROUNDTRIP_PRE2007_TABLESTYLE
 90
      512
 91
        0
  1

 92
      512
 93
        0
  2

 94
      512
 95
        0
  3

  0
ENDSEC
  0
EOF
