  0
SECTION
  2
HEADER
  9
$ACADVER
  1
AC1015
  9
$ACADMAINTVER
 70
    20
  9
$DWGCODEPAGE
  3
ANSI_1252
  9
$INSBASE
 10
0.0
 20
0.0
 30
0.0
  9
$EXTMIN
 10
-0.4149212339649467
 20
38.44377209856612
 30
-0.0015258207003583
  9
$EXTMAX
 10
286.1353940797807
 20
172.632156918794
 30
0.0000000349246037
  9
$LIMMIN
 10
0.0
 20
0.0
  9
$LIMMAX
 10
420.0
 20
297.0
  9
$ORTHOMODE
 70
     1
  9
$REGENMODE
 70
     1
  9
$FILLMODE
 70
     1
  9
$QTEXTMODE
 70
     0
  9
$MIRRTEXT
 70
     1
  9
$LTSCALE
 40
1.0
  9
$ATTMODE
 70
     1
  9
$TEXTSIZE
 40
2.5
  9
$TRACEWID
 40
1.0
  9
$TEXTSTYLE
  7
STANDARD
  9
$CLAYER
  8
HAWA1
  9
$CELTYPE
  6
ByLayer
  9
$CECOLOR
 62
   256
  9
$CELTSCALE
 40
1.0
  9
$DISPSILH
 70
     0
  9
$DIMSCALE
 40
1.0
  9
$DIMASZ
 40
2.0
  9
$DIMEXO
 40
2.0
  9
$DIMDLI
 40
0.0
  9
$DIMRND
 40
0.0
  9
$DIMDLE
 40
1.0
  9
$DIMEXE
 40
1.0
  9
$DIMTP
 40
0.0
  9
$DIMTM
 40
0.0
  9
$DIMTXT
 40
3.5
  9
$DIMCEN
 40
0.0
  9
$DIMTSZ
 40
0.0
  9
$DIMTOL
 70
     0
  9
$DIMLIM
 70
     0
  9
$DIMTIH
 70
     0
  9
$DIMTOH
 70
     0
  9
$DIMSE1
 70
     0
  9
$DIMSE2
 70
     0
  9
$DIMTAD
 70
     1
  9
$DIMZIN
 70
     8
  9
$DIMBLK
  1

  9
$DIMASO
 70
     1
  9
$DIMSHO
 70
     1
  9
$DIMPOST
  1

  9
$DIMAPOST
  1

  9
$DIMALT
 70
     1
  9
$DIMALTD
 70
     5
  9
$DIMALTF
 40
0.039370078740157
  9
$DIMLFAC
 40
1.0
  9
$DIMTOFL
 70
     1
  9
$DIMTVP
 40
0.0
  9
$DIMTIX
 70
     0
  9
$DIMSOXD
 70
     0
  9
$DIMSAH
 70
     1
  9
$DIMBLK1
  1
Oblique
  9
$DIMBLK2
  1
Oblique
  9
$DIMSTYLE
  2
HAWA-Strich
  9
$DIMCLRD
 70
   256
  9
$DIMCLRE
 70
   256
  9
$DIMCLRT
 70
   256
  9
$DIMTFAC
 40
0.7114285714285719
  9
$DIMGAP
 40
1.0
  9
$DIMJUST
 70
     0
  9
$DIMSD1
 70
     0
  9
$DIMSD2
 70
     0
  9
$DIMTOLJ
 70
     1
  9
$DIMTZIN
 70
     8
  9
$DIMALTZ
 70
     8
  9
$DIMALTTZ
 70
     8
  9
$DIMUPT
 70
     0
  9
$DIMDEC
 70
     1
  9
$DIMTDEC
 70
     1
  9
$DIMALTU
 70
     4
  9
$DIMALTTD
 70
     5
  9
$DIMTXSTY
  7
Beschlag
  9
$DIMAUNIT
 70
     0
  9
$DIMADEC
 70
     1
  9
$DIMALTRND
 40
0.0
  9
$DIMAZIN
 70
     2
  9
$DIMDSEP
 70
    46
  9
$DIMATFIT
 70
     3
  9
$DIMFRAC
 70
     0
  9
$DIMLDRBLK
  1
Oblique
  9
$DIMLUNIT
 70
     2
  9
$DIMLWD
 70
    -2
  9
$DIMLWE
 70
    -2
  9
$DIMTMOVE
 70
     0
  9
$LUNITS
 70
     2
  9
$LUPREC
 70
     4
  9
$SKETCHINC
 40
1.0
  9
$FILLETRAD
 40
2.5
  9
$AUNITS
 70
     0
  9
$AUPREC
 70
     0
  9
$MENU
  1
.
  9
$ELEVATION
 40
0.0
  9
$PELEVATION
 40
0.0
  9
$THICKNESS
 40
0.0
  9
$LIMCHECK
 70
     0
  9
$CHAMFERA
 40
2.5
  9
$CHAMFERB
 40
2.5
  9
$CHAMFERC
 40
0.0
  9
$CHAMFERD
 40
0.0
  9
$SKPOLY
 70
     0
  9
$TDCREATE
 40
2454925.310071944
  9
$TDUCREATE
 40
2454925.226738612
  9
$TDUPDATE
 40
2455789.410011643
  9
$TDUUPDATE
 40
2455789.326678310
  9
$TDINDWG
 40
0.0047032176
  9
$TDUSRTIMER
 40
0.0047016088
  9
$USRTIMER
 70
     1
  9
$ANGBASE
 50
0.0
  9
$ANGDIR
 70
     0
  9
$PDMODE
 70
     0
  9
$PDSIZE
 40
0.0
  9
$PLINEWID
 40
0.0
  9
$SPLFRAME
 70
     0
  9
$SPLINETYPE
 70
     6
  9
$SPLINESEGS
 70
     8
  9
$HANDSEED
  5
772
  9
$SURFTAB1
 70
     6
  9
$SURFTAB2
 70
     6
  9
$SURFTYPE
 70
     6
  9
$SURFU
 70
     6
  9
$SURFV
 70
     6
  9
$UCSBASE
  2

  9
$UCSNAME
  2

  9
$UCSORG
 10
0.0
 20
0.0
 30
0.0
  9
$UCSXDIR
 10
1.0
 20
0.0
 30
0.0
  9
$UCSYDIR
 10
0.0
 20
1.0
 30
0.0
  9
$UCSORTHOREF
  2

  9
$UCSORTHOVIEW
 70
     1
  9
$UCSORGTOP
 10
0.0
 20
0.0
 30
0.0
  9
$UCSORGBOTTOM
 10
0.0
 20
0.0
 30
0.0
  9
$UCSORGLEFT
 10
0.0
 20
0.0
 30
0.0
  9
$UCSORGRIGHT
 10
0.0
 20
0.0
 30
0.0
  9
$UCSORGFRONT
 10
0.0
 20
0.0
 30
0.0
  9
$UCSORGBACK
 10
0.0
 20
0.0
 30
0.0
  9
$PUCSBASE
  2

  9
$PUCSNAME
  2

  9
$PUCSORG
 10
0.0
 20
0.0
 30
0.0
  9
$PUCSXDIR
 10
1.0
 20
0.0
 30
0.0
  9
$PUCSYDIR
 10
0.0
 20
1.0
 30
0.0
  9
$PUCSORTHOREF
  2

  9
$PUCSORTHOVIEW
 70
     0
  9
$PUCSORGTOP
 10
0.0
 20
0.0
 30
0.0
  9
$PUCSORGBOTTOM
 10
0.0
 20
0.0
 30
0.0
  9
$PUCSORGLEFT
 10
0.0
 20
0.0
 30
0.0
  9
$PUCSORGRIGHT
 10
0.0
 20
0.0
 30
0.0
  9
$PUCSORGFRONT
 10
0.0
 20
0.0
 30
0.0
  9
$PUCSORGBACK
 10
0.0
 20
0.0
 30
0.0
  9
$USERI1
 70
     0
  9
$USERI2
 70
     0
  9
$USERI3
 70
     0
  9
$USERI4
 70
     0
  9
$USERI5
 70
     0
  9
$USERR1
 40
0.0
  9
$USERR2
 40
0.0
  9
$USERR3
 40
0.0
  9
$USERR4
 40
0.0
  9
$USERR5
 40
0.0
  9
$WORLDVIEW
 70
     1
  9
$SHADEDGE
 70
     3
  9
$SHADEDIF
 70
    70
  9
$TILEMODE
 70
     1
  9
$MAXACTVP
 70
    48
  9
$PINSBASE
 10
0.0
 20
0.0
 30
0.0
  9
$PLIMCHECK
 70
     0
  9
$PEXTMIN
 10
0.0
 20
0.0
 30
0.0
  9
$PEXTMAX
 10
-10.02885
 20
38.66853300000001
 30
2.0
  9
$PLIMMIN
 10
0.0
 20
0.0
  9
$PLIMMAX
 10
420.0
 20
297.0
  9
$UNITMODE
 70
     0
  9
$VISRETAIN
 70
     0
  9
$PLINEGEN
 70
     0
  9
$PSLTSCALE
 70
     1
  9
$TREEDEPTH
 70
  3020
  9
$CMLSTYLE
  2
Standard
  9
$CMLJUST
 70
     0
  9
$CMLSCALE
 40
20.0
  9
$PROXYGRAPHICS
 70
     1
  9
$MEASUREMENT
 70
     1
  9
$CELWEIGHT
370
    -1
  9
$ENDCAPS
280
     0
  9
$JOINSTYLE
280
     0
  9
$LWDISPLAY
290
     0
  9
$INSUNITS
 70
     0
  9
$HYPERLINKBASE
  1

  9
$STYLESHEET
  1

  9
$XEDIT
290
     1
  9
$CEPSNTYPE
380
     0
  9
$PSTYLEMODE
290
     0
  9
$FINGERPRINTGUID
  2

  9
$VERSIONGUID
  2
{13232592-F798-4B0F-B22D-ECA5B54FA80B}
  9
$EXTNAMES
290
     0
  9
$PSVPSCALE
 40
0.0
  9
$OLESTARTUP
290
     0
  0
ENDSEC
  0
SECTION
  2
CLASSES
  0
CLASS
  1
IMAGE
  2
AcDbRasterImage
  3
ISM
 90
    34943
280
     0
281
     1
  0
CLASS
  1
DICTIONARYVAR
  2
AcDbDictionaryVar
  3
ObjectDBX Classes
 90
        0
280
     0
281
     0
  0
CLASS
  1
RASTERVARIABLES
  2
AcDbRasterVariables
  3
ISM
 90
    32768
280
     0
281
     0
  0
CLASS
  1
IMAGEDEF
  2
AcDbRasterImageDef
  3
ISM
 90
    32768
280
     0
281
     0
  0
CLASS
  1
IMAGEDEF_REACTOR
  2
AcDbRasterImageDefReactor
  3
ISM
 90
    32769
280
     0
281
     0
  0
CLASS
  1
IDBUFFER
  2
AcDbIdBuffer
  3
ObjectDBX Classes
 90
    32768
280
     0
281
     0
  0
CLASS
  1
SPATIAL_FILTER
  2
AcDbSpatialFilter
  3
ObjectDBX Classes
 90
    32768
280
     0
281
     0
  0
CLASS
  1
SORTENTSTABLE
  2
AcDbSortentsTable
  3
ObjectDBX Classes
 90
    32768
280
     0
281
     0
  0
CLASS
  1
LAYER_INDEX
  2
AcDbLayerIndex
  3
ObjectDBX Classes
 90
    32768
280
     0
281
     0
  0
CLASS
  1
SPATIAL_INDEX
  2
AcDbSpatialIndex
  3
ObjectDBX Classes
 90
    32768
280
     0
281
     0
  0
CLASS
  1
OBJECT_PTR
  2
CAseDLPNTableRecord
  3
ASE-LPNTableRecord
 90
    32769
280
     0
281
     0
  0
CLASS
  1
LAYOUT
  2
AcDbLayout
  3
ObjectDBX Classes
 90
        0
280
     0
281
     0
  0
CLASS
  1
PLOTSETTINGS
  2
AcDbPlotSettings
  3
ObjectDBX Classes
 90
    32768
280
     0
281
     0
  0
CLASS
  1
ACDBDICTIONARYWDFLT
  2
AcDbDictionaryWithDefault
  3
ObjectDBX Classes
 90
        0
280
     0
281
     0
  0
CLASS
  1
ACDBPLACEHOLDER
  2
AcDbPlaceHolder
  3
ObjectDBX Classes
 90
        0
280
     0
281
     0
  0
CLASS
  1
VBA_PROJECT
  2
AcDbVbaProject
  3
acad
 90
    32768
280
     0
281
     0
  0
CLASS
  1
WIPEOUT
  2
AcDbWipeout
  3
"WipeOut|Product Desc: Object Enabler for WipeOut entity                        |Company: Autodesk, Inc.                        |WEB Address: www.autodesk.com"
 90
    34943
280
     0
281
     1
  0
CLASS
  1
WIPEOUTVARIABLES
  2
AcDbWipeoutVariables
  3
"WipeOut|Product Desc:     WipeOut Dbx Application|Company:          Autodesk, Inc.|WEB Address:      www.autodesk.com"
 90
        0
280
     0
281
     0
  0
CLASS
  1
RTEXT
  2
RText
  3
RText|AutoCAD Express Tool|expresstools@autodesk.com
 90
    32768
280
     0
281
     1
  0
CLASS
  1
ARCALIGNEDTEXT
  2
AcDbArcAlignedText
  3
ATEXT|AutoCAD Express Tool|expresstools@autodesk.com
 90
    32768
280
     0
281
     1
  0
CLASS
  1
MATERIAL
  2
AcDbMaterial
  3
ObjectDBX Classes
 90
     1024
280
     0
281
     0
  0
CLASS
  1
VISUALSTYLE
  2
AcDbVisualStyle
  3
ObjectDBX Classes
 90
     4095
280
     0
281
     0
  0
CLASS
  1
TABLESTYLE
  2
AcDbTableStyle
  3
ObjectDBX Classes
 90
     4095
280
     0
281
     0
  0
ENDSEC
  0
SECTION
  2
TABLES
  0
TABLE
  2
VPORT
  5
7
330
0
100
AcDbSymbolTable
 70
     1
  0
VPORT
  5
15
330
7
100
AcDbSymbolTableRecord
100
AcDbViewportTableRecord
  2
*ACTIVE
 70
     0
 10
0.0
 20
0.0
 11
1.0
 21
1.0
 12
142.8602364229078
 22
105.5379645086801
 13
0.0
 23
0.0
 14
1.0
 24
1.0
 15
0.0
 25
0.0
 16
0.0
 26
0.0
 36
1.0
 17
0.0
 27
0.0
 37
0.0
 40
150.8715530283825
 41
1.905503634475597
 42
50.0
 43
0.0
 44
0.0
 50
0.0
 51
0.0
 71
     0
 72
   100
 73
     1
 74
     1
 75
     0
 76
     0
 77
     0
 78
     0
281
     0
 65
     0
110
0.0
120
0.0
130
0.0
111
1.0
121
0.0
131
0.0
112
0.0
122
1.0
132
0.0
 79
     0
146
0.0
  0
ENDTAB
  0
TABLE
  2
LTYPE
  5
4
330
0
100
AcDbSymbolTable
 70
     4
  0
LTYPE
  5
11
330
4
100
AcDbSymbolTableRecord
100
AcDbLinetypeTableRecord
  2
ByBlock
 70
     0
  3

 72
    65
 73
     0
 40
0.0
  0
LTYPE
  5
12
330
4
100
AcDbSymbolTableRecord
100
AcDbLinetypeTableRecord
  2
ByLayer
 70
     0
  3

 72
    65
 73
     0
 40
0.0
  0
LTYPE
  5
13
330
4
100
AcDbSymbolTableRecord
100
AcDbLinetypeTableRecord
  2
Continuous
 70
     0
  3
Solid line
 72
    65
 73
     0
 40
0.0
  0
LTYPE
  5
25
330
4
100
AcDbSymbolTableRecord
100
AcDbLinetypeTableRecord
  2
DASHDOT
 70
     0
  3
 __ . __ . __ . __ . __ . __ . __ . 
 72
    65
 73
     4
 40
18.5
 49
12.0
 74
     0
 49
-3.0
 74
     0
 49
0.5
 74
     0
 49
-3.0
 74
     0
  0
LTYPE
  5
27
330
4
100
AcDbSymbolTableRecord
100
AcDbLinetypeTableRecord
  2
DASHSPACE
 70
     0
  3
__    __    __    __    __   
 72
    65
 73
     2
 40
30.0
 49
12.0
 74
     0
 49
-18.0
 74
     0
  0
LTYPE
  5
29
330
4
100
AcDbSymbolTableRecord
100
AcDbLinetypeTableRecord
  2
PHANTOM
 70
     0
  3
____________    ____    ____   _
 72
    65
 73
     6
 40
20.0
 49
10.0
 74
     0
 49
-2.0
 74
     0
 49
2.0
 74
     0
 49
-2.0
 74
     0
 49
2.0
 74
     0
 49
-2.0
 74
     0
  0
ENDTAB
  0
TABLE
  2
LAYER
  5
2
330
0
100
AcDbSymbolTable
 70
     7
  0
LAYER
  5
4C9
330
2
100
AcDbSymbolTableRecord
100
AcDbLayerTableRecord
  2
0
 70
     0
 62
     7
  6
Continuous
370
    -3
390
1D
  0
LAYER
  5
4C5
330
2
100
AcDbSymbolTableRecord
100
AcDbLayerTableRecord
  2
Hawa2
 70
     0
 62
     9
  6
Continuous
370
     0
390
1D
  0
LAYER
  5
4C6
330
2
100
AcDbSymbolTableRecord
100
AcDbLayerTableRecord
  2
Hawa4
 70
     0
 62
     4
  6
Continuous
370
     0
390
1D
  0
LAYER
  5
4C7
330
2
100
AcDbSymbolTableRecord
100
AcDbLayerTableRecord
  2
Hawa5
 70
     0
 62
     1
  6
Continuous
370
    -3
390
1D
  0
LAYER
  5
4C8
330
2
100
AcDbSymbolTableRecord
100
AcDbLayerTableRecord
  2
Hawa6
 70
     0
 62
     3
  6
Continuous
370
    -3
390
1D
  0
LAYER
  5
14
330
2
100
AcDbSymbolTableRecord
100
AcDbLayerTableRecord
  2
HAWA1
 70
     0
 62
     2
  6
Continuous
370
     0
390
1D
  0
LAYER
  5
4ED
330
2
100
AcDbSymbolTableRecord
100
AcDbLayerTableRecord
  2
Defpoints
 70
     0
 62
     7
  6
Continuous
290
     0
370
    -3
390
1D
  0
ENDTAB
  0
TABLE
  2
STYLE
  5
3
330
0
100
AcDbSymbolTable
 70
     2
  0
STYLE
  5
17
330
3
100
AcDbSymbolTableRecord
100
AcDbTextStyleTableRecord
  2
STANDARD
 70
     0
 40
0.0
 41
1.0
 50
0.0
 71
     0
 42
2.5
  3
isocp.shx
  4

  0
STYLE
  5
4EF
330
3
100
AcDbSymbolTableRecord
100
AcDbTextStyleTableRecord
  2
Beschlag
 70
     0
 40
0.0
 41
0.9
 50
0.0
 71
     0
 42
3.5
  3
ARIAL.TTF
  4

1001
ACAD
1000
Arial
1071
       34
  0
ENDTAB
  0
TABLE
  2
VIEW
  5
5
330
0
100
AcDbSymbolTable
 70
     0
  0
ENDTAB
  0
TABLE
  2
UCS
  5
6
330
0
100
AcDbSymbolTable
 70
     0
  0
ENDTAB
  0
TABLE
  2
APPID
  5
8
330
0
100
AcDbSymbolTable
 70
     2
  0
APPID
  5
16
330
8
100
AcDbSymbolTableRecord
100
AcDbRegAppTableRecord
  2
ACAD
 70
     0
  0
APPID
  5
4F1
330
8
100
AcDbSymbolTableRecord
100
AcDbRegAppTableRecord
  2
ACAD_PSEXT
 70
     0
  0
ENDTAB
  0
TABLE
  2
DIMSTYLE
  5
9
330
0
100
AcDbSymbolTable
 70
     2
100
AcDbDimStyleTable
 71
     1
340
4F0
  0
DIMSTYLE
105
18
330
9
100
AcDbSymbolTableRecord
100
AcDbDimStyleTableRecord
  2
STANDARD
 70
     0
 41
2.5
 42
0.625
 43
3.75
 44
1.25
 73
     0
 74
     0
 77
     1
 78
     8
140
2.5
141
2.5
143
0.03937
147
0.625
171
     3
172
     1
271
     2
272
     2
274
     3
278
    44
283
     0
284
     8
289
     0
340
17
  0
DIMSTYLE
105
4F0
102
{ACAD_REACTORS
330
210
330
20E
330
20C
330
20A
330
208
330
206
330
C1
330
BF
330
BD
330
BB
330
B9
330
B7
330
B5
330
B3
330
33
330
31
330
2F
330
2D
102
}
330
9
100
AcDbSymbolTableRecord
100
AcDbDimStyleTableRecord
  2
HAWA-Strich
 70
     0
 41
2.0
 42
2.0
 43
0.0
 44
1.0
 46
1.0
 73
     0
 74
     0
 77
     1
 78
     8
 79
     2
140
3.5
141
0.0
143
0.039370078740157
146
0.7114285714285719
147
1.0
170
     1
171
     5
172
     1
173
     1
176
   256
177
   256
178
   256
179
     1
271
     1
272
     1
273
     4
274
     5
284
     8
285
     8
286
     8
340
4EF
341
4E9
343
4E9
344
4E9
  0
ENDTAB
  0
TABLE
  2
BLOCK_RECORD
  5
1
330
0
100
AcDbSymbolTable
 70
    20
  0
BLOCK_RECORD
  5
A
330
1
100
AcDbSymbolTableRecord
100
AcDbBlockTableRecord
  2
*MODEL_SPACE
340
20
  0
BLOCK_RECORD
  5
B
330
1
100
AcDbSymbolTableRecord
100
AcDbBlockTableRecord
  2
*PAPER_SPACE
340
21
  0
BLOCK_RECORD
  5
2C
330
1
100
AcDbSymbolTableRecord
100
AcDbBlockTableRecord
  2
*D0
340
0
  0
BLOCK_RECORD
  5
2E
330
1
100
AcDbSymbolTableRecord
100
AcDbBlockTableRecord
  2
*D1
340
0
  0
BLOCK_RECORD
  5
30
330
1
100
AcDbSymbolTableRecord
100
AcDbBlockTableRecord
  2
*D2
340
0
  0
BLOCK_RECORD
  5
32
330
1
100
AcDbSymbolTableRecord
100
AcDbBlockTableRecord
  2
*D3
340
0
  0
BLOCK_RECORD
  5
B2
330
1
100
AcDbSymbolTableRecord
100
AcDbBlockTableRecord
  2
*D4
340
0
  0
BLOCK_RECORD
  5
B4
330
1
100
AcDbSymbolTableRecord
100
AcDbBlockTableRecord
  2
*D5
340
0
  0
BLOCK_RECORD
  5
B6
330
1
100
AcDbSymbolTableRecord
100
AcDbBlockTableRecord
  2
*D6
340
0
  0
BLOCK_RECORD
  5
B8
330
1
100
AcDbSymbolTableRecord
100
AcDbBlockTableRecord
  2
*D7
340
0
  0
BLOCK_RECORD
  5
BA
330
1
100
AcDbSymbolTableRecord
100
AcDbBlockTableRecord
  2
*D8
340
0
  0
BLOCK_RECORD
  5
BC
330
1
100
AcDbSymbolTableRecord
100
AcDbBlockTableRecord
  2
*D9
340
0
  0
BLOCK_RECORD
  5
BE
330
1
100
AcDbSymbolTableRecord
100
AcDbBlockTableRecord
  2
*D10
340
0
  0
BLOCK_RECORD
  5
C0
330
1
100
AcDbSymbolTableRecord
100
AcDbBlockTableRecord
  2
*D11
340
0
  0
BLOCK_RECORD
  5
205
330
1
100
AcDbSymbolTableRecord
100
AcDbBlockTableRecord
  2
*D12
340
0
  0
BLOCK_RECORD
  5
207
330
1
100
AcDbSymbolTableRecord
100
AcDbBlockTableRecord
  2
*D13
340
0
  0
BLOCK_RECORD
  5
209
330
1
100
AcDbSymbolTableRecord
100
AcDbBlockTableRecord
  2
*D14
340
0
  0
BLOCK_RECORD
  5
20B
330
1
100
AcDbSymbolTableRecord
100
AcDbBlockTableRecord
  2
*D15
340
0
  0
BLOCK_RECORD
  5
20D
330
1
100
AcDbSymbolTableRecord
100
AcDbBlockTableRecord
  2
*D16
340
0
  0
BLOCK_RECORD
  5
20F
330
1
100
AcDbSymbolTableRecord
100
AcDbBlockTableRecord
  2
*D17
340
0
  0
BLOCK_RECORD
  5
4E9
330
1
100
AcDbSymbolTableRecord
100
AcDbBlockTableRecord
  2
_Oblique
340
0
102
{BLKREFS
331
5B6
331
5B7
331
5BF
331
5C0
331
5C9
331
5CA
331
5D3
331
5D4
331
61E
331
61F
331
628
331
629
331
632
331
633
331
63B
331
63C
331
645
331
646
331
64E
331
64F
331
657
331
658
331
675
331
676
331
67F
331
680
331
6A5
331
6A6
331
6B9
331
6BA
331
6C3
331
6C4
331
759
331
75A
331
763
331
764
102
}
  0
BLOCK_RECORD
  5
4FD
330
1
100
AcDbSymbolTableRecord
100
AcDbBlockTableRecord
  2
HAWA
340
0
102
{BLKREFS
331
500
102
}
  0
ENDTAB
  0
ENDSEC
  0
SECTION
  2
BLOCKS
  0
BLOCK
  5
D
330
A
100
AcDbEntity
  8
HAWA1
390
1D
100
AcDbBlockBegin
  2
*MODEL_SPACE
 70
     0
 10
0.0
 20
0.0
 30
0.0
  3
*MODEL_SPACE
  1

  0
ENDBLK
  5
E
330
A
100
AcDbEntity
  8
HAWA1
390
1D
100
AcDbBlockEnd
  0
BLOCK
  5
F
330
B
100
AcDbEntity
 67
     1
  8
HAWA1
390
1D
100
AcDbBlockBegin
  2
*PAPER_SPACE
 70
     0
 10
0.0
 20
0.0
 30
0.0
  3
*PAPER_SPACE
  1

  0
ENDBLK
  5
10
330
B
100
AcDbEntity
 67
     1
  8
HAWA1
390
1D
100
AcDbBlockEnd
  0
BLOCK
  5
2B1
330
2C
100
AcDbEntity
  8
HAWA1
370
     0
390
1D
100
AcDbBlockBegin
  2
*D0
 70
     1
 10
0.0
 20
0.0
 30
0.0
  3
*D0
  1

  0
LINE
  5
654
330
2C
100
AcDbEntity
  8
HAWA1
370
    -2
390
1D
100
AcDbLine
 10
36.25449000062378
 20
145.1885899513231
 30
0.0
 11
7.092506561564567
 21
145.1893182911532
 31
0.0
  0
LINE
  5
655
330
2C
100
AcDbEntity
  8
HAWA1
370
    -2
390
1D
100
AcDbLine
 10
36.25449000062378
 20
107.5885899513231
 30
0.0
 11
7.091567476688918
 21
107.5893183146074
 31
0.0
  0
LINE
  5
656
330
2C
100
AcDbEntity
  8
HAWA1
370
    -2
390
1D
100
AcDbLine
 10
8.092531536914272
 20
146.1892933151796
 30
0.0
 11
8.091542500715434
 21
106.5892933392577
 31
0.0
  0
INSERT
  5
657
330
2C
100
AcDbEntity
  8
HAWA1
370
    -2
390
1D
100
AcDbBlockReference
  2
_Oblique
 10
8.092506561252678
 20
145.1892933154915
 30
0.0
 41
2.0
 42
2.0
 43
2.0
 50
89.99856899999995
  0
INSERT
  5
658
330
2C
100
AcDbEntity
  8
HAWA1
370
    -2
390
1D
100
AcDbBlockReference
  2
_Oblique
 10
8.091567476377026
 20
107.5892933389458
 30
0.0
 41
2.0
 42
2.0
 43
2.0
 50
269.998569
  0
MTEXT
  5
659
330
2C
100
AcDbEntity
  8
HAWA1
370
     0
390
1D
100
AcDbMText
 10
3.647686670439743
 20
126.389404327809
 30
0.0
 40
3.5
 41
0.0
 71
     5
 72
     1
  1
\A1;37.6 [1{\H0.711429x;\S15/32;}"]
  7
Beschlag
 11
0.0000249756615941
 21
0.9999999996881081
 31
0.0
 73
     1
 44
1.0
1001
ACAD
1000
MTEXTBEGIN
1070
    73
1070
     1
1070
    44
1040
1.0
1070
    74
1070
     0
1000
MTEXTEND
  0
POINT
  5
65A
330
2C
100
AcDbEntity
  8
Defpoints
 62
     0
390
1D
100
AcDbPoint
 10
38.25448999999999
 20
145.1885399999999
 30
0.0
  0
POINT
  5
65B
330
2C
100
AcDbEntity
  8
Defpoints
 62
     0
390
1D
100
AcDbPoint
 10
38.25448999999999
 20
107.5885399999999
 30
0.0
  0
POINT
  5
65C
330
2C
100
AcDbEntity
  8
Defpoints
 62
     0
390
1D
100
AcDbPoint
 10
8.091567476377026
 20
107.5892933389458
 30
0.0
  0
ENDBLK
  5
2BE
330
2C
100
AcDbEntity
  8
HAWA1
390
1D
100
AcDbBlockEnd
  0
BLOCK
  5
2BF
330
2E
100
AcDbEntity
  8
HAWA1
370
     0
390
1D
100
AcDbBlockBegin
  2
*D1
 70
     1
 10
0.0
 20
0.0
 30
0.0
  3
*D1
  1

  0
LINE
  5
64B
330
2E
100
AcDbEntity
  8
HAWA1
370
    -2
390
1D
100
AcDbLine
 10
59.22804730088213
 20
144.8641899997227
 30
0.0
 11
59.22838470970546
 21
165.1284473847535
 31
0.0
  0
LINE
  5
64C
330
2E
100
AcDbEntity
  8
HAWA1
370
    -2
390
1D
100
AcDbLine
 10
38.25445669911788
 20
164.3885400002772
 30
0.0
 11
38.2544357238348
 21
163.1287966099778
 31
0.0
  0
LINE
  5
64D
330
2E
100
AcDbEntity
  8
HAWA1
370
    -2
390
1D
100
AcDbLine
 10
60.22836805912579
 20
164.1284307344511
 30
0.0
 11
37.25445237441448
 21
164.1288132602802
 31
0.0
  0
INSERT
  5
64E
330
2E
100
AcDbEntity
  8
HAWA1
370
    -2
390
1D
100
AcDbBlockReference
  2
_Oblique
 10
59.2283680592644
 20
164.1284473848921
 30
0.0
 41
2.0
 42
2.0
 43
2.0
 50
359.999046
  0
INSERT
  5
64F
330
2E
100
AcDbEntity
  8
HAWA1
370
    -2
390
1D
100
AcDbBlockReference
  2
_Oblique
 10
38.25445237427587
 20
164.1287966098392
 30
0.0
 41
2.0
 42
2.0
 43
2.0
 50
179.999046
  0
MTEXT
  5
650
330
2E
100
AcDbEntity
  8
HAWA1
370
     0
390
1D
100
AcDbMText
 10
48.74148421716371
 20
168.5729723465108
 30
0.0
 40
3.5
 41
0.0
 71
     5
 72
     1
  1
\A1;21 [{\H0.711429x;\S13/16;}"]
  7
Beschlag
 11
0.9999999998613814
 21
-0.0000166504410634
 31
0.0
 73
     1
 44
1.0
1001
ACAD
1000
MTEXTBEGIN
1070
    73
1070
     1
1070
    44
1040
1.0
1070
    74
1070
     0
1000
MTEXTEND
  0
POINT
  5
651
330
2E
100
AcDbEntity
  8
Defpoints
 62
     0
390
1D
100
AcDbPoint
 10
59.228014
 20
142.86419
 30
0.0
  0
POINT
  5
652
330
2E
100
AcDbEntity
  8
Defpoints
 62
     0
390
1D
100
AcDbPoint
 10
38.25449000000001
 20
166.38854
 30
0.0
  0
POINT
  5
653
330
2E
100
AcDbEntity
  8
Defpoints
 62
     0
390
1D
100
AcDbPoint
 10
38.25445237427587
 20
164.1287966098392
 30
0.0
  0
ENDBLK
  5
2CA
330
2E
100
AcDbEntity
  8
HAWA1
390
1D
100
AcDbBlockEnd
  0
BLOCK
  5
2CB
330
30
100
AcDbEntity
  8
HAWA1
370
     0
390
1D
100
AcDbBlockBegin
  2
*D2
 70
     1
 10
0.0
 20
0.0
 30
0.0
  3
*D2
  1

  0
LINE
  5
641
330
30
100
AcDbEntity
  8
HAWA1
370
    -2
390
1D
100
AcDbLine
 10
63.05449
 20
121.38854
 30
0.0
 11
75.44954700000002
 21
121.38854
 31
0.0
  0
LINE
  5
642
330
30
100
AcDbEntity
  8
HAWA1
370
    -2
390
1D
100
AcDbLine
 10
63.05449
 20
131.3885399999999
 30
0.0
 11
75.44954700000002
 21
131.3885399999999
 31
0.0
  0
LINE
  5
643
330
30
100
AcDbEntity
  8
HAWA1
370
    -2
390
1D
100
AcDbLine
 10
74.44954700000002
 20
120.38854
 30
0.0
 11
74.44954700000002
 21
131.3885399999999
 31
0.0
  0
LINE
  5
644
330
30
100
AcDbEntity
  8
HAWA1
370
    -2
390
1D
100
AcDbLine
 10
74.44954700000002
 20
131.3885399999999
 30
0.0
 11
74.44954700000002
 21
145.0791948431104
 31
0.0
  0
INSERT
  5
645
330
30
100
AcDbEntity
  8
HAWA1
370
    -2
390
1D
100
AcDbBlockReference
  2
_Oblique
 10
74.44954700000002
 20
121.38854
 30
0.0
 41
2.0
 42
2.0
 43
2.0
 50
270.0
  0
INSERT
  5
646
330
30
100
AcDbEntity
  8
HAWA1
370
    -2
390
1D
100
AcDbBlockReference
  2
_Oblique
 10
74.44954700000002
 20
131.3885399999999
 30
0.0
 41
2.0
 42
2.0
 43
2.0
 50
90.0
  0
MTEXT
  5
647
330
30
100
AcDbEntity
  8
HAWA1
370
     0
390
1D
100
AcDbMText
 10
71.34620457162345
 20
139.2338674215552
 30
0.0
 40
3.5
 41
0.0
 71
     5
 72
     1
  1
\A1;-12,7
  7
Beschlag
 11
0.0000000000000001
 21
1.0
 31
0.0
 73
     1
 44
1.0
1001
ACAD
1000
MTEXTBEGIN
1070
    73
1070
     1
1070
    44
1040
1.0
1070
    74
1070
     0
1000
MTEXTEND
  0
POINT
  5
648
330
30
100
AcDbEntity
  8
Defpoints
 62
     0
390
1D
100
AcDbPoint
 10
61.05449
 20
121.38854
 30
0.0
  0
POINT
  5
649
330
30
100
AcDbEntity
  8
Defpoints
 62
     0
390
1D
100
AcDbPoint
 10
61.05449
 20
131.3885399999999
 30
0.0
  0
POINT
  5
64A
330
30
100
AcDbEntity
  8
Defpoints
 62
     0
390
1D
100
AcDbPoint
 10
74.44954700000002
 20
131.3885399999999
 30
0.0
  0
ENDBLK
  5
2D6
330
30
100
AcDbEntity
  8
HAWA1
390
1D
100
AcDbBlockEnd
  0
BLOCK
  5
2D7
330
32
100
AcDbEntity
  8
HAWA1
370
     0
390
1D
100
AcDbBlockBegin
  2
*D3
 70
     1
 10
0.0
 20
0.0
 30
0.0
  3
*D3
  1

  0
LINE
  5
638
330
32
100
AcDbEntity
  8
HAWA1
370
    -2
390
1D
100
AcDbLine
 10
63.05449
 20
121.38854
 30
0.0
 11
75.44954700000002
 21
121.38854
 31
0.0
  0
LINE
  5
639
330
32
100
AcDbEntity
  8
HAWA1
370
    -2
390
1D
100
AcDbLine
 10
63.05449
 20
131.3885399999999
 30
0.0
 11
75.44954700000002
 21
131.3885399999999
 31
0.0
  0
LINE
  5
63A
330
32
100
AcDbEntity
  8
HAWA1
370
    -2
390
1D
100
AcDbLine
 10
74.44954700000002
 20
120.38854
 30
0.0
 11
74.44954700000002
 21
132.3885399999999
 31
0.0
  0
INSERT
  5
63B
330
32
100
AcDbEntity
  8
HAWA1
370
    -2
390
1D
100
AcDbBlockReference
  2
_Oblique
 10
74.44954700000002
 20
121.38854
 30
0.0
 41
2.0
 42
2.0
 43
2.0
 50
270.0
  0
INSERT
  5
63C
330
32
100
AcDbEntity
  8
HAWA1
370
    -2
390
1D
100
AcDbBlockReference
  2
_Oblique
 10
74.44954700000002
 20
131.3885399999999
 30
0.0
 41
2.0
 42
2.0
 43
2.0
 50
90.0
  0
MTEXT
  5
63D
330
32
100
AcDbEntity
  8
HAWA1
370
     0
390
1D
100
AcDbMText
 10
71.66254154297407
 20
126.38854
 30
0.0
 40
3.5
 41
0.0
 71
     5
 72
     1
  1
\A1;8
  7
Beschlag
 11
0.0000000000000001
 21
1.0
 31
0.0
 73
     1
 44
1.0
1001
ACAD
1000
MTEXTBEGIN
1070
    73
1070
     1
1070
    44
1040
1.0
1070
    74
1070
     0
1000
MTEXTEND
  0
POINT
  5
63E
330
32
100
AcDbEntity
  8
Defpoints
 62
     0
390
1D
100
AcDbPoint
 10
61.05449
 20
121.38854
 30
0.0
  0
POINT
  5
63F
330
32
100
AcDbEntity
  8
Defpoints
 62
     0
390
1D
100
AcDbPoint
 10
61.05449
 20
131.3885399999999
 30
0.0
  0
POINT
  5
640
330
32
100
AcDbEntity
  8
Defpoints
 62
     0
390
1D
100
AcDbPoint
 10
74.44954700000002
 20
131.3885399999999
 30
0.0
  0
ENDBLK
  5
2E1
330
32
100
AcDbEntity
  8
HAWA1
390
1D
100
AcDbBlockEnd
  0
BLOCK
  5
31C
330
B2
100
AcDbEntity
  8
HAWA1
370
     0
390
1D
100
AcDbBlockBegin
  2
*D4
 70
     1
 10
0.0
 20
0.0
 30
0.0
  3
*D4
  1

  0
LINE
  5
62E
330
B2
100
AcDbEntity
  8
HAWA1
370
    -2
390
1D
100
AcDbLine
 10
122.554482
 20
106.539293
 30
0.0
 11
113.805367
 21
106.539293
 31
0.0
  0
LINE
  5
62F
330
B2
100
AcDbEntity
  8
HAWA1
370
    -2
390
1D
100
AcDbLine
 10
122.554482
 20
90.239293
 30
0.0
 11
113.805367
 21
90.239293
 31
0.0
  0
LINE
  5
630
330
B2
100
AcDbEntity
  8
HAWA1
370
    -2
390
1D
100
AcDbLine
 10
114.805367
 20
107.539293
 30
0.0
 11
114.805367
 21
90.239293
 31
0.0
  0
LINE
  5
631
330
B2
100
AcDbEntity
  8
HAWA1
370
    -2
390
1D
100
AcDbLine
 10
114.805367
 20
90.239293
 30
0.0
 11
114.805367
 21
69.87403723894953
 31
0.0
  0
INSERT
  5
632
330
B2
100
AcDbEntity
  8
HAWA1
370
    -2
390
1D
100
AcDbBlockReference
  2
_Oblique
 10
114.805367
 20
106.539293
 30
0.0
 41
2.0
 42
2.0
 43
2.0
 50
90.0
  0
INSERT
  5
633
330
B2
100
AcDbEntity
  8
HAWA1
370
    -2
390
1D
100
AcDbBlockReference
  2
_Oblique
 10
114.805367
 20
90.239293
 30
0.0
 41
2.0
 42
2.0
 43
2.0
 50
270.0
  0
MTEXT
  5
634
330
B2
100
AcDbEntity
  8
HAWA1
370
     0
390
1D
100
AcDbMText
 10
110.382247904502
 20
79.05666511947479
 30
0.0
 40
3.5
 41
0.0
 71
     5
 72
     1
  1
\A1;16.3 [{\H0.711429x;\S21/32;}"]
  7
Beschlag
 11
0.0000000000000001
 21
1.0
 31
0.0
 73
     1
 44
1.0
1001
ACAD
1000
MTEXTBEGIN
1070
    73
1070
     1
1070
    44
1040
1.0
1070
    74
1070
     0
1000
MTEXTEND
  0
POINT
  5
635
330
B2
100
AcDbEntity
  8
Defpoints
 62
     0
390
1D
100
AcDbPoint
 10
124.554482
 20
106.539293
 30
0.0
  0
POINT
  5
636
330
B2
100
AcDbEntity
  8
Defpoints
 62
     0
390
1D
100
AcDbPoint
 10
124.554482
 20
90.239293
 30
0.0
  0
POINT
  5
637
330
B2
100
AcDbEntity
  8
Defpoints
 62
     0
390
1D
100
AcDbPoint
 10
114.805367
 20
90.239293
 30
0.0
  0
ENDBLK
  5
328
330
B2
100
AcDbEntity
  8
HAWA1
390
1D
100
AcDbBlockEnd
  0
BLOCK
  5
329
330
B4
100
AcDbEntity
  8
HAWA1
370
     0
390
1D
100
AcDbBlockBegin
  2
*D5
 70
     1
 10
0.0
 20
0.0
 30
0.0
  3
*D5
  1

  0
LINE
  5
624
330
B4
100
AcDbEntity
  8
HAWA1
370
    -2
390
1D
100
AcDbLine
 10
123.5544153982357
 20
89.23929300110897
 30
0.0
 11
123.5527244250326
 21
38.46066209409185
 31
0.0
  0
LINE
  5
625
330
B4
100
AcDbEntity
  8
HAWA1
370
    -2
390
1D
100
AcDbLine
 10
137.5544153982357
 20
88.73929300110892
 30
0.0
 11
137.5527410599484
 21
38.46019588118791
 31
0.0
  0
LINE
  5
626
330
B4
100
AcDbEntity
  8
HAWA1
370
    -2
390
1D
100
AcDbLine
 10
122.5527577264692
 20
39.46069539441948
 30
0.0
 11
137.5527743608305
 21
39.46019588063343
 31
0.0
  0
LINE
  5
627
330
B4
100
AcDbEntity
  8
HAWA1
370
    -2
390
1D
100
AcDbLine
 10
137.5527743608305
 20
39.46019588063343
 30
0.0
 11
154.0600197675372
 21
39.45964617479968
 31
0.0
  0
INSERT
  5
628
330
B4
100
AcDbEntity
  8
HAWA1
370
    -2
390
1D
100
AcDbBlockReference
  2
_Oblique
 10
123.5527577259148
 20
39.46066209353736
 30
0.0
 41
2.0
 42
2.0
 43
2.0
 50
179.998092
  0
INSERT
  5
629
330
B4
100
AcDbEntity
  8
HAWA1
370
    -2
390
1D
100
AcDbBlockReference
  2
_Oblique
 10
137.5527743608305
 20
39.46019588063343
 30
0.0
 41
2.0
 42
2.0
 43
2.0
 50
359.998092
  0
MTEXT
  5
62A
330
B4
100
AcDbEntity
  8
HAWA1
370
     0
390
1D
100
AcDbMText
 10
146.8065450361357
 20
43.90338882396135
 30
0.0
 40
3.5
 41
0.0
 71
     5
 72
     1
  1
\A1;14 [{\H0.711429x;\S9/16;}"]
  7
Beschlag
 11
0.9999999994455256
 21
-0.0000333008821221
 31
0.0
 73
     1
 44
1.0
1001
ACAD
1000
MTEXTBEGIN
1070
    73
1070
     1
1070
    44
1040
1.0
1070
    74
1070
     0
1000
MTEXTEND
  0
POINT
  5
62B
330
B4
100
AcDbEntity
  8
Defpoints
 62
     0
390
1D
100
AcDbPoint
 10
123.554482
 20
91.239293
 30
0.0
  0
POINT
  5
62C
330
B4
100
AcDbEntity
  8
Defpoints
 62
     0
390
1D
100
AcDbPoint
 10
137.554482
 20
90.73929300000001
 30
0.0
  0
POINT
  5
62D
330
B4
100
AcDbEntity
  8
Defpoints
 62
     0
390
1D
100
AcDbPoint
 10
137.5527743608305
 20
39.46019588063343
 30
0.0
  0
ENDBLK
  5
335
330
B4
100
AcDbEntity
  8
HAWA1
390
1D
100
AcDbBlockEnd
  0
BLOCK
  5
336
330
B6
100
AcDbEntity
  8
HAWA1
370
     0
390
1D
100
AcDbBlockBegin
  2
*D6
 70
     1
 10
0.0
 20
0.0
 30
0.0
  3
*D6
  1

  0
LINE
  5
61B
330
B6
100
AcDbEntity
  8
HAWA1
370
    -2
390
1D
100
AcDbLine
 10
123.5545486017642
 20
107.539292998891
 30
0.0
 11
123.5561433910824
 21
155.4295954672822
 31
0.0
  0
LINE
  5
61C
330
B6
100
AcDbEntity
  8
HAWA1
370
    -2
390
1D
100
AcDbLine
 10
173.5545486017642
 20
132.388539998891
 30
0.0
 11
173.5553158337901
 21
155.4279304507335
 31
0.0
  0
LINE
  5
61D
330
B6
100
AcDbEntity
  8
HAWA1
370
    -2
390
1D
100
AcDbLine
 10
122.5561100907548
 20
154.4296287687188
 30
0.0
 11
174.5552825323537
 21
154.4278971504059
 31
0.0
  0
INSERT
  5
61E
330
B6
100
AcDbEntity
  8
HAWA1
370
    -2
390
1D
100
AcDbBlockReference
  2
_Oblique
 10
123.5561100902003
 20
154.4295954678366
 30
0.0
 41
2.0
 42
2.0
 43
2.0
 50
179.998092
  0
INSERT
  5
61F
330
B6
100
AcDbEntity
  8
HAWA1
370
    -2
390
1D
100
AcDbBlockReference
  2
_Oblique
 10
173.5552825329081
 20
154.427930451288
 30
0.0
 41
2.0
 42
2.0
 43
2.0
 50
359.998092
  0
MTEXT
  5
620
330
B6
100
AcDbEntity
  8
HAWA1
370
     0
390
1D
100
AcDbMText
 10
148.5558443406221
 20
158.8739625570294
 30
0.0
 40
3.5
 41
0.0
 71
     5
 72
     1
  1
\A1;=>50 [1{\H0.711429x;\S31/32;}"]
  7
Beschlag
 11
0.9999999994455256
 21
-0.0000333008821221
 31
0.0
 73
     1
 44
1.0
1001
ACAD
1000
MTEXTBEGIN
1070
    73
1070
     1
1070
    44
1040
1.0
1070
    74
1070
     0
1000
MTEXTEND
  0
POINT
  5
621
330
B6
100
AcDbEntity
  8
Defpoints
 62
     0
390
1D
100
AcDbPoint
 10
123.554482
 20
105.539293
 30
0.0
  0
POINT
  5
622
330
B6
100
AcDbEntity
  8
Defpoints
 62
     0
390
1D
100
AcDbPoint
 10
173.554482
 20
130.3885399999999
 30
0.0
  0
POINT
  5
623
330
B6
100
AcDbEntity
  8
Defpoints
 62
     0
390
1D
100
AcDbPoint
 10
173.5552825329081
 20
154.427930451288
 30
0.0
  0
ENDBLK
  5
344
330
B6
100
AcDbEntity
  8
HAWA1
390
1D
100
AcDbBlockEnd
  0
BLOCK
  5
345
330
B8
100
AcDbEntity
  8
HAWA1
370
     0
390
1D
100
AcDbBlockBegin
  2
*D7
 70
     1
 10
0.0
 20
0.0
 30
0.0
  3
*D7
  1

  0
LINE
  5
671
330
B8
100
AcDbEntity
  8
HAWA1
370
    -2
390
1D
100
AcDbLine
 10
123.5544153982357
 20
89.23929300110897
 30
0.0
 11
123.5534674298101
 21
60.77252681653058
 31
0.0
  0
LINE
  5
672
330
B8
100
AcDbEntity
  8
HAWA1
370
    -2
390
1D
100
AcDbLine
 10
130.2544153982357
 20
92.28929300110895
 30
0.0
 11
130.2533658546897
 21
60.77230370400277
 31
0.0
  0
LINE
  5
673
330
B8
100
AcDbEntity
  8
HAWA1
370
    -2
390
1D
100
AcDbLine
 10
122.5535007312467
 20
61.77256011685821
 30
0.0
 11
130.2533991555718
 21
61.7723037034483
 31
0.0
  0
LINE
  5
674
330
B8
100
AcDbEntity
  8
HAWA1
370
    -2
390
1D
100
AcDbLine
 10
130.2533991555718
 20
61.7723037034483
 30
0.0
 11
154.1473044982578
 21
61.77150801532261
 31
0.0
  0
INSERT
  5
675
330
B8
100
AcDbEntity
  8
HAWA1
370
    -2
390
1D
100
AcDbBlockReference
  2
_Oblique
 10
123.5535007306922
 20
61.77252681597611
 30
0.0
 41
2.0
 42
2.0
 43
2.0
 50
179.998092
  0
INSERT
  5
676
330
B8
100
AcDbEntity
  8
HAWA1
370
    -2
390
1D
100
AcDbBlockReference
  2
_Oblique
 10
130.2533991555718
 20
61.7723037034483
 30
0.0
 41
2.0
 42
2.0
 43
2.0
 50
359.998092
  0
MTEXT
  5
677
330
B8
100
AcDbEntity
  8
HAWA1
370
     0
390
1D
100
AcDbMText
 10
146.8494824391088
 20
66.16769413171323
 30
0.0
 40
3.5
 41
0.0
 71
     5
 72
     1
  1
\A1;6.7 [{\H0.711429x;\S1/4;}"]
  7
Beschlag
 11
0.9999999994455256
 21
-0.0000333008821221
 31
0.0
 73
     1
 44
1.0
1001
ACAD
1000
MTEXTBEGIN
1070
    73
1070
     1
1070
    44
1040
1.0
1070
    74
1070
     0
1000
MTEXTEND
  0
POINT
  5
678
330
B8
100
AcDbEntity
  8
Defpoints
 62
     0
390
1D
100
AcDbPoint
 10
123.554482
 20
91.239293
 30
0.0
  0
POINT
  5
679
330
B8
100
AcDbEntity
  8
Defpoints
 62
     0
390
1D
100
AcDbPoint
 10
130.254482
 20
94.289293
 30
0.0
  0
POINT
  5
67A
330
B8
100
AcDbEntity
  8
Defpoints
 62
     0
390
1D
100
AcDbPoint
 10
130.2533991555718
 20
61.7723037034483
 30
0.0
  0
ENDBLK
  5
351
330
B8
100
AcDbEntity
  8
HAWA1
390
1D
100
AcDbBlockEnd
  0
BLOCK
  5
352
330
BA
100
AcDbEntity
  8
HAWA1
370
     0
390
1D
100
AcDbBlockBegin
  2
*D8
 70
     1
 10
0.0
 20
0.0
 30
0.0
  3
*D8
  1

  0
LINE
  5
67B
330
BA
100
AcDbEntity
  8
HAWA1
370
    -2
390
1D
100
AcDbLine
 10
123.5544153982357
 20
89.23929300110897
 30
0.0
 11
123.5530665955722
 21
48.73578147757664
 31
0.0
  0
LINE
  5
67C
330
BA
100
AcDbEntity
  8
HAWA1
370
    -2
390
1D
100
AcDbLine
 10
131.0044153982357
 20
92.38854000110896
 30
0.0
 11
131.0029617146075
 21
48.73553338949733
 31
0.0
  0
LINE
  5
67D
330
BA
100
AcDbEntity
  8
HAWA1
370
    -2
390
1D
100
AcDbLine
 10
122.5530998970088
 20
49.73581477790428
 30
0.0
 11
131.0029950154896
 21
49.73553338894285
 31
0.0
  0
LINE
  5
67E
330
BA
100
AcDbEntity
  8
HAWA1
370
    -2
390
1D
100
AcDbLine
 10
131.0029950154896
 20
49.73553338894285
 30
0.0
 11
155.2787809706088
 21
49.73472498385588
 31
0.0
  0
INSERT
  5
67F
330
BA
100
AcDbEntity
  8
HAWA1
370
    -2
390
1D
100
AcDbBlockReference
  2
_Oblique
 10
123.5530998964543
 20
49.73578147702217
 30
0.0
 41
2.0
 42
2.0
 43
2.0
 50
179.998092
  0
INSERT
  5
680
330
BA
100
AcDbEntity
  8
HAWA1
370
    -2
390
1D
100
AcDbBlockReference
  2
_Oblique
 10
131.0029950154896
 20
49.73553338894285
 30
0.0
 41
2.0
 42
2.0
 43
2.0
 50
359.998092
  0
MTEXT
  5
681
330
BA
100
AcDbEntity
  8
HAWA1
370
     0
390
1D
100
AcDbMText
 10
147.1846196492469
 20
54.17934487879361
 30
0.0
 40
3.5
 41
0.0
 71
     5
 72
     1
  1
\A1;7.4 [{\H0.711429x;\S9/32;}"]
  7
Beschlag
 11
0.9999999994455256
 21
-0.0000333008821221
 31
0.0
 73
     1
 44
1.0
1001
ACAD
1000
MTEXTBEGIN
1070
    73
1070
     1
1070
    44
1040
1.0
1070
    74
1070
     0
1000
MTEXTEND
  0
POINT
  5
682
330
BA
100
AcDbEntity
  8
Defpoints
 62
     0
390
1D
100
AcDbPoint
 10
123.554482
 20
91.239293
 30
0.0
  0
POINT
  5
683
330
BA
100
AcDbEntity
  8
Defpoints
 62
     0
390
1D
100
AcDbPoint
 10
131.004482
 20
94.38854
 30
0.0
  0
POINT
  5
684
330
BA
100
AcDbEntity
  8
Defpoints
 62
     0
390
1D
100
AcDbPoint
 10
131.0029950154896
 20
49.73553338894285
 30
0.0
  0
ENDBLK
  5
35E
330
BA
100
AcDbEntity
  8
HAWA1
390
1D
100
AcDbBlockEnd
  0
BLOCK
  5
35F
330
BC
100
AcDbEntity
  8
HAWA1
370
     0
390
1D
100
AcDbBlockBegin
  2
*D9
 70
     1
 10
0.0
 20
0.0
 30
0.0
  3
*D9
  1

  0
LINE
  5
6A1
330
BC
100
AcDbEntity
  8
HAWA1
370
    -2
390
1D
100
AcDbLine
 10
175.5107409993761
 20
126.3884900486768
 30
0.0
 11
200.0885439857527
 21
126.3878762017864
 31
0.0
  0
LINE
  5
6A2
330
BC
100
AcDbEntity
  8
HAWA1
370
    -2
390
1D
100
AcDbLine
 10
201.6072350006238
 20
98.38670795132316
 30
0.0
 11
198.0878446396216
 21
98.38679585042587
 31
0.0
  0
LINE
  5
6A3
330
BC
100
AcDbEntity
  8
HAWA1
370
    -2
390
1D
100
AcDbLine
 10
199.0878446393097
 20
98.3867708747643
 30
0.0
 11
199.0885689617262
 21
127.3879011771361
 31
0.0
  0
LINE
  5
6A4
330
BC
100
AcDbEntity
  8
HAWA1
370
    -2
390
1D
100
AcDbLine
 10
199.0885439860646
 20
126.387901177448
 30
0.0
 11
199.0890308372859
 21
145.8809271877084
 31
0.0
  0
INSERT
  5
6A5
330
BC
100
AcDbEntity
  8
HAWA1
370
    -2
390
1D
100
AcDbBlockReference
  2
_Oblique
 10
199.0878446393097
 20
98.3867708747643
 30
0.0
 41
2.0
 42
2.0
 43
2.0
 50
269.998569
  0
INSERT
  5
6A6
330
BC
100
AcDbEntity
  8
HAWA1
370
    -2
390
1D
100
AcDbBlockReference
  2
_Oblique
 10
199.0885439860646
 20
126.387901177448
 30
0.0
 41
2.0
 42
2.0
 43
2.0
 50
89.99856899999995
  0
MTEXT
  5
6A7
330
BC
100
AcDbEntity
  8
HAWA1
370
     0
390
1D
100
AcDbMText
 10
194.6436127905905
 20
137.1345972348498
 30
0.0
 40
3.5
 41
0.0
 71
     5
 72
     1
  1
\A1;28 [1{\H0.711429x;\S3/32;}"]
  7
Beschlag
 11
0.0000249756615941
 21
0.9999999996881081
 31
0.0
 73
     1
 44
1.0
1001
ACAD
1000
MTEXTBEGIN
1070
    73
1070
     1
1070
    44
1040
1.0
1070
    74
1070
     0
1000
MTEXTEND
  0
POINT
  5
6A8
330
BC
100
AcDbEntity
  8
Defpoints
 62
     0
390
1D
100
AcDbPoint
 10
173.5107409999999
 20
126.3885399999999
 30
0.0
  0
POINT
  5
6A9
330
BC
100
AcDbEntity
  8
Defpoints
 62
     0
390
1D
100
AcDbPoint
 10
203.607235
 20
98.38665800000001
 30
0.0
  0
POINT
  5
6AA
330
BC
100
AcDbEntity
  8
Defpoints
 62
     0
390
1D
100
AcDbPoint
 10
199.0878446393097
 20
98.3867708747643
 30
0.0
  0
ENDBLK
  5
36C
330
BC
100
AcDbEntity
  8
HAWA1
390
1D
100
AcDbBlockEnd
  0
BLOCK
  5
36D
330
BE
100
AcDbEntity
  8
HAWA1
370
     0
390
1D
100
AcDbBlockBegin
  2
*D10
 70
     1
 10
0.0
 20
0.0
 30
0.0
  3
*D10
  1

  0
LINE
  5
6B5
330
BE
100
AcDbEntity
  8
HAWA1
370
    -2
390
1D
100
AcDbLine
 10
201.5544820000693
 20
103.391041650441
 30
0.0
 11
181.5530707720422
 21
103.3912081666005
 31
0.0
  0
LINE
  5
6B6
330
BE
100
AcDbEntity
  8
HAWA1
370
    -2
390
1D
100
AcDbLine
 10
174.5544819999307
 20
121.3885233495589
 30
0.0
 11
183.5532206031057
 21
121.3884484330755
 31
0.0
  0
LINE
  5
6B7
330
BE
100
AcDbEntity
  8
HAWA1
370
    -2
390
1D
100
AcDbLine
 10
182.553062446787
 20
102.3911998414146
 30
0.0
 11
182.5532206031403
 21
121.388456758296
 31
0.0
  0
LINE
  5
6B8
330
BE
100
AcDbEntity
  8
HAWA1
370
    -2
390
1D
100
AcDbLine
 10
182.5532206031403
 20
121.388456758296
 30
0.0
 11
182.55334382666
 21
136.1896886694569
 31
0.0
  0
INSERT
  5
6B9
330
BE
100
AcDbEntity
  8
HAWA1
370
    -2
390
1D
100
AcDbBlockReference
  2
_Oblique
 10
182.5530707720075
 20
103.3911998413799
 30
0.0
 41
2.0
 42
2.0
 43
2.0
 50
269.9995229999999
  0
INSERT
  5
6BA
330
BE
100
AcDbEntity
  8
HAWA1
370
    -2
390
1D
100
AcDbBlockReference
  2
_Oblique
 10
182.5532206031403
 20
121.388456758296
 30
0.0
 41
2.0
 42
2.0
 43
2.0
 50
89.999523
  0
MTEXT
  5
6BB
330
BE
100
AcDbEntity
  8
HAWA1
370
     0
390
1D
100
AcDbMText
 10
179.4499601495073
 20
131.2350248739881
 30
0.0
 40
3.5
 41
0.0
 71
     5
 72
     1
  1
\A1;15,5
  7
Beschlag
 11
0.000008325220532
 21
0.9999999999653454
 31
0.0
 73
     1
 44
1.0
1001
ACAD
1000
MTEXTBEGIN
1070
    73
1070
     1
1070
    44
1040
1.0
1070
    74
1070
     0
1000
MTEXTEND
  0
POINT
  5
6BC
330
BE
100
AcDbEntity
  8
Defpoints
 62
     0
390
1D
100
AcDbPoint
 10
203.554482
 20
103.391025
 30
0.0
  0
POINT
  5
6BD
330
BE
100
AcDbEntity
  8
Defpoints
 62
     0
390
1D
100
AcDbPoint
 10
172.554482
 20
121.38854
 30
0.0
  0
POINT
  5
6BE
330
BE
100
AcDbEntity
  8
Defpoints
 62
     0
390
1D
100
AcDbPoint
 10
182.5532206031403
 20
121.388456758296
 30
0.0
  0
ENDBLK
  5
378
330
BE
100
AcDbEntity
  8
HAWA1
390
1D
100
AcDbBlockEnd
  0
BLOCK
  5
379
330
C0
100
AcDbEntity
  8
HAWA1
370
     0
390
1D
100
AcDbBlockBegin
  2
*D11
 70
     1
 10
0.0
 20
0.0
 30
0.0
  3
*D11
  1

  0
LINE
  5
6BF
330
C0
100
AcDbEntity
  8
HAWA1
370
    -2
390
1D
100
AcDbLine
 10
174.5544819993761
 20
121.3884900486768
 30
0.0
 11
183.5530566493985
 21
121.3882653033214
 31
0.0
  0
LINE
  5
6C0
330
C0
100
AcDbEntity
  8
HAWA1
370
    -2
390
1D
100
AcDbLine
 10
201.5544820006237
 20
103.3910749513232
 30
0.0
 11
181.5526071695155
 21
103.3915745113803
 31
0.0
  0
LINE
  5
6C1
330
C0
100
AcDbEntity
  8
HAWA1
370
    -2
390
1D
100
AcDbLine
 10
182.5526071692037
 20
103.3915495357187
 30
0.0
 11
182.553081625372
 21
122.3882902786711
 31
0.0
  0
LINE
  5
6C2
330
C0
100
AcDbEntity
  8
HAWA1
370
    -2
390
1D
100
AcDbLine
 10
182.5530566497104
 20
121.388290278983
 30
0.0
 11
182.5536010696625
 21
143.1863095195783
 31
0.0
  0
INSERT
  5
6C3
330
C0
100
AcDbEntity
  8
HAWA1
370
    -2
390
1D
100
AcDbBlockReference
  2
_Oblique
 10
182.5526071692037
 20
103.3915495357187
 30
0.0
 41
2.0
 42
2.0
 43
2.0
 50
269.998569
  0
INSERT
  5
6C4
330
C0
100
AcDbEntity
  8
HAWA1
370
    -2
390
1D
100
AcDbBlockReference
  2
_Oblique
 10
182.5530566497104
 20
121.388290278983
 30
0.0
 41
2.0
 42
2.0
 43
2.0
 50
89.99856899999995
  0
MTEXT
  5
6C5
330
C0
100
AcDbEntity
  8
HAWA1
370
     0
390
1D
100
AcDbMText
 10
179.766495372257
 20
139.1728218293631
 30
0.0
 40
3.5
 41
0.0
 71
     5
 72
     1
  1
\A1;-19
  7
Beschlag
 11
0.0000249756615941
 21
0.9999999996881081
 31
0.0
 73
     1
 44
1.0
1001
ACAD
1000
MTEXTBEGIN
1070
    73
1070
     1
1070
    44
1040
1.0
1070
    74
1070
     0
1000
MTEXTEND
  0
POINT
  5
6C6
330
C0
100
AcDbEntity
  8
Defpoints
 62
     0
390
1D
100
AcDbPoint
 10
172.554482
 20
121.38854
 30
0.0
  0
POINT
  5
6C7
330
C0
100
AcDbEntity
  8
Defpoints
 62
     0
390
1D
100
AcDbPoint
 10
203.554482
 20
103.391025
 30
0.0
  0
POINT
  5
6C8
330
C0
100
AcDbEntity
  8
Defpoints
 62
     0
390
1D
100
AcDbPoint
 10
182.5526071692037
 20
103.3915495357187
 30
0.0
  0
ENDBLK
  5
385
330
C0
100
AcDbEntity
  8
HAWA1
390
1D
100
AcDbBlockEnd
  0
BLOCK
  5
3C4
330
205
100
AcDbEntity
  8
HAWA1
370
     0
390
1D
100
AcDbBlockBegin
  2
*D12
 70
     1
 10
0.0
 20
0.0
 30
0.0
  3
*D12
  1

  0
LINE
  5
75F
330
205
100
AcDbEntity
  8
HAWA1
370
    -2
390
1D
100
AcDbLine
 10
210.554482
 20
93.38854000000001
 30
0.0
 11
217.224483244936
 21
93.38854000000001
 31
0.0
  0
LINE
  5
760
330
205
100
AcDbEntity
  8
HAWA1
370
    -2
390
1D
100
AcDbLine
 10
210.554482
 20
103.38854
 30
0.0
 11
217.224483244936
 21
103.38854
 31
0.0
  0
LINE
  5
761
330
205
100
AcDbEntity
  8
HAWA1
370
    -2
390
1D
100
AcDbLine
 10
216.224483244936
 20
103.38854
 30
0.0
 11
216.224483244936
 21
92.38854000000001
 31
0.0
  0
LINE
  5
762
330
205
100
AcDbEntity
  8
HAWA1
370
    -2
390
1D
100
AcDbLine
 10
216.224483244936
 20
93.38854000000001
 30
0.0
 11
216.224483244936
 21
69.00515006893503
 31
0.0
  0
INSERT
  5
763
330
205
100
AcDbEntity
  8
HAWA1
370
    -2
390
1D
100
AcDbBlockReference
  2
_Oblique
 10
216.224483244936
 20
103.38854
 30
0.0
 41
2.0
 42
2.0
 43
2.0
 50
90.0
  0
INSERT
  5
764
330
205
100
AcDbEntity
  8
HAWA1
370
    -2
390
1D
100
AcDbBlockReference
  2
_Oblique
 10
216.224483244936
 20
93.38854000000001
 30
0.0
 41
2.0
 42
2.0
 43
2.0
 50
270.0
  0
MTEXT
  5
765
330
205
100
AcDbEntity
  8
HAWA1
370
     0
390
1D
100
AcDbMText
 10
211.8276608256545
 20
77.22844815897599
 30
0.0
 40
3.5
 41
0.0
 71
     5
 72
     1
  1
\A1;-12 [{\H0.7x;\S15/32;}"]
  7
Beschlag
 11
0.0000000000000001
 21
1.0
 31
0.0
 73
     1
 44
1.0
1001
ACAD
1000
MTEXTBEGIN
1070
    73
1070
     1
1070
    44
1040
1.0
1070
    74
1070
     0
1000
MTEXTEND
  0
POINT
  5
766
330
205
100
AcDbEntity
  8
Defpoints
 62
     0
390
1D
100
AcDbPoint
 10
208.554482
 20
93.38854000000001
 30
0.0
  0
POINT
  5
767
330
205
100
AcDbEntity
  8
Defpoints
 62
     0
390
1D
100
AcDbPoint
 10
208.554482
 20
103.38854
 30
0.0
  0
POINT
  5
768
330
205
100
AcDbEntity
  8
Defpoints
 62
     0
390
1D
100
AcDbPoint
 10
216.224483244936
 20
103.38854
 30
0.0
  0
ENDBLK
  5
3CF
330
205
100
AcDbEntity
  8
HAWA1
390
1D
100
AcDbBlockEnd
  0
BLOCK
  5
3D0
330
207
100
AcDbEntity
  8
HAWA1
370
     0
390
1D
100
AcDbBlockBegin
  2
*D13
 70
     1
 10
0.0
 20
0.0
 30
0.0
  3
*D13
  1

  0
LINE
  5
755
330
207
100
AcDbEntity
  8
HAWA1
370
    -2
390
1D
100
AcDbLine
 10
210.554482
 20
93.38854000000001
 30
0.0
 11
217.224483244936
 21
93.38854000000001
 31
0.0
  0
LINE
  5
756
330
207
100
AcDbEntity
  8
HAWA1
370
    -2
390
1D
100
AcDbLine
 10
210.554482
 20
103.38854
 30
0.0
 11
217.224483244936
 21
103.38854
 31
0.0
  0
LINE
  5
757
330
207
100
AcDbEntity
  8
HAWA1
370
    -2
390
1D
100
AcDbLine
 10
216.224483244936
 20
103.38854
 30
0.0
 11
216.224483244936
 21
92.38854000000001
 31
0.0
  0
LINE
  5
758
330
207
100
AcDbEntity
  8
HAWA1
370
    -2
390
1D
100
AcDbLine
 10
216.224483244936
 20
93.38854000000001
 30
0.0
 11
216.2244832449359
 21
56.73754861789553
 31
0.0
  0
INSERT
  5
759
330
207
100
AcDbEntity
  8
HAWA1
370
    -2
390
1D
100
AcDbBlockReference
  2
_Oblique
 10
216.224483244936
 20
103.38854
 30
0.0
 41
2.0
 42
2.0
 43
2.0
 50
90.0
  0
INSERT
  5
75A
330
207
100
AcDbEntity
  8
HAWA1
370
    -2
390
1D
100
AcDbBlockReference
  2
_Oblique
 10
216.224483244936
 20
93.38854000000001
 30
0.0
 41
2.0
 42
2.0
 43
2.0
 50
270.0
  0
MTEXT
  5
75B
330
207
100
AcDbEntity
  8
HAWA1
370
     0
390
1D
100
AcDbMText
 10
211.8502222171961
 20
62.89261171475778
 30
0.0
 40
3.5
 41
0.0
 71
     5
 72
     1
  1
\A1;8 [{\H0.7x;\S5/16;}"]
  7
Beschlag
 11
0.0000000000000001
 21
1.0
 31
0.0
 73
     1
 44
1.0
1001
ACAD
1000
MTEXTBEGIN
1070
    73
1070
     1
1070
    44
1040
1.0
1070
    74
1070
     0
1000
MTEXTEND
  0
POINT
  5
75C
330
207
100
AcDbEntity
  8
Defpoints
 62
     0
390
1D
100
AcDbPoint
 10
208.554482
 20
93.38854000000001
 30
0.0
  0
POINT
  5
75D
330
207
100
AcDbEntity
  8
Defpoints
 62
     0
390
1D
100
AcDbPoint
 10
208.554482
 20
103.38854
 30
0.0
  0
POINT
  5
75E
330
207
100
AcDbEntity
  8
Defpoints
 62
     0
390
1D
100
AcDbPoint
 10
216.224483244936
 20
103.38854
 30
0.0
  0
ENDBLK
  5
3DA
330
207
100
AcDbEntity
  8
HAWA1
390
1D
100
AcDbBlockEnd
  0
BLOCK
  5
3DB
330
209
100
AcDbEntity
  8
HAWA1
370
     0
390
1D
100
AcDbBlockBegin
  2
*D14
 70
     1
 10
0.0
 20
0.0
 30
0.0
  3
*D14
  1

  0
LINE
  5
5CF
330
209
100
AcDbEntity
  8
HAWA1
370
    -2
390
1D
100
AcDbLine
 10
256.0045486017643
 20
97.66842599889105
 30
0.0
 11
256.0050945221532
 21
114.0619973947127
 31
0.0
  0
LINE
  5
5D0
330
209
100
AcDbEntity
  8
HAWA1
370
    -2
390
1D
100
AcDbLine
 10
258.5045486017643
 20
110.388539998891
 30
0.0
 11
258.5046709283642
 21
114.0619141566134
 31
0.0
  0
LINE
  5
5D1
330
209
100
AcDbEntity
  8
HAWA1
370
    -2
390
1D
100
AcDbLine
 10
255.0050612218256
 20
113.0620306961493
 30
0.0
 11
258.5046376274821
 21
113.0619141571679
 31
0.0
  0
LINE
  5
5D2
330
209
100
AcDbEntity
  8
HAWA1
370
    -2
390
1D
100
AcDbLine
 10
258.5046376274821
 20
113.0619141571679
 30
0.0
 11
276.7727583170118
 21
113.0613058126339
 31
0.0
  0
INSERT
  5
5D3
330
209
100
AcDbEntity
  8
HAWA1
370
    -2
390
1D
100
AcDbBlockReference
  2
_Oblique
 10
256.0050612212711
 20
113.0619973952672
 30
0.0
 41
2.0
 42
2.0
 43
2.0
 50
179.998092
  0
INSERT
  5
5D4
330
209
100
AcDbEntity
  8
HAWA1
370
    -2
390
1D
100
AcDbBlockReference
  2
_Oblique
 10
258.5046376274821
 20
113.0619141571679
 30
0.0
 41
2.0
 42
2.0
 43
2.0
 50
359.998092
  0
MTEXT
  5
5D5
330
209
100
AcDbEntity
  8
HAWA1
370
     0
390
1D
100
AcDbMText
 10
268.6388460007603
 20
117.5067762814858
 30
0.0
 40
3.5
 41
0.0
 71
     5
 72
     1
  1
\A1;2.5 [{\H0.711429x;\S3/32;}"]
  7
Beschlag
 11
0.9999999994455256
 21
-0.0000333008821221
 31
0.0
 73
     1
 44
1.0
1001
ACAD
1000
MTEXTBEGIN
1070
    73
1070
     1
1070
    44
1040
1.0
1070
    74
1070
     0
1000
MTEXTEND
  0
POINT
  5
5D6
330
209
100
AcDbEntity
  8
Defpoints
 62
     0
390
1D
100
AcDbPoint
 10
256.0044820000001
 20
95.66842599999999
 30
0.0
  0
POINT
  5
5D7
330
209
100
AcDbEntity
  8
Defpoints
 62
     0
390
1D
100
AcDbPoint
 10
258.5044820000001
 20
108.3885399999999
 30
0.0
  0
POINT
  5
5D8
330
209
100
AcDbEntity
  8
Defpoints
 62
     0
390
1D
100
AcDbPoint
 10
258.5046376274821
 20
113.0619141571679
 30
0.0
  0
ENDBLK
  5
3E7
330
209
100
AcDbEntity
  8
HAWA1
390
1D
100
AcDbBlockEnd
  0
BLOCK
  5
3E8
330
20B
100
AcDbEntity
  8
HAWA1
370
     0
390
1D
100
AcDbBlockBegin
  2
*D15
 70
     1
 10
0.0
 20
0.0
 30
0.0
  3
*D15
  1

  0
LINE
  5
5C5
330
20B
100
AcDbEntity
  8
HAWA1
370
    -2
390
1D
100
AcDbLine
 10
244.504482
 20
86.38854
 30
0.0
 11
244.504482
 21
62.65568399999999
 31
0.0
  0
LINE
  5
5C6
330
20B
100
AcDbEntity
  8
HAWA1
370
    -2
390
1D
100
AcDbLine
 10
258.504482
 20
86.38854
 30
0.0
 11
258.504482
 21
62.65568399999999
 31
0.0
  0
LINE
  5
5C7
330
20B
100
AcDbEntity
  8
HAWA1
370
    -2
390
1D
100
AcDbLine
 10
243.504482
 20
63.65568399999999
 30
0.0
 11
258.504482
 21
63.65568399999999
 31
0.0
  0
LINE
  5
5C8
330
20B
100
AcDbEntity
  8
HAWA1
370
    -2
390
1D
100
AcDbLine
 10
258.504482
 20
63.65568399999999
 30
0.0
 11
275.0117274158595
 21
63.65568399999999
 31
0.0
  0
INSERT
  5
5C9
330
20B
100
AcDbEntity
  8
HAWA1
370
    -2
390
1D
100
AcDbBlockReference
  2
_Oblique
 10
244.504482
 20
63.65568399999999
 30
0.0
 41
2.0
 42
2.0
 43
2.0
 50
180.0
  0
INSERT
  5
5CA
330
20B
100
AcDbEntity
  8
HAWA1
370
    -2
390
1D
100
AcDbBlockReference
  2
_Oblique
 10
258.504482
 20
63.65568399999999
 30
0.0
 41
2.0
 42
2.0
 43
2.0
  0
MTEXT
  5
5CB
330
20B
100
AcDbEntity
  8
HAWA1
370
     0
390
1D
100
AcDbMText
 10
267.7581047079298
 20
68.09918509959071
 30
0.0
 40
3.5
 41
0.0
 71
     5
 72
     1
  1
\A1;14 [{\H0.711429x;\S9/16;}"]
  7
Beschlag
 73
     1
 44
1.0
1001
ACAD
1000
MTEXTBEGIN
1070
    73
1070
     1
1070
    44
1040
1.0
1070
    74
1070
     0
1000
MTEXTEND
  0
POINT
  5
5CC
330
20B
100
AcDbEntity
  8
Defpoints
 62
     0
390
1D
100
AcDbPoint
 10
244.504482
 20
88.38854000000003
 30
0.0
  0
POINT
  5
5CD
330
20B
100
AcDbEntity
  8
Defpoints
 62
     0
390
1D
100
AcDbPoint
 10
258.504482
 20
88.38854000000003
 30
0.0
  0
POINT
  5
5CE
330
20B
100
AcDbEntity
  8
Defpoints
 62
     0
390
1D
100
AcDbPoint
 10
258.504482
 20
63.65568399999999
 30
0.0
  0
ENDBLK
  5
3F4
330
20B
100
AcDbEntity
  8
HAWA1
390
1D
100
AcDbBlockEnd
  0
BLOCK
  5
3F5
330
20D
100
AcDbEntity
  8
HAWA1
370
     0
390
1D
100
AcDbBlockBegin
  2
*D16
 70
     1
 10
0.0
 20
0.0
 30
0.0
  3
*D16
  1

  0
LINE
  5
5BC
330
20D
100
AcDbEntity
  8
HAWA1
370
    -2
390
1D
100
AcDbLine
 10
260.004482
 20
108.88854
 30
0.0
 11
286.103847
 21
108.88854
 31
0.0
  0
LINE
  5
5BD
330
20D
100
AcDbEntity
  8
HAWA1
370
    -2
390
1D
100
AcDbLine
 10
260.004482
 20
87.88854
 30
0.0
 11
286.103847
 21
87.88854
 31
0.0
  0
LINE
  5
5BE
330
20D
100
AcDbEntity
  8
HAWA1
370
    -2
390
1D
100
AcDbLine
 10
285.103847
 20
109.88854
 30
0.0
 11
285.103847
 21
86.88854
 31
0.0
  0
INSERT
  5
5BF
330
20D
100
AcDbEntity
  8
HAWA1
370
    -2
390
1D
100
AcDbBlockReference
  2
_Oblique
 10
285.103847
 20
108.88854
 30
0.0
 41
2.0
 42
2.0
 43
2.0
 50
90.0
  0
INSERT
  5
5C0
330
20D
100
AcDbEntity
  8
HAWA1
370
    -2
390
1D
100
AcDbBlockReference
  2
_Oblique
 10
285.103847
 20
87.88854
 30
0.0
 41
2.0
 42
2.0
 43
2.0
 50
270.0
  0
MTEXT
  5
5C1
330
20D
100
AcDbEntity
  8
HAWA1
370
     0
390
1D
100
AcDbMText
 10
280.6594966502388
 20
98.38854000000004
 30
0.0
 40
3.5
 41
0.0
 71
     5
 72
     1
  1
\A1;21 [{\H0.711429x;\S13/16;}"]
  7
Beschlag
 11
0.0000000000000001
 21
1.0
 31
0.0
 73
     1
 44
1.0
1001
ACAD
1000
MTEXTBEGIN
1070
    73
1070
     1
1070
    44
1040
1.0
1070
    74
1070
     0
1000
MTEXTEND
  0
POINT
  5
5C2
330
20D
100
AcDbEntity
  8
Defpoints
 62
     0
390
1D
100
AcDbPoint
 10
258.004482
 20
108.88854
 30
0.0
  0
POINT
  5
5C3
330
20D
100
AcDbEntity
  8
Defpoints
 62
     0
390
1D
100
AcDbPoint
 10
258.004482
 20
87.88854
 30
0.0
  0
POINT
  5
5C4
330
20D
100
AcDbEntity
  8
Defpoints
 62
     0
390
1D
100
AcDbPoint
 10
285.103847
 20
87.88854
 30
0.0
  0
ENDBLK
  5
401
330
20D
100
AcDbEntity
  8
HAWA1
390
1D
100
AcDbBlockEnd
  0
BLOCK
  5
402
330
20F
100
AcDbEntity
  8
HAWA1
370
     0
390
1D
100
AcDbBlockBegin
  2
*D17
 70
     1
 10
0.0
 20
0.0
 30
0.0
  3
*D17
  1

  0
LINE
  5
5B2
330
20F
100
AcDbEntity
  8
HAWA1
370
    -2
390
1D
100
AcDbLine
 10
253.0045486017642
 20
104.388539998891
 30
0.0
 11
253.0055540471731
 21
134.5812959931643
 31
0.0
  0
LINE
  5
5B3
330
20F
100
AcDbEntity
  8
HAWA1
370
    -2
390
1D
100
AcDbLine
 10
258.5045486017643
 20
110.388539998891
 30
0.0
 11
258.5053542357814
 21
134.5811128449664
 31
0.0
  0
LINE
  5
5B4
330
20F
100
AcDbEntity
  8
HAWA1
370
    -2
390
1D
100
AcDbLine
 10
252.0055207468455
 20
133.5813292946009
 30
0.0
 11
258.5053209348992
 21
133.5811128455209
 31
0.0
  0
LINE
  5
5B5
330
20F
100
AcDbEntity
  8
HAWA1
370
    -2
390
1D
100
AcDbLine
 10
258.5053209348992
 20
133.5811128455209
 30
0.0
 11
276.7197240255502
 21
133.5805062898304
 31
0.0
  0
INSERT
  5
5B6
330
20F
100
AcDbEntity
  8
HAWA1
370
    -2
390
1D
100
AcDbBlockReference
  2
_Oblique
 10
253.005520746291
 20
133.5812959937188
 30
0.0
 41
2.0
 42
2.0
 43
2.0
 50
179.998092
  0
INSERT
  5
5B7
330
20F
100
AcDbEntity
  8
HAWA1
370
    -2
390
1D
100
AcDbBlockReference
  2
_Oblique
 10
258.5053209348992
 20
133.5811128455209
 30
0.0
 41
2.0
 42
2.0
 43
2.0
 50
359.998092
  0
MTEXT
  5
5B8
330
20F
100
AcDbEntity
  8
HAWA1
370
     0
390
1D
100
AcDbMText
 10
268.6126690664183
 20
137.9826641055874
 30
0.0
 40
3.5
 41
0.0
 71
     5
 72
     1
  1
\A1;5.5 [{\H0.711429x;\S7/32;}"]
  7
Beschlag
 11
0.9999999994455256
 21
-0.0000333008821221
 31
0.0
 73
     1
 44
1.0
1001
ACAD
1000
MTEXTBEGIN
1070
    73
1070
     1
1070
    44
1040
1.0
1070
    74
1070
     0
1000
MTEXTEND
  0
POINT
  5
5B9
330
20F
100
AcDbEntity
  8
Defpoints
 62
     0
390
1D
100
AcDbPoint
 10
253.004482
 20
102.38854
 30
0.0
  0
POINT
  5
5BA
330
20F
100
AcDbEntity
  8
Defpoints
 62
     0
390
1D
100
AcDbPoint
 10
258.5044820000001
 20
108.3885399999999
 30
0.0
  0
POINT
  5
5BB
330
20F
100
AcDbEntity
  8
Defpoints
 62
     0
390
1D
100
AcDbPoint
 10
258.5053209348992
 20
133.5811128455209
 30
0.0
  0
ENDBLK
  5
40F
330
20F
100
AcDbEntity
  8
HAWA1
390
1D
100
AcDbBlockEnd
  0
BLOCK
  5
4EA
330
4E9
100
AcDbEntity
  8
0
100
AcDbBlockBegin
  2
_Oblique
 70
     0
 10
0.0
 20
0.0
 30
0.0
  3
_Oblique
  1

  0
LINE
  5
4EB
330
4E9
100
AcDbEntity
  8
0
 62
     0
370
    -2
100
AcDbLine
 10
-0.5
 20
-0.5
 30
0.0
 11
0.5
 21
0.5
 31
0.0
  0
ENDBLK
  5
4EC
330
4E9
100
AcDbEntity
  8
0
100
AcDbBlockEnd
  0
BLOCK
  5
4FE
330
4FD
100
AcDbEntity
  8
0
100
AcDbBlockBegin
  2
HAWA
 70
     0
 10
0.0
 20
0.0
 30
0.0
  3
HAWA
  1

  0
ENDBLK
  5
4FF
330
4FD
100
AcDbEntity
  8
0
100
AcDbBlockEnd
  0
ENDSEC
  0
SECTION
  2
ENTITIES
  0
DIMENSION
  5
2D
330
A
100
AcDbEntity
  8
HAWA1
 62
     0
370
     0
390
1D
100
AcDbDimension
  2
*D0
 10
8.091567476377026
 20
107.5892933389458
 30
0.0
 11
3.647686670439743
 21
126.389404327809
 31
0.0
 70
    32
 71
     5
 42
37.59999998827286
 52
89.999523
  3
HAWA-Strich
100
AcDbAlignedDimension
 13
38.25449000000001
 23
145.18854
 33
0.0
 14
38.25449000000001
 24
107.58854
 34
0.0
 50
269.998569
100
AcDbRotatedDimension
  0
DIMENSION
  5
2F
330
A
100
AcDbEntity
  8
HAWA1
 62
     0
370
     0
390
1D
100
AcDbDimension
  2
*D1
 10
38.25445237427587
 20
164.1287966098392
 30
0.0
 11
48.74148421716371
 21
168.5729723465108
 31
0.0
 70
    32
 71
     5
 42
20.97391568789591
 52
89.999523
  3
HAWA-Strich
100
AcDbAlignedDimension
 13
59.228014
 23
142.86419
 33
0.0
 14
38.25449000000001
 24
166.38854
 34
0.0
 50
179.999046
100
AcDbRotatedDimension
  0
DIMENSION
  5
31
330
A
100
AcDbEntity
  8
HAWA1
 62
     0
370
     0
390
1D
100
AcDbDimension
  2
*D2
 10
74.44954700000002
 20
131.3885399999999
 30
0.0
 11
71.34620457162345
 21
139.2338674215552
 31
0.0
 70
    33
  1
-12,7
 71
     5
 42
9.999999999999973
 52
89.999523
  3
HAWA-Strich
100
AcDbAlignedDimension
 13
61.05449
 23
121.38854
 33
0.0
 14
61.05449
 24
131.3885399999999
 34
0.0
  0
DIMENSION
  5
33
330
A
100
AcDbEntity
  8
HAWA1
 62
     0
370
     0
390
1D
100
AcDbDimension
  2
*D3
 10
74.44954700000002
 20
131.3885399999999
 30
0.0
 11
71.66254154297407
 21
126.38854
 31
0.0
 70
    33
  1
8
 71
     5
 42
9.999999999999973
 52
89.999523
  3
HAWA-Strich
100
AcDbAlignedDimension
 13
61.05449
 23
121.38854
 33
0.0
 14
61.05449
 24
131.3885399999999
 34
0.0
  0
LINE
  5
34
330
A
100
AcDbEntity
  8
Hawa5
  6
DASHDOT
 62
     1
370
    13
390
1D
100
AcDbLine
 10
55.61448699999999
 20
126.38854
 30
0.0
 11
91.119584
 21
126.38854
 31
0.0
  0
LINE
  5
35
330
A
100
AcDbEntity
  8
Hawa5
  6
PHANTOM
 62
     1
370
    13
390
1D
100
AcDbLine
 10
88.254502
 20
136.38854
 30
0.0
 11
88.254502
 21
116.38854
 31
0.0
  0
LINE
  5
36
330
A
100
AcDbEntity
  8
Hawa5
 62
     1
370
    13
390
1D
100
AcDbLine
 10
38.254502
 20
86.38853899999999
 30
0.0
 11
38.254502
 21
166.388539
 31
0.0
  0
LINE
  5
37
330
A
100
AcDbEntity
  8
Hawa5
  6
PHANTOM
 62
     1
 48
0.25
370
    13
390
1D
100
AcDbLine
 10
88.254502
 20
121.38854
 30
0.0
 11
88.254502
 21
131.3885399999999
 31
0.0
  0
LINE
  5
38
330
A
100
AcDbEntity
  8
Hawa5
 62
     1
370
    13
390
1D
100
AcDbLine
 10
61.05449
 20
121.38854
 30
0.0
 11
88.254502
 21
121.38854
 31
0.0
  0
LINE
  5
39
330
A
100
AcDbEntity
  8
Hawa5
 62
     1
 48
0.035355
370
    13
390
1D
100
AcDbLine
 10
60.05449
 20
122.38854
 30
0.0
 11
61.05449
 21
121.38854
 31
0.0
  0
LINE
  5
3A
330
A
100
AcDbEntity
  8
Hawa5
 62
     1
 48
0.2
370
    13
390
1D
100
AcDbLine
 10
60.05449
 20
122.38854
 30
0.0
 11
60.05449
 21
130.3885399999999
 31
0.0
  0
LINE
  5
3B
330
A
100
AcDbEntity
  8
Hawa5
 62
     1
 48
0.035355
370
    13
390
1D
100
AcDbLine
 10
60.05449
 20
130.3885399999999
 30
0.0
 11
61.05449
 21
131.3885399999999
 31
0.0
  0
LINE
  5
3C
330
A
100
AcDbEntity
  8
Hawa5
 62
     1
370
    13
390
1D
100
AcDbLine
 10
61.05449
 20
131.3885399999999
 30
0.0
 11
88.254502
 21
131.3885399999999
 31
0.0
  0
LINE
  5
3D
330
A
100
AcDbEntity
  8
Hawa4
 62
     4
 48
0.3925
370
    13
390
1D
100
AcDbLine
 10
38.754502
 20
142.08854
 30
0.0
 11
38.754502
 21
126.38854
 31
0.0
  0
ARC
  5
3E
330
A
100
AcDbEntity
  8
Hawa4
 62
     4
370
    13
390
1D
100
AcDbCircle
 10
38.45448300000001
 20
142.08854
 30
0.0
 40
0.3
100
AcDbArc
 50
0.0
 51
90.00000300000001
  0
LINE
  5
3F
330
A
100
AcDbEntity
  8
Hawa4
 62
     4
 48
0.005
370
    13
390
1D
100
AcDbLine
 10
38.45448300000001
 20
142.38854
 30
0.0
 11
38.254502
 21
142.38854
 31
0.0
  0
LINE
  5
40
330
A
100
AcDbEntity
  8
Hawa4
 62
     4
 48
0.07
370
    13
390
1D
100
AcDbLine
 10
38.254502
 20
145.18854
 30
0.0
 11
38.254502
 21
142.38854
 31
0.0
  0
LINE
  5
41
330
A
100
AcDbEntity
  8
Hawa4
 62
     4
 48
0.475
370
    13
390
1D
100
AcDbLine
 10
38.254502
 20
145.18854
 30
0.0
 11
57.254502
 21
145.18854
 31
0.0
  0
ARC
  5
42
330
A
100
AcDbEntity
  8
Hawa4
 62
     4
370
    13
390
1D
100
AcDbCircle
 10
57.254502
 20
143.18854
 30
0.0
 40
2.0
100
AcDbArc
 50
350.666829
 51
90.00000300000001
  0
LINE
  5
43
330
A
100
AcDbEntity
  8
Hawa4
 62
     4
 48
0.106888
370
    13
390
1D
100
AcDbLine
 10
59.228012
 20
142.86419
 30
0.0
 11
58.534623
 21
138.645278
 31
0.0
  0
ARC
  5
44
330
A
100
AcDbEntity
  8
Hawa4
 62
     4
370
    13
390
1D
100
AcDbCircle
 10
57.05449
 20
138.8885399999999
 30
0.0
 40
1.5
100
AcDbArc
 50
270.000001
 51
350.666829
  0
LINE
  5
45
330
A
100
AcDbEntity
  8
Hawa4
 62
     4
 48
0.125
370
    13
390
1D
100
AcDbLine
 10
57.05449
 20
142.38854
 30
0.0
 11
57.05449
 21
137.38854
 31
0.0
  0
LINE
  5
46
330
A
100
AcDbEntity
  8
Hawa4
 62
     4
 48
0.08
370
    13
390
1D
100
AcDbLine
 10
57.05449
 20
142.38854
 30
0.0
 11
53.854477
 21
142.38854
 31
0.0
  0
LINE
  5
47
330
A
100
AcDbEntity
  8
Hawa4
 62
     4
 48
0.2
370
    13
390
1D
100
AcDbLine
 10
53.854477
 20
134.38854
 30
0.0
 11
53.854477
 21
142.38854
 31
0.0
  0
ARC
  5
48
330
A
100
AcDbEntity
  8
Hawa4
 62
     4
370
    13
390
1D
100
AcDbCircle
 10
52.854477
 20
134.38854
 30
0.0
 40
1.0
100
AcDbArc
 50
270.000001
 51
0.00001
  0
LINE
  5
49
330
A
100
AcDbEntity
  8
Hawa4
 62
     4
 48
0.05
370
    13
390
1D
100
AcDbLine
 10
52.854477
 20
133.3885399999999
 30
0.0
 11
50.854477
 21
133.3885399999999
 31
0.0
  0
LINE
  5
4A
330
A
100
AcDbEntity
  8
Hawa4
 62
     4
 48
0.1625
370
    13
390
1D
100
AcDbLine
 10
50.854477
 20
139.8885399999999
 30
0.0
 11
50.854477
 21
133.3885399999999
 31
0.0
  0
ARC
  5
4B
330
A
100
AcDbEntity
  8
Hawa4
 62
     4
370
    13
390
1D
100
AcDbCircle
 10
48.354477
 20
139.8885399999999
 30
0.0
 40
2.5
100
AcDbArc
 50
0.0
 51
90.00000300000001
  0
LINE
  5
4C
330
A
100
AcDbEntity
  8
Hawa4
 62
     4
 48
0.102499
370
    13
390
1D
100
AcDbLine
 10
48.354477
 20
142.38854
 30
0.0
 11
44.254502
 21
142.38854
 31
0.0
  0
ARC
  5
4D
330
A
100
AcDbEntity
  8
Hawa4
 62
     4
370
    13
390
1D
100
AcDbCircle
 10
44.254502
 20
139.8885399999999
 30
0.0
 40
2.5
100
AcDbArc
 50
90.00000300000001
 51
180.000005
  0
LINE
  5
4E
330
A
100
AcDbEntity
  8
Hawa4
 62
     4
 48
0.33
370
    13
390
1D
100
AcDbLine
 10
41.754502
 20
126.68854
 30
0.0
 11
41.754502
 21
139.8885399999999
 31
0.0
  0
LINE
  5
4F
330
A
100
AcDbEntity
  8
Hawa4
 62
     4
 48
0.010607
370
    13
390
1D
100
AcDbLine
 10
41.754502
 20
126.68854
 30
0.0
 11
41.454483
 21
126.38854
 31
0.0
  0
LINE
  5
50
330
A
100
AcDbEntity
  8
Hawa4
 62
     4
 48
0.010607
370
    13
390
1D
100
AcDbLine
 10
41.754502
 20
126.088541
 30
0.0
 11
41.454483
 21
126.38854
 31
0.0
  0
LINE
  5
51
330
A
100
AcDbEntity
  8
Hawa4
 62
     4
 48
0.33
370
    13
390
1D
100
AcDbLine
 10
41.754502
 20
112.888541
 30
0.0
 11
41.754502
 21
126.088541
 31
0.0
  0
ARC
  5
52
330
A
100
AcDbEntity
  8
Hawa4
 62
     4
370
    13
390
1D
100
AcDbCircle
 10
44.254502
 20
112.888541
 30
0.0
 40
2.5
100
AcDbArc
 50
180.000005
 51
270.000001
  0
LINE
  5
53
330
A
100
AcDbEntity
  8
Hawa4
 62
     4
 48
0.04375
370
    13
390
1D
100
AcDbLine
 10
46.004502
 20
110.388541
 30
0.0
 11
44.254502
 21
110.388541
 31
0.0
  0
LINE
  5
54
330
A
100
AcDbEntity
  8
Hawa4
 62
     4
 48
0.010606
370
    13
390
1D
100
AcDbLine
 10
46.004502
 20
110.388541
 30
0.0
 11
46.30449
 21
110.68854
 31
0.0
  0
LINE
  5
55
330
A
100
AcDbEntity
  8
Hawa4
 62
     4
 48
0.010606
370
    13
390
1D
100
AcDbLine
 10
46.604477
 20
110.388541
 30
0.0
 11
46.30449
 21
110.68854
 31
0.0
  0
LINE
  5
56
330
A
100
AcDbEntity
  8
Hawa4
 62
     4
 48
0.04375
370
    13
390
1D
100
AcDbLine
 10
48.354477
 20
110.388541
 30
0.0
 11
46.604477
 21
110.388541
 31
0.0
  0
ARC
  5
57
330
A
100
AcDbEntity
  8
Hawa4
 62
     4
370
    13
390
1D
100
AcDbCircle
 10
48.354477
 20
112.888541
 30
0.0
 40
2.5
100
AcDbArc
 50
270.000001
 51
360.0
  0
LINE
  5
58
330
A
100
AcDbEntity
  8
Hawa4
 62
     4
 48
0.1625
370
    13
390
1D
100
AcDbLine
 10
50.854477
 20
119.38854
 30
0.0
 11
50.854477
 21
112.888541
 31
0.0
  0
LINE
  5
59
330
A
100
AcDbEntity
  8
Hawa4
 62
     4
 48
0.05
370
    13
390
1D
100
AcDbLine
 10
52.854477
 20
119.38854
 30
0.0
 11
50.854477
 21
119.38854
 31
0.0
  0
ARC
  5
5A
330
A
100
AcDbEntity
  8
Hawa4
 62
     4
370
    13
390
1D
100
AcDbCircle
 10
52.854477
 20
118.38854
 30
0.0
 40
1.0
100
AcDbArc
 50
0.00001
 51
90.00000300000001
  0
LINE
  5
5B
330
A
100
AcDbEntity
  8
Hawa4
 62
     4
 48
0.2
370
    13
390
1D
100
AcDbLine
 10
53.854477
 20
110.388541
 30
0.0
 11
53.854477
 21
118.38854
 31
0.0
  0
LINE
  5
5C
330
A
100
AcDbEntity
  8
Hawa4
 62
     4
 48
0.08
370
    13
390
1D
100
AcDbLine
 10
57.05449
 20
110.388541
 30
0.0
 11
53.854477
 21
110.388541
 31
0.0
  0
LINE
  5
5D
330
A
100
AcDbEntity
  8
Hawa4
 62
     4
 48
0.125
370
    13
390
1D
100
AcDbLine
 10
57.05449
 20
115.388541
 30
0.0
 11
57.05449
 21
110.388541
 31
0.0
  0
ARC
  5
5E
330
A
100
AcDbEntity
  8
Hawa4
 62
     4
370
    13
390
1D
100
AcDbCircle
 10
57.05449
 20
113.888541
 30
0.0
 40
1.5
100
AcDbArc
 50
9.333163
 51
90.00000300000001
  0
LINE
  5
5F
330
A
100
AcDbEntity
  8
Hawa4
 62
     4
 48
0.106888
370
    13
390
1D
100
AcDbLine
 10
59.228012
 20
109.91289
 30
0.0
 11
58.534623
 21
114.131803
 31
0.0
  0
ARC
  5
60
330
A
100
AcDbEntity
  8
Hawa4
 62
     4
370
    13
390
1D
100
AcDbCircle
 10
57.254502
 20
109.58854
 30
0.0
 40
2.0
100
AcDbArc
 50
270.000001
 51
9.333163
  0
LINE
  5
61
330
A
100
AcDbEntity
  8
Hawa4
 62
     4
 48
0.475
370
    13
390
1D
100
AcDbLine
 10
38.254502
 20
107.58854
 30
0.0
 11
57.254502
 21
107.58854
 31
0.0
  0
LINE
  5
62
330
A
100
AcDbEntity
  8
Hawa4
 62
     4
 48
0.07
370
    13
390
1D
100
AcDbLine
 10
38.254502
 20
110.388541
 30
0.0
 11
38.254502
 21
107.58854
 31
0.0
  0
LINE
  5
63
330
A
100
AcDbEntity
  8
Hawa4
 62
     4
 48
0.005
370
    13
390
1D
100
AcDbLine
 10
38.45448300000001
 20
110.388541
 30
0.0
 11
38.254502
 21
110.388541
 31
0.0
  0
ARC
  5
64
330
A
100
AcDbEntity
  8
Hawa4
 62
     4
370
    13
390
1D
100
AcDbCircle
 10
38.45448300000001
 20
110.68854
 30
0.0
 40
0.3
100
AcDbArc
 50
270.000001
 51
360.0
  0
LINE
  5
65
330
A
100
AcDbEntity
  8
Hawa4
 62
     4
 48
0.3925
370
    13
390
1D
100
AcDbLine
 10
38.754502
 20
126.38854
 30
0.0
 11
38.754502
 21
110.68854
 31
0.0
  0
LINE
  5
66
330
A
100
AcDbEntity
  8
Hawa4
 62
     4
 48
0.087259
370
    13
390
1D
100
AcDbLine
 10
53.854477
 20
115.898076
 30
0.0
 11
53.854477
 21
119.38845
 31
0.0
  0
LINE
  5
67
330
A
100
AcDbEntity
  8
Hawa4
 62
     4
 48
0.25
370
    13
390
1D
100
AcDbLine
 10
53.854477
 20
121.38845
 30
0.0
 11
53.854477
 21
131.388449
 31
0.0
  0
LINE
  5
68
330
A
100
AcDbEntity
  8
Hawa4
 62
     4
 48
0.087259
370
    13
390
1D
100
AcDbLine
 10
53.854477
 20
133.388449
 30
0.0
 11
53.854477
 21
136.878822
 31
0.0
  0
LINE
  5
69
330
A
100
AcDbEntity
  8
Hawa4
 62
     4
 48
0.022528
370
    13
390
1D
100
AcDbLine
 10
57.05449
 20
115.48854
 30
0.0
 11
57.05449
 21
116.389644
 31
0.0
  0
LINE
  5
6A
330
A
100
AcDbEntity
  8
Hawa4
 62
     4
 48
0.022532
370
    13
390
1D
100
AcDbLine
 10
57.05449
 20
136.387255
 30
0.0
 11
57.05449
 21
137.28854
 31
0.0
  0
LINE
  5
6B
330
A
100
AcDbEntity
  8
Hawa6
 62
     3
 48
0.268174
370
    13
390
1D
100
AcDbLine
 10
57.964676
 20
119.363051
 30
0.0
 11
67.254502
 21
113.999568
 31
0.0
  0
LINE
  5
6C
330
A
100
AcDbEntity
  8
Hawa6
 62
     3
 48
0.268176
370
    13
390
1D
100
AcDbLine
 10
57.964615
 20
133.413996
 30
0.0
 11
67.254502
 21
138.777513
 31
0.0
  0
ARC
  5
6D
330
A
100
AcDbEntity
  8
Hawa6
 62
     3
370
    13
390
1D
100
AcDbCircle
 10
62.754502
 20
114.888541
 30
0.0
 40
1.5
100
AcDbArc
 50
50.660967
 51
69.3392
  0
LINE
  5
6E
330
A
100
AcDbEntity
  8
Hawa6
 62
     3
 48
0.022301
370
    13
390
1D
100
AcDbLine
 10
65.52421600000001
 20
114.99854
 30
0.0
 11
66.41624499999998
 21
114.99854
 31
0.0
  0
LINE
  5
6F
330
A
100
AcDbEntity
  8
Hawa6
 62
     3
 48
0.032602
370
    13
390
1D
100
AcDbLine
 10
67.254502
 20
113.999568
 30
0.0
 11
66.41624499999998
 21
114.99854
 31
0.0
  0
LINE
  5
70
330
A
100
AcDbEntity
  8
Hawa6
 62
     3
 48
0.032602
370
    13
390
1D
100
AcDbLine
 10
66.41624499999998
 20
137.778541
 30
0.0
 11
67.254502
 21
138.777513
 31
0.0
  0
LINE
  5
71
330
A
100
AcDbEntity
  8
Hawa6
 62
     3
 48
0.022301
370
    13
390
1D
100
AcDbLine
 10
65.52421600000001
 20
137.778541
 30
0.0
 11
66.41624499999998
 21
137.778541
 31
0.0
  0
ARC
  5
72
330
A
100
AcDbEntity
  8
Hawa6
 62
     3
370
    13
390
1D
100
AcDbCircle
 10
62.754502
 20
137.8885399999999
 30
0.0
 40
1.5
100
AcDbArc
 50
290.663673
 51
309.336371
  0
LINE
  5
73
330
A
100
AcDbEntity
  8
Hawa6
 62
     3
 48
0.133781
370
    13
390
1D
100
AcDbLine
 10
59.221299
 20
110.214702
 30
0.0
 11
58.31449899999999
 21
115.48854
 31
0.0
  0
LINE
  5
74
330
A
100
AcDbEntity
  8
Hawa6
 62
     3
 48
0.0315
370
    13
390
1D
100
AcDbLine
 10
58.31449899999999
 20
115.48854
 30
0.0
 11
57.05449
 21
115.48854
 31
0.0
  0
LINE
  5
75
330
A
100
AcDbEntity
  8
Hawa6
 62
     3
 48
0.021526
370
    13
390
1D
100
AcDbLine
 10
67.254502
 20
113.138541
 30
0.0
 11
67.254502
 21
113.999568
 31
0.0
  0
LINE
  5
76
330
A
100
AcDbEntity
  8
Hawa6
 62
     3
 48
0.213719
370
    13
390
1D
100
AcDbLine
 10
59.221299
 20
110.2147
 30
0.0
 11
67.254502
 21
113.138541
 31
0.0
  0
LINE
  5
77
330
A
100
AcDbEntity
  8
Hawa6
 62
     3
 48
0.0315
370
    13
390
1D
100
AcDbLine
 10
58.31449899999999
 20
137.28854
 30
0.0
 11
57.05449
 21
137.28854
 31
0.0
  0
LINE
  5
78
330
A
100
AcDbEntity
  8
Hawa6
 62
     3
 48
0.133781
370
    13
390
1D
100
AcDbLine
 10
59.221299
 20
142.56238
 30
0.0
 11
58.31449899999999
 21
137.28854
 31
0.0
  0
LINE
  5
79
330
A
100
AcDbEntity
  8
Hawa6
 62
     3
 48
0.213719
370
    13
390
1D
100
AcDbLine
 10
59.221299
 20
142.562381
 30
0.0
 11
67.254502
 21
139.6385399999999
 31
0.0
  0
LINE
  5
7A
330
A
100
AcDbEntity
  8
Hawa6
 62
     3
 48
0.021526
370
    13
390
1D
100
AcDbLine
 10
67.254502
 20
138.777513
 30
0.0
 11
67.254502
 21
139.6385399999999
 31
0.0
  0
LINE
  5
7B
330
A
100
AcDbEntity
  8
Hawa6
 62
     3
 48
0.000026
370
    13
390
1D
100
AcDbLine
 10
67.254502
 20
113.999568
 30
0.0
 11
67.254502
 21
113.99854
 31
0.0
  0
LINE
  5
7C
330
A
100
AcDbEntity
  8
Hawa6
 62
     3
 48
0.064679
370
    13
390
1D
100
AcDbLine
 10
60.527329
 20
118.905226
 30
0.0
 11
62.190323
 21
116.923346
 31
0.0
  0
LINE
  5
7D
330
A
100
AcDbEntity
  8
Hawa6
 62
     3
 48
0.076066
370
    13
390
1D
100
AcDbLine
 10
60.527329
 20
118.905226
 30
0.0
 11
58.571579
 21
121.236017
 31
0.0
  0
LINE
  5
7E
330
A
100
AcDbEntity
  8
Hawa6
 62
     3
 48
0.065271
370
    13
390
1D
100
AcDbLine
 10
60.527329
 20
118.905226
 30
0.0
 11
63.13816899999999
 21
118.905226
 31
0.0
  0
LINE
  5
7F
330
A
100
AcDbEntity
  8
Hawa6
 62
     3
 48
0.127495
370
    13
390
1D
100
AcDbLine
 10
66.41624499999998
 20
114.99854
 30
0.0
 11
63.13816899999999
 21
118.905226
 31
0.0
  0
LINE
  5
80
330
A
100
AcDbEntity
  8
Hawa6
 62
     3
 48
0.015135
370
    13
390
1D
100
AcDbLine
 10
60.05445899999998
 20
122.58024
 30
0.0
 11
59.665299
 21
123.044006
 31
0.0
  0
LINE
  5
81
330
A
100
AcDbEntity
  8
Hawa6
 62
     3
 48
0.081018
370
    13
390
1D
100
AcDbLine
 10
63.13816899999999
 20
118.905226
 30
0.0
 11
61.05506899999999
 21
121.387746
 31
0.0
  0
LINE
  5
82
330
A
100
AcDbEntity
  8
Hawa6
 62
     3
 48
0.127495
370
    13
390
1D
100
AcDbLine
 10
66.41624499999998
 20
137.778541
 30
0.0
 11
63.13816899999999
 21
133.871855
 31
0.0
  0
LINE
  5
83
330
A
100
AcDbEntity
  8
Hawa6
 62
     3
 48
0.081057
370
    13
390
1D
100
AcDbLine
 10
61.054062
 20
131.388122
 30
0.0
 11
63.13816899999999
 21
133.871855
 31
0.0
  0
LINE
  5
84
330
A
100
AcDbEntity
  8
Hawa6
 62
     3
 48
0.015137
370
    13
390
1D
100
AcDbLine
 10
59.665299
 20
129.733074
 30
0.0
 11
60.05449
 21
130.196884
 31
0.0
  0
LINE
  5
85
330
A
100
AcDbEntity
  8
Hawa6
 62
     3
 48
0.065271
370
    13
390
1D
100
AcDbLine
 10
60.527329
 20
133.871855
 30
0.0
 11
63.13816899999999
 21
133.871855
 31
0.0
  0
LINE
  5
86
330
A
100
AcDbEntity
  8
Hawa6
 62
     3
 48
0.064678
370
    13
390
1D
100
AcDbLine
 10
60.527329
 20
133.871855
 30
0.0
 11
62.190293
 21
135.853702
 31
0.0
  0
LINE
  5
87
330
A
100
AcDbEntity
  8
Hawa6
 62
     3
 48
0.076065
370
    13
390
1D
100
AcDbLine
 10
58.571579
 20
131.541066
 30
0.0
 11
60.527329
 21
133.871855
 31
0.0
  0
LINE
  5
88
330
A
100
AcDbEntity
  8
Hawa6
 62
     3
 48
0.029758
370
    13
390
1D
100
AcDbLine
 10
58.86406
 20
122.47846
 30
0.0
 11
60.054367
 21
122.47846
 31
0.0
  0
LINE
  5
89
330
A
100
AcDbEntity
  8
Hawa6
 62
     3
 48
0.017393
370
    13
390
1D
100
AcDbLine
 10
58.96959
 20
123.044006
 30
0.0
 11
59.665299
 21
123.044006
 31
0.0
  0
LINE
  5
8A
330
A
100
AcDbEntity
  8
Hawa6
 62
     3
 48
0.017394
370
    13
390
1D
100
AcDbLine
 10
58.969529
 20
129.733074
 30
0.0
 11
59.665299
 21
129.733074
 31
0.0
  0
LINE
  5
8B
330
A
100
AcDbEntity
  8
Hawa6
 62
     3
 48
0.029758
370
    13
390
1D
100
AcDbLine
 10
58.864029
 20
130.298621
 30
0.0
 11
60.054367
 21
130.298621
 31
0.0
  0
ARC
  5
8C
330
A
100
AcDbEntity
  8
Hawa4
 62
     4
370
    13
390
1D
100
AcDbCircle
 10
46.854477
 20
131.790464
 30
0.0
 40
1.0
100
AcDbArc
 50
120.000003
 51
180.000005
  0
LINE
  5
8D
330
A
100
AcDbEntity
  8
Hawa4
 62
     4
 48
0.108253
370
    13
390
1D
100
AcDbLine
 10
46.354477
 20
132.65649
 30
0.0
 11
50.104477
 21
134.821553
 31
0.0
  0
ARC
  5
8E
330
A
100
AcDbEntity
  8
Hawa4
 62
     4
370
    13
390
1D
100
AcDbCircle
 10
50.354477
 20
134.38854
 30
0.0
 40
0.5
100
AcDbArc
 50
0.0
 51
120.000003
  0
LINE
  5
8F
330
A
100
AcDbEntity
  8
Hawa4
 62
     4
 48
0.025
370
    13
390
1D
100
AcDbLine
 10
50.854477
 20
133.3885399999999
 30
0.0
 11
50.854477
 21
134.38854
 31
0.0
  0
LINE
  5
90
330
A
100
AcDbEntity
  8
Hawa4
 62
     4
 48
0.088604
370
    13
390
1D
100
AcDbLine
 10
50.854477
 20
133.3885399999999
 30
0.0
 11
54.39863599999998
 21
133.3885399999999
 31
0.0
  0
ARC
  5
91
330
A
100
AcDbEntity
  8
Hawa4
 62
     4
370
    13
390
1D
100
AcDbCircle
 10
54.39863599999998
 20
134.38854
 30
0.0
 40
1.0
100
AcDbArc
 50
270.000001
 51
15.89581
  0
ARC
  5
92
330
A
100
AcDbEntity
  8
Hawa4
 62
     4
370
    13
390
1D
100
AcDbCircle
 10
63.05449
 20
136.85354
 30
0.0
 40
8.0
100
AcDbArc
 50
183.332195
 51
195.895808
  0
LINE
  5
93
330
A
100
AcDbEntity
  8
Hawa4
 62
     4
 48
0.017838
370
    13
390
1D
100
AcDbLine
 10
55.06800899999999
 20
136.38854
 30
0.0
 11
54.354477
 21
136.38854
 31
0.0
  0
ARC
  5
94
330
A
100
AcDbEntity
  8
Hawa4
 62
     4
370
    13
390
1D
100
AcDbCircle
 10
54.354477
 20
136.8885399999999
 30
0.0
 40
0.5
100
AcDbArc
 50
180.000005
 51
270.000001
  0
LINE
  5
95
330
A
100
AcDbEntity
  8
Hawa4
 62
     4
 48
0.033935
370
    13
390
1D
100
AcDbLine
 10
53.854477
 20
138.245958
 30
0.0
 11
53.854477
 21
136.8885399999999
 31
0.0
  0
ARC
  5
96
330
A
100
AcDbEntity
  8
Hawa4
 62
     4
370
    13
390
1D
100
AcDbCircle
 10
57.05449
 20
136.38854
 30
0.0
 40
3.7
100
AcDbArc
 50
98.989297
 51
149.867274
  0
ARC
  5
97
330
A
100
AcDbEntity
  8
Hawa4
 62
     4
370
    13
390
1D
100
AcDbCircle
 10
56.55449
 20
139.549236
 30
0.0
 40
0.5
100
AcDbArc
 50
0.00001
 51
98.989297
  0
LINE
  5
98
330
A
100
AcDbEntity
  8
Hawa4
 62
     4
 48
0.079017
370
    13
390
1D
100
AcDbLine
 10
57.05449
 20
136.38854
 30
0.0
 11
57.05449
 21
139.549236
 31
0.0
  0
ARC
  5
99
330
A
100
AcDbEntity
  8
Hawa4
 62
     4
370
    13
390
1D
100
AcDbCircle
 10
63.05449
 20
136.85354
 30
0.0
 40
6.017991999999997
100
AcDbArc
 50
184.431555
 51
203.932811
  0
ARC
  5
9A
330
A
100
AcDbEntity
  8
Hawa4
 62
     4
370
    13
390
1D
100
AcDbCircle
 10
39.475327
 20
126.38854
 30
0.0
 40
19.779154
100
AcDbArc
 50
336.0671910000001
 51
23.932809
  0
ARC
  5
9B
330
A
100
AcDbEntity
  8
Hawa4
 62
     4
370
    13
390
1D
100
AcDbCircle
 10
63.05449
 20
115.92354
 30
0.0
 40
6.017991999999997
100
AcDbArc
 50
156.067186
 51
175.568442
  0
LINE
  5
9C
330
A
100
AcDbEntity
  8
Hawa4
 62
     4
 48
0.079017
370
    13
390
1D
100
AcDbLine
 10
57.05449
 20
113.227845
 30
0.0
 11
57.05449
 21
116.38854
 31
0.0
  0
ARC
  5
9D
330
A
100
AcDbEntity
  8
Hawa4
 62
     4
370
    13
390
1D
100
AcDbCircle
 10
56.55449
 20
113.227845
 30
0.0
 40
0.5
100
AcDbArc
 50
261.010707
 51
360.0
  0
ARC
  5
9E
330
A
100
AcDbEntity
  8
Hawa4
 62
     4
370
    13
390
1D
100
AcDbCircle
 10
57.05449
 20
116.38854
 30
0.0
 40
3.7
100
AcDbArc
 50
210.132723
 51
261.010707
  0
LINE
  5
9F
330
A
100
AcDbEntity
  8
Hawa4
 62
     4
 48
0.033935
370
    13
390
1D
100
AcDbLine
 10
53.854477
 20
115.88854
 30
0.0
 11
53.854477
 21
114.531123
 31
0.0
  0
ARC
  5
A0
330
A
100
AcDbEntity
  8
Hawa4
 62
     4
370
    13
390
1D
100
AcDbCircle
 10
54.354477
 20
115.88854
 30
0.0
 40
0.5
100
AcDbArc
 50
90.00000300000001
 51
180.000005
  0
LINE
  5
A1
330
A
100
AcDbEntity
  8
Hawa4
 62
     4
 48
0.017838
370
    13
390
1D
100
AcDbLine
 10
55.06800899999999
 20
116.38854
 30
0.0
 11
54.354477
 21
116.38854
 31
0.0
  0
ARC
  5
A2
330
A
100
AcDbEntity
  8
Hawa4
 62
     4
370
    13
390
1D
100
AcDbCircle
 10
63.05449
 20
115.92354
 30
0.0
 40
8.0
100
AcDbArc
 50
164.104189
 51
176.667802
  0
ARC
  5
A3
330
A
100
AcDbEntity
  8
Hawa4
 62
     4
370
    13
390
1D
100
AcDbCircle
 10
54.39863599999998
 20
118.38854
 30
0.0
 40
1.0
100
AcDbArc
 50
344.104194
 51
90.00000300000001
  0
LINE
  5
A4
330
A
100
AcDbEntity
  8
Hawa4
 62
     4
 48
0.088604
370
    13
390
1D
100
AcDbLine
 10
50.854477
 20
119.38854
 30
0.0
 11
54.39863599999998
 21
119.38854
 31
0.0
  0
LINE
  5
A5
330
A
100
AcDbEntity
  8
Hawa4
 62
     4
 48
0.025
370
    13
390
1D
100
AcDbLine
 10
50.854477
 20
118.38854
 30
0.0
 11
50.854477
 21
119.38854
 31
0.0
  0
ARC
  5
A6
330
A
100
AcDbEntity
  8
Hawa4
 62
     4
370
    13
390
1D
100
AcDbCircle
 10
50.354477
 20
118.38854
 30
0.0
 40
0.5
100
AcDbArc
 50
240.000006
 51
360.0
  0
LINE
  5
A7
330
A
100
AcDbEntity
  8
Hawa4
 62
     4
 48
0.108253
370
    13
390
1D
100
AcDbLine
 10
46.354477
 20
120.120591
 30
0.0
 11
50.104477
 21
117.955527
 31
0.0
  0
ARC
  5
A8
330
A
100
AcDbEntity
  8
Hawa4
 62
     4
370
    13
390
1D
100
AcDbCircle
 10
46.854477
 20
120.986616
 30
0.0
 40
1.0
100
AcDbArc
 50
179.999991
 51
240.000006
  0
LINE
  5
A9
330
A
100
AcDbEntity
  8
Hawa4
 62
     4
 48
0.270096
370
    13
390
1D
100
AcDbLine
 10
45.854477
 20
120.986616
 30
0.0
 11
45.854477
 21
131.790464
 31
0.0
  0
LINE
  5
AA
330
A
100
AcDbEntity
  8
Hawa4
 62
     4
 48
0.2
370
    13
390
1D
100
AcDbLine
 10
46.854477
 20
130.3885399999999
 30
0.0
 11
46.854477
 21
122.38854
 31
0.0
  0
ARC
  5
AB
330
A
100
AcDbEntity
  8
Hawa4
 62
     4
370
    13
390
1D
100
AcDbCircle
 10
47.854477
 20
122.38854
 30
0.0
 40
1.0
100
AcDbArc
 50
179.999991
 51
270.000001
  0
LINE
  5
AC
330
A
100
AcDbEntity
  8
Hawa4
 62
     4
 48
0.185001
370
    13
390
1D
100
AcDbLine
 10
55.254502
 20
121.38854
 30
0.0
 11
47.854477
 21
121.38854
 31
0.0
  0
ARC
  5
AD
330
A
100
AcDbEntity
  8
Hawa4
 62
     4
370
    13
390
1D
100
AcDbCircle
 10
55.254502
 20
122.38854
 30
0.0
 40
1.0
100
AcDbArc
 50
270.000001
 51
0.0
  0
LINE
  5
AE
330
A
100
AcDbEntity
  8
Hawa4
 62
     4
 48
0.2
370
    13
390
1D
100
AcDbLine
 10
56.254502
 20
122.38854
 30
0.0
 11
56.254502
 21
130.3885399999999
 31
0.0
  0
ARC
  5
AF
330
A
100
AcDbEntity
  8
Hawa4
 62
     4
370
    13
390
1D
100
AcDbCircle
 10
55.254502
 20
130.3885399999999
 30
0.0
 40
1.0
100
AcDbArc
 50
0.00001
 51
90.00000300000001
  0
LINE
  5
B0
330
A
100
AcDbEntity
  8
Hawa4
 62
     4
 48
0.185001
370
    13
390
1D
100
AcDbLine
 10
47.854477
 20
131.3885399999999
 30
0.0
 11
55.254502
 21
131.3885399999999
 31
0.0
  0
ARC
  5
B1
330
A
100
AcDbEntity
  8
Hawa4
 62
     4
370
    13
390
1D
100
AcDbCircle
 10
47.854477
 20
130.3885399999999
 30
0.0
 40
1.0
100
AcDbArc
 50
90.00000300000001
 51
180.000005
  0
DIMENSION
  5
B3
330
A
100
AcDbEntity
  8
HAWA1
 62
     0
370
     0
390
1D
100
AcDbDimension
  2
*D4
 10
114.805367
 20
90.239293
 30
0.0
 11
110.382247904502
 21
79.05666511947479
 31
0.0
 70
    33
 71
     5
 42
16.29999999999998
 52
89.999523
  3
HAWA-Strich
100
AcDbAlignedDimension
 13
124.554482
 23
106.539293
 33
0.0
 14
124.554482
 24
90.239293
 34
0.0
  0
DIMENSION
  5
B5
330
A
100
AcDbEntity
  8
HAWA1
 62
     0
370
     0
390
1D
100
AcDbDimension
  2
*D5
 10
137.5527743608305
 20
39.46019588063343
 30
0.0
 11
146.8065450361357
 21
43.90338882396135
 31
0.0
 70
    32
 71
     5
 42
14.00001664267842
 52
89.999523
  3
HAWA-Strich
100
AcDbAlignedDimension
 13
123.554482
 23
91.239293
 33
0.0
 14
137.554482
 24
90.73929300000001
 34
0.0
 50
359.998092
100
AcDbRotatedDimension
  0
DIMENSION
  5
B7
330
A
100
AcDbEntity
  8
HAWA1
 62
     0
370
     0
390
1D
100
AcDbDimension
  2
*D6
 10
173.5552825329081
 20
154.427930451288
 30
0.0
 11
148.5558443406221
 21
158.8739625570294
 31
0.0
 70
    32
  1
=><>
 71
     5
 42
49.99917247043111
 52
89.999523
  3
HAWA-Strich
100
AcDbAlignedDimension
 13
123.554482
 23
105.539293
 33
0.0
 14
173.554482
 24
130.3885399999999
 34
0.0
 50
359.998092
100
AcDbRotatedDimension
  0
DIMENSION
  5
B9
330
A
100
AcDbEntity
  8
HAWA1
 62
     0
370
     0
390
1D
100
AcDbDimension
  2
*D7
 10
130.2533991555718
 20
61.7723037034483
 30
0.0
 11
146.8493360503261
 21
61.77175104410975
 31
0.0
 70
   160
 71
     5
 42
6.699898428594535
 52
89.999523
  3
HAWA-Strich
100
AcDbAlignedDimension
 13
123.554482
 23
91.239293
 33
0.0
 14
130.254482
 24
94.289293
 34
0.0
 50
359.998092
100
AcDbRotatedDimension
  0
DIMENSION
  5
BB
330
A
100
AcDbEntity
  8
HAWA1
 62
     0
370
     0
390
1D
100
AcDbDimension
  2
*D8
 10
131.0029950154896
 20
49.73553338894285
 30
0.0
 11
147.1844716484598
 21
49.73499453149663
 31
0.0
 70
   160
 71
     5
 42
7.449895123166044
 52
89.999523
  3
HAWA-Strich
100
AcDbAlignedDimension
 13
123.554482
 23
91.239293
 33
0.0
 14
131.004482
 24
94.38854
 34
0.0
 50
359.998092
100
AcDbRotatedDimension
  0
DIMENSION
  5
BD
330
A
100
AcDbEntity
  8
HAWA1
 62
     0
370
     0
390
1D
100
AcDbDimension
  2
*D9
 10
199.0878446393097
 20
98.3867708747643
 30
0.0
 11
199.0888123891359
 21
137.1344862130489
 31
0.0
 70
   160
 71
     5
 42
28.00113031141711
 52
89.999523
  3
HAWA-Strich
100
AcDbAlignedDimension
 13
173.510741
 23
126.38854
 33
0.0
 14
203.607235
 24
98.38665800000001
 34
0.0
 50
269.998569
100
AcDbRotatedDimension
  0
DIMENSION
  5
BF
330
A
100
AcDbEntity
  8
HAWA1
 62
     0
370
     0
390
1D
100
AcDbDimension
  2
*D10
 10
182.5532206031403
 20
121.388456758296
 30
0.0
 11
182.5533025777763
 21
131.234999037978
 31
0.0
 70
   160
  1
15,5
 71
     5
 42
17.9972569175398
 52
89.999523
  3
HAWA-Strich
100
AcDbAlignedDimension
 13
203.554482
 23
103.391025
 33
0.0
 14
172.554482
 24
121.38854
 34
0.0
 50
89.999523
100
AcDbRotatedDimension
  0
DIMENSION
  5
C1
330
A
100
AcDbEntity
  8
HAWA1
 62
     0
370
     0
390
1D
100
AcDbDimension
  2
*D11
 10
182.5526071692037
 20
103.3915495357187
 30
0.0
 11
182.5535008284136
 21
139.172752222058
 31
0.0
 70
   160
  1
-19
 71
     5
 42
17.9967407488773
 52
89.999523
  3
HAWA-Strich
100
AcDbAlignedDimension
 13
172.554482
 23
121.38854
 33
0.0
 14
203.554482
 24
103.391025
 34
0.0
 50
269.998569
100
AcDbRotatedDimension
  0
LINE
  5
C2
330
A
100
AcDbEntity
  8
Hawa5
  6
DASHDOT
 62
     1
370
    13
390
1D
100
AcDbLine
 10
173.510739
 20
126.38854
 30
0.0
 11
93.156552
 21
126.38854
 31
0.0
  0
LINE
  5
C3
330
A
100
AcDbEntity
  8
Hawa5
  6
DASHDOT
 62
     1
370
    13
390
1D
100
AcDbLine
 10
203.607236
 20
98.38665800000001
 30
0.0
 11
130.899472
 21
98.38665800000001
 31
0.0
  0
LINE
  5
C4
330
A
100
AcDbEntity
  8
Hawa5
  6
PHANTOM
 62
     1
 48
0.479073
370
    13
390
1D
100
AcDbLine
 10
93.254513
 20
136.38854
 30
0.0
 11
93.254513
 21
117.225638
 31
0.0
  0
LINE
  5
C5
330
A
100
AcDbEntity
  8
Hawa5
  6
PHANTOM
 62
     1
370
    13
390
1D
100
AcDbLine
 10
203.554501
 20
113.88854
 30
0.0
 11
203.554501
 21
82.88854
 31
0.0
  0
LINE
  5
C6
330
A
100
AcDbEntity
  8
HAWA1
390
1D
100
AcDbLine
 10
128.589474
 20
131.3885399999999
 30
0.0
 11
172.554501
 21
131.3885399999999
 31
0.0
  0
LINE
  5
C7
330
A
100
AcDbEntity
  8
Hawa5
 62
     1
 48
0.035355
370
    13
390
1D
100
AcDbLine
 10
172.554501
 20
131.3885399999999
 30
0.0
 11
173.554501
 21
130.3885399999999
 31
0.0
  0
LINE
  5
C8
330
A
100
AcDbEntity
  8
Hawa5
 62
     1
 48
0.2
370
    13
390
1D
100
AcDbLine
 10
173.554501
 20
130.3885399999999
 30
0.0
 11
173.554501
 21
122.38854
 31
0.0
  0
LINE
  5
C9
330
A
100
AcDbEntity
  8
Hawa5
 62
     1
 48
0.035355
370
    13
390
1D
100
AcDbLine
 10
173.554501
 20
122.38854
 30
0.0
 11
172.554501
 21
121.38854
 31
0.0
  0
LINE
  5
CA
330
A
100
AcDbEntity
  8
HAWA1
390
1D
100
AcDbLine
 10
172.554501
 20
121.38854
 30
0.0
 11
98.459775
 21
121.38854
 31
0.0
  0
LINE
  5
CB
330
A
100
AcDbEntity
  8
Hawa5
  6
PHANTOM
 62
     1
370
    13
390
1D
100
AcDbLine
 10
93.254513
 20
136.38854
 30
0.0
 11
93.254513
 21
116.38854
 31
0.0
  0
LINE
  5
CC
330
A
100
AcDbEntity
  8
Hawa5
  6
PHANTOM
 62
     1
 48
0.25
370
    13
390
1D
100
AcDbLine
 10
93.254513
 20
131.3885399999999
 30
0.0
 11
93.254513
 21
121.38854
 31
0.0
  0
LINE
  5
CD
330
A
100
AcDbEntity
  8
Hawa5
 62
     1
370
    13
390
1D
100
AcDbLine
 10
172.554501
 20
131.3885399999999
 30
0.0
 11
93.254513
 21
131.3885399999999
 31
0.0
  0
LINE
  5
D1
330
A
100
AcDbEntity
  8
Hawa5
 62
     1
370
    13
390
1D
100
AcDbLine
 10
172.554501
 20
121.38854
 30
0.0
 11
93.254513
 21
121.38854
 31
0.0
  0
LINE
  5
D2
330
A
100
AcDbEntity
  8
HAWA1
 48
0.0125
390
1D
100
AcDbLine
 10
203.554501
 20
108.88854
 30
0.0
 11
203.554501
 21
108.38854
 31
0.0
  0
LINE
  5
D3
330
A
100
AcDbEntity
  8
HAWA1
 48
0.0125
390
1D
100
AcDbLine
 10
203.554501
 20
88.38854000000003
 30
0.0
 11
203.554501
 21
87.88854
 31
0.0
  0
LINE
  5
D4
330
A
100
AcDbEntity
  8
Hawa4
 62
     4
 48
0.001247
370
    13
390
1D
100
AcDbLine
 10
123.554318
 20
98.08854100000001
 30
0.0
 11
123.504452
 21
98.08854100000001
 31
0.0
  0
LINE
  5
D5
330
A
100
AcDbEntity
  8
Hawa4
 62
     4
 48
0.18625
370
    13
390
1D
100
AcDbLine
 10
123.504452
 20
98.08854100000001
 30
0.0
 11
123.504452
 21
90.63854
 31
0.0
  0
LINE
  5
D6
330
A
100
AcDbEntity
  8
Hawa4
 62
     4
 48
0.006259
370
    13
390
1D
100
AcDbLine
 10
123.754819
 20
90.63854
 30
0.0
 11
123.504452
 21
90.63854
 31
0.0
  0
LINE
  5
D7
330
A
100
AcDbEntity
  8
Hawa4
 62
     4
 48
0.001247
370
    13
390
1D
100
AcDbLine
 10
123.554318
 20
98.38854000000001
 30
0.0
 11
123.504452
 21
98.38854000000001
 31
0.0
  0
LINE
  5
D8
330
A
100
AcDbEntity
  8
Hawa4
 62
     4
 48
0.0075
370
    13
390
1D
100
AcDbLine
 10
123.504452
 20
98.08854100000001
 30
0.0
 11
123.504452
 21
98.38854000000001
 31
0.0
  0
LINE
  5
D9
330
A
100
AcDbEntity
  8
Hawa4
 62
     4
 48
0.001247
370
    13
390
1D
100
AcDbLine
 10
123.554318
 20
98.68854
 30
0.0
 11
123.504452
 21
98.68854
 31
0.0
  0
LINE
  5
DA
330
A
100
AcDbEntity
  8
Hawa4
 62
     4
 48
0.0075
370
    13
390
1D
100
AcDbLine
 10
123.504452
 20
98.38854000000001
 30
0.0
 11
123.504452
 21
98.68854
 31
0.0
  0
LINE
  5
DB
330
A
100
AcDbEntity
  8
Hawa4
 62
     4
 48
0.092868
370
    13
390
1D
100
AcDbLine
 10
128.504452
 20
100.508656
 30
0.0
 11
124.789731
 21
100.508656
 31
0.0
  0
LINE
  5
DC
330
A
100
AcDbEntity
  8
Hawa4
 62
     4
 48
0.001247
370
    13
390
1D
100
AcDbLine
 10
123.554318
 20
100.508656
 30
0.0
 11
123.504452
 21
100.508656
 31
0.0
  0
LINE
  5
DD
330
A
100
AcDbEntity
  8
Hawa4
 62
     4
 48
0.045503
370
    13
390
1D
100
AcDbLine
 10
123.504452
 20
100.508656
 30
0.0
 11
123.504452
 21
98.68854
 31
0.0
  0
LINE
  5
DE
330
A
100
AcDbEntity
  8
Hawa4
 62
     4
 48
0.041885
370
    13
390
1D
100
AcDbLine
 10
128.504452
 20
100.808655
 30
0.0
 11
126.829037
 21
100.808655
 31
0.0
  0
LINE
  5
DF
330
A
100
AcDbEntity
  8
Hawa4
 62
     4
 48
0.043759
370
    13
390
1D
100
AcDbLine
 10
126.479672
 20
100.808655
 30
0.0
 11
124.729306
 21
100.808655
 31
0.0
  0
LINE
  5
E0
330
A
100
AcDbEntity
  8
Hawa4
 62
     4
 48
0.001247
370
    13
390
1D
100
AcDbLine
 10
123.554318
 20
100.808655
 30
0.0
 11
123.504452
 21
100.808655
 31
0.0
  0
LINE
  5
E1
330
A
100
AcDbEntity
  8
Hawa4
 62
     4
 48
0.0075
370
    13
390
1D
100
AcDbLine
 10
123.504452
 20
100.508656
 30
0.0
 11
123.504452
 21
100.808655
 31
0.0
  0
LINE
  5
E2
330
A
100
AcDbEntity
  8
Hawa4
 62
     4
 48
0.033119
370
    13
390
1D
100
AcDbLine
 10
128.504452
 20
101.108654
 30
0.0
 11
127.179684
 21
101.108654
 31
0.0
  0
LINE
  5
E3
330
A
100
AcDbEntity
  8
Hawa4
 62
     4
 48
0.034993
370
    13
390
1D
100
AcDbLine
 10
126.129025
 20
101.108654
 30
0.0
 11
124.729306
 21
101.108654
 31
0.0
  0
LINE
  5
E4
330
A
100
AcDbEntity
  8
Hawa4
 62
     4
 48
0.001247
370
    13
390
1D
100
AcDbLine
 10
123.554318
 20
101.108654
 30
0.0
 11
123.504452
 21
101.108654
 31
0.0
  0
LINE
  5
E5
330
A
100
AcDbEntity
  8
Hawa4
 62
     4
 48
0.0075
370
    13
390
1D
100
AcDbLine
 10
123.504452
 20
100.808655
 30
0.0
 11
123.504452
 21
101.108654
 31
0.0
  0
LINE
  5
E6
330
A
100
AcDbEntity
  8
Hawa4
 62
     4
 48
0.001523
370
    13
390
1D
100
AcDbLine
 10
127.904355
 20
106.13854
 30
0.0
 11
127.843442
 21
106.13854
 31
0.0
  0
LINE
  5
E7
330
A
100
AcDbEntity
  8
Hawa4
 62
     4
 48
0.001523
370
    13
390
1D
100
AcDbLine
 10
125.465268
 20
106.13854
 30
0.0
 11
125.404355
 21
106.13854
 31
0.0
  0
LINE
  5
E8
330
A
100
AcDbEntity
  8
Hawa4
 62
     4
 48
0.006236
370
    13
390
1D
100
AcDbLine
 10
123.753903
 20
106.13854
 30
0.0
 11
123.504452
 21
106.13854
 31
0.0
  0
LINE
  5
E9
330
A
100
AcDbEntity
  8
Hawa4
 62
     4
 48
0.125747
370
    13
390
1D
100
AcDbLine
 10
123.504452
 20
106.13854
 30
0.0
 11
123.504452
 21
101.108654
 31
0.0
  0
LINE
  5
EA
330
A
100
AcDbEntity
  8
Hawa4
 62
     4
 48
0.0125
370
    13
390
1D
100
AcDbLine
 10
123.504452
 20
87.88854
 30
0.0
 11
123.504452
 21
88.38854000000003
 31
0.0
  0
LINE
  5
EB
330
A
100
AcDbEntity
  8
Hawa4
 62
     4
 48
0.03625
370
    13
390
1D
100
AcDbLine
 10
123.504452
 20
89.838541
 30
0.0
 11
123.504452
 21
88.38854000000003
 31
0.0
  0
LINE
  5
EC
330
A
100
AcDbEntity
  8
Hawa4
 62
     4
 48
0.0075
370
    13
390
1D
100
AcDbLine
 10
123.504452
 20
89.838541
 30
0.0
 11
123.504452
 21
90.13854
 31
0.0
  0
LINE
  5
ED
330
A
100
AcDbEntity
  8
Hawa4
 62
     4
 48
0.0125
370
    13
390
1D
100
AcDbLine
 10
123.504452
 20
90.13854
 30
0.0
 11
123.504452
 21
90.63854
 31
0.0
  0
LINE
  5
EE
330
A
100
AcDbEntity
  8
Hawa4
 62
     4
 48
0.0125
370
    13
390
1D
100
AcDbLine
 10
123.504452
 20
106.13854
 30
0.0
 11
123.504452
 21
106.63854
 31
0.0
  0
LINE
  5
EF
330
A
100
AcDbEntity
  8
Hawa4
 62
     4
 48
0.0075
370
    13
390
1D
100
AcDbLine
 10
123.504452
 20
106.63854
 30
0.0
 11
123.504452
 21
106.93854
 31
0.0
  0
LINE
  5
F0
330
A
100
AcDbEntity
  8
Hawa4
 62
     4
 48
0.03625
370
    13
390
1D
100
AcDbLine
 10
123.504452
 20
108.38854
 30
0.0
 11
123.504452
 21
106.93854
 31
0.0
  0
LINE
  5
F1
330
A
100
AcDbEntity
  8
Hawa4
 62
     4
 48
0.0125
370
    13
390
1D
100
AcDbLine
 10
123.504452
 20
108.38854
 30
0.0
 11
123.504452
 21
108.88854
 31
0.0
  0
LINE
  5
F2
330
A
100
AcDbEntity
  8
Hawa6
 62
     3
370
    13
390
1D
100
AcDbLine
 10
203.554501
 20
108.88854
 30
0.0
 11
129.087826
 21
108.88854
 31
0.0
  0
LINE
  5
F3
330
A
100
AcDbEntity
  8
Hawa4
 62
     4
 48
0.052957
370
    13
390
1D
100
AcDbLine
 10
127.713498
 20
108.88854
 30
0.0
 11
125.595212
 21
108.88854
 31
0.0
  0
LINE
  5
F4
330
A
100
AcDbEntity
  8
Hawa6
 62
     3
 48
0.017911
370
    13
390
1D
100
AcDbLine
 10
124.220883
 20
108.88854
 30
0.0
 11
123.504452
 21
108.88854
 31
0.0
  0
LINE
  5
F5
330
A
100
AcDbEntity
  8
Hawa6
 62
     3
370
    13
390
1D
100
AcDbLine
 10
203.554501
 20
87.88854
 30
0.0
 11
123.504452
 21
87.88854
 31
0.0
  0
LINE
  5
F6
330
A
100
AcDbEntity
  8
Hawa6
 62
     3
 48
0.35
370
    13
390
1D
100
AcDbLine
 10
137.504452
 20
88.38854000000003
 30
0.0
 11
123.504452
 21
88.38854000000003
 31
0.0
  0
LINE
  5
F7
330
A
100
AcDbEntity
  8
Hawa6
 62
     3
 48
0.35
370
    13
390
1D
100
AcDbLine
 10
137.504452
 20
89.838541
 30
0.0
 11
123.504452
 21
89.838541
 31
0.0
  0
LINE
  5
F8
330
A
100
AcDbEntity
  8
Hawa6
 62
     3
 48
0.35
370
    13
390
1D
100
AcDbLine
 10
137.504452
 20
90.13854
 30
0.0
 11
123.504452
 21
90.13854
 31
0.0
  0
LINE
  5
F9
330
A
100
AcDbEntity
  8
Hawa6
 62
     3
 48
0.207761
370
    13
390
1D
100
AcDbLine
 10
137.504452
 20
106.63854
 30
0.0
 11
129.194028
 21
106.63854
 31
0.0
  0
LINE
  5
FA
330
A
100
AcDbEntity
  8
Hawa6
 62
     3
 48
0.023372
370
    13
390
1D
100
AcDbLine
 10
128.847775
 20
106.63854
 30
0.0
 11
127.9129
 21
106.63854
 31
0.0
  0
LINE
  5
FB
330
A
100
AcDbEntity
  8
Hawa6
 62
     3
 48
0.023372
370
    13
390
1D
100
AcDbLine
 10
125.39581
 20
106.63854
 30
0.0
 11
124.460934
 21
106.63854
 31
0.0
  0
LINE
  5
FC
330
A
100
AcDbEntity
  8
Hawa6
 62
     3
 48
0.015256
370
    13
390
1D
100
AcDbLine
 10
124.114682
 20
106.63854
 30
0.0
 11
123.504452
 21
106.63854
 31
0.0
  0
LINE
  5
FD
330
A
100
AcDbEntity
  8
Hawa6
 62
     3
 48
0.208449
370
    13
390
1D
100
AcDbLine
 10
137.504452
 20
106.93854
 30
0.0
 11
129.166501
 21
106.93854
 31
0.0
  0
LINE
  5
FE
330
A
100
AcDbEntity
  8
Hawa6
 62
     3
 48
0.009473
370
    13
390
1D
100
AcDbLine
 10
128.353818
 20
106.93854
 30
0.0
 11
127.974911
 21
106.93854
 31
0.0
  0
LINE
  5
FF
330
A
100
AcDbEntity
  8
Hawa6
 62
     3
 48
0.009473
370
    13
390
1D
100
AcDbLine
 10
125.333798
 20
106.93854
 30
0.0
 11
124.954892
 21
106.93854
 31
0.0
  0
LINE
  5
100
330
A
100
AcDbEntity
  8
Hawa6
 62
     3
 48
0.015944
370
    13
390
1D
100
AcDbLine
 10
124.142209
 20
106.93854
 30
0.0
 11
123.504452
 21
106.93854
 31
0.0
  0
LINE
  5
101
330
A
100
AcDbEntity
  8
Hawa6
 62
     3
 48
0.225856
370
    13
390
1D
100
AcDbLine
 10
137.504452
 20
108.38854
 30
0.0
 11
128.470212
 21
108.38854
 31
0.0
  0
LINE
  5
102
330
A
100
AcDbEntity
  8
Hawa6
 62
     3
 48
0.033351
370
    13
390
1D
100
AcDbLine
 10
124.838498
 20
108.38854
 30
0.0
 11
123.504452
 21
108.38854
 31
0.0
  0
LINE
  5
103
330
A
100
AcDbEntity
  8
Hawa4
 62
     4
 48
0.004277
370
    13
390
1D
100
AcDbLine
 10
130.325864
 20
92.38854000000001
 30
0.0
 11
130.154782
 21
92.38854000000001
 31
0.0
  0
LINE
  5
104
330
A
100
AcDbEntity
  8
Hawa4
 62
     4
 48
0.004266
370
    13
390
1D
100
AcDbLine
 10
130.324521
 20
104.38854
 30
0.0
 11
130.153867
 21
104.38854
 31
0.0
  0
LINE
  5
105
330
A
100
AcDbEntity
  8
Hawa4
 62
     4
 48
0.001872
370
    13
390
1D
100
AcDbLine
 10
128.579343
 20
104.38854
 30
0.0
 11
128.504452
 21
104.38854
 31
0.0
  0
LINE
  5
106
330
A
100
AcDbEntity
  8
Hawa4
 62
     4
 48
0.051233
370
    13
390
1D
100
AcDbLine
 10
128.504452
 20
100.490885
 30
0.0
 11
128.504452
 21
102.540192
 31
0.0
  0
LINE
  5
107
330
A
100
AcDbEntity
  8
Hawa4
 62
     4
 48
0.027434
370
    13
390
1D
100
AcDbLine
 10
128.504452
 20
103.29118
 30
0.0
 11
128.504452
 21
104.38854
 31
0.0
  0
LINE
  5
108
330
A
100
AcDbEntity
  8
Hawa6
 62
     3
370
    13
390
1D
100
AcDbLine
 10
132.004452
 20
93.38854000000001
 30
0.0
 11
203.554501
 21
93.38854000000001
 31
0.0
  0
LINE
  5
109
330
A
100
AcDbEntity
  8
Hawa5
 62
     1
 48
0.035355
370
    13
390
1D
100
AcDbLine
 10
131.004452
 20
94.38854
 30
0.0
 11
132.004452
 21
93.38854000000001
 31
0.0
  0
LINE
  5
10A
330
A
100
AcDbEntity
  8
Hawa4
 62
     4
 48
0.2
370
    13
390
1D
100
AcDbLine
 10
131.004452
 20
94.38854
 30
0.0
 11
131.004452
 21
102.38854
 31
0.0
  0
LINE
  5
10B
330
A
100
AcDbEntity
  8
Hawa5
 62
     1
 48
0.035355
370
    13
390
1D
100
AcDbLine
 10
131.004452
 20
102.38854
 30
0.0
 11
132.004452
 21
103.38854
 31
0.0
  0
LINE
  5
10C
330
A
100
AcDbEntity
  8
Hawa5
 62
     1
370
    13
390
1D
100
AcDbLine
 10
132.004452
 20
103.38854
 30
0.0
 11
203.554501
 21
103.38854
 31
0.0
  0
LINE
  5
10D
330
A
100
AcDbEntity
  8
HAWA1
 48
0.009069
390
1D
100
AcDbLine
 10
203.554501
 20
88.501314
 30
0.0
 11
203.554501
 21
88.13854
 31
0.0
  0
LINE
  5
10E
330
A
100
AcDbEntity
  8
Hawa4
 62
     4
 48
0.000094
370
    13
390
1D
100
AcDbLine
 10
137.504452
 20
93.382284
 30
0.0
 11
137.504452
 21
93.386057
 31
0.0
  0
LINE
  5
10F
330
A
100
AcDbEntity
  8
Hawa4
 62
     4
 48
0.009301
370
    13
390
1D
100
AcDbLine
 10
137.504452
 20
93.01025199999999
 30
0.0
 11
137.504452
 21
93.382292
 31
0.0
  0
LINE
  5
110
330
A
100
AcDbEntity
  8
Hawa4
 62
     4
 48
0.001665
370
    13
390
1D
100
AcDbLine
 10
137.504452
 20
92.94363999999999
 30
0.0
 11
137.504452
 21
93.01025199999999
 31
0.0
  0
LINE
  5
111
330
A
100
AcDbEntity
  8
Hawa4
 62
     4
 48
0.009775
370
    13
390
1D
100
AcDbLine
 10
137.504452
 20
91.90026299999999
 30
0.0
 11
137.504452
 21
92.291254
 31
0.0
  0
LINE
  5
112
330
A
100
AcDbEntity
  8
Hawa4
 62
     4
 48
0.050502
370
    13
390
1D
100
AcDbLine
 10
137.504452
 20
88.501314
 30
0.0
 11
137.504452
 21
90.521402
 31
0.0
  0
LINE
  5
113
330
A
100
AcDbEntity
  8
Hawa4
 62
     4
 48
0.009069
370
    13
390
1D
100
AcDbLine
 10
137.504452
 20
88.13854
 30
0.0
 11
137.504452
 21
88.501314
 31
0.0
  0
LINE
  5
114
330
A
100
AcDbEntity
  8
Hawa6
 62
     3
370
    13
390
1D
100
AcDbLine
 10
137.504452
 20
93.386057
 30
0.0
 11
203.554501
 21
93.386057
 31
0.0
  0
LINE
  5
115
330
A
100
AcDbEntity
  8
Hawa6
 62
     3
370
    13
390
1D
100
AcDbLine
 10
137.504452
 20
93.01025199999999
 30
0.0
 11
203.554501
 21
93.01025199999999
 31
0.0
  0
LINE
  5
116
330
A
100
AcDbEntity
  8
Hawa6
 62
     3
370
    13
390
1D
100
AcDbLine
 10
137.504452
 20
88.501314
 30
0.0
 11
203.554501
 21
88.501314
 31
0.0
  0
LINE
  5
117
330
A
100
AcDbEntity
  8
Hawa6
 62
     3
370
    13
390
1D
100
AcDbLine
 10
137.504452
 20
88.13854
 30
0.0
 11
203.554501
 21
88.13854
 31
0.0
  0
LINE
  5
119
330
A
100
AcDbEntity
  8
HAWA1
 48
0.009069
390
1D
100
AcDbLine
 10
203.554501
 20
108.63854
 30
0.0
 11
203.554501
 21
108.275766
 31
0.0
  0
LINE
  5
11A
330
A
100
AcDbEntity
  8
Hawa4
 62
     4
 48
0.000094
370
    13
390
1D
100
AcDbLine
 10
137.504452
 20
103.394781
 30
0.0
 11
137.504452
 21
103.391026
 31
0.0
  0
LINE
  5
11B
330
A
100
AcDbEntity
  8
Hawa4
 62
     4
 48
0.009301
370
    13
390
1D
100
AcDbLine
 10
137.504452
 20
103.766827
 30
0.0
 11
137.504452
 21
103.394789
 31
0.0
  0
LINE
  5
11C
330
A
100
AcDbEntity
  8
Hawa4
 62
     4
 48
0.001703
370
    13
390
1D
100
AcDbLine
 10
137.504452
 20
103.834948
 30
0.0
 11
137.504452
 21
103.766827
 31
0.0
  0
LINE
  5
11D
330
A
100
AcDbEntity
  8
Hawa4
 62
     4
 48
0.009555
370
    13
390
1D
100
AcDbLine
 10
137.504452
 20
104.869545
 30
0.0
 11
137.504452
 21
104.487326
 31
0.0
  0
LINE
  5
11E
330
A
100
AcDbEntity
  8
Hawa4
 62
     4
 48
0.050465
370
    13
390
1D
100
AcDbLine
 10
137.504452
 20
108.275766
 30
0.0
 11
137.504452
 21
106.257185
 31
0.0
  0
LINE
  5
11F
330
A
100
AcDbEntity
  8
Hawa4
 62
     4
 48
0.009069
370
    13
390
1D
100
AcDbLine
 10
137.504452
 20
108.63854
 30
0.0
 11
137.504452
 21
108.275766
 31
0.0
  0
LINE
  5
120
330
A
100
AcDbEntity
  8
Hawa5
 62
     1
370
    13
390
1D
100
AcDbLine
 10
203.554501
 20
103.391026
 30
0.0
 11
137.504452
 21
103.391026
 31
0.0
  0
LINE
  5
121
330
A
100
AcDbEntity
  8
Hawa6
 62
     3
370
    13
390
1D
100
AcDbLine
 10
203.554501
 20
103.766827
 30
0.0
 11
137.504452
 21
103.766827
 31
0.0
  0
LINE
  5
122
330
A
100
AcDbEntity
  8
Hawa6
 62
     3
370
    13
390
1D
100
AcDbLine
 10
203.554501
 20
108.275766
 30
0.0
 11
137.504452
 21
108.275766
 31
0.0
  0
LINE
  5
123
330
A
100
AcDbEntity
  8
Hawa6
 62
     3
370
    13
390
1D
100
AcDbLine
 10
203.554501
 20
108.63854
 30
0.0
 11
137.504452
 21
108.63854
 31
0.0
  0
ARC
  5
124
330
A
100
AcDbEntity
  8
Hawa4
 62
     4
370
    13
390
1D
100
AcDbCircle
 10
129.277951
 20
109.344854
 30
0.0
 40
0.15
100
AcDbArc
 50
143.825041
 51
323.825032
  0
ARC
  5
125
330
A
100
AcDbEntity
  8
Hawa4
 62
     4
370
    13
390
1D
100
AcDbCircle
 10
126.654477
 20
111.263177
 30
0.0
 40
3.399999999999999
100
AcDbArc
 50
294.357411
 51
323.825032
  0
ARC
  5
126
330
A
100
AcDbEntity
  8
Hawa4
 62
     4
370
    13
390
1D
100
AcDbCircle
 10
128.139218
 20
107.983612
 30
0.0
 40
0.2
100
AcDbArc
 50
114.357421
 51
241.253811
  0
LINE
  5
127
330
A
100
AcDbEntity
  8
Hawa4
 62
     4
 48
0.019375
370
    13
390
1D
100
AcDbLine
 10
128.043027
 20
107.80826
 30
0.0
 11
128.722531
 21
107.435532
 31
0.0
  0
ARC
  5
128
330
A
100
AcDbEntity
  8
Hawa4
 62
     4
370
    13
390
1D
100
AcDbCircle
 10
128.241635
 20
106.558773
 30
0.0
 40
1.0
100
AcDbArc
 50
13.012652
 51
61.253805
  0
ARC
  5
129
330
A
100
AcDbEntity
  8
Hawa4
 62
     4
370
    13
390
1D
100
AcDbCircle
 10
129.021054
 20
106.738905
 30
0.0
 40
0.2
100
AcDbArc
 50
211.04555
 51
13.012652
  0
ARC
  5
12A
330
A
100
AcDbEntity
  8
Hawa4
 62
     4
370
    13
390
1D
100
AcDbCircle
 10
128.678342
 20
106.532618
 30
0.0
 40
0.2
100
AcDbArc
 50
31.045559
 51
61.253805
  0
LINE
  5
12B
330
A
100
AcDbEntity
  8
Hawa4
 62
     4
 48
0.015317
370
    13
390
1D
100
AcDbLine
 10
128.774533
 20
106.70797
 30
0.0
 11
128.237363
 21
107.002646
 31
0.0
  0
ARC
  5
12C
330
A
100
AcDbEntity
  8
Hawa4
 62
     4
370
    13
390
1D
100
AcDbCircle
 10
128.141171
 20
106.827293
 30
0.0
 40
0.2
100
AcDbArc
 50
61.253805
 51
172.091015
  0
LINE
  5
12D
330
A
100
AcDbEntity
  8
Hawa4
 62
     4
 48
0.046308
370
    13
390
1D
100
AcDbLine
 10
127.943051
 20
106.854815
 30
0.0
 11
127.688168
 21
105.020111
 31
0.0
  0
ARC
  5
12E
330
A
100
AcDbEntity
  8
Hawa4
 62
     4
370
    13
390
1D
100
AcDbCircle
 10
127.886288
 20
104.99259
 30
0.0
 40
0.2
100
AcDbArc
 50
172.091015
 51
303.468311
  0
LINE
  5
12F
330
A
100
AcDbEntity
  8
Hawa4
 62
     4
 48
0.016411
370
    13
390
1D
100
AcDbLine
 10
127.996579
 20
104.825752
 30
0.0
 11
128.544186
 21
105.187773
 31
0.0
  0
ARC
  5
130
330
A
100
AcDbEntity
  8
Hawa4
 62
     4
370
    13
390
1D
100
AcDbCircle
 10
128.654477
 20
105.020935
 30
0.0
 40
0.2
100
AcDbArc
 50
0.00001
 51
123.468304
  0
LINE
  5
131
330
A
100
AcDbEntity
  8
Hawa4
 62
     4
 48
0.004701
370
    13
390
1D
100
AcDbLine
 10
128.854489
 20
105.020935
 30
0.0
 11
128.854489
 21
104.832892
 31
0.0
  0
ARC
  5
132
330
A
100
AcDbEntity
  8
Hawa4
 62
     4
370
    13
390
1D
100
AcDbCircle
 10
128.654477
 20
104.832892
 30
0.0
 40
0.2
100
AcDbArc
 50
307.593852
 51
0.0
  0
LINE
  5
133
330
A
100
AcDbEntity
  8
Hawa4
 62
     4
 48
0.016645
370
    13
390
1D
100
AcDbLine
 10
128.776486
 20
104.674421
 30
0.0
 11
128.248959
 21
104.268238
 31
0.0
  0
ARC
  5
134
330
A
100
AcDbEntity
  8
Hawa4
 62
     4
370
    13
390
1D
100
AcDbCircle
 10
129.469052
 20
102.683529
 30
0.0
 40
2.0
100
AcDbArc
 50
127.593849
 51
169.975377
  0
ARC
  5
135
330
A
100
AcDbEntity
  8
Hawa4
 62
     4
370
    13
390
1D
100
AcDbCircle
 10
127.69653
 20
102.996857
 30
0.0
 40
0.2
100
AcDbArc
 50
169.975377
 51
303.468311
  0
LINE
  5
136
330
A
100
AcDbEntity
  8
Hawa4
 62
     4
 48
0.022098
370
    13
390
1D
100
AcDbLine
 10
127.806821
 20
102.830019
 30
0.0
 11
128.544186
 21
103.317474
 31
0.0
  0
ARC
  5
137
330
A
100
AcDbEntity
  8
Hawa4
 62
     4
370
    13
390
1D
100
AcDbCircle
 10
128.654477
 20
103.150637
 30
0.0
 40
0.2
100
AcDbArc
 50
0.00001
 51
123.468304
  0
LINE
  5
138
330
A
100
AcDbEntity
  8
Hawa4
 62
     4
 48
0.003848
370
    13
390
1D
100
AcDbLine
 10
128.854489
 20
103.150637
 30
0.0
 11
128.854489
 21
102.996716
 31
0.0
  0
ARC
  5
139
330
A
100
AcDbEntity
  8
Hawa4
 62
     4
370
    13
390
1D
100
AcDbCircle
 10
128.654477
 20
102.996716
 30
0.0
 40
0.2
100
AcDbArc
 50
317.21718
 51
0.0
  0
LINE
  5
13A
330
A
100
AcDbEntity
  8
Hawa4
 62
     4
 48
0.06551
370
    13
390
1D
100
AcDbLine
 10
128.801266
 20
102.86087
 30
0.0
 11
127.02142
 21
100.937683
 31
0.0
  0
ARC
  5
13B
330
A
100
AcDbEntity
  8
Hawa4
 62
     4
370
    13
390
1D
100
AcDbCircle
 10
126.654477
 20
101.277294
 30
0.0
 40
0.5
100
AcDbArc
 50
222.782808
 51
317.21718
  0
LINE
  5
13C
330
A
100
AcDbEntity
  8
Hawa4
 62
     4
 48
0.06551
370
    13
390
1D
100
AcDbLine
 10
126.287534
 20
100.937683
 30
0.0
 11
124.507687
 21
102.86087
 31
0.0
  0
ARC
  5
13D
330
A
100
AcDbEntity
  8
Hawa4
 62
     4
370
    13
390
1D
100
AcDbCircle
 10
124.654477
 20
102.996716
 30
0.0
 40
0.2
100
AcDbArc
 50
180.000005
 51
222.782808
  0
LINE
  5
13E
330
A
100
AcDbEntity
  8
Hawa4
 62
     4
 48
0.003848
370
    13
390
1D
100
AcDbLine
 10
124.454465
 20
102.996716
 30
0.0
 11
124.454465
 21
103.150637
 31
0.0
  0
ARC
  5
13F
330
A
100
AcDbEntity
  8
Hawa4
 62
     4
370
    13
390
1D
100
AcDbCircle
 10
124.654477
 20
103.150637
 30
0.0
 40
0.2
100
AcDbArc
 50
56.531701
 51
180.000005
  0
LINE
  5
140
330
A
100
AcDbEntity
  8
Hawa4
 62
     4
 48
0.022098
370
    13
390
1D
100
AcDbLine
 10
124.764767
 20
103.317474
 30
0.0
 11
125.502133
 21
102.830019
 31
0.0
  0
ARC
  5
141
330
A
100
AcDbEntity
  8
Hawa4
 62
     4
370
    13
390
1D
100
AcDbCircle
 10
125.612424
 20
102.996857
 30
0.0
 40
0.2
100
AcDbArc
 50
236.531692
 51
10.024626
  0
ARC
  5
142
330
A
100
AcDbEntity
  8
Hawa4
 62
     4
370
    13
390
1D
100
AcDbCircle
 10
123.839902
 20
102.683529
 30
0.0
 40
2.0
100
AcDbArc
 50
10.024626
 51
52.406155
  0
LINE
  5
143
330
A
100
AcDbEntity
  8
Hawa4
 62
     4
 48
0.016645
370
    13
390
1D
100
AcDbLine
 10
125.059994
 20
104.268238
 30
0.0
 11
124.532468
 21
104.674421
 31
0.0
  0
ARC
  5
144
330
A
100
AcDbEntity
  8
Hawa4
 62
     4
370
    13
390
1D
100
AcDbCircle
 10
124.654477
 20
104.832892
 30
0.0
 40
0.2
100
AcDbArc
 50
180.000005
 51
232.406148
  0
LINE
  5
145
330
A
100
AcDbEntity
  8
Hawa4
 62
     4
 48
0.004701
370
    13
390
1D
100
AcDbLine
 10
124.454465
 20
104.832892
 30
0.0
 11
124.454465
 21
105.020935
 31
0.0
  0
ARC
  5
146
330
A
100
AcDbEntity
  8
Hawa4
 62
     4
370
    13
390
1D
100
AcDbCircle
 10
124.654477
 20
105.020935
 30
0.0
 40
0.2
100
AcDbArc
 50
56.531701
 51
180.000005
  0
LINE
  5
147
330
A
100
AcDbEntity
  8
Hawa4
 62
     4
 48
0.016411
370
    13
390
1D
100
AcDbLine
 10
124.764767
 20
105.187773
 30
0.0
 11
125.312375
 21
104.825752
 31
0.0
  0
ARC
  5
148
330
A
100
AcDbEntity
  8
Hawa4
 62
     4
370
    13
390
1D
100
AcDbCircle
 10
125.422665
 20
104.99259
 30
0.0
 40
0.2
100
AcDbArc
 50
236.531692
 51
7.908491000000001
  0
LINE
  5
149
330
A
100
AcDbEntity
  8
Hawa4
 62
     4
 48
0.046308
370
    13
390
1D
100
AcDbLine
 10
125.620785
 20
105.020109
 30
0.0
 11
125.365903
 21
106.854813
 31
0.0
  0
ARC
  5
14A
330
A
100
AcDbEntity
  8
Hawa4
 62
     4
370
    13
390
1D
100
AcDbCircle
 10
125.167844
 20
106.827293
 30
0.0
 40
0.2
100
AcDbArc
 50
7.908491000000001
 51
118.746199
  0
LINE
  5
14B
330
A
100
AcDbEntity
  8
Hawa4
 62
     4
 48
0.015319
370
    13
390
1D
100
AcDbLine
 10
125.071652
 20
107.002646
 30
0.0
 11
124.534421
 21
106.70797
 31
0.0
  0
ARC
  5
14C
330
A
100
AcDbEntity
  8
Hawa4
 62
     4
370
    13
390
1D
100
AcDbCircle
 10
124.630612
 20
106.532618
 30
0.0
 40
0.2
100
AcDbArc
 50
118.746199
 51
148.954446
  0
ARC
  5
14D
330
A
100
AcDbEntity
  8
Hawa4
 62
     4
370
    13
390
1D
100
AcDbCircle
 10
124.2879
 20
106.738905
 30
0.0
 40
0.2
100
AcDbArc
 50
166.987347
 51
328.95445
  0
ARC
  5
14E
330
A
100
AcDbEntity
  8
Hawa4
 62
     4
370
    13
390
1D
100
AcDbCircle
 10
125.06738
 20
106.558773
 30
0.0
 40
1.0
100
AcDbArc
 50
118.746199
 51
166.987347
  0
LINE
  5
14F
330
A
100
AcDbEntity
  8
Hawa4
 62
     4
 48
0.019375
370
    13
390
1D
100
AcDbLine
 10
124.586423
 20
107.435532
 30
0.0
 11
125.265927
 21
107.80826
 31
0.0
  0
ARC
  5
150
330
A
100
AcDbEntity
  8
Hawa4
 62
     4
370
    13
390
1D
100
AcDbCircle
 10
125.169736
 20
107.983612
 30
0.0
 40
0.2
100
AcDbArc
 50
298.74619
 51
65.642578
  0
ARC
  5
151
330
A
100
AcDbEntity
  8
Hawa4
 62
     4
370
    13
390
1D
100
AcDbCircle
 10
126.654477
 20
111.263177
 30
0.0
 40
3.399999999999999
100
AcDbArc
 50
216.174954
 51
245.64259
  0
ARC
  5
152
330
A
100
AcDbEntity
  8
Hawa4
 62
     4
370
    13
390
1D
100
AcDbCircle
 10
124.031003
 20
109.344854
 30
0.0
 40
0.15
100
AcDbArc
 50
216.174954
 51
36.174964
  0
ARC
  5
153
330
A
100
AcDbEntity
  8
Hawa4
 62
     4
370
    13
390
1D
100
AcDbCircle
 10
126.654477
 20
111.263177
 30
0.0
 40
3.1
100
AcDbArc
 50
124.2149689999999
 51
216.174968
  0
ARC
  5
154
330
A
100
AcDbEntity
  8
Hawa4
 62
     4
370
    13
390
1D
100
AcDbCircle
 10
123.6181
 20
115.728619
 30
0.0
 40
2.299999999999998
100
AcDbArc
 50
304.21496
 51
337.401728
  0
ARC
  5
155
330
A
100
AcDbEntity
  8
Hawa4
 62
     4
370
    13
390
1D
100
AcDbCircle
 10
126.387753
 20
114.575817
 30
0.0
 40
0.7
100
AcDbArc
 50
136.505495
 51
157.401738
  0
ARC
  5
156
330
A
100
AcDbEntity
  8
Hawa4
 62
     4
370
    13
390
1D
100
AcDbCircle
 10
125.154477
 20
115.745901
 30
0.0
 40
1.0
100
AcDbArc
 50
316.5055
 51
23.471912
  0
ARC
  5
157
330
A
100
AcDbEntity
  8
Hawa4
 62
     4
370
    13
390
1D
100
AcDbCircle
 10
126.989011
 20
116.542501
 30
0.0
 40
1.0
100
AcDbArc
 50
175.677657
 51
203.471909
  0
LINE
  5
158
330
A
100
AcDbEntity
  8
Hawa4
 62
     4
 48
0.119254
370
    13
390
1D
100
AcDbLine
 10
126.351376
 20
121.37445
 30
0.0
 11
125.991818
 21
116.617868
 31
0.0
  0
ARC
  5
159
330
A
100
AcDbEntity
  8
Hawa4
 62
     4
370
    13
390
1D
100
AcDbCircle
 10
125.254513
 20
121.457355
 30
0.0
 40
1.100001
100
AcDbArc
 50
355.677675
 51
28.954883
  0
ARC
  5
15A
330
A
100
AcDbEntity
  8
Hawa4
 62
     4
370
    13
390
1D
100
AcDbCircle
 10
126.654477
 20
122.231948
 30
0.0
 40
0.5
100
AcDbArc
 50
331.045034
 51
208.954884
  0
ARC
  5
15B
330
A
100
AcDbEntity
  8
Hawa4
 62
     4
370
    13
390
1D
100
AcDbCircle
 10
128.054501
 20
121.457357
 30
0.0
 40
1.099987
100
AcDbArc
 50
151.044934
 51
184.322531
  0
LINE
  5
15C
330
A
100
AcDbEntity
  8
Hawa4
 62
     4
 48
0.119254
370
    13
390
1D
100
AcDbLine
 10
127.317136
 20
116.617868
 30
0.0
 11
126.957638
 21
121.37445
 31
0.0
  0
ARC
  5
15D
330
A
100
AcDbEntity
  8
Hawa4
 62
     4
370
    13
390
1D
100
AcDbCircle
 10
126.320004
 20
116.542501
 30
0.0
 40
1.0
100
AcDbArc
 50
336.528091
 51
4.322343
  0
ARC
  5
15E
330
A
100
AcDbEntity
  8
Hawa4
 62
     4
370
    13
390
1D
100
AcDbCircle
 10
128.154477
 20
115.745901
 30
0.0
 40
1.0
100
AcDbArc
 50
156.528088
 51
223.4945
  0
ARC
  5
15F
330
A
100
AcDbEntity
  8
Hawa4
 62
     4
370
    13
390
1D
100
AcDbCircle
 10
126.921262
 20
114.575817
 30
0.0
 40
0.7
100
AcDbArc
 50
22.598265
 51
43.49450499999998
  0
ARC
  5
160
330
A
100
AcDbEntity
  8
Hawa4
 62
     4
370
    13
390
1D
100
AcDbCircle
 10
129.690915
 20
115.728619
 30
0.0
 40
2.299999999999998
100
AcDbArc
 50
202.598259
 51
235.785043
  0
ARC
  5
161
330
A
100
AcDbEntity
  8
Hawa4
 62
     4
370
    13
390
1D
100
AcDbCircle
 10
126.654477
 20
111.263177
 30
0.0
 40
3.1
100
AcDbArc
 50
323.825032
 51
55.785031
  0
CIRCLE
  5
162
330
A
100
AcDbEntity
  8
Hawa4
 62
     4
370
    13
390
1D
100
AcDbCircle
 10
126.654477
 20
111.263177
 30
0.0
 40
2.6
  0
ARC
  5
163
330
A
100
AcDbEntity
  8
Hawa4
 62
     4
370
    13
390
1D
100
AcDbCircle
 10
128.054501
 20
121.457357
 30
0.0
 40
0.799987
100
AcDbArc
 50
151.044892
 51
184.322613
  0
LINE
  5
164
330
A
100
AcDbEntity
  8
Hawa4
 62
     4
 48
0.119254
370
    13
390
1D
100
AcDbLine
 10
127.256772
 20
121.39706
 30
0.0
 11
127.616269
 21
116.640478
 31
0.0
  0
ARC
  5
165
330
A
100
AcDbEntity
  8
Hawa4
 62
     4
370
    13
390
1D
100
AcDbCircle
 10
126.320004
 20
116.542501
 30
0.0
 40
1.3
100
AcDbArc
 50
336.528091
 51
4.322343
  0
ARC
  5
166
330
A
100
AcDbEntity
  8
Hawa4
 62
     4
370
    13
390
1D
100
AcDbCircle
 10
128.154477
 20
115.745901
 30
0.0
 40
0.7
100
AcDbArc
 50
156.528088
 51
223.4945
  0
ARC
  5
167
330
A
100
AcDbEntity
  8
Hawa4
 62
     4
370
    13
390
1D
100
AcDbCircle
 10
126.921262
 20
114.575817
 30
0.0
 40
1.0
100
AcDbArc
 50
22.598265
 51
43.49450499999998
  0
ARC
  5
168
330
A
100
AcDbEntity
  8
Hawa4
 62
     4
370
    13
390
1D
100
AcDbCircle
 10
129.690915
 20
115.728619
 30
0.0
 40
2.0
100
AcDbArc
 50
202.598259
 51
235.785016
  0
ARC
  5
169
330
A
100
AcDbEntity
  8
Hawa4
 62
     4
370
    13
390
1D
100
AcDbCircle
 10
126.654477
 20
111.263177
 30
0.0
 40
3.399999999999999
100
AcDbArc
 50
323.825032
 51
55.785048
  0
ARC
  5
17B
330
A
100
AcDbEntity
  8
Hawa4
 62
     4
370
    13
390
1D
100
AcDbCircle
 10
126.654477
 20
111.263177
 30
0.0
 40
3.399999999999999
100
AcDbArc
 50
124.2149689999999
 51
216.174968
  0
ARC
  5
17C
330
A
100
AcDbEntity
  8
Hawa4
 62
     4
370
    13
390
1D
100
AcDbCircle
 10
123.6181
 20
115.728619
 30
0.0
 40
2.0
100
AcDbArc
 50
304.21496
 51
337.401728
  0
ARC
  5
17D
330
A
100
AcDbEntity
  8
Hawa4
 62
     4
370
    13
390
1D
100
AcDbCircle
 10
126.387753
 20
114.575817
 30
0.0
 40
1.0
100
AcDbArc
 50
136.505495
 51
157.401738
  0
ARC
  5
17E
330
A
100
AcDbEntity
  8
Hawa4
 62
     4
370
    13
390
1D
100
AcDbCircle
 10
125.154477
 20
115.745901
 30
0.0
 40
0.7
100
AcDbArc
 50
316.5055
 51
23.471912
  0
ARC
  5
17F
330
A
100
AcDbEntity
  8
Hawa4
 62
     4
370
    13
390
1D
100
AcDbCircle
 10
126.989011
 20
116.542501
 30
0.0
 40
1.3
100
AcDbArc
 50
175.677657
 51
203.471909
  0
LINE
  5
180
330
A
100
AcDbEntity
  8
Hawa4
 62
     4
 48
0.119254
370
    13
390
1D
100
AcDbLine
 10
125.692685
 20
116.640478
 30
0.0
 11
126.052243
 21
121.39706
 31
0.0
  0
ARC
  5
181
330
A
100
AcDbEntity
  8
Hawa4
 62
     4
370
    13
390
1D
100
AcDbCircle
 10
125.254513
 20
121.457355
 30
0.0
 40
0.8000010000000001
100
AcDbArc
 50
355.677675
 51
28.954883
  0
ARC
  5
182
330
A
100
AcDbEntity
  8
Hawa4
 62
     4
370
    13
390
1D
100
AcDbCircle
 10
126.654477
 20
122.231948
 30
0.0
 40
0.8
100
AcDbArc
 50
331.045034
 51
208.954884
  0
LINE
  5
183
330
A
100
AcDbEntity
  8
Hawa4
 62
     4
 48
0.088097
370
    13
390
1D
100
AcDbLine
 10
134.378354
 20
104.589293
 30
0.0
 11
130.854489
 21
104.589293
 31
0.0
  0
ARC
  5
184
330
A
100
AcDbEntity
  8
Hawa4
 62
     4
370
    13
390
1D
100
AcDbCircle
 10
134.378354
 20
104.789293
 30
0.0
 40
0.2
100
AcDbArc
 50
270.000001
 51
0.00001
  0
ARC
  5
185
330
A
100
AcDbEntity
  8
Hawa4
 62
     4
370
    13
390
1D
100
AcDbCircle
 10
134.778317
 20
104.789293
 30
0.0
 40
0.2
100
AcDbArc
 50
90.00000300000001
 51
180.000005
  0
LINE
  5
186
330
A
100
AcDbEntity
  8
Hawa4
 62
     4
 48
0.035001
370
    13
390
1D
100
AcDbLine
 10
136.178342
 20
104.989294
 30
0.0
 11
134.778317
 21
104.989294
 31
0.0
  0
ARC
  5
187
330
A
100
AcDbEntity
  8
Hawa4
 62
     4
370
    13
390
1D
100
AcDbCircle
 10
136.178342
 20
104.789293
 30
0.0
 40
0.2
100
AcDbArc
 50
0.00001
 51
90.00000300000001
  0
ARC
  5
188
330
A
100
AcDbEntity
  8
Hawa4
 62
     4
370
    13
390
1D
100
AcDbCircle
 10
136.578305
 20
104.789293
 30
0.0
 40
0.2
100
AcDbArc
 50
179.999991
 51
270.000001
  0
LINE
  5
189
330
A
100
AcDbEntity
  8
Hawa4
 62
     4
 48
0.0175
370
    13
390
1D
100
AcDbLine
 10
137.278317
 20
104.589293
 30
0.0
 11
136.578305
 21
104.589293
 31
0.0
  0
ARC
  5
18A
330
A
100
AcDbEntity
  8
Hawa4
 62
     4
370
    13
390
1D
100
AcDbCircle
 10
137.278317
 20
104.289293
 30
0.0
 40
0.3
100
AcDbArc
 50
0.0
 51
90.00000300000001
  0
LINE
  5
18B
330
A
100
AcDbEntity
  8
Hawa4
 62
     4
 48
0.004822
370
    13
390
1D
100
AcDbLine
 10
137.578305
 20
104.289293
 30
0.0
 11
137.578305
 21
104.096399
 31
0.0
  0
ARC
  5
18C
330
A
100
AcDbEntity
  8
Hawa4
 62
     4
370
    13
390
1D
100
AcDbCircle
 10
137.078305
 20
104.096399
 30
0.0
 40
0.5
100
AcDbArc
 50
305.233887
 51
0.0
  0
LINE
  5
18D
330
A
100
AcDbEntity
  8
Hawa4
 62
     4
 48
0.012944
370
    13
390
1D
100
AcDbLine
 10
137.366757
 20
103.687998
 30
0.0
 11
136.943845
 21
103.389294
 31
0.0
  0
LINE
  5
18E
330
A
100
AcDbEntity
  8
Hawa4
 62
     4
 48
0.011615
370
    13
390
1D
100
AcDbLine
 10
136.943845
 20
103.389294
 30
0.0
 11
136.479245
 21
103.389294
 31
0.0
  0
LINE
  5
18F
330
A
100
AcDbEntity
  8
Hawa4
 62
     4
 48
0.011485
370
    13
390
1D
100
AcDbLine
 10
136.797299
 20
103.720812
 30
0.0
 11
136.479245
 21
103.389294
 31
0.0
  0
ARC
  5
190
330
A
100
AcDbEntity
  8
Hawa4
 62
     4
370
    13
390
1D
100
AcDbCircle
 10
136.725156
 20
103.790047
 30
0.0
 40
0.1
100
AcDbArc
 50
316.184429
 51
90.00000300000001
  0
LINE
  5
191
330
A
100
AcDbEntity
  8
Hawa4
 62
     4
 48
0.041928
370
    13
390
1D
100
AcDbLine
 10
135.048032
 20
103.890047
 30
0.0
 11
136.725156
 21
103.890047
 31
0.0
  0
ARC
  5
192
330
A
100
AcDbEntity
  8
Hawa4
 62
     4
370
    13
390
1D
100
AcDbCircle
 10
135.048032
 20
103.690046
 30
0.0
 40
0.2
100
AcDbArc
 50
90.00000300000001
 51
144.314671
  0
ARC
  5
193
330
A
100
AcDbEntity
  8
Hawa4
 62
     4
370
    13
390
1D
100
AcDbCircle
 10
134.073361
 20
104.390047
 30
0.0
 40
1.0
100
AcDbArc
 50
215.685325
 51
324.314675
  0
ARC
  5
194
330
A
100
AcDbEntity
  8
Hawa4
 62
     4
370
    13
390
1D
100
AcDbCircle
 10
133.098691
 20
103.690046
 30
0.0
 40
0.2
100
AcDbArc
 50
35.68533400000001
 51
90.00000300000001
  0
LINE
  5
195
330
A
100
AcDbEntity
  8
Hawa4
 62
     4
 48
0.05253
370
    13
390
1D
100
AcDbLine
 10
130.997494
 20
103.890047
 30
0.0
 11
133.098691
 21
103.890047
 31
0.0
  0
ARC
  5
196
330
A
100
AcDbEntity
  8
Hawa4
 62
     4
370
    13
390
1D
100
AcDbCircle
 10
131.004452
 20
103.690168
 30
0.0
 40
0.2
100
AcDbArc
 50
91.999998
 51
180.000005
  0
LINE
  5
197
330
A
100
AcDbEntity
  8
Hawa4
 62
     4
 48
0.012078
370
    13
390
1D
100
AcDbLine
 10
130.804501
 20
103.690168
 30
0.0
 11
130.804501
 21
103.20706
 31
0.0
  0
ARC
  5
198
330
A
100
AcDbEntity
  8
Hawa4
 62
     4
370
    13
390
1D
100
AcDbCircle
 10
131.104489
 20
103.20706
 30
0.0
 40
0.3
100
AcDbArc
 50
179.999991
 51
224.999995
  0
LINE
  5
199
330
A
100
AcDbEntity
  8
Hawa4
 62
     4
 48
0.001894
370
    13
390
1D
100
AcDbLine
 10
130.892331
 20
102.994928
 30
0.0
 11
130.94592
 21
102.941376
 31
0.0
  0
ARC
  5
19A
330
A
100
AcDbEntity
  8
Hawa4
 62
     4
370
    13
390
1D
100
AcDbCircle
 10
130.804501
 20
102.799954
 30
0.0
 40
0.2
100
AcDbArc
 50
0.0
 51
45.0
  0
LINE
  5
19B
330
A
100
AcDbEntity
  8
Hawa5
 62
     1
 48
0.110266
370
    13
390
1D
100
AcDbLine
 10
131.004452
 20
98.38929400000001
 30
0.0
 11
131.004452
 21
102.799954
 31
0.0
  0
LINE
  5
19C
330
A
100
AcDbEntity
  8
Hawa5
 62
     1
 48
0.110267
370
    13
390
1D
100
AcDbLine
 10
131.004452
 20
93.97863200000001
 30
0.0
 11
131.004452
 21
98.38929400000001
 31
0.0
  0
ARC
  5
19D
330
A
100
AcDbEntity
  8
Hawa4
 62
     4
370
    13
390
1D
100
AcDbCircle
 10
130.804501
 20
93.97863200000001
 30
0.0
 40
0.2
100
AcDbArc
 50
314.99999
 51
0.00001
  0
LINE
  5
19E
330
A
100
AcDbEntity
  8
Hawa4
 62
     4
 48
0.001894
370
    13
390
1D
100
AcDbLine
 10
130.892331
 20
93.783659
 30
0.0
 11
130.94592
 21
93.837214
 31
0.0
  0
ARC
  5
19F
330
A
100
AcDbEntity
  8
Hawa4
 62
     4
370
    13
390
1D
100
AcDbCircle
 10
131.104489
 20
93.57152799999999
 30
0.0
 40
0.3
100
AcDbArc
 50
135.0
 51
180.000005
  0
LINE
  5
1A0
330
A
100
AcDbEntity
  8
Hawa4
 62
     4
 48
0.012078
370
    13
390
1D
100
AcDbLine
 10
130.804501
 20
93.57152799999999
 30
0.0
 11
130.804501
 21
93.08841899999999
 31
0.0
  0
ARC
  5
1A1
330
A
100
AcDbEntity
  8
Hawa4
 62
     4
370
    13
390
1D
100
AcDbCircle
 10
131.004452
 20
93.08841899999999
 30
0.0
 40
0.2
100
AcDbArc
 50
179.999991
 51
268.000012
  0
LINE
  5
1A2
330
A
100
AcDbEntity
  8
Hawa4
 62
     4
 48
0.05253
370
    13
390
1D
100
AcDbLine
 10
130.997494
 20
92.88854
 30
0.0
 11
133.098691
 21
92.88854
 31
0.0
  0
ARC
  5
1A3
330
A
100
AcDbEntity
  8
Hawa4
 62
     4
370
    13
390
1D
100
AcDbCircle
 10
133.098691
 20
93.08854100000001
 30
0.0
 40
0.2
100
AcDbArc
 50
270.000001
 51
324.314675
  0
ARC
  5
1A4
330
A
100
AcDbEntity
  8
Hawa4
 62
     4
370
    13
390
1D
100
AcDbCircle
 10
134.073361
 20
92.38854000000001
 30
0.0
 40
1.0
100
AcDbArc
 50
35.68533400000001
 51
144.314671
  0
ARC
  5
1A5
330
A
100
AcDbEntity
  8
Hawa4
 62
     4
370
    13
390
1D
100
AcDbCircle
 10
135.048032
 20
93.08854100000001
 30
0.0
 40
0.2
100
AcDbArc
 50
215.685325
 51
270.000001
  0
LINE
  5
1A6
330
A
100
AcDbEntity
  8
Hawa4
 62
     4
 48
0.041928
370
    13
390
1D
100
AcDbLine
 10
135.048032
 20
92.88854
 30
0.0
 11
136.725156
 21
92.88854
 31
0.0
  0
ARC
  5
1A7
330
A
100
AcDbEntity
  8
Hawa4
 62
     4
370
    13
390
1D
100
AcDbCircle
 10
136.725156
 20
92.98853900000001
 30
0.0
 40
0.1
100
AcDbArc
 50
270.000001
 51
43.81556599999998
  0
LINE
  5
1A8
330
A
100
AcDbEntity
  8
Hawa4
 62
     4
 48
0.011485
370
    13
390
1D
100
AcDbLine
 10
136.797299
 20
93.057776
 30
0.0
 11
136.479245
 21
93.389292
 31
0.0
  0
LINE
  5
1A9
330
A
100
AcDbEntity
  8
Hawa4
 62
     4
 48
0.011615
370
    13
390
1D
100
AcDbLine
 10
136.943845
 20
93.389292
 30
0.0
 11
136.479245
 21
93.389292
 31
0.0
  0
LINE
  5
1AA
330
A
100
AcDbEntity
  8
Hawa4
 62
     4
 48
0.012944
370
    13
390
1D
100
AcDbLine
 10
137.366757
 20
93.09059000000001
 30
0.0
 11
136.943845
 21
93.389292
 31
0.0
  0
ARC
  5
1AB
330
A
100
AcDbEntity
  8
Hawa4
 62
     4
370
    13
390
1D
100
AcDbCircle
 10
137.078305
 20
92.68218799999999
 30
0.0
 40
0.5
100
AcDbArc
 50
0.00001
 51
54.766113
  0
LINE
  5
1AC
330
A
100
AcDbEntity
  8
Hawa4
 62
     4
 48
0.004822
370
    13
390
1D
100
AcDbLine
 10
137.578305
 20
92.68218799999999
 30
0.0
 11
137.578305
 21
92.48929399999999
 31
0.0
  0
ARC
  5
1AD
330
A
100
AcDbEntity
  8
Hawa4
 62
     4
370
    13
390
1D
100
AcDbCircle
 10
137.278317
 20
92.48929399999999
 30
0.0
 40
0.3
100
AcDbArc
 50
270.000001
 51
360.0
  0
LINE
  5
1AE
330
A
100
AcDbEntity
  8
Hawa4
 62
     4
 48
0.0175
370
    13
390
1D
100
AcDbLine
 10
137.278317
 20
92.18929499999999
 30
0.0
 11
136.578305
 21
92.18929499999999
 31
0.0
  0
ARC
  5
1AF
330
A
100
AcDbEntity
  8
Hawa4
 62
     4
370
    13
390
1D
100
AcDbCircle
 10
136.578305
 20
91.989294
 30
0.0
 40
0.2
100
AcDbArc
 50
90.00000300000001
 51
180.000005
  0
ARC
  5
1B0
330
A
100
AcDbEntity
  8
Hawa4
 62
     4
370
    13
390
1D
100
AcDbCircle
 10
136.178342
 20
91.989294
 30
0.0
 40
0.2
100
AcDbArc
 50
270.000001
 51
0.0
  0
LINE
  5
1B1
330
A
100
AcDbEntity
  8
Hawa4
 62
     4
 48
0.035001
370
    13
390
1D
100
AcDbLine
 10
136.178342
 20
91.789293
 30
0.0
 11
134.778317
 21
91.789293
 31
0.0
  0
ARC
  5
1B2
330
A
100
AcDbEntity
  8
Hawa4
 62
     4
370
    13
390
1D
100
AcDbCircle
 10
134.778317
 20
91.989294
 30
0.0
 40
0.2
100
AcDbArc
 50
179.999991
 51
270.000001
  0
ARC
  5
1B3
330
A
100
AcDbEntity
  8
Hawa4
 62
     4
370
    13
390
1D
100
AcDbCircle
 10
134.378354
 20
91.989294
 30
0.0
 40
0.2
100
AcDbArc
 50
0.000002
 51
90.00000300000001
  0
LINE
  5
1B4
330
A
100
AcDbEntity
  8
Hawa4
 62
     4
 48
0.088097
370
    13
390
1D
100
AcDbLine
 10
134.378354
 20
92.18929499999999
 30
0.0
 11
130.854489
 21
92.18929499999999
 31
0.0
  0
ARC
  5
1B5
330
A
100
AcDbEntity
  8
Hawa4
 62
     4
370
    13
390
1D
100
AcDbCircle
 10
130.854489
 20
92.989294
 30
0.0
 40
0.8
100
AcDbArc
 50
180.000005
 51
270.000001
  0
LINE
  5
1B6
330
A
100
AcDbEntity
  8
Hawa4
 62
     4
 48
0.022322
370
    13
390
1D
100
AcDbLine
 10
130.054501
 20
93.88218499999998
 30
0.0
 11
130.054501
 21
92.989294
 31
0.0
  0
ARC
  5
1B7
330
A
100
AcDbEntity
  8
Hawa4
 62
     4
370
    13
390
1D
100
AcDbCircle
 10
130.354489
 20
93.88218499999998
 30
0.0
 40
0.3
100
AcDbArc
 50
135.0
 51
180.000005
  0
LINE
  5
1B8
330
A
100
AcDbEntity
  8
Hawa4
 62
     4
 48
0.001894
370
    13
390
1D
100
AcDbLine
 10
130.142331
 20
94.09432
 30
0.0
 11
130.19592
 21
94.14787099999999
 31
0.0
  0
ARC
  5
1B9
330
A
100
AcDbEntity
  8
Hawa4
 62
     4
370
    13
390
1D
100
AcDbCircle
 10
130.054501
 20
94.289293
 30
0.0
 40
0.2
100
AcDbArc
 50
314.99999
 51
360.0
  0
LINE
  5
1BA
330
A
100
AcDbEntity
  8
Hawa4
 62
     4
 48
0.1025
370
    13
390
1D
100
AcDbLine
 10
130.254452
 20
98.38929400000001
 30
0.0
 11
130.254452
 21
94.289293
 31
0.0
  0
LINE
  5
1BB
330
A
100
AcDbEntity
  8
Hawa4
 62
     4
 48
0.1025
370
    13
390
1D
100
AcDbLine
 10
130.254452
 20
102.489294
 30
0.0
 11
130.254452
 21
98.38929400000001
 31
0.0
  0
ARC
  5
1BC
330
A
100
AcDbEntity
  8
Hawa4
 62
     4
370
    13
390
1D
100
AcDbCircle
 10
130.054501
 20
102.489294
 30
0.0
 40
0.2
100
AcDbArc
 50
0.0
 51
45.0
  0
LINE
  5
1BD
330
A
100
AcDbEntity
  8
Hawa4
 62
     4
 48
0.001894
370
    13
390
1D
100
AcDbLine
 10
130.142331
 20
102.684269
 30
0.0
 11
130.19592
 21
102.630714
 31
0.0
  0
ARC
  5
1BE
330
A
100
AcDbEntity
  8
Hawa4
 62
     4
370
    13
390
1D
100
AcDbCircle
 10
130.354489
 20
102.896401
 30
0.0
 40
0.3
100
AcDbArc
 50
180.000005
 51
224.999995
  0
LINE
  5
1BF
330
A
100
AcDbEntity
  8
Hawa4
 62
     4
 48
0.022322
370
    13
390
1D
100
AcDbLine
 10
130.054501
 20
103.789293
 30
0.0
 11
130.054501
 21
102.896401
 31
0.0
  0
ARC
  5
1C0
330
A
100
AcDbEntity
  8
Hawa4
 62
     4
370
    13
390
1D
100
AcDbCircle
 10
130.854489
 20
103.789293
 30
0.0
 40
0.8
100
AcDbArc
 50
90.00000300000001
 51
180.000005
  0
ARC
  5
1C1
330
A
100
AcDbEntity
  8
Hawa4
 62
     4
370
    13
390
1D
100
AcDbCircle
 10
124.554501
 20
105.539293
 30
0.0
 40
1.0
100
AcDbArc
 50
90.00000300000001
 51
180.000005
  0
LINE
  5
1C2
330
A
100
AcDbEntity
  8
Hawa4
 62
     4
 48
0.01375
370
    13
390
1D
100
AcDbLine
 10
125.104489
 20
106.539293
 30
0.0
 11
124.554501
 21
106.539293
 31
0.0
  0
ARC
  5
1C3
330
A
100
AcDbEntity
  8
Hawa4
 62
     4
370
    13
390
1D
100
AcDbCircle
 10
125.104489
 20
106.239294
 30
0.0
 40
0.3
100
AcDbArc
 50
0.00001
 51
90.00000300000001
  0
LINE
  5
1C4
330
A
100
AcDbEntity
  8
Hawa4
 62
     4
 48
0.01625
370
    13
390
1D
100
AcDbLine
 10
125.404477
 20
105.589293
 30
0.0
 11
125.404477
 21
106.239294
 31
0.0
  0
ARC
  5
1C5
330
A
100
AcDbEntity
  8
Hawa4
 62
     4
370
    13
390
1D
100
AcDbCircle
 10
125.204465
 20
105.589293
 30
0.0
 40
0.2
100
AcDbArc
 50
270.000001
 51
0.0
  0
LINE
  5
1C6
330
A
100
AcDbEntity
  8
Hawa4
 62
     4
 48
0.004375
370
    13
390
1D
100
AcDbLine
 10
125.029477
 20
105.389294
 30
0.0
 11
125.204465
 21
105.389294
 31
0.0
  0
ARC
  5
1C7
330
A
100
AcDbEntity
  8
Hawa4
 62
     4
370
    13
390
1D
100
AcDbCircle
 10
125.029477
 20
105.089293
 30
0.0
 40
0.3
100
AcDbArc
 50
90.00000300000001
 51
180.000005
  0
LINE
  5
1C8
330
A
100
AcDbEntity
  8
Hawa4
 62
     4
 48
0.11
370
    13
390
1D
100
AcDbLine
 10
124.729489
 20
105.089293
 30
0.0
 11
124.729489
 21
100.689293
 31
0.0
  0
ARC
  5
1C9
330
A
100
AcDbEntity
  8
Hawa4
 62
     4
370
    13
390
1D
100
AcDbCircle
 10
125.029477
 20
100.689293
 30
0.0
 40
0.3
100
AcDbArc
 50
180.000005
 51
270.000001
  0
LINE
  5
1CA
330
A
100
AcDbEntity
  8
Hawa4
 62
     4
 48
0.010233
370
    13
390
1D
100
AcDbLine
 10
125.438779
 20
100.389294
 30
0.0
 11
125.029477
 21
100.389294
 31
0.0
  0
ARC
  5
1CB
330
A
100
AcDbEntity
  8
Hawa4
 62
     4
370
    13
390
1D
100
AcDbCircle
 10
125.438779
 20
100.189293
 30
0.0
 40
0.2
100
AcDbArc
 50
45.0
 51
90.00000300000001
  0
LINE
  5
1CC
330
A
100
AcDbEntity
  8
Hawa4
 62
     4
 48
0.006465
370
    13
390
1D
100
AcDbLine
 10
125.763058
 20
100.147873
 30
0.0
 11
125.580197
 21
100.330715
 31
0.0
  0
ARC
  5
1CD
330
A
100
AcDbEntity
  8
Hawa4
 62
     4
370
    13
390
1D
100
AcDbCircle
 10
125.904477
 20
100.289293
 30
0.0
 40
0.2
100
AcDbArc
 50
224.999995
 51
314.99999
  0
LINE
  5
1CE
330
A
100
AcDbEntity
  8
Hawa4
 62
     4
 48
0.006465
370
    13
390
1D
100
AcDbLine
 10
126.228757
 20
100.330715
 30
0.0
 11
126.045895
 21
100.147873
 31
0.0
  0
ARC
  5
1CF
330
A
100
AcDbEntity
  8
Hawa4
 62
     4
370
    13
390
1D
100
AcDbCircle
 10
126.370175
 20
100.189293
 30
0.0
 40
0.2
100
AcDbArc
 50
90.00000300000001
 51
135.0
  0
LINE
  5
1D0
330
A
100
AcDbEntity
  8
Hawa4
 62
     4
 48
0.014215
370
    13
390
1D
100
AcDbLine
 10
126.938779
 20
100.389294
 30
0.0
 11
126.370175
 21
100.389294
 31
0.0
  0
ARC
  5
1D1
330
A
100
AcDbEntity
  8
Hawa4
 62
     4
370
    13
390
1D
100
AcDbCircle
 10
126.938779
 20
100.189293
 30
0.0
 40
0.2
100
AcDbArc
 50
45.0
 51
90.00000300000001
  0
LINE
  5
1D2
330
A
100
AcDbEntity
  8
Hawa4
 62
     4
 48
0.006465
370
    13
390
1D
100
AcDbLine
 10
127.263058
 20
100.147873
 30
0.0
 11
127.080197
 21
100.330715
 31
0.0
  0
ARC
  5
1D3
330
A
100
AcDbEntity
  8
Hawa4
 62
     4
370
    13
390
1D
100
AcDbCircle
 10
127.404477
 20
100.289293
 30
0.0
 40
0.2
100
AcDbArc
 50
224.999995
 51
314.99999
  0
LINE
  5
1D4
330
A
100
AcDbEntity
  8
Hawa4
 62
     4
 48
0.006465
370
    13
390
1D
100
AcDbLine
 10
127.728757
 20
100.330715
 30
0.0
 11
127.545895
 21
100.147873
 31
0.0
  0
ARC
  5
1D5
330
A
100
AcDbEntity
  8
Hawa4
 62
     4
370
    13
390
1D
100
AcDbCircle
 10
127.870175
 20
100.189293
 30
0.0
 40
0.2
100
AcDbArc
 50
90.00000300000001
 51
135.0
  0
LINE
  5
1D6
330
A
100
AcDbEntity
  8
Hawa4
 62
     4
 48
0.010233
370
    13
390
1D
100
AcDbLine
 10
128.279477
 20
100.389294
 30
0.0
 11
127.870175
 21
100.389294
 31
0.0
  0
ARC
  5
1D7
330
A
100
AcDbEntity
  8
Hawa4
 62
     4
370
    13
390
1D
100
AcDbCircle
 10
128.279477
 20
100.689293
 30
0.0
 40
0.3
100
AcDbArc
 50
270.000001
 51
0.0
  0
LINE
  5
1D8
330
A
100
AcDbEntity
  8
Hawa4
 62
     4
 48
0.11
370
    13
390
1D
100
AcDbLine
 10
128.579465
 20
105.089293
 30
0.0
 11
128.579465
 21
100.689293
 31
0.0
  0
ARC
  5
1D9
330
A
100
AcDbEntity
  8
Hawa4
 62
     4
370
    13
390
1D
100
AcDbCircle
 10
128.279477
 20
105.089293
 30
0.0
 40
0.3
100
AcDbArc
 50
0.00001
 51
90.00000300000001
  0
LINE
  5
1DA
330
A
100
AcDbEntity
  8
Hawa4
 62
     4
 48
0.004375
370
    13
390
1D
100
AcDbLine
 10
128.104489
 20
105.389294
 30
0.0
 11
128.279477
 21
105.389294
 31
0.0
  0
ARC
  5
1DB
330
A
100
AcDbEntity
  8
Hawa4
 62
     4
370
    13
390
1D
100
AcDbCircle
 10
128.104489
 20
105.589293
 30
0.0
 40
0.2
100
AcDbArc
 50
180.000005
 51
270.000001
  0
LINE
  5
1DC
330
A
100
AcDbEntity
  8
Hawa4
 62
     4
 48
0.01625
370
    13
390
1D
100
AcDbLine
 10
127.904477
 20
106.239294
 30
0.0
 11
127.904477
 21
105.589293
 31
0.0
  0
ARC
  5
1DD
330
A
100
AcDbEntity
  8
Hawa4
 62
     4
370
    13
390
1D
100
AcDbCircle
 10
128.204465
 20
106.239294
 30
0.0
 40
0.3
100
AcDbArc
 50
90.00000300000001
 51
180.000005
  0
LINE
  5
1DE
330
A
100
AcDbEntity
  8
Hawa4
 62
     4
 48
0.221251
370
    13
390
1D
100
AcDbLine
 10
137.054501
 20
106.539293
 30
0.0
 11
128.204465
 21
106.539293
 31
0.0
  0
ARC
  5
1DF
330
A
100
AcDbEntity
  8
Hawa4
 62
     4
370
    13
390
1D
100
AcDbCircle
 10
137.054501
 20
106.039293
 30
0.0
 40
0.5
100
AcDbArc
 50
0.00001
 51
90.00000300000001
  0
LINE
  5
1E0
330
A
100
AcDbEntity
  8
Hawa4
 62
     4
 48
0.02375
370
    13
390
1D
100
AcDbLine
 10
137.554501
 20
105.089293
 30
0.0
 11
137.554501
 21
106.039293
 31
0.0
  0
ARC
  5
1E1
330
A
100
AcDbEntity
  8
Hawa4
 62
     4
370
    13
390
1D
100
AcDbCircle
 10
137.054501
 20
105.089293
 30
0.0
 40
0.5
100
AcDbArc
 50
270.000001
 51
0.0
  0
LINE
  5
1E2
330
A
100
AcDbEntity
  8
Hawa4
 62
     4
 48
0.007501
370
    13
390
1D
100
AcDbLine
 10
136.754452
 20
104.589293
 30
0.0
 11
137.054501
 21
104.589293
 31
0.0
  0
ARC
  5
1E3
330
A
100
AcDbEntity
  8
Hawa4
 62
     4
370
    13
390
1D
100
AcDbCircle
 10
136.754452
 20
104.789293
 30
0.0
 40
0.2
100
AcDbArc
 50
180.000005
 51
270.000001
  0
ARC
  5
1E4
330
A
100
AcDbEntity
  8
Hawa4
 62
     4
370
    13
390
1D
100
AcDbCircle
 10
136.354489
 20
104.789293
 30
0.0
 40
0.2
100
AcDbArc
 50
0.00001
 51
90.00000300000001
  0
LINE
  5
1E5
330
A
100
AcDbEntity
  8
Hawa4
 62
     4
 48
0.045
370
    13
390
1D
100
AcDbLine
 10
134.554501
 20
104.989294
 30
0.0
 11
136.354489
 21
104.989294
 31
0.0
  0
ARC
  5
1E6
330
A
100
AcDbEntity
  8
Hawa4
 62
     4
370
    13
390
1D
100
AcDbCircle
 10
134.554501
 20
104.789293
 30
0.0
 40
0.2
100
AcDbArc
 50
90.00000300000001
 51
180.000005
  0
ARC
  5
1E7
330
A
100
AcDbEntity
  8
Hawa4
 62
     4
370
    13
390
1D
100
AcDbCircle
 10
134.154477
 20
104.789293
 30
0.0
 40
0.2
100
AcDbArc
 50
270.000001
 51
0.0
  0
LINE
  5
1E8
330
A
100
AcDbEntity
  8
Hawa4
 62
     4
 48
0.089999
370
    13
390
1D
100
AcDbLine
 10
130.554501
 20
104.589293
 30
0.0
 11
134.154477
 21
104.589293
 31
0.0
  0
ARC
  5
1E9
330
A
100
AcDbEntity
  8
Hawa4
 62
     4
370
    13
390
1D
100
AcDbCircle
 10
130.554501
 20
104.089293
 30
0.0
 40
0.5
100
AcDbArc
 50
90.00000300000001
 51
180.000005
  0
LINE
  5
1EA
330
A
100
AcDbEntity
  8
Hawa4
 62
     4
 48
0.034393
370
    13
390
1D
100
AcDbLine
 10
130.054501
 20
102.713558
 30
0.0
 11
130.054501
 21
104.089293
 31
0.0
  0
ARC
  5
1EB
330
A
100
AcDbEntity
  8
Hawa4
 62
     4
370
    13
390
1D
100
AcDbCircle
 10
130.354489
 20
102.713558
 30
0.0
 40
0.3
100
AcDbArc
 50
180.000005
 51
224.999995
  0
LINE
  5
1EC
330
A
100
AcDbEntity
  8
Hawa4
 62
     4
 48
0.000858
370
    13
390
1D
100
AcDbLine
 10
130.166623
 20
102.477161
 30
0.0
 11
130.142331
 21
102.501425
 31
0.0
  0
ARC
  5
1ED
330
A
100
AcDbEntity
  8
Hawa4
 62
     4
370
    13
390
1D
100
AcDbCircle
 10
129.954465
 20
102.26503
 30
0.0
 40
0.3
100
AcDbArc
 50
0.00001
 51
45.0
  0
LINE
  5
1EE
330
A
100
AcDbEntity
  8
Hawa4
 62
     4
 48
0.089393
370
    13
390
1D
100
AcDbLine
 10
130.254452
 20
98.68929300000001
 30
0.0
 11
130.254452
 21
102.26503
 31
0.0
  0
LINE
  5
1EF
330
A
100
AcDbEntity
  8
Hawa4
 62
     4
 48
0.010606
370
    13
390
1D
100
AcDbLine
 10
130.254452
 20
98.68929300000001
 30
0.0
 11
129.954465
 21
98.38929400000001
 31
0.0
  0
LINE
  5
1F0
330
A
100
AcDbEntity
  8
Hawa4
 62
     4
 48
0.010606
370
    13
390
1D
100
AcDbLine
 10
130.254452
 20
98.08929300000002
 30
0.0
 11
129.954465
 21
98.38929400000001
 31
0.0
  0
LINE
  5
1F1
330
A
100
AcDbEntity
  8
Hawa4
 62
     4
 48
0.089393
370
    13
390
1D
100
AcDbLine
 10
130.254452
 20
94.51355799999999
 30
0.0
 11
130.254452
 21
98.08929300000002
 31
0.0
  0
ARC
  5
1F2
330
A
100
AcDbEntity
  8
Hawa4
 62
     4
370
    13
390
1D
100
AcDbCircle
 10
129.954465
 20
94.51355799999999
 30
0.0
 40
0.3
100
AcDbArc
 50
314.99999
 51
0.0
  0
LINE
  5
1F3
330
A
100
AcDbEntity
  8
Hawa4
 62
     4
 48
0.000858
370
    13
390
1D
100
AcDbLine
 10
130.142331
 20
94.277163
 30
0.0
 11
130.166623
 21
94.30142399999999
 31
0.0
  0
ARC
  5
1F4
330
A
100
AcDbEntity
  8
Hawa4
 62
     4
370
    13
390
1D
100
AcDbCircle
 10
130.354489
 20
94.065031
 30
0.0
 40
0.3
100
AcDbArc
 50
135.0
 51
180.000005
  0
LINE
  5
1F5
330
A
100
AcDbEntity
  8
Hawa4
 62
     4
 48
0.034393
370
    13
390
1D
100
AcDbLine
 10
130.054501
 20
92.689295
 30
0.0
 11
130.054501
 21
94.065031
 31
0.0
  0
ARC
  5
1F6
330
A
100
AcDbEntity
  8
Hawa4
 62
     4
370
    13
390
1D
100
AcDbCircle
 10
130.554501
 20
92.689295
 30
0.0
 40
0.5
100
AcDbArc
 50
180.000005
 51
270.000001
  0
LINE
  5
1F7
330
A
100
AcDbEntity
  8
Hawa4
 62
     4
 48
0.089999
370
    13
390
1D
100
AcDbLine
 10
134.154477
 20
92.18929499999999
 30
0.0
 11
130.554501
 21
92.18929499999999
 31
0.0
  0
ARC
  5
1F8
330
A
100
AcDbEntity
  8
Hawa4
 62
     4
370
    13
390
1D
100
AcDbCircle
 10
134.154477
 20
91.989294
 30
0.0
 40
0.2
100
AcDbArc
 50
0.00001
 51
90.00000300000001
  0
ARC
  5
1F9
330
A
100
AcDbEntity
  8
Hawa4
 62
     4
370
    13
390
1D
100
AcDbCircle
 10
134.554501
 20
91.989294
 30
0.0
 40
0.2
100
AcDbArc
 50
180.000005
 51
270.000001
  0
LINE
  5
1FA
330
A
100
AcDbEntity
  8
Hawa4
 62
     4
 48
0.045
370
    13
390
1D
100
AcDbLine
 10
136.354489
 20
91.789293
 30
0.0
 11
134.554501
 21
91.789293
 31
0.0
  0
ARC
  5
1FB
330
A
100
AcDbEntity
  8
Hawa4
 62
     4
370
    13
390
1D
100
AcDbCircle
 10
136.354489
 20
91.989294
 30
0.0
 40
0.2
100
AcDbArc
 50
270.000001
 51
0.0
  0
ARC
  5
1FC
330
A
100
AcDbEntity
  8
Hawa4
 62
     4
370
    13
390
1D
100
AcDbCircle
 10
136.754452
 20
91.989294
 30
0.0
 40
0.2
100
AcDbArc
 50
90.00000300000001
 51
180.000005
  0
LINE
  5
1FD
330
A
100
AcDbEntity
  8
Hawa4
 62
     4
 48
0.007501
370
    13
390
1D
100
AcDbLine
 10
137.054501
 20
92.18929499999999
 30
0.0
 11
136.754452
 21
92.18929499999999
 31
0.0
  0
ARC
  5
1FE
330
A
100
AcDbEntity
  8
Hawa4
 62
     4
370
    13
390
1D
100
AcDbCircle
 10
137.054501
 20
91.689295
 30
0.0
 40
0.5
100
AcDbArc
 50
0.00001
 51
90.00000300000001
  0
LINE
  5
1FF
330
A
100
AcDbEntity
  8
Hawa4
 62
     4
 48
0.02375
370
    13
390
1D
100
AcDbLine
 10
137.554501
 20
90.739294
 30
0.0
 11
137.554501
 21
91.689295
 31
0.0
  0
ARC
  5
200
330
A
100
AcDbEntity
  8
Hawa4
 62
     4
370
    13
390
1D
100
AcDbCircle
 10
137.054501
 20
90.739294
 30
0.0
 40
0.5
100
AcDbArc
 50
270.000001
 51
0.0
  0
LINE
  5
201
330
A
100
AcDbEntity
  8
Hawa4
 62
     4
 48
0.3125
370
    13
390
1D
100
AcDbLine
 10
124.554501
 20
90.239294
 30
0.0
 11
137.054501
 21
90.239294
 31
0.0
  0
ARC
  5
202
330
A
100
AcDbEntity
  8
Hawa4
 62
     4
370
    13
390
1D
100
AcDbCircle
 10
124.554501
 20
91.23929399999999
 30
0.0
 40
1.0
100
AcDbArc
 50
180.000005
 51
270.000001
  0
LINE
  5
203
330
A
100
AcDbEntity
  8
Hawa4
 62
     4
 48
0.3575
370
    13
390
1D
100
AcDbLine
 10
123.554501
 20
105.539293
 30
0.0
 11
123.554501
 21
91.23929399999999
 31
0.0
  0
LINE
  5
204
330
A
100
AcDbEntity
  8
Hawa5
 62
     1
 48
0.2
370
    13
390
1D
100
AcDbLine
 10
131.004452
 20
102.38854
 30
0.0
 11
131.004452
 21
94.38854
 31
0.0
  0
DIMENSION
  5
206
330
A
100
AcDbEntity
  8
HAWA1
 62
     0
370
     0
390
1D
100
AcDbDimension
  2
*D12
 10
216.224483244936
 20
103.38854
 30
0.0
 11
216.224483244936
 21
77.22844815897599
 31
0.0
 70
   161
  1
-12 [{\H0.7x;\S15/32;}"]
 71
     5
 42
10.0
 52
89.999523
  3
HAWA-Strich
100
AcDbAlignedDimension
 13
208.554482
 23
93.38854000000001
 33
0.0
 14
208.554482
 24
103.38854
 34
0.0
  0
DIMENSION
  5
208
330
A
100
AcDbEntity
  8
HAWA1
 62
     0
370
     0
390
1D
100
AcDbDimension
  2
*D13
 10
216.224483244936
 20
103.38854
 30
0.0
 11
216.2244832449359
 21
62.89261171475778
 31
0.0
 70
   161
  1
8 [{\H0.7x;\S5/16;}"]
 71
     5
 42
10.0
 52
89.999523
  3
HAWA-Strich
100
AcDbAlignedDimension
 13
208.554482
 23
93.38854000000001
 33
0.0
 14
208.554482
 24
103.38854
 34
0.0
  0
DIMENSION
  5
20A
330
A
100
AcDbEntity
  8
HAWA1
 62
     0
370
     0
390
1D
100
AcDbDimension
  2
*D14
 10
258.5046376274821
 20
113.0619141571679
 30
0.0
 11
268.6388460007603
 21
117.5067762814858
 31
0.0
 70
    32
 71
     5
 42
2.499576407596919
 52
89.999523
  3
HAWA-Strich
100
AcDbAlignedDimension
 13
256.004482
 23
95.66842599999999
 33
0.0
 14
258.504482
 24
108.38854
 34
0.0
 50
359.998092
100
AcDbRotatedDimension
  0
DIMENSION
  5
20C
330
A
100
AcDbEntity
  8
HAWA1
 62
     0
370
     0
390
1D
100
AcDbDimension
  2
*D15
 10
258.504482
 20
63.65568399999999
 30
0.0
 11
267.7581047079298
 21
68.09918509959071
 31
0.0
 70
    33
 71
     5
 42
14.0
 52
89.999523
  3
HAWA-Strich
100
AcDbAlignedDimension
 13
244.504482
 23
88.38854000000003
 33
0.0
 14
258.504482
 24
88.38854000000003
 34
0.0
  0
DIMENSION
  5
20E
330
A
100
AcDbEntity
  8
HAWA1
 62
     0
370
     0
390
1D
100
AcDbDimension
  2
*D16
 10
285.103847
 20
87.88854
 30
0.0
 11
280.6594966502388
 21
98.38854000000004
 31
0.0
 70
    33
 71
     5
 42
20.99999999999999
 52
89.999523
  3
HAWA-Strich
100
AcDbAlignedDimension
 13
258.004482
 23
108.88854
 33
0.0
 14
258.004482
 24
87.88854
 34
0.0
  0
DIMENSION
  5
210
330
A
100
AcDbEntity
  8
HAWA1
 62
     0
370
     0
390
1D
100
AcDbDimension
  2
*D17
 10
258.5053209348992
 20
133.5811128455209
 30
0.0
 11
268.6126690664183
 21
137.9826641055874
 31
0.0
 70
    32
 71
     5
 42
5.499800191657698
 52
89.999523
  3
HAWA-Strich
100
AcDbAlignedDimension
 13
253.004482
 23
102.38854
 33
0.0
 14
258.504482
 24
108.38854
 34
0.0
 50
359.998092
100
AcDbRotatedDimension
  0
LINE
  5
211
330
A
100
AcDbEntity
  8
Hawa5
  6
DASHDOT
 62
     1
370
    13
390
1D
100
AcDbLine
 10
252.749837
 20
98.38854000000001
 30
0.0
 11
208.647938
 21
98.38854000000001
 31
0.0
  0
LINE
  5
212
330
A
100
AcDbEntity
  8
Hawa5
 62
     1
 48
0.30755
370
    13
390
1D
100
AcDbLine
 10
253.004483
 20
104.243576
 30
0.0
 11
256.004483
 21
92.31296699999999
 31
0.0
  0
LINE
  5
213
330
A
100
AcDbEntity
  8
Hawa5
 62
     1
 48
0.311063
370
    13
390
1D
100
AcDbLine
 10
253.004483
 20
92.24357799999999
 30
0.0
 11
256.004483
 21
104.319008
 31
0.0
  0
LINE
  5
214
330
A
100
AcDbEntity
  8
Hawa5
  6
PHANTOM
 62
     1
370
    13
390
1D
100
AcDbLine
 10
208.554478
 20
136.38854
 30
0.0
 11
208.554478
 21
82.88854
 31
0.0
  0
LINE
  5
215
330
A
100
AcDbEntity
  8
Hawa5
  6
DASHSPACE
 62
     1
370
    13
390
1D
100
AcDbLine
 10
208.554478
 20
131.3885399999999
 30
0.0
 11
241.554482
 21
131.3885399999999
 31
0.0
  0
LINE
  5
216
330
A
100
AcDbEntity
  8
Hawa5
  6
DASHSPACE
 62
     1
 48
0.035355
370
    13
390
1D
100
AcDbLine
 10
241.554482
 20
131.3885399999999
 30
0.0
 11
242.554482
 21
130.3885399999999
 31
0.0
  0
LINE
  5
217
330
A
100
AcDbEntity
  8
Hawa5
  6
DASHSPACE
 62
     1
 48
0.2
370
    13
390
1D
100
AcDbLine
 10
242.554482
 20
130.3885399999999
 30
0.0
 11
242.554482
 21
122.38854
 31
0.0
  0
LINE
  5
218
330
A
100
AcDbEntity
  8
Hawa5
  6
DASHSPACE
 62
     1
 48
0.035355
370
    13
390
1D
100
AcDbLine
 10
242.554482
 20
122.38854
 30
0.0
 11
241.554482
 21
121.38854
 31
0.0
  0
LINE
  5
219
330
A
100
AcDbEntity
  8
Hawa5
  6
DASHSPACE
 62
     1
370
    13
390
1D
100
AcDbLine
 10
241.554482
 20
121.38854
 30
0.0
 11
208.554478
 21
121.38854
 31
0.0
  0
LINE
  5
21A
330
A
100
AcDbEntity
  8
Hawa6
  6
PHANTOM
 62
     3
 48
0.00625
370
    13
390
1D
100
AcDbLine
 10
208.554478
 20
87.88854
 30
0.0
 11
208.554478
 21
88.13854
 31
0.0
  0
LINE
  5
21B
330
A
100
AcDbEntity
  8
Hawa6
  6
PHANTOM
 62
     3
 48
0.00625
370
    13
390
1D
100
AcDbLine
 10
208.554478
 20
108.63854
 30
0.0
 11
208.554478
 21
108.88854
 31
0.0
  0
LINE
  5
21C
330
A
100
AcDbEntity
  8
Hawa4
 62
     4
 48
0.005715
370
    13
390
1D
100
AcDbLine
 10
244.504483
 20
88.37647399999999
 30
0.0
 11
244.504483
 21
88.14788599999998
 31
0.0
  0
LINE
  5
21D
330
A
100
AcDbEntity
  8
Hawa4
 62
     4
 48
0.00625
370
    13
390
1D
100
AcDbLine
 10
244.504483
 20
88.13854
 30
0.0
 11
244.504483
 21
87.88854
 31
0.0
  0
LINE
  5
21E
330
A
100
AcDbEntity
  8
Hawa4
 62
     4
 48
0.0075
370
    13
390
1D
100
AcDbLine
 10
244.504483
 20
90.13854
 30
0.0
 11
244.504483
 21
89.838541
 31
0.0
  0
LINE
  5
21F
330
A
100
AcDbEntity
  8
Hawa4
 62
     4
 48
0.05125
370
    13
390
1D
100
AcDbLine
 10
244.504483
 20
91.338392
 30
0.0
 11
244.504483
 21
93.38839499999997
 31
0.0
  0
LINE
  5
220
330
A
100
AcDbEntity
  8
Hawa4
 62
     4
 48
0.05125
370
    13
390
1D
100
AcDbLine
 10
244.504483
 20
103.388393
 30
0.0
 11
244.504483
 21
105.438395
 31
0.0
  0
LINE
  5
221
330
A
100
AcDbEntity
  8
Hawa4
 62
     4
 48
0.0075
370
    13
390
1D
100
AcDbLine
 10
244.504483
 20
106.93854
 30
0.0
 11
244.504483
 21
106.63854
 31
0.0
  0
LINE
  5
222
330
A
100
AcDbEntity
  8
Hawa4
 62
     4
 48
0.006228
370
    13
390
1D
100
AcDbLine
 10
244.504483
 20
108.88854
 30
0.0
 11
244.504483
 21
108.639416
 31
0.0
  0
LINE
  5
223
330
A
100
AcDbEntity
  8
Hawa4
 62
     4
 48
0.005724
370
    13
390
1D
100
AcDbLine
 10
244.504483
 20
108.629269
 30
0.0
 11
244.504483
 21
108.400328
 31
0.0
  0
LINE
  5
224
330
A
100
AcDbEntity
  8
Hawa6
 62
     3
370
    13
390
1D
100
AcDbLine
 10
244.504483
 20
108.88854
 30
0.0
 11
208.554478
 21
108.88854
 31
0.0
  0
LINE
  5
225
330
A
100
AcDbEntity
  8
Hawa6
 62
     3
370
    13
390
1D
100
AcDbLine
 10
244.504483
 20
87.88854
 30
0.0
 11
208.554478
 21
87.88854
 31
0.0
  0
LINE
  5
226
330
A
100
AcDbEntity
  8
Hawa5
 62
     1
370
    13
390
1D
100
AcDbLine
 10
252.004483
 20
103.38854
 30
0.0
 11
208.554478
 21
103.38854
 31
0.0
  0
LINE
  5
227
330
A
100
AcDbEntity
  8
Hawa5
 62
     1
 48
0.035355
370
    13
390
1D
100
AcDbLine
 10
253.004483
 20
102.38854
 30
0.0
 11
252.004483
 21
103.38854
 31
0.0
  0
LINE
  5
228
330
A
100
AcDbEntity
  8
Hawa4
 62
     4
 48
0.2
370
    13
390
1D
100
AcDbLine
 10
253.004483
 20
94.38854
 30
0.0
 11
253.004483
 21
102.38854
 31
0.0
  0
LINE
  5
229
330
A
100
AcDbEntity
  8
Hawa5
 62
     1
 48
0.035355
370
    13
390
1D
100
AcDbLine
 10
253.004483
 20
94.38854
 30
0.0
 11
252.004483
 21
93.38854000000001
 31
0.0
  0
LINE
  5
22A
330
A
100
AcDbEntity
  8
Hawa5
 62
     1
370
    13
390
1D
100
AcDbLine
 10
252.004483
 20
93.38854000000001
 30
0.0
 11
208.554478
 21
93.38854000000001
 31
0.0
  0
LINE
  5
22B
330
A
100
AcDbEntity
  8
Hawa6
  6
PHANTOM
 62
     3
 48
0.000094
370
    13
390
1D
100
AcDbLine
 10
208.554478
 20
93.382284
 30
0.0
 11
208.554478
 21
93.386057
 31
0.0
  0
LINE
  5
22C
330
A
100
AcDbEntity
  8
Hawa6
  6
PHANTOM
 62
     3
 48
0.009301
370
    13
390
1D
100
AcDbLine
 10
208.554478
 20
93.01025199999999
 30
0.0
 11
208.554478
 21
93.382292
 31
0.0
  0
LINE
  5
22D
330
A
100
AcDbEntity
  8
Hawa6
  6
PHANTOM
 62
     3
 48
0.009069
370
    13
390
1D
100
AcDbLine
 10
208.554478
 20
88.13854
 30
0.0
 11
208.554478
 21
88.501314
 31
0.0
  0
LINE
  5
22E
330
A
100
AcDbEntity
  8
Hawa4
 62
     4
 48
0.000094
370
    13
390
1D
100
AcDbLine
 10
244.504483
 20
93.382284
 30
0.0
 11
244.504483
 21
93.386057
 31
0.0
  0
LINE
  5
22F
330
A
100
AcDbEntity
  8
Hawa4
 62
     4
 48
0.009301
370
    13
390
1D
100
AcDbLine
 10
244.504483
 20
93.01025199999999
 30
0.0
 11
244.504483
 21
93.382292
 31
0.0
  0
LINE
  5
230
330
A
100
AcDbEntity
  8
Hawa4
 62
     4
 48
0.041792
370
    13
390
1D
100
AcDbLine
 10
244.504483
 20
91.33856800000001
 30
0.0
 11
244.504483
 21
93.01025199999999
 31
0.0
  0
LINE
  5
232
330
A
100
AcDbEntity
  8
Hawa4
 62
     4
 48
0.004416
370
    13
390
1D
100
AcDbLine
 10
244.504483
 20
88.138815
 30
0.0
 11
244.504483
 21
88.31546600000001
 31
0.0
  0
LINE
  5
233
330
A
100
AcDbEntity
  8
Hawa6
 62
     3
370
    13
390
1D
100
AcDbLine
 10
208.554478
 20
93.386057
 30
0.0
 11
239.754754
 21
93.386057
 31
0.0
  0
LINE
  5
234
330
A
100
AcDbEntity
  8
Hawa4
 62
     4
 48
0.118316
370
    13
390
1D
100
AcDbLine
 10
239.771844
 20
93.386057
 30
0.0
 11
244.504483
 21
93.386057
 31
0.0
  0
LINE
  5
235
330
A
100
AcDbEntity
  8
Hawa6
 62
     3
370
    13
390
1D
100
AcDbLine
 10
208.554478
 20
93.01025199999999
 30
0.0
 11
239.546563
 21
93.01025199999999
 31
0.0
  0
LINE
  5
236
330
A
100
AcDbEntity
  8
Hawa4
 62
     4
 48
0.106228
370
    13
390
1D
100
AcDbLine
 10
240.255368
 20
93.01025199999999
 30
0.0
 11
244.504483
 21
93.01025199999999
 31
0.0
  0
LINE
  5
237
330
A
100
AcDbEntity
  8
Hawa6
 62
     3
370
    13
390
1D
100
AcDbLine
 10
208.554478
 20
88.501314
 30
0.0
 11
243.231801
 21
88.501314
 31
0.0
  0
LINE
  5
238
330
A
100
AcDbEntity
  8
Hawa4
 62
     4
 48
0.004807
370
    13
390
1D
100
AcDbLine
 10
244.312188
 20
88.501314
 30
0.0
 11
244.504483
 21
88.501314
 31
0.0
  0
LINE
  5
239
330
A
100
AcDbEntity
  8
Hawa6
 62
     3
370
    13
390
1D
100
AcDbLine
 10
208.554478
 20
88.13854
 30
0.0
 11
244.189732
 21
88.13854
 31
0.0
  0
LINE
  5
23A
330
A
100
AcDbEntity
  8
Hawa5
 62
     1
370
    13
390
1D
100
AcDbLine
 10
208.554478
 20
93.382292
 30
0.0
 11
239.738782
 21
93.382292
 31
0.0
  0
LINE
  5
23B
330
A
100
AcDbEntity
  8
Hawa5
 62
     1
 48
0.117984
370
    13
390
1D
100
AcDbLine
 10
239.785104
 20
93.382292
 30
0.0
 11
244.504483
 21
93.382292
 31
0.0
  0
LINE
  5
23C
330
A
100
AcDbEntity
  8
Hawa6
  6
PHANTOM
 62
     3
 48
0.009069
370
    13
390
1D
100
AcDbLine
 10
208.554478
 20
108.275766
 30
0.0
 11
208.554478
 21
108.63854
 31
0.0
  0
LINE
  5
23D
330
A
100
AcDbEntity
  8
Hawa6
  6
PHANTOM
 62
     3
 48
0.009301
370
    13
390
1D
100
AcDbLine
 10
208.554478
 20
103.394789
 30
0.0
 11
208.554478
 21
103.766827
 31
0.0
  0
LINE
  5
23E
330
A
100
AcDbEntity
  8
Hawa6
  6
PHANTOM
 62
     3
 48
0.000094
370
    13
390
1D
100
AcDbLine
 10
208.554478
 20
103.394781
 30
0.0
 11
208.554478
 21
103.391026
 31
0.0
  0
LINE
  5
23F
330
A
100
AcDbEntity
  8
Hawa4
 62
     4
 48
0.000094
370
    13
390
1D
100
AcDbLine
 10
244.504483
 20
103.394781
 30
0.0
 11
244.504483
 21
103.391026
 31
0.0
  0
LINE
  5
240
330
A
100
AcDbEntity
  8
Hawa4
 62
     4
 48
0.009301
370
    13
390
1D
100
AcDbLine
 10
244.504483
 20
103.766827
 30
0.0
 11
244.504483
 21
103.394789
 31
0.0
  0
LINE
  5
241
330
A
100
AcDbEntity
  8
Hawa4
 62
     4
 48
0.041792
370
    13
390
1D
100
AcDbLine
 10
244.504483
 20
105.438515
 30
0.0
 11
244.504483
 21
103.766827
 31
0.0
  0
LINE
  5
242
330
A
100
AcDbEntity
  8
Hawa4
 62
     4
 48
0.00749
370
    13
390
1D
100
AcDbLine
 10
244.504483
 20
106.93812
 30
0.0
 11
244.504483
 21
106.63851
 31
0.0
  0
LINE
  5
243
330
A
100
AcDbEntity
  8
Hawa4
 62
     4
 48
0.006257
370
    13
390
1D
100
AcDbLine
 10
244.504483
 20
108.638249
 30
0.0
 11
244.504483
 21
108.387959
 31
0.0
  0
LINE
  5
244
330
A
100
AcDbEntity
  8
Hawa4
 62
     4
 48
0.118293
370
    13
390
1D
100
AcDbLine
 10
244.504483
 20
103.391026
 30
0.0
 11
239.772748
 21
103.391026
 31
0.0
  0
LINE
  5
245
330
A
100
AcDbEntity
  8
Hawa6
 62
     3
370
    13
390
1D
100
AcDbLine
 10
239.753541
 20
103.391026
 30
0.0
 11
208.554478
 21
103.391026
 31
0.0
  0
LINE
  5
246
330
A
100
AcDbEntity
  8
Hawa4
 62
     4
 48
0.10622
370
    13
390
1D
100
AcDbLine
 10
244.504483
 20
103.766827
 30
0.0
 11
240.255669
 21
103.766827
 31
0.0
  0
LINE
  5
247
330
A
100
AcDbEntity
  8
Hawa6
 62
     3
370
    13
390
1D
100
AcDbLine
 10
239.546712
 20
103.766827
 30
0.0
 11
208.554478
 21
103.766827
 31
0.0
  0
LINE
  5
248
330
A
100
AcDbEntity
  8
Hawa4
 62
     4
 48
0.004804
370
    13
390
1D
100
AcDbLine
 10
244.504483
 20
108.275766
 30
0.0
 11
244.312337
 21
108.275766
 31
0.0
  0
LINE
  5
249
330
A
100
AcDbEntity
  8
Hawa6
 62
     3
370
    13
390
1D
100
AcDbLine
 10
243.232117
 20
108.275766
 30
0.0
 11
208.554478
 21
108.275766
 31
0.0
  0
LINE
  5
24A
330
A
100
AcDbEntity
  8
Hawa6
 62
     3
370
    13
390
1D
100
AcDbLine
 10
244.504483
 20
108.63854
 30
0.0
 11
208.554478
 21
108.63854
 31
0.0
  0
LINE
  5
24B
330
A
100
AcDbEntity
  8
Hawa5
 62
     1
 48
0.117958
370
    13
390
1D
100
AcDbLine
 10
244.504483
 20
103.394789
 30
0.0
 11
239.786179
 21
103.394789
 31
0.0
  0
LINE
  5
24C
330
A
100
AcDbEntity
  8
Hawa5
 62
     1
370
    13
390
1D
100
AcDbLine
 10
239.737649
 20
103.394789
 30
0.0
 11
208.554478
 21
103.394789
 31
0.0
  0
LINE
  5
24D
330
A
100
AcDbEntity
  8
Hawa4
 62
     4
 48
0.03625
370
    13
390
1D
100
AcDbLine
 10
244.504483
 20
89.838541
 30
0.0
 11
244.504483
 21
88.38854000000003
 31
0.0
  0
ARC
  5
24E
330
A
100
AcDbEntity
  8
Hawa4
 62
     4
370
    13
390
1D
100
AcDbCircle
 10
244.804482
 20
89.838541
 30
0.0
 40
0.3
100
AcDbArc
 50
90.00000300000001
 51
180.000005
  0
LINE
  5
24F
330
A
100
AcDbEntity
  8
Hawa4
 62
     4
 48
0.049393
370
    13
390
1D
100
AcDbLine
 10
244.804482
 20
90.13854
 30
0.0
 11
246.780217
 21
90.13854
 31
0.0
  0
LINE
  5
250
330
A
100
AcDbEntity
  8
Hawa4
 62
     4
 48
0.018107
370
    13
390
1D
100
AcDbLine
 10
246.780217
 20
90.13854
 30
0.0
 11
247.292348
 21
89.62640999999996
 31
0.0
  0
ARC
  5
251
330
A
100
AcDbEntity
  8
Hawa4
 62
     4
370
    13
390
1D
100
AcDbCircle
 10
247.504483
 20
89.838541
 30
0.0
 40
0.3
100
AcDbArc
 50
224.999995
 51
314.99999
  0
LINE
  5
252
330
A
100
AcDbEntity
  8
Hawa4
 62
     4
 48
0.018107
370
    13
390
1D
100
AcDbLine
 10
247.716614
 20
89.62640999999996
 30
0.0
 11
248.228745
 21
90.13854
 31
0.0
  0
LINE
  5
253
330
A
100
AcDbEntity
  8
Hawa4
 62
     4
 48
0.051286
370
    13
390
1D
100
AcDbLine
 10
248.228745
 20
90.13854
 30
0.0
 11
250.280202
 21
90.13854
 31
0.0
  0
LINE
  5
254
330
A
100
AcDbEntity
  8
Hawa4
 62
     4
 48
0.018107
370
    13
390
1D
100
AcDbLine
 10
250.280202
 20
90.13854
 30
0.0
 11
250.792332
 21
89.62640999999996
 31
0.0
  0
ARC
  5
255
330
A
100
AcDbEntity
  8
Hawa4
 62
     4
370
    13
390
1D
100
AcDbCircle
 10
251.004464
 20
89.838541
 30
0.0
 40
0.3
100
AcDbArc
 50
224.999995
 51
314.99999
  0
LINE
  5
256
330
A
100
AcDbEntity
  8
Hawa4
 62
     4
 48
0.018107
370
    13
390
1D
100
AcDbLine
 10
251.216595
 20
89.62640999999996
 30
0.0
 11
251.72873
 21
90.13854
 31
0.0
  0
LINE
  5
257
330
A
100
AcDbEntity
  8
Hawa4
 62
     4
 48
0.094394
370
    13
390
1D
100
AcDbLine
 10
251.72873
 20
90.13854
 30
0.0
 11
255.504483
 21
90.13854
 31
0.0
  0
ARC
  5
258
330
A
100
AcDbEntity
  8
Hawa4
 62
     4
370
    13
390
1D
100
AcDbCircle
 10
255.504483
 20
90.63854
 30
0.0
 40
0.5
100
AcDbArc
 50
270.000001
 51
0.0
  0
LINE
  5
259
330
A
100
AcDbEntity
  8
Hawa4
 62
     4
 48
0.125747
370
    13
390
1D
100
AcDbLine
 10
256.004483
 20
95.668427
 30
0.0
 11
256.004483
 21
90.63854
 31
0.0
  0
LINE
  5
25A
330
A
100
AcDbEntity
  8
Hawa4
 62
     4
 48
0.010607
370
    13
390
1D
100
AcDbLine
 10
256.304482
 20
95.968426
 30
0.0
 11
256.004483
 21
95.668427
 31
0.0
  0
LINE
  5
25B
330
A
100
AcDbEntity
  8
Hawa4
 62
     4
 48
0.010607
370
    13
390
1D
100
AcDbLine
 10
256.004483
 20
96.268425
 30
0.0
 11
256.304482
 21
95.968426
 31
0.0
  0
LINE
  5
25C
330
A
100
AcDbEntity
  8
Hawa4
 62
     4
 48
0.045503
370
    13
390
1D
100
AcDbLine
 10
256.004483
 20
98.08854100000001
 30
0.0
 11
256.004483
 21
96.268425
 31
0.0
  0
LINE
  5
25D
330
A
100
AcDbEntity
  8
Hawa4
 62
     4
 48
0.010607
370
    13
390
1D
100
AcDbLine
 10
256.304482
 20
98.38854000000001
 30
0.0
 11
256.004483
 21
98.08854100000001
 31
0.0
  0
LINE
  5
25E
330
A
100
AcDbEntity
  8
Hawa4
 62
     4
 48
0.010607
370
    13
390
1D
100
AcDbLine
 10
256.004483
 20
98.68854
 30
0.0
 11
256.304482
 21
98.38854000000001
 31
0.0
  0
LINE
  5
25F
330
A
100
AcDbEntity
  8
Hawa4
 62
     4
 48
0.18625
370
    13
390
1D
100
AcDbLine
 10
256.004483
 20
106.13854
 30
0.0
 11
256.004483
 21
98.68854
 31
0.0
  0
ARC
  5
260
330
A
100
AcDbEntity
  8
Hawa4
 62
     4
370
    13
390
1D
100
AcDbCircle
 10
255.504483
 20
106.13854
 30
0.0
 40
0.5
100
AcDbArc
 50
0.00001
 51
90.00000300000001
  0
LINE
  5
261
330
A
100
AcDbEntity
  8
Hawa4
 62
     4
 48
0.094394
370
    13
390
1D
100
AcDbLine
 10
255.504483
 20
106.63854
 30
0.0
 11
251.72873
 21
106.63854
 31
0.0
  0
LINE
  5
262
330
A
100
AcDbEntity
  8
Hawa4
 62
     4
 48
0.018107
370
    13
390
1D
100
AcDbLine
 10
251.216595
 20
107.150673
 30
0.0
 11
251.72873
 21
106.63854
 31
0.0
  0
ARC
  5
263
330
A
100
AcDbEntity
  8
Hawa4
 62
     4
370
    13
390
1D
100
AcDbCircle
 10
251.004464
 20
106.93854
 30
0.0
 40
0.3
100
AcDbArc
 50
45.0
 51
135.0
  0
LINE
  5
264
330
A
100
AcDbEntity
  8
Hawa4
 62
     4
 48
0.018107
370
    13
390
1D
100
AcDbLine
 10
250.280202
 20
106.63854
 30
0.0
 11
250.792332
 21
107.150673
 31
0.0
  0
LINE
  5
265
330
A
100
AcDbEntity
  8
Hawa4
 62
     4
 48
0.051286
370
    13
390
1D
100
AcDbLine
 10
250.280202
 20
106.63854
 30
0.0
 11
248.228745
 21
106.63854
 31
0.0
  0
LINE
  5
266
330
A
100
AcDbEntity
  8
Hawa4
 62
     4
 48
0.018107
370
    13
390
1D
100
AcDbLine
 10
247.716614
 20
107.150673
 30
0.0
 11
248.228745
 21
106.63854
 31
0.0
  0
ARC
  5
267
330
A
100
AcDbEntity
  8
Hawa4
 62
     4
370
    13
390
1D
100
AcDbCircle
 10
247.504483
 20
106.93854
 30
0.0
 40
0.3
100
AcDbArc
 50
45.0
 51
135.0
  0
LINE
  5
268
330
A
100
AcDbEntity
  8
Hawa4
 62
     4
 48
0.018107
370
    13
390
1D
100
AcDbLine
 10
246.780217
 20
106.63854
 30
0.0
 11
247.292348
 21
107.150673
 31
0.0
  0
LINE
  5
269
330
A
100
AcDbEntity
  8
Hawa4
 62
     4
 48
0.049393
370
    13
390
1D
100
AcDbLine
 10
246.780217
 20
106.63854
 30
0.0
 11
244.804482
 21
106.63854
 31
0.0
  0
ARC
  5
26A
330
A
100
AcDbEntity
  8
Hawa4
 62
     4
370
    13
390
1D
100
AcDbCircle
 10
244.804482
 20
106.93854
 30
0.0
 40
0.3
100
AcDbArc
 50
180.000005
 51
270.000001
  0
LINE
  5
26B
330
A
100
AcDbEntity
  8
Hawa4
 62
     4
 48
0.03625
370
    13
390
1D
100
AcDbLine
 10
244.504483
 20
108.38854
 30
0.0
 11
244.504483
 21
106.93854
 31
0.0
  0
ARC
  5
26C
330
A
100
AcDbEntity
  8
Hawa4
 62
     4
370
    13
390
1D
100
AcDbCircle
 10
245.004483
 20
108.38854
 30
0.0
 40
0.5
100
AcDbArc
 50
90.00000300000001
 51
180.000005
  0
LINE
  5
26D
330
A
100
AcDbEntity
  8
Hawa4
 62
     4
 48
0.325
370
    13
390
1D
100
AcDbLine
 10
245.004483
 20
108.88854
 30
0.0
 11
258.004483
 21
108.88854
 31
0.0
  0
ARC
  5
26E
330
A
100
AcDbEntity
  8
Hawa4
 62
     4
370
    13
390
1D
100
AcDbCircle
 10
258.004483
 20
108.38854
 30
0.0
 40
0.5
100
AcDbArc
 50
0.00001
 51
90.00000300000001
  0
LINE
  5
26F
330
A
100
AcDbEntity
  8
Hawa4
 62
     4
370
    13
390
1D
100
AcDbLine
 10
258.504483
 20
108.38854
 30
0.0
 11
258.504483
 21
88.38854000000003
 31
0.0
  0
ARC
  5
270
330
A
100
AcDbEntity
  8
Hawa4
 62
     4
370
    13
390
1D
100
AcDbCircle
 10
258.004483
 20
88.38854000000003
 30
0.0
 40
0.5
100
AcDbArc
 50
270.000001
 51
0.0
  0
LINE
  5
271
330
A
100
AcDbEntity
  8
Hawa4
 62
     4
 48
0.325
370
    13
390
1D
100
AcDbLine
 10
245.004483
 20
87.88854
 30
0.0
 11
258.004483
 21
87.88854
 31
0.0
  0
ARC
  5
272
330
A
100
AcDbEntity
  8
Hawa4
 62
     4
370
    13
390
1D
100
AcDbCircle
 10
245.004483
 20
88.38854000000003
 30
0.0
 40
0.5
100
AcDbArc
 50
180.000005
 51
270.000001
  0
LINE
  5
273
330
A
100
AcDbEntity
  8
Hawa4
 62
     4
 48
0.125
370
    13
390
1D
100
AcDbLine
 10
252.580216
 20
106.63854
 30
0.0
 11
247.580216
 21
106.63854
 31
0.0
  0
ARC
  5
274
330
A
100
AcDbEntity
  8
Hawa4
 62
     4
370
    13
390
1D
100
AcDbCircle
 10
252.580216
 20
106.03854
 30
0.0
 40
0.6
100
AcDbArc
 50
270.000001
 51
90.00000300000001
  0
LINE
  5
275
330
A
100
AcDbEntity
  8
Hawa4
 62
     4
 48
0.010192
370
    13
390
1D
100
AcDbLine
 10
252.172539
 20
105.43854
 30
0.0
 11
252.580216
 21
105.43854
 31
0.0
  0
LINE
  5
276
330
A
100
AcDbEntity
  8
Hawa4
 62
     4
 48
0.076073
370
    13
390
1D
100
AcDbLine
 10
249.921532
 20
103.391026
 30
0.0
 11
252.172539
 21
105.43854
 31
0.0
  0
LINE
  5
277
330
A
100
AcDbEntity
  8
Hawa4
 62
     4
 48
0.0125
370
    13
390
1D
100
AcDbLine
 10
249.425061
 20
103.450317
 30
0.0
 11
249.921532
 21
103.391026
 31
0.0
  0
LINE
  5
278
330
A
100
AcDbEntity
  8
Hawa4
 62
     4
 48
0.060891
370
    13
390
1D
100
AcDbLine
 10
250.831971
 20
105.43854
 30
0.0
 11
249.425061
 21
103.450317
 31
0.0
  0
LINE
  5
279
330
A
100
AcDbEntity
  8
Hawa4
 62
     4
 48
0.068158
370
    13
390
1D
100
AcDbLine
 10
248.105653
 20
105.43854
 30
0.0
 11
250.831971
 21
105.43854
 31
0.0
  0
LINE
  5
27A
330
A
100
AcDbEntity
  8
Hawa4
 62
     4
 48
0.092611
370
    13
390
1D
100
AcDbLine
 10
245.012997
 20
103.39937
 30
0.0
 11
248.105653
 21
105.43854
 31
0.0
  0
LINE
  5
27B
330
A
100
AcDbEntity
  8
Hawa4
 62
     4
 48
0.0125
370
    13
390
1D
100
AcDbLine
 10
244.531651
 20
103.534678
 30
0.0
 11
245.012997
 21
103.39937
 31
0.0
  0
LINE
  5
27C
330
A
100
AcDbEntity
  8
Hawa4
 62
     4
 48
0.069956
370
    13
390
1D
100
AcDbLine
 10
246.582352
 20
105.43854
 30
0.0
 11
244.531651
 21
103.534678
 31
0.0
  0
LINE
  5
27D
330
A
100
AcDbEntity
  8
Hawa4
 62
     4
 48
0.072553
370
    13
390
1D
100
AcDbLine
 10
243.680218
 20
105.43854
 30
0.0
 11
246.582352
 21
105.43854
 31
0.0
  0
ARC
  5
27E
330
A
100
AcDbEntity
  8
Hawa4
 62
     4
370
    13
390
1D
100
AcDbCircle
 10
244.922726
 20
98.549696
 30
0.0
 40
7.0
100
AcDbArc
 50
100.224263
 51
135.350224
  0
ARC
  5
27F
330
A
100
AcDbEntity
  8
Hawa4
 62
     4
370
    13
390
1D
100
AcDbCircle
 10
239.764962
 20
103.644789
 30
0.0
 40
0.25
100
AcDbArc
 50
150.780634
 51
315.350216
  0
ARC
  5
280
330
A
100
AcDbEntity
  8
Hawa4
 62
     4
370
    13
390
1D
100
AcDbCircle
 10
254.121819
 20
95.61464499999999
 30
0.0
 40
16.700001
100
AcDbArc
 50
130.698537
 51
150.780634
  0
ARC
  5
281
330
A
100
AcDbEntity
  8
Hawa4
 62
     4
370
    13
390
1D
100
AcDbCircle
 10
244.210217
 20
107.13854
 30
0.0
 40
1.5
100
AcDbArc
 50
90.00000300000001
 51
130.698537
  0
LINE
  5
282
330
A
100
AcDbEntity
  8
Hawa4
 62
     4
 48
0.0075
370
    13
390
1D
100
AcDbLine
 10
244.510216
 20
108.63854
 30
0.0
 11
244.210217
 21
108.63854
 31
0.0
  0
LINE
  5
283
330
A
100
AcDbEntity
  8
Hawa4
 62
     4
 48
0.031686
370
    13
390
1D
100
AcDbLine
 10
244.510216
 20
108.63854
 30
0.0
 11
243.903443
 21
107.525784
 31
0.0
  0
ARC
  5
284
330
A
100
AcDbEntity
  8
Hawa4
 62
     4
370
    13
390
1D
100
AcDbCircle
 10
244.430218
 20
107.238541
 30
0.0
 40
0.6
100
AcDbArc
 50
151.396839
 51
270.000001
  0
LINE
  5
285
330
A
100
AcDbEntity
  8
Hawa4
 62
     4
 48
0.05875
370
    13
390
1D
100
AcDbLine
 10
246.780217
 20
106.63854
 30
0.0
 11
244.430218
 21
106.63854
 31
0.0
  0
LINE
  5
286
330
A
100
AcDbEntity
  8
Hawa4
 62
     4
 48
0.014142
370
    13
390
1D
100
AcDbLine
 10
246.780217
 20
106.63854
 30
0.0
 11
247.180218
 21
107.03854
 31
0.0
  0
LINE
  5
287
330
A
100
AcDbEntity
  8
Hawa4
 62
     4
 48
0.014142
370
    13
390
1D
100
AcDbLine
 10
247.180218
 20
107.03854
 30
0.0
 11
247.580216
 21
106.63854
 31
0.0
  0
LINE
  5
288
330
A
100
AcDbEntity
  8
Hawa4
 62
     4
 48
0.014142
370
    13
390
1D
100
AcDbLine
 10
247.180218
 20
89.73853899999998
 30
0.0
 11
247.580216
 21
90.13854
 31
0.0
  0
LINE
  5
289
330
A
100
AcDbEntity
  8
Hawa4
 62
     4
 48
0.014142
370
    13
390
1D
100
AcDbLine
 10
246.780217
 20
90.13854
 30
0.0
 11
247.180218
 21
89.73853899999998
 31
0.0
  0
LINE
  5
28A
330
A
100
AcDbEntity
  8
Hawa4
 62
     4
 48
0.05875
370
    13
390
1D
100
AcDbLine
 10
246.780217
 20
90.13854
 30
0.0
 11
244.430218
 21
90.13854
 31
0.0
  0
ARC
  5
28B
330
A
100
AcDbEntity
  8
Hawa4
 62
     4
370
    13
390
1D
100
AcDbCircle
 10
244.430218
 20
89.538542
 30
0.0
 40
0.6
100
AcDbArc
 50
90.00000300000001
 51
208.60317
  0
LINE
  5
28C
330
A
100
AcDbEntity
  8
Hawa4
 62
     4
 48
0.031686
370
    13
390
1D
100
AcDbLine
 10
244.510216
 20
88.13854
 30
0.0
 11
243.903443
 21
89.251295
 31
0.0
  0
LINE
  5
28D
330
A
100
AcDbEntity
  8
Hawa4
 62
     4
 48
0.0075
370
    13
390
1D
100
AcDbLine
 10
244.510216
 20
88.13854
 30
0.0
 11
244.210217
 21
88.13854
 31
0.0
  0
ARC
  5
28E
330
A
100
AcDbEntity
  8
Hawa4
 62
     4
370
    13
390
1D
100
AcDbCircle
 10
244.210217
 20
89.63854000000003
 30
0.0
 40
1.5
100
AcDbArc
 50
229.301473
 51
270.000001
  0
ARC
  5
28F
330
A
100
AcDbEntity
  8
Hawa4
 62
     4
370
    13
390
1D
100
AcDbCircle
 10
254.121819
 20
101.162436
 30
0.0
 40
16.700001
100
AcDbArc
 50
209.219363
 51
229.301473
  0
ARC
  5
290
330
A
100
AcDbEntity
  8
Hawa4
 62
     4
370
    13
390
1D
100
AcDbCircle
 10
239.764962
 20
93.132292
 30
0.0
 40
0.25
100
AcDbArc
 50
44.64977199999998
 51
209.219363
  0
ARC
  5
291
330
A
100
AcDbEntity
  8
Hawa4
 62
     4
370
    13
390
1D
100
AcDbCircle
 10
244.922726
 20
98.22738499999999
 30
0.0
 40
7.0
100
AcDbArc
 50
224.649772
 51
259.775727
  0
LINE
  5
292
330
A
100
AcDbEntity
  8
Hawa4
 62
     4
 48
0.072553
370
    13
390
1D
100
AcDbLine
 10
243.680218
 20
91.338541
 30
0.0
 11
246.582352
 21
91.338541
 31
0.0
  0
LINE
  5
293
330
A
100
AcDbEntity
  8
Hawa4
 62
     4
 48
0.069956
370
    13
390
1D
100
AcDbLine
 10
246.582352
 20
91.338541
 30
0.0
 11
244.531651
 21
93.24240299999999
 31
0.0
  0
LINE
  5
294
330
A
100
AcDbEntity
  8
Hawa4
 62
     4
 48
0.0125
370
    13
390
1D
100
AcDbLine
 10
244.531651
 20
93.24240299999999
 30
0.0
 11
245.012997
 21
93.37771
 31
0.0
  0
LINE
  5
295
330
A
100
AcDbEntity
  8
Hawa4
 62
     4
 48
0.092611
370
    13
390
1D
100
AcDbLine
 10
245.012997
 20
93.37771
 30
0.0
 11
248.105653
 21
91.338541
 31
0.0
  0
LINE
  5
296
330
A
100
AcDbEntity
  8
Hawa4
 62
     4
 48
0.068158
370
    13
390
1D
100
AcDbLine
 10
248.105653
 20
91.338541
 30
0.0
 11
250.831971
 21
91.338541
 31
0.0
  0
LINE
  5
297
330
A
100
AcDbEntity
  8
Hawa4
 62
     4
 48
0.060891
370
    13
390
1D
100
AcDbLine
 10
250.831971
 20
91.338541
 30
0.0
 11
249.425061
 21
93.32676499999999
 31
0.0
  0
LINE
  5
298
330
A
100
AcDbEntity
  8
Hawa4
 62
     4
 48
0.0125
370
    13
390
1D
100
AcDbLine
 10
249.425061
 20
93.32676499999999
 30
0.0
 11
249.921532
 21
93.386057
 31
0.0
  0
LINE
  5
299
330
A
100
AcDbEntity
  8
Hawa4
 62
     4
 48
0.076073
370
    13
390
1D
100
AcDbLine
 10
249.921532
 20
93.386057
 30
0.0
 11
252.172539
 21
91.338541
 31
0.0
  0
LINE
  5
29A
330
A
100
AcDbEntity
  8
Hawa4
 62
     4
 48
0.010192
370
    13
390
1D
100
AcDbLine
 10
252.172539
 20
91.338541
 30
0.0
 11
252.580216
 21
91.338541
 31
0.0
  0
ARC
  5
29B
330
A
100
AcDbEntity
  8
Hawa4
 62
     4
370
    13
390
1D
100
AcDbCircle
 10
252.580216
 20
90.73853900000001
 30
0.0
 40
0.6
100
AcDbArc
 50
270.000001
 51
90.00000300000001
  0
LINE
  5
29C
330
A
100
AcDbEntity
  8
Hawa4
 62
     4
 48
0.125
370
    13
390
1D
100
AcDbLine
 10
252.580216
 20
90.13854
 30
0.0
 11
247.580216
 21
90.13854
 31
0.0
  0
LINE
  5
29D
330
A
100
AcDbEntity
  8
Hawa5
 62
     1
 48
0.3
370
    13
390
1D
100
AcDbLine
 10
253.004483
 20
104.243576
 30
0.0
 11
253.004483
 21
92.24357799999999
 31
0.0
  0
LINE
  5
29E
330
A
100
AcDbEntity
  8
Hawa5
 62
     1
 48
0.075
370
    13
390
1D
100
AcDbLine
 10
253.004483
 20
92.24357799999999
 30
0.0
 11
256.004483
 21
92.24357799999999
 31
0.0
  0
LINE
  5
29F
330
A
100
AcDbEntity
  8
Hawa4
 62
     4
 48
0.014998
370
    13
390
1D
100
AcDbLine
 10
256.004483
 20
95.668427
 30
0.0
 11
256.004483
 21
96.26833900000001
 31
0.0
  0
LINE
  5
2A0
330
A
100
AcDbEntity
  8
Hawa4
 62
     4
 48
0.014998
370
    13
390
1D
100
AcDbLine
 10
256.004483
 20
98.08854100000001
 30
0.0
 11
256.004483
 21
98.68845399999999
 31
0.0
  0
LINE
  5
2A1
330
A
100
AcDbEntity
  8
Hawa5
 62
     1
 48
0.075
370
    13
390
1D
100
AcDbLine
 10
256.004483
 20
104.243576
 30
0.0
 11
253.004483
 21
104.243576
 31
0.0
  0
LINE
  5
2A2
330
A
100
AcDbEntity
  8
HAWA1
 48
0.001768
390
1D
100
AcDbLine
 10
258.554353
 20
100.78867
 30
0.0
 11
258.504353
 21
100.838669
 31
0.0
  0
LINE
  5
2A3
330
A
100
AcDbEntity
  8
HAWA1
 48
0.001768
390
1D
100
AcDbLine
 10
258.554353
 20
95.98841099999999
 30
0.0
 11
258.504353
 21
95.93841199999999
 31
0.0
  0
LINE
  5
2A4
330
A
100
AcDbEntity
  8
Hawa5
 62
     1
370
    13
390
1D
100
AcDbLine
 10
258.554482
 20
136.178207
 30
0.0
 11
258.554482
 21
56.178206
 31
0.0
  0
LINE
  5
43F
330
A
100
AcDbEntity
  8
Hawa2
 62
     9
 48
0.067774
370
    13
100
AcDbLine
 10
38.254502
 20
109.505482
 30
0.0
 11
40.17143299999998
 21
107.58854
 31
0.0
  0
LINE
  5
440
330
A
100
AcDbEntity
  8
Hawa2
 62
     9
 48
0.150096
370
    13
100
AcDbLine
 10
38.754502
 20
111.833909
 30
0.0
 11
42.999864
 21
107.58854
 31
0.0
  0
LINE
  5
441
330
A
100
AcDbEntity
  8
Hawa2
 62
     9
 48
0.250096
370
    13
100
AcDbLine
 10
38.754502
 20
114.662335
 30
0.0
 11
45.82829399999996
 21
107.58854
 31
0.0
  0
LINE
  5
442
330
A
100
AcDbEntity
  8
Hawa2
 62
     9
 48
0.106066
370
    13
100
AcDbLine
 10
38.754502
 20
117.490762
 30
0.0
 11
41.754502
 21
114.490763
 31
0.0
  0
LINE
  5
443
330
A
100
AcDbEntity
  8
Hawa2
 62
     9
 48
0.098995
370
    13
100
AcDbLine
 10
45.85670599999997
 20
110.388541
 30
0.0
 11
48.656724
 21
107.58854
 31
0.0
  0
LINE
  5
444
330
A
100
AcDbEntity
  8
Hawa2
 62
     9
 48
0.106066
370
    13
100
AcDbLine
 10
38.754502
 20
120.31919
 30
0.0
 11
41.754502
 21
117.31919
 31
0.0
  0
LINE
  5
445
330
A
100
AcDbEntity
  8
Hawa2
 62
     9
 48
0.099757
370
    13
100
AcDbLine
 10
48.66359
 20
110.410081
 30
0.0
 11
51.48515399999997
 21
107.58854
 31
0.0
  0
LINE
  5
446
330
A
100
AcDbEntity
  8
Hawa2
 62
     9
 48
0.106066
370
    13
100
AcDbLine
 10
38.754502
 20
123.147617
 30
0.0
 11
41.754502
 21
120.147617
 31
0.0
  0
LINE
  5
447
330
A
100
AcDbEntity
  8
Hawa2
 62
     9
 48
0.137655
370
    13
100
AcDbLine
 10
50.42009100000001
 20
111.482005
 30
0.0
 11
54.31355400000001
 21
107.58854
 31
0.0
  0
LINE
  5
448
330
A
100
AcDbEntity
  8
Hawa2
 62
     9
 48
0.106066
370
    13
100
AcDbLine
 10
38.754502
 20
125.976044
 30
0.0
 11
41.754502
 21
122.976044
 31
0.0
  0
LINE
  5
449
330
A
100
AcDbEntity
  8
Hawa2
 62
     9
 48
0.106066
370
    13
100
AcDbLine
 10
50.85447799999997
 20
113.876044
 30
0.0
 11
53.85447799999997
 21
110.876044
 31
0.0
  0
LINE
  5
44A
330
A
100
AcDbEntity
  8
Hawa2
 62
     9
 48
0.098995
370
    13
100
AcDbLine
 10
54.34199599999999
 20
110.388541
 30
0.0
 11
57.14198399999998
 21
107.58854
 31
0.0
  0
LINE
  5
44B
330
A
100
AcDbEntity
  8
Hawa2
 62
     9
 48
0.106066
370
    13
100
AcDbLine
 10
38.754502
 20
128.804471
 30
0.0
 11
41.754502
 21
125.804471
 31
0.0
  0
LINE
  5
44C
330
A
100
AcDbEntity
  8
Hawa2
 62
     9
 48
0.106066
370
    13
100
AcDbLine
 10
50.85447799999997
 20
116.704471
 30
0.0
 11
53.85447799999997
 21
113.704472
 31
0.0
  0
LINE
  5
44D
330
A
100
AcDbEntity
  8
Hawa2
 62
     9
 48
0.068027
370
    13
100
AcDbLine
 10
57.05448999999997
 20
110.504471
 30
0.0
 11
58.97859299999999
 21
108.58038
 31
0.0
  0
LINE
  5
44E
330
A
100
AcDbEntity
  8
Hawa2
 62
     9
 48
0.106066
370
    13
100
AcDbLine
 10
38.754502
 20
131.632898
 30
0.0
 11
41.754502
 21
128.632898
 31
0.0
  0
LINE
  5
44F
330
A
100
AcDbEntity
  8
Hawa2
 62
     9
 48
0.100962
370
    13
100
AcDbLine
 10
50.99885599999999
 20
119.38854
 30
0.0
 11
53.85447799999997
 21
116.532899
 31
0.0
  0
LINE
  5
450
330
A
100
AcDbEntity
  8
Hawa2
 62
     9
 48
0.068178
370
    13
100
AcDbLine
 10
57.05448999999997
 20
113.332898
 30
0.0
 11
58.98286500000001
 21
111.404526
 31
0.0
  0
LINE
  5
451
330
A
100
AcDbEntity
  8
Hawa2
 62
     9
 48
0.106066
370
    13
100
AcDbLine
 10
38.754502
 20
134.461326
 30
0.0
 11
41.754502
 21
131.461326
 31
0.0
  0
LINE
  5
452
330
A
100
AcDbEntity
  8
Hawa2
 62
     9
 48
0.106066
370
    13
100
AcDbLine
 10
38.754502
 20
137.289753
 30
0.0
 11
41.754502
 21
134.289753
 31
0.0
  0
LINE
  5
453
330
A
100
AcDbEntity
  8
Hawa2
 62
     9
 48
0.106066
370
    13
100
AcDbLine
 10
38.754502
 20
140.11818
 30
0.0
 11
41.754502
 21
137.11818
 31
0.0
  0
LINE
  5
454
330
A
100
AcDbEntity
  8
Hawa2
 62
     9
 48
0.12384
370
    13
100
AcDbLine
 10
38.254502
 20
143.446607
 30
0.0
 11
41.75721799999997
 21
139.943888
 31
0.0
  0
LINE
  5
455
330
A
100
AcDbEntity
  8
Hawa2
 62
     9
 48
0.118457
370
    13
100
AcDbLine
 10
39.34098899999998
 20
145.18854
 30
0.0
 11
42.69145299999997
 21
141.838079
 31
0.0
  0
LINE
  5
456
330
A
100
AcDbEntity
  8
Hawa2
 62
     9
 48
0.010129
370
    13
100
AcDbLine
 10
50.85447799999997
 20
133.675034
 30
0.0
 11
51.14097699999996
 21
133.3885399999999
 31
0.0
  0
LINE
  5
457
330
A
100
AcDbEntity
  8
Hawa2
 62
     9
 48
0.098995
370
    13
100
AcDbLine
 10
42.169419
 20
145.18854
 30
0.0
 11
44.96940699999998
 21
142.38854
 31
0.0
  0
LINE
  5
458
330
A
100
AcDbEntity
  8
Hawa2
 62
     9
 48
0.097642
370
    13
100
AcDbLine
 10
50.85447799999997
 20
136.503461
 30
0.0
 11
53.61622699999998
 21
133.741717
 31
0.0
  0
LINE
  5
459
330
A
100
AcDbEntity
  8
Hawa2
 62
     9
 48
0.098995
370
    13
100
AcDbLine
 10
44.99784899999997
 20
145.18854
 30
0.0
 11
47.79783700000002
 21
142.38854
 31
0.0
  0
LINE
  5
45A
330
A
100
AcDbEntity
  8
Hawa2
 62
     9
 48
0.106066
370
    13
100
AcDbLine
 10
50.85447799999997
 20
139.331888
 30
0.0
 11
53.85447799999997
 21
136.331888
 31
0.0
  0
LINE
  5
45B
330
A
100
AcDbEntity
  8
Hawa2
 62
     9
 48
0.213129
370
    13
100
AcDbLine
 10
47.82627999999998
 20
145.18854
 30
0.0
 11
53.85447799999997
 21
139.160316
 31
0.0
  0
LINE
  5
45C
330
A
100
AcDbEntity
  8
Hawa2
 62
     9
 48
0.11313
370
    13
100
AcDbLine
 10
50.65467899999998
 20
145.18854
 30
0.0
 11
53.85447799999997
 21
141.988742
 31
0.0
  0
LINE
  5
45D
330
A
100
AcDbEntity
  8
Hawa2
 62
     9
 48
0.03566
370
    13
100
AcDbLine
 10
57.05448999999997
 20
138.788743
 30
0.0
 11
58.06309599999997
 21
137.780134
 31
0.0
  0
LINE
  5
45E
330
A
100
AcDbEntity
  8
Hawa2
 62
     9
 48
0.098995
370
    13
100
AcDbLine
 10
53.48310900000001
 20
145.18854
 30
0.0
 11
56.28312799999998
 21
142.38854
 31
0.0
  0
LINE
  5
45F
330
A
100
AcDbEntity
  8
Hawa2
 62
     9
 48
0.059775
370
    13
100
AcDbLine
 10
57.05448999999997
 20
141.61717
 30
0.0
 11
58.74519399999996
 21
139.926463
 31
0.0
  0
LINE
  5
460
330
A
100
AcDbEntity
  8
Hawa2
 62
     9
 48
0.100158
370
    13
100
AcDbLine
 10
56.31153999999998
 20
145.18854
 30
0.0
 11
59.14442500000001
 21
142.355651
 31
0.0
  0
LINE
  5
461
330
A
100
AcDbEntity
  8
Hawa2
 62
     9
 48
0.108346
370
    13
100
AcDbLine
 10
45.85447799999997
 20
121.704471
 30
0.0
 11
48.918992
 21
118.639983
 31
0.0
  0
LINE
  5
462
330
A
100
AcDbEntity
  8
Hawa2
 62
     9
 48
0.035355
370
    13
100
AcDbLine
 10
45.85447799999997
 20
124.532899
 30
0.0
 11
46.85447799999997
 21
123.532899
 31
0.0
  0
LINE
  5
463
330
A
100
AcDbEntity
  8
Hawa2
 62
     9
 48
0.070711
370
    13
100
AcDbLine
 10
48.99885599999999
 20
121.38854
 30
0.0
 11
50.99885599999999
 21
119.38854
 31
0.0
  0
LINE
  5
464
330
A
100
AcDbEntity
  8
Hawa2
 62
     9
 48
0.105139
370
    13
100
AcDbLine
 10
54.08070499999997
 20
116.306676
 30
0.0
 11
57.05448999999997
 21
113.332898
 31
0.0
  0
LINE
  5
465
330
A
100
AcDbEntity
  8
Hawa2
 62
     9
 48
0.035355
370
    13
100
AcDbLine
 10
45.85447799999997
 20
127.361325
 30
0.0
 11
46.85447799999997
 21
126.361325
 31
0.0
  0
LINE
  5
466
330
A
100
AcDbEntity
  8
Hawa2
 62
     9
 48
0.070711
370
    13
100
AcDbLine
 10
51.82728700000001
 20
121.38854
 30
0.0
 11
53.82728700000001
 21
119.38854
 31
0.0
  0
LINE
  5
467
330
A
100
AcDbEntity
  8
Hawa2
 62
     9
 48
0.061845
370
    13
100
AcDbLine
 10
55.30525299999999
 20
117.910576
 30
0.0
 11
57.05448999999997
 21
116.161325
 31
0.0
  0
LINE
  5
468
330
A
100
AcDbEntity
  8
Hawa2
 62
     9
 48
0.035355
370
    13
100
AcDbLine
 10
45.85447799999997
 20
130.189753
 30
0.0
 11
46.85447799999997
 21
129.189753
 31
0.0
  0
LINE
  5
469
330
A
100
AcDbEntity
  8
Hawa2
 62
     9
 48
0.103764
370
    13
100
AcDbLine
 10
54.65571699999998
 20
121.38854
 30
0.0
 11
57.59059200000002
 21
118.453651
 31
0.0
  0
LINE
  5
46A
330
A
100
AcDbEntity
  8
Hawa2
 62
     9
 48
0.044763
370
    13
100
AcDbLine
 10
46.27085999999997
 20
132.601819
 30
0.0
 11
47.53694199999999
 21
131.335726
 31
0.0
  0
LINE
  5
46B
330
A
100
AcDbEntity
  8
Hawa2
 62
     9
 48
0.07435
370
    13
100
AcDbLine
 10
56.254502
 20
122.61818
 30
0.0
 11
58.357438
 21
120.515236
 31
0.0
  0
LINE
  5
46C
330
A
100
AcDbEntity
  8
Hawa2
 62
     9
 48
0.079641
370
    13
100
AcDbLine
 10
48.05995300000001
 20
133.641141
 30
0.0
 11
50.31254699999998
 21
131.3885399999999
 31
0.0
  0
LINE
  5
46D
330
A
100
AcDbEntity
  8
Hawa2
 62
     9
 48
0.094117
370
    13
100
AcDbLine
 10
56.254502
 20
125.446607
 30
0.0
 11
58.91651999999999
 21
122.78457
 31
0.0
  0
LINE
  5
46E
330
A
100
AcDbEntity
  8
Hawa2
 62
     9
 48
0.035404
370
    13
100
AcDbLine
 10
49.85310499999997
 20
134.676417
 30
0.0
 11
50.85447799999997
 21
133.675034
 31
0.0
  0
LINE
  5
46F
330
A
100
AcDbEntity
  8
Hawa2
 62
     9
 48
0.070711
370
    13
100
AcDbLine
 10
51.14097699999996
 20
133.3885399999999
 30
0.0
 11
53.14097699999996
 21
131.3885399999999
 31
0.0
  0
LINE
  5
470
330
A
100
AcDbEntity
  8
Hawa2
 62
     9
 48
0.104973
370
    13
100
AcDbLine
 10
56.254502
 20
128.275034
 30
0.0
 11
59.22358800000001
 21
125.305939
 31
0.0
  0
LINE
  5
471
330
A
100
AcDbEntity
  8
Hawa2
 62
     9
 48
0.183766
370
    13
100
AcDbLine
 10
53.96940699999999
 20
133.3885399999999
 30
0.0
 11
59.1671
 21
128.19085
 31
0.0
  0
LINE
  5
472
330
A
100
AcDbEntity
  8
Hawa2
 62
     9
 48
0.114502
370
    13
100
AcDbLine
 10
55.30024800000001
 20
134.886115
 30
0.0
 11
58.53886499999997
 21
131.647508
 31
0.0
  0
LINE
  5
473
330
A
100
AcDbEntity
  8
Hawa2
 62
     9
 48
0.101782
370
    13
100
AcDbLine
 10
54.23350599999999
 20
138.781303
 30
0.0
 11
57.11232100000001
 21
135.902482
 31
0.0
  0
LINE
  5
474
330
A
100
AcDbEntity
  8
Hawa2
 62
     9
 48
0.039734
370
    13
100
AcDbLine
 10
55.93065000000001
 20
139.912572
 30
0.0
 11
57.05448999999997
 21
138.788743
 31
0.0
  0
LINE
  5
475
330
A
100
AcDbEntity
  8
Hawa4
  6
DASHDOT
 62
     4
 48
0.169
370
    13
100
AcDbLine
 10
130.034481
 20
111.263177
 30
0.0
 11
123.2744719999999
 21
111.263177
 31
0.0
  0
LINE
  5
476
330
A
100
AcDbEntity
  8
Hawa4
  6
DASHDOT
 62
     4
 48
0.169
370
    13
100
AcDbLine
 10
126.654477
 20
114.643177
 30
0.0
 11
126.654477
 21
107.883177
 31
0.0
  0
LINE
  5
477
330
A
100
AcDbEntity
  8
Hawa4
  6
DASHDOT
 62
     4
 48
0.052
370
    13
100
AcDbLine
 10
127.694516
 20
122.231948
 30
0.0
 11
125.614499
 21
122.231948
 31
0.0
  0
LINE
  5
478
330
A
100
AcDbEntity
  8
Hawa4
  6
DASHDOT
 62
     4
 48
0.052
370
    13
100
AcDbLine
 10
126.654477
 20
123.271948
 30
0.0
 11
126.654477
 21
121.191948
 31
0.0
  0
LINE
  5
479
330
A
100
AcDbEntity
  8
Hawa2
 62
     9
 48
0.008375
370
    13
100
AcDbLine
 10
123.461056
 20
112.421133
 30
0.0
 11
123.697934
 21
112.184242
 31
0.0
  0
LINE
  5
47A
330
A
100
AcDbEntity
  8
Hawa2
 62
     9
 48
0.007563
370
    13
100
AcDbLine
 10
124.68182
 20
114.028767
 30
0.0
 11
124.895749
 21
113.814867
 31
0.0
  0
LINE
  5
47B
330
A
100
AcDbEntity
  8
Hawa2
 62
     9
 48
0.00765
370
    13
100
AcDbLine
 10
129.2045859999999
 20
109.506031
 30
0.0
 11
129.420956
 21
109.289671
 31
0.0
  0
LINE
  5
47C
330
A
100
AcDbEntity
  8
Hawa2
 62
     9
 48
0.008942
370
    13
100
AcDbLine
 10
125.851681
 20
115.68735
 30
0.0
 11
126.104611
 21
115.434439
 31
0.0
  0
LINE
  5
47D
330
A
100
AcDbEntity
  8
Hawa2
 62
     9
 48
0.012312
370
    13
100
AcDbLine
 10
129.697934
 20
111.841078
 30
0.0
 11
130.0462
 21
111.492847
 31
0.0
  0
LINE
  5
47E
330
A
100
AcDbEntity
  8
Hawa2
 62
     9
 48
0.00989
370
    13
100
AcDbLine
 10
125.835629
 20
118.531817
 30
0.0
 11
126.115353
 21
118.252104
 31
0.0
  0
LINE
  5
47F
330
A
100
AcDbEntity
  8
Hawa2
 62
     9
 48
0.011506
370
    13
100
AcDbLine
 10
127.281796
 20
117.085692
 30
0.0
 11
127.6072349999999
 21
116.760237
 31
0.0
  0
LINE
  5
480
330
A
100
AcDbEntity
  8
Hawa2
 62
     9
 48
0.00989
370
    13
100
AcDbLine
 10
126.03442
 20
121.161487
 30
0.0
 11
126.3141449999999
 21
120.881773
 31
0.0
  0
LINE
  5
481
330
A
100
AcDbEntity
  8
Hawa2
 62
     9
 48
0.011506
370
    13
100
AcDbLine
 10
127.050534
 20
120.145378
 30
0.0
 11
127.375973
 21
119.819924
 31
0.0
  0
LINE
  5
482
330
A
100
AcDbEntity
  8
Hawa2
 62
     9
 48
0.020899
370
    13
100
AcDbLine
 10
130.254452
 20
94.313997
 30
0.0
 11
130.845578
 21
93.72292100000001
 31
0.0
  0
LINE
  5
483
330
A
100
AcDbEntity
  8
Hawa2
 62
     9
 48
0.024723
370
    13
100
AcDbLine
 10
131.679928
 20
92.88854
 30
0.0
 11
132.3792079999999
 21
92.18929499999999
 31
0.0
  0
LINE
  5
484
330
A
100
AcDbEntity
  8
Hawa2
 62
     9
 48
0.026517
370
    13
100
AcDbLine
 10
130.254452
 20
97.142423
 30
0.0
 11
131.004452
 21
96.39242299999999
 31
0.0
  0
LINE
  5
485
330
A
100
AcDbEntity
  8
Hawa2
 62
     9
 48
0.056413
370
    13
100
AcDbLine
 10
134.012021
 20
93.38490099999999
 30
0.0
 11
135.607602
 21
91.789293
 31
0.0
  0
LINE
  5
486
330
A
100
AcDbEntity
  8
Hawa2
 62
     9
 48
0.026517
370
    13
100
AcDbLine
 10
130.254452
 20
99.97085
 30
0.0
 11
131.004452
 21
99.22085
 31
0.0
  0
LINE
  5
487
330
A
100
AcDbEntity
  8
Hawa2
 62
     9
 48
0.026243
370
    13
100
AcDbLine
 10
136.836056
 20
93.38929099999999
 30
0.0
 11
137.578305
 21
92.64700899999999
 31
0.0
  0
LINE
  5
488
330
A
100
AcDbEntity
  8
Hawa2
 62
     9
 48
0.033587
370
    13
100
AcDbLine
 10
130.054501
 20
102.999277
 30
0.0
 11
131.004452
 21
102.049278
 31
0.0
  0
LINE
  5
489
330
A
100
AcDbEntity
  8
Hawa2
 62
     9
 48
0.024722
370
    13
100
AcDbLine
 10
131.292904
 20
104.589292
 30
0.0
 11
131.992123
 21
103.890047
 31
0.0
  0
LINE
  5
48A
330
A
100
AcDbEntity
  8
Hawa2
 62
     9
 48
0.027303
370
    13
100
AcDbLine
 10
134.121335
 20
104.589292
 30
0.0
 11
134.893551
 21
103.817039
 31
0.0
  0
LINE
  5
48B
330
A
100
AcDbEntity
  8
Hawa2
 62
     9
 48
0.021698
370
    13
100
AcDbLine
 10
136.949765
 20
104.589292
 30
0.0
 11
137.563473
 21
103.975563
 31
0.0
  0
LINE
  5
48C
330
A
100
AcDbEntity
  8
Hawa2
 62
     9
 48
0.085626
370
    13
100
AcDbLine
 10
126.387082
 20
100.855581
 30
0.0
 11
128.808957
 21
103.277425
 31
0.0
  0
LINE
  5
48D
330
A
100
AcDbEntity
  8
Hawa2
 62
     9
 48
0.017911
370
    13
100
AcDbLine
 10
125.0153769999999
 20
102.312292
 30
0.0
 11
125.521969
 21
102.818886
 31
0.0
  0
LINE
  5
48E
330
A
100
AcDbEntity
  8
Hawa2
 62
     9
 48
0.066822
370
    13
100
AcDbLine
 10
125.796872
 20
103.093813
 30
0.0
 11
127.686886
 21
104.983793
 31
0.0
  0
LINE
  5
48F
330
A
100
AcDbEntity
  8
Hawa2
 62
     9
 48
0.014217
370
    13
100
AcDbLine
 10
124.541867
 20
104.667196
 30
0.0
 11
124.943966
 21
105.069311
 31
0.0
  0
LINE
  5
490
330
A
100
AcDbEntity
  8
Hawa2
 62
     9
 48
0.086724
370
    13
100
AcDbLine
 10
125.532223
 20
105.657572
 30
0.0
 11
127.9851649999999
 21
108.110485
 31
0.0
  0
LINE
  5
491
330
A
100
AcDbEntity
  8
Hawa2
 62
     9
 48
0.061891
370
    13
100
AcDbLine
 10
128.010556
 20
108.135877
 30
0.0
 11
129.761105
 21
109.886427
 31
0.0
  0
LINE
  5
492
330
A
100
AcDbEntity
  8
Hawa2
 62
     9
 48
0.022591
370
    13
100
AcDbLine
 10
125.224911
 20
108.178703
 30
0.0
 11
125.863888
 21
108.817667
 31
0.0
  0
LINE
  5
493
330
A
100
AcDbEntity
  8
Hawa2
 62
     9
 48
0.021799
370
    13
100
AcDbLine
 10
129.119626
 20
112.073411
 30
0.0
 11
129.736203
 21
112.689952
 31
0.0
  0
LINE
  5
494
330
A
100
AcDbEntity
  8
Hawa2
 62
     9
 48
0.02123
370
    13
100
AcDbLine
 10
123.737179
 20
109.519352
 30
0.0
 11
124.337643
 21
110.119831
 31
0.0
  0
LINE
  5
495
330
A
100
AcDbEntity
  8
Hawa2
 62
     9
 48
0.021935
370
    13
100
AcDbLine
 10
127.790036
 20
113.572204
 30
0.0
 11
128.4104579999999
 21
114.192625
 31
0.0
  0
LINE
  5
496
330
A
100
AcDbEntity
  8
Hawa2
 62
     9
 48
0.150001
370
    13
100
AcDbLine
 10
123.325253
 20
111.935848
 30
0.0
 11
127.567929
 21
116.17853
 31
0.0
  0
LINE
  5
497
330
A
100
AcDbEntity
  8
Hawa2
 62
     9
 48
0.06059
370
    13
100
AcDbLine
 10
125.732846
 20
117.171915
 30
0.0
 11
127.446591
 21
118.885637
 31
0.0
  0
LINE
  5
498
330
A
100
AcDbEntity
  8
Hawa2
 62
     9
 48
0.045728
370
    13
100
AcDbLine
 10
125.964108
 20
120.231601
 30
0.0
 11
127.257504
 21
121.524957
 31
0.0
  0
LINE
  5
499
330
A
100
AcDbEntity
  8
Hawa2
 62
     9
 48
0.080942
370
    13
100
AcDbLine
 10
123.554501
 20
92.52871500000001
 30
0.0
 11
125.843869
 21
90.23929800000001
 31
0.0
  0
LINE
  5
49A
330
A
100
AcDbEntity
  8
Hawa2
 62
     9
 48
0.180942
370
    13
100
AcDbLine
 10
123.554501
 20
95.35713900000001
 30
0.0
 11
128.672299
 21
90.23929800000001
 31
0.0
  0
LINE
  5
49B
330
A
100
AcDbEntity
  8
Hawa2
 62
     9
 48
0.280942
370
    13
100
AcDbLine
 10
123.554501
 20
98.185566
 30
0.0
 11
131.500729
 21
90.239294
 31
0.0
  0
LINE
  5
49C
330
A
100
AcDbEntity
  8
Hawa2
 62
     9
 48
0.235335
370
    13
100
AcDbLine
 10
123.554501
 20
101.01399
 30
0.0
 11
130.210751
 21
94.35770599999999
 31
0.0
  0
LINE
  5
49D
330
A
100
AcDbEntity
  8
Hawa2
 62
     9
 48
0.068942
370
    13
100
AcDbLine
 10
132.3792079999999
 20
92.18929499999999
 30
0.0
 11
134.329159
 21
90.239294
 31
0.0
  0
LINE
  5
49E
330
A
100
AcDbEntity
  8
Hawa2
 62
     9
 48
0.041542
370
    13
100
AcDbLine
 10
123.554501
 20
103.842416
 30
0.0
 11
124.7294889999999
 21
102.667417
 31
0.0
  0
LINE
  5
49F
330
A
100
AcDbEntity
  8
Hawa2
 62
     9
 48
0.114026
370
    13
100
AcDbLine
 10
127.029355
 20
100.367565
 30
0.0
 11
130.254513
 21
97.14242
 31
0.0
  0
LINE
  5
4A0
330
A
100
AcDbEntity
  8
Hawa2
 62
     9
 48
0.054479
370
    13
100
AcDbLine
 10
135.607602
 20
91.789293
 30
0.0
 11
137.148495
 21
90.24838
 31
0.0
  0
LINE
  5
4A1
330
A
100
AcDbEntity
  8
Hawa2
 62
     9
 48
0.033987
370
    13
100
AcDbLine
 10
123.916378
 20
106.308946
 30
0.0
 11
124.877682
 21
105.347648
 31
0.0
  0
LINE
  5
4A2
330
A
100
AcDbEntity
  8
Hawa2
 62
     9
 48
0.059221
370
    13
100
AcDbLine
 10
128.579464
 20
101.645845
 30
0.0
 11
130.254513
 21
99.970846
 31
0.0
  0
LINE
  5
4A3
330
A
100
AcDbEntity
  8
Hawa2
 62
     9
 48
0.05215
370
    13
100
AcDbLine
 10
128.579464
 20
104.474272
 30
0.0
 11
130.054501
 21
102.999271
 31
0.0
  0
LINE
  5
4A4
330
A
100
AcDbEntity
  8
Hawa2
 62
     9
 48
0.068943
370
    13
100
AcDbLine
 10
129.342892
 20
106.539297
 30
0.0
 11
131.292904
 21
104.589296
 31
0.0
  0
LINE
  5
4A5
330
A
100
AcDbEntity
  8
Hawa2
 62
     9
 48
0.068943
370
    13
100
AcDbLine
 10
132.171322
 20
106.539295
 30
0.0
 11
134.121335
 21
104.589294
 31
0.0
  0
LINE
  5
4A6
330
A
100
AcDbEntity
  8
Hawa2
 62
     9
 48
0.068943
370
    13
100
AcDbLine
 10
134.9997519999999
 20
106.539295
 30
0.0
 11
136.949765
 21
104.589292
 31
0.0
  0
LINE
  5
4A7
330
A
100
AcDbEntity
  8
Hawa2
 62
     9
 48
0.079446
370
    13
100
AcDbLine
 10
244.765046
 20
90.13560599999999
 30
0.0
 11
247.012116
 21
87.88854
 31
0.0
  0
LINE
  5
4A8
330
A
100
AcDbEntity
  8
Hawa2
 62
     9
 48
0.068268
370
    13
100
AcDbLine
 10
247.909646
 20
89.81943700000002
 30
0.0
 11
249.840542
 21
87.88854
 31
0.0
  0
LINE
  5
4A9
330
A
100
AcDbEntity
  8
Hawa2
 62
     9
 48
0.05836
370
    13
100
AcDbLine
 10
251.018292
 20
89.53922099999996
 30
0.0
 11
252.668969
 21
87.88854
 31
0.0
  0
LINE
  5
4AA
330
A
100
AcDbEntity
  8
Hawa2
 62
     9
 48
0.07955
370
    13
100
AcDbLine
 10
253.247395
 20
90.13854
 30
0.0
 11
255.497395
 21
87.88854
 31
0.0
  0
LINE
  5
4AB
330
A
100
AcDbEntity
  8
Hawa2
 62
     9
 48
0.083614
370
    13
100
AcDbLine
 10
255.891854
 20
90.32251100000001
 30
0.0
 11
258.256813
 21
87.957548
 31
0.0
  0
LINE
  5
4AC
330
A
100
AcDbEntity
  8
Hawa2
 62
     9
 48
0.088388
370
    13
100
AcDbLine
 10
256.004483
 20
93.03830899999999
 30
0.0
 11
258.504483
 21
90.53830899999999
 31
0.0
  0
LINE
  5
4AD
330
A
100
AcDbEntity
  8
Hawa2
 62
     9
 48
0.025746
370
    13
100
AcDbLine
 10
244.504483
 20
107.366737
 30
0.0
 11
245.232678
 21
106.63854
 31
0.0
  0
LINE
  5
4AE
330
A
100
AcDbEntity
  8
Hawa2
 62
     9
 48
0.084883
370
    13
100
AcDbLine
 10
256.103638
 20
95.76758199999998
 30
0.0
 11
258.504483
 21
93.36673500000001
 31
0.0
  0
LINE
  5
4AF
330
A
100
AcDbEntity
  8
Hawa2
 62
     9
 48
0.058445
370
    13
100
AcDbLine
 10
245.811104
 20
108.88854
 30
0.0
 11
247.464169
 21
107.235477
 31
0.0
  0
LINE
  5
4B0
330
A
100
AcDbEntity
  8
Hawa2
 62
     9
 48
0.088388
370
    13
100
AcDbLine
 10
256.004483
 20
98.695163
 30
0.0
 11
258.504483
 21
96.195163
 31
0.0
  0
LINE
  5
4B1
330
A
100
AcDbEntity
  8
Hawa2
 62
     9
 48
0.068778
370
    13
100
AcDbLine
 10
248.639531
 20
108.88854
 30
0.0
 11
250.584866
 21
106.943207
 31
0.0
  0
LINE
  5
4B2
330
A
100
AcDbEntity
  8
Hawa2
 62
     9
 48
0.088388
370
    13
100
AcDbLine
 10
256.004483
 20
101.523592
 30
0.0
 11
258.504483
 21
99.02359199999999
 31
0.0
  0
LINE
  5
4B3
330
A
100
AcDbEntity
  8
Hawa2
 62
     9
 48
0.07955
370
    13
100
AcDbLine
 10
251.467961
 20
108.88854
 30
0.0
 11
253.717961
 21
106.63854
 31
0.0
  0
LINE
  5
4B4
330
A
100
AcDbEntity
  8
Hawa2
 62
     9
 48
0.088388
370
    13
100
AcDbLine
 10
256.004483
 20
104.352018
 30
0.0
 11
258.504483
 21
101.852018
 31
0.0
  0
LINE
  5
4B5
330
A
100
AcDbEntity
  8
Hawa2
 62
     9
 48
0.148779
370
    13
100
AcDbLine
 10
254.296387
 20
108.88854
 30
0.0
 11
258.504483
 21
104.680444
 31
0.0
  0
LINE
  5
4B6
330
A
100
AcDbEntity
  8
Hawa2
 62
     9
 48
0.048779
370
    13
100
AcDbLine
 10
257.124814
 20
108.88854
 30
0.0
 11
258.504483
 21
107.508873
 31
0.0
  0
LINE
  5
4B7
330
A
100
AcDbEntity
  8
Hawa2
 62
     9
 48
0.019674
370
    13
100
AcDbLine
 10
252.619843
 20
105.442444
 30
0.0
 11
253.176316
 21
105.998916
 31
0.0
  0
LINE
  5
4B8
330
A
100
AcDbEntity
  8
Hawa2
 62
     9
 48
0.042426
370
    13
100
AcDbLine
 10
249.78751
 20
105.438539
 30
0.0
 11
250.987511
 21
106.63854
 31
0.0
  0
LINE
  5
4B9
330
A
100
AcDbEntity
  8
Hawa2
 62
     9
 48
0.1138
370
    13
100
AcDbLine
 10
244.940339
 20
103.419794
 30
0.0
 11
248.159085
 21
106.63854
 31
0.0
  0
LINE
  5
4BA
330
A
100
AcDbEntity
  8
Hawa2
 62
     9
 48
0.042426
370
    13
100
AcDbLine
 10
244.130658
 20
105.438539
 30
0.0
 11
245.330658
 21
106.63854
 31
0.0
  0
LINE
  5
4BB
330
A
100
AcDbEntity
  8
Hawa2
 62
     9
 48
0.176291
370
    13
100
AcDbLine
 10
239.515961
 20
103.652271
 30
0.0
 11
244.502232
 21
108.63854
 31
0.0
  0
LINE
  5
4BC
330
A
100
AcDbEntity
  8
Hawa2
 62
     9
 48
0.04218
370
    13
100
AcDbLine
 10
251.458073
 20
90.13854
 30
0.0
 11
252.651093
 21
91.33155999999999
 31
0.0
  0
LINE
  5
4BD
330
A
100
AcDbEntity
  8
Hawa2
 62
     9
 48
0.042426
370
    13
100
AcDbLine
 10
248.629647
 20
90.13854
 30
0.0
 11
249.829648
 21
91.338541
 31
0.0
  0
LINE
  5
4BE
330
A
100
AcDbEntity
  8
Hawa2
 62
     9
 48
0.018704
370
    13
100
AcDbLine
 10
250.416619
 20
91.925512
 30
0.0
 11
250.945637
 21
92.45453000000001
 31
0.0
  0
LINE
  5
4BF
330
A
100
AcDbEntity
  8
Hawa2
 62
     9
 48
0.014624
370
    13
100
AcDbLine
 10
243.846394
 20
88.18371400000001
 30
0.0
 11
244.260033
 21
88.597353
 31
0.0
  0
LINE
  5
4C0
330
A
100
AcDbEntity
  8
Hawa2
 62
     9
 48
0.057942
370
    13
100
AcDbLine
 10
245.80122
 20
90.13854
 30
0.0
 11
247.440075
 21
91.77739499999999
 31
0.0
  0
LINE
  5
4C1
330
A
100
AcDbEntity
  8
Hawa2
 62
     9
 48
0.067933
370
    13
100
AcDbLine
 10
242.251362
 20
89.417108
 30
0.0
 11
244.172795
 21
91.338541
 31
0.0
  0
LINE
  5
4C2
330
A
100
AcDbEntity
  8
Hawa2
 62
     9
 48
0.014238
370
    13
100
AcDbLine
 10
245.332837
 20
92.49858600000001
 30
0.0
 11
245.735547
 21
92.90129300000002
 31
0.0
  0
LINE
  5
4C3
330
A
100
AcDbEntity
  8
Hawa2
 62
     9
 48
0.034789
370
    13
100
AcDbLine
 10
240.929429
 20
90.923601
 30
0.0
 11
241.913403
 21
91.907575
 31
0.0
  0
LINE
  5
4C4
330
A
100
AcDbEntity
  8
Hawa2
 62
     9
 48
0.01551
370
    13
100
AcDbLine
 10
239.782086
 20
92.60468799999999
 30
0.0
 11
240.220772
 21
93.04337099999999
 31
0.0
  0
INSERT
  5
500
330
A
100
AcDbEntity
  8
HAWA1
100
AcDbBlockReference
  2
HAWA
 10
0.0
 20
0.0
 30
0.0
  0
VIEWPORT
  5
2A5
102
{ACAD_XDICTIONARY
360
76E
102
}
330
B
100
AcDbEntity
 67
     1
  8
HAWA1
 62
     0
370
     0
390
1D
100
AcDbViewport
 10
0.0
 20
0.0
 30
0.0
 40
1000.0
 41
1000.0
 68
     1
 69
     1
 12
0.0
 22
0.0
 13
0.0
 23
0.0
 14
1.0
 24
1.0
 15
1.0
 25
1.0
 16
0.0
 26
0.0
 36
1.0
 17
0.0
 27
0.0
 37
0.0
 42
50.0
 43
0.0
 44
0.0
 45
1000.0
 50
0.0
 51
0.0
 72
   100
 90
        0
  1

281
     0
 71
     0
 74
     1
110
0.0
120
0.0
130
0.0
111
1.0
121
0.0
131
0.0
112
0.0
122
1.0
132
0.0
 79
     0
146
0.0
  0
ENDSEC
  0
SECTION
  2
OBJECTS
  0
DICTIONARY
  5
19
330
0
100
AcDbDictionary
281
     1
  3
ACAD_COLOR
350
4E4
  3
ACAD_GROUP
350
1A
  3
ACAD_LAYOUT
350
1E
  3
ACAD_MATERIAL
350
4CF
  3
ACAD_MLINESTYLE
350
1B
  3
ACAD_PLOTSETTINGS
350
22
  3
ACAD_PLOTSTYLENAME
350
1F
  3
ACAD_TABLESTYLE
350
4E5
  3
ACAD_VISUALSTYLE
350
4D3
  3
ACAD_WIPEOUT_VARS
350
23
  3
AcDbVariableDictionary
350
65D
  3
DWGPROPS
350
769
  0
DICTIONARY
  5
76E
330
2A5
100
AcDbDictionary
280
     1
281
     1
  3
ACAD_XREC_ROUNDTRIP
360
76F
  0
DICTIONARY
  5
4E4
102
{ACAD_REACTORS
330
19
102
}
330
19
100
AcDbDictionary
281
     1
  0
DICTIONARY
  5
1A
102
{ACAD_REACTORS
330
19
102
}
330
19
100
AcDbDictionary
281
     1
  3
*A1
350
4F2
  3
*A10
350
4F7
  3
*A11
350
4F8
  3
*A2
350
4F9
  3
*A3
350
4FA
  3
*A4
350
4FB
  3
*A5
350
4FC
  3
*A6
350
4F3
  3
*A7
350
4F4
  3
*A8
350
4F5
  3
*A9
350
4F6
  0
DICTIONARY
  5
1E
102
{ACAD_REACTORS
330
19
102
}
330
19
100
AcDbDictionary
281
     1
  3
Layout1
350
21
  3
Model
350
20
  0
DICTIONARY
  5
4CF
102
{ACAD_REACTORS
330
19
102
}
330
19
100
AcDbDictionary
281
     1
  3
ByBlock
350
4D1
  3
ByLayer
350
4D0
  3
Global
350
4D2
  0
DICTIONARY
  5
1B
102
{ACAD_REACTORS
330
19
102
}
330
19
100
AcDbDictionary
281
     1
  3
Standard
350
1C
  0
DICTIONARY
  5
22
102
{ACAD_REACTORS
330
19
102
}
330
19
100
AcDbDictionary
281
     1
  0
ACDBDICTIONARYWDFLT
  5
1F
102
{ACAD_REACTORS
330
19
102
}
330
19
100
AcDbDictionary
281
     1
  3
Normal
350
1D
100
AcDbDictionaryWithDefault
340
1D
  0
DICTIONARY
  5
4E5
102
{ACAD_REACTORS
330
19
102
}
330
19
100
AcDbDictionary
281
     1
  3
Standard
350
4E6
  0
DICTIONARY
  5
4D3
102
{ACAD_REACTORS
330
19
102
}
330
19
100
AcDbDictionary
281
     1
  3
2dWireframe
350
4D9
  3
3D Hidden
350
4DB
  3
3dWireframe
350
4DA
  3
Basic
350
4D8
  3
Brighten
350
4DF
  3
ColorChange
350
4E3
  3
Conceptual
350
4DC
  3
Dim
350
4DE
  3
Facepattern
350
4E2
  3
Flat
350
4D4
  3
FlatWithEdges
350
4D5
  3
Gouraud
350
4D6
  3
GouraudWithEdges
350
4D7
  3
Linepattern
350
4E1
  3
Realistic
350
4DD
  3
Thicken
350
4E0
  0
WIPEOUTVARIABLES
  5
23
330
19
100
AcDbWipeoutVariables
 70
     1
  0
DICTIONARY
  5
65D
102
{ACAD_REACTORS
330
19
102
}
330
19
100
AcDbDictionary
281
     1
  3
CTABLESTYLE
350
65E
  3
DIMASSOC
350
661
  3
INDEXCTL
350
660
  3
SORTENTS
350
65F
  0
XRECORD
  5
769
102
{ACAD_REACTORS
330
19
102
}
330
19
100
AcDbXrecord
280
     1
  1
DWGPROPS COOKIE
  2

  3

  4

  6

  7

  8
rhu
  9

300
=
301
=
302
=
303
=
304
=
305
=
306
=
307
=
308
=
309
=
 40
0.0047031481481481
 41
2454925.310071944
 42
2455789.410011643
  1

 90
        0
  0
XRECORD
  5
76F
102
{ACAD_REACTORS
330
76E
102
}
330
76E
100
AcDbXrecord
280
     1
102
SHADEPLOT
 70
     0
  0
GROUP
  5
4F2
102
{ACAD_REACTORS
330
1A
102
}
330
1A
100
AcDbGroup
300

 70
     1
 71
     1
  0
GROUP
  5
4F7
102
{ACAD_REACTORS
330
1A
102
}
330
1A
100
AcDbGroup
300

 70
     1
 71
     1
  0
GROUP
  5
4F8
102
{ACAD_REACTORS
330
1A
102
}
330
1A
100
AcDbGroup
300

 70
     1
 71
     1
  0
GROUP
  5
4F9
102
{ACAD_REACTORS
330
1A
102
}
330
1A
100
AcDbGroup
300

 70
     1
 71
     1
  0
GROUP
  5
4FA
102
{ACAD_REACTORS
330
1A
102
}
330
1A
100
AcDbGroup
300

 70
     1
 71
     1
  0
GROUP
  5
4FB
102
{ACAD_REACTORS
330
1A
102
}
330
1A
100
AcDbGroup
300

 70
     1
 71
     1
  0
GROUP
  5
4FC
102
{ACAD_REACTORS
330
1A
102
}
330
1A
100
AcDbGroup
300

 70
     1
 71
     1
  0
GROUP
  5
4F3
102
{ACAD_REACTORS
330
1A
102
}
330
1A
100
AcDbGroup
300

 70
     1
 71
     1
  0
GROUP
  5
4F4
102
{ACAD_REACTORS
330
1A
102
}
330
1A
100
AcDbGroup
300

 70
     1
 71
     1
  0
GROUP
  5
4F5
102
{ACAD_REACTORS
330
1A
102
}
330
1A
100
AcDbGroup
300

 70
     1
 71
     1
  0
GROUP
  5
4F6
102
{ACAD_REACTORS
330
1A
102
}
330
1A
100
AcDbGroup
300

 70
     1
 71
     1
  0
LAYOUT
  5
21
102
{ACAD_XDICTIONARY
360
76C
102
}
102
{ACAD_REACTORS
330
1E
102
}
330
1E
100
AcDbPlotSettings
  1

  2

  4

  6

 40
0.0
 41
0.0
 42
0.0
 43
0.0
 44
0.0
 45
0.0
 46
0.0
 47
0.0
 48
0.0
 49
0.0
140
0.0
141
0.0
142
1.0
143
1.0
 70
     0
 72
     0
 73
     0
 74
     0
  7

 75
     0
147
1.0
148
0.0
149
0.0
100
AcDbLayout
  1
Layout1
 70
     1
 71
     1
 10
0.0
 20
0.0
 11
420.0
 21
297.0
 12
0.0
 22
0.0
 32
0.0
 14
0.0
 24
0.0
 34
0.0
 15
-10.02885
 25
38.66853300000001
 35
2.0
146
0.0
 13
0.0
 23
0.0
 33
0.0
 16
1.0
 26
0.0
 36
0.0
 17
0.0
 27
1.0
 37
0.0
 76
     0
330
B
331
2A5
  0
LAYOUT
  5
20
102
{ACAD_XDICTIONARY
360
76A
102
}
102
{ACAD_REACTORS
330
1E
102
}
330
1E
100
AcDbPlotSettings
  1

  2

  4

  6

 40
0.0
 41
0.0
 42
0.0
 43
0.0
 44
0.0
 45
0.0
 46
0.0
 47
0.0
 48
0.0
 49
0.0
140
0.0
141
0.0
142
1.0
143
1.0
 70
  1024
 72
     0
 73
     0
 74
     0
  7

 75
     0
147
1.0
148
0.0
149
0.0
100
AcDbLayout
  1
Model
 70
     0
 71
     0
 10
0.0
 20
0.0
 11
0.0
 21
0.0
 12
0.0
 22
0.0
 32
0.0
 14
0.0
 24
0.0
 34
0.0
 15
0.0
 25
0.0
 35
0.0
146
0.0
 13
0.0
 23
0.0
 33
0.0
 16
0.0
 26
0.0
 36
0.0
 17
0.0
 27
0.0
 37
0.0
 76
     0
330
A
331
15
  0
MATERIAL
  5
4D1
102
{ACAD_XDICTIONARY
360
70E
102
}
102
{ACAD_REACTORS
330
4CF
102
}
330
4CF
100
AcDbMaterial
  1
ByBlock
  0
MATERIAL
  5
4D0
102
{ACAD_XDICTIONARY
360
70C
102
}
102
{ACAD_REACTORS
330
4CF
102
}
330
4CF
100
AcDbMaterial
  1
ByLayer
  0
MATERIAL
  5
4D2
102
{ACAD_XDICTIONARY
360
710
102
}
102
{ACAD_REACTORS
330
4CF
102
}
330
4CF
100
AcDbMaterial
  1
Global
  0
MLINESTYLE
  5
1C
102
{ACAD_REACTORS
330
1B
102
}
330
1B
100
AcDbMlineStyle
  2
STANDARD
 70
     0
  3

 62
     0
 51
90.0
 52
90.0
 71
     2
 49
0.5
 62
   256
  6
BYLAYER
 49
-0.5
 62
   256
  6
BYLAYER
  0
ACDBPLACEHOLDER
  5
1D
102
{ACAD_REACTORS
330
1F
102
}
330
1F
  0
TABLESTYLE
  5
4E6
102
{ACAD_XDICTIONARY
360
770
102
}
102
{ACAD_REACTORS
330
4E5
102
}
330
4E5
100
AcDbTableStyle
  3
Standard
 70
     0
 71
     0
 40
1.5
 41
1.5
280
     0
281
     0
  7
STANDARD
140
4.5
170
     2
 62
     0
 63
     7
283
     0
274
    -2
284
     1
 64
     0
275
    -2
285
     1
 65
     0
276
    -2
286
     1
 66
     0
277
    -2
287
     1
 67
     0
278
    -2
288
     1
 68
     0
279
    -2
289
     1
 69
     0
  7
STANDARD
140
6.0
170
     5
 62
     0
 63
     7
283
     0
274
    -2
284
     1
 64
     0
275
    -2
285
     1
 65
     0
276
    -2
286
     1
 66
     0
277
    -2
287
     1
 67
     0
278
    -2
288
     1
 68
     0
279
    -2
289
     1
 69
     0
  7
STANDARD
140
4.5
170
     5
 62
     0
 63
     7
283
     0
274
    -2
284
     1
 64
     0
275
    -2
285
     1
 65
     0
276
    -2
286
     1
 66
     0
277
    -2
287
     1
 67
     0
278
    -2
288
     1
 68
     0
279
    -2
289
     1
 69
     0
  0
VISUALSTYLE
  5
4D9
102
{ACAD_REACTORS
330
4D3
102
}
330
4D3
100
AcDbVisualStyle
  2
2dWireframe
 70
     4
 71
     0
 72
     2
 73
     0
 90
        0
 40
-0.6
 41
-30.0
 62
     5
 63
     7
 74
     1
 91
        4
 64
     7
 65
   257
 75
     1
175
     1
 42
1.0
 92
        0
 66
   257
 43
1.0
 76
     1
 77
     6
 78
     2
 67
     7
 79
     5
170
     0
171
     0
290
     0
174
     0
 93
        1
 44
0.0
173
     0
291
     0
 45
0.0
1001
ACAD
1000
AcDbSavedByObjectVersion
1070
     0
1000
AcDbSavedByObjectVersion
1070
     0
1000
AcDbSavedByObjectVersion
1070
     0
  0
VISUALSTYLE
  5
4DB
102
{ACAD_REACTORS
330
4D3
102
}
330
4D3
100
AcDbVisualStyle
  2
3D Hidden
 70
     6
 71
     1
 72
     2
 73
     2
 90
        0
 40
-0.6
 41
-30.0
 62
     5
 63
     7
 74
     2
 91
        2
 64
     7
 65
   257
 75
     2
175
     1
 42
40.0
 92
        0
 66
   257
 43
1.0
 76
     1
 77
     6
 78
     2
 67
     7
 79
     3
170
     0
171
     0
290
     0
174
     0
 93
        1
 44
0.0
173
     0
291
     0
 45
0.0
1001
ACAD
1000
AcDbSavedByObjectVersion
1070
     0
1000
AcDbSavedByObjectVersion
1070
     0
1000
AcDbSavedByObjectVersion
1070
     0
  0
VISUALSTYLE
  5
4DA
102
{ACAD_REACTORS
330
4D3
102
}
330
4D3
100
AcDbVisualStyle
  2
3dWireframe
 70
     5
 71
     0
 72
     2
 73
     0
 90
        0
 40
-0.6
 41
-30.0
 62
     5
 63
     7
 74
     1
 91
        4
 64
     7
 65
   257
 75
     1
175
     1
 42
1.0
 92
        0
 66
   257
 43
1.0
 76
     1
 77
     6
 78
     2
 67
     7
 79
     5
170
     0
171
     0
290
     0
174
     0
 93
        1
 44
0.0
173
     0
291
     0
 45
0.0
1001
ACAD
1000
AcDbSavedByObjectVersion
1070
     0
1000
AcDbSavedByObjectVersion
1070
     0
1000
AcDbSavedByObjectVersion
1070
     0
  0
VISUALSTYLE
  5
4D8
102
{ACAD_REACTORS
330
4D3
102
}
330
4D3
100
AcDbVisualStyle
  2
Basic
 70
     7
 71
     1
 72
     0
 73
     1
 90
        0
 40
-0.6
 41
-30.0
 62
     5
 63
     7
 74
     0
 91
        4
 64
     7
 65
   257
 75
     1
175
     1
 42
1.0
 92
        8
 66
     7
 43
1.0
 76
     1
 77
     6
 78
     2
 67
     7
 79
     5
170
     0
171
     0
290
     0
174
     0
 93
        1
 44
0.0
173
     0
291
     1
 45
0.0
1001
ACAD
1000
AcDbSavedByObjectVersion
1070
     0
1000
AcDbSavedByObjectVersion
1070
     0
1000
AcDbSavedByObjectVersion
1070
     0
  0
VISUALSTYLE
  5
4DF
102
{ACAD_REACTORS
330
4D3
102
}
330
4D3
100
AcDbVisualStyle
  2
Brighten
 70
    12
 71
     2
 72
     2
 73
     0
 90
        0
 40
-0.6
 41
-30.0
 62
     5
 63
     7
 74
     1
 91
        4
 64
     7
 65
   257
 75
     1
175
     1
 42
1.0
 92
        8
 66
     7
 43
1.0
 76
     1
 77
     6
 78
     2
 67
     7
 79
     5
170
     0
171
     0
290
     0
174
     0
 93
        1
 44
50.0
173
     0
291
     1
 45
0.0
1001
ACAD
1000
AcDbSavedByObjectVersion
1070
     0
1000
AcDbSavedByObjectVersion
1070
     0
1000
AcDbSavedByObjectVersion
1070
     0
  0
VISUALSTYLE
  5
4E3
102
{ACAD_REACTORS
330
4D3
102
}
330
4D3
100
AcDbVisualStyle
  2
ColorChange
 70
    16
 71
     2
 72
     2
 73
     3
 90
        0
 40
-0.6
 41
-30.0
 62
     5
 63
     8
 74
     1
 91
        4
 64
     7
 65
   257
 75
     1
175
     1
 42
1.0
 92
        8
 66
     8
 43
1.0
 76
     1
 77
     6
 78
     2
 67
     7
 79
     5
170
     0
171
     0
290
     0
174
     0
 93
        1
 44
0.0
173
     0
291
     1
 45
0.0
1001
ACAD
1000
AcDbSavedByObjectVersion
1070
     0
1000
AcDbSavedByObjectVersion
1070
     0
1000
AcDbSavedByObjectVersion
1070
     0
  0
VISUALSTYLE
  5
4DC
102
{ACAD_REACTORS
330
4D3
102
}
330
4D3
100
AcDbVisualStyle
  2
Conceptual
 70
     9
 71
     3
 72
     2
 73
     0
 90
        0
 40
-0.6
 41
-30.0
 62
     5
 63
     7
 74
     2
 91
        2
 64
     7
 65
   257
 75
     1
175
     1
 42
40.0
 92
        8
 66
     7
 43
1.0
 76
     1
 77
     6
 78
     2
 67
     7
 79
     3
170
     0
171
     0
290
     0
174
     0
 93
        1
 44
0.0
173
     0
291
     0
 45
0.0
1001
ACAD
1000
AcDbSavedByObjectVersion
1070
     0
1000
AcDbSavedByObjectVersion
1070
     0
1000
AcDbSavedByObjectVersion
1070
     0
  0
VISUALSTYLE
  5
4DE
102
{ACAD_REACTORS
330
4D3
102
}
330
4D3
100
AcDbVisualStyle
  2
Dim
 70
    11
 71
     2
 72
     2
 73
     0
 90
        0
 40
-0.6
 41
-30.0
 62
     5
 63
     7
 74
     1
 91
        4
 64
     7
 65
   257
 75
     1
175
     1
 42
1.0
 92
        8
 66
     7
 43
1.0
 76
     1
 77
     6
 78
     2
 67
     7
 79
     5
170
     0
171
     0
290
     0
174
     0
 93
        1
 44
-50.0
173
     0
291
     1
 45
0.0
1001
ACAD
1000
AcDbSavedByObjectVersion
1070
     0
1000
AcDbSavedByObjectVersion
1070
     0
1000
AcDbSavedByObjectVersion
1070
     0
  0
VISUALSTYLE
  5
4E2
102
{ACAD_REACTORS
330
4D3
102
}
330
4D3
100
AcDbVisualStyle
  2
Facepattern
 70
    15
 71
     2
 72
     2
 73
     0
 90
        0
 40
-0.6
 41
-30.0
 62
     5
 63
     7
 74
     1
 91
        4
 64
     7
 65
   257
 75
     1
175
     1
 42
1.0
 92
        8
 66
     7
 43
1.0
 76
     1
 77
     6
 78
     2
 67
     7
 79
     5
170
     0
171
     0
290
     0
174
     0
 93
        1
 44
0.0
173
     0
291
     1
 45
0.0
1001
ACAD
1000
AcDbSavedByObjectVersion
1070
     0
1000
AcDbSavedByObjectVersion
1070
     0
1000
AcDbSavedByObjectVersion
1070
     0
  0
VISUALSTYLE
  5
4D4
102
{ACAD_REACTORS
330
4D3
102
}
330
4D3
100
AcDbVisualStyle
  2
Flat
 70
     0
 71
     2
 72
     1
 73
     1
 90
        2
 40
-0.6
 41
30.0
 62
     5
 63
     7
 74
     0
 91
        4
 64
     7
 65
   257
 75
     1
175
     1
 42
1.0
 92
        8
 66
     7
 43
1.0
 76
     1
 77
     6
 78
     2
 67
     7
 79
     5
170
     0
171
     0
290
     0
174
     0
 93
       13
 44
0.0
173
     0
291
     1
 45
0.0
1001
ACAD
1000
AcDbSavedByObjectVersion
1070
     0
1000
AcDbSavedByObjectVersion
1070
     0
1000
AcDbSavedByObjectVersion
1070
     0
  0
VISUALSTYLE
  5
4D5
102
{ACAD_REACTORS
330
4D3
102
}
330
4D3
100
AcDbVisualStyle
  2
FlatWithEdges
 70
     1
 71
     2
 72
     1
 73
     1
 90
        2
 40
-0.6
 41
30.0
 62
     5
 63
     7
 74
     1
 91
        4
 64
     7
 65
   257
 75
     1
175
     1
 42
1.0
 92
        0
 66
   257
 43
1.0
 76
     1
 77
     6
 78
     2
 67
     7
 79
     5
170
     0
171
     0
290
     0
174
     0
 93
       13
 44
0.0
173
     0
291
     1
 45
0.0
1001
ACAD
1000
AcDbSavedByObjectVersion
1070
     0
1000
AcDbSavedByObjectVersion
1070
     0
1000
AcDbSavedByObjectVersion
1070
     0
  0
VISUALSTYLE
  5
4D6
102
{ACAD_REACTORS
330
4D3
102
}
330
4D3
100
AcDbVisualStyle
  2
Gouraud
 70
     2
 71
     2
 72
     2
 73
     1
 90
        2
 40
-0.6
 41
30.0
 62
     5
 63
     7
 74
     0
 91
        4
 64
     7
 65
   257
 75
     1
175
     1
 42
1.0
 92
        0
 66
     7
 43
1.0
 76
     1
 77
     6
 78
     2
 67
     7
 79
     5
170
     0
171
     0
290
     0
174
     0
 93
       13
 44
0.0
173
     0
291
     1
 45
0.0
1001
ACAD
1000
AcDbSavedByObjectVersion
1070
     0
1000
AcDbSavedByObjectVersion
1070
     0
1000
AcDbSavedByObjectVersion
1070
     0
  0
VISUALSTYLE
  5
4D7
102
{ACAD_REACTORS
330
4D3
102
}
330
4D3
100
AcDbVisualStyle
  2
GouraudWithEdges
 70
     3
 71
     2
 72
     2
 73
     1
 90
        2
 40
-0.6
 41
30.0
 62
     5
 63
     7
 74
     1
 91
        4
 64
     7
 65
   257
 75
     1
175
     1
 42
1.0
 92
        0
 66
   257
 43
1.0
 76
     1
 77
     6
 78
     2
 67
     7
 79
     5
170
     0
171
     0
290
     0
174
     0
 93
       13
 44
0.0
173
     0
291
     1
 45
0.0
1001
ACAD
1000
AcDbSavedByObjectVersion
1070
     0
1000
AcDbSavedByObjectVersion
1070
     0
1000
AcDbSavedByObjectVersion
1070
     0
  0
VISUALSTYLE
  5
4E1
102
{ACAD_REACTORS
330
4D3
102
}
330
4D3
100
AcDbVisualStyle
  2
Linepattern
 70
    14
 71
     2
 72
     2
 73
     0
 90
        0
 40
-0.6
 41
-30.0
 62
     5
 63
     7
 74
     1
 91
        4
 64
     7
 65
   257
 75
     7
175
     7
 42
1.0
 92
        8
 66
     7
 43
1.0
 76
     1
 77
     6
 78
     2
 67
     7
 79
     5
170
     0
171
     0
290
     0
174
     0
 93
        1
 44
0.0
173
     0
291
     1
 45
0.0
1001
ACAD
1000
AcDbSavedByObjectVersion
1070
     0
1000
AcDbSavedByObjectVersion
1070
     0
1000
AcDbSavedByObjectVersion
1070
     0
  0
VISUALSTYLE
  5
4DD
102
{ACAD_REACTORS
330
4D3
102
}
330
4D3
100
AcDbVisualStyle
  2
Realistic
 70
     8
 71
     2
 72
     2
 73
     0
 90
        0
 40
-0.6
 41
-30.0
 62
     5
 63
     7
 74
     1
 91
        0
 64
     7
 65
   257
 75
     1
175
     1
 42
1.0
 92
        8
 66
     8
 43
1.0
 76
     1
 77
     6
 78
     2
 67
     7
 79
     5
170
     0
171
     0
290
     0
174
     0
 93
       13
 44
0.0
173
     0
291
     0
 45
0.0
1001
ACAD
1000
AcDbSavedByObjectVersion
1070
     0
1000
AcDbSavedByObjectVersion
1070
     0
1000
AcDbSavedByObjectVersion
1070
     0
  0
VISUALSTYLE
  5
4E0
102
{ACAD_REACTORS
330
4D3
102
}
330
4D3
100
AcDbVisualStyle
  2
Thicken
 70
    13
 71
     2
 72
     2
 73
     0
 90
        0
 40
-0.6
 41
-30.0
 62
     5
 63
     7
 74
     1
 91
        4
 64
     7
 65
   257
 75
     1
175
     1
 42
1.0
 92
       12
 66
     7
 43
1.0
 76
     1
 77
     6
 78
     2
 67
     7
 79
     5
170
     0
171
     0
290
     0
174
     0
 93
        1
 44
0.0
173
     0
291
     1
 45
0.0
1001
ACAD
1000
AcDbSavedByObjectVersion
1070
     0
1000
AcDbSavedByObjectVersion
1070
     0
1000
AcDbSavedByObjectVersion
1070
     0
  0
DICTIONARYVAR
  5
65E
102
{ACAD_REACTORS
330
65D
102
}
330
65D
100
DictionaryVariables
280
     0
  1
STANDARD
  0
DICTIONARYVAR
  5
661
102
{ACAD_REACTORS
330
65D
102
}
330
65D
100
DictionaryVariables
280
     0
  1
1
  0
DICTIONARYVAR
  5
660
102
{ACAD_REACTORS
330
65D
102
}
330
65D
100
DictionaryVariables
280
     0
  1
0
  0
DICTIONARYVAR
  5
65F
102
{ACAD_REACTORS
330
65D
102
}
330
65D
100
DictionaryVariables
280
     0
  1
127
  0
DICTIONARY
  5
76C
330
21
100
AcDbDictionary
280
     1
281
     1
  3
ACAD_XREC_ROUNDTRIP
360
76D
  0
DICTIONARY
  5
76A
330
20
100
AcDbDictionary
280
     1
281
     1
  3
ACAD_XREC_ROUNDTRIP
360
76B
  0
DICTIONARY
  5
70E
330
4D1
100
AcDbDictionary
280
     1
281
     1
  3
ACAD_XREC_ROUNDTRIP
360
70F
  0
DICTIONARY
  5
70C
330
4D0
100
AcDbDictionary
280
     1
281
     1
  3
ACAD_XREC_ROUNDTRIP
360
70D
  0
DICTIONARY
  5
710
330
4D2
100
AcDbDictionary
280
     1
281
     1
  3
ACAD_XREC_ROUNDTRIP
360
711
  0
DICTIONARY
  5
770
330
4E6
100
AcDbDictionary
280
     1
281
     1
  3
ACAD_XREC_ROUNDTRIP
360
771
  0
XRECORD
  5
76D
102
{ACAD_REACTORS
330
76C
102
}
330
76C
100
AcDbXrecord
280
     1
102
SHADEPLOT
 70
     0
102
SHADEPLOTRESLEVEL
 70
     2
102
SHADEPLOTCUSTOMDPI
 70
   300
  0
XRECORD
  5
76B
102
{ACAD_REACTORS
330
76A
102
}
330
76A
100
AcDbXrecord
280
     1
102
SHADEPLOT
 70
     0
102
SHADEPLOTRESLEVEL
 70
     2
102
SHADEPLOTCUSTOMDPI
 70
   300
  0
XRECORD
  5
70F
102
{ACAD_REACTORS
330
70E
102
}
330
70E
100
AcDbXrecord
280
     1
102
MATERIAL
148
0.0
149
0.0
149
0.0
 93
        0
 94
       63
282
     0
 72
     1
 77
     1
171
     1
175
     1
179
     1
273
     0
  0
XRECORD
  5
70D
102
{ACAD_REACTORS
330
70C
102
}
330
70C
100
AcDbXrecord
280
     1
102
MATERIAL
148
0.0
149
0.0
149
0.0
 93
        0
 94
       63
282
     0
 72
     1
 77
     1
171
     1
175
     1
179
     1
273
     0
  0
XRECORD
  5
711
102
{ACAD_REACTORS
330
710
102
}
330
710
100
AcDbXrecord
280
     1
102
MATERIAL
148
0.0
149
0.0
149
0.0
 93
        0
 94
       63
282
     0
 72
     1
 77
     1
171
     1
175
     1
179
     1
273
     0
  0
XRECORD
  5
771
102
{ACAD_REACTORS
330
770
102
}
330
770
100
AcDbXrecord
280
     1
102
ACAD_ROUNDTRIP_PRE2007_TABLESTYLE
 90
      512
 91
        0
  1

 92
      512
 93
        0
  2

 94
      512
 95
        0
  3

  0
ENDSEC
  0
EOF
