  0
SECTION
  2
HEADER
  9
$ACADVER
  1
AC1015
  9
$ACADMAINTVER
 70
    20
  9
$DWGCODEPAGE
  3
ANSI_1252
  9
$INSBASE
 10
0.0
 20
0.0
 30
0.0
  9
$EXTMIN
 10
35.68359476942987
 20
113.5366982113764
 30
-0.0000610304997082
  9
$EXTMAX
 10
149.9185187298787
 20
215.5035558944842
 30
0.000091555062788
  9
$LIMMIN
 10
0.0
 20
0.0
  9
$LIMMAX
 10
420.0
 20
297.0
  9
$ORTHOMODE
 70
     0
  9
$REGENMODE
 70
     1
  9
$FILLMODE
 70
     1
  9
$QTEXTMODE
 70
     0
  9
$MIRRTEXT
 70
     1
  9
$LTSCALE
 40
1.0
  9
$ATTMODE
 70
     1
  9
$TEXTSIZE
 40
2.5
  9
$TRACEWID
 40
1.0
  9
$TEXTSTYLE
  7
STANDARD
  9
$CLAYER
  8
0
  9
$CELTYPE
  6
BYLAYER
  9
$CECOLOR
 62
   256
  9
$CELTSCALE
 40
1.0
  9
$DISPSILH
 70
     0
  9
$DIMSCALE
 40
1.0
  9
$DIMASZ
 40
2.0
  9
$DIMEXO
 40
2.0
  9
$DIMDLI
 40
0.0
  9
$DIMRND
 40
0.0
  9
$DIMDLE
 40
1.0
  9
$DIMEXE
 40
1.0
  9
$DIMTP
 40
0.0
  9
$DIMTM
 40
0.0
  9
$DIMTXT
 40
3.5
  9
$DIMCEN
 40
0.0
  9
$DIMTSZ
 40
0.0
  9
$DIMTOL
 70
     0
  9
$DIMLIM
 70
     0
  9
$DIMTIH
 70
     0
  9
$DIMTOH
 70
     0
  9
$DIMSE1
 70
     0
  9
$DIMSE2
 70
     0
  9
$DIMTAD
 70
     1
  9
$DIMZIN
 70
     8
  9
$DIMBLK
  1

  9
$DIMASO
 70
     1
  9
$DIMSHO
 70
     1
  9
$DIMPOST
  1

  9
$DIMAPOST
  1

  9
$DIMALT
 70
     1
  9
$DIMALTD
 70
     5
  9
$DIMALTF
 40
0.039370078740157
  9
$DIMLFAC
 40
1.0
  9
$DIMTOFL
 70
     1
  9
$DIMTVP
 40
0.0
  9
$DIMTIX
 70
     0
  9
$DIMSOXD
 70
     0
  9
$DIMSAH
 70
     1
  9
$DIMBLK1
  1
Oblique
  9
$DIMBLK2
  1
Oblique
  9
$DIMSTYLE
  2
HAWA-Strich
  9
$DIMCLRD
 70
   256
  9
$DIMCLRE
 70
   256
  9
$DIMCLRT
 70
   256
  9
$DIMTFAC
 40
0.7114285714285719
  9
$DIMGAP
 40
1.0
  9
$DIMJUST
 70
     0
  9
$DIMSD1
 70
     0
  9
$DIMSD2
 70
     0
  9
$DIMTOLJ
 70
     1
  9
$DIMTZIN
 70
     8
  9
$DIMALTZ
 70
     8
  9
$DIMALTTZ
 70
     8
  9
$DIMUPT
 70
     0
  9
$DIMDEC
 70
     1
  9
$DIMTDEC
 70
     1
  9
$DIMALTU
 70
     4
  9
$DIMALTTD
 70
     5
  9
$DIMTXSTY
  7
Beschlag
  9
$DIMAUNIT
 70
     0
  9
$DIMADEC
 70
     1
  9
$DIMALTRND
 40
0.0
  9
$DIMAZIN
 70
     2
  9
$DIMDSEP
 70
    46
  9
$DIMATFIT
 70
     3
  9
$DIMFRAC
 70
     0
  9
$DIMLDRBLK
  1
Oblique
  9
$DIMLUNIT
 70
     2
  9
$DIMLWD
 70
    -2
  9
$DIMLWE
 70
    -2
  9
$DIMTMOVE
 70
     0
  9
$LUNITS
 70
     2
  9
$LUPREC
 70
     4
  9
$SKETCHINC
 40
1.0
  9
$FILLETRAD
 40
2.5
  9
$AUNITS
 70
     0
  9
$AUPREC
 70
     0
  9
$MENU
  1
.
  9
$ELEVATION
 40
0.0
  9
$PELEVATION
 40
0.0
  9
$THICKNESS
 40
0.0
  9
$LIMCHECK
 70
     0
  9
$CHAMFERA
 40
2.5
  9
$CHAMFERB
 40
2.5
  9
$CHAMFERC
 40
0.0
  9
$CHAMFERD
 40
0.0
  9
$SKPOLY
 70
     0
  9
$TDCREATE
 40
2447893.000000000
  9
$TDUCREATE
 40
2447892.916666666
  9
$TDUPDATE
 40
2455789.394235197
  9
$TDUUPDATE
 40
2455789.310901864
  9
$TDINDWG
 40
0.0036530671
  9
$TDUSRTIMER
 40
0.0036525000
  9
$USRTIMER
 70
     1
  9
$ANGBASE
 50
0.0
  9
$ANGDIR
 70
     0
  9
$PDMODE
 70
     0
  9
$PDSIZE
 40
0.0
  9
$PLINEWID
 40
0.0
  9
$SPLFRAME
 70
     0
  9
$SPLINETYPE
 70
     6
  9
$SPLINESEGS
 70
     8
  9
$HANDSEED
  5
69E
  9
$SURFTAB1
 70
     6
  9
$SURFTAB2
 70
     6
  9
$SURFTYPE
 70
     6
  9
$SURFU
 70
     6
  9
$SURFV
 70
     6
  9
$UCSBASE
  2

  9
$UCSNAME
  2

  9
$UCSORG
 10
0.0
 20
0.0
 30
0.0
  9
$UCSXDIR
 10
1.0
 20
0.0
 30
0.0
  9
$UCSYDIR
 10
0.0
 20
1.0
 30
0.0
  9
$UCSORTHOREF
  2

  9
$UCSORTHOVIEW
 70
     0
  9
$UCSORGTOP
 10
0.0
 20
0.0
 30
0.0
  9
$UCSORGBOTTOM
 10
0.0
 20
0.0
 30
0.0
  9
$UCSORGLEFT
 10
0.0
 20
0.0
 30
0.0
  9
$UCSORGRIGHT
 10
0.0
 20
0.0
 30
0.0
  9
$UCSORGFRONT
 10
0.0
 20
0.0
 30
0.0
  9
$UCSORGBACK
 10
0.0
 20
0.0
 30
0.0
  9
$PUCSBASE
  2

  9
$PUCSNAME
  2

  9
$PUCSORG
 10
0.0
 20
0.0
 30
0.0
  9
$PUCSXDIR
 10
1.0
 20
0.0
 30
0.0
  9
$PUCSYDIR
 10
0.0
 20
1.0
 30
0.0
  9
$PUCSORTHOREF
  2

  9
$PUCSORTHOVIEW
 70
     0
  9
$PUCSORGTOP
 10
0.0
 20
0.0
 30
0.0
  9
$PUCSORGBOTTOM
 10
0.0
 20
0.0
 30
0.0
  9
$PUCSORGLEFT
 10
0.0
 20
0.0
 30
0.0
  9
$PUCSORGRIGHT
 10
0.0
 20
0.0
 30
0.0
  9
$PUCSORGFRONT
 10
0.0
 20
0.0
 30
0.0
  9
$PUCSORGBACK
 10
0.0
 20
0.0
 30
0.0
  9
$USERI1
 70
     0
  9
$USERI2
 70
     0
  9
$USERI3
 70
     0
  9
$USERI4
 70
     0
  9
$USERI5
 70
     0
  9
$USERR1
 40
0.0
  9
$USERR2
 40
0.0
  9
$USERR3
 40
0.0
  9
$USERR4
 40
0.0
  9
$USERR5
 40
0.0
  9
$WORLDVIEW
 70
     1
  9
$SHADEDGE
 70
     3
  9
$SHADEDIF
 70
    70
  9
$TILEMODE
 70
     1
  9
$MAXACTVP
 70
    48
  9
$PINSBASE
 10
0.0
 20
0.0
 30
0.0
  9
$PLIMCHECK
 70
     0
  9
$PEXTMIN
 10
0.0
 20
0.0
 30
0.0
  9
$PEXTMAX
 10
101.689774
 20
-1686.902466
 30
2.0
  9
$PLIMMIN
 10
0.0
 20
0.0
  9
$PLIMMAX
 10
420.0
 20
297.0
  9
$UNITMODE
 70
     0
  9
$VISRETAIN
 70
     0
  9
$PLINEGEN
 70
     0
  9
$PSLTSCALE
 70
     1
  9
$TREEDEPTH
 70
  3020
  9
$CMLSTYLE
  2
STANDARD
  9
$CMLJUST
 70
     0
  9
$CMLSCALE
 40
20.0
  9
$PROXYGRAPHICS
 70
     1
  9
$MEASUREMENT
 70
     1
  9
$CELWEIGHT
370
    -1
  9
$ENDCAPS
280
     0
  9
$JOINSTYLE
280
     0
  9
$LWDISPLAY
290
     0
  9
$INSUNITS
 70
     0
  9
$HYPERLINKBASE
  1

  9
$STYLESHEET
  1

  9
$XEDIT
290
     1
  9
$CEPSNTYPE
380
     0
  9
$PSTYLEMODE
290
     1
  9
$FINGERPRINTGUID
  2
{D95735AD-29DA-4737-BBEB-8BF3E5FEA910}
  9
$VERSIONGUID
  2
{526C9833-F835-4B82-B20A-415EB545D618}
  9
$EXTNAMES
290
     1
  9
$PSVPSCALE
 40
0.0
  9
$OLESTARTUP
290
     0
  0
ENDSEC
  0
SECTION
  2
CLASSES
  0
CLASS
  1
LWPOLYLINE
  2
AcDbPolyline
  3
ObjectDBX Classes
 90
    32768
280
     0
281
     1
  0
CLASS
  1
IMAGE
  2
AcDbRasterImage
  3
ISM
 90
    34943
280
     0
281
     1
  0
CLASS
  1
OLE2FRAME
  2
AcDbOle2Frame
  3
ObjectDBX Classes
 90
    32768
280
     0
281
     1
  0
CLASS
  1
HATCH
  2
AcDbHatch
  3
ObjectDBX Classes
 90
    32768
280
     0
281
     1
  0
CLASS
  1
DICTIONARYVAR
  2
AcDbDictionaryVar
  3
ObjectDBX Classes
 90
        0
280
     0
281
     0
  0
CLASS
  1
RASTERVARIABLES
  2
AcDbRasterVariables
  3
ISM
 90
    32768
280
     0
281
     0
  0
CLASS
  1
IMAGEDEF
  2
AcDbRasterImageDef
  3
ISM
 90
    32768
280
     0
281
     0
  0
CLASS
  1
IMAGEDEF_REACTOR
  2
AcDbRasterImageDefReactor
  3
ISM
 90
    32769
280
     0
281
     0
  0
CLASS
  1
IDBUFFER
  2
AcDbIdBuffer
  3
ObjectDBX Classes
 90
    32768
280
     0
281
     0
  0
CLASS
  1
SPATIAL_FILTER
  2
AcDbSpatialFilter
  3
ObjectDBX Classes
 90
    32768
280
     0
281
     0
  0
CLASS
  1
XRECORD
  2
AcDbXrecord
  3
ObjectDBX Classes
 90
        0
280
     0
281
     0
  0
CLASS
  1
SORTENTSTABLE
  2
AcDbSortentsTable
  3
ObjectDBX Classes
 90
    32768
280
     0
281
     0
  0
CLASS
  1
LAYER_INDEX
  2
AcDbLayerIndex
  3
ObjectDBX Classes
 90
    32768
280
     0
281
     0
  0
CLASS
  1
SPATIAL_INDEX
  2
AcDbSpatialIndex
  3
ObjectDBX Classes
 90
    32768
280
     0
281
     0
  0
CLASS
  1
OBJECT_PTR
  2
CAseDLPNTableRecord
  3
ASE-LPNTableRecord
 90
    32769
280
     0
281
     0
  0
CLASS
  1
LAYOUT
  2
AcDbLayout
  3
ObjectDBX Classes
 90
        0
280
     0
281
     0
  0
CLASS
  1
PLOTSETTINGS
  2
AcDbPlotSettings
  3
ObjectDBX Classes
 90
    32768
280
     0
281
     0
  0
CLASS
  1
ACDBDICTIONARYWDFLT
  2
AcDbDictionaryWithDefault
  3
ObjectDBX Classes
 90
        0
280
     0
281
     0
  0
CLASS
  1
ACDBPLACEHOLDER
  2
AcDbPlaceHolder
  3
ObjectDBX Classes
 90
        0
280
     0
281
     0
  0
CLASS
  1
VBA_PROJECT
  2
AcDbVbaProject
  3
acad
 90
    32768
280
     0
281
     0
  0
CLASS
  1
WIPEOUT
  2
AcDbWipeout
  3
"WipeOut|Product Desc: Object Enabler for WipeOut entity                        |Company: Autodesk, Inc.                        |WEB Address: www.autodesk.com"
 90
    34943
280
     0
281
     1
  0
CLASS
  1
WIPEOUTVARIABLES
  2
AcDbWipeoutVariables
  3
"WipeOut|Product Desc:     WipeOut Dbx Application|Company:          Autodesk, Inc.|WEB Address:      www.autodesk.com"
 90
    32768
280
     0
281
     0
  0
CLASS
  1
RTEXT
  2
RText
  3
RText|AutoCAD Express Tool|expresstools@autodesk.com
 90
    32768
280
     0
281
     1
  0
CLASS
  1
ARCALIGNEDTEXT
  2
AcDbArcAlignedText
  3
ATEXT|AutoCAD Express Tool|expresstools@autodesk.com
 90
    32768
280
     0
281
     1
  0
CLASS
  1
SCALE
  2
AcDbScale
  3
ObjectDBX Classes
 90
     1153
280
     0
281
     0
  0
CLASS
  1
MATERIAL
  2
AcDbMaterial
  3
ObjectDBX Classes
 90
     1024
280
     0
281
     0
  0
CLASS
  1
VISUALSTYLE
  2
AcDbVisualStyle
  3
ObjectDBX Classes
 90
     4095
280
     0
281
     0
  0
CLASS
  1
TABLESTYLE
  2
AcDbTableStyle
  3
ObjectDBX Classes
 90
     4095
280
     0
281
     0
  0
ENDSEC
  0
SECTION
  2
TABLES
  0
TABLE
  2
VPORT
  5
7
330
0
100
AcDbSymbolTable
 70
     1
  0
VPORT
  5
15
330
7
100
AcDbSymbolTableRecord
100
AcDbViewportTableRecord
  2
*ACTIVE
 70
     0
 10
0.0
 20
0.0
 11
1.0
 21
1.0
 12
92.80105674965431
 22
164.5201270529303
 13
0.0
 23
0.0
 14
1.0
 24
1.0
 15
0.0
 25
0.0
 16
0.0
 26
0.0
 36
1.0
 17
0.0
 27
0.0
 37
0.0
 40
102.6015061749113
 41
1.905503634475597
 42
50.0
 43
0.0
 44
0.0
 50
0.0
 51
0.0
 71
     0
 72
   100
 73
     1
 74
     1
 75
     0
 76
     0
 77
     0
 78
     0
281
     0
 65
     1
110
0.0
120
0.0
130
0.0
111
1.0
121
0.0
131
0.0
112
0.0
122
1.0
132
0.0
 79
     0
146
0.0
  0
ENDTAB
  0
TABLE
  2
LTYPE
  5
4
330
0
100
AcDbSymbolTable
 70
     3
  0
LTYPE
  5
11
330
4
100
AcDbSymbolTableRecord
100
AcDbLinetypeTableRecord
  2
BYBLOCK
 70
     0
  3

 72
    65
 73
     0
 40
0.0
  0
LTYPE
  5
12
330
4
100
AcDbSymbolTableRecord
100
AcDbLinetypeTableRecord
  2
BYLAYER
 70
     0
  3

 72
    65
 73
     0
 40
0.0
  0
LTYPE
  5
13
330
4
100
AcDbSymbolTableRecord
100
AcDbLinetypeTableRecord
  2
CONTINUOUS
 70
     0
  3
Solid line
 72
    65
 73
     0
 40
0.0
  0
LTYPE
  5
1D
330
4
100
AcDbSymbolTableRecord
100
AcDbLinetypeTableRecord
  2
DASHDOT
 70
     0
  3
 __ . __ . __ . __ . __ . __ . __ . 
 72
    65
 73
     4
 40
18.5
 49
12.0
 74
     0
 49
-3.0
 74
     0
 49
0.5
 74
     0
 49
-3.0
 74
     0
  0
LTYPE
  5
1E
330
4
100
AcDbSymbolTableRecord
100
AcDbLinetypeTableRecord
  2
PHANTOM
 70
     0
  3
____________    ____    ____   _
 72
    65
 73
     6
 40
20.0
 49
10.0
 74
     0
 49
-2.0
 74
     0
 49
2.0
 74
     0
 49
-2.0
 74
     0
 49
2.0
 74
     0
 49
-2.0
 74
     0
  0
ENDTAB
  0
TABLE
  2
LAYER
  5
2
330
0
100
AcDbSymbolTable
 70
     7
  0
LAYER
  5
14
330
2
100
AcDbSymbolTableRecord
100
AcDbLayerTableRecord
  2
0
 70
     0
 62
     7
  6
CONTINUOUS
370
    -3
390
4D7
  0
LAYER
  5
4C8
330
2
100
AcDbSymbolTableRecord
100
AcDbLayerTableRecord
  2
Hawa1
 70
     0
 62
     2
  6
CONTINUOUS
370
     0
390
4D7
  0
LAYER
  5
4C9
330
2
100
AcDbSymbolTableRecord
100
AcDbLayerTableRecord
  2
Hawa2
 70
     0
 62
     9
  6
CONTINUOUS
370
     0
390
4D7
  0
LAYER
  5
4CA
330
2
100
AcDbSymbolTableRecord
100
AcDbLayerTableRecord
  2
Hawa4
 70
     0
 62
     4
  6
CONTINUOUS
370
     0
390
4D7
  0
LAYER
  5
4CB
330
2
100
AcDbSymbolTableRecord
100
AcDbLayerTableRecord
  2
Hawa5
 70
     0
 62
     1
  6
CONTINUOUS
370
    -3
390
4D7
  0
LAYER
  5
4CC
330
2
100
AcDbSymbolTableRecord
100
AcDbLayerTableRecord
  2
Hawa6
 70
     0
 62
     3
  6
CONTINUOUS
370
    -3
390
4D7
  0
LAYER
  5
4F3
330
2
100
AcDbSymbolTableRecord
100
AcDbLayerTableRecord
  2
Defpoints
 70
     0
 62
     7
  6
CONTINUOUS
290
     0
370
    -3
390
4D7
  0
ENDTAB
  0
TABLE
  2
STYLE
  5
3
330
0
100
AcDbSymbolTable
 70
     3
  0
STYLE
  5
17
330
3
100
AcDbSymbolTableRecord
100
AcDbTextStyleTableRecord
  2
STANDARD
 70
     0
 40
0.0
 41
1.0
 50
0.0
 71
     0
 42
2.5
  3
isocp.shx
  4

  0
STYLE
  5
1F
330
3
100
AcDbSymbolTableRecord
100
AcDbTextStyleTableRecord
  2
GDT
 70
     0
 40
0.0
 41
1.0
 50
0.0
 71
     0
 42
2.5
  3
gdt.shx
  4

  0
STYLE
  5
4F5
330
3
100
AcDbSymbolTableRecord
100
AcDbTextStyleTableRecord
  2
Beschlag
 70
     0
 40
0.0
 41
0.9
 50
0.0
 71
     0
 42
3.5
  3
arial.ttf
  4

1001
ACAD
1000
Arial
1071
       34
  0
ENDTAB
  0
TABLE
  2
VIEW
  5
5
330
0
100
AcDbSymbolTable
 70
     0
  0
ENDTAB
  0
TABLE
  2
UCS
  5
6
330
0
100
AcDbSymbolTable
 70
     0
  0
ENDTAB
  0
TABLE
  2
APPID
  5
8
330
0
100
AcDbSymbolTable
 70
     1
  0
APPID
  5
16
330
8
100
AcDbSymbolTableRecord
100
AcDbRegAppTableRecord
  2
ACAD
 70
     0
  0
ENDTAB
  0
TABLE
  2
DIMSTYLE
  5
9
330
0
100
AcDbSymbolTable
 70
     2
100
AcDbDimStyleTable
 71
     2
340
4F4
340
18
  0
DIMSTYLE
105
18
330
9
100
AcDbSymbolTableRecord
100
AcDbDimStyleTableRecord
  2
STANDARD
 70
     0
 41
2.5
 42
0.625
 43
3.75
 44
1.25
 73
     0
 74
     0
 77
     1
 78
     8
140
2.5
141
2.5
143
0.03937
147
0.625
171
     3
172
     1
271
     2
272
     2
274
     3
283
     0
284
     8
289
     0
340
17
  0
DIMSTYLE
105
4F4
102
{ACAD_REACTORS
330
39
330
37
330
35
330
33
330
31
330
2F
330
2D
330
2B
330
29
330
27
330
25
330
23
330
21
102
}
330
9
100
AcDbSymbolTableRecord
100
AcDbDimStyleTableRecord
  2
HAWA-Strich
 70
     0
 41
2.0
 42
2.0
 43
0.0
 44
1.0
 46
1.0
 73
     0
 74
     0
 77
     1
 78
     8
 79
     2
140
3.5
141
0.0
143
0.039370078740157
146
0.7114285714285719
147
1.0
170
     1
171
     5
172
     1
173
     1
176
   256
177
   256
178
   256
179
     1
271
     1
272
     1
273
     4
274
     5
284
     8
285
     8
286
     8
340
4F5
341
4F6
343
4F6
344
4F6
  0
ENDTAB
  0
TABLE
  2
BLOCK_RECORD
  5
1
330
0
100
AcDbSymbolTable
 70
    22
  0
BLOCK_RECORD
  5
A
330
1
100
AcDbSymbolTableRecord
100
AcDbBlockTableRecord
  2
*MODEL_SPACE
340
2DE
  0
BLOCK_RECORD
  5
B
330
1
100
AcDbSymbolTableRecord
100
AcDbBlockTableRecord
  2
*PAPER_SPACE
340
2DF
  0
BLOCK_RECORD
  5
20
330
1
100
AcDbSymbolTableRecord
100
AcDbBlockTableRecord
  2
*D0
340
0
  0
BLOCK_RECORD
  5
22
330
1
100
AcDbSymbolTableRecord
100
AcDbBlockTableRecord
  2
*D1
340
0
  0
BLOCK_RECORD
  5
24
330
1
100
AcDbSymbolTableRecord
100
AcDbBlockTableRecord
  2
*D2
340
0
  0
BLOCK_RECORD
  5
26
330
1
100
AcDbSymbolTableRecord
100
AcDbBlockTableRecord
  2
*D3
340
0
  0
BLOCK_RECORD
  5
28
330
1
100
AcDbSymbolTableRecord
100
AcDbBlockTableRecord
  2
*D4
340
0
  0
BLOCK_RECORD
  5
2A
330
1
100
AcDbSymbolTableRecord
100
AcDbBlockTableRecord
  2
*D5
340
0
  0
BLOCK_RECORD
  5
2C
330
1
100
AcDbSymbolTableRecord
100
AcDbBlockTableRecord
  2
*D6
340
0
  0
BLOCK_RECORD
  5
2E
330
1
100
AcDbSymbolTableRecord
100
AcDbBlockTableRecord
  2
*D7
340
0
  0
BLOCK_RECORD
  5
30
330
1
100
AcDbSymbolTableRecord
100
AcDbBlockTableRecord
  2
*D8
340
0
  0
BLOCK_RECORD
  5
32
330
1
100
AcDbSymbolTableRecord
100
AcDbBlockTableRecord
  2
*D9
340
0
  0
BLOCK_RECORD
  5
34
330
1
100
AcDbSymbolTableRecord
100
AcDbBlockTableRecord
  2
*D10
340
0
  0
BLOCK_RECORD
  5
36
330
1
100
AcDbSymbolTableRecord
100
AcDbBlockTableRecord
  2
*D11
340
0
  0
BLOCK_RECORD
  5
38
330
1
100
AcDbSymbolTableRecord
100
AcDbBlockTableRecord
  2
*D12
340
0
  0
BLOCK_RECORD
  5
4B
330
1
100
AcDbSymbolTableRecord
100
AcDbBlockTableRecord
  2
BLOCK1
340
0
  0
BLOCK_RECORD
  5
4C
330
1
100
AcDbSymbolTableRecord
100
AcDbBlockTableRecord
  2
BLOCK2
340
0
  0
BLOCK_RECORD
  5
4D
330
1
100
AcDbSymbolTableRecord
100
AcDbBlockTableRecord
  2
BLOCK3
340
0
  0
BLOCK_RECORD
  5
4E
330
1
100
AcDbSymbolTableRecord
100
AcDbBlockTableRecord
  2
BLOCK4
340
0
  0
BLOCK_RECORD
  5
4F
330
1
100
AcDbSymbolTableRecord
100
AcDbBlockTableRecord
  2
BLOCK5
340
0
  0
BLOCK_RECORD
  5
50
330
1
100
AcDbSymbolTableRecord
100
AcDbBlockTableRecord
  2
BLOCK6
340
0
  0
BLOCK_RECORD
  5
51
330
1
100
AcDbSymbolTableRecord
100
AcDbBlockTableRecord
  2
BLOCK7
340
0
  0
BLOCK_RECORD
  5
52
330
1
100
AcDbSymbolTableRecord
100
AcDbBlockTableRecord
  2
BLOCK8
340
0
  0
BLOCK_RECORD
  5
4F6
330
1
100
AcDbSymbolTableRecord
100
AcDbBlockTableRecord
  2
_Oblique
340
0
102
{BLKREFS
331
598
331
599
331
5AB
331
5AC
331
5B4
331
5B5
331
5BD
331
5BE
331
5C6
331
5C7
331
5D9
331
5DA
331
5FF
331
600
331
613
331
614
331
631
331
632
331
644
331
645
331
64E
331
64F
331
658
331
659
331
66C
331
66D
102
}
  0
ENDTAB
  0
ENDSEC
  0
SECTION
  2
BLOCKS
  0
BLOCK
  5
D
330
A
100
AcDbEntity
  8
0
100
AcDbBlockBegin
  2
*MODEL_SPACE
 70
     0
 10
0.0
 20
0.0
 30
0.0
  3
*MODEL_SPACE
  1

  0
ENDBLK
  5
E
330
A
100
AcDbEntity
  8
0
100
AcDbBlockEnd
  0
BLOCK
  5
F
330
B
100
AcDbEntity
 67
     1
  8
0
100
AcDbBlockBegin
  2
*PAPER_SPACE
 70
     0
 10
0.0
 20
0.0
 30
0.0
  3
*PAPER_SPACE
  1

  0
ENDBLK
  5
10
330
B
100
AcDbEntity
 67
     1
  8
0
100
AcDbBlockEnd
  0
BLOCK
  5
53
330
20
100
AcDbEntity
  8
Hawa1
100
AcDbBlockBegin
  2
*D0
 70
     1
 10
0.0
 20
0.0
 30
0.0
  3
*D0
  1

  0
LINE
  5
60F
330
20
100
AcDbEntity
  8
Hawa1
370
    -2
100
AcDbLine
 10
108.385262
 20
195.243735
 30
0.0
 11
108.385262
 21
186.243735
 31
0.0
  0
LINE
  5
610
330
20
100
AcDbEntity
  8
Hawa1
370
    -2
100
AcDbLine
 10
118.385262
 20
195.243735
 30
0.0
 11
118.385262
 21
186.243735
 31
0.0
  0
LINE
  5
611
330
20
100
AcDbEntity
  8
Hawa1
370
    -2
100
AcDbLine
 10
107.385262
 20
187.243735
 30
0.0
 11
118.385262
 21
187.243735
 31
0.0
  0
LINE
  5
612
330
20
100
AcDbEntity
  8
Hawa1
370
    -2
100
AcDbLine
 10
118.385262
 20
187.243735
 30
0.0
 11
149.8981542964231
 21
187.243735
 31
0.0
  0
INSERT
  5
613
330
20
100
AcDbEntity
  8
Hawa1
370
    -2
100
AcDbBlockReference
  2
_Oblique
 10
108.385262
 20
187.243735
 30
0.0
 41
2.0
 42
2.0
 43
2.0
 50
180.0
  0
INSERT
  5
614
330
20
100
AcDbEntity
  8
Hawa1
370
    -2
100
AcDbBlockReference
  2
_Oblique
 10
118.385262
 20
187.243735
 30
0.0
 41
2.0
 42
2.0
 43
2.0
  0
MTEXT
  5
615
330
20
100
AcDbEntity
  8
Hawa1
100
AcDbMText
 10
145.134699316887
 20
190.5380733356071
 30
0.0
 40
3.5
 41
0.0
 71
     5
 72
     1
  1
\A1;-12)
  7
Beschlag
 73
     1
 44
1.0
1001
ACAD
1000
MTEXTBEGIN
1070
    73
1070
     1
1070
    44
1040
1.0
1070
    74
1070
     0
1000
MTEXTEND
  0
POINT
  5
616
330
20
100
AcDbEntity
  8
Defpoints
 62
     0
100
AcDbPoint
 10
108.385262
 20
197.243735
 30
0.0
  0
POINT
  5
617
330
20
100
AcDbEntity
  8
Defpoints
 62
     0
100
AcDbPoint
 10
118.385262
 20
197.243735
 30
0.0
  0
POINT
  5
618
330
20
100
AcDbEntity
  8
Defpoints
 62
     0
100
AcDbPoint
 10
118.385262
 20
187.243735
 30
0.0
  0
ENDBLK
  5
5F
330
20
100
AcDbEntity
  8
Hawa1
100
AcDbBlockEnd
  0
BLOCK
  5
60
330
22
100
AcDbEntity
  8
Hawa1
100
AcDbBlockBegin
  2
*D1
 70
     1
 10
0.0
 20
0.0
 30
0.0
  3
*D1
  1

  0
LINE
  5
5FB
330
22
100
AcDbEntity
  8
Hawa1
370
    -2
100
AcDbLine
 10
108.385262
 20
195.243735
 30
0.0
 11
108.385262
 21
186.243735
 31
0.0
  0
LINE
  5
5FC
330
22
100
AcDbEntity
  8
Hawa1
370
    -2
100
AcDbLine
 10
118.385262
 20
195.243735
 30
0.0
 11
118.385262
 21
186.243735
 31
0.0
  0
LINE
  5
5FD
330
22
100
AcDbEntity
  8
Hawa1
370
    -2
100
AcDbLine
 10
107.385262
 20
187.243735
 30
0.0
 11
118.385262
 21
187.243735
 31
0.0
  0
LINE
  5
5FE
330
22
100
AcDbEntity
  8
Hawa1
370
    -2
100
AcDbLine
 10
118.385262
 20
187.243735
 30
0.0
 11
141.6083488103085
 21
187.243735
 31
0.0
  0
INSERT
  5
5FF
330
22
100
AcDbEntity
  8
Hawa1
370
    -2
100
AcDbBlockReference
  2
_Oblique
 10
108.385262
 20
187.243735
 30
0.0
 41
2.0
 42
2.0
 43
2.0
 50
180.0
  0
INSERT
  5
600
330
22
100
AcDbEntity
  8
Hawa1
370
    -2
100
AcDbBlockReference
  2
_Oblique
 10
118.385262
 20
187.243735
 30
0.0
 41
2.0
 42
2.0
 43
2.0
  0
MTEXT
  5
601
330
22
100
AcDbEntity
  8
Hawa1
100
AcDbMText
 10
138.8818651813862
 20
190.5380733356071
 30
0.0
 40
3.5
 41
0.0
 71
     5
 72
     1
  1
\A1;(8
  7
Beschlag
 73
     1
 44
1.0
1001
ACAD
1000
MTEXTBEGIN
1070
    73
1070
     1
1070
    44
1040
1.0
1070
    74
1070
     0
1000
MTEXTEND
  0
POINT
  5
602
330
22
100
AcDbEntity
  8
Defpoints
 62
     0
100
AcDbPoint
 10
108.385262
 20
197.243735
 30
0.0
  0
POINT
  5
603
330
22
100
AcDbEntity
  8
Defpoints
 62
     0
100
AcDbPoint
 10
118.385262
 20
197.243735
 30
0.0
  0
POINT
  5
604
330
22
100
AcDbEntity
  8
Defpoints
 62
     0
100
AcDbPoint
 10
118.385262
 20
187.243735
 30
0.0
  0
ENDBLK
  5
6B
330
22
100
AcDbEntity
  8
Hawa1
100
AcDbBlockEnd
  0
BLOCK
  5
6C
330
24
100
AcDbEntity
  8
Hawa1
100
AcDbBlockBegin
  2
*D2
 70
     1
 10
0.0
 20
0.0
 30
0.0
  3
*D2
  1

  0
LINE
  5
5D6
330
24
100
AcDbEntity
  8
Hawa1
370
    -2
100
AcDbLine
 10
85.38532860176426
 20
199.018021998891
 30
0.0
 11
85.38562765021957
 21
207.998218200728
 31
0.0
  0
LINE
  5
5D7
330
24
100
AcDbEntity
  8
Hawa1
370
    -2
100
AcDbLine
 10
113.3853286017642
 20
198.997751998891
 30
0.0
 11
113.3856282941779
 21
207.9972857760066
 31
0.0
  0
LINE
  5
5D8
330
24
100
AcDbEntity
  8
Hawa1
370
    -2
100
AcDbLine
 10
84.38559434989192
 20
206.9982515021646
 30
0.0
 11
114.3855949927413
 21
206.997252475679
 31
0.0
  0
INSERT
  5
5D9
330
24
100
AcDbEntity
  8
Hawa1
370
    -2
100
AcDbBlockReference
  2
_Oblique
 10
85.38559434933745
 20
206.9982182012825
 30
0.0
 41
2.0
 42
2.0
 43
2.0
 50
179.998092
  0
INSERT
  5
5DA
330
24
100
AcDbEntity
  8
Hawa1
370
    -2
100
AcDbBlockReference
  2
_Oblique
 10
113.3855949932958
 20
206.9972857765611
 30
0.0
 41
2.0
 42
2.0
 43
2.0
 50
359.998092
  0
MTEXT
  5
5DB
330
24
100
AcDbEntity
  8
Hawa1
100
AcDbMText
 10
99.38574270038451
 20
211.4429515863888
 30
0.0
 40
3.5
 41
0.0
 71
     5
 72
     1
  1
\A1;28 [1{\H0.711429x;\S3/32;}"]
  7
Beschlag
 11
0.9999999994455256
 21
-0.0000333008821221
 31
0.0
 73
     1
 44
1.0
1001
ACAD
1000
MTEXTBEGIN
1070
    73
1070
     1
1070
    44
1040
1.0
1070
    74
1070
     0
1000
MTEXTEND
  0
POINT
  5
5DC
330
24
100
AcDbEntity
  8
Defpoints
 62
     0
100
AcDbPoint
 10
85.38526200000001
 20
197.018022
 30
0.0
  0
POINT
  5
5DD
330
24
100
AcDbEntity
  8
Defpoints
 62
     0
100
AcDbPoint
 10
113.385262
 20
196.997752
 30
0.0
  0
POINT
  5
5DE
330
24
100
AcDbEntity
  8
Defpoints
 62
     0
100
AcDbPoint
 10
113.3855949932958
 20
206.9972857765611
 30
0.0
  0
ENDBLK
  5
79
330
24
100
AcDbEntity
  8
Hawa1
100
AcDbBlockEnd
  0
BLOCK
  5
7A
330
26
100
AcDbEntity
  8
Hawa1
100
AcDbBlockBegin
  2
*D3
 70
     1
 10
0.0
 20
0.0
 30
0.0
  3
*D3
  1

  0
LINE
  5
62D
330
26
100
AcDbEntity
  8
Hawa1
370
    -2
100
AcDbLine
 10
58.0052620000693
 20
151.201906650441
 30
0.0
 11
51.7409559563389
 21
151.2019588021703
 31
0.0
  0
LINE
  5
62E
330
26
100
AcDbEntity
  8
Hawa1
370
    -2
100
AcDbLine
 10
74.3852620000693
 20
161.201906650441
 30
0.0
 11
51.7410392096795
 21
161.2020951685895
 31
0.0
  0
LINE
  5
62F
330
26
100
AcDbEntity
  8
Hawa1
370
    -2
100
AcDbLine
 10
52.7409476310837
 20
150.2019504769845
 30
0.0
 11
52.74103920964485
 21
161.202086843369
 31
0.0
  0
LINE
  5
630
330
26
100
AcDbEntity
  8
Hawa1
370
    -2
100
AcDbLine
 10
52.74103920964485
 20
161.202086843369
 30
0.0
 11
52.74126533866112
 21
188.3640119113862
 31
0.0
  0
INSERT
  5
631
330
26
100
AcDbEntity
  8
Hawa1
370
    -2
100
AcDbBlockReference
  2
_Oblique
 10
52.74095595630424
 20
151.2019504769498
 30
0.0
 41
2.0
 42
2.0
 43
2.0
 50
269.9995229999999
  0
INSERT
  5
632
330
26
100
AcDbEntity
  8
Hawa1
370
    -2
100
AcDbBlockReference
  2
_Oblique
 10
52.74103920964485
 20
161.202086843369
 30
0.0
 41
2.0
 42
2.0
 43
2.0
 50
89.999523
  0
MTEXT
  5
633
330
26
100
AcDbEntity
  8
Hawa1
100
AcDbMText
 10
48.2960045682041
 20
181.0164142171002
 30
0.0
 40
3.5
 41
0.0
 71
     5
 72
     1
  1
\A1;10 [{\H0.711429x;\S13/32;}"]
  7
Beschlag
 11
0.000008325220532
 21
0.9999999999653454
 31
0.0
 73
     1
 44
1.0
1001
ACAD
1000
MTEXTBEGIN
1070
    73
1070
     1
1070
    44
1040
1.0
1070
    74
1070
     0
1000
MTEXTEND
  0
POINT
  5
634
330
26
100
AcDbEntity
  8
Defpoints
 62
     0
100
AcDbPoint
 10
60.00526199999999
 20
151.2018899999999
 30
0.0
  0
POINT
  5
635
330
26
100
AcDbEntity
  8
Defpoints
 62
     0
100
AcDbPoint
 10
76.38526199999998
 20
161.2018899999999
 30
0.0
  0
POINT
  5
636
330
26
100
AcDbEntity
  8
Defpoints
 62
     0
100
AcDbPoint
 10
52.74103920964485
 20
161.202086843369
 30
0.0
  0
ENDBLK
  5
86
330
26
100
AcDbEntity
  8
Hawa1
100
AcDbBlockEnd
  0
BLOCK
  5
87
330
28
100
AcDbEntity
  8
Hawa1
100
AcDbBlockBegin
  2
*D4
 70
     1
 10
0.0
 20
0.0
 30
0.0
  3
*D4
  1

  0
LINE
  5
5C3
330
28
100
AcDbEntity
  8
Hawa1
370
    -2
100
AcDbLine
 10
58.0052620000693
 20
151.201906650441
 30
0.0
 11
40.1453031702652
 21
151.202055338537
 31
0.0
  0
LINE
  5
5C4
330
28
100
AcDbEntity
  8
Hawa1
370
    -2
100
AcDbLine
 10
79.38526200006929
 20
172.301906650441
 30
0.0
 11
40.14547883390025
 21
172.3022333302895
 31
0.0
  0
LINE
  5
5C5
330
28
100
AcDbEntity
  8
Hawa1
370
    -2
100
AcDbLine
 10
41.14529484501001
 20
150.2020470133511
 30
0.0
 11
41.14548715908612
 21
173.3022250050343
 31
0.0
  0
INSERT
  5
5C6
330
28
100
AcDbEntity
  8
Hawa1
370
    -2
100
AcDbBlockReference
  2
_Oblique
 10
41.14530317023054
 20
151.2020470133164
 30
0.0
 41
2.0
 42
2.0
 43
2.0
 50
269.9995229999999
  0
INSERT
  5
5C7
330
28
100
AcDbEntity
  8
Hawa1
370
    -2
100
AcDbBlockReference
  2
_Oblique
 10
41.14547883386559
 20
172.3022250050689
 30
0.0
 41
2.0
 42
2.0
 43
2.0
 50
89.999523
  0
MTEXT
  5
5C8
330
28
100
AcDbEntity
  8
Hawa1
100
AcDbMText
 10
38.38822865562247
 20
161.7521589631773
 30
0.0
 40
3.5
 41
0.0
 71
     5
 72
     1
  1
\A1;21
  7
Beschlag
 11
0.000008325220532
 21
0.9999999999653454
 31
0.0
 73
     1
 44
1.0
1001
ACAD
1000
MTEXTBEGIN
1070
    73
1070
     1
1070
    44
1040
1.0
1070
    74
1070
     0
1000
MTEXTEND
  0
POINT
  5
5C9
330
28
100
AcDbEntity
  8
Defpoints
 62
     0
100
AcDbPoint
 10
60.00526199999999
 20
151.2018899999999
 30
0.0
  0
POINT
  5
5CA
330
28
100
AcDbEntity
  8
Defpoints
 62
     0
100
AcDbPoint
 10
81.38526199999999
 20
172.3018899999999
 30
0.0
  0
POINT
  5
5CB
330
28
100
AcDbEntity
  8
Defpoints
 62
     0
100
AcDbPoint
 10
41.14547883386559
 20
172.3022250050689
 30
0.0
  0
ENDBLK
  5
94
330
28
100
AcDbEntity
  8
Hawa1
100
AcDbBlockEnd
  0
BLOCK
  5
95
330
2A
100
AcDbEntity
  8
Hawa1
100
AcDbBlockBegin
  2
*D5
 70
     1
 10
0.0
 20
0.0
 30
0.0
  3
*D5
  1

  0
LINE
  5
5BA
330
2A
100
AcDbEntity
  8
Hawa1
370
    -2
100
AcDbLine
 10
102.885262
 20
135.20189
 30
0.0
 11
102.885262
 21
113.550344
 31
0.0
  0
LINE
  5
5BB
330
2A
100
AcDbEntity
  8
Hawa1
370
    -2
100
AcDbLine
 10
123.885262
 20
135.20189
 30
0.0
 11
123.885262
 21
113.550344
 31
0.0
  0
LINE
  5
5BC
330
2A
100
AcDbEntity
  8
Hawa1
370
    -2
100
AcDbLine
 10
101.885262
 20
114.550344
 30
0.0
 11
124.885262
 21
114.550344
 31
0.0
  0
INSERT
  5
5BD
330
2A
100
AcDbEntity
  8
Hawa1
370
    -2
100
AcDbBlockReference
  2
_Oblique
 10
102.885262
 20
114.550344
 30
0.0
 41
2.0
 42
2.0
 43
2.0
 50
180.0
  0
INSERT
  5
5BE
330
2A
100
AcDbEntity
  8
Hawa1
370
    -2
100
AcDbBlockReference
  2
_Oblique
 10
123.885262
 20
114.550344
 30
0.0
 41
2.0
 42
2.0
 43
2.0
  0
MTEXT
  5
5BF
330
2A
100
AcDbEntity
  8
Hawa1
100
AcDbMText
 10
113.385262
 20
118.9946943497612
 30
0.0
 40
3.5
 41
0.0
 71
     5
 72
     1
  1
\A1;21 [{\H0.711429x;\S13/16;}"]
  7
Beschlag
 73
     1
 44
1.0
1001
ACAD
1000
MTEXTBEGIN
1070
    73
1070
     1
1070
    44
1040
1.0
1070
    74
1070
     0
1000
MTEXTEND
  0
POINT
  5
5C0
330
2A
100
AcDbEntity
  8
Defpoints
 62
     0
100
AcDbPoint
 10
102.885262
 20
137.20189
 30
0.0
  0
POINT
  5
5C1
330
2A
100
AcDbEntity
  8
Defpoints
 62
     0
100
AcDbPoint
 10
123.885262
 20
137.20189
 30
0.0
  0
POINT
  5
5C2
330
2A
100
AcDbEntity
  8
Defpoints
 62
     0
100
AcDbPoint
 10
123.885262
 20
114.550344
 30
0.0
  0
ENDBLK
  5
A2
330
2A
100
AcDbEntity
  8
Hawa1
100
AcDbBlockEnd
  0
BLOCK
  5
A3
330
2C
100
AcDbEntity
  8
Hawa1
100
AcDbBlockBegin
  2
*D6
 70
     1
 10
0.0
 20
0.0
 30
0.0
  3
*D6
  1

  0
LINE
  5
5B1
330
2C
100
AcDbEntity
  8
Hawa1
370
    -2
100
AcDbLine
 10
77.38526199999999
 20
133.20189
 30
0.0
 11
77.38526199999999
 21
113.550344
 31
0.0
  0
LINE
  5
5B2
330
2C
100
AcDbEntity
  8
Hawa1
370
    -2
100
AcDbLine
 10
93.385262
 20
133.20189
 30
0.0
 11
93.385262
 21
113.550344
 31
0.0
  0
LINE
  5
5B3
330
2C
100
AcDbEntity
  8
Hawa1
370
    -2
100
AcDbLine
 10
76.385262
 20
114.550344
 30
0.0
 11
94.385262
 21
114.550344
 31
0.0
  0
INSERT
  5
5B4
330
2C
100
AcDbEntity
  8
Hawa1
370
    -2
100
AcDbBlockReference
  2
_Oblique
 10
77.38526199999999
 20
114.550344
 30
0.0
 41
2.0
 42
2.0
 43
2.0
 50
180.0
  0
INSERT
  5
5B5
330
2C
100
AcDbEntity
  8
Hawa1
370
    -2
100
AcDbBlockReference
  2
_Oblique
 10
93.385262
 20
114.550344
 30
0.0
 41
2.0
 42
2.0
 43
2.0
  0
MTEXT
  5
5B6
330
2C
100
AcDbEntity
  8
Hawa1
100
AcDbMText
 10
85.38526199999999
 20
118.9717645951569
 30
0.0
 40
3.5
 41
0.0
 71
     5
 72
     1
  1
\A1;16 [{\H0.711429x;\S5/8;}"]
  7
Beschlag
 73
     1
 44
1.0
1001
ACAD
1000
MTEXTBEGIN
1070
    73
1070
     1
1070
    44
1040
1.0
1070
    74
1070
     0
1000
MTEXTEND
  0
POINT
  5
5B7
330
2C
100
AcDbEntity
  8
Defpoints
 62
     0
100
AcDbPoint
 10
77.38526199999999
 20
135.20189
 30
0.0
  0
POINT
  5
5B8
330
2C
100
AcDbEntity
  8
Defpoints
 62
     0
100
AcDbPoint
 10
93.385262
 20
135.20189
 30
0.0
  0
POINT
  5
5B9
330
2C
100
AcDbEntity
  8
Defpoints
 62
     0
100
AcDbPoint
 10
93.385262
 20
114.550344
 30
0.0
  0
ENDBLK
  5
B0
330
2C
100
AcDbEntity
  8
Hawa1
100
AcDbBlockEnd
  0
BLOCK
  5
B1
330
2E
100
AcDbEntity
  8
Hawa1
100
AcDbBlockBegin
  2
*D7
 70
     1
 10
0.0
 20
0.0
 30
0.0
  3
*D7
  1

  0
LINE
  5
5A8
330
2E
100
AcDbEntity
  8
Hawa1
370
    -2
100
AcDbLine
 10
76.18526200062376
 20
151.2019399513231
 30
0.0
 11
51.74131806766079
 21
151.202550454995
 31
0.0
  0
LINE
  5
5A9
330
2E
100
AcDbEntity
  8
Hawa1
370
    -2
100
AcDbLine
 10
75.38526200062375
 20
135.2019399513231
 30
0.0
 11
51.74091845657638
 21
135.2025304844463
 31
0.0
  0
LINE
  5
5AA
330
2E
100
AcDbEntity
  8
Hawa1
370
    -2
100
AcDbLine
 10
52.74134304301049
 20
152.2025254790215
 30
0.0
 11
52.74089348060289
 21
134.2025055090966
 31
0.0
  0
INSERT
  5
5AB
330
2E
100
AcDbEntity
  8
Hawa1
370
    -2
100
AcDbBlockReference
  2
_Oblique
 10
52.7413180673489
 20
151.2025254793334
 30
0.0
 41
2.0
 42
2.0
 43
2.0
 50
89.99856899999997
  0
INSERT
  5
5AC
330
2E
100
AcDbEntity
  8
Hawa1
370
    -2
100
AcDbBlockReference
  2
_Oblique
 10
52.74091845626449
 20
135.2025055087847
 30
0.0
 41
2.0
 42
2.0
 43
2.0
 50
269.998569
  0
MTEXT
  5
5AD
330
2E
100
AcDbEntity
  8
Hawa1
100
AcDbMText
 10
48.3196976680288
 20
143.2026259219636
 30
0.0
 40
3.5
 41
0.0
 71
     5
 72
     1
  1
\A1;16 [{\H0.711429x;\S5/8;}"]
  7
Beschlag
 11
0.0000249756615941
 21
0.9999999996881081
 31
0.0
 73
     1
 44
1.0
1001
ACAD
1000
MTEXTBEGIN
1070
    73
1070
     1
1070
    44
1040
1.0
1070
    74
1070
     0
1000
MTEXTEND
  0
POINT
  5
5AE
330
2E
100
AcDbEntity
  8
Defpoints
 62
     0
100
AcDbPoint
 10
78.18526199999998
 20
151.2018899999999
 30
0.0
  0
POINT
  5
5AF
330
2E
100
AcDbEntity
  8
Defpoints
 62
     0
100
AcDbPoint
 10
77.38526199999997
 20
135.20189
 30
0.0
  0
POINT
  5
5B0
330
2E
100
AcDbEntity
  8
Defpoints
 62
     0
100
AcDbPoint
 10
52.74091845626449
 20
135.2025055087847
 30
0.0
  0
ENDBLK
  5
BD
330
2E
100
AcDbEntity
  8
Hawa1
100
AcDbBlockEnd
  0
BLOCK
  5
BE
330
30
100
AcDbEntity
  8
Hawa1
100
AcDbBlockBegin
  2
*D8
 70
     1
 10
0.0
 20
0.0
 30
0.0
  3
*D8
  1

  0
LINE
  5
64A
330
30
100
AcDbEntity
  8
Hawa1
370
    -2
100
AcDbLine
 10
142.0052619993762
 20
151.2018400486767
 30
0.0
 11
146.815916442471
 21
151.2017198993993
 31
0.0
  0
LINE
  5
64B
330
30
100
AcDbEntity
  8
Hawa1
370
    -2
100
AcDbLine
 10
125.8852619993762
 20
137.2018400486768
 30
0.0
 11
146.8155667731534
 21
137.2013173004675
 31
0.0
  0
LINE
  5
64C
330
30
100
AcDbEntity
  8
Hawa1
370
    -2
100
AcDbLine
 10
145.8155667734653
 20
137.2013422761291
 30
0.0
 11
145.8159414184445
 21
152.2017448747489
 31
0.0
  0
LINE
  5
64D
330
30
100
AcDbEntity
  8
Hawa1
370
    -2
100
AcDbLine
 10
145.8159164427829
 20
151.2017448750609
 30
0.0
 11
145.8163287221583
 21
167.7089902857719
 31
0.0
  0
INSERT
  5
64E
330
30
100
AcDbEntity
  8
Hawa1
370
    -2
100
AcDbBlockReference
  2
_Oblique
 10
145.8155667734653
 20
137.2013422761291
 30
0.0
 41
2.0
 42
2.0
 43
2.0
 50
269.998569
  0
INSERT
  5
64F
330
30
100
AcDbEntity
  8
Hawa1
370
    -2
100
AcDbBlockReference
  2
_Oblique
 10
145.8159164427829
 20
151.2017448750609
 30
0.0
 41
2.0
 42
2.0
 43
2.0
 50
89.99856899999997
  0
MTEXT
  5
650
330
30
100
AcDbEntity
  8
Hawa1
100
AcDbMText
 10
141.3726464599273
 20
160.4554785594842
 30
0.0
 40
3.5
 41
0.0
 71
     5
 72
     1
  1
\A1;14 [{\H0.711429x;\S9/16;}"]
  7
Beschlag
 11
0.0000249756615941
 21
0.9999999996881081
 31
0.0
 73
     1
 44
1.0
1001
ACAD
1000
MTEXTBEGIN
1070
    73
1070
     1
1070
    44
1040
1.0
1070
    74
1070
     0
1000
MTEXTEND
  0
POINT
  5
651
330
30
100
AcDbEntity
  8
Defpoints
 62
     0
100
AcDbPoint
 10
140.005262
 20
151.2018899999999
 30
0.0
  0
POINT
  5
652
330
30
100
AcDbEntity
  8
Defpoints
 62
     0
100
AcDbPoint
 10
123.885262
 20
137.20189
 30
0.0
  0
POINT
  5
653
330
30
100
AcDbEntity
  8
Defpoints
 62
     0
100
AcDbPoint
 10
145.8155667734653
 20
137.2013422761291
 30
0.0
  0
ENDBLK
  5
CA
330
30
100
AcDbEntity
  8
Hawa1
100
AcDbBlockEnd
  0
BLOCK
  5
CB
330
32
100
AcDbEntity
  8
Hawa1
100
AcDbBlockBegin
  2
*D9
 70
     1
 10
0.0
 20
0.0
 30
0.0
  3
*D9
  1

  0
LINE
  5
594
330
32
100
AcDbEntity
  8
Hawa1
370
    -2
100
AcDbLine
 10
108.385262
 20
195.243735
 30
0.0
 11
108.385262
 21
186.243735
 31
0.0
  0
LINE
  5
595
330
32
100
AcDbEntity
  8
Hawa1
370
    -2
100
AcDbLine
 10
118.385262
 20
195.243735
 30
0.0
 11
118.385262
 21
186.243735
 31
0.0
  0
LINE
  5
596
330
32
100
AcDbEntity
  8
Hawa1
370
    -2
100
AcDbLine
 10
107.385262
 20
187.243735
 30
0.0
 11
118.385262
 21
187.243735
 31
0.0
  0
LINE
  5
597
330
32
100
AcDbEntity
  8
Hawa1
370
    -2
100
AcDbLine
 10
118.385262
 20
187.243735
 30
0.0
 11
135.0805314036153
 21
187.243735
 31
0.0
  0
INSERT
  5
598
330
32
100
AcDbEntity
  8
Hawa1
370
    -2
100
AcDbBlockReference
  2
_Oblique
 10
108.385262
 20
187.243735
 30
0.0
 41
2.0
 42
2.0
 43
2.0
 50
180.0
  0
INSERT
  5
599
330
32
100
AcDbEntity
  8
Hawa1
370
    -2
100
AcDbBlockReference
  2
_Oblique
 10
118.385262
 20
187.243735
 30
0.0
 41
2.0
 42
2.0
 43
2.0
  0
MTEXT
  5
59A
330
32
100
AcDbEntity
  8
Hawa1
100
AcDbMText
 10
127.7328967018076
 20
191.6889345999318
 30
0.0
 40
3.5
 41
0.0
 71
     5
 72
     1
  1
\A1;10 [{\H0.711429x;\S13/32;}"]
  7
Beschlag
 73
     1
 44
1.0
1001
ACAD
1000
MTEXTBEGIN
1070
    73
1070
     1
1070
    44
1040
1.0
1070
    74
1070
     0
1000
MTEXTEND
  0
POINT
  5
59B
330
32
100
AcDbEntity
  8
Defpoints
 62
     0
100
AcDbPoint
 10
108.385262
 20
197.243735
 30
0.0
  0
POINT
  5
59C
330
32
100
AcDbEntity
  8
Defpoints
 62
     0
100
AcDbPoint
 10
118.385262
 20
197.243735
 30
0.0
  0
POINT
  5
59D
330
32
100
AcDbEntity
  8
Defpoints
 62
     0
100
AcDbPoint
 10
118.385262
 20
187.243735
 30
0.0
  0
ENDBLK
  5
D5
330
32
100
AcDbEntity
  8
Hawa1
100
AcDbBlockEnd
  0
BLOCK
  5
D6
330
34
100
AcDbEntity
  8
Hawa1
100
AcDbBlockBegin
  2
*D10
 70
     1
 10
0.0
 20
0.0
 30
0.0
  3
*D10
  1

  0
LINE
  5
640
330
34
100
AcDbEntity
  8
Hawa1
370
    -2
100
AcDbLine
 10
73.88526200062374
 20
184.3019399513231
 30
0.0
 11
65.69655653674849
 21
184.3021444696597
 31
0.0
  0
LINE
  5
641
330
34
100
AcDbEntity
  8
Hawa1
370
    -2
100
AcDbLine
 10
74.38526200062376
 20
161.2019399513231
 30
0.0
 11
65.69597959927773
 21
161.2021569718999
 31
0.0
  0
LINE
  5
642
330
34
100
AcDbEntity
  8
Hawa1
370
    -2
100
AcDbLine
 10
66.69597959896584
 20
161.2021319962383
 30
0.0
 11
66.6965815120982
 21
185.3021194936862
 31
0.0
  0
LINE
  5
643
330
34
100
AcDbEntity
  8
Hawa1
370
    -2
100
AcDbLine
 10
66.6965565364366
 20
184.3021194939981
 30
0.0
 11
66.69707559949547
 21
205.0848746069568
 31
0.0
  0
INSERT
  5
644
330
34
100
AcDbEntity
  8
Hawa1
370
    -2
100
AcDbBlockReference
  2
_Oblique
 10
66.69597959896584
 20
161.2021319962383
 30
0.0
 41
2.0
 42
2.0
 43
2.0
 50
269.998569
  0
INSERT
  5
645
330
34
100
AcDbEntity
  8
Hawa1
370
    -2
100
AcDbBlockReference
  2
_Oblique
 10
66.6965565364366
 20
184.3021194939981
 30
0.0
 41
2.0
 42
2.0
 43
2.0
 50
89.99856899999997
  0
MTEXT
  5
646
330
34
100
AcDbEntity
  8
Hawa1
100
AcDbMText
 10
62.25249069525252
 20
195.6936080507559
 30
0.0
 40
3.5
 41
0.0
 71
     5
 72
     1
  1
\A1;23.1 [{\H0.711429x;\S29/32;}"]
  7
Beschlag
 11
0.0000249756615941
 21
0.9999999996881081
 31
0.0
 73
     1
 44
1.0
1001
ACAD
1000
MTEXTBEGIN
1070
    73
1070
     1
1070
    44
1040
1.0
1070
    74
1070
     0
1000
MTEXTEND
  0
POINT
  5
647
330
34
100
AcDbEntity
  8
Defpoints
 62
     0
100
AcDbPoint
 10
75.88526199999996
 20
184.3018899999999
 30
0.0
  0
POINT
  5
648
330
34
100
AcDbEntity
  8
Defpoints
 62
     0
100
AcDbPoint
 10
76.38526199999998
 20
161.2018899999999
 30
0.0
  0
POINT
  5
649
330
34
100
AcDbEntity
  8
Defpoints
 62
     0
100
AcDbPoint
 10
66.69597959896584
 20
161.2021319962383
 30
0.0
  0
ENDBLK
  5
E2
330
34
100
AcDbEntity
  8
Hawa1
100
AcDbBlockEnd
  0
BLOCK
  5
E3
330
36
100
AcDbEntity
  8
Hawa1
100
AcDbBlockBegin
  2
*D11
 70
     1
 10
0.0
 20
0.0
 30
0.0
  3
*D11
  1

  0
LINE
  5
654
330
36
100
AcDbEntity
  8
Hawa1
370
    -2
100
AcDbLine
 10
110.935262
 20
135.20189
 30
0.0
 11
110.935262
 21
126.273016
 31
0.0
  0
LINE
  5
655
330
36
100
AcDbEntity
  8
Hawa1
370
    -2
100
AcDbLine
 10
115.835262
 20
135.20189
 30
0.0
 11
115.835262
 21
126.273016
 31
0.0
  0
LINE
  5
656
330
36
100
AcDbEntity
  8
Hawa1
370
    -2
100
AcDbLine
 10
109.935262
 20
127.273016
 30
0.0
 11
115.835262
 21
127.273016
 31
0.0
  0
LINE
  5
657
330
36
100
AcDbEntity
  8
Hawa1
370
    -2
100
AcDbLine
 10
115.835262
 20
127.273016
 30
0.0
 11
147.0156048850443
 21
127.273016
 31
0.0
  0
INSERT
  5
658
330
36
100
AcDbEntity
  8
Hawa1
370
    -2
100
AcDbBlockReference
  2
_Oblique
 10
110.935262
 20
127.273016
 30
0.0
 41
2.0
 42
2.0
 43
2.0
 50
180.0
  0
INSERT
  5
659
330
36
100
AcDbEntity
  8
Hawa1
370
    -2
100
AcDbBlockReference
  2
_Oblique
 10
115.835262
 20
127.273016
 30
0.0
 41
2.0
 42
2.0
 43
2.0
  0
MTEXT
  5
65A
330
36
100
AcDbEntity
  8
Hawa1
100
AcDbMText
 10
137.2888239233629
 20
131.7173663497612
 30
0.0
 40
3.5
 41
0.0
 71
     5
 72
     1
  1
\A1;%%c4.9 [{\H0.711429x;\S3/16;}"]
  7
Beschlag
 73
     1
 44
1.0
1001
ACAD
1000
MTEXTBEGIN
1070
    73
1070
     1
1070
    44
1040
1.0
1070
    74
1070
     0
1000
MTEXTEND
  0
POINT
  5
65B
330
36
100
AcDbEntity
  8
Defpoints
 62
     0
100
AcDbPoint
 10
110.935262
 20
137.20189
 30
0.0
  0
POINT
  5
65C
330
36
100
AcDbEntity
  8
Defpoints
 62
     0
100
AcDbPoint
 10
115.835262
 20
137.20189
 30
0.0
  0
POINT
  5
65D
330
36
100
AcDbEntity
  8
Defpoints
 62
     0
100
AcDbPoint
 10
115.835262
 20
127.273016
 30
0.0
  0
ENDBLK
  5
F0
330
36
100
AcDbEntity
  8
Hawa1
100
AcDbBlockEnd
  0
BLOCK
  5
F1
330
38
100
AcDbEntity
  8
Hawa1
100
AcDbBlockBegin
  2
*D12
 70
     1
 10
0.0
 20
0.0
 30
0.0
  3
*D12
  1

  0
LINE
  5
668
330
38
100
AcDbEntity
  8
Hawa1
370
    -2
100
AcDbLine
 10
83.23526200000001
 20
133.20189
 30
0.0
 11
83.23526200000001
 21
126.273016
 31
0.0
  0
LINE
  5
669
330
38
100
AcDbEntity
  8
Hawa1
370
    -2
100
AcDbLine
 10
87.53526200000001
 20
133.20189
 30
0.0
 11
87.53526200000001
 21
126.273016
 31
0.0
  0
LINE
  5
66A
330
38
100
AcDbEntity
  8
Hawa1
370
    -2
100
AcDbLine
 10
87.53526200000001
 20
127.273016
 30
0.0
 11
82.235262
 21
127.273016
 31
0.0
  0
LINE
  5
66B
330
38
100
AcDbEntity
  8
Hawa1
370
    -2
100
AcDbLine
 10
83.23526200000001
 20
127.273016
 30
0.0
 11
58.40609349365728
 21
127.273016
 31
0.0
  0
INSERT
  5
66C
330
38
100
AcDbEntity
  8
Hawa1
370
    -2
100
AcDbBlockReference
  2
_Oblique
 10
87.53526200000001
 20
127.273016
 30
0.0
 41
2.0
 42
2.0
 43
2.0
  0
INSERT
  5
66D
330
38
100
AcDbEntity
  8
Hawa1
370
    -2
100
AcDbBlockReference
  2
_Oblique
 10
83.23526200000001
 20
127.273016
 30
0.0
 41
2.0
 42
2.0
 43
2.0
 50
180.0
  0
MTEXT
  5
66E
330
38
100
AcDbEntity
  8
Hawa1
100
AcDbMText
 10
68.22688644921663
 20
131.6952858453274
 30
0.0
 40
3.5
 41
0.0
 71
     5
 72
     1
  1
\A1;%%c4.3 [{\H0.711429x;\S5/32;}"]
  7
Beschlag
 73
     1
 44
1.0
1001
ACAD
1000
MTEXTBEGIN
1070
    73
1070
     1
1070
    44
1040
1.0
1070
    74
1070
     0
1000
MTEXTEND
  0
POINT
  5
66F
330
38
100
AcDbEntity
  8
Defpoints
 62
     0
100
AcDbPoint
 10
83.23526200000001
 20
135.20189
 30
0.0
  0
POINT
  5
670
330
38
100
AcDbEntity
  8
Defpoints
 62
     0
100
AcDbPoint
 10
87.53526200000001
 20
135.20189
 30
0.0
  0
POINT
  5
671
330
38
100
AcDbEntity
  8
Defpoints
 62
     0
100
AcDbPoint
 10
87.53526200000001
 20
127.273016
 30
0.0
  0
ENDBLK
  5
FE
330
38
100
AcDbEntity
  8
Hawa1
100
AcDbBlockEnd
  0
BLOCK
  5
FF
330
4B
100
AcDbEntity
  8
0
100
AcDbBlockBegin
  2
BLOCK1
 70
     0
 10
0.0
 20
0.0
 30
0.0
  3
BLOCK1
  1

  0
LINE
  5
100
330
4B
100
AcDbEntity
  8
Hawa2
 62
     9
 48
0.048152
100
AcDbLine
 10
47.13806199999999
 20
-1763.055298
 30
0.0
 11
48.499996
 21
-1761.693359
 31
0.0
  0
LINE
  5
101
330
4B
100
AcDbEntity
  8
Hawa2
 62
     9
 48
0.098151
100
AcDbLine
 10
45.72384999999999
 20
-1763.055298
 30
0.0
 11
48.5
 21
-1760.279175
 31
0.0
  0
LINE
  5
102
330
4B
100
AcDbEntity
  8
Hawa2
 62
     9
 48
0.148151
100
AcDbLine
 10
44.30963499999999
 20
-1763.055298
 30
0.0
 11
48.5
 21
-1758.86499
 31
0.0
  0
LINE
  5
103
330
4B
100
AcDbEntity
  8
Hawa2
 62
     9
 48
0.088388
100
AcDbLine
 10
42.895424
 20
-1763.055298
 30
0.0
 11
45.39541999999999
 21
-1760.555298
 31
0.0
  0
LINE
  5
104
330
4B
100
AcDbEntity
  8
Hawa2
 62
     9
 48
0.07955
100
AcDbLine
 10
46.25
 20
-1759.700684
 30
0.0
 11
48.5
 21
-1757.450684
 31
0.0
  0
LINE
  5
105
330
4B
100
AcDbEntity
  8
Hawa2
 62
     9
 48
0.088388
100
AcDbLine
 10
41.481209
 20
-1763.055298
 30
0.0
 11
43.981209
 21
-1760.555298
 31
0.0
  0
LINE
  5
106
330
4B
100
AcDbEntity
  8
Hawa2
 62
     9
 48
0.07955
100
AcDbLine
 10
46.25
 20
-1758.286499
 30
0.0
 11
48.5
 21
-1756.036499
 31
0.0
  0
LINE
  5
107
330
4B
100
AcDbEntity
  8
Hawa2
 62
     9
 48
0.088388
100
AcDbLine
 10
40.066994
 20
-1763.055298
 30
0.0
 11
42.566994
 21
-1760.555298
 31
0.0
  0
LINE
  5
108
330
4B
100
AcDbEntity
  8
Hawa2
 62
     9
 48
0.07955
100
AcDbLine
 10
46.25
 20
-1756.872314
 30
0.0
 11
48.5
 21
-1754.622314
 31
0.0
  0
LINE
  5
109
330
4B
100
AcDbEntity
  8
Hawa2
 62
     9
 48
0.088388
100
AcDbLine
 10
38.652782
 20
-1763.055298
 30
0.0
 11
41.152782
 21
-1760.555298
 31
0.0
  0
LINE
  5
10A
330
4B
100
AcDbEntity
  8
Hawa2
 62
     9
 48
0.068463
100
AcDbLine
 10
46.56353
 20
-1755.144531
 30
0.0
 11
48.5
 21
-1753.20813
 31
0.0
  0
LINE
  5
10B
330
4B
100
AcDbEntity
  8
Hawa2
 62
     9
 48
0.088388
100
AcDbLine
 10
37.238567
 20
-1763.055298
 30
0.0
 11
39.738567
 21
-1760.555298
 31
0.0
  0
LINE
  5
10C
330
4B
100
AcDbEntity
  8
Hawa2
 62
     9
 48
0.07955
100
AcDbLine
 10
46.25
 20
-1754.043823
 30
0.0
 11
48.5
 21
-1751.793823
 31
0.0
  0
LINE
  5
10D
330
4B
100
AcDbEntity
  8
Hawa2
 62
     9
 48
0.088388
100
AcDbLine
 10
35.824356
 20
-1763.055298
 30
0.0
 11
38.324356
 21
-1760.555298
 31
0.0
  0
LINE
  5
10E
330
4B
100
AcDbEntity
  8
Hawa2
 62
     9
 48
0.05838
100
AcDbLine
 10
46.84879699999999
 20
-1752.030884
 30
0.0
 11
48.5
 21
-1750.379639
 31
0.0
  0
LINE
  5
10F
330
4B
100
AcDbEntity
  8
Hawa2
 62
     9
 48
0.088388
100
AcDbLine
 10
34.410141
 20
-1763.055298
 30
0.0
 11
36.910141
 21
-1760.555298
 31
0.0
  0
LINE
  5
110
330
4B
100
AcDbEntity
  8
Hawa2
 62
     9
 48
0.07267
100
AcDbLine
 10
46.25
 20
-1751.215454
 30
0.0
 11
48.305397
 21
-1749.160034
 31
0.0
  0
LINE
  5
111
330
4B
100
AcDbEntity
  8
Hawa2
 62
     9
 48
0.084569
100
AcDbLine
 10
32.99593
 20
-1763.055298
 30
0.0
 11
35.387905
 21
-1760.66333
 31
0.0
  0
LINE
  5
112
330
4B
100
AcDbEntity
  8
Hawa2
 62
     9
 48
0.026373
100
AcDbLine
 10
46.25
 20
-1749.80127
 30
0.0
 11
46.995926
 21
-1749.055298
 31
0.0
  0
LINE
  5
113
330
4B
100
AcDbEntity
  8
Hawa2
 62
     9
 48
0.088388
100
AcDbLine
 10
31.581715
 20
-1763.055298
 30
0.0
 11
34.081715
 21
-1760.555298
 31
0.0
  0
LINE
  5
114
330
4B
100
AcDbEntity
  8
Hawa2
 62
     9
 48
0.088388
100
AcDbLine
 10
30.167501
 20
-1763.055298
 30
0.0
 11
32.667503
 21
-1760.555298
 31
0.0
  0
LINE
  5
115
330
4B
100
AcDbEntity
  8
Hawa2
 62
     9
 48
0.088388
100
AcDbLine
 10
28.753288
 20
-1763.055298
 30
0.0
 11
31.253288
 21
-1760.555298
 31
0.0
  0
LINE
  5
116
330
4B
100
AcDbEntity
  8
Hawa2
 62
     9
 48
0.08374
100
AcDbLine
 10
27.575653
 20
-1762.818726
 30
0.0
 11
29.944153
 21
-1760.450195
 31
0.0
  0
LINE
  5
117
330
4B
100
AcDbEntity
  8
Hawa2
 62
     9
 48
0.07955
100
AcDbLine
 10
27.499998
 20
-1761.480103
 30
0.0
 11
29.749998
 21
-1759.230103
 31
0.0
  0
LINE
  5
118
330
4B
100
AcDbEntity
  8
Hawa2
 62
     9
 48
0.07955
100
AcDbLine
 10
27.499998
 20
-1760.065918
 30
0.0
 11
29.749998
 21
-1757.815918
 31
0.0
  0
LINE
  5
119
330
4B
100
AcDbEntity
  8
Hawa2
 62
     9
 48
0.07955
100
AcDbLine
 10
27.499998
 20
-1758.651733
 30
0.0
 11
29.749998
 21
-1756.401733
 31
0.0
  0
LINE
  5
11A
330
4B
100
AcDbEntity
  8
Hawa2
 62
     9
 48
0.058413
100
AcDbLine
 10
27.499998
 20
-1757.237549
 30
0.0
 11
29.152138
 21
-1755.585327
 31
0.0
  0
LINE
  5
11B
330
4B
100
AcDbEntity
  8
Hawa2
 62
     9
 48
0.07955
100
AcDbLine
 10
27.499998
 20
-1755.823242
 30
0.0
 11
29.75
 21
-1753.573242
 31
0.0
  0
LINE
  5
11C
330
4B
100
AcDbEntity
  8
Hawa2
 62
     9
 48
0.06858
100
AcDbLine
 10
27.5
 20
-1754.409058
 30
0.0
 11
29.439764
 21
-1752.46936
 31
0.0
  0
LINE
  5
11D
330
4B
100
AcDbEntity
  8
Hawa2
 62
     9
 48
0.07955
100
AcDbLine
 10
27.5
 20
-1752.994873
 30
0.0
 11
29.75
 21
-1750.744873
 31
0.0
  0
LINE
  5
11E
330
4B
100
AcDbEntity
  8
Hawa2
 62
     9
 48
0.07951
100
AcDbLine
 10
27.5
 20
-1751.580688
 30
0.0
 11
29.748846
 21
-1749.331787
 31
0.0
  0
LINE
  5
11F
330
4B
100
AcDbEntity
  8
Hawa2
 62
     9
 48
0.039286
100
AcDbLine
 10
27.5
 20
-1750.166504
 30
0.0
 11
28.611153
 21
-1749.055298
 31
0.0
  0
ENDBLK
  5
120
330
4B
100
AcDbEntity
  8
0
100
AcDbBlockEnd
  0
BLOCK
  5
121
330
4C
100
AcDbEntity
  8
0
100
AcDbBlockBegin
  2
BLOCK2
 70
     0
 10
0.0
 20
0.0
 30
0.0
  3
BLOCK2
  1

  0
LINE
  5
122
330
4C
100
AcDbEntity
  8
Hawa2
 62
     9
 48
0.040875
100
AcDbLine
 10
16.843903
 20
-1765.065186
 30
0.0
 11
18.0
 21
-1763.909058
 31
0.0
  0
LINE
  5
123
330
4C
100
AcDbEntity
  8
Hawa2
 62
     9
 48
0.090874
100
AcDbLine
 10
15.429688
 20
-1765.065186
 30
0.0
 11
18.0
 21
-1762.494873
 31
0.0
  0
LINE
  5
124
330
4C
100
AcDbEntity
  8
Hawa2
 62
     9
 48
0.140874
100
AcDbLine
 10
14.015475
 20
-1765.065186
 30
0.0
 11
18.0
 21
-1761.080688
 31
0.0
  0
LINE
  5
125
330
4C
100
AcDbEntity
  8
Hawa2
 62
     9
 48
0.106066
100
AcDbLine
 10
12.601262
 20
-1765.065186
 30
0.0
 11
15.601262
 21
-1762.065186
 31
0.0
  0
LINE
  5
126
330
4C
100
AcDbEntity
  8
Hawa2
 62
     9
 48
0.065407
100
AcDbLine
 10
16.15
 20
-1761.516479
 30
0.0
 11
18.0
 21
-1759.666504
 31
0.0
  0
LINE
  5
127
330
4C
100
AcDbEntity
  8
Hawa2
 62
     9
 48
0.098996
100
AcDbLine
 10
11.187048
 20
-1765.065186
 30
0.0
 11
13.987048
 21
-1762.265137
 31
0.0
  0
LINE
  5
128
330
4C
100
AcDbEntity
  8
Hawa2
 62
     9
 48
0.065409
100
AcDbLine
 10
16.15
 20
-1760.102295
 30
0.0
 11
18.0
 21
-1758.252197
 31
0.0
  0
LINE
  5
129
330
4C
100
AcDbEntity
  8
Hawa2
 62
     9
 48
0.098996
100
AcDbLine
 10
9.772835
 20
-1765.065186
 30
0.0
 11
12.572835
 21
-1762.265137
 31
0.0
  0
LINE
  5
12A
330
4C
100
AcDbEntity
  8
Hawa2
 62
     9
 48
0.072341
100
AcDbLine
 10
15.9539
 20
-1758.884155
 30
0.0
 11
18.0
 21
-1756.838013
 31
0.0
  0
LINE
  5
12B
330
4C
100
AcDbEntity
  8
Hawa2
 62
     9
 48
0.098996
100
AcDbLine
 10
8.358621000000001
 20
-1765.065186
 30
0.0
 11
11.158621
 21
-1762.265137
 31
0.0
  0
LINE
  5
12C
330
4C
100
AcDbEntity
  8
Hawa2
 62
     9
 48
0.109601
100
AcDbLine
 10
14.9
 20
-1758.523804
 30
0.0
 11
18.0
 21
-1755.423828
 31
0.0
  0
LINE
  5
12D
330
4C
100
AcDbEntity
  8
Hawa2
 62
     9
 48
0.098211
100
AcDbLine
 10
6.944407
 20
-1765.065186
 30
0.0
 11
9.722203999999999
 21
-1762.287353999999
 31
0.0
  0
LINE
  5
12E
330
4C
100
AcDbEntity
  8
Hawa2
 62
     9
 48
0.109311
100
AcDbLine
 10
14.9
 20
-1757.109619
 30
0.0
 11
17.991774
 21
-1754.017821999999
 31
0.0
  0
LINE
  5
12F
330
4C
100
AcDbEntity
  8
Hawa2
 62
     9
 48
0.098996
100
AcDbLine
 10
5.530193999999999
 20
-1765.065186
 30
0.0
 11
8.330194
 21
-1762.265137
 31
0.0
  0
LINE
  5
130
330
4C
100
AcDbEntity
  8
Hawa2
 62
     9
 48
0.062237
100
AcDbLine
 10
14.9
 20
-1755.695435
 30
0.0
 11
16.660292
 21
-1753.935058999999
 31
0.0
  0
LINE
  5
131
330
4C
100
AcDbEntity
  8
Hawa2
 62
     9
 48
0.098996
100
AcDbLine
 10
4.11598
 20
-1765.065186
 30
0.0
 11
6.91598
 21
-1762.265137
 31
0.0
  0
LINE
  5
132
330
4C
100
AcDbEntity
  8
Hawa2
 62
     9
 48
0.044381
100
AcDbLine
 10
14.9
 20
-1754.281128
 30
0.0
 11
16.155298
 21
-1753.025879
 31
0.0
  0
LINE
  5
133
330
4C
100
AcDbEntity
  8
Hawa2
 62
     9
 48
0.031552
100
AcDbLine
 10
17.107595
 20
-1752.073608
 30
0.0
 11
18.0
 21
-1751.181152
 31
0.0
  0
LINE
  5
134
330
4C
100
AcDbEntity
  8
Hawa2
 62
     9
 48
0.098788
100
AcDbLine
 10
2.707682
 20
-1765.059326
 30
0.0
 11
5.501767
 21
-1762.265137
 31
0.0
  0
LINE
  5
135
330
4C
100
AcDbEntity
  8
Hawa2
 62
     9
 48
0.109393
100
AcDbLine
 10
14.9
 20
-1752.866943
 30
0.0
 11
17.994085
 21
-1749.772827
 31
0.0
  0
LINE
  5
136
330
4C
100
AcDbEntity
  8
Hawa2
 62
     9
 48
0.080716
100
AcDbLine
 10
2.004534999999999
 20
-1764.348145
 30
0.0
 11
4.287552999999999
 21
-1762.065186
 31
0.0
  0
LINE
  5
137
330
4C
100
AcDbEntity
  8
Hawa2
 62
     9
 48
0.084253
100
AcDbLine
 10
14.9
 20
-1751.452759
 30
0.0
 11
17.283018
 21
-1749.069702
 31
0.0
  0
LINE
  5
138
330
4C
100
AcDbEntity
  8
Hawa2
 62
     9
 48
0.065407
100
AcDbLine
 10
2.0
 20
-1762.938477
 30
0.0
 11
3.85
 21
-1761.088501
 31
0.0
  0
LINE
  5
139
330
4C
100
AcDbEntity
  8
Hawa2
 62
     9
 48
0.034414
100
AcDbLine
 10
14.9
 20
-1750.038574
 30
0.0
 11
15.87334
 21
-1749.065186
 31
0.0
  0
LINE
  5
13A
330
4C
100
AcDbEntity
  8
Hawa2
 62
     9
 48
0.065407
100
AcDbLine
 10
2.0
 20
-1761.524292
 30
0.0
 11
3.85
 21
-1759.674316
 31
0.0
  0
LINE
  5
13B
330
4C
100
AcDbEntity
  8
Hawa2
 62
     9
 48
0.015588
100
AcDbLine
 10
4.659126
 20
-1758.865234
 30
0.0
 11
5.099999999999999
 21
-1758.424316
 31
0.0
  0
LINE
  5
13C
330
4C
100
AcDbEntity
  8
Hawa2
 62
     9
 48
0.109601
100
AcDbLine
 10
2.0
 20
-1760.110107
 30
0.0
 11
5.099999999999999
 21
-1757.010132
 31
0.0
  0
LINE
  5
13D
330
4C
100
AcDbEntity
  8
Hawa2
 62
     9
 48
0.109603
100
AcDbLine
 10
2.0
 20
-1758.695923
 30
0.0
 11
5.099999999999999
 21
-1755.595825
 31
0.0
  0
LINE
  5
13E
330
4C
100
AcDbEntity
  8
Hawa2
 62
     9
 48
0.109601
100
AcDbLine
 10
2.0
 20
-1757.281616
 30
0.0
 11
5.099999999999999
 21
-1754.181641
 31
0.0
  0
LINE
  5
13F
330
4C
100
AcDbEntity
  8
Hawa2
 62
     9
 48
0.109601
100
AcDbLine
 10
2.0
 20
-1755.867432
 30
0.0
 11
5.099999999999999
 21
-1752.767456
 31
0.0
  0
LINE
  5
140
330
4C
100
AcDbEntity
  8
Hawa2
 62
     9
 48
0.016658
100
AcDbLine
 10
2.0
 20
-1754.453247
 30
0.0
 11
2.471128999999999
 21
-1753.982056
 31
0.0
  0
LINE
  5
141
330
4C
100
AcDbEntity
  8
Hawa2
 62
     9
 48
0.047159
100
AcDbLine
 10
3.766144999999999
 20
-1752.687134
 30
0.0
 11
5.099999999999999
 21
-1751.353271
 31
0.0
  0
LINE
  5
142
330
4C
100
AcDbEntity
  8
Hawa2
 62
     9
 48
0.075696
100
AcDbLine
 10
2.958961
 20
-1752.080078
 30
0.0
 11
5.099999999999999
 21
-1749.939087
 31
0.0
  0
LINE
  5
143
330
4C
100
AcDbEntity
  8
Hawa2
 62
     9
 48
0.089329
100
AcDbLine
 10
2.0
 20
-1751.624878
 30
0.0
 11
4.526594999999999
 21
-1749.098267
 31
0.0
  0
LINE
  5
144
330
4C
100
AcDbEntity
  8
Hawa2
 62
     9
 48
0.040496
100
AcDbLine
 10
2.0
 20
-1750.210571
 30
0.0
 11
3.145417999999999
 21
-1749.065186
 31
0.0
  0
ENDBLK
  5
145
330
4C
100
AcDbEntity
  8
0
100
AcDbBlockEnd
  0
BLOCK
  5
146
330
4D
100
AcDbEntity
  8
0
100
AcDbBlockBegin
  2
BLOCK3
 70
     0
 10
0.0
 20
0.0
 30
0.0
  3
BLOCK3
  1

  0
LINE
  5
147
330
4D
100
AcDbEntity
  8
Hawa5
  6
PHANTOM
 62
     1
 48
0.25
100
AcDbLine
 10
15.0
 20
-1703.065186
 30
0.0
 11
5.0
 21
-1703.065186
 31
0.0
  0
LINE
  5
148
330
4D
100
AcDbEntity
  8
Hawa5
 62
     1
100
AcDbLine
 10
15.0
 20
-1726.965186
 30
0.0
 11
15.0
 21
-1703.065186
 31
0.0
  0
LINE
  5
149
330
4D
100
AcDbEntity
  8
Hawa5
 62
     1
 48
0.035355
100
AcDbLine
 10
14.0
 20
-1727.965186
 30
0.0
 11
15.0
 21
-1726.965186
 31
0.0
  0
LINE
  5
14A
330
4D
100
AcDbEntity
  8
Hawa5
 62
     1
 48
0.2
100
AcDbLine
 10
6.0
 20
-1727.965186
 30
0.0
 11
14.0
 21
-1727.965186
 31
0.0
  0
LINE
  5
14B
330
4D
100
AcDbEntity
  8
Hawa5
 62
     1
 48
0.035355
100
AcDbLine
 10
6.0
 20
-1727.965186
 30
0.0
 11
5.0
 21
-1726.965186
 31
0.0
  0
LINE
  5
14C
330
4D
100
AcDbEntity
  8
Hawa5
 62
     1
100
AcDbLine
 10
5.0
 20
-1726.965186
 30
0.0
 11
5.0
 21
-1703.065186
 31
0.0
  0
LINE
  5
14D
330
4D
100
AcDbEntity
  8
Hawa5
  6
PHANTOM
 62
     1
 48
0.25
100
AcDbLine
 10
43.0
 20
-1703.065186
 30
0.0
 11
33.0
 21
-1703.065186
 31
0.0
  0
LINE
  5
14E
330
4D
100
AcDbEntity
  8
Hawa5
 62
     1
100
AcDbLine
 10
43.0
 20
-1754.565186
 30
0.0
 11
43.0
 21
-1703.065186
 31
0.0
  0
LINE
  5
14F
330
4D
100
AcDbEntity
  8
Hawa5
 62
     1
 48
0.035355
100
AcDbLine
 10
42.0
 20
-1755.565186
 30
0.0
 11
43.0
 21
-1754.565186
 31
0.0
  0
LINE
  5
150
330
4D
100
AcDbEntity
  8
Hawa5
 62
     1
 48
0.2
100
AcDbLine
 10
42.0
 20
-1755.565186
 30
0.0
 11
34.0
 21
-1755.565186
 31
0.0
  0
LINE
  5
151
330
4D
100
AcDbEntity
  8
Hawa5
 62
     1
 48
0.035355
100
AcDbLine
 10
34.0
 20
-1755.565186
 30
0.0
 11
33.0
 21
-1754.565186
 31
0.0
  0
LINE
  5
152
330
4D
100
AcDbEntity
  8
Hawa5
 62
     1
100
AcDbLine
 10
33.0
 20
-1754.565186
 30
0.0
 11
33.0
 21
-1703.065186
 31
0.0
  0
LINE
  5
153
330
4D
100
AcDbEntity
  8
Hawa5
 62
     1
 48
0.4345
100
AcDbLine
 10
2.0
 20
-1749.065186
 30
0.0
 11
-15.38
 21
-1749.065186
 31
0.0
  0
LINE
  5
154
330
4D
100
AcDbEntity
  8
Hawa5
 62
     1
 48
0.4
100
AcDbLine
 10
2.0
 20
-1749.065186
 30
0.0
 11
2.0
 21
-1765.065186
 31
0.0
  0
LINE
  5
155
330
4D
100
AcDbEntity
  8
Hawa5
 62
     1
 48
0.14625
100
AcDbLine
 10
18.0
 20
-1765.065186
 30
0.0
 11
12.15
 21
-1765.065186
 31
0.0
  0
LINE
  5
156
330
4D
100
AcDbEntity
  8
Hawa5
 62
     1
 48
0.14625
100
AcDbLine
 10
7.849999999999999
 20
-1765.065186
 30
0.0
 11
2.0
 21
-1765.065186
 31
0.0
  0
LINE
  5
157
330
4D
100
AcDbEntity
  8
Hawa5
 62
     1
 48
0.4
100
AcDbLine
 10
18.0
 20
-1765.065186
 30
0.0
 11
18.0
 21
-1749.065186
 31
0.0
  0
LINE
  5
158
330
4D
100
AcDbEntity
  8
Hawa5
 62
     1
 48
0.2375
100
AcDbLine
 10
27.5
 20
-1749.065186
 30
0.0
 11
18.0
 21
-1749.065186
 31
0.0
  0
LINE
  5
159
330
4D
100
AcDbEntity
  8
Hawa5
 62
     1
 48
0.35
100
AcDbLine
 10
27.5
 20
-1749.065186
 30
0.0
 11
27.5
 21
-1763.065186
 31
0.0
  0
LINE
  5
15A
330
4D
100
AcDbEntity
  8
Hawa5
 62
     1
 48
0.20125
100
AcDbLine
 10
27.5
 20
-1763.065186
 30
0.0
 11
35.55
 21
-1763.065186
 31
0.0
  0
LINE
  5
15B
330
4D
100
AcDbEntity
  8
Hawa5
 62
     1
 48
0.20125
100
AcDbLine
 10
40.45
 20
-1763.065186
 30
0.0
 11
48.5
 21
-1763.065186
 31
0.0
  0
LINE
  5
15C
330
4D
100
AcDbEntity
  8
Hawa5
 62
     1
 48
0.35
100
AcDbLine
 10
48.5
 20
-1763.065186
 30
0.0
 11
48.5
 21
-1749.065186
 31
0.0
  0
LINE
  5
15D
330
4D
100
AcDbEntity
  8
Hawa5
 62
     1
 48
0.403
100
AcDbLine
 10
64.62
 20
-1749.065186
 30
0.0
 11
48.5
 21
-1749.065186
 31
0.0
  0
ARC
  5
15E
330
4D
100
AcDbEntity
  8
Hawa6
 62
     3
100
AcDbCircle
 10
30.35
 20
-1757.140922
 30
0.0
 40
0.6
100
AcDbArc
 50
180.0
 51
360.0
  0
LINE
  5
15F
330
4D
100
AcDbEntity
  8
Hawa6
 62
     3
 48
0.125
100
AcDbLine
 10
29.75
 20
-1757.140922
 30
0.0
 11
29.75
 21
-1752.140922
 31
0.0
  0
LINE
  5
160
330
4D
100
AcDbEntity
  8
Hawa6
 62
     3
 48
0.014142
100
AcDbLine
 10
29.35
 20
-1751.740922
 30
0.0
 11
29.75
 21
-1752.140922
 31
0.0
  0
LINE
  5
161
330
4D
100
AcDbEntity
  8
Hawa6
 62
     3
 48
0.014142
100
AcDbLine
 10
29.75
 20
-1751.340922
 30
0.0
 11
29.35
 21
-1751.740922
 31
0.0
  0
LINE
  5
162
330
4D
100
AcDbEntity
  8
Hawa6
 62
     3
 48
0.05875
100
AcDbLine
 10
29.75
 20
-1751.340922
 30
0.0
 11
29.75
 21
-1748.990922
 31
0.0
  0
ARC
  5
163
330
4D
100
AcDbEntity
  8
Hawa6
 62
     3
100
AcDbCircle
 10
29.15
 20
-1748.990922
 30
0.0
 40
0.6
100
AcDbArc
 50
0.0
 51
118.603166
  0
LINE
  5
164
330
4D
100
AcDbEntity
  8
Hawa6
 62
     3
 48
0.031686
100
AcDbLine
 10
27.75
 20
-1749.070922
 30
0.0
 11
28.862756
 21
-1748.464148
 31
0.0
  0
LINE
  5
165
330
4D
100
AcDbEntity
  8
Hawa6
 62
     3
 48
0.0075
100
AcDbLine
 10
27.75
 20
-1749.070922
 30
0.0
 11
27.75
 21
-1748.770922
 31
0.0
  0
ARC
  5
166
330
4D
100
AcDbEntity
  8
Hawa6
 62
     3
100
AcDbCircle
 10
29.25
 20
-1748.770922
 30
0.0
 40
1.5
100
AcDbArc
 50
139.301468
 51
180.0
  0
ARC
  5
167
330
4D
100
AcDbEntity
  8
Hawa6
 62
     3
100
AcDbCircle
 10
40.773896
 20
-1758.682523
 30
0.0
 40
16.7
100
AcDbArc
 50
119.219366
 51
139.301468
  0
ARC
  5
168
330
4D
100
AcDbEntity
  8
Hawa6
 62
     3
100
AcDbCircle
 10
32.743752
 20
-1744.325668
 30
0.0
 40
0.25
100
AcDbArc
 50
314.649774
 51
479.2193659999999
  0
ARC
  5
169
330
4D
100
AcDbEntity
  8
Hawa6
 62
     3
100
AcDbCircle
 10
37.838844
 20
-1749.483432
 30
0.0
 40
7.0
100
AcDbArc
 50
134.649774
 51
169.77574
  0
LINE
  5
16A
330
4D
100
AcDbEntity
  8
Hawa6
 62
     3
 48
0.072553
100
AcDbLine
 10
30.95
 20
-1748.240922
 30
0.0
 11
30.95
 21
-1751.143058
 31
0.0
  0
LINE
  5
16B
330
4D
100
AcDbEntity
  8
Hawa6
 62
     3
 48
0.069956
100
AcDbLine
 10
30.95
 20
-1751.143058
 30
0.0
 11
32.853863
 21
-1749.092358
 31
0.0
  0
LINE
  5
16C
330
4D
100
AcDbEntity
  8
Hawa6
 62
     3
 48
0.0125
100
AcDbLine
 10
32.853863
 20
-1749.092358
 30
0.0
 11
32.98917
 21
-1749.573702
 31
0.0
  0
LINE
  5
16D
330
4D
100
AcDbEntity
  8
Hawa6
 62
     3
 48
0.092611
100
AcDbLine
 10
32.98917
 20
-1749.573702
 30
0.0
 11
30.95
 21
-1752.666358
 31
0.0
  0
LINE
  5
16E
330
4D
100
AcDbEntity
  8
Hawa6
 62
     3
 48
0.068158
100
AcDbLine
 10
30.95
 20
-1752.666358
 30
0.0
 11
30.95
 21
-1755.392676
 31
0.0
  0
LINE
  5
16F
330
4D
100
AcDbEntity
  8
Hawa6
 62
     3
 48
0.060891
100
AcDbLine
 10
30.95
 20
-1755.392676
 30
0.0
 11
32.938224
 21
-1753.985766
 31
0.0
  0
LINE
  5
170
330
4D
100
AcDbEntity
  8
Hawa6
 62
     3
 48
0.0125
100
AcDbLine
 10
32.938224
 20
-1753.985766
 30
0.0
 11
32.997515
 21
-1754.482238
 31
0.0
  0
LINE
  5
171
330
4D
100
AcDbEntity
  8
Hawa6
 62
     3
 48
0.076073
100
AcDbLine
 10
32.997515
 20
-1754.482238
 30
0.0
 11
30.95
 21
-1756.733245
 31
0.0
  0
LINE
  5
172
330
4D
100
AcDbEntity
  8
Hawa6
 62
     3
 48
0.010192
100
AcDbLine
 10
30.95
 20
-1756.733245
 30
0.0
 11
30.95
 21
-1757.140922
 31
0.0
  0
LINE
  5
173
330
4D
100
AcDbEntity
  8
Hawa4
 62
     4
 48
0.010607
100
AcDbLine
 10
35.279885
 20
-1760.565186
 30
0.0
 11
35.579885
 21
-1760.865186
 31
0.0
  0
LINE
  5
174
330
4D
100
AcDbEntity
  8
Hawa4
 62
     4
 48
0.09
100
AcDbLine
 10
33.85
 20
-1760.565186
 30
0.0
 11
30.25
 21
-1760.565186
 31
0.0
  0
LINE
  5
175
330
4D
100
AcDbEntity
  8
Hawa4
 62
     4
 48
0.010607
100
AcDbLine
 10
35.579885
 20
-1760.865186
 30
0.0
 11
35.879885
 21
-1760.565186
 31
0.0
  0
LINE
  5
176
330
4D
100
AcDbEntity
  8
Hawa4
 62
     4
 48
0.010607
100
AcDbLine
 10
37.7
 20
-1760.565186
 30
0.0
 11
38.0
 21
-1760.865186
 31
0.0
  0
LINE
  5
177
330
4D
100
AcDbEntity
  8
Hawa4
 62
     4
 48
0.010607
100
AcDbLine
 10
38.0
 20
-1760.865186
 30
0.0
 11
38.3
 21
-1760.565186
 31
0.0
  0
LINE
  5
178
330
4D
100
AcDbEntity
  8
Hawa4
 62
     4
 48
0.006268
100
AcDbLine
 10
33.85
 20
-1761.365186
 30
0.0
 11
34.10072299999999
 21
-1761.365186
 31
0.0
  0
LINE
  5
179
330
4D
100
AcDbEntity
  8
Hawa4
 62
     4
 48
0.02
100
AcDbLine
 10
33.85
 20
-1760.565186
 30
0.0
 11
33.85
 21
-1761.365186
 31
0.0
  0
ARC
  5
17A
330
4D
100
AcDbEntity
  8
Hawa4
 62
     4
100
AcDbCircle
 10
30.25
 20
-1760.065186
 30
0.0
 40
0.5
100
AcDbArc
 50
180.0
 51
270.0
  0
LINE
  5
17B
330
4D
100
AcDbEntity
  8
Hawa4
 62
     4
 48
0.09
100
AcDbLine
 10
45.75
 20
-1760.565186
 30
0.0
 11
42.14999999999999
 21
-1760.565186
 31
0.0
  0
LINE
  5
17C
330
4D
100
AcDbEntity
  8
Hawa4
 62
     4
 48
0.006267
100
AcDbLine
 10
41.89933299999999
 20
-1761.365186
 30
0.0
 11
42.14999999999999
 21
-1761.365186
 31
0.0
  0
LINE
  5
17D
330
4D
100
AcDbEntity
  8
Hawa4
 62
     4
 48
0.02
100
AcDbLine
 10
42.14999999999999
 20
-1760.565186
 30
0.0
 11
42.14999999999999
 21
-1761.365186
 31
0.0
  0
LINE
  5
17E
330
4D
100
AcDbEntity
  8
Hawa4
 62
     4
 48
0.060104
100
AcDbLine
 10
35.55
 20
-1763.065186
 30
0.0
 11
33.85
 21
-1761.365186
 31
0.0
  0
ARC
  5
17F
330
4D
100
AcDbEntity
  8
Hawa4
 62
     4
100
AcDbCircle
 10
45.75
 20
-1760.065186
 30
0.0
 40
0.5
100
AcDbArc
 50
270.0
 51
360.0
  0
LINE
  5
180
330
4D
100
AcDbEntity
  8
Hawa4
 62
     4
 48
0.094394
100
AcDbLine
 10
46.25
 20
-1760.065186
 30
0.0
 11
46.25
 21
-1756.289433
 31
0.0
  0
LINE
  5
181
330
4D
100
AcDbEntity
  8
Hawa4
 62
     4
 48
0.018107
100
AcDbLine
 10
46.762132
 20
-1755.777301
 30
0.0
 11
46.25
 21
-1756.289433
 31
0.0
  0
ARC
  5
182
330
4D
100
AcDbEntity
  8
Hawa4
 62
     4
100
AcDbCircle
 10
46.55
 20
-1755.565169
 30
0.0
 40
0.3
100
AcDbArc
 50
315.0
 51
405.0
  0
LINE
  5
183
330
4D
100
AcDbEntity
  8
Hawa4
 62
     4
 48
0.018107
100
AcDbLine
 10
46.25
 20
-1754.840905
 30
0.0
 11
46.762132
 21
-1755.353037
 31
0.0
  0
LINE
  5
184
330
4D
100
AcDbEntity
  8
Hawa4
 62
     4
 48
0.051286
100
AcDbLine
 10
46.25
 20
-1754.840905
 30
0.0
 11
46.25
 21
-1752.78945
 31
0.0
  0
LINE
  5
185
330
4D
100
AcDbEntity
  8
Hawa4
 62
     4
 48
0.018107
100
AcDbLine
 10
46.762132
 20
-1752.277318
 30
0.0
 11
46.25
 21
-1752.78945
 31
0.0
  0
ARC
  5
186
330
4D
100
AcDbEntity
  8
Hawa4
 62
     4
100
AcDbCircle
 10
46.55
 20
-1752.065186
 30
0.0
 40
0.3
100
AcDbArc
 50
315.0
 51
405.0
  0
LINE
  5
187
330
4D
100
AcDbEntity
  8
Hawa4
 62
     4
 48
0.018107
100
AcDbLine
 10
46.25
 20
-1751.340922
 30
0.0
 11
46.762132
 21
-1751.853054
 31
0.0
  0
LINE
  5
188
330
4D
100
AcDbEntity
  8
Hawa4
 62
     4
 48
0.049393
100
AcDbLine
 10
46.25
 20
-1751.340922
 30
0.0
 11
46.25
 21
-1749.365186
 31
0.0
  0
ARC
  5
189
330
4D
100
AcDbEntity
  8
Hawa4
 62
     4
100
AcDbCircle
 10
46.55
 20
-1749.365186
 30
0.0
 40
0.3
100
AcDbArc
 50
90.0
 51
180.0
  0
LINE
  5
18A
330
4D
100
AcDbEntity
  8
Hawa4
 62
     4
 48
0.03625
100
AcDbLine
 10
48.0
 20
-1749.065186
 30
0.0
 11
46.55
 21
-1749.065186
 31
0.0
  0
ARC
  5
18B
330
4D
100
AcDbEntity
  8
Hawa4
 62
     4
100
AcDbCircle
 10
48.0
 20
-1749.565186
 30
0.0
 40
0.5
100
AcDbArc
 50
360.0
 51
450.0
  0
LINE
  5
18C
330
4D
100
AcDbEntity
  8
Hawa4
 62
     4
 48
0.325
100
AcDbLine
 10
48.5
 20
-1749.565186
 30
0.0
 11
48.5
 21
-1762.565186
 31
0.0
  0
ARC
  5
18D
330
4D
100
AcDbEntity
  8
Hawa4
 62
     4
100
AcDbCircle
 10
48.0
 20
-1762.565186
 30
0.0
 40
0.5
100
AcDbArc
 50
270.0
 51
360.0
  0
LINE
  5
18E
330
4D
100
AcDbEntity
  8
Hawa4
 62
     4
 48
0.18875
100
AcDbLine
 10
35.55
 20
-1763.065186
 30
0.0
 11
28.0
 21
-1763.065186
 31
0.0
  0
LINE
  5
18F
330
4D
100
AcDbEntity
  8
Hawa4
 62
     4
 48
0.18875
100
AcDbLine
 10
48.0
 20
-1763.065186
 30
0.0
 11
40.45
 21
-1763.065186
 31
0.0
  0
ARC
  5
190
330
4D
100
AcDbEntity
  8
Hawa4
 62
     4
100
AcDbCircle
 10
28.0
 20
-1762.565186
 30
0.0
 40
0.5
100
AcDbArc
 50
180.0
 51
270.0
  0
LINE
  5
191
330
4D
100
AcDbEntity
  8
Hawa4
 62
     4
 48
0.325
100
AcDbLine
 10
27.5
 20
-1749.565186
 30
0.0
 11
27.5
 21
-1762.565186
 31
0.0
  0
ARC
  5
192
330
4D
100
AcDbEntity
  8
Hawa4
 62
     4
100
AcDbCircle
 10
28.0
 20
-1749.565186
 30
0.0
 40
0.5
100
AcDbArc
 50
90.0
 51
180.0
  0
LINE
  5
193
330
4D
100
AcDbEntity
  8
Hawa4
 62
     4
 48
0.03625
100
AcDbLine
 10
29.45
 20
-1749.065186
 30
0.0
 11
28.0
 21
-1749.065186
 31
0.0
  0
ARC
  5
194
330
4D
100
AcDbEntity
  8
Hawa4
 62
     4
100
AcDbCircle
 10
29.45
 20
-1749.365186
 30
0.0
 40
0.3
100
AcDbArc
 50
360.0
 51
450.0
  0
LINE
  5
195
330
4D
100
AcDbEntity
  8
Hawa4
 62
     4
 48
0.049393
100
AcDbLine
 10
29.75
 20
-1749.365186
 30
0.0
 11
29.75
 21
-1751.340922
 31
0.0
  0
LINE
  5
196
330
4D
100
AcDbEntity
  8
Hawa4
 62
     4
 48
0.018107
100
AcDbLine
 10
29.75
 20
-1751.340922
 30
0.0
 11
29.237868
 21
-1751.853054
 31
0.0
  0
ARC
  5
197
330
4D
100
AcDbEntity
  8
Hawa4
 62
     4
100
AcDbCircle
 10
29.45
 20
-1752.065186
 30
0.0
 40
0.3
100
AcDbArc
 50
135.0
 51
225.0
  0
LINE
  5
198
330
4D
100
AcDbEntity
  8
Hawa4
 62
     4
 48
0.018107
100
AcDbLine
 10
29.237868
 20
-1752.277318
 30
0.0
 11
29.75
 21
-1752.78945
 31
0.0
  0
LINE
  5
199
330
4D
100
AcDbEntity
  8
Hawa4
 62
     4
 48
0.051286
100
AcDbLine
 10
29.75
 20
-1752.78945
 30
0.0
 11
29.75
 21
-1754.840905
 31
0.0
  0
LINE
  5
19A
330
4D
100
AcDbEntity
  8
Hawa4
 62
     4
 48
0.018107
100
AcDbLine
 10
29.75
 20
-1754.840905
 30
0.0
 11
29.237868
 21
-1755.353037
 31
0.0
  0
ARC
  5
19B
330
4D
100
AcDbEntity
  8
Hawa4
 62
     4
100
AcDbCircle
 10
29.45
 20
-1755.565169
 30
0.0
 40
0.3
100
AcDbArc
 50
135.0
 51
225.0
  0
LINE
  5
19C
330
4D
100
AcDbEntity
  8
Hawa4
 62
     4
 48
0.018107
100
AcDbLine
 10
29.237868
 20
-1755.777301
 30
0.0
 11
29.75
 21
-1756.289433
 31
0.0
  0
LINE
  5
19D
330
4D
100
AcDbEntity
  8
Hawa4
 62
     4
 48
0.094394
100
AcDbLine
 10
29.75
 20
-1756.289433
 30
0.0
 11
29.75
 21
-1760.065186
 31
0.0
  0
LINE
  5
19E
330
4D
100
AcDbEntity
  8
Hawa4
 62
     4
 48
0.060104
100
AcDbLine
 10
40.45
 20
-1763.065186
 30
0.0
 11
42.14999999999999
 21
-1761.365186
 31
0.0
  0
LINE
  5
19F
330
4D
100
AcDbEntity
  8
Hawa5
 62
     1
 48
0.3
100
AcDbLine
 10
44.0
 20
-1755.565186
 30
0.0
 11
32.0
 21
-1755.565186
 31
0.0
  0
LINE
  5
1A0
330
4D
100
AcDbEntity
  8
Hawa5
 62
     1
 48
0.125
100
AcDbLine
 10
44.0
 20
-1760.565186
 30
0.0
 11
44.0
 21
-1755.565186
 31
0.0
  0
LINE
  5
1A1
330
4D
100
AcDbEntity
  8
Hawa5
 62
     1
 48
0.3
100
AcDbLine
 10
32.0
 20
-1760.565186
 30
0.0
 11
44.0
 21
-1760.565186
 31
0.0
  0
LINE
  5
1A2
330
4D
100
AcDbEntity
  8
Hawa5
 62
     1
 48
0.125
100
AcDbLine
 10
32.0
 20
-1755.565186
 30
0.0
 11
32.0
 21
-1760.565186
 31
0.0
  0
LINE
  5
1A3
330
4D
100
AcDbEntity
  8
Hawa6
 62
     3
 48
0.010192
100
AcDbLine
 10
45.04999999999999
 20
-1756.733245
 30
0.0
 11
45.04999999999999
 21
-1757.140922
 31
0.0
  0
LINE
  5
1A4
330
4D
100
AcDbEntity
  8
Hawa6
 62
     3
 48
0.076073
100
AcDbLine
 10
43.002485
 20
-1754.482238
 30
0.0
 11
45.04999999999999
 21
-1756.733245
 31
0.0
  0
LINE
  5
1A5
330
4D
100
AcDbEntity
  8
Hawa6
 62
     3
 48
0.0125
100
AcDbLine
 10
43.061776
 20
-1753.985766
 30
0.0
 11
43.002485
 21
-1754.482238
 31
0.0
  0
LINE
  5
1A6
330
4D
100
AcDbEntity
  8
Hawa6
 62
     3
 48
0.060891
100
AcDbLine
 10
45.04999999999999
 20
-1755.392676
 30
0.0
 11
43.061776
 21
-1753.985766
 31
0.0
  0
LINE
  5
1A7
330
4D
100
AcDbEntity
  8
Hawa6
 62
     3
 48
0.068158
100
AcDbLine
 10
45.04999999999999
 20
-1752.666358
 30
0.0
 11
45.04999999999999
 21
-1755.392676
 31
0.0
  0
LINE
  5
1A8
330
4D
100
AcDbEntity
  8
Hawa6
 62
     3
 48
0.092611
100
AcDbLine
 10
43.01083
 20
-1749.573702
 30
0.0
 11
45.04999999999999
 21
-1752.666358
 31
0.0
  0
LINE
  5
1A9
330
4D
100
AcDbEntity
  8
Hawa6
 62
     3
 48
0.0125
100
AcDbLine
 10
43.146137
 20
-1749.092358
 30
0.0
 11
43.01083
 21
-1749.573702
 31
0.0
  0
LINE
  5
1AA
330
4D
100
AcDbEntity
  8
Hawa6
 62
     3
 48
0.069956
100
AcDbLine
 10
45.04999999999999
 20
-1751.143058
 30
0.0
 11
43.146137
 21
-1749.092358
 31
0.0
  0
LINE
  5
1AB
330
4D
100
AcDbEntity
  8
Hawa6
 62
     3
 48
0.072553
100
AcDbLine
 10
45.04999999999999
 20
-1748.240922
 30
0.0
 11
45.04999999999999
 21
-1751.143058
 31
0.0
  0
ARC
  5
1AC
330
4D
100
AcDbEntity
  8
Hawa6
 62
     3
100
AcDbCircle
 10
38.161156
 20
-1749.483432
 30
0.0
 40
7.0
100
AcDbArc
 50
10.22426
 51
45.350226
  0
ARC
  5
1AD
330
4D
100
AcDbEntity
  8
Hawa6
 62
     3
100
AcDbCircle
 10
43.25624799999999
 20
-1744.325668
 30
0.0
 40
0.25
100
AcDbArc
 50
60.780634
 51
225.350226
  0
ARC
  5
1AE
330
4D
100
AcDbEntity
  8
Hawa6
 62
     3
100
AcDbCircle
 10
35.226104
 20
-1758.682523
 30
0.0
 40
16.7
100
AcDbArc
 50
40.69853199999999
 51
60.780634
  0
ARC
  5
1AF
330
4D
100
AcDbEntity
  8
Hawa6
 62
     3
100
AcDbCircle
 10
46.74999999999999
 20
-1748.770922
 30
0.0
 40
1.5
100
AcDbArc
 50
0.0
 51
40.69853199999999
  0
LINE
  5
1B0
330
4D
100
AcDbEntity
  8
Hawa6
 62
     3
 48
0.0075
100
AcDbLine
 10
48.25
 20
-1749.070922
 30
0.0
 11
48.25
 21
-1748.770922
 31
0.0
  0
LINE
  5
1B1
330
4D
100
AcDbEntity
  8
Hawa6
 62
     3
 48
0.031686
100
AcDbLine
 10
48.25
 20
-1749.070922
 30
0.0
 11
47.137244
 21
-1748.464148
 31
0.0
  0
ARC
  5
1B2
330
4D
100
AcDbEntity
  8
Hawa6
 62
     3
100
AcDbCircle
 10
46.85
 20
-1748.990922
 30
0.0
 40
0.6
100
AcDbArc
 50
61.396834
 51
180.0
  0
LINE
  5
1B3
330
4D
100
AcDbEntity
  8
Hawa6
 62
     3
 48
0.05875
100
AcDbLine
 10
46.25
 20
-1751.340922
 30
0.0
 11
46.25
 21
-1748.990922
 31
0.0
  0
LINE
  5
1B4
330
4D
100
AcDbEntity
  8
Hawa6
 62
     3
 48
0.014142
100
AcDbLine
 10
46.25
 20
-1751.340922
 30
0.0
 11
46.65
 21
-1751.740922
 31
0.0
  0
LINE
  5
1B5
330
4D
100
AcDbEntity
  8
Hawa6
 62
     3
 48
0.014142
100
AcDbLine
 10
46.65
 20
-1751.740922
 30
0.0
 11
46.25
 21
-1752.140922
 31
0.0
  0
LINE
  5
1B6
330
4D
100
AcDbEntity
  8
Hawa6
 62
     3
 48
0.125
100
AcDbLine
 10
46.25
 20
-1757.140922
 30
0.0
 11
46.25
 21
-1752.140922
 31
0.0
  0
ARC
  5
1B7
330
4D
100
AcDbEntity
  8
Hawa6
 62
     3
100
AcDbCircle
 10
45.65
 20
-1757.140922
 30
0.0
 40
0.6
100
AcDbArc
 50
180.0
 51
360.0
  0
LINE
  5
1B8
330
4D
100
AcDbEntity
  8
Hawa4
 62
     4
 48
0.010607
100
AcDbLine
 10
10.0
 20
-1762.565186
 30
0.0
 11
9.699999999999999
 21
-1762.265186
 31
0.0
  0
LINE
  5
1B9
330
4D
100
AcDbEntity
  8
Hawa4
 62
     4
 48
0.006252
100
AcDbLine
 10
13.899939
 20
-1763.065186
 30
0.0
 11
14.15
 21
-1763.065186
 31
0.0
  0
LINE
  5
1BA
330
4D
100
AcDbEntity
  8
Hawa4
 62
     4
 48
0.083549
100
AcDbLine
 10
9.699999999999999
 20
-1762.265186
 30
0.0
 11
6.358031999999999
 21
-1762.265186
 31
0.0
  0
LINE
  5
1BB
330
4D
100
AcDbEntity
  8
Hawa4
 62
     4
 48
0.010607
100
AcDbLine
 10
10.0
 20
-1762.565186
 30
0.0
 11
10.3
 21
-1762.265186
 31
0.0
  0
LINE
  5
1BC
330
4D
100
AcDbEntity
  8
Hawa4
 62
     4
 48
0.09625
100
AcDbLine
 10
14.15
 20
-1762.265186
 30
0.0
 11
10.3
 21
-1762.265186
 31
0.0
  0
LINE
  5
1BD
330
4D
100
AcDbEntity
  8
Hawa4
 62
     4
 48
0.02
100
AcDbLine
 10
14.15
 20
-1762.265186
 30
0.0
 11
14.15
 21
-1763.065186
 31
0.0
  0
LINE
  5
1BE
330
4D
100
AcDbEntity
  8
Hawa4
 62
     4
 48
0.012701
100
AcDbLine
 10
6.358031999999999
 20
-1762.265186
 30
0.0
 11
5.849999999999999
 21
-1762.265186
 31
0.0
  0
LINE
  5
1BF
330
4D
100
AcDbEntity
  8
Hawa4
 62
     4
 48
0.02125
100
AcDbLine
 10
5.0
 20
-1762.265186
 30
0.0
 11
5.849999999999999
 21
-1762.265186
 31
0.0
  0
LINE
  5
1C0
330
4D
100
AcDbEntity
  8
Hawa4
 62
     4
 48
0.070711
100
AcDbLine
 10
12.15
 20
-1765.065186
 30
0.0
 11
14.15
 21
-1763.065186
 31
0.0
  0
LINE
  5
1C1
330
4D
100
AcDbEntity
  8
Hawa4
 62
     4
 48
0.006269
100
AcDbLine
 10
5.849999999999999
 20
-1763.065186
 30
0.0
 11
6.100751999999999
 21
-1763.065186
 31
0.0
  0
LINE
  5
1C2
330
4D
100
AcDbEntity
  8
Hawa4
 62
     4
 48
0.02
100
AcDbLine
 10
5.849999999999999
 20
-1762.265186
 30
0.0
 11
5.849999999999999
 21
-1763.065186
 31
0.0
  0
LINE
  5
1C3
330
4D
100
AcDbEntity
  8
Hawa4
 62
     4
 48
0.02125
100
AcDbLine
 10
14.15
 20
-1762.265186
 30
0.0
 11
15.0
 21
-1762.265186
 31
0.0
  0
LINE
  5
1C4
330
4D
100
AcDbEntity
  8
Hawa4
 62
     4
 48
0.005
100
AcDbLine
 10
5.0
 20
-1762.065186
 30
0.0
 11
5.0
 21
-1762.265186
 31
0.0
  0
LINE
  5
1C5
330
4D
100
AcDbEntity
  8
Hawa4
 62
     4
 48
0.12625
100
AcDbLine
 10
17.2
 20
-1765.065186
 30
0.0
 11
12.15
 21
-1765.065186
 31
0.0
  0
LINE
  5
1C6
330
4D
100
AcDbEntity
  8
Hawa4
 62
     4
 48
0.12625
100
AcDbLine
 10
7.849999999999999
 20
-1765.065186
 30
0.0
 11
2.799999999999999
 21
-1765.065186
 31
0.0
  0
LINE
  5
1C7
330
4D
100
AcDbEntity
  8
Hawa4
 62
     4
 48
0.070711
100
AcDbLine
 10
5.849999999999999
 20
-1763.065186
 30
0.0
 11
7.849999999999999
 21
-1765.065186
 31
0.0
  0
LINE
  5
1C8
330
4D
100
AcDbEntity
  8
Hawa4
 62
     4
 48
0.005
100
AcDbLine
 10
15.0
 20
-1762.065186
 30
0.0
 11
15.0
 21
-1762.265186
 31
0.0
  0
ARC
  5
1C9
330
4D
100
AcDbEntity
  8
Hawa4
 62
     4
100
AcDbCircle
 10
2.799999999999999
 20
-1764.265186
 30
0.0
 40
0.8
100
AcDbArc
 50
180.0
 51
270.0
  0
LINE
  5
1CA
330
4D
100
AcDbEntity
  8
Hawa4
 62
     4
 48
0.254782
100
AcDbLine
 10
2.0
 20
-1764.265186
 30
0.0
 11
2.0
 21
-1754.073898
 31
0.0
  0
ARC
  5
1CB
330
4D
100
AcDbEntity
  8
Hawa4
 62
     4
100
AcDbCircle
 10
2.2
 20
-1754.073898
 30
0.0
 40
0.2
100
AcDbArc
 50
57.20283199999999
 51
180.0
  0
ARC
  5
1CC
330
4D
100
AcDbEntity
  8
Hawa4
 62
     4
100
AcDbCircle
 10
2.85
 20
-1753.065186
 30
0.0
 40
1.0
100
AcDbArc
 50
237.202832
 51
482.797168
  0
ARC
  5
1CD
330
4D
100
AcDbEntity
  8
Hawa4
 62
     4
100
AcDbCircle
 10
2.2
 20
-1752.056473999999
 30
0.0
 40
0.2
100
AcDbArc
 50
180.0
 51
302.797168
  0
LINE
  5
1CE
330
4D
100
AcDbEntity
  8
Hawa4
 62
     4
 48
0.054782
100
AcDbLine
 10
2.0
 20
-1752.056473999999
 30
0.0
 11
2.0
 21
-1749.865186
 31
0.0
  0
ARC
  5
1CF
330
4D
100
AcDbEntity
  8
Hawa4
 62
     4
100
AcDbCircle
 10
2.799999999999999
 20
-1749.865186
 30
0.0
 40
0.8
100
AcDbArc
 50
90.0
 51
180.0
  0
LINE
  5
1D0
330
4D
100
AcDbEntity
  8
Hawa4
 62
     4
 48
0.0375
100
AcDbLine
 10
2.799999999999999
 20
-1749.065186
 30
0.0
 11
4.299999999999999
 21
-1749.065186
 31
0.0
  0
ARC
  5
1D1
330
4D
100
AcDbEntity
  8
Hawa4
 62
     4
100
AcDbCircle
 10
4.299999999999999
 20
-1749.865186
 30
0.0
 40
0.8
100
AcDbArc
 50
35.659644
 51
90.0
  0
ARC
  5
1D2
330
4D
100
AcDbEntity
  8
Hawa4
 62
     4
100
AcDbCircle
 10
4.799999999999999
 20
-1758.565186
 30
0.0
 40
0.3
100
AcDbArc
 50
270.0
 51
320.466401
  0
LINE
  5
1D3
330
4D
100
AcDbEntity
  8
Hawa4
 62
     4
 48
0.01625
100
AcDbLine
 10
4.799999999999999
 20
-1758.865186
 30
0.0
 11
4.15
 21
-1758.865186
 31
0.0
  0
ARC
  5
1D4
330
4D
100
AcDbEntity
  8
Hawa4
 62
     4
100
AcDbCircle
 10
4.15
 20
-1759.165186
 30
0.0
 40
0.3
100
AcDbArc
 50
90.0
 51
180.0
  0
LINE
  5
1D5
330
4D
100
AcDbEntity
  8
Hawa4
 62
     4
 48
0.065
100
AcDbLine
 10
3.85
 20
-1759.165186
 30
0.0
 11
3.85
 21
-1761.765186
 31
0.0
  0
ARC
  5
1D6
330
4D
100
AcDbEntity
  8
Hawa4
 62
     4
100
AcDbCircle
 10
4.15
 20
-1761.765186
 30
0.0
 40
0.3
100
AcDbArc
 50
180.0
 51
270.0
  0
LINE
  5
1D7
330
4D
100
AcDbEntity
  8
Hawa4
 62
     4
 48
0.02125
100
AcDbLine
 10
4.15
 20
-1762.065186
 30
0.0
 11
5.0
 21
-1762.065186
 31
0.0
  0
LINE
  5
1D8
330
4D
100
AcDbEntity
  8
Hawa4
 62
     4
 48
0.02125
100
AcDbLine
 10
15.0
 20
-1762.065186
 30
0.0
 11
15.85
 21
-1762.065186
 31
0.0
  0
ARC
  5
1D9
330
4D
100
AcDbEntity
  8
Hawa4
 62
     4
100
AcDbCircle
 10
15.85
 20
-1761.765186
 30
0.0
 40
0.3
100
AcDbArc
 50
270.0
 51
360.0
  0
LINE
  5
1DA
330
4D
100
AcDbEntity
  8
Hawa4
 62
     4
 48
0.065
100
AcDbLine
 10
16.15
 20
-1759.165186
 30
0.0
 11
16.15
 21
-1761.765186
 31
0.0
  0
ARC
  5
1DB
330
4D
100
AcDbEntity
  8
Hawa4
 62
     4
100
AcDbCircle
 10
15.85
 20
-1759.165186
 30
0.0
 40
0.3
100
AcDbArc
 50
0.0
 51
90.0
  0
LINE
  5
1DC
330
4D
100
AcDbEntity
  8
Hawa4
 62
     4
 48
0.01625
100
AcDbLine
 10
15.85
 20
-1758.865186
 30
0.0
 11
15.2
 21
-1758.865186
 31
0.0
  0
ARC
  5
1DD
330
4D
100
AcDbEntity
  8
Hawa4
 62
     4
100
AcDbCircle
 10
15.2
 20
-1758.565186
 30
0.0
 40
0.3
100
AcDbArc
 50
219.531999
 51
270.0
  0
ARC
  5
1DE
330
4D
100
AcDbEntity
  8
Hawa4
 62
     4
100
AcDbCircle
 10
15.7
 20
-1749.865186
 30
0.0
 40
0.8
100
AcDbArc
 50
90.0
 51
144.34147
  0
LINE
  5
1DF
330
4D
100
AcDbEntity
  8
Hawa4
 62
     4
 48
0.0375
100
AcDbLine
 10
15.7
 20
-1749.065186
 30
0.0
 11
17.2
 21
-1749.065186
 31
0.0
  0
ARC
  5
1E0
330
4D
100
AcDbEntity
  8
Hawa4
 62
     4
100
AcDbCircle
 10
17.2
 20
-1749.865186
 30
0.0
 40
0.8
100
AcDbArc
 50
0.0
 51
90.0
  0
LINE
  5
1E1
330
4D
100
AcDbEntity
  8
Hawa4
 62
     4
 48
0.054782
100
AcDbLine
 10
18.0
 20
-1752.056473999999
 30
0.0
 11
18.0
 21
-1749.865186
 31
0.0
  0
ARC
  5
1E2
330
4D
100
AcDbEntity
  8
Hawa4
 62
     4
100
AcDbCircle
 10
17.8
 20
-1752.056473999999
 30
0.0
 40
0.2
100
AcDbArc
 50
237.202832
 51
360.0
  0
ARC
  5
1E3
330
4D
100
AcDbEntity
  8
Hawa4
 62
     4
100
AcDbCircle
 10
17.15
 20
-1753.065186
 30
0.0
 40
1.0
100
AcDbArc
 50
57.20283199999999
 51
302.797168
  0
ARC
  5
1E4
330
4D
100
AcDbEntity
  8
Hawa4
 62
     4
100
AcDbCircle
 10
17.8
 20
-1754.073898
 30
0.0
 40
0.2
100
AcDbArc
 50
0.0
 51
122.797168
  0
LINE
  5
1E5
330
4D
100
AcDbEntity
  8
Hawa4
 62
     4
 48
0.254782
100
AcDbLine
 10
18.0
 20
-1764.265186
 30
0.0
 11
18.0
 21
-1754.073898
 31
0.0
  0
ARC
  5
1E6
330
4D
100
AcDbEntity
  8
Hawa4
 62
     4
100
AcDbCircle
 10
17.2
 20
-1764.265186
 30
0.0
 40
0.8
100
AcDbArc
 50
270.0
 51
360.0
  0
LINE
  5
1E7
330
4D
100
AcDbEntity
  8
Hawa6
 62
     3
100
AcDbLine
 10
0.0
 20
-1738.065186
 30
0.0
 11
0.0
 21
-1716.465186
 31
0.0
  0
ARC
  5
1E8
330
4D
100
AcDbEntity
  8
Hawa6
 62
     3
100
AcDbCircle
 10
0.5
 20
-1716.465186
 30
0.0
 40
0.5
100
AcDbArc
 50
90.0
 51
180.0
  0
LINE
  5
1E9
330
4D
100
AcDbEntity
  8
Hawa6
 62
     3
 48
0.03
100
AcDbLine
 10
1.7
 20
-1715.965186
 30
0.0
 11
0.5
 21
-1715.965186
 31
0.0
  0
ARC
  5
1EA
330
4D
100
AcDbEntity
  8
Hawa6
 62
     3
100
AcDbCircle
 10
1.7
 20
-1716.265186
 30
0.0
 40
0.3
100
AcDbArc
 50
0.0
 51
90.0
  0
LINE
  5
1EB
330
4D
100
AcDbEntity
  8
Hawa6
 62
     3
 48
0.31
100
AcDbLine
 10
2.0
 20
-1716.265186
 30
0.0
 11
2.0
 21
-1728.665186
 31
0.0
  0
ARC
  5
1EC
330
4D
100
AcDbEntity
  8
Hawa6
 62
     3
100
AcDbCircle
 10
2.299999999999999
 20
-1728.665186
 30
0.0
 40
0.3
100
AcDbArc
 50
180.0
 51
270.0
  0
LINE
  5
1ED
330
4D
100
AcDbEntity
  8
Hawa6
 62
     3
 48
0.1925
100
AcDbLine
 10
10.0
 20
-1728.965186
 30
0.0
 11
2.299999999999999
 21
-1728.965186
 31
0.0
  0
LINE
  5
1EE
330
4D
100
AcDbEntity
  8
Hawa6
 62
     3
 48
0.1925
100
AcDbLine
 10
17.7
 20
-1728.965186
 30
0.0
 11
10.0
 21
-1728.965186
 31
0.0
  0
ARC
  5
1EF
330
4D
100
AcDbEntity
  8
Hawa6
 62
     3
100
AcDbCircle
 10
17.7
 20
-1728.665186
 30
0.0
 40
0.3
100
AcDbArc
 50
270.0
 51
360.0
  0
LINE
  5
1F0
330
4D
100
AcDbEntity
  8
Hawa6
 62
     3
 48
0.31
100
AcDbLine
 10
18.0
 20
-1716.265186
 30
0.0
 11
18.0
 21
-1728.665186
 31
0.0
  0
ARC
  5
1F1
330
4D
100
AcDbEntity
  8
Hawa6
 62
     3
100
AcDbCircle
 10
18.3
 20
-1716.265186
 30
0.0
 40
0.3
100
AcDbArc
 50
90.0
 51
180.0
  0
LINE
  5
1F2
330
4D
100
AcDbEntity
  8
Hawa6
 62
     3
 48
0.03
100
AcDbLine
 10
19.5
 20
-1715.965186
 30
0.0
 11
18.3
 21
-1715.965186
 31
0.0
  0
ARC
  5
1F3
330
4D
100
AcDbEntity
  8
Hawa6
 62
     3
100
AcDbCircle
 10
19.5
 20
-1716.465186
 30
0.0
 40
0.5
100
AcDbArc
 50
0.0
 51
90.0
  0
LINE
  5
1F4
330
4D
100
AcDbEntity
  8
Hawa6
 62
     3
100
AcDbLine
 10
20.0
 20
-1738.065186
 30
0.0
 11
20.0
 21
-1716.465186
 31
0.0
  0
ARC
  5
1F5
330
4D
100
AcDbEntity
  8
Hawa6
 62
     3
100
AcDbCircle
 10
19.0
 20
-1738.065186
 30
0.0
 40
1.0
100
AcDbArc
 50
270.0
 51
360.0
  0
LINE
  5
1F6
330
4D
100
AcDbEntity
  8
Hawa6
 62
     3
 48
0.09
100
AcDbLine
 10
19.0
 20
-1739.065186
 30
0.0
 11
15.4
 21
-1739.065186
 31
0.0
  0
ARC
  5
1F7
330
4D
100
AcDbEntity
  8
Hawa6
 62
     3
100
AcDbCircle
 10
15.4
 20
-1738.765186
 30
0.0
 40
0.3
100
AcDbArc
 50
180.0
 51
270.0
  0
LINE
  5
1F8
330
4D
100
AcDbEntity
  8
Hawa6
 62
     3
 48
0.0475
100
AcDbLine
 10
15.1
 20
-1738.765186
 30
0.0
 11
15.1
 21
-1736.865186
 31
0.0
  0
ARC
  5
1F9
330
4D
100
AcDbEntity
  8
Hawa6
 62
     3
100
AcDbCircle
 10
15.4
 20
-1736.865186
 30
0.0
 40
0.3
100
AcDbArc
 50
90.0
 51
180.0
  0
LINE
  5
1FA
330
4D
100
AcDbEntity
  8
Hawa6
 62
     3
 48
0.0325
100
AcDbLine
 10
15.4
 20
-1736.565186
 30
0.0
 11
16.7
 21
-1736.565186
 31
0.0
  0
ARC
  5
1FB
330
4D
100
AcDbEntity
  8
Hawa6
 62
     3
100
AcDbCircle
 10
16.7
 20
-1736.265186
 30
0.0
 40
0.3
100
AcDbArc
 50
270.0
 51
360.0
  0
LINE
  5
1FC
330
4D
100
AcDbEntity
  8
Hawa6
 62
     3
 48
0.1
100
AcDbLine
 10
17.0
 20
-1736.265186
 30
0.0
 11
17.0
 21
-1732.265186
 31
0.0
  0
ARC
  5
1FD
330
4D
100
AcDbEntity
  8
Hawa6
 62
     3
100
AcDbCircle
 10
16.7
 20
-1732.265186
 30
0.0
 40
0.3
100
AcDbArc
 50
0.0
 51
90.0
  0
LINE
  5
1FE
330
4D
100
AcDbEntity
  8
Hawa6
 62
     3
 48
0.1675
100
AcDbLine
 10
10.0
 20
-1731.965186
 30
0.0
 11
16.7
 21
-1731.965186
 31
0.0
  0
LINE
  5
1FF
330
4D
100
AcDbEntity
  8
Hawa6
 62
     3
 48
0.1675
100
AcDbLine
 10
3.299999999999999
 20
-1731.965186
 30
0.0
 11
10.0
 21
-1731.965186
 31
0.0
  0
ARC
  5
200
330
4D
100
AcDbEntity
  8
Hawa6
 62
     3
100
AcDbCircle
 10
3.299999999999999
 20
-1732.265186
 30
0.0
 40
0.3
100
AcDbArc
 50
90.0
 51
180.0
  0
LINE
  5
201
330
4D
100
AcDbEntity
  8
Hawa6
 62
     3
 48
0.1
100
AcDbLine
 10
3.0
 20
-1732.265186
 30
0.0
 11
3.0
 21
-1736.265186
 31
0.0
  0
ARC
  5
202
330
4D
100
AcDbEntity
  8
Hawa6
 62
     3
100
AcDbCircle
 10
3.299999999999999
 20
-1736.265186
 30
0.0
 40
0.3
100
AcDbArc
 50
180.0
 51
270.0
  0
LINE
  5
203
330
4D
100
AcDbEntity
  8
Hawa6
 62
     3
 48
0.0325
100
AcDbLine
 10
3.299999999999999
 20
-1736.565186
 30
0.0
 11
4.599999999999999
 21
-1736.565186
 31
0.0
  0
ARC
  5
204
330
4D
100
AcDbEntity
  8
Hawa6
 62
     3
100
AcDbCircle
 10
4.599999999999999
 20
-1736.865186
 30
0.0
 40
0.3
100
AcDbArc
 50
0.0
 51
90.0
  0
LINE
  5
205
330
4D
100
AcDbEntity
  8
Hawa6
 62
     3
 48
0.0475
100
AcDbLine
 10
4.9
 20
-1736.865186
 30
0.0
 11
4.9
 21
-1738.765186
 31
0.0
  0
ARC
  5
206
330
4D
100
AcDbEntity
  8
Hawa6
 62
     3
100
AcDbCircle
 10
4.599999999999999
 20
-1738.765186
 30
0.0
 40
0.3
100
AcDbArc
 50
270.0
 51
360.0
  0
LINE
  5
207
330
4D
100
AcDbEntity
  8
Hawa6
 62
     3
 48
0.09
100
AcDbLine
 10
4.599999999999999
 20
-1739.065186
 30
0.0
 11
1.0
 21
-1739.065186
 31
0.0
  0
ARC
  5
208
330
4D
100
AcDbEntity
  8
Hawa6
 62
     3
100
AcDbCircle
 10
1.0
 20
-1738.065186
 30
0.0
 40
1.0
100
AcDbArc
 50
180.0
 51
270.0
  0
LINE
  5
209
330
4D
100
AcDbEntity
  8
Hawa6
 62
     3
 48
0.1
100
AcDbLine
 10
5.099999999999999
 20
-1736.565186
 30
0.0
 11
5.099999999999999
 21
-1740.565186
 31
0.0
  0
LINE
  5
20A
330
4D
100
AcDbEntity
  8
Hawa6
 62
     3
 48
0.045
100
AcDbLine
 10
3.299999999999999
 20
-1736.565186
 30
0.0
 11
5.099999999999999
 21
-1736.565186
 31
0.0
  0
LINE
  5
20B
330
4D
100
AcDbEntity
  8
Hawa6
 62
     3
 48
0.105
100
AcDbLine
 10
3.299999999999999
 20
-1732.365186
 30
0.0
 11
3.299999999999999
 21
-1736.565186
 31
0.0
  0
LINE
  5
20C
330
4D
100
AcDbEntity
  8
Hawa6
 62
     3
 48
0.105
100
AcDbLine
 10
16.7
 20
-1732.365186
 30
0.0
 11
12.5
 21
-1732.365186
 31
0.0
  0
LINE
  5
20D
330
4D
100
AcDbEntity
  8
Hawa6
 62
     3
 48
0.090929
100
AcDbLine
 10
12.4585
 20
-1732.365186
 30
0.0
 11
8.821331999999999
 21
-1732.365186
 31
0.0
  0
LINE
  5
20E
330
4D
100
AcDbEntity
  8
Hawa6
 62
     3
 48
0.031996
100
AcDbLine
 10
8.821331999999999
 20
-1732.365186
 30
0.0
 11
7.5415
 21
-1732.365186
 31
0.0
  0
LINE
  5
20F
330
4D
100
AcDbEntity
  8
Hawa6
 62
     3
 48
0.106038
100
AcDbLine
 10
7.5415
 20
-1732.365186
 30
0.0
 11
3.299999999999999
 21
-1732.365186
 31
0.0
  0
LINE
  5
210
330
4D
100
AcDbEntity
  8
Hawa6
 62
     3
 48
0.112499
100
AcDbLine
 10
4.999977999999999
 20
-1715.965186
 30
0.0
 11
0.5
 21
-1715.965186
 31
0.0
  0
LINE
  5
211
330
4D
100
AcDbEntity
  8
Hawa6
 62
     3
 48
0.112501
100
AcDbLine
 10
19.5
 20
-1715.965186
 30
0.0
 11
14.999978
 21
-1715.965186
 31
0.0
  0
LINE
  5
212
330
4D
100
AcDbEntity
  8
Hawa6
 62
     3
 48
0.012405
100
AcDbLine
 10
4.603786
 20
-1739.065186
 30
0.0
 11
5.099999999999999
 21
-1739.065186
 31
0.0
  0
LINE
  5
213
330
4D
100
AcDbEntity
  8
Hawa6
 62
     3
 48
0.012404
100
AcDbLine
 10
14.9
 20
-1739.065186
 30
0.0
 11
15.396169
 21
-1739.065186
 31
0.0
  0
LINE
  5
214
330
4D
100
AcDbEntity
  8
Hawa6
 62
     3
 48
0.035
100
AcDbLine
 10
5.099999999999999
 20
-1740.565186
 30
0.0
 11
6.5
 21
-1740.565186
 31
0.0
  0
LINE
  5
215
330
4D
100
AcDbEntity
  8
Hawa6
 62
     3
 48
0.0125
100
AcDbLine
 10
6.5
 20
-1740.565186
 30
0.0
 11
7.000000999999999
 21
-1740.565186
 31
0.0
  0
LINE
  5
216
330
4D
100
AcDbEntity
  8
Hawa6
 62
     3
 48
0.012501
100
AcDbLine
 10
12.999979
 20
-1740.565186
 30
0.0
 11
13.5
 21
-1740.565186
 31
0.0
  0
LINE
  5
217
330
4D
100
AcDbEntity
  8
Hawa6
 62
     3
 48
0.035
100
AcDbLine
 10
13.5
 20
-1740.565186
 30
0.0
 11
14.9
 21
-1740.565186
 31
0.0
  0
LINE
  5
218
330
4D
100
AcDbEntity
  8
Hawa6
 62
     3
 48
0.105
100
AcDbLine
 10
16.7
 20
-1736.565186
 30
0.0
 11
16.7
 21
-1732.365186
 31
0.0
  0
LINE
  5
219
330
4D
100
AcDbEntity
  8
Hawa6
 62
     3
 48
0.1
100
AcDbLine
 10
14.9
 20
-1740.565186
 30
0.0
 11
14.9
 21
-1736.565186
 31
0.0
  0
ARC
  5
21A
330
4D
100
AcDbEntity
  8
Hawa6
 62
     3
100
AcDbCircle
 10
19.0
 20
-1738.065186
 30
0.0
 40
1.0
100
AcDbArc
 50
300.0
 51
360.0
  0
LINE
  5
21B
330
4D
100
AcDbEntity
  8
Hawa6
 62
     3
 48
0.05
100
AcDbLine
 10
13.5
 20
-1740.565186
 30
0.0
 11
13.5
 21
-1738.565186
 31
0.0
  0
LINE
  5
21C
330
4D
100
AcDbEntity
  8
Hawa6
 62
     3
 48
0.05
100
AcDbLine
 10
6.5
 20
-1740.565186
 30
0.0
 11
6.5
 21
-1738.565186
 31
0.0
  0
LINE
  5
21D
330
4D
100
AcDbEntity
  8
Hawa6
 62
     3
 48
0.045
100
AcDbLine
 10
14.9
 20
-1736.565186
 30
0.0
 11
16.7
 21
-1736.565186
 31
0.0
  0
LINE
  5
21E
330
4D
100
AcDbEntity
  8
Hawa6
 62
     3
 48
0.0125
100
AcDbLine
 10
6.5
 20
-1738.565186
 30
0.0
 11
7.0
 21
-1738.565186
 31
0.0
  0
LINE
  5
21F
330
4D
100
AcDbEntity
  8
Hawa6
 62
     3
 48
0.0125
100
AcDbLine
 10
13.0
 20
-1738.565186
 30
0.0
 11
13.5
 21
-1738.565186
 31
0.0
  0
LINE
  5
220
330
4D
100
AcDbEntity
  8
Hawa6
 62
     3
 48
0.155
100
AcDbLine
 10
13.0
 20
-1738.565186
 30
0.0
 11
13.0
 21
-1732.365186
 31
0.0
  0
LINE
  5
221
330
4D
100
AcDbEntity
  8
Hawa6
 62
     3
 48
0.155
100
AcDbLine
 10
7.0
 20
-1738.565186
 30
0.0
 11
7.0
 21
-1732.365186
 31
0.0
  0
LINE
  5
222
330
4D
100
AcDbEntity
  8
Hawa6
 62
     3
 48
0.0875
100
AcDbLine
 10
4.5
 20
-1741.865186
 30
0.0
 11
4.5
 21
-1745.365186
 31
0.0
  0
LINE
  5
223
330
4D
100
AcDbEntity
  8
Hawa6
 62
     3
 48
0.1375
100
AcDbLine
 10
4.5
 20
-1741.865186
 30
0.0
 11
10.0
 21
-1741.865186
 31
0.0
  0
LINE
  5
224
330
4D
100
AcDbEntity
  8
Hawa6
 62
     3
 48
0.0875
100
AcDbLine
 10
10.0
 20
-1741.865186
 30
0.0
 11
10.0
 21
-1745.365186
 31
0.0
  0
LINE
  5
225
330
4D
100
AcDbEntity
  8
Hawa6
 62
     3
 48
0.1375
100
AcDbLine
 10
4.5
 20
-1745.365186
 30
0.0
 11
10.0
 21
-1745.365186
 31
0.0
  0
LINE
  5
226
330
4D
100
AcDbEntity
  8
Hawa6
 62
     3
 48
0.1375
100
AcDbLine
 10
10.0
 20
-1745.365186
 30
0.0
 11
15.5
 21
-1745.365186
 31
0.0
  0
LINE
  5
227
330
4D
100
AcDbEntity
  8
Hawa6
 62
     3
 48
0.0875
100
AcDbLine
 10
15.5
 20
-1741.865186
 30
0.0
 11
15.5
 21
-1745.365186
 31
0.0
  0
LINE
  5
228
330
4D
100
AcDbEntity
  8
Hawa6
 62
     3
 48
0.1375
100
AcDbLine
 10
10.0
 20
-1741.865186
 30
0.0
 11
15.5
 21
-1741.865186
 31
0.0
  0
LINE
  5
229
330
4D
100
AcDbEntity
  8
Hawa6
 62
     3
 48
0.110957
100
AcDbLine
 10
11.438277
 20
-1732.865186
 30
0.0
 11
7.0
 21
-1732.865186
 31
0.0
  0
LINE
  5
22A
330
4D
100
AcDbEntity
  8
Hawa6
 62
     3
 48
0.092464
100
AcDbLine
 10
11.198564
 20
-1732.365186
 30
0.0
 11
7.5
 21
-1732.365186
 31
0.0
  0
LINE
  5
22B
330
4D
100
AcDbEntity
  8
Hawa6
 62
     3
 48
0.039043
100
AcDbLine
 10
13.0
 20
-1732.865186
 30
0.0
 11
11.438277
 21
-1732.865186
 31
0.0
  0
LINE
  5
22C
330
4D
100
AcDbEntity
  8
Hawa6
 62
     3
 48
0.032536
100
AcDbLine
 10
12.5
 20
-1732.365186
 30
0.0
 11
11.198564
 21
-1732.365186
 31
0.0
  0
LINE
  5
22D
330
4D
100
AcDbEntity
  8
Hawa6
 62
     3
 48
0.110957
100
AcDbLine
 10
11.438277
 20
-1741.465186
 30
0.0
 11
7.0
 21
-1741.465186
 31
0.0
  0
LINE
  5
22E
330
4D
100
AcDbEntity
  8
Hawa6
 62
     3
 48
0.039043
100
AcDbLine
 10
13.0
 20
-1741.465186
 30
0.0
 11
11.438277
 21
-1741.465186
 31
0.0
  0
LINE
  5
22F
330
4D
100
AcDbEntity
  8
Hawa6
 62
     3
 48
0.00625
100
AcDbLine
 10
13.025
 20
-1745.615189
 30
0.0
 11
13.025
 21
-1745.365186
 31
0.0
  0
LINE
  5
230
330
4D
100
AcDbEntity
  8
Hawa6
 62
     3
 48
0.00625
100
AcDbLine
 10
6.974999999999999
 20
-1745.615189
 30
0.0
 11
6.974999999999999
 21
-1745.365186
 31
0.0
  0
LINE
  5
231
330
4D
100
AcDbEntity
  8
Hawa6
 62
     3
 48
0.017678
100
AcDbLine
 10
7.5
 20
-1732.365186
 30
0.0
 11
7.0
 21
-1732.865186
 31
0.0
  0
LINE
  5
232
330
4D
100
AcDbEntity
  8
Hawa6
 62
     3
 48
0.017678
100
AcDbLine
 10
12.5
 20
-1732.365186
 30
0.0
 11
13.0
 21
-1732.865186
 31
0.0
  0
LINE
  5
233
330
4D
100
AcDbEntity
  8
Hawa6
 62
     3
 48
0.215
100
AcDbLine
 10
7.0
 20
-1741.465186
 30
0.0
 11
7.0
 21
-1732.865186
 31
0.0
  0
LINE
  5
234
330
4D
100
AcDbEntity
  8
Hawa6
 62
     3
 48
0.215
100
AcDbLine
 10
13.0
 20
-1741.465186
 30
0.0
 11
13.0
 21
-1732.865186
 31
0.0
  0
ARC
  5
235
330
4D
100
AcDbEntity
  8
Hawa6
 62
     3
100
AcDbCircle
 10
13.4
 20
-1741.465186
 30
0.0
 40
0.4
100
AcDbArc
 50
180.0
 51
270.0
  0
ARC
  5
236
330
4D
100
AcDbEntity
  8
Hawa6
 62
     3
100
AcDbCircle
 10
6.599999999999999
 20
-1741.465186
 30
0.0
 40
0.4
100
AcDbArc
 50
270.0
 51
360.0
  0
LINE
  5
237
330
4D
100
AcDbEntity
  8
Hawa6
 62
     3
 48
0.126737
100
AcDbLine
 10
12.7
 20
-1739.865186
 30
0.0
 11
7.630527
 21
-1739.865186
 31
0.0
  0
LINE
  5
238
330
4D
100
AcDbEntity
  8
Hawa6
 62
     3
 48
0.009181
100
AcDbLine
 10
7.367252
 20
-1739.865186
 30
0.0
 11
7.0
 21
-1739.865186
 31
0.0
  0
LINE
  5
239
330
4D
100
AcDbEntity
  8
Hawa6
 62
     3
 48
0.140819
100
AcDbLine
 10
13.0
 20
-1739.865186
 30
0.0
 11
7.367252
 21
-1739.865186
 31
0.0
  0
LINE
  5
23A
330
4D
100
AcDbEntity
  8
Hawa6
 62
     3
 48
0.175
100
AcDbLine
 10
7.299999999999999
 20
-1732.865186
 30
0.0
 11
7.299999999999999
 21
-1739.865186
 31
0.0
  0
LINE
  5
23B
330
4D
100
AcDbEntity
  8
Hawa6
 62
     3
 48
0.175
100
AcDbLine
 10
12.7
 20
-1732.865186
 30
0.0
 11
12.7
 21
-1739.865186
 31
0.0
  0
LINE
  5
23C
330
4D
100
AcDbEntity
  8
Hawa6
 62
     3
 48
0.015
100
AcDbLine
 10
12.7
 20
-1739.865186
 30
0.0
 11
13.0
 21
-1740.384801
 31
0.0
  0
LINE
  5
23D
330
4D
100
AcDbEntity
  8
Hawa6
 62
     3
 48
0.015
100
AcDbLine
 10
7.299999999999999
 20
-1739.865186
 30
0.0
 11
7.0
 21
-1740.384801
 31
0.0
  0
LINE
  5
23E
330
4D
100
AcDbEntity
  8
Hawa6
 62
     3
 48
0.002403
100
AcDbLine
 10
14.953888
 20
-1745.615186
 30
0.0
 11
15.05
 21
-1745.615186
 31
0.0
  0
LINE
  5
23F
330
4D
100
AcDbEntity
  8
Hawa6
 62
     3
 48
0.017662
100
AcDbLine
 10
14.24742
 20
-1745.615186
 30
0.0
 11
14.953888
 21
-1745.615186
 31
0.0
  0
LINE
  5
240
330
4D
100
AcDbEntity
  8
Hawa6
 62
     3
 48
0.060898
100
AcDbLine
 10
11.811495
 20
-1745.615186
 30
0.0
 11
14.24742
 21
-1745.615186
 31
0.0
  0
LINE
  5
241
330
4D
100
AcDbEntity
  8
Hawa6
 62
     3
 48
0.045287
100
AcDbLine
 10
10.0
 20
-1745.615186
 30
0.0
 11
11.811495
 21
-1745.615186
 31
0.0
  0
LINE
  5
242
330
4D
100
AcDbEntity
  8
Hawa6
 62
     3
 48
0.045287
100
AcDbLine
 10
10.0
 20
-1745.615186
 30
0.0
 11
8.188505000000001
 21
-1745.615186
 31
0.0
  0
LINE
  5
243
330
4D
100
AcDbEntity
  8
Hawa6
 62
     3
 48
0.060898
100
AcDbLine
 10
5.75258
 20
-1745.615186
 30
0.0
 11
8.188505000000001
 21
-1745.615186
 31
0.0
  0
LINE
  5
244
330
4D
100
AcDbEntity
  8
Hawa6
 62
     3
 48
0.017662
100
AcDbLine
 10
5.75258
 20
-1745.615186
 30
0.0
 11
5.046111999999999
 21
-1745.615186
 31
0.0
  0
LINE
  5
245
330
4D
100
AcDbEntity
  8
Hawa6
 62
     3
 48
0.002403
100
AcDbLine
 10
4.95
 20
-1745.615186
 30
0.0
 11
5.046111999999999
 21
-1745.615186
 31
0.0
  0
LINE
  5
246
330
4D
100
AcDbEntity
  8
Hawa6
 62
     3
 48
0.002218
100
AcDbLine
 10
14.672611
 20
-1759.115186
 30
0.0
 11
14.761325
 21
-1759.115186
 31
0.0
  0
LINE
  5
247
330
4D
100
AcDbEntity
  8
Hawa6
 62
     3
 48
0.017662
100
AcDbLine
 10
14.672611
 20
-1759.115186
 30
0.0
 11
13.966144
 21
-1759.115186
 31
0.0
  0
LINE
  5
248
330
4D
100
AcDbEntity
  8
Hawa6
 62
     3
 48
0.053866
100
AcDbLine
 10
11.811495
 20
-1759.115186
 30
0.0
 11
13.966144
 21
-1759.115186
 31
0.0
  0
LINE
  5
249
330
4D
100
AcDbEntity
  8
Hawa6
 62
     3
 48
0.045287
100
AcDbLine
 10
11.811495
 20
-1759.115186
 30
0.0
 11
10.0
 21
-1759.115186
 31
0.0
  0
LINE
  5
24A
330
4D
100
AcDbEntity
  8
Hawa6
 62
     3
 48
0.045287
100
AcDbLine
 10
10.0
 20
-1759.115186
 30
0.0
 11
8.188505000000001
 21
-1759.115186
 31
0.0
  0
LINE
  5
24B
330
4D
100
AcDbEntity
  8
Hawa6
 62
     3
 48
0.053866
100
AcDbLine
 10
6.033856
 20
-1759.115186
 30
0.0
 11
8.188505000000001
 21
-1759.115186
 31
0.0
  0
LINE
  5
24C
330
4D
100
AcDbEntity
  8
Hawa6
 62
     3
 48
0.017662
100
AcDbLine
 10
5.327389
 20
-1759.115186
 30
0.0
 11
6.033856
 21
-1759.115186
 31
0.0
  0
LINE
  5
24D
330
4D
100
AcDbEntity
  8
Hawa6
 62
     3
 48
0.002218
100
AcDbLine
 10
5.238674999999999
 20
-1759.115186
 30
0.0
 11
5.327389
 21
-1759.115186
 31
0.0
  0
LINE
  5
24E
330
4D
100
AcDbEntity
  8
Hawa6
 62
     3
 48
0.325
100
AcDbLine
 10
14.953888
 20
-1745.615186
 30
0.0
 11
14.953888
 21
-1758.615186
 31
0.0
  0
LINE
  5
24F
330
4D
100
AcDbEntity
  8
Hawa6
 62
     3
 48
0.002403
100
AcDbLine
 10
14.953888
 20
-1758.615186
 30
0.0
 11
15.05
 21
-1758.615186
 31
0.0
  0
LINE
  5
250
330
4D
100
AcDbEntity
  8
Hawa6
 62
     3
 48
0.017662
100
AcDbLine
 10
14.953888
 20
-1758.615186
 30
0.0
 11
14.24742
 21
-1758.615186
 31
0.0
  0
LINE
  5
251
330
4D
100
AcDbEntity
  8
Hawa6
 62
     3
 48
0.325
100
AcDbLine
 10
14.24742
 20
-1745.615186
 30
0.0
 11
14.24742
 21
-1758.615186
 31
0.0
  0
LINE
  5
252
330
4D
100
AcDbEntity
  8
Hawa6
 62
     3
 48
0.325
100
AcDbLine
 10
11.811495
 20
-1745.615186
 30
0.0
 11
11.811495
 21
-1758.615186
 31
0.0
  0
LINE
  5
253
330
4D
100
AcDbEntity
  8
Hawa6
 62
     3
 48
0.060898
100
AcDbLine
 10
11.811495
 20
-1758.615186
 30
0.0
 11
14.24742
 21
-1758.615186
 31
0.0
  0
LINE
  5
254
330
4D
100
AcDbEntity
  8
Hawa6
 62
     3
 48
0.045287
100
AcDbLine
 10
11.811495
 20
-1758.615186
 30
0.0
 11
10.0
 21
-1758.615186
 31
0.0
  0
LINE
  5
255
330
4D
100
AcDbEntity
  8
Hawa6
 62
     3
 48
0.045287
100
AcDbLine
 10
10.0
 20
-1758.615186
 30
0.0
 11
8.188505000000001
 21
-1758.615186
 31
0.0
  0
LINE
  5
256
330
4D
100
AcDbEntity
  8
Hawa6
 62
     3
 48
0.325
100
AcDbLine
 10
8.188505000000001
 20
-1745.615186
 30
0.0
 11
8.188505000000001
 21
-1758.615186
 31
0.0
  0
LINE
  5
257
330
4D
100
AcDbEntity
  8
Hawa6
 62
     3
 48
0.325
100
AcDbLine
 10
5.75258
 20
-1745.615186
 30
0.0
 11
5.75258
 21
-1758.615186
 31
0.0
  0
LINE
  5
258
330
4D
100
AcDbEntity
  8
Hawa6
 62
     3
 48
0.060898
100
AcDbLine
 10
5.75258
 20
-1758.615186
 30
0.0
 11
8.188505000000001
 21
-1758.615186
 31
0.0
  0
LINE
  5
259
330
4D
100
AcDbEntity
  8
Hawa6
 62
     3
 48
0.325
100
AcDbLine
 10
5.046111999999999
 20
-1745.615186
 30
0.0
 11
5.046111999999999
 21
-1758.615186
 31
0.0
  0
LINE
  5
25A
330
4D
100
AcDbEntity
  8
Hawa6
 62
     3
 48
0.017662
100
AcDbLine
 10
5.046111999999999
 20
-1758.615186
 30
0.0
 11
5.75258
 21
-1758.615186
 31
0.0
  0
LINE
  5
25B
330
4D
100
AcDbEntity
  8
Hawa6
 62
     3
 48
0.002403
100
AcDbLine
 10
4.95
 20
-1758.615186
 30
0.0
 11
5.046111999999999
 21
-1758.615186
 31
0.0
  0
LINE
  5
25C
330
4D
100
AcDbEntity
  8
Hawa6
 62
     3
 48
0.014342
100
AcDbLine
 10
14.953888
 20
-1758.615186
 30
0.0
 11
14.672611
 21
-1759.115186
 31
0.0
  0
LINE
  5
25D
330
4D
100
AcDbEntity
  8
Hawa6
 62
     3
 48
0.014342
100
AcDbLine
 10
14.24742
 20
-1758.615186
 30
0.0
 11
13.966144
 21
-1759.115186
 31
0.0
  0
LINE
  5
25E
330
4D
100
AcDbEntity
  8
Hawa6
 62
     3
 48
0.0125
100
AcDbLine
 10
11.811495
 20
-1758.615186
 30
0.0
 11
11.811495
 21
-1759.115186
 31
0.0
  0
LINE
  5
25F
330
4D
100
AcDbEntity
  8
Hawa6
 62
     3
 48
0.0125
100
AcDbLine
 10
8.188505000000001
 20
-1758.615186
 30
0.0
 11
8.188505000000001
 21
-1759.115186
 31
0.0
  0
LINE
  5
260
330
4D
100
AcDbEntity
  8
Hawa6
 62
     3
 48
0.014342
100
AcDbLine
 10
5.75258
 20
-1758.615186
 30
0.0
 11
6.033856
 21
-1759.115186
 31
0.0
  0
LINE
  5
261
330
4D
100
AcDbEntity
  8
Hawa6
 62
     3
 48
0.014342
100
AcDbLine
 10
5.046111999999999
 20
-1758.615186
 30
0.0
 11
5.327389
 21
-1759.115186
 31
0.0
  0
LINE
  5
262
330
4D
100
AcDbEntity
  8
Hawa6
 62
     3
 48
0.094591
100
AcDbLine
 10
15.05
 20
-1745.615186
 30
0.0
 11
15.05
 21
-1749.398816
 31
0.0
  0
LINE
  5
263
330
4D
100
AcDbEntity
  8
Hawa6
 62
     3
 48
0.325
100
AcDbLine
 10
15.05
 20
-1745.615186
 30
0.0
 11
15.05
 21
-1758.615186
 31
0.0
  0
LINE
  5
264
330
4D
100
AcDbEntity
  8
Hawa6
 62
     3
 48
0.325
100
AcDbLine
 10
4.95
 20
-1745.615186
 30
0.0
 11
4.95
 21
-1758.615186
 31
0.0
  0
LINE
  5
265
330
4D
100
AcDbEntity
  8
Hawa6
 62
     3
 48
0.010365
100
AcDbLine
 10
14.761325
 20
-1759.115186
 30
0.0
 11
14.968617
 21
-1758.756146
 31
0.0
  0
LINE
  5
266
330
4D
100
AcDbEntity
  8
Hawa6
 62
     3
 48
0.014434
100
AcDbLine
 10
14.761325
 20
-1759.115186
 30
0.0
 11
15.05
 21
-1758.615186
 31
0.0
  0
LINE
  5
267
330
4D
100
AcDbEntity
  8
Hawa6
 62
     3
 48
0.014434
100
AcDbLine
 10
5.238674999999999
 20
-1759.115186
 30
0.0
 11
4.95
 21
-1758.615186
 31
0.0
  0
LINE
  5
268
330
4D
100
AcDbEntity
  8
Hawa5
 62
     1
 48
0.3
100
AcDbLine
 10
16.0
 20
-1728.965186
 30
0.0
 11
4.0
 21
-1728.965186
 31
0.0
  0
LINE
  5
269
330
4D
100
AcDbEntity
  8
Hawa5
 62
     1
 48
0.025
100
AcDbLine
 10
4.0
 20
-1727.965186
 30
0.0
 11
4.0
 21
-1728.965186
 31
0.0
  0
LINE
  5
26A
330
4D
100
AcDbEntity
  8
Hawa5
 62
     1
 48
0.3
100
AcDbLine
 10
16.0
 20
-1727.965186
 30
0.0
 11
4.0
 21
-1727.965186
 31
0.0
  0
LINE
  5
26B
330
4D
100
AcDbEntity
  8
Hawa5
 62
     1
 48
0.025
100
AcDbLine
 10
16.0
 20
-1727.965186
 30
0.0
 11
16.0
 21
-1728.965186
 31
0.0
  0
LINE
  5
26C
330
4D
100
AcDbEntity
  8
Hawa5
 62
     1
 48
0.2
100
AcDbLine
 10
5.0
 20
-1719.965186
 30
0.0
 11
5.0
 21
-1727.965186
 31
0.0
  0
LINE
  5
26D
330
4D
100
AcDbEntity
  8
Hawa5
 62
     1
 48
0.075
100
AcDbLine
 10
2.0
 20
-1727.965186
 30
0.0
 11
5.0
 21
-1727.965186
 31
0.0
  0
LINE
  5
26E
330
4D
100
AcDbEntity
  8
Hawa5
 62
     1
 48
0.2
100
AcDbLine
 10
2.0
 20
-1719.965186
 30
0.0
 11
2.0
 21
-1727.965186
 31
0.0
  0
LINE
  5
26F
330
4D
100
AcDbEntity
  8
Hawa5
 62
     1
 48
0.075
100
AcDbLine
 10
2.0
 20
-1719.965186
 30
0.0
 11
5.0
 21
-1719.965186
 31
0.0
  0
LINE
  5
270
330
4D
100
AcDbEntity
  8
Hawa5
 62
     1
 48
0.2
100
AcDbLine
 10
18.0
 20
-1719.965186
 30
0.0
 11
18.0
 21
-1727.965186
 31
0.0
  0
LINE
  5
271
330
4D
100
AcDbEntity
  8
Hawa5
 62
     1
 48
0.075
100
AcDbLine
 10
15.0
 20
-1727.965186
 30
0.0
 11
18.0
 21
-1727.965186
 31
0.0
  0
LINE
  5
272
330
4D
100
AcDbEntity
  8
Hawa5
 62
     1
 48
0.2
100
AcDbLine
 10
15.0
 20
-1719.965186
 30
0.0
 11
15.0
 21
-1727.965186
 31
0.0
  0
LINE
  5
273
330
4D
100
AcDbEntity
  8
Hawa5
 62
     1
 48
0.075
100
AcDbLine
 10
15.0
 20
-1719.965186
 30
0.0
 11
18.0
 21
-1719.965186
 31
0.0
  0
LINE
  5
274
330
4D
100
AcDbEntity
  8
Hawa5
 62
     1
 48
0.0625
100
AcDbLine
 10
12.5
 20
-1765.565186
 30
0.0
 11
12.5
 21
-1768.065186
 31
0.0
  0
LINE
  5
275
330
4D
100
AcDbEntity
  8
Hawa5
 62
     1
 48
0.0125
100
AcDbLine
 10
12.5
 20
-1765.565186
 30
0.0
 11
13.0
 21
-1765.565186
 31
0.0
  0
LINE
  5
276
330
4D
100
AcDbEntity
  8
Hawa5
 62
     1
 48
0.0625
100
AcDbLine
 10
13.0
 20
-1765.565186
 30
0.0
 11
13.0
 21
-1768.065186
 31
0.0
  0
LINE
  5
277
330
4D
100
AcDbEntity
  8
Hawa5
 62
     1
 48
0.0625
100
AcDbLine
 10
7.0
 20
-1765.565186
 30
0.0
 11
7.0
 21
-1768.065186
 31
0.0
  0
LINE
  5
278
330
4D
100
AcDbEntity
  8
Hawa5
 62
     1
 48
0.0125
100
AcDbLine
 10
7.0
 20
-1765.565186
 30
0.0
 11
7.5
 21
-1765.565186
 31
0.0
  0
LINE
  5
279
330
4D
100
AcDbEntity
  8
Hawa5
 62
     1
 48
0.0625
100
AcDbLine
 10
7.5
 20
-1765.565186
 30
0.0
 11
7.5
 21
-1768.065186
 31
0.0
  0
LINE
  5
27A
330
4D
100
AcDbEntity
  8
Hawa5
 62
     1
 48
0.144244
100
AcDbLine
 10
8.130239999999998
 20
-1763.035185999999
 30
0.0
 11
13.9
 21
-1763.035185999999
 31
0.0
  0
LINE
  5
27B
330
4D
100
AcDbEntity
  8
Hawa5
 62
     1
 48
0.050756
100
AcDbLine
 10
6.099999999999999
 20
-1763.035185999999
 30
0.0
 11
8.130239999999998
 21
-1763.035185999999
 31
0.0
  0
LINE
  5
27C
330
4D
100
AcDbEntity
  8
Hawa5
 62
     1
 48
0.144244
100
AcDbLine
 10
8.130239999999998
 20
-1763.315186
 30
0.0
 11
13.9
 21
-1763.315186
 31
0.0
  0
LINE
  5
27D
330
4D
100
AcDbEntity
  8
Hawa5
 62
     1
 48
0.050756
100
AcDbLine
 10
6.099999999999999
 20
-1763.315186
 30
0.0
 11
8.130239999999998
 21
-1763.315186
 31
0.0
  0
LINE
  5
27E
330
4D
100
AcDbEntity
  8
Hawa5
 62
     1
 48
0.057065
100
AcDbLine
 10
9.260297999999998
 20
-1765.672293
 30
0.0
 11
11.542893
 21
-1765.672293
 31
0.0
  0
LINE
  5
27F
330
4D
100
AcDbEntity
  8
Hawa5
 62
     1
 48
0.02008
100
AcDbLine
 10
9.260297999999998
 20
-1765.672293
 30
0.0
 11
8.457107
 21
-1765.672293
 31
0.0
  0
LINE
  5
280
330
4D
100
AcDbEntity
  8
Hawa5
 62
     1
 48
0.038576
100
AcDbLine
 10
9.400717999999999
 20
-1766.3794
 30
0.0
 11
10.94375
 21
-1766.3794
 31
0.0
  0
SPLINE
  5
281
330
4D
100
AcDbEntity
  8
Hawa5
 62
     1
100
AcDbSpline
210
0.0
220
0.0
230
1.0
 70
     8
 71
     3
 72
    20
 73
    16
 74
     0
 42
0.0000000001
 43
0.0000000001
 40
0.0
 40
0.0
 40
0.0
 40
0.0
 40
0.0464469110967212
 40
0.0902591170755077
 40
0.131357525076235
 40
0.1696747330548553
 40
0.205157721320792
 40
0.2377716361199994
 40
0.2675052863163302
 40
0.2943793708113204
 40
0.3184590894251519
 40
0.339873690827061
 40
0.3588463338027143
 40
0.375736314627483
 40
0.391086343972817
 40
0.391086343972817
 40
0.391086343972817
 40
0.391086343972817
 10
10.94374975115893
 20
-1766.379399629629
 30
0.0
 10
10.95836566670762
 20
-1766.374291732728
 30
0.0
 10
10.98668908267786
 20
-1766.364140672893
 30
0.0
 10
11.02762086851974
 20
-1766.348581925763
 30
0.0
 10
11.06568175541658
 20
-1766.333124407744
 30
0.0
 10
11.10077323031874
 20
-1766.31776671753
 30
0.0
 10
11.13280280196482
 20
-1766.302507608686
 30
0.0
 10
11.16168500913331
 20
-1766.287345526408
 30
0.0
 10
11.18734214316907
 20
-1766.272278080741
 30
0.0
 10
11.20970525473494
 20
-1766.257300622246
 30
0.0
 10
11.2287145985553
 20
-1766.242404273278
 30
0.0
 10
11.24431954143764
 20
-1766.227569578532
 30
0.0
 10
11.25647012100726
 20
-1766.212764657569
 30
0.0
 10
11.26510482367089
 20
-1766.19792447177
 30
0.0
 10
11.26854069218376
 20
-1766.187660353605
 30
0.0
 10
11.26955144209391
 20
-1766.182624058729
 30
0.0
  0
LINE
  5
282
330
4D
100
AcDbEntity
  8
Hawa5
 62
     1
 48
0.016268
100
AcDbLine
 10
9.400717999999999
 20
-1766.3794
 30
0.0
 11
8.75
 21
-1766.3794
 31
0.0
  0
SPLINE
  5
283
330
4D
100
AcDbEntity
  8
Hawa5
 62
     1
100
AcDbSpline
210
0.0
220
0.0
230
1.0
 70
     8
 71
     3
 72
    26
 73
    22
 74
     0
 42
0.0000000001
 43
0.0000000001
 40
0.0
 40
0.0
 40
0.0
 40
0.0
 40
0.0666221310035475
 40
0.1378297642642353
 40
0.2132985886331543
 40
0.2926715745746822
 40
0.3755630919193573
 40
0.4615623488943222
 40
0.5502364291946419
 40
0.6411331122676192
 40
0.733716249729843
 40
0.8261764861232954
 40
0.9164059788533208
 40
1.003631402044429
 40
1.088168827452464
 40
1.171031325635044
 40
1.253503262167896
 40
1.336713113312948
 40
1.421230513458626
 40
1.506718167088555
 40
1.591680776596724
 40
1.591680776596724
 40
1.591680776596724
 40
1.591680776596724
 10
10.94374975115893
 20
-1766.379399629629
 30
0.0
 10
10.92278478055856
 20
-1766.386726362464
 30
0.0
 10
10.87920760864485
 20
-1766.401292153969
 30
0.0
 10
10.81130723535499
 20
-1766.422394812738
 30
0.0
 10
10.7389724946006
 20
-1766.443507215777
 30
0.0
 10
10.66259262560795
 20
-1766.464629271017
 30
0.0
 10
10.58257989151641
 20
-1766.485760550277
 30
0.0
 10
10.49936724413247
 20
-1766.506900610543
 30
0.0
 10
10.41340646621713
 20
-1766.528048727934
 30
0.0
 10
10.32518796290225
 20
-1766.549198616905
 30
0.0
 10
10.23564739905948
 20
-1766.570242640837
 30
0.0
 10
10.14625858521297
 20
-1766.590957790934
 30
0.0
 10
10.05857246752558
 20
-1766.611108678618
 30
0.0
 10
9.973446633925918
 20
-1766.630608866055
 30
0.0
 10
9.89072050008402
 20
-1766.649587095254
 30
0.0
 10
9.809562222606658
 20
-1766.668313224416
 30
0.0
 10
9.728876378015202
 20
-1766.687117945957
 30
0.0
 10
9.647715212274876
 20
-1766.706312053946
 30
0.0
 10
9.565663675086158
 20
-1766.726106135187
 30
0.0
 10
9.483164660918395
 20
-1766.746531539148
 30
0.0
 10
9.428120153698538
 20
-1766.760614118589
 30
0.0
 10
9.400718076744137
 20
-1766.767770072826
 30
0.0
  0
SPLINE
  5
284
330
4D
100
AcDbEntity
  8
Hawa5
 62
     1
100
AcDbSpline
210
0.0
220
0.0
230
1.0
 70
     8
 71
     3
 72
    15
 73
    11
 74
     0
 42
0.0000000001
 43
0.0000000001
 40
0.0
 40
0.0
 40
0.0
 40
0.0
 40
0.0507700098665523
 40
0.106618777413803
 40
0.1671040613241165
 40
0.231681950685991
 40
0.2997810829767918
 40
0.3708890834224018
 40
0.4446458148645366
 40
0.520937913604943
 40
0.520937913604943
 40
0.520937913604943
 40
0.520937913604943
 10
8.906273199824882
 20
-1766.92973738761
 30
0.0
 10
8.92157163831175
 20
-1766.922495646242
 30
0.0
 10
8.954089659195142
 20
-1766.90812978379
 30
0.0
 10
9.005888063428676
 20
-1766.887615408754
 30
0.0
 10
9.062624314561029
 20
-1766.867158554718
 30
0.0
 10
9.123725959910261
 20
-1766.846835560667
 30
0.0
 10
9.188606068505343
 20
-1766.826702579318
 30
0.0
 10
9.2567443255445
 20
-1766.806781898491
 30
0.0
 10
9.327775321284207
 20
-1766.78704970718
 30
0.0
 10
9.376112325303914
 20
-1766.774195776672
 30
0.0
 10
9.400718076744137
 20
-1766.767770072826
 30
0.0
  0
SPLINE
  5
285
330
4D
100
AcDbEntity
  8
Hawa5
 62
     1
100
AcDbSpline
210
0.0
220
0.0
230
1.0
 70
     8
 71
     3
 72
    31
 73
    27
 74
     0
 42
0.0000000001
 43
0.0000000001
 40
0.0
 40
0.0
 40
0.0
 40
0.0
 40
0.0737927998456723
 40
0.1496953554567319
 40
0.2274200509566762
 40
0.3066697205726263
 40
0.387138927341353
 40
0.4685152357150661
 40
0.5504805068509395
 40
0.6327122411747097
 40
0.71488498954394
 40
0.796672743343939
 40
0.8779232479247898
 40
0.9587473631729281
 40
1.039052195663908
 40
1.118522022014292
 40
1.196674557733578
 40
1.272922406575553
 40
1.3466359396411
 40
1.4172034303364
 40
1.484084207327222
 40
1.546851017136688
 40
1.605218696268452
 40
1.65905749403615
 40
1.708390738401699
 40
1.75337779131722
 40
1.75337779131722
 40
1.75337779131722
 40
1.75337779131722
 10
9.400718076744137
 20
-1767.389091558134
 30
0.0
 10
9.424517725925856
 20
-1767.38287670078
 30
0.0
 10
9.472851729117156
 20
-1767.370478185816
 30
0.0
 10
9.546412525928325
 20
-1767.352160330746
 30
0.0
 10
9.621845036967133
 20
-1767.333837437181
 30
0.0
 10
9.698841863566633
 20
-1767.315509687524
 30
0.0
 10
9.777088232507074
 20
-1767.297177519029
 30
0.0
 10
9.856263088599504
 20
-1767.278841571939
 30
0.0
 10
9.936040171507618
 20
-1767.260502692418
 30
0.0
 10
10.01608918292277
 20
-1767.242161917085
 30
0.0
 10
10.09607732247197
 20
-1767.223820403272
 30
0.0
 10
10.17572701094614
 20
-1767.205466396208
 30
0.0
 10
10.25490202694085
 20
-1767.187054965451
 30
0.0
 10
10.33354088347623
 20
-1767.168521494353
 30
0.0
 10
10.41152708956669
 20
-1767.149808627614
 30
0.0
 10
10.48854946328478
 20
-1767.130899531151
 30
0.0
 10
10.5641344622674
 20
-1767.1118136934
 30
0.0
 10
10.63770534067223
 20
-1767.092597705427
 30
0.0
 10
10.70864261134091
 20
-1767.073316072417
 30
0.0
 10
10.77634166640999
 20
-1767.054042069227
 30
0.0
 10
10.84026336284462
 20
-1767.03484862605
 30
0.0
 10
10.89997370860148
 20
-1767.015799276325
 30
0.0
 10
10.95516968663263
 20
-1766.996939042577
 30
0.0
 10
11.00568882829133
 20
-1766.978285683799
 30
0.0
 10
11.05150265300394
 20
-1766.959819942904
 30
0.0
 10
11.08023066047596
 20
-1766.947027444598
 30
0.0
 10
11.09378589580882
 20
-1766.940610140366
 30
0.0
  0
SPLINE
  5
286
330
4D
100
AcDbEntity
  8
Hawa5
 62
     1
100
AcDbSpline
210
0.0
220
0.0
230
1.0
 70
     8
 71
     3
 72
    23
 73
    19
 74
     0
 42
0.0000000001
 43
0.0000000001
 40
0.0
 40
0.0
 40
0.0
 40
0.0
 40
0.0189036616274342
 40
0.0392521795479996
 40
0.0622316245386376
 40
0.0887865426173187
 40
0.1195903039923271
 40
0.1550776061785792
 40
0.1954750066890603
 40
0.2408161949856679
 40
0.2909567737552612
 40
0.3455977193180748
 40
0.4043217407324791
 40
0.4666431530331068
 40
0.5320694150679632
 40
0.6001709877859393
 40
0.6706555284111077
 40
0.74344248560151
 40
0.74344248560151
 40
0.74344248560151
 40
0.74344248560151
 10
8.750000000000506
 20
-1767.695847136464
 30
0.0
 10
8.749999963016335
 20
-1767.689505055625
 30
0.0
 10
8.751950226849606
 20
-1767.676420364892
 30
0.0
 10
8.760425782208137
 20
-1767.657250480105
 30
0.0
 10
8.77422804578653
 20
-1767.63832819682
 30
0.0
 10
8.79332458895311
 20
-1767.619432740674
 30
0.0
 10
8.817819786217032
 20
-1767.600427661944
 30
0.0
 10
8.847810931632189
 20
-1767.581247629557
 30
0.0
 10
8.883311497028604
 20
-1767.561893077192
 30
0.0
 10
8.924215775005659
 20
-1767.542402496789
 30
0.0
 10
8.970287057055641
 20
-1767.522838425353
 30
0.0
 10
9.021165757931452
 20
-1767.50327444552
 30
0.0
 10
9.076395983749591
 20
-1767.483784474497
 30
0.0
 10
9.135468459550816
 20
-1767.464432461305
 30
0.0
 10
9.197876707422084
 20
-1767.445262410803
 30
0.0
 10
9.263182473270148
 20
-1767.426288490225
 30
0.0
 10
9.33108640169973
 20
-1767.407485069383
 30
0.0
 10
9.377242747201497
 20
-1767.395221725152
 30
0.0
 10
9.400718076744137
 20
-1767.389091558134
 30
0.0
  0
SPLINE
  5
287
330
4D
100
AcDbEntity
  8
Hawa5
 62
     1
100
AcDbSpline
210
0.0
220
0.0
230
1.0
 70
     8
 71
     3
 72
    13
 73
     9
 74
     0
 42
0.0000000001
 43
0.0000000001
 40
0.0
 40
0.0
 40
0.0
 40
0.0
 40
0.0685717175559856
 40
0.1171906467180355
 40
0.1512983489048762
 40
0.1854061926329848
 40
0.2340172479353933
 40
0.3025688945249017
 40
0.3025688945249017
 40
0.3025688945249017
 40
0.3025688945249017
 10
11.89015791046148
 20
-1766.389793825117
 30
0.0
 10
11.91112449946217
 20
-1766.398983132161
 30
0.0
 10
11.94607800779314
 20
-1766.416610330747
 30
0.0
 10
11.9870066053738
 20
-1766.446801678356
 30
0.0
 10
12.00535951905686
 20
-1766.485195533657
 30
0.0
 10
11.98699628222836
 20
-1766.523580095835
 30
0.0
 10
11.94607647648883
 20
-1766.553764804715
 30
0.0
 10
11.91113075160021
 20
-1766.571387372312
 30
0.0
 10
11.89017014935768
 20
-1766.580574108768
 30
0.0
  0
SPLINE
  5
288
330
4D
100
AcDbEntity
  8
Hawa5
 62
     1
100
AcDbSpline
210
0.0
220
0.0
230
1.0
 70
     8
 71
     3
 72
    22
 73
    18
 74
     0
 42
0.0000000001
 43
0.0000000001
 40
0.0
 40
0.0
 40
0.0
 40
0.0
 40
0.1412055263528016
 40
0.3279847834154483
 40
0.5563799600018012
 40
0.8208567350979965
 40
1.114723300499702
 40
1.430363948579803
 40
1.759414070851153
 40
2.09293228496659
 40
2.421815049679951
 40
2.737272839919995
 40
3.031030240716201
 40
3.295497803093981
 40
3.523965748873091
 40
3.710856287109878
 40
3.852161385572454
 40
3.852161385572454
 40
3.852161385572454
 40
3.852161385572454
 10
11.89017014935768
 20
-1766.580574108768
 30
0.0
 10
11.8470276502428
 20
-1766.5994828579
 30
0.0
 10
11.7430317098483
 20
-1766.634083764364
 30
0.0
 10
11.56324267397577
 20
-1766.67971598084
 30
0.0
 10
11.34134390920909
 20
-1766.725711783055
 30
0.0
 10
11.08320964445902
 20
-1766.772032311742
 30
0.0
 10
10.79560438196978
 20
-1766.818527660344
 30
0.0
 10
10.48624301232861
 20
-1766.865150791127
 30
0.0
 10
10.16353247901542
 20
-1766.911840394849
 30
0.0
 10
9.836366160910824
 20
-1766.95854696901
 30
0.0
 10
9.513771556326815
 20
-1767.005222566843
 30
0.0
 10
9.204561322556333
 20
-1767.051820906727
 30
0.0
 10
8.917054196027342
 20
-1767.098293973244
 30
0.0
 10
8.65893334328056
 20
-1767.144603030282
 30
0.0
 10
8.436975611147543
 20
-1767.19060161018
 30
0.0
 10
8.257093100564643
 20
-1767.236249723776
 30
0.0
 10
8.153028840198642
 20
-1767.270868835454
 30
0.0
 10
8.109855567044837
 20
-1767.289790141364
 30
0.0
  0
SPLINE
  5
289
330
4D
100
AcDbEntity
  8
Hawa5
 62
     1
100
AcDbSpline
210
0.0
220
0.0
230
1.0
 70
     8
 71
     3
 72
    13
 73
     9
 74
     0
 42
0.0000000001
 43
0.0000000001
 40
0.0
 40
0.0
 40
0.0
 40
0.0
 40
0.0685953726727845
 40
0.117221150654546
 40
0.1513262220248913
 40
0.1854319465571282
 40
0.2340349541978451
 40
0.3025700483078788
 40
0.3025700483078788
 40
0.3025700483078788
 40
0.3025700483078788
 10
8.109855567044837
 20
-1767.289790141364
 30
0.0
 10
8.088881805809744
 20
-1767.298982192914
 30
0.0
 10
8.053919470208706
 20
-1767.316613683902
 30
0.0
 10
8.012981481753088
 20
-1767.346811686258
 30
0.0
 10
7.994640891759928
 20
-1767.385212662526
 30
0.0
 10
8.013010308208764
 20
-1767.423587463225
 30
0.0
 10
8.053922537957221
 20
-1767.453765758757
 30
0.0
 10
8.088861263697106
 20
-1767.471384280451
 30
0.0
 10
8.109816867270037
 20
-1767.480568888579
 30
0.0
  0
LINE
  5
28A
330
4D
100
AcDbEntity
  8
Hawa5
 62
     1
 48
0.007
100
AcDbLine
 10
13.9
 20
-1763.035185999999
 30
0.0
 11
13.9
 21
-1763.315186
 31
0.0
  0
LINE
  5
28B
330
4D
100
AcDbEntity
  8
Hawa5
 62
     1
 48
0.007
100
AcDbLine
 10
6.099999999999999
 20
-1763.035185999999
 30
0.0
 11
6.099999999999999
 21
-1763.315186
 31
0.0
  0
LINE
  5
28C
330
4D
100
AcDbEntity
  8
Hawa5
 62
     1
 48
0.083336
100
AcDbLine
 10
11.542893
 20
-1765.672293
 30
0.0
 11
13.9
 21
-1763.315186
 31
0.0
  0
LINE
  5
28D
330
4D
100
AcDbEntity
  8
Hawa5
 62
     1
 48
0.083336
100
AcDbLine
 10
8.457107
 20
-1765.672293
 30
0.0
 11
6.099999999999999
 21
-1763.315186
 31
0.0
  0
ARC
  5
28E
330
4D
100
AcDbEntity
  8
Hawa5
 62
     1
100
AcDbCircle
 10
12.25
 20
-1766.3794
 30
0.0
 40
1.0
100
AcDbArc
 50
135.0
 51
168.651534
  0
ARC
  5
28F
330
4D
100
AcDbEntity
  8
Hawa5
 62
     1
100
AcDbCircle
 10
7.75
 20
-1766.3794
 30
0.0
 40
1.0
100
AcDbArc
 50
0.0
 51
45.0
  0
LINE
  5
290
330
4D
100
AcDbEntity
  8
Hawa5
 62
     1
 48
0.015525
100
AcDbLine
 10
8.75
 20
-1766.3794
 30
0.0
 11
8.75
 21
-1767.000384
 31
0.0
  0
LINE
  5
291
330
4D
100
AcDbEntity
  8
Hawa5
 62
     1
 48
0.027613
100
AcDbLine
 10
11.25
 20
-1766.870019
 30
0.0
 11
11.25
 21
-1767.974548
 31
0.0
  0
LINE
  5
292
330
4D
100
AcDbEntity
  8
Hawa5
 62
     1
 48
0.027613
100
AcDbLine
 10
8.75
 20
-1767.695847
 30
0.0
 11
8.75
 21
-1768.800386
 31
0.0
  0
ARC
  5
293
330
4D
100
AcDbEntity
  8
Hawa5
 62
     1
100
AcDbCircle
 10
-4.226929
 20
-1738.910464
 30
0.0
 40
30.944641
100
AcDbArc
 50
293.495075
 51
295.113426
  0
ARC
  5
294
330
4D
100
AcDbEntity
  8
Hawa5
 62
     1
100
AcDbCircle
 10
24.200887
 20
-1794.900671
 30
0.0
 40
30.879937
100
AcDbArc
 50
113.494534
 51
115.11993
  0
LINE
  5
295
330
4D
100
AcDbEntity
  8
Hawa5
 62
     1
 48
0.144244
100
AcDbLine
 10
36.13024
 20
-1761.335186
 30
0.0
 11
41.9
 21
-1761.335186
 31
0.0
  0
LINE
  5
296
330
4D
100
AcDbEntity
  8
Hawa5
 62
     1
 48
0.050756
100
AcDbLine
 10
34.1
 20
-1761.335186
 30
0.0
 11
36.13024
 21
-1761.335186
 31
0.0
  0
LINE
  5
297
330
4D
100
AcDbEntity
  8
Hawa5
 62
     1
 48
0.144244
100
AcDbLine
 10
36.13024
 20
-1761.615186
 30
0.0
 11
41.9
 21
-1761.615186
 31
0.0
  0
LINE
  5
298
330
4D
100
AcDbEntity
  8
Hawa5
 62
     1
 48
0.050756
100
AcDbLine
 10
34.1
 20
-1761.615186
 30
0.0
 11
36.13024
 21
-1761.615186
 31
0.0
  0
LINE
  5
299
330
4D
100
AcDbEntity
  8
Hawa5
 62
     1
 48
0.057065
100
AcDbLine
 10
37.260298
 20
-1763.972293
 30
0.0
 11
39.542893
 21
-1763.972293
 31
0.0
  0
LINE
  5
29A
330
4D
100
AcDbEntity
  8
Hawa5
 62
     1
 48
0.02008
100
AcDbLine
 10
37.260298
 20
-1763.972293
 30
0.0
 11
36.457107
 21
-1763.972293
 31
0.0
  0
LINE
  5
29B
330
4D
100
AcDbEntity
  8
Hawa5
 62
     1
 48
0.038576
100
AcDbLine
 10
37.400718
 20
-1764.6794
 30
0.0
 11
38.94375
 21
-1764.6794
 31
0.0
  0
SPLINE
  5
29C
330
4D
100
AcDbEntity
  8
Hawa5
 62
     1
100
AcDbSpline
210
0.0
220
0.0
230
1.0
 70
     8
 71
     3
 72
    20
 73
    16
 74
     0
 42
0.0000000001
 43
0.0000000001
 40
0.0
 40
0.0
 40
0.0
 40
0.0
 40
0.0464469110967195
 40
0.090259117075506
 40
0.1313575250762317
 40
0.169674733054852
 40
0.2051577213207935
 40
0.2377716361199962
 40
0.2675052863163315
 40
0.2943793708113203
 40
0.3184590894251532
 40
0.339873690827061
 40
0.3588463338027109
 40
0.3757363146274824
 40
0.3910863439728169
 40
0.3910863439728169
 40
0.3910863439728169
 40
0.3910863439728169
 10
38.94374975115905
 20
-1764.679399736525
 30
0.0
 10
38.95836566670772
 20
-1764.674291839624
 30
0.0
 10
38.98668908267796
 20
-1764.664140779789
 30
0.0
 10
39.02762086851985
 20
-1764.648582032659
 30
0.0
 10
39.06568175541668
 20
-1764.63312451464
 30
0.0
 10
39.10077323031885
 20
-1764.617766824426
 30
0.0
 10
39.13280280196492
 20
-1764.602507715582
 30
0.0
 10
39.16168500913341
 20
-1764.587345633304
 30
0.0
 10
39.18734214316918
 20
-1764.572278187637
 30
0.0
 10
39.20970525473505
 20
-1764.557300729142
 30
0.0
 10
39.22871459855541
 20
-1764.542404380174
 30
0.0
 10
39.24431954143775
 20
-1764.527569685428
 30
0.0
 10
39.25647012100736
 20
-1764.512764764465
 30
0.0
 10
39.26510482367099
 20
-1764.497924578666
 30
0.0
 10
39.26854069218388
 20
-1764.487660460501
 30
0.0
 10
39.26955144209403
 20
-1764.482624165625
 30
0.0
  0
LINE
  5
29D
330
4D
100
AcDbEntity
  8
Hawa5
 62
     1
 48
0.016268
100
AcDbLine
 10
37.400718
 20
-1764.6794
 30
0.0
 11
36.75
 21
-1764.6794
 31
0.0
  0
SPLINE
  5
29E
330
4D
100
AcDbEntity
  8
Hawa5
 62
     1
100
AcDbSpline
210
0.0
220
0.0
230
1.0
 70
     8
 71
     3
 72
    26
 73
    22
 74
     0
 42
0.0000000001
 43
0.0000000001
 40
0.0
 40
0.0
 40
0.0
 40
0.0
 40
0.0666221310035491
 40
0.1378297642642319
 40
0.2132985886331543
 40
0.2926715745746788
 40
0.3755630919193556
 40
0.4615623488943222
 40
0.5502364291946419
 40
0.6411331122676157
 40
0.7337162497298412
 40
0.8261764861232986
 40
0.916405978853324
 40
1.00363140204443
 40
1.088168827452463
 40
1.171031325635043
 40
1.253503262167897
 40
1.336713113312948
 40
1.421230513458629
 40
1.506718167088558
 40
1.591680776596726
 40
1.591680776596726
 40
1.591680776596726
 40
1.591680776596726
 10
38.94374975115905
 20
-1764.679399736525
 30
0.0
 10
38.92278478055866
 20
-1764.68672646936
 30
0.0
 10
38.87920760864496
 20
-1764.701292260865
 30
0.0
 10
38.81130723535509
 20
-1764.722394919634
 30
0.0
 10
38.73897249460071
 20
-1764.743507322673
 30
0.0
 10
38.66259262560805
 20
-1764.764629377913
 30
0.0
 10
38.58257989151653
 20
-1764.785760657173
 30
0.0
 10
38.49936724413257
 20
-1764.806900717439
 30
0.0
 10
38.41340646621723
 20
-1764.82804883483
 30
0.0
 10
38.32518796290235
 20
-1764.849198723801
 30
0.0
 10
38.2356473990596
 20
-1764.870242747733
 30
0.0
 10
38.14625858521307
 20
-1764.89095789783
 30
0.0
 10
38.05857246752569
 20
-1764.911108785514
 30
0.0
 10
37.97344663392602
 20
-1764.930608972951
 30
0.0
 10
37.89072050008412
 20
-1764.94958720215
 30
0.0
 10
37.80956222260676
 20
-1764.968313331312
 30
0.0
 10
37.72887637801531
 20
-1764.987118052853
 30
0.0
 10
37.64771521227498
 20
-1765.006312160842
 30
0.0
 10
37.56566367508626
 20
-1765.026106242083
 30
0.0
 10
37.4831646609185
 20
-1765.046531646045
 30
0.0
 10
37.42812015369864
 20
-1765.060614225486
 30
0.0
 10
37.40071807674424
 20
-1765.067770179722
 30
0.0
  0
SPLINE
  5
29F
330
4D
100
AcDbEntity
  8
Hawa5
 62
     1
100
AcDbSpline
210
0.0
220
0.0
230
1.0
 70
     8
 71
     3
 72
    15
 73
    11
 74
     0
 42
0.0000000001
 43
0.0000000001
 40
0.0
 40
0.0
 40
0.0
 40
0.0
 40
0.0507700098665523
 40
0.1066187774137997
 40
0.1671040613241166
 40
0.231681950685991
 40
0.2997810829767919
 40
0.3708890834224001
 40
0.44464581486454
 40
0.5209379136049414
 40
0.5209379136049414
 40
0.5209379136049414
 40
0.5209379136049414
 10
36.906273199825
 20
-1765.229737494506
 30
0.0
 10
36.92157163831185
 20
-1765.222495753138
 30
0.0
 10
36.95408965919526
 20
-1765.208129890686
 30
0.0
 10
37.00588806342878
 20
-1765.18761551565
 30
0.0
 10
37.06262431456114
 20
-1765.167158661614
 30
0.0
 10
37.12372595991037
 20
-1765.146835667563
 30
0.0
 10
37.18860606850546
 20
-1765.126702686214
 30
0.0
 10
37.2567443255446
 20
-1765.106782005387
 30
0.0
 10
37.32777532128431
 20
-1765.087049814076
 30
0.0
 10
37.37611232530402
 20
-1765.074195883568
 30
0.0
 10
37.40071807674424
 20
-1765.067770179722
 30
0.0
  0
SPLINE
  5
2A0
330
4D
100
AcDbEntity
  8
Hawa5
 62
     1
100
AcDbSpline
210
0.0
220
0.0
230
1.0
 70
     8
 71
     3
 72
    31
 73
    27
 74
     0
 42
0.0000000001
 43
0.0000000001
 40
0.0
 40
0.0
 40
0.0
 40
0.0
 40
0.0737927998456706
 40
0.1496953554567353
 40
0.2274200509566762
 40
0.3066697205726298
 40
0.3871389273413565
 40
0.4685152357150695
 40
0.5504805068509377
 40
0.6327122411747097
 40
0.7148849895439384
 40
0.7966727433439392
 40
0.8779232479247898
 40
0.9587473631729263
 40
1.039052195663908
 40
1.118522022014297
 40
1.196674557733579
 40
1.272922406575552
 40
1.346635939641098
 40
1.417203430336401
 40
1.484084207327223
 40
1.546851017136692
 40
1.605218696268451
 40
1.659057494036152
 40
1.708390738401703
 40
1.75337779131722
 40
1.75337779131722
 40
1.75337779131722
 40
1.75337779131722
 10
37.40071807674424
 20
-1765.68909166503
 30
0.0
 10
37.42451772592596
 20
-1765.682876807676
 30
0.0
 10
37.47285172911726
 20
-1765.670478292712
 30
0.0
 10
37.54641252592843
 20
-1765.652160437642
 30
0.0
 10
37.62184503696725
 20
-1765.633837544077
 30
0.0
 10
37.69884186356674
 20
-1765.61550979442
 30
0.0
 10
37.77708823250718
 20
-1765.597177625925
 30
0.0
 10
37.85626308859961
 20
-1765.578841678835
 30
0.0
 10
37.93604017150773
 20
-1765.560502799314
 30
0.0
 10
38.01608918292288
 20
-1765.542162023981
 30
0.0
 10
38.09607732247207
 20
-1765.523820510168
 30
0.0
 10
38.17572701094625
 20
-1765.505466503103
 30
0.0
 10
38.25490202694096
 20
-1765.487055072347
 30
0.0
 10
38.33354088347633
 20
-1765.468521601249
 30
0.0
 10
38.4115270895668
 20
-1765.44980873451
 30
0.0
 10
38.48854946328489
 20
-1765.430899638047
 30
0.0
 10
38.56413446226751
 20
-1765.411813800296
 30
0.0
 10
38.63770534067233
 20
-1765.392597812323
 30
0.0
 10
38.70864261134101
 20
-1765.373316179313
 30
0.0
 10
38.77634166641011
 20
-1765.354042176123
 30
0.0
 10
38.84026336284473
 20
-1765.334848732946
 30
0.0
 10
38.89997370860159
 20
-1765.315799383222
 30
0.0
 10
38.95516968663273
 20
-1765.296939149473
 30
0.0
 10
39.00568882829143
 20
-1765.278285790695
 30
0.0
 10
39.05150265300405
 20
-1765.2598200498
 30
0.0
 10
39.08023066047606
 20
-1765.247027551495
 30
0.0
 10
39.09378589580893
 20
-1765.240610247262
 30
0.0
  0
SPLINE
  5
2A1
330
4D
100
AcDbEntity
  8
Hawa5
 62
     1
100
AcDbSpline
210
0.0
220
0.0
230
1.0
 70
     8
 71
     3
 72
    43
 73
    39
 74
     0
 42
0.0000000001
 43
0.0000000001
 40
0.0
 40
0.0
 40
0.0
 40
0.0
 40
0.066286154844833
 40
0.1342987505786351
 40
0.203829520859942
 40
0.2746641872100478
 40
0.3465832147522793
 40
0.4193625438704592
 40
0.4927743124998094
 40
0.5665875820726348
 40
0.6405690788652909
 40
0.7144839614765059
 40
0.7880966066508397
 40
0.861151869927186
 40
0.93335256585882
 40
1.004426787847301
 40
1.074137285115728
 40
1.142276878622974
 40
1.208663268139639
 40
1.273133566554629
 40
1.335538888468887
 40
1.395739307204667
 40
1.453599481017918
 40
1.508985237893279
 40
1.561761400247159
 40
1.611791127052575
 40
1.658937052352548
 40
1.703064507844517
 40
1.74404713729016
 40
1.781777748145803
 40
1.816205847864134
 40
1.8473393937901
 40
1.875240710124914
 40
1.900047526136056
 40
1.922005542955155
 40
1.941514607626465
 40
1.959181217533281
 40
1.975843284078502
 40
1.975843284078502
 40
1.975843284078502
 40
1.975843284078502
 10
37.40071807674424
 20
-1766.867767418486
 30
0.0
 10
37.42209668487205
 20
-1766.862184851008
 30
0.0
 10
37.4654545081615
 20
-1766.851042810483
 30
0.0
 10
37.53136811059679
 20
-1766.834558626759
 30
0.0
 10
37.59884268217211
 20
-1766.81807164435
 30
0.0
 10
37.66765617654858
 20
-1766.801581712013
 30
0.0
 10
37.7375819127318
 20
-1766.785088757644
 30
0.0
 10
37.80838920635575
 20
-1766.768592774109
 30
0.0
 10
37.87984395320665
 20
-1766.752093841231
 30
0.0
 10
37.95170924796686
 20
-1766.73559213715
 30
0.0
 10
38.02374602430948
 20
-1766.71908795263
 30
0.0
 10
38.09571372243725
 20
-1766.702581703928
 30
0.0
 10
38.16736463371254
 20
-1766.686075418167
 30
0.0
 10
38.23843069521656
 20
-1766.669576030365
 30
0.0
 10
38.30863196356957
 20
-1766.653094013901
 30
0.0
 10
38.37769425043264
 20
-1766.636640047256
 30
0.0
 10
38.44537245446889
 20
-1766.620219807999
 30
0.0
 10
38.51145027000037
 20
-1766.603833958045
 30
0.0
 10
38.57573501832644
 20
-1766.587479106185
 30
0.0
 10
38.63805215843861
 20
-1766.571148773669
 30
0.0
 10
38.69823979478399
 20
-1766.55483436051
 30
0.0
 10
38.75614348416769
 20
-1766.538526112125
 30
0.0
 10
38.8116116253903
 20
-1766.522214084779
 30
0.0
 10
38.86449169620642
 20
-1766.505889107454
 30
0.0
 10
38.91462758292546
 20
-1766.489543736212
 30
0.0
 10
38.96185822685565
 20
-1766.473173193339
 30
0.0
 10
39.0060177893531
 20
-1766.456776280118
 30
0.0
 10
39.04693750122987
 20
-1766.440356232925
 30
0.0
 10
39.08445010139786
 20
-1766.423921165221
 30
0.0
 10
39.11840384507721
 20
-1766.40748030585
 30
0.0
 10
39.1486731903513
 20
-1766.391039633761
 30
0.0
 10
39.17516115457519
 20
-1766.374598047207
 30
0.0
 10
39.19779176374769
 20
-1766.358146512888
 30
0.0
 10
39.21650389495385
 20
-1766.341666595612
 30
0.0
 10
39.23124489835476
 20
-1766.32511942575
 30
0.0
 10
39.24195011466546
 20
-1766.308449461494
 30
0.0
 10
39.24850255638614
 20
-1766.291574944887
 30
0.0
 10
39.24999823424025
 20
-1766.28013017234
 30
0.0
 10
39.24999999672714
 20
-1766.274547634739
 30
0.0
  0
SPLINE
  5
2A2
330
4D
100
AcDbEntity
  8
Hawa5
 62
     1
100
AcDbSpline
210
0.0
220
0.0
230
1.0
 70
     8
 71
     3
 72
    17
 73
    13
 74
     0
 42
0.0000000001
 43
0.0000000001
 40
0.0
 40
0.0
 40
0.0
 40
0.0
 40
0.0386149475935303
 40
0.0801029816521287
 40
0.1245266011403193
 40
0.1719648227354053
 40
0.2224959252998421
 40
0.276174191123191
 40
0.3330017158506552
 40
0.3928964300386545
 40
0.4556577019004324
 40
0.520931220815768
 40
0.520931220815768
 40
0.520931220815768
 40
0.520931220815768
 10
36.90628449830644
 20
-1767.029730866418
 30
0.0
 10
36.91791961007146
 20
-1767.024223102374
 30
0.0
 10
36.94228092291047
 20
-1767.013281189466
 30
0.0
 10
36.98067187749515
 20
-1766.997481841995
 30
0.0
 10
37.02221595401386
 20
-1766.981661866246
 30
0.0
 10
37.06694479039319
 20
-1766.965771118024
 30
0.0
 10
37.11489605564054
 20
-1766.949765957206
 30
0.0
 10
37.16608935191058
 20
-1766.933613472221
 30
0.0
 10
37.22049707403518
 20
-1766.917296378779
 30
0.0
 10
37.27801211213213
 20
-1766.900817749081
 30
0.0
 10
37.33841360594939
 20
-1766.884205736003
 30
0.0
 10
37.37966601174715
 20
-1766.87326471619
 30
0.0
 10
37.40071807674424
 20
-1766.867767418486
 30
0.0
  0
SPLINE
  5
2A3
330
4D
100
AcDbEntity
  8
Hawa5
 62
     1
100
AcDbSpline
210
0.0
220
0.0
230
1.0
 70
     8
 71
     3
 72
    23
 73
    19
 74
     0
 42
0.0000000001
 43
0.0000000001
 40
0.0
 40
0.0
 40
0.0
 40
0.0
 40
0.0189036616274345
 40
0.0392521795479985
 40
0.0622316245386364
 40
0.0887865426173201
 40
0.1195903039923271
 40
0.1550776061785822
 40
0.1954750066890617
 40
0.2408161949856693
 40
0.2909567737552578
 40
0.3455977193180779
 40
0.4043217407324787
 40
0.4666431530331048
 40
0.532069415067963
 40
0.6001709877859391
 40
0.6706555284111109
 40
0.7434424856015082
 40
0.7434424856015082
 40
0.7434424856015082
 40
0.7434424856015082
 10
36.75000000000061
 20
-1765.99584724336
 30
0.0
 10
36.74999996301643
 20
-1765.989505162521
 30
0.0
 10
36.75195022684971
 20
-1765.976420471789
 30
0.0
 10
36.76042578220825
 20
-1765.957250587001
 30
0.0
 10
36.77422804578664
 20
-1765.938328303716
 30
0.0
 10
36.79332458895322
 20
-1765.91943284757
 30
0.0
 10
36.81781978621714
 20
-1765.90042776884
 30
0.0
 10
36.8478109316323
 20
-1765.881247736453
 30
0.0
 10
36.88331149702872
 20
-1765.861893184088
 30
0.0
 10
36.92421577500577
 20
-1765.842402603685
 30
0.0
 10
36.97028705705574
 20
-1765.822838532249
 30
0.0
 10
37.02116575793156
 20
-1765.803274552416
 30
0.0
 10
37.07639598374971
 20
-1765.783784581393
 30
0.0
 10
37.13546845955092
 20
-1765.764432568201
 30
0.0
 10
37.19787670742219
 20
-1765.745262517699
 30
0.0
 10
37.26318247327025
 20
-1765.726288597122
 30
0.0
 10
37.33108640169984
 20
-1765.70748517628
 30
0.0
 10
37.3772427472016
 20
-1765.695221832048
 30
0.0
 10
37.40071807674424
 20
-1765.68909166503
 30
0.0
  0
SPLINE
  5
2A4
330
4D
100
AcDbEntity
  8
Hawa5
 62
     1
100
AcDbSpline
210
0.0
220
0.0
230
1.0
 70
     8
 71
     3
 72
    36
 73
    32
 74
     0
 42
0.0000000001
 43
0.0000000001
 40
0.0
 40
0.0
 40
0.0
 40
0.0
 40
0.0622102055042689
 40
0.1259545783805332
 40
0.1910610307679057
 40
0.2573527150394576
 40
0.3246485810439775
 40
0.3927639145310997
 40
0.4615108665305394
 40
0.5306989823434062
 40
0.6001357379610401
 40
0.6696270910569692
 40
0.7389780531372649
 40
0.807992460213401
 40
0.8764453593676494
 40
0.9440908653784267
 40
1.01070919878635
 40
1.076107026971163
 40
1.140114048746054
 40
1.202579182239176
 40
1.263366572401094
 40
1.32235162882776
 40
1.379417296739436
 40
1.434450755798498
 40
1.487340734279264
 40
1.537975620741305
 40
1.586242552299739
 40
1.632027658311448
 40
1.675217641615255
 40
1.715702888046326
 40
1.753382311809212
 40
1.753382311809212
 40
1.753382311809212
 40
1.753382311809212
 10
37.40071807674424
 20
-1767.489087167404
 30
0.0
 10
37.42078213201222
 20
-1767.483847992388
 30
0.0
 10
37.46144364032775
 20
-1767.473388897832
 30
0.0
 10
37.52321961974251
 20
-1767.457903131508
 30
0.0
 10
37.58639657746785
 20
-1767.44241504418
 30
0.0
 10
37.65079107561711
 20
-1767.426924373504
 30
0.0
 10
37.71621598710267
 20
-1767.411430947218
 30
0.0
 10
37.78248096224835
 20
-1767.39593467255
 30
0.0
 10
37.84939285033659
 20
-1767.380435554204
 30
0.0
 10
37.91675614700865
 20
-1767.364933704434
 30
0.0
 10
37.98437345336811
 20
-1767.34942935384
 30
0.0
 10
38.05204595749578
 20
-1767.333922866165
 30
0.0
 10
38.11957366668685
 20
-1767.318414797181
 30
0.0
 10
38.1867465096983
 20
-1767.302908139495
 30
0.0
 10
38.25333776788674
 20
-1767.287409868916
 30
0.0
 10
38.31911294250791
 20
-1767.271929333642
 30
0.0
 10
38.38384777071161
 20
-1767.256474855498
 30
0.0
 10
38.44734240965335
 20
-1767.241050460455
 30
0.0
 10
38.50941907950601
 20
-1767.22565636062
 30
0.0
 10
38.56991825568016
 20
-1767.210289651719
 30
0.0
 10
38.62869464900434
 20
-1767.194945017552
 30
0.0
 10
38.68561317712107
 20
-1767.17961543354
 30
0.0
 10
38.74054512255289
 20
-1767.16429287098
 30
0.0
 10
38.79336466178909
 20
-1767.148969000328
 30
0.0
 10
38.84394593613596
 20
-1767.133635893923
 30
0.0
 10
38.89216083111108
 20
-1767.118286720863
 30
0.0
 10
38.93787759164753
 20
-1767.102916449013
 30
0.0
 10
38.98096048174143
 20
-1767.087522484442
 30
0.0
 10
39.02127035158925
 20
-1767.072105458301
 30
0.0
 10
39.05866708271393
 20
-1767.056669387287
 30
0.0
 10
39.08243354076141
 20
-1767.045980791189
 30
0.0
 10
39.0937866234338
 20
-1767.040606268243
 30
0.0
  0
SPLINE
  5
2A5
330
4D
100
AcDbEntity
  8
Hawa5
 62
     1
100
AcDbSpline
210
0.0
220
0.0
230
1.0
 70
     8
 71
     3
 72
    26
 73
    22
 74
     0
 42
0.0000000001
 43
0.0000000001
 40
0.0
 40
0.0
 40
0.0
 40
0.0
 40
0.0658615408668406
 40
0.1294951003503434
 40
0.1907029295707294
 40
0.249298212101647
 40
0.3051063510839017
 40
0.3579664898963573
 40
0.4077333757770714
 40
0.4542797320652713
 40
0.4974993966347935
 40
0.5373116366786308
 40
0.5736579177465605
 40
0.6061450773909789
 40
0.6343514559931346
 40
0.6585061532983484
 40
0.6792256420375397
 40
0.6972831398469776
 40
0.7134819364503172
 40
0.728620309056916
 40
0.7435240431859639
 40
0.7435240431859639
 40
0.7435240431859639
 40
0.7435240431859639
 10
37.40071807674424
 20
-1767.489087167404
 30
0.0
 10
37.37947632659424
 20
-1767.494633864977
 30
0.0
 10
37.33775375081267
 20
-1767.505700969962
 30
0.0
 10
37.27646345423121
 20
-1767.522567690012
 30
0.0
 10
37.21768826885468
 20
-1767.539432672926
 30
0.0
 10
37.16163083232505
 20
-1767.556296008778
 30
0.0
 10
37.108484562033
 20
-1767.573157609425
 30
0.0
 10
37.05843286873997
 20
-1767.590017246788
 30
0.0
 10
37.01164847346474
 20
-1767.606874548149
 30
0.0
 10
36.96829263020346
 20
-1767.623729039001
 30
0.0
 10
36.92851425250915
 20
-1767.640580243043
 30
0.0
 10
36.89245176455055
 20
-1767.657426628735
 30
0.0
 10
36.86034240666207
 20
-1767.674207459922
 30
0.0
 10
36.8325260278088
 20
-1767.690756087397
 30
0.0
 10
36.80923437480157
 20
-1767.706846527264
 30
0.0
 10
36.79037894321253
 20
-1767.722323057358
 30
0.0
 10
36.77555209132596
 20
-1767.737222117081
 30
0.0
 10
36.76427442191855
 20
-1767.751736370226
 30
0.0
 10
36.7561840454827
 20
-1767.766158821368
 30
0.0
 10
36.75116217527268
 20
-1767.780843779816
 30
0.0
 10
36.75000013301578
 20
-1767.790860449431
 30
0.0
 10
36.75000000002283
 20
-1767.795849038695
 30
0.0
  0
SPLINE
  5
2A6
330
4D
100
AcDbEntity
  8
Hawa5
 62
     1
100
AcDbSpline
210
0.0
220
0.0
230
1.0
 70
     8
 71
     3
 72
    13
 73
     9
 74
     0
 42
0.0000000001
 43
0.0000000001
 40
0.0
 40
0.0
 40
0.0
 40
0.0
 40
0.0685717175559824
 40
0.1171906467180336
 40
0.1512983489048744
 40
0.1854061926329823
 40
0.2340172479353935
 40
0.3025688945249019
 40
0.3025688945249019
 40
0.3025688945249019
 40
0.3025688945249019
 10
39.89015791046158
 20
-1764.689793932013
 30
0.0
 10
39.91112449946228
 20
-1764.698983239057
 30
0.0
 10
39.94607800779324
 20
-1764.716610437643
 30
0.0
 10
39.98700660537391
 20
-1764.746801785252
 30
0.0
 10
40.00535951905696
 20
-1764.785195640553
 30
0.0
 10
39.98699628222847
 20
-1764.823580202731
 30
0.0
 10
39.94607647648894
 20
-1764.853764911611
 30
0.0
 10
39.91113075160031
 20
-1764.871387479208
 30
0.0
 10
39.89017014935778
 20
-1764.880574215665
 30
0.0
  0
SPLINE
  5
2A7
330
4D
100
AcDbEntity
  8
Hawa5
 62
     1
100
AcDbSpline
210
0.0
220
0.0
230
1.0
 70
     8
 71
     3
 72
    22
 73
    18
 74
     0
 42
0.0000000001
 43
0.0000000001
 40
0.0
 40
0.0
 40
0.0
 40
0.0
 40
0.1412055263527965
 40
0.3279847834154467
 40
0.5563799600018014
 40
0.8208567350979915
 40
1.114723300499697
 40
1.430363948579801
 40
1.759414070851149
 40
2.09293228496659
 40
2.421815049679953
 40
2.73727283991999
 40
3.031030240716201
 40
3.295497803093978
 40
3.523965748873091
 40
3.710856287109876
 40
3.852161385572455
 40
3.852161385572455
 40
3.852161385572455
 40
3.852161385572455
 10
39.89017014935778
 20
-1764.880574215665
 30
0.0
 10
39.84702765024291
 20
-1764.899482964796
 30
0.0
 10
39.7430317098484
 20
-1764.93408387126
 30
0.0
 10
39.56324267397587
 20
-1764.979716087736
 30
0.0
 10
39.34134390920919
 20
-1765.025711889951
 30
0.0
 10
39.08320964445913
 20
-1765.072032418638
 30
0.0
 10
38.79560438196989
 20
-1765.11852776724
 30
0.0
 10
38.48624301232872
 20
-1765.165150898024
 30
0.0
 10
38.16353247901553
 20
-1765.211840501745
 30
0.0
 10
37.83636616091093
 20
-1765.258547075906
 30
0.0
 10
37.51377155632692
 20
-1765.305222673739
 30
0.0
 10
37.20456132255644
 20
-1765.351821013624
 30
0.0
 10
36.91705419602746
 20
-1765.39829408014
 30
0.0
 10
36.65893334328067
 20
-1765.444603137178
 30
0.0
 10
36.43697561114765
 20
-1765.490601717076
 30
0.0
 10
36.25709310056475
 20
-1765.536249830672
 30
0.0
 10
36.15302884019874
 20
-1765.57086894235
 30
0.0
 10
36.10985556704494
 20
-1765.58979024826
 30
0.0
  0
SPLINE
  5
2A8
330
4D
100
AcDbEntity
  8
Hawa5
 62
     1
100
AcDbSpline
210
0.0
220
0.0
230
1.0
 70
     8
 71
     3
 72
    13
 73
     9
 74
     0
 42
0.0000000001
 43
0.0000000001
 40
0.0
 40
0.0
 40
0.0
 40
0.0
 40
0.0685953726727782
 40
0.1172211506545397
 40
0.1513262220248879
 40
0.1854319465571251
 40
0.2340349541978474
 40
0.3025700483078763
 40
0.3025700483078763
 40
0.3025700483078763
 40
0.3025700483078763
 10
36.10985556704494
 20
-1765.58979024826
 30
0.0
 10
36.08888180580985
 20
-1765.59898229981
 30
0.0
 10
36.05391947020881
 20
-1765.616613790798
 30
0.0
 10
36.0129814817532
 20
-1765.646811793154
 30
0.0
 10
35.99464089176003
 20
-1765.685212769424
 30
0.0
 10
36.01301030820887
 20
-1765.723587570121
 30
0.0
 10
36.05392253795733
 20
-1765.753765865653
 30
0.0
 10
36.08886126369721
 20
-1765.771384387347
 30
0.0
 10
36.10981686727014
 20
-1765.780568995475
 30
0.0
  0
SPLINE
  5
2A9
330
4D
100
AcDbEntity
  8
Hawa5
 62
     1
100
AcDbSpline
210
0.0
220
0.0
230
1.0
 70
     8
 71
     3
 72
    13
 73
     9
 74
     0
 42
0.0000000001
 43
0.0000000001
 40
0.0
 40
0.0
 40
0.0
 40
0.0
 40
0.0686054476746331
 40
0.1172251144727659
 40
0.1513214775190598
 40
0.1854218707097572
 40
0.2340137414851723
 40
0.3025294787918392
 40
0.3025294787918392
 40
0.3025294787918392
 40
0.3025294787918392
 10
39.89016290719191
 20
-1766.489800294996
 30
0.0
 10
39.91113936222318
 20
-1766.498994209061
 30
0.0
 10
39.94610220599648
 20
-1766.516627066424
 30
0.0
 10
39.98703682123532
 20
-1766.546830652924
 30
0.0
 10
40.00535852017221
 20
-1766.585232186619
 30
0.0
 10
39.98698430478489
 20
-1766.623592527479
 30
0.0
 10
39.9460826560866
 20
-1766.653763147037
 30
0.0
 10
39.91115288643685
 20
-1766.671377182039
 30
0.0
 10
39.89020324943246
 20
-1766.680559572268
 30
0.0
  0
SPLINE
  5
2AA
330
4D
100
AcDbEntity
  8
Hawa5
 62
     1
100
AcDbSpline
210
0.0
220
0.0
230
1.0
 70
     8
 71
     3
 72
    22
 73
    18
 74
     0
 42
0.0000000001
 43
0.0000000001
 40
0.0
 40
0.0
 40
0.0
 40
0.0
 40
0.1411199297550946
 40
0.3278273824636742
 40
0.5562126377909192
 40
0.8207707121556815
 40
1.114798845024268
 40
1.430608757497318
 40
1.759688701670584
 40
2.093046577789064
 40
2.421723651250241
 40
2.737034032472636
 40
3.030743887224624
 40
3.29525906550504
 40
3.523834589769936
 40
3.710842710001104
 40
3.852226312255016
 40
3.852226312255016
 40
3.852226312255016
 40
3.852226312255016
 10
39.89020324943246
 20
-1766.680559572268
 30
0.0
 10
39.84708726446767
 20
-1766.699457646683
 30
0.0
 10
39.74314295629919
 20
-1766.734046646124
 30
0.0
 10
39.56341005011426
 20
-1766.779673560074
 30
0.0
 10
39.34151321974211
 20
-1766.825678055829
 30
0.0
 10
39.0833036033824
 20
-1766.872018529385
 30
0.0
 10
38.795562999496
 20
-1766.918537685242
 30
0.0
 10
38.4860823081063
 20
-1766.965175816299
 30
0.0
 10
38.16335875175385
 20
-1767.01186556614
 30
0.0
 10
37.83630378556882
 20
-1767.058559159821
 30
0.0
 10
37.51387842855783
 20
-1767.105209280962
 30
0.0
 10
37.20479956794107
 20
-1767.151783099931
 30
0.0
 10
36.91733986065484
 20
-1767.198241709945
 30
0.0
 10
36.65918255547155
 20
-1767.244550726274
 30
0.0
 10
36.43713470459219
 20
-1767.290562920281
 30
0.0
 10
36.25715350079229
 20
-1767.336233388378
 30
0.0
 10
36.15302644079321
 20
-1767.370871910509
 30
0.0
 10
36.10982968591903
 20
-1767.389804906274
 30
0.0
  0
SPLINE
  5
2AB
330
4D
100
AcDbEntity
  8
Hawa5
 62
     1
100
AcDbSpline
210
0.0
220
0.0
230
1.0
 70
     8
 71
     3
 72
    13
 73
     9
 74
     0
 42
0.0000000001
 43
0.0000000001
 40
0.0
 40
0.0
 40
0.0
 40
0.0
 40
0.068621694528358
 40
0.1172375452604264
 40
0.1513277515721216
 40
0.1854268532101325
 40
0.2340178099307533
 40
0.3025326407869979
 40
0.3025326407869979
 40
0.3025326407869979
 40
0.3025326407869979
 10
36.10982968591903
 20
-1767.389804906274
 30
0.0
 10
36.08884834387711
 20
-1767.39900095957
 30
0.0
 10
36.05388204038655
 20
-1767.41663585626
 30
0.0
 10
36.01294754647596
 20
-1767.44684591788
 30
0.0
 10
35.99464043375736
 20
-1767.48525020869
 30
0.0
 10
36.01302450142223
 20
-1767.523601424588
 30
0.0
 10
36.05392620631878
 20
-1767.553767982484
 30
0.0
 10
36.08885635244711
 20
-1767.571380339487
 30
0.0
 10
36.10980606685455
 20
-1767.58056209545
 30
0.0
  0
LINE
  5
2AC
330
4D
100
AcDbEntity
  8
Hawa5
 62
     1
 48
0.007
100
AcDbLine
 10
41.9
 20
-1761.335186
 30
0.0
 11
41.9
 21
-1761.615186
 31
0.0
  0
LINE
  5
2AD
330
4D
100
AcDbEntity
  8
Hawa5
 62
     1
 48
0.007
100
AcDbLine
 10
34.1
 20
-1761.335186
 30
0.0
 11
34.1
 21
-1761.615186
 31
0.0
  0
LINE
  5
2AE
330
4D
100
AcDbEntity
  8
Hawa5
 62
     1
 48
0.083336
100
AcDbLine
 10
39.542893
 20
-1763.972293
 30
0.0
 11
41.9
 21
-1761.615186
 31
0.0
  0
LINE
  5
2AF
330
4D
100
AcDbEntity
  8
Hawa5
 62
     1
 48
0.083336
100
AcDbLine
 10
36.457107
 20
-1763.972293
 30
0.0
 11
34.1
 21
-1761.615186
 31
0.0
  0
ARC
  5
2B0
330
4D
100
AcDbEntity
  8
Hawa5
 62
     1
100
AcDbCircle
 10
40.25
 20
-1764.6794
 30
0.0
 40
1.0
100
AcDbArc
 50
135.0
 51
168.651534
  0
ARC
  5
2B1
330
4D
100
AcDbEntity
  8
Hawa5
 62
     1
100
AcDbCircle
 10
35.75
 20
-1764.6794
 30
0.0
 40
1.0
100
AcDbArc
 50
0.0
 51
45.0
  0
LINE
  5
2B2
330
4D
100
AcDbEntity
  8
Hawa5
 62
     1
 48
0.015525
100
AcDbLine
 10
36.75
 20
-1764.6794
 30
0.0
 11
36.75
 21
-1765.300384
 31
0.0
  0
LINE
  5
2B3
330
4D
100
AcDbEntity
  8
Hawa5
 62
     1
 48
0.027613
100
AcDbLine
 10
39.25
 20
-1765.170019
 30
0.0
 11
39.25
 21
-1766.274548
 31
0.0
  0
LINE
  5
2B4
330
4D
100
AcDbEntity
  8
Hawa5
 62
     1
 48
0.027613
100
AcDbLine
 10
36.75
 20
-1765.995847
 30
0.0
 11
36.75
 21
-1767.100386
 31
0.0
  0
LINE
  5
2B5
330
4D
100
AcDbEntity
  8
Hawa5
 62
     1
 48
0.027613
100
AcDbLine
 10
39.25
 20
-1766.970016
 30
0.0
 11
39.25
 21
-1768.074527
 31
0.0
  0
ARC
  5
2B6
330
4D
100
AcDbEntity
  8
Hawa5
 62
     1
100
AcDbCircle
 10
23.773071
 20
-1737.210464
 30
0.0
 40
30.944641
100
AcDbArc
 50
293.495075
 51
295.113426
  0
ARC
  5
2B7
330
4D
100
AcDbEntity
  8
Hawa5
 62
     1
100
AcDbCircle
 10
23.78263
 20
-1739.033262
 30
0.0
 40
30.919934
100
AcDbArc
 50
293.495611
 51
295.115372
  0
ARC
  5
2B8
330
4D
100
AcDbEntity
  8
Hawa5
 62
     1
100
AcDbCircle
 10
52.200887
 20
-1793.200672
 30
0.0
 40
30.879937
100
AcDbArc
 50
113.494534
 51
115.11993
  0
ARC
  5
2B9
330
4D
100
AcDbEntity
  8
Hawa5
 62
     1
100
AcDbCircle
 10
52.200595
 20
-1795.000298
 30
0.0
 40
30.879478
100
AcDbArc
 50
113.494289
 51
115.119737
  0
LINE
  5
2BA
330
4D
100
AcDbEntity
  8
Hawa5
 62
     1
 48
0.1125
100
AcDbLine
 10
40.49999999999999
 20
-1763.565186
 30
0.0
 11
40.49999999999999
 21
-1768.065186
 31
0.0
  0
LINE
  5
2BB
330
4D
100
AcDbEntity
  8
Hawa5
 62
     1
 48
0.0125
100
AcDbLine
 10
40.49999999999999
 20
-1763.565186
 30
0.0
 11
41.0
 21
-1763.565186
 31
0.0
  0
LINE
  5
2BC
330
4D
100
AcDbEntity
  8
Hawa5
 62
     1
 48
0.1125
100
AcDbLine
 10
41.0
 20
-1763.565186
 30
0.0
 11
41.0
 21
-1768.065186
 31
0.0
  0
LINE
  5
2BD
330
4D
100
AcDbEntity
  8
Hawa5
 62
     1
 48
0.1125
100
AcDbLine
 10
35.0
 20
-1763.565186
 30
0.0
 11
35.0
 21
-1768.065186
 31
0.0
  0
LINE
  5
2BE
330
4D
100
AcDbEntity
  8
Hawa5
 62
     1
 48
0.0125
100
AcDbLine
 10
35.0
 20
-1763.565186
 30
0.0
 11
35.5
 21
-1763.565186
 31
0.0
  0
LINE
  5
2BF
330
4D
100
AcDbEntity
  8
Hawa5
 62
     1
 48
0.1125
100
AcDbLine
 10
35.5
 20
-1763.565186
 30
0.0
 11
35.5
 21
-1768.065186
 31
0.0
  0
ENDBLK
  5
2C0
330
4D
100
AcDbEntity
  8
0
100
AcDbBlockEnd
  0
BLOCK
  5
2C1
330
4E
100
AcDbEntity
  8
0
100
AcDbBlockBegin
  2
BLOCK4
 70
     0
 10
0.0
 20
0.0
 30
0.0
  3
BLOCK4
  1

  0
LINE
  5
2C2
330
4E
100
AcDbEntity
  8
Hawa5
 62
     1
 48
0.014434
100
AcDbLine
 10
35.5
 20
-1764.09375
 30
0.0
 11
35.0
 21
-1763.805054
 31
0.0
  0
ENDBLK
  5
2C3
330
4E
100
AcDbEntity
  8
0
100
AcDbBlockEnd
  0
BLOCK
  5
2C4
330
4F
100
AcDbEntity
  8
0
100
AcDbBlockBegin
  2
BLOCK5
 70
     0
 10
0.0
 20
0.0
 30
0.0
  3
BLOCK5
  1

  0
LINE
  5
2C5
330
4F
100
AcDbEntity
  8
Hawa5
 62
     1
 48
0.014434
100
AcDbLine
 10
41.0
 20
-1767.269165
 30
0.0
 11
40.49999999999999
 21
-1766.980469
 31
0.0
  0
ENDBLK
  5
2C6
330
4F
100
AcDbEntity
  8
0
100
AcDbBlockEnd
  0
BLOCK
  5
2C7
330
50
100
AcDbEntity
  8
0
100
AcDbBlockBegin
  2
BLOCK6
 70
     0
 10
0.0
 20
0.0
 30
0.0
  3
BLOCK6
  1

  0
LINE
  5
2C8
330
50
100
AcDbEntity
  8
Hawa5
 62
     1
 48
0.017678
100
AcDbLine
 10
7.0
 20
-1767.838012999999
 30
0.0
 11
7.5
 21
-1767.338012999999
 31
0.0
  0
LINE
  5
2C9
330
50
100
AcDbEntity
  8
Hawa5
 62
     1
 48
0.017678
100
AcDbLine
 10
7.0
 20
-1766.423828
 30
0.0
 11
7.5
 21
-1765.923828
 31
0.0
  0
ENDBLK
  5
2CA
330
50
100
AcDbEntity
  8
0
100
AcDbBlockEnd
  0
BLOCK
  5
2CB
330
51
100
AcDbEntity
  8
0
100
AcDbBlockBegin
  2
BLOCK7
 70
     0
 10
0.0
 20
0.0
 30
0.0
  3
BLOCK7
  1

  0
LINE
  5
2CC
330
51
100
AcDbEntity
  8
Hawa5
 62
     1
 48
0.017678
100
AcDbLine
 10
12.5
 20
-1767.994873
 30
0.0
 11
13.0
 21
-1767.494873
 31
0.0
  0
LINE
  5
2CD
330
51
100
AcDbEntity
  8
Hawa5
 62
     1
 48
0.017678
100
AcDbLine
 10
12.5
 20
-1766.580688
 30
0.0
 11
13.0
 21
-1766.080688
 31
0.0
  0
ENDBLK
  5
2CE
330
51
100
AcDbEntity
  8
0
100
AcDbBlockEnd
  0
BLOCK
  5
2CF
330
52
100
AcDbEntity
  8
0
100
AcDbBlockBegin
  2
BLOCK8
 70
     0
 10
0.0
 20
0.0
 30
0.0
  3
BLOCK8
  1

  0
LINE
  5
2D0
330
52
100
AcDbEntity
  8
Hawa5
 62
     1
 48
0.3
100
AcDbLine
 10
32.0
 20
-1755.565186
 30
0.0
 11
44.0
 21
-1755.565186
 31
0.0
  0
LINE
  5
2D1
330
52
100
AcDbEntity
  8
Hawa5
 62
     1
 48
0.125
100
AcDbLine
 10
44.0
 20
-1755.565186
 30
0.0
 11
44.0
 21
-1760.565186
 31
0.0
  0
LINE
  5
2D2
330
52
100
AcDbEntity
  8
Hawa5
 62
     1
 48
0.3
100
AcDbLine
 10
44.0
 20
-1760.565186
 30
0.0
 11
32.0
 21
-1760.565186
 31
0.0
  0
LINE
  5
2D3
330
52
100
AcDbEntity
  8
Hawa5
 62
     1
 48
0.125
100
AcDbLine
 10
32.0
 20
-1760.565186
 30
0.0
 11
32.0
 21
-1755.565186
 31
0.0
  0
ENDBLK
  5
2D4
330
52
100
AcDbEntity
  8
0
100
AcDbBlockEnd
  0
BLOCK
  5
4F7
330
4F6
100
AcDbEntity
  8
0
100
AcDbBlockBegin
  2
_Oblique
 70
     0
 10
0.0
 20
0.0
 30
0.0
  3
_Oblique
  1

  0
LINE
  5
4F8
330
4F6
100
AcDbEntity
  8
0
 62
     0
370
    -2
100
AcDbLine
 10
-0.5
 20
-0.5
 30
0.0
 11
0.5
 21
0.5
 31
0.0
  0
ENDBLK
  5
4F9
330
4F6
100
AcDbEntity
  8
0
100
AcDbBlockEnd
  0
ENDSEC
  0
SECTION
  2
ENTITIES
  0
DIMENSION
  5
21
330
A
100
AcDbEntity
  8
Hawa1
 62
     0
100
AcDbDimension
  2
*D0
 10
118.385262
 20
187.243735
 30
0.0
 11
145.134699316887
 21
187.243735
 31
0.0
 70
   161
  1
-12)
 71
     5
 42
10.0
 52
89.999523
  3
HAWA-Strich
100
AcDbAlignedDimension
 13
108.385262
 23
197.243735
 33
0.0
 14
118.385262
 24
197.243735
 34
0.0
  0
DIMENSION
  5
23
330
A
100
AcDbEntity
  8
Hawa1
 62
     0
100
AcDbDimension
  2
*D1
 10
118.385262
 20
187.243735
 30
0.0
 11
138.8818651813862
 21
187.243735
 31
0.0
 70
   161
  1
(8
 71
     5
 42
10.0
 52
89.999523
  3
HAWA-Strich
100
AcDbAlignedDimension
 13
108.385262
 23
197.243735
 33
0.0
 14
118.385262
 24
197.243735
 34
0.0
  0
DIMENSION
  5
25
330
A
100
AcDbEntity
  8
Hawa1
 62
     0
100
AcDbDimension
  2
*D2
 10
113.3855949932958
 20
206.9972857765611
 30
0.0
 11
99.38574270038451
 21
211.4429515863888
 31
0.0
 70
    32
 71
     5
 42
28.00000065948362
 52
89.999523
  3
HAWA-Strich
100
AcDbAlignedDimension
 13
85.38526199999999
 23
197.018022
 33
0.0
 14
113.385262
 24
196.997752
 34
0.0
 50
359.998092
100
AcDbRotatedDimension
  0
DIMENSION
  5
27
330
A
100
AcDbEntity
  8
Hawa1
 62
     0
100
AcDbDimension
  2
*D3
 10
52.74103920964485
 20
161.202086843369
 30
0.0
 11
52.74120416798184
 21
181.0163772098332
 31
0.0
 70
   160
  1
<>
 71
     5
 42
10.00013636676576
 52
89.999523
  3
HAWA-Strich
100
AcDbAlignedDimension
 13
60.005262
 23
151.20189
 33
0.0
 14
76.385262
 24
161.20189
 34
0.0
 50
89.999523
100
AcDbRotatedDimension
  0
DIMENSION
  5
29
330
A
100
AcDbEntity
  8
Hawa1
 62
     0
100
AcDbDimension
  2
*D4
 10
41.14547883386559
 20
172.3022250050689
 30
0.0
 11
38.38822865562247
 21
161.7521589631773
 31
0.0
 70
    32
  1
21
 71
     5
 42
21.10017799248374
 52
89.999523
  3
HAWA-Strich
100
AcDbAlignedDimension
 13
60.005262
 23
151.20189
 33
0.0
 14
81.38526199999999
 24
172.30189
 34
0.0
 50
89.999523
100
AcDbRotatedDimension
  0
DIMENSION
  5
2B
330
A
100
AcDbEntity
  8
Hawa1
 62
     0
100
AcDbDimension
  2
*D5
 10
123.885262
 20
114.550344
 30
0.0
 11
113.385262
 21
118.9946943497612
 31
0.0
 70
    33
 71
     5
 42
21.00000000000001
 52
89.999523
  3
HAWA-Strich
100
AcDbAlignedDimension
 13
102.885262
 23
137.20189
 33
0.0
 14
123.885262
 24
137.20189
 34
0.0
  0
DIMENSION
  5
2D
330
A
100
AcDbEntity
  8
Hawa1
 62
     0
100
AcDbDimension
  2
*D6
 10
93.385262
 20
114.550344
 30
0.0
 11
85.38526199999999
 21
118.9717645951569
 31
0.0
 70
    33
 71
     5
 42
16.0
 52
89.999523
  3
HAWA-Strich
100
AcDbAlignedDimension
 13
77.38526199999999
 23
135.20189
 33
0.0
 14
93.385262
 24
135.20189
 34
0.0
  0
DIMENSION
  5
2F
330
A
100
AcDbEntity
  8
Hawa1
 62
     0
100
AcDbDimension
  2
*D7
 10
52.74091845626449
 20
135.2025055087847
 30
0.0
 11
48.3196976680288
 21
143.2026259219636
 31
0.0
 70
    32
 71
     5
 42
16.00001997553897
 52
89.999523
  3
HAWA-Strich
100
AcDbAlignedDimension
 13
78.18526199999999
 23
151.20189
 33
0.0
 14
77.38526199999999
 24
135.20189
 34
0.0
 50
269.998569
100
AcDbRotatedDimension
  0
DIMENSION
  5
31
330
A
100
AcDbEntity
  8
Hawa1
 62
     0
100
AcDbDimension
  2
*D8
 10
145.8155667734653
 20
137.2013422761291
 30
0.0
 11
145.8161475581322
 21
160.4553675801045
 31
0.0
 70
   160
 71
     5
 42
14.00040260329837
 52
89.999523
  3
HAWA-Strich
100
AcDbAlignedDimension
 13
140.005262
 23
151.20189
 33
0.0
 14
123.885262
 24
137.20189
 34
0.0
 50
269.998569
100
AcDbRotatedDimension
  0
DIMENSION
  5
33
330
A
100
AcDbEntity
  8
Hawa1
 62
     0
100
AcDbDimension
  2
*D9
 10
118.385262
 20
187.243735
 30
0.0
 11
127.7328967018076
 21
191.6889345999318
 31
0.0
 70
    33
 71
     5
 42
10.0
 52
89.999523
  3
HAWA-Strich
100
AcDbAlignedDimension
 13
108.385262
 23
197.243735
 33
0.0
 14
118.385262
 24
197.243735
 34
0.0
  0
DIMENSION
  5
35
330
A
100
AcDbEntity
  8
Hawa1
 62
     0
100
AcDbDimension
  2
*D10
 10
66.69597959896584
 20
161.2021319962383
 30
0.0
 11
66.69684104362763
 21
195.6934970501656
 31
0.0
 70
   160
 71
     5
 42
23.09998750496447
 52
89.999523
  3
HAWA-Strich
100
AcDbAlignedDimension
 13
75.885262
 23
184.30189
 33
0.0
 14
76.385262
 24
161.20189
 34
0.0
 50
269.998569
100
AcDbRotatedDimension
  0
DIMENSION
  5
37
330
A
100
AcDbEntity
  8
Hawa1
 62
     0
100
AcDbDimension
  2
*D11
 10
115.835262
 20
127.273016
 30
0.0
 11
137.2888239233629
 21
127.273016
 31
0.0
 70
   161
  1
%%c<>
 71
     5
 42
4.900000000000005
 52
89.999523
  3
HAWA-Strich
100
AcDbAlignedDimension
 13
110.935262
 23
137.20189
 33
0.0
 14
115.835262
 24
137.20189
 34
0.0
  0
DIMENSION
  5
39
330
A
100
AcDbEntity
  8
Hawa1
 62
     0
100
AcDbDimension
  2
*D12
 10
87.53526200000001
 20
127.273016
 30
0.0
 11
68.22688644921663
 21
127.273016
 31
0.0
 70
   161
  1
%%c<>
 71
     5
 42
4.299999999999997
 52
89.999523
  3
HAWA-Strich
100
AcDbAlignedDimension
 13
83.23526200000001
 23
135.20189
 33
0.0
 14
87.53526200000001
 24
135.20189
 34
0.0
  0
LINE
  5
3A
330
A
100
AcDbEntity
  8
Hawa5
  6
DASHDOT
 62
     1
100
AcDbLine
 10
85.38526199999999
 20
129.421251
 30
0.0
 11
85.38526199999999
 21
197.018053
 31
0.0
  0
LINE
  5
3B
330
A
100
AcDbEntity
  8
Hawa5
  6
DASHDOT
 62
     1
100
AcDbLine
 10
113.385262
 20
133.098009
 30
0.0
 11
113.385262
 21
196.997789
 31
0.0
  0
POINT
  5
3C
330
A
100
AcDbEntity
  8
0
 62
     7
100
AcDbPoint
 10
87.53526200000001
 20
135.201891
 30
0.0
  0
POINT
  5
3D
330
A
100
AcDbEntity
  8
0
 62
     7
100
AcDbPoint
 10
83.23526200000001
 20
135.201891
 30
0.0
  0
POINT
  5
3E
330
A
100
AcDbEntity
  8
0
 62
     7
100
AcDbPoint
 10
115.8352629999999
 20
137.201891
 30
0.0
  0
POINT
  5
3F
330
A
100
AcDbEntity
  8
0
 62
     7
100
AcDbPoint
 10
110.935262
 20
137.201891
 30
0.0
  0
LINE
  5
40
330
A
100
AcDbEntity
  8
Hawa5
 62
     1
 48
0.2136
100
AcDbLine
 10
77.38526199999999
 20
180.30189
 30
0.0
 11
80.38526199999999
 21
172.30189
 31
0.0
  0
LINE
  5
41
330
A
100
AcDbEntity
  8
Hawa5
 62
     1
 48
0.2136
100
AcDbLine
 10
77.38526199999999
 20
172.30189
 30
0.0
 11
80.38526199999999
 21
180.30189
 31
0.0
  0
LINE
  5
42
330
A
100
AcDbEntity
  8
Hawa5
 62
     1
 48
0.2136
100
AcDbLine
 10
90.38526199999999
 20
180.30189
 30
0.0
 11
93.385262
 21
172.30189
 31
0.0
  0
LINE
  5
43
330
A
100
AcDbEntity
  8
Hawa5
 62
     1
 48
0.2136
100
AcDbLine
 10
90.38526199999999
 20
172.30189
 30
0.0
 11
93.385262
 21
180.30189
 31
0.0
  0
LINE
  5
44
330
A
100
AcDbEntity
  8
Hawa5
 62
     1
 48
0.300834
100
AcDbLine
 10
79.393541
 20
171.3018899999999
 30
0.0
 11
91.38526199999999
 21
172.30189
 31
0.0
  0
LINE
  5
45
330
A
100
AcDbEntity
  8
Hawa5
 62
     1
 48
0.30104
100
AcDbLine
 10
79.385262
 20
172.30189
 30
0.0
 11
91.38526199999999
 21
171.3018899999999
 31
0.0
  0
LINE
  5
46
330
A
100
AcDbEntity
  8
Hawa5
 62
     1
 48
0.325
100
AcDbLine
 10
107.385262
 20
144.70189
 30
0.0
 11
119.385262
 21
139.70189
 31
0.0
  0
LINE
  5
47
330
A
100
AcDbEntity
  8
Hawa5
 62
     1
 48
0.323847
100
AcDbLine
 10
119.385262
 20
144.70189
 30
0.0
 11
107.435262
 21
139.70189
 31
0.0
  0
ARC
  5
48
330
A
100
AcDbEntity
  8
Hawa5
 62
     1
100
AcDbCircle
 10
92.831287
 20
189.432253
 30
0.0
 40
5.696314
100
AcDbArc
 50
244.570206
 51
275.580923
  0
ARC
  5
49
330
A
100
AcDbEntity
  8
Hawa5
 62
     1
100
AcDbCircle
 10
77.939238
 20
189.432253
 30
0.0
 40
5.696314
100
AcDbArc
 50
264.419077
 51
295.4297940000001
  0
LINE
  5
302
330
A
100
AcDbEntity
  8
Hawa2
 62
     9
 48
0.048152
100
AcDbLine
 10
122.523324
 20
137.2117780000001
 30
0.0
 11
123.885258
 21
138.573717
 31
0.0
  0
LINE
  5
303
330
A
100
AcDbEntity
  8
Hawa2
 62
     9
 48
0.098151
100
AcDbLine
 10
121.109112
 20
137.2117780000001
 30
0.0
 11
123.885262
 21
139.9879010000002
 31
0.0
  0
LINE
  5
304
330
A
100
AcDbEntity
  8
Hawa2
 62
     9
 48
0.148151
100
AcDbLine
 10
119.694897
 20
137.2117780000001
 30
0.0
 11
123.885262
 21
141.4020860000001
 31
0.0
  0
LINE
  5
305
330
A
100
AcDbEntity
  8
Hawa2
 62
     9
 48
0.088388
100
AcDbLine
 10
118.280686
 20
137.2117780000001
 30
0.0
 11
120.780682
 21
139.7117780000001
 31
0.0
  0
LINE
  5
306
330
A
100
AcDbEntity
  8
Hawa2
 62
     9
 48
0.07955
100
AcDbLine
 10
121.635262
 20
140.5663920000002
 30
0.0
 11
123.885262
 21
142.8163920000002
 31
0.0
  0
LINE
  5
307
330
A
100
AcDbEntity
  8
Hawa2
 62
     9
 48
0.088388
100
AcDbLine
 10
116.866471
 20
137.2117780000001
 30
0.0
 11
119.366471
 21
139.7117780000001
 31
0.0
  0
LINE
  5
308
330
A
100
AcDbEntity
  8
Hawa2
 62
     9
 48
0.07955
100
AcDbLine
 10
121.635262
 20
141.980577
 30
0.0
 11
123.885262
 21
144.230577
 31
0.0
  0
LINE
  5
309
330
A
100
AcDbEntity
  8
Hawa2
 62
     9
 48
0.088388
100
AcDbLine
 10
115.452256
 20
137.2117780000001
 30
0.0
 11
117.952256
 21
139.7117780000001
 31
0.0
  0
LINE
  5
30A
330
A
100
AcDbEntity
  8
Hawa2
 62
     9
 48
0.07955
100
AcDbLine
 10
121.635262
 20
143.3947620000001
 30
0.0
 11
123.885262
 21
145.6447620000001
 31
0.0
  0
LINE
  5
30B
330
A
100
AcDbEntity
  8
Hawa2
 62
     9
 48
0.088388
100
AcDbLine
 10
114.038044
 20
137.2117780000001
 30
0.0
 11
116.538044
 21
139.7117780000001
 31
0.0
  0
LINE
  5
30C
330
A
100
AcDbEntity
  8
Hawa2
 62
     9
 48
0.068463
100
AcDbLine
 10
121.948792
 20
145.1225450000002
 30
0.0
 11
123.885262
 21
147.0589460000001
 31
0.0
  0
LINE
  5
30D
330
A
100
AcDbEntity
  8
Hawa2
 62
     9
 48
0.088388
100
AcDbLine
 10
112.623829
 20
137.2117780000001
 30
0.0
 11
115.123829
 21
139.7117780000001
 31
0.0
  0
LINE
  5
30E
330
A
100
AcDbEntity
  8
Hawa2
 62
     9
 48
0.07955
100
AcDbLine
 10
121.635262
 20
146.2232530000001
 30
0.0
 11
123.885262
 21
148.4732530000001
 31
0.0
  0
LINE
  5
30F
330
A
100
AcDbEntity
  8
Hawa2
 62
     9
 48
0.088388
100
AcDbLine
 10
111.209618
 20
137.2117780000001
 30
0.0
 11
113.709618
 21
139.7117780000001
 31
0.0
  0
LINE
  5
310
330
A
100
AcDbEntity
  8
Hawa2
 62
     9
 48
0.05838
100
AcDbLine
 10
122.234059
 20
148.2361920000001
 30
0.0
 11
123.885262
 21
149.8874370000001
 31
0.0
  0
LINE
  5
311
330
A
100
AcDbEntity
  8
Hawa2
 62
     9
 48
0.088388
100
AcDbLine
 10
109.795403
 20
137.2117780000001
 30
0.0
 11
112.295403
 21
139.7117780000001
 31
0.0
  0
LINE
  5
312
330
A
100
AcDbEntity
  8
Hawa2
 62
     9
 48
0.07267
100
AcDbLine
 10
121.635262
 20
149.0516220000001
 30
0.0
 11
123.690659
 21
151.1070420000001
 31
0.0
  0
LINE
  5
313
330
A
100
AcDbEntity
  8
Hawa2
 62
     9
 48
0.084569
100
AcDbLine
 10
108.381192
 20
137.2117780000001
 30
0.0
 11
110.773167
 21
139.603746
 31
0.0
  0
LINE
  5
314
330
A
100
AcDbEntity
  8
Hawa2
 62
     9
 48
0.026373
100
AcDbLine
 10
121.635262
 20
150.4658060000002
 30
0.0
 11
122.381188
 21
151.2117780000001
 31
0.0
  0
LINE
  5
315
330
A
100
AcDbEntity
  8
Hawa2
 62
     9
 48
0.088388
100
AcDbLine
 10
106.966977
 20
137.2117780000001
 30
0.0
 11
109.466977
 21
139.7117780000001
 31
0.0
  0
LINE
  5
316
330
A
100
AcDbEntity
  8
Hawa2
 62
     9
 48
0.088388
100
AcDbLine
 10
105.552763
 20
137.2117780000001
 30
0.0
 11
108.052765
 21
139.7117780000001
 31
0.0
  0
LINE
  5
317
330
A
100
AcDbEntity
  8
Hawa2
 62
     9
 48
0.088388
100
AcDbLine
 10
104.13855
 20
137.2117780000001
 30
0.0
 11
106.63855
 21
139.7117780000001
 31
0.0
  0
LINE
  5
318
330
A
100
AcDbEntity
  8
Hawa2
 62
     9
 48
0.08374
100
AcDbLine
 10
102.960915
 20
137.4483500000001
 30
0.0
 11
105.329415
 21
139.8168810000002
 31
0.0
  0
LINE
  5
319
330
A
100
AcDbEntity
  8
Hawa2
 62
     9
 48
0.07955
100
AcDbLine
 10
102.88526
 20
138.786973
 30
0.0
 11
105.13526
 21
141.036973
 31
0.0
  0
LINE
  5
31A
330
A
100
AcDbEntity
  8
Hawa2
 62
     9
 48
0.07955
100
AcDbLine
 10
102.88526
 20
140.2011580000001
 30
0.0
 11
105.13526
 21
142.4511580000001
 31
0.0
  0
LINE
  5
31B
330
A
100
AcDbEntity
  8
Hawa2
 62
     9
 48
0.07955
100
AcDbLine
 10
102.88526
 20
141.6153430000002
 30
0.0
 11
105.13526
 21
143.8653430000002
 31
0.0
  0
LINE
  5
31C
330
A
100
AcDbEntity
  8
Hawa2
 62
     9
 48
0.058413
100
AcDbLine
 10
102.88526
 20
143.0295270000001
 30
0.0
 11
104.5374
 21
144.681749
 31
0.0
  0
LINE
  5
31D
330
A
100
AcDbEntity
  8
Hawa2
 62
     9
 48
0.07955
100
AcDbLine
 10
102.88526
 20
144.4438340000002
 30
0.0
 11
105.135262
 21
146.6938340000002
 31
0.0
  0
LINE
  5
31E
330
A
100
AcDbEntity
  8
Hawa2
 62
     9
 48
0.06858
100
AcDbLine
 10
102.885262
 20
145.8580180000001
 30
0.0
 11
104.825026
 21
147.797716
 31
0.0
  0
LINE
  5
31F
330
A
100
AcDbEntity
  8
Hawa2
 62
     9
 48
0.07955
100
AcDbLine
 10
102.885262
 20
147.272203
 30
0.0
 11
105.135262
 21
149.522203
 31
0.0
  0
LINE
  5
320
330
A
100
AcDbEntity
  8
Hawa2
 62
     9
 48
0.07951
100
AcDbLine
 10
102.885262
 20
148.6863880000001
 30
0.0
 11
105.134108
 21
150.935289
 31
0.0
  0
LINE
  5
321
330
A
100
AcDbEntity
  8
Hawa2
 62
     9
 48
0.039286
100
AcDbLine
 10
102.885262
 20
150.1005720000001
 30
0.0
 11
103.996415
 21
151.2117780000001
 31
0.0
  0
LINE
  5
322
330
A
100
AcDbEntity
  8
Hawa2
 62
     9
 48
0.040875
100
AcDbLine
 10
92.22916500000001
 20
135.20189
 30
0.0
 11
93.385262
 21
136.3580180000001
 31
0.0
  0
LINE
  5
323
330
A
100
AcDbEntity
  8
Hawa2
 62
     9
 48
0.090874
100
AcDbLine
 10
90.81495
 20
135.20189
 30
0.0
 11
93.385262
 21
137.772203
 31
0.0
  0
LINE
  5
324
330
A
100
AcDbEntity
  8
Hawa2
 62
     9
 48
0.140874
100
AcDbLine
 10
89.40073699999997
 20
135.20189
 30
0.0
 11
93.385262
 21
139.1863880000001
 31
0.0
  0
LINE
  5
325
330
A
100
AcDbEntity
  8
Hawa2
 62
     9
 48
0.106066
100
AcDbLine
 10
87.98652399999999
 20
135.20189
 30
0.0
 11
90.986524
 21
138.20189
 31
0.0
  0
LINE
  5
326
330
A
100
AcDbEntity
  8
Hawa2
 62
     9
 48
0.065407
100
AcDbLine
 10
91.53526199999999
 20
138.7505970000002
 30
0.0
 11
93.385262
 21
140.6005720000001
 31
0.0
  0
LINE
  5
327
330
A
100
AcDbEntity
  8
Hawa2
 62
     9
 48
0.098996
100
AcDbLine
 10
86.57231000000001
 20
135.20189
 30
0.0
 11
89.37231
 21
138.001939
 31
0.0
  0
LINE
  5
328
330
A
100
AcDbEntity
  8
Hawa2
 62
     9
 48
0.065409
100
AcDbLine
 10
91.53526199999999
 20
140.1647810000002
 30
0.0
 11
93.385262
 21
142.0148790000001
 31
0.0
  0
LINE
  5
329
330
A
100
AcDbEntity
  8
Hawa2
 62
     9
 48
0.098996
100
AcDbLine
 10
85.158097
 20
135.20189
 30
0.0
 11
87.95809699999999
 21
138.001939
 31
0.0
  0
LINE
  5
32A
330
A
100
AcDbEntity
  8
Hawa2
 62
     9
 48
0.072341
100
AcDbLine
 10
91.33916199999999
 20
141.3829210000001
 30
0.0
 11
93.385262
 21
143.429063
 31
0.0
  0
LINE
  5
32B
330
A
100
AcDbEntity
  8
Hawa2
 62
     9
 48
0.098996
100
AcDbLine
 10
83.74388299999999
 20
135.20189
 30
0.0
 11
86.54388299999999
 21
138.001939
 31
0.0
  0
LINE
  5
32C
330
A
100
AcDbEntity
  8
Hawa2
 62
     9
 48
0.109601
100
AcDbLine
 10
90.28526199999999
 20
141.7432720000002
 30
0.0
 11
93.385262
 21
144.8432480000001
 31
0.0
  0
LINE
  5
32D
330
A
100
AcDbEntity
  8
Hawa2
 62
     9
 48
0.098211
100
AcDbLine
 10
82.32966899999999
 20
135.20189
 30
0.0
 11
85.107466
 21
137.979722
 31
0.0
  0
LINE
  5
32E
330
A
100
AcDbEntity
  8
Hawa2
 62
     9
 48
0.109311
100
AcDbLine
 10
90.28526199999999
 20
143.157457
 30
0.0
 11
93.37703600000001
 21
146.2492540000001
 31
0.0
  0
LINE
  5
32F
330
A
100
AcDbEntity
  8
Hawa2
 62
     9
 48
0.098996
100
AcDbLine
 10
80.91545599999998
 20
135.20189
 30
0.0
 11
83.71545600000001
 21
138.001939
 31
0.0
  0
LINE
  5
330
330
A
100
AcDbEntity
  8
Hawa2
 62
     9
 48
0.062237
100
AcDbLine
 10
90.28526199999999
 20
144.571641
 30
0.0
 11
92.04555400000002
 21
146.3320170000002
 31
0.0
  0
LINE
  5
331
330
A
100
AcDbEntity
  8
Hawa2
 62
     9
 48
0.098996
100
AcDbLine
 10
79.50124199999997
 20
135.20189
 30
0.0
 11
82.301242
 21
138.001939
 31
0.0
  0
LINE
  5
332
330
A
100
AcDbEntity
  8
Hawa2
 62
     9
 48
0.044381
100
AcDbLine
 10
90.28526199999999
 20
145.985948
 30
0.0
 11
91.54056
 21
147.2411970000001
 31
0.0
  0
LINE
  5
333
330
A
100
AcDbEntity
  8
Hawa2
 62
     9
 48
0.031552
100
AcDbLine
 10
92.49285699999999
 20
148.1934680000002
 30
0.0
 11
93.385262
 21
149.085924
 31
0.0
  0
LINE
  5
334
330
A
100
AcDbEntity
  8
Hawa2
 62
     9
 48
0.098788
100
AcDbLine
 10
78.09294399999998
 20
135.20775
 30
0.0
 11
80.88702899999999
 21
138.001939
 31
0.0
  0
LINE
  5
335
330
A
100
AcDbEntity
  8
Hawa2
 62
     9
 48
0.109393
100
AcDbLine
 10
90.28526199999999
 20
147.4001330000001
 30
0.0
 11
93.37934699999999
 21
150.4942490000001
 31
0.0
  0
LINE
  5
336
330
A
100
AcDbEntity
  8
Hawa2
 62
     9
 48
0.080716
100
AcDbLine
 10
77.389797
 20
135.9189310000002
 30
0.0
 11
79.672815
 21
138.20189
 31
0.0
  0
LINE
  5
337
330
A
100
AcDbEntity
  8
Hawa2
 62
     9
 48
0.084253
100
AcDbLine
 10
90.28526199999999
 20
148.8143170000001
 30
0.0
 11
92.66828000000002
 21
151.1973740000001
 31
0.0
  0
LINE
  5
338
330
A
100
AcDbEntity
  8
Hawa2
 62
     9
 48
0.065407
100
AcDbLine
 10
77.38526199999999
 20
137.3285990000002
 30
0.0
 11
79.23526199999997
 21
139.1785750000001
 31
0.0
  0
LINE
  5
339
330
A
100
AcDbEntity
  8
Hawa2
 62
     9
 48
0.034414
100
AcDbLine
 10
90.28526199999999
 20
150.2285020000002
 30
0.0
 11
91.25860199999999
 21
151.20189
 31
0.0
  0
LINE
  5
33A
330
A
100
AcDbEntity
  8
Hawa2
 62
     9
 48
0.065407
100
AcDbLine
 10
77.38526199999999
 20
138.742784
 30
0.0
 11
79.23526199999997
 21
140.59276
 31
0.0
  0
LINE
  5
33B
330
A
100
AcDbEntity
  8
Hawa2
 62
     9
 48
0.015588
100
AcDbLine
 10
80.044388
 20
141.401842
 30
0.0
 11
80.48526199999997
 21
141.84276
 31
0.0
  0
LINE
  5
33C
330
A
100
AcDbEntity
  8
Hawa2
 62
     9
 48
0.109601
100
AcDbLine
 10
77.38526199999999
 20
140.1569690000001
 30
0.0
 11
80.48526199999997
 21
143.256944
 31
0.0
  0
LINE
  5
33D
330
A
100
AcDbEntity
  8
Hawa2
 62
     9
 48
0.109603
100
AcDbLine
 10
77.38526199999999
 20
141.5711530000001
 30
0.0
 11
80.48526199999997
 21
144.671251
 31
0.0
  0
LINE
  5
33E
330
A
100
AcDbEntity
  8
Hawa2
 62
     9
 48
0.109601
100
AcDbLine
 10
77.38526199999999
 20
142.9854600000001
 30
0.0
 11
80.48526199999997
 21
146.0854350000002
 31
0.0
  0
LINE
  5
33F
330
A
100
AcDbEntity
  8
Hawa2
 62
     9
 48
0.109601
100
AcDbLine
 10
77.38526199999999
 20
144.3996440000001
 30
0.0
 11
80.48526199999997
 21
147.49962
 31
0.0
  0
LINE
  5
340
330
A
100
AcDbEntity
  8
Hawa2
 62
     9
 48
0.016658
100
AcDbLine
 10
77.38526199999999
 20
145.8138290000002
 30
0.0
 11
77.856391
 21
146.28502
 31
0.0
  0
LINE
  5
341
330
A
100
AcDbEntity
  8
Hawa2
 62
     9
 48
0.047159
100
AcDbLine
 10
79.15140699999998
 20
147.5799420000001
 30
0.0
 11
80.48526199999997
 21
148.9138050000001
 31
0.0
  0
LINE
  5
342
330
A
100
AcDbEntity
  8
Hawa2
 62
     9
 48
0.075696
100
AcDbLine
 10
78.34422299999999
 20
148.1869980000001
 30
0.0
 11
80.48526199999997
 21
150.3279890000001
 31
0.0
  0
LINE
  5
343
330
A
100
AcDbEntity
  8
Hawa2
 62
     9
 48
0.089329
100
AcDbLine
 10
77.38526199999999
 20
148.642198
 30
0.0
 11
79.91185699999999
 21
151.168809
 31
0.0
  0
LINE
  5
344
330
A
100
AcDbEntity
  8
Hawa2
 62
     9
 48
0.040496
100
AcDbLine
 10
77.38526199999999
 20
150.056505
 30
0.0
 11
78.53068
 21
151.20189
 31
0.0
  0
LINE
  5
345
330
A
100
AcDbEntity
  8
Hawa5
  6
PHANTOM
 62
     1
 48
0.25
100
AcDbLine
 10
90.38526199999999
 20
197.20189
 30
0.0
 11
80.38526199999999
 21
197.20189
 31
0.0
  0
LINE
  5
346
330
A
100
AcDbEntity
  8
Hawa5
 62
     1
100
AcDbLine
 10
90.38526199999999
 20
173.3018900000002
 30
0.0
 11
90.38526199999999
 21
197.20189
 31
0.0
  0
LINE
  5
347
330
A
100
AcDbEntity
  8
Hawa5
 62
     1
 48
0.035355
100
AcDbLine
 10
89.385262
 20
172.3018900000002
 30
0.0
 11
90.38526199999999
 21
173.3018900000002
 31
0.0
  0
LINE
  5
348
330
A
100
AcDbEntity
  8
Hawa5
 62
     1
 48
0.2
100
AcDbLine
 10
81.38526199999999
 20
172.3018900000002
 30
0.0
 11
89.385262
 21
172.3018900000002
 31
0.0
  0
LINE
  5
349
330
A
100
AcDbEntity
  8
Hawa5
 62
     1
 48
0.035355
100
AcDbLine
 10
81.38526199999999
 20
172.3018900000002
 30
0.0
 11
80.38526199999999
 21
173.3018900000002
 31
0.0
  0
LINE
  5
34A
330
A
100
AcDbEntity
  8
Hawa5
 62
     1
100
AcDbLine
 10
80.38526199999999
 20
173.3018900000002
 30
0.0
 11
80.38526199999999
 21
197.20189
 31
0.0
  0
LINE
  5
34B
330
A
100
AcDbEntity
  8
Hawa5
  6
PHANTOM
 62
     1
 48
0.25
100
AcDbLine
 10
118.385262
 20
197.20189
 30
0.0
 11
108.385262
 21
197.20189
 31
0.0
  0
LINE
  5
34C
330
A
100
AcDbEntity
  8
Hawa5
 62
     1
100
AcDbLine
 10
118.385262
 20
145.70189
 30
0.0
 11
118.385262
 21
197.20189
 31
0.0
  0
LINE
  5
34D
330
A
100
AcDbEntity
  8
Hawa5
 62
     1
 48
0.035355
100
AcDbLine
 10
117.385262
 20
144.70189
 30
0.0
 11
118.385262
 21
145.70189
 31
0.0
  0
LINE
  5
34E
330
A
100
AcDbEntity
  8
Hawa5
 62
     1
 48
0.2
100
AcDbLine
 10
117.385262
 20
144.70189
 30
0.0
 11
109.385262
 21
144.70189
 31
0.0
  0
LINE
  5
34F
330
A
100
AcDbEntity
  8
Hawa5
 62
     1
 48
0.035355
100
AcDbLine
 10
109.385262
 20
144.70189
 30
0.0
 11
108.385262
 21
145.70189
 31
0.0
  0
LINE
  5
350
330
A
100
AcDbEntity
  8
Hawa5
 62
     1
100
AcDbLine
 10
108.385262
 20
145.70189
 30
0.0
 11
108.385262
 21
197.20189
 31
0.0
  0
LINE
  5
351
330
A
100
AcDbEntity
  8
Hawa5
 62
     1
 48
0.4345
100
AcDbLine
 10
77.38526199999999
 20
151.20189
 30
0.0
 11
60.00526199999999
 21
151.20189
 31
0.0
  0
LINE
  5
352
330
A
100
AcDbEntity
  8
Hawa5
 62
     1
 48
0.4
100
AcDbLine
 10
77.38526199999999
 20
151.20189
 30
0.0
 11
77.38526199999999
 21
135.20189
 31
0.0
  0
LINE
  5
353
330
A
100
AcDbEntity
  8
Hawa5
 62
     1
 48
0.14625
100
AcDbLine
 10
93.385262
 20
135.20189
 30
0.0
 11
87.53526200000001
 21
135.20189
 31
0.0
  0
LINE
  5
354
330
A
100
AcDbEntity
  8
Hawa5
 62
     1
 48
0.14625
100
AcDbLine
 10
83.23526199999998
 20
135.20189
 30
0.0
 11
77.38526199999999
 21
135.20189
 31
0.0
  0
LINE
  5
355
330
A
100
AcDbEntity
  8
Hawa5
 62
     1
 48
0.4
100
AcDbLine
 10
93.385262
 20
135.20189
 30
0.0
 11
93.385262
 21
151.20189
 31
0.0
  0
LINE
  5
356
330
A
100
AcDbEntity
  8
Hawa5
 62
     1
 48
0.2375
100
AcDbLine
 10
102.885262
 20
151.20189
 30
0.0
 11
93.385262
 21
151.20189
 31
0.0
  0
LINE
  5
357
330
A
100
AcDbEntity
  8
Hawa5
 62
     1
 48
0.35
100
AcDbLine
 10
102.885262
 20
151.20189
 30
0.0
 11
102.885262
 21
137.20189
 31
0.0
  0
LINE
  5
358
330
A
100
AcDbEntity
  8
Hawa5
 62
     1
 48
0.20125
100
AcDbLine
 10
102.885262
 20
137.20189
 30
0.0
 11
110.935262
 21
137.20189
 31
0.0
  0
LINE
  5
359
330
A
100
AcDbEntity
  8
Hawa5
 62
     1
 48
0.20125
100
AcDbLine
 10
115.835262
 20
137.20189
 30
0.0
 11
123.885262
 21
137.20189
 31
0.0
  0
LINE
  5
35A
330
A
100
AcDbEntity
  8
Hawa5
 62
     1
 48
0.35
100
AcDbLine
 10
123.885262
 20
137.20189
 30
0.0
 11
123.885262
 21
151.20189
 31
0.0
  0
LINE
  5
35B
330
A
100
AcDbEntity
  8
Hawa5
 62
     1
 48
0.403
100
AcDbLine
 10
140.005262
 20
151.20189
 30
0.0
 11
123.885262
 21
151.20189
 31
0.0
  0
ARC
  5
35C
330
A
100
AcDbEntity
  8
Hawa6
 62
     3
100
AcDbCircle
 10
105.735262
 20
143.126154
 30
0.0
 40
0.6
100
AcDbArc
 50
180.0
 51
0.0
  0
LINE
  5
35D
330
A
100
AcDbEntity
  8
Hawa6
 62
     3
 48
0.125
100
AcDbLine
 10
105.135262
 20
143.126154
 30
0.0
 11
105.135262
 21
148.126154
 31
0.0
  0
LINE
  5
35E
330
A
100
AcDbEntity
  8
Hawa6
 62
     3
 48
0.014142
100
AcDbLine
 10
104.735262
 20
148.5261540000001
 30
0.0
 11
105.135262
 21
148.126154
 31
0.0
  0
LINE
  5
35F
330
A
100
AcDbEntity
  8
Hawa6
 62
     3
 48
0.014142
100
AcDbLine
 10
105.135262
 20
148.926154
 30
0.0
 11
104.735262
 21
148.5261540000001
 31
0.0
  0
LINE
  5
360
330
A
100
AcDbEntity
  8
Hawa6
 62
     3
 48
0.05875
100
AcDbLine
 10
105.135262
 20
148.926154
 30
0.0
 11
105.135262
 21
151.2761540000001
 31
0.0
  0
ARC
  5
361
330
A
100
AcDbEntity
  8
Hawa6
 62
     3
100
AcDbCircle
 10
104.535262
 20
151.2761540000001
 30
0.0
 40
0.6
100
AcDbArc
 50
0.0
 51
118.6031659999941
  0
LINE
  5
362
330
A
100
AcDbEntity
  8
Hawa6
 62
     3
 48
0.031686
100
AcDbLine
 10
103.135262
 20
151.196154
 30
0.0
 11
104.248018
 21
151.8029280000001
 31
0.0
  0
LINE
  5
363
330
A
100
AcDbEntity
  8
Hawa6
 62
     3
 48
0.0075
100
AcDbLine
 10
103.135262
 20
151.196154
 30
0.0
 11
103.135262
 21
151.4961540000002
 31
0.0
  0
ARC
  5
364
330
A
100
AcDbEntity
  8
Hawa6
 62
     3
100
AcDbCircle
 10
104.635262
 20
151.4961540000002
 30
0.0
 40
1.5
100
AcDbArc
 50
139.3014679999991
 51
180.0
  0
ARC
  5
365
330
A
100
AcDbEntity
  8
Hawa6
 62
     3
100
AcDbCircle
 10
116.159158
 20
141.5845530000001
 30
0.0
 40
16.7
100
AcDbArc
 50
119.2193660000001
 51
139.3014679999998
  0
ARC
  5
366
330
A
100
AcDbEntity
  8
Hawa6
 62
     3
100
AcDbCircle
 10
108.129014
 20
155.9414080000001
 30
0.0
 40
0.25
100
AcDbArc
 50
314.6497739999829
 51
119.2193660000054
  0
ARC
  5
367
330
A
100
AcDbEntity
  8
Hawa6
 62
     3
100
AcDbCircle
 10
113.224106
 20
150.7836440000001
 30
0.0
 40
7.0
100
AcDbArc
 50
134.6497739999998
 51
169.7757400000005
  0
LINE
  5
368
330
A
100
AcDbEntity
  8
Hawa6
 62
     3
 48
0.072553
100
AcDbLine
 10
106.335262
 20
152.0261540000001
 30
0.0
 11
106.335262
 21
149.124018
 31
0.0
  0
LINE
  5
369
330
A
100
AcDbEntity
  8
Hawa6
 62
     3
 48
0.069956
100
AcDbLine
 10
106.335262
 20
149.124018
 30
0.0
 11
108.239125
 21
151.174718
 31
0.0
  0
LINE
  5
36A
330
A
100
AcDbEntity
  8
Hawa6
 62
     3
 48
0.0125
100
AcDbLine
 10
108.239125
 20
151.174718
 30
0.0
 11
108.374432
 21
150.6933740000002
 31
0.0
  0
LINE
  5
36B
330
A
100
AcDbEntity
  8
Hawa6
 62
     3
 48
0.092611
100
AcDbLine
 10
108.374432
 20
150.6933740000002
 30
0.0
 11
106.335262
 21
147.6007180000001
 31
0.0
  0
LINE
  5
36C
330
A
100
AcDbEntity
  8
Hawa6
 62
     3
 48
0.068158
100
AcDbLine
 10
106.335262
 20
147.6007180000001
 30
0.0
 11
106.335262
 21
144.8744000000002
 31
0.0
  0
LINE
  5
36D
330
A
100
AcDbEntity
  8
Hawa6
 62
     3
 48
0.060891
100
AcDbLine
 10
106.335262
 20
144.8744000000002
 30
0.0
 11
108.323486
 21
146.2813100000001
 31
0.0
  0
LINE
  5
36E
330
A
100
AcDbEntity
  8
Hawa6
 62
     3
 48
0.0125
100
AcDbLine
 10
108.323486
 20
146.2813100000001
 30
0.0
 11
108.382777
 21
145.7848379999999
 31
0.0
  0
LINE
  5
36F
330
A
100
AcDbEntity
  8
Hawa6
 62
     3
 48
0.076073
100
AcDbLine
 10
108.382777
 20
145.7848379999999
 30
0.0
 11
106.335262
 21
143.5338310000002
 31
0.0
  0
LINE
  5
370
330
A
100
AcDbEntity
  8
Hawa6
 62
     3
 48
0.010192
100
AcDbLine
 10
106.335262
 20
143.5338310000002
 30
0.0
 11
106.335262
 21
143.126154
 31
0.0
  0
LINE
  5
371
330
A
100
AcDbEntity
  8
Hawa4
 62
     4
 48
0.010607
100
AcDbLine
 10
110.665147
 20
139.70189
 30
0.0
 11
110.965147
 21
139.4018900000001
 31
0.0
  0
LINE
  5
372
330
A
100
AcDbEntity
  8
Hawa4
 62
     4
 48
0.09
100
AcDbLine
 10
109.235262
 20
139.70189
 30
0.0
 11
105.635262
 21
139.70189
 31
0.0
  0
LINE
  5
373
330
A
100
AcDbEntity
  8
Hawa4
 62
     4
 48
0.010607
100
AcDbLine
 10
110.965147
 20
139.4018900000001
 30
0.0
 11
111.265147
 21
139.70189
 31
0.0
  0
LINE
  5
374
330
A
100
AcDbEntity
  8
Hawa4
 62
     4
 48
0.010607
100
AcDbLine
 10
113.085262
 20
139.70189
 30
0.0
 11
113.385262
 21
139.4018900000001
 31
0.0
  0
LINE
  5
375
330
A
100
AcDbEntity
  8
Hawa4
 62
     4
 48
0.010607
100
AcDbLine
 10
113.385262
 20
139.4018900000001
 30
0.0
 11
113.685262
 21
139.70189
 31
0.0
  0
LINE
  5
376
330
A
100
AcDbEntity
  8
Hawa4
 62
     4
 48
0.006268
100
AcDbLine
 10
109.235262
 20
138.9018900000001
 30
0.0
 11
109.485985
 21
138.9018900000001
 31
0.0
  0
LINE
  5
377
330
A
100
AcDbEntity
  8
Hawa4
 62
     4
 48
0.02
100
AcDbLine
 10
109.235262
 20
139.70189
 30
0.0
 11
109.235262
 21
138.9018900000001
 31
0.0
  0
ARC
  5
378
330
A
100
AcDbEntity
  8
Hawa4
 62
     4
100
AcDbCircle
 10
105.635262
 20
140.20189
 30
0.0
 40
0.5
100
AcDbArc
 50
180.0
 51
270.0
  0
LINE
  5
379
330
A
100
AcDbEntity
  8
Hawa4
 62
     4
 48
0.09
100
AcDbLine
 10
121.135262
 20
139.70189
 30
0.0
 11
117.535262
 21
139.70189
 31
0.0
  0
LINE
  5
37A
330
A
100
AcDbEntity
  8
Hawa4
 62
     4
 48
0.006267
100
AcDbLine
 10
117.284595
 20
138.9018900000001
 30
0.0
 11
117.535262
 21
138.9018900000001
 31
0.0
  0
LINE
  5
37B
330
A
100
AcDbEntity
  8
Hawa4
 62
     4
 48
0.02
100
AcDbLine
 10
117.535262
 20
139.70189
 30
0.0
 11
117.535262
 21
138.9018900000001
 31
0.0
  0
LINE
  5
37C
330
A
100
AcDbEntity
  8
Hawa4
 62
     4
 48
0.060104
100
AcDbLine
 10
110.935262
 20
137.20189
 30
0.0
 11
109.235262
 21
138.9018900000001
 31
0.0
  0
ARC
  5
37D
330
A
100
AcDbEntity
  8
Hawa4
 62
     4
100
AcDbCircle
 10
121.135262
 20
140.20189
 30
0.0
 40
0.5
100
AcDbArc
 50
270.0
 51
0.0
  0
LINE
  5
37E
330
A
100
AcDbEntity
  8
Hawa4
 62
     4
 48
0.094394
100
AcDbLine
 10
121.635262
 20
140.20189
 30
0.0
 11
121.635262
 21
143.9776430000002
 31
0.0
  0
LINE
  5
37F
330
A
100
AcDbEntity
  8
Hawa4
 62
     4
 48
0.018107
100
AcDbLine
 10
122.147394
 20
144.489775
 30
0.0
 11
121.635262
 21
143.9776430000002
 31
0.0
  0
ARC
  5
380
330
A
100
AcDbEntity
  8
Hawa4
 62
     4
100
AcDbCircle
 10
121.935262
 20
144.7019070000001
 30
0.0
 40
0.3
100
AcDbArc
 50
314.9999999999885
 51
45.00000000001151
  0
LINE
  5
381
330
A
100
AcDbEntity
  8
Hawa4
 62
     4
 48
0.018107
100
AcDbLine
 10
121.635262
 20
145.4261710000001
 30
0.0
 11
122.147394
 21
144.914039
 31
0.0
  0
LINE
  5
382
330
A
100
AcDbEntity
  8
Hawa4
 62
     4
 48
0.051286
100
AcDbLine
 10
121.635262
 20
145.4261710000001
 30
0.0
 11
121.635262
 21
147.4776260000001
 31
0.0
  0
LINE
  5
383
330
A
100
AcDbEntity
  8
Hawa4
 62
     4
 48
0.018107
100
AcDbLine
 10
122.147394
 20
147.9897580000002
 30
0.0
 11
121.635262
 21
147.4776260000001
 31
0.0
  0
ARC
  5
384
330
A
100
AcDbEntity
  8
Hawa4
 62
     4
100
AcDbCircle
 10
121.935262
 20
148.20189
 30
0.0
 40
0.3
100
AcDbArc
 50
314.9999999999885
 51
45.00000000001151
  0
LINE
  5
385
330
A
100
AcDbEntity
  8
Hawa4
 62
     4
 48
0.018107
100
AcDbLine
 10
121.635262
 20
148.926154
 30
0.0
 11
122.147394
 21
148.4140220000002
 31
0.0
  0
LINE
  5
386
330
A
100
AcDbEntity
  8
Hawa4
 62
     4
 48
0.049393
100
AcDbLine
 10
121.635262
 20
148.926154
 30
0.0
 11
121.635262
 21
150.9018900000001
 31
0.0
  0
ARC
  5
387
330
A
100
AcDbEntity
  8
Hawa4
 62
     4
100
AcDbCircle
 10
121.935262
 20
150.9018900000001
 30
0.0
 40
0.3
100
AcDbArc
 50
90.0
 51
180.0
  0
LINE
  5
388
330
A
100
AcDbEntity
  8
Hawa4
 62
     4
 48
0.03625
100
AcDbLine
 10
123.385262
 20
151.20189
 30
0.0
 11
121.935262
 21
151.20189
 31
0.0
  0
ARC
  5
389
330
A
100
AcDbEntity
  8
Hawa4
 62
     4
100
AcDbCircle
 10
123.385262
 20
150.70189
 30
0.0
 40
0.5
100
AcDbArc
 50
0.0
 51
90.0
  0
LINE
  5
38A
330
A
100
AcDbEntity
  8
Hawa4
 62
     4
 48
0.325
100
AcDbLine
 10
123.885262
 20
150.70189
 30
0.0
 11
123.885262
 21
137.70189
 31
0.0
  0
ARC
  5
38B
330
A
100
AcDbEntity
  8
Hawa4
 62
     4
100
AcDbCircle
 10
123.385262
 20
137.70189
 30
0.0
 40
0.5
100
AcDbArc
 50
270.0
 51
0.0
  0
LINE
  5
38C
330
A
100
AcDbEntity
  8
Hawa4
 62
     4
 48
0.18875
100
AcDbLine
 10
110.935262
 20
137.20189
 30
0.0
 11
103.385262
 21
137.20189
 31
0.0
  0
LINE
  5
38D
330
A
100
AcDbEntity
  8
Hawa4
 62
     4
 48
0.18875
100
AcDbLine
 10
123.385262
 20
137.20189
 30
0.0
 11
115.835262
 21
137.20189
 31
0.0
  0
ARC
  5
38E
330
A
100
AcDbEntity
  8
Hawa4
 62
     4
100
AcDbCircle
 10
103.385262
 20
137.70189
 30
0.0
 40
0.5
100
AcDbArc
 50
180.0
 51
270.0
  0
LINE
  5
38F
330
A
100
AcDbEntity
  8
Hawa4
 62
     4
 48
0.325
100
AcDbLine
 10
102.885262
 20
150.70189
 30
0.0
 11
102.885262
 21
137.70189
 31
0.0
  0
ARC
  5
390
330
A
100
AcDbEntity
  8
Hawa4
 62
     4
100
AcDbCircle
 10
103.385262
 20
150.70189
 30
0.0
 40
0.5
100
AcDbArc
 50
90.0
 51
180.0
  0
LINE
  5
391
330
A
100
AcDbEntity
  8
Hawa4
 62
     4
 48
0.03625
100
AcDbLine
 10
104.835262
 20
151.20189
 30
0.0
 11
103.385262
 21
151.20189
 31
0.0
  0
ARC
  5
392
330
A
100
AcDbEntity
  8
Hawa4
 62
     4
100
AcDbCircle
 10
104.835262
 20
150.9018900000001
 30
0.0
 40
0.3
100
AcDbArc
 50
0.0
 51
90.0
  0
LINE
  5
393
330
A
100
AcDbEntity
  8
Hawa4
 62
     4
 48
0.049393
100
AcDbLine
 10
105.135262
 20
150.9018900000001
 30
0.0
 11
105.135262
 21
148.926154
 31
0.0
  0
LINE
  5
394
330
A
100
AcDbEntity
  8
Hawa4
 62
     4
 48
0.018107
100
AcDbLine
 10
105.135262
 20
148.926154
 30
0.0
 11
104.62313
 21
148.4140220000002
 31
0.0
  0
ARC
  5
395
330
A
100
AcDbEntity
  8
Hawa4
 62
     4
100
AcDbCircle
 10
104.835262
 20
148.20189
 30
0.0
 40
0.3
100
AcDbArc
 50
134.9999999999885
 51
225.0000000000115
  0
LINE
  5
396
330
A
100
AcDbEntity
  8
Hawa4
 62
     4
 48
0.018107
100
AcDbLine
 10
104.62313
 20
147.9897580000002
 30
0.0
 11
105.135262
 21
147.4776260000001
 31
0.0
  0
LINE
  5
397
330
A
100
AcDbEntity
  8
Hawa4
 62
     4
 48
0.051286
100
AcDbLine
 10
105.135262
 20
147.4776260000001
 30
0.0
 11
105.135262
 21
145.4261710000001
 31
0.0
  0
LINE
  5
398
330
A
100
AcDbEntity
  8
Hawa4
 62
     4
 48
0.018107
100
AcDbLine
 10
105.135262
 20
145.4261710000001
 30
0.0
 11
104.62313
 21
144.914039
 31
0.0
  0
ARC
  5
399
330
A
100
AcDbEntity
  8
Hawa4
 62
     4
100
AcDbCircle
 10
104.835262
 20
144.7019070000001
 30
0.0
 40
0.3
100
AcDbArc
 50
134.9999999999885
 51
225.0000000000115
  0
LINE
  5
39A
330
A
100
AcDbEntity
  8
Hawa4
 62
     4
 48
0.018107
100
AcDbLine
 10
104.62313
 20
144.489775
 30
0.0
 11
105.135262
 21
143.9776430000002
 31
0.0
  0
LINE
  5
39B
330
A
100
AcDbEntity
  8
Hawa4
 62
     4
 48
0.094394
100
AcDbLine
 10
105.135262
 20
143.9776430000002
 30
0.0
 11
105.135262
 21
140.20189
 31
0.0
  0
LINE
  5
39C
330
A
100
AcDbEntity
  8
Hawa4
 62
     4
 48
0.060104
100
AcDbLine
 10
115.835262
 20
137.20189
 30
0.0
 11
117.535262
 21
138.9018900000001
 31
0.0
  0
LINE
  5
39D
330
A
100
AcDbEntity
  8
Hawa5
 62
     1
 48
0.3
100
AcDbLine
 10
119.385262
 20
144.70189
 30
0.0
 11
107.385262
 21
144.70189
 31
0.0
  0
LINE
  5
39E
330
A
100
AcDbEntity
  8
Hawa5
 62
     1
 48
0.125
100
AcDbLine
 10
119.385262
 20
139.70189
 30
0.0
 11
119.385262
 21
144.70189
 31
0.0
  0
LINE
  5
39F
330
A
100
AcDbEntity
  8
Hawa5
 62
     1
 48
0.3
100
AcDbLine
 10
107.385262
 20
139.70189
 30
0.0
 11
119.385262
 21
139.70189
 31
0.0
  0
LINE
  5
3A0
330
A
100
AcDbEntity
  8
Hawa5
 62
     1
 48
0.125
100
AcDbLine
 10
107.385262
 20
144.70189
 30
0.0
 11
107.385262
 21
139.70189
 31
0.0
  0
LINE
  5
3A1
330
A
100
AcDbEntity
  8
Hawa6
 62
     3
 48
0.010192
100
AcDbLine
 10
120.435262
 20
143.5338310000002
 30
0.0
 11
120.435262
 21
143.126154
 31
0.0
  0
LINE
  5
3A2
330
A
100
AcDbEntity
  8
Hawa6
 62
     3
 48
0.076073
100
AcDbLine
 10
118.387747
 20
145.7848379999999
 30
0.0
 11
120.435262
 21
143.5338310000002
 31
0.0
  0
LINE
  5
3A3
330
A
100
AcDbEntity
  8
Hawa6
 62
     3
 48
0.0125
100
AcDbLine
 10
118.447038
 20
146.2813100000001
 30
0.0
 11
118.387747
 21
145.7848379999999
 31
0.0
  0
LINE
  5
3A4
330
A
100
AcDbEntity
  8
Hawa6
 62
     3
 48
0.060891
100
AcDbLine
 10
120.435262
 20
144.8744000000002
 30
0.0
 11
118.447038
 21
146.2813100000001
 31
0.0
  0
LINE
  5
3A5
330
A
100
AcDbEntity
  8
Hawa6
 62
     3
 48
0.068158
100
AcDbLine
 10
120.435262
 20
147.6007180000001
 30
0.0
 11
120.435262
 21
144.8744000000002
 31
0.0
  0
LINE
  5
3A6
330
A
100
AcDbEntity
  8
Hawa6
 62
     3
 48
0.092611
100
AcDbLine
 10
118.396092
 20
150.6933740000002
 30
0.0
 11
120.435262
 21
147.6007180000001
 31
0.0
  0
LINE
  5
3A7
330
A
100
AcDbEntity
  8
Hawa6
 62
     3
 48
0.0125
100
AcDbLine
 10
118.531399
 20
151.174718
 30
0.0
 11
118.396092
 21
150.6933740000002
 31
0.0
  0
LINE
  5
3A8
330
A
100
AcDbEntity
  8
Hawa6
 62
     3
 48
0.069956
100
AcDbLine
 10
120.435262
 20
149.124018
 30
0.0
 11
118.531399
 21
151.174718
 31
0.0
  0
LINE
  5
3A9
330
A
100
AcDbEntity
  8
Hawa6
 62
     3
 48
0.072553
100
AcDbLine
 10
120.435262
 20
152.0261540000001
 30
0.0
 11
120.435262
 21
149.124018
 31
0.0
  0
ARC
  5
3AA
330
A
100
AcDbEntity
  8
Hawa6
 62
     3
100
AcDbCircle
 10
113.546418
 20
150.7836440000001
 30
0.0
 40
7.0
100
AcDbArc
 50
10.22425999999949
 51
45.35022600000024
  0
ARC
  5
3AB
330
A
100
AcDbEntity
  8
Hawa6
 62
     3
100
AcDbCircle
 10
118.64151
 20
155.9414080000001
 30
0.0
 40
0.25
100
AcDbArc
 50
60.78063399999462
 51
225.3502260000172
  0
ARC
  5
3AC
330
A
100
AcDbEntity
  8
Hawa6
 62
     3
100
AcDbCircle
 10
110.611366
 20
141.5845530000001
 30
0.0
 40
16.7
100
AcDbArc
 50
40.69853200000015
 51
60.7806339999999
  0
ARC
  5
3AD
330
A
100
AcDbEntity
  8
Hawa6
 62
     3
100
AcDbCircle
 10
122.135262
 20
151.4961540000002
 30
0.0
 40
1.5
100
AcDbArc
 50
0.0
 51
40.69853200000092
  0
LINE
  5
3AE
330
A
100
AcDbEntity
  8
Hawa6
 62
     3
 48
0.0075
100
AcDbLine
 10
123.635262
 20
151.196154
 30
0.0
 11
123.635262
 21
151.4961540000002
 31
0.0
  0
LINE
  5
3AF
330
A
100
AcDbEntity
  8
Hawa6
 62
     3
 48
0.031686
100
AcDbLine
 10
123.635262
 20
151.196154
 30
0.0
 11
122.522506
 21
151.8029280000001
 31
0.0
  0
ARC
  5
3B0
330
A
100
AcDbEntity
  8
Hawa6
 62
     3
100
AcDbCircle
 10
122.235262
 20
151.2761540000001
 30
0.0
 40
0.6
100
AcDbArc
 50
61.39683400000592
 51
180.0
  0
LINE
  5
3B1
330
A
100
AcDbEntity
  8
Hawa6
 62
     3
 48
0.05875
100
AcDbLine
 10
121.635262
 20
148.926154
 30
0.0
 11
121.635262
 21
151.2761540000001
 31
0.0
  0
LINE
  5
3B2
330
A
100
AcDbEntity
  8
Hawa6
 62
     3
 48
0.014142
100
AcDbLine
 10
121.635262
 20
148.926154
 30
0.0
 11
122.035262
 21
148.5261540000001
 31
0.0
  0
LINE
  5
3B3
330
A
100
AcDbEntity
  8
Hawa6
 62
     3
 48
0.014142
100
AcDbLine
 10
122.035262
 20
148.5261540000001
 30
0.0
 11
121.635262
 21
148.126154
 31
0.0
  0
LINE
  5
3B4
330
A
100
AcDbEntity
  8
Hawa6
 62
     3
 48
0.125
100
AcDbLine
 10
121.635262
 20
143.126154
 30
0.0
 11
121.635262
 21
148.126154
 31
0.0
  0
ARC
  5
3B5
330
A
100
AcDbEntity
  8
Hawa6
 62
     3
100
AcDbCircle
 10
121.035262
 20
143.126154
 30
0.0
 40
0.6
100
AcDbArc
 50
180.0
 51
0.0
  0
LINE
  5
3B6
330
A
100
AcDbEntity
  8
Hawa4
 62
     4
 48
0.010607
100
AcDbLine
 10
85.38526199999999
 20
137.70189
 30
0.0
 11
85.085262
 21
138.00189
 31
0.0
  0
LINE
  5
3B7
330
A
100
AcDbEntity
  8
Hawa4
 62
     4
 48
0.006252
100
AcDbLine
 10
89.285201
 20
137.20189
 30
0.0
 11
89.535262
 21
137.20189
 31
0.0
  0
LINE
  5
3B8
330
A
100
AcDbEntity
  8
Hawa4
 62
     4
 48
0.083549
100
AcDbLine
 10
85.085262
 20
138.00189
 30
0.0
 11
81.74329399999997
 21
138.00189
 31
0.0
  0
LINE
  5
3B9
330
A
100
AcDbEntity
  8
Hawa4
 62
     4
 48
0.010607
100
AcDbLine
 10
85.38526199999999
 20
137.70189
 30
0.0
 11
85.68526199999999
 21
138.00189
 31
0.0
  0
LINE
  5
3BA
330
A
100
AcDbEntity
  8
Hawa4
 62
     4
 48
0.09625
100
AcDbLine
 10
89.535262
 20
138.00189
 30
0.0
 11
85.68526199999999
 21
138.00189
 31
0.0
  0
LINE
  5
3BB
330
A
100
AcDbEntity
  8
Hawa4
 62
     4
 48
0.02
100
AcDbLine
 10
89.535262
 20
138.00189
 30
0.0
 11
89.535262
 21
137.20189
 31
0.0
  0
LINE
  5
3BC
330
A
100
AcDbEntity
  8
Hawa4
 62
     4
 48
0.012701
100
AcDbLine
 10
81.74329399999997
 20
138.00189
 30
0.0
 11
81.23526199999998
 21
138.00189
 31
0.0
  0
LINE
  5
3BD
330
A
100
AcDbEntity
  8
Hawa4
 62
     4
 48
0.02125
100
AcDbLine
 10
80.38526199999999
 20
138.00189
 30
0.0
 11
81.23526199999998
 21
138.00189
 31
0.0
  0
LINE
  5
3BE
330
A
100
AcDbEntity
  8
Hawa4
 62
     4
 48
0.070711
100
AcDbLine
 10
87.53526200000001
 20
135.20189
 30
0.0
 11
89.535262
 21
137.20189
 31
0.0
  0
LINE
  5
3BF
330
A
100
AcDbEntity
  8
Hawa4
 62
     4
 48
0.006269
100
AcDbLine
 10
81.23526199999998
 20
137.20189
 30
0.0
 11
81.486014
 21
137.20189
 31
0.0
  0
LINE
  5
3C0
330
A
100
AcDbEntity
  8
Hawa4
 62
     4
 48
0.02
100
AcDbLine
 10
81.23526199999998
 20
138.00189
 30
0.0
 11
81.23526199999998
 21
137.20189
 31
0.0
  0
LINE
  5
3C1
330
A
100
AcDbEntity
  8
Hawa4
 62
     4
 48
0.02125
100
AcDbLine
 10
89.535262
 20
138.00189
 30
0.0
 11
90.38526199999999
 21
138.00189
 31
0.0
  0
LINE
  5
3C2
330
A
100
AcDbEntity
  8
Hawa4
 62
     4
 48
0.005
100
AcDbLine
 10
80.38526199999999
 20
138.20189
 30
0.0
 11
80.38526199999999
 21
138.00189
 31
0.0
  0
LINE
  5
3C3
330
A
100
AcDbEntity
  8
Hawa4
 62
     4
 48
0.12625
100
AcDbLine
 10
92.585262
 20
135.20189
 30
0.0
 11
87.53526200000001
 21
135.20189
 31
0.0
  0
LINE
  5
3C4
330
A
100
AcDbEntity
  8
Hawa4
 62
     4
 48
0.12625
100
AcDbLine
 10
83.23526199999998
 20
135.20189
 30
0.0
 11
78.18526199999999
 21
135.20189
 31
0.0
  0
LINE
  5
3C5
330
A
100
AcDbEntity
  8
Hawa4
 62
     4
 48
0.070711
100
AcDbLine
 10
81.23526199999998
 20
137.20189
 30
0.0
 11
83.23526199999998
 21
135.20189
 31
0.0
  0
LINE
  5
3C6
330
A
100
AcDbEntity
  8
Hawa4
 62
     4
 48
0.005
100
AcDbLine
 10
90.38526199999999
 20
138.20189
 30
0.0
 11
90.38526199999999
 21
138.00189
 31
0.0
  0
ARC
  5
3C7
330
A
100
AcDbEntity
  8
Hawa4
 62
     4
100
AcDbCircle
 10
78.18526199999999
 20
136.00189
 30
0.0
 40
0.8
100
AcDbArc
 50
180.0
 51
270.0
  0
LINE
  5
3C8
330
A
100
AcDbEntity
  8
Hawa4
 62
     4
 48
0.254782
100
AcDbLine
 10
77.38526199999999
 20
136.00189
 30
0.0
 11
77.38526199999999
 21
146.193178
 31
0.0
  0
ARC
  5
3C9
330
A
100
AcDbEntity
  8
Hawa4
 62
     4
100
AcDbCircle
 10
77.585262
 20
146.193178
 30
0.0
 40
0.2
100
AcDbArc
 50
57.20283199998909
 51
180.0
  0
ARC
  5
3CA
330
A
100
AcDbEntity
  8
Hawa4
 62
     4
100
AcDbCircle
 10
78.23526199999998
 20
147.20189
 30
0.0
 40
1.0
100
AcDbArc
 50
237.2028320000039
 51
122.7971679999961
  0
ARC
  5
3CB
330
A
100
AcDbEntity
  8
Hawa4
 62
     4
100
AcDbCircle
 10
77.585262
 20
148.2106020000001
 30
0.0
 40
0.2
100
AcDbArc
 50
180.0
 51
302.7971680000109
  0
LINE
  5
3CC
330
A
100
AcDbEntity
  8
Hawa4
 62
     4
 48
0.054782
100
AcDbLine
 10
77.38526199999999
 20
148.2106020000001
 30
0.0
 11
77.38526199999999
 21
150.4018900000001
 31
0.0
  0
ARC
  5
3CD
330
A
100
AcDbEntity
  8
Hawa4
 62
     4
100
AcDbCircle
 10
78.18526199999999
 20
150.4018900000001
 30
0.0
 40
0.8
100
AcDbArc
 50
90.0
 51
180.0
  0
LINE
  5
3CE
330
A
100
AcDbEntity
  8
Hawa4
 62
     4
 48
0.0375
100
AcDbLine
 10
78.18526199999999
 20
151.20189
 30
0.0
 11
79.68526199999999
 21
151.20189
 31
0.0
  0
ARC
  5
3CF
330
A
100
AcDbEntity
  8
Hawa4
 62
     4
100
AcDbCircle
 10
79.68526199999999
 20
150.4018900000001
 30
0.0
 40
0.8
100
AcDbArc
 50
35.6596439999984
 51
90.0
  0
ARC
  5
3D0
330
A
100
AcDbEntity
  8
Hawa4
 62
     4
100
AcDbCircle
 10
80.185262
 20
141.70189
 30
0.0
 40
0.3
100
AcDbArc
 50
270.0
 51
320.4664009999977
  0
LINE
  5
3D1
330
A
100
AcDbEntity
  8
Hawa4
 62
     4
 48
0.01625
100
AcDbLine
 10
80.185262
 20
141.4018900000001
 30
0.0
 11
79.535262
 21
141.4018900000001
 31
0.0
  0
ARC
  5
3D2
330
A
100
AcDbEntity
  8
Hawa4
 62
     4
100
AcDbCircle
 10
79.535262
 20
141.1018900000001
 30
0.0
 40
0.3
100
AcDbArc
 50
90.0
 51
180.0
  0
LINE
  5
3D3
330
A
100
AcDbEntity
  8
Hawa4
 62
     4
 48
0.065
100
AcDbLine
 10
79.23526199999997
 20
141.1018900000001
 30
0.0
 11
79.23526199999997
 21
138.50189
 31
0.0
  0
ARC
  5
3D4
330
A
100
AcDbEntity
  8
Hawa4
 62
     4
100
AcDbCircle
 10
79.535262
 20
138.50189
 30
0.0
 40
0.3
100
AcDbArc
 50
180.0
 51
270.0
  0
LINE
  5
3D5
330
A
100
AcDbEntity
  8
Hawa4
 62
     4
 48
0.02125
100
AcDbLine
 10
79.535262
 20
138.20189
 30
0.0
 11
80.38526199999999
 21
138.20189
 31
0.0
  0
LINE
  5
3D6
330
A
100
AcDbEntity
  8
Hawa4
 62
     4
 48
0.02125
100
AcDbLine
 10
90.38526199999999
 20
138.20189
 30
0.0
 11
91.235262
 21
138.20189
 31
0.0
  0
ARC
  5
3D7
330
A
100
AcDbEntity
  8
Hawa4
 62
     4
100
AcDbCircle
 10
91.235262
 20
138.50189
 30
0.0
 40
0.3
100
AcDbArc
 50
270.0
 51
0.0
  0
LINE
  5
3D8
330
A
100
AcDbEntity
  8
Hawa4
 62
     4
 48
0.065
100
AcDbLine
 10
91.53526199999999
 20
141.1018900000001
 30
0.0
 11
91.53526199999999
 21
138.50189
 31
0.0
  0
ARC
  5
3D9
330
A
100
AcDbEntity
  8
Hawa4
 62
     4
100
AcDbCircle
 10
91.235262
 20
141.1018900000001
 30
0.0
 40
0.3
100
AcDbArc
 50
0.0
 51
90.0
  0
LINE
  5
3DA
330
A
100
AcDbEntity
  8
Hawa4
 62
     4
 48
0.01625
100
AcDbLine
 10
91.235262
 20
141.4018900000001
 30
0.0
 11
90.58526200000001
 21
141.4018900000001
 31
0.0
  0
ARC
  5
3DB
330
A
100
AcDbEntity
  8
Hawa4
 62
     4
100
AcDbCircle
 10
90.58526200000001
 20
141.70189
 30
0.0
 40
0.3
100
AcDbArc
 50
219.5319990000005
 51
270.0
  0
ARC
  5
3DC
330
A
100
AcDbEntity
  8
Hawa4
 62
     4
100
AcDbCircle
 10
91.085262
 20
150.4018900000001
 30
0.0
 40
0.8
100
AcDbArc
 50
90.0
 51
144.3414699999946
  0
LINE
  5
3DD
330
A
100
AcDbEntity
  8
Hawa4
 62
     4
 48
0.0375
100
AcDbLine
 10
91.085262
 20
151.20189
 30
0.0
 11
92.585262
 21
151.20189
 31
0.0
  0
ARC
  5
3DE
330
A
100
AcDbEntity
  8
Hawa4
 62
     4
100
AcDbCircle
 10
92.585262
 20
150.4018900000001
 30
0.0
 40
0.8
100
AcDbArc
 50
0.0
 51
90.0
  0
LINE
  5
3DF
330
A
100
AcDbEntity
  8
Hawa4
 62
     4
 48
0.054782
100
AcDbLine
 10
93.385262
 20
148.2106020000001
 30
0.0
 11
93.385262
 21
150.4018900000001
 31
0.0
  0
ARC
  5
3E0
330
A
100
AcDbEntity
  8
Hawa4
 62
     4
100
AcDbCircle
 10
93.18526199999999
 20
148.2106020000001
 30
0.0
 40
0.2
100
AcDbArc
 50
237.2028319999891
 51
0.0
  0
ARC
  5
3E1
330
A
100
AcDbEntity
  8
Hawa4
 62
     4
100
AcDbCircle
 10
92.53526200000001
 20
147.20189
 30
0.0
 40
1.0
100
AcDbArc
 50
57.20283200000321
 51
302.7971679999968
  0
ARC
  5
3E2
330
A
100
AcDbEntity
  8
Hawa4
 62
     4
100
AcDbCircle
 10
93.18526199999999
 20
146.193178
 30
0.0
 40
0.2
100
AcDbArc
 50
0.0
 51
122.7971680000109
  0
LINE
  5
3E3
330
A
100
AcDbEntity
  8
Hawa4
 62
     4
 48
0.254782
100
AcDbLine
 10
93.385262
 20
136.00189
 30
0.0
 11
93.385262
 21
146.193178
 31
0.0
  0
ARC
  5
3E4
330
A
100
AcDbEntity
  8
Hawa4
 62
     4
100
AcDbCircle
 10
92.585262
 20
136.00189
 30
0.0
 40
0.8
100
AcDbArc
 50
270.0
 51
0.0
  0
LINE
  5
3E5
330
A
100
AcDbEntity
  8
Hawa6
 62
     3
100
AcDbLine
 10
75.38526199999999
 20
162.20189
 30
0.0
 11
75.38526199999999
 21
183.8018900000001
 31
0.0
  0
ARC
  5
3E6
330
A
100
AcDbEntity
  8
Hawa6
 62
     3
100
AcDbCircle
 10
75.885262
 20
183.8018900000001
 30
0.0
 40
0.5
100
AcDbArc
 50
90.0
 51
180.0
  0
LINE
  5
3E7
330
A
100
AcDbEntity
  8
Hawa6
 62
     3
 48
0.03
100
AcDbLine
 10
77.085262
 20
184.3018900000002
 30
0.0
 11
75.885262
 21
184.3018900000002
 31
0.0
  0
ARC
  5
3E8
330
A
100
AcDbEntity
  8
Hawa6
 62
     3
100
AcDbCircle
 10
77.085262
 20
184.00189
 30
0.0
 40
0.3
100
AcDbArc
 50
0.0
 51
90.0
  0
LINE
  5
3E9
330
A
100
AcDbEntity
  8
Hawa6
 62
     3
 48
0.31
100
AcDbLine
 10
77.38526199999999
 20
184.00189
 30
0.0
 11
77.38526199999999
 21
171.60189
 31
0.0
  0
ARC
  5
3EA
330
A
100
AcDbEntity
  8
Hawa6
 62
     3
100
AcDbCircle
 10
77.685262
 20
171.60189
 30
0.0
 40
0.3
100
AcDbArc
 50
180.0
 51
270.0
  0
LINE
  5
3EB
330
A
100
AcDbEntity
  8
Hawa6
 62
     3
 48
0.1925
100
AcDbLine
 10
85.38526199999999
 20
171.3018900000002
 30
0.0
 11
77.685262
 21
171.3018900000002
 31
0.0
  0
LINE
  5
3EC
330
A
100
AcDbEntity
  8
Hawa6
 62
     3
 48
0.1925
100
AcDbLine
 10
93.08526200000001
 20
171.3018900000002
 30
0.0
 11
85.38526199999999
 21
171.3018900000002
 31
0.0
  0
ARC
  5
3ED
330
A
100
AcDbEntity
  8
Hawa6
 62
     3
100
AcDbCircle
 10
93.08526200000001
 20
171.60189
 30
0.0
 40
0.3
100
AcDbArc
 50
270.0
 51
0.0
  0
LINE
  5
3EE
330
A
100
AcDbEntity
  8
Hawa6
 62
     3
 48
0.31
100
AcDbLine
 10
93.385262
 20
184.00189
 30
0.0
 11
93.385262
 21
171.60189
 31
0.0
  0
ARC
  5
3EF
330
A
100
AcDbEntity
  8
Hawa6
 62
     3
100
AcDbCircle
 10
93.68526199999999
 20
184.00189
 30
0.0
 40
0.3
100
AcDbArc
 50
90.0
 51
180.0
  0
LINE
  5
3F0
330
A
100
AcDbEntity
  8
Hawa6
 62
     3
 48
0.03
100
AcDbLine
 10
94.885262
 20
184.3018900000002
 30
0.0
 11
93.68526199999999
 21
184.3018900000002
 31
0.0
  0
ARC
  5
3F1
330
A
100
AcDbEntity
  8
Hawa6
 62
     3
100
AcDbCircle
 10
94.885262
 20
183.8018900000001
 30
0.0
 40
0.5
100
AcDbArc
 50
0.0
 51
90.0
  0
LINE
  5
3F2
330
A
100
AcDbEntity
  8
Hawa6
 62
     3
100
AcDbLine
 10
95.38526199999999
 20
162.20189
 30
0.0
 11
95.38526199999999
 21
183.8018900000001
 31
0.0
  0
ARC
  5
3F3
330
A
100
AcDbEntity
  8
Hawa6
 62
     3
100
AcDbCircle
 10
94.385262
 20
162.20189
 30
0.0
 40
1.0
100
AcDbArc
 50
270.0
 51
0.0
  0
LINE
  5
3F4
330
A
100
AcDbEntity
  8
Hawa6
 62
     3
 48
0.09
100
AcDbLine
 10
94.385262
 20
161.20189
 30
0.0
 11
90.785262
 21
161.20189
 31
0.0
  0
ARC
  5
3F5
330
A
100
AcDbEntity
  8
Hawa6
 62
     3
100
AcDbCircle
 10
90.785262
 20
161.50189
 30
0.0
 40
0.3
100
AcDbArc
 50
180.0
 51
270.0
  0
LINE
  5
3F6
330
A
100
AcDbEntity
  8
Hawa6
 62
     3
 48
0.0475
100
AcDbLine
 10
90.48526200000001
 20
161.50189
 30
0.0
 11
90.48526200000001
 21
163.4018900000001
 31
0.0
  0
ARC
  5
3F7
330
A
100
AcDbEntity
  8
Hawa6
 62
     3
100
AcDbCircle
 10
90.785262
 20
163.4018900000001
 30
0.0
 40
0.3
100
AcDbArc
 50
90.0
 51
180.0
  0
LINE
  5
3F8
330
A
100
AcDbEntity
  8
Hawa6
 62
     3
 48
0.0325
100
AcDbLine
 10
90.785262
 20
163.70189
 30
0.0
 11
92.08526199999999
 21
163.70189
 31
0.0
  0
ARC
  5
3F9
330
A
100
AcDbEntity
  8
Hawa6
 62
     3
100
AcDbCircle
 10
92.08526199999999
 20
164.00189
 30
0.0
 40
0.3
100
AcDbArc
 50
270.0
 51
0.0
  0
LINE
  5
3FA
330
A
100
AcDbEntity
  8
Hawa6
 62
     3
 48
0.1
100
AcDbLine
 10
92.385262
 20
164.00189
 30
0.0
 11
92.385262
 21
168.00189
 31
0.0
  0
ARC
  5
3FB
330
A
100
AcDbEntity
  8
Hawa6
 62
     3
100
AcDbCircle
 10
92.08526199999999
 20
168.00189
 30
0.0
 40
0.3
100
AcDbArc
 50
0.0
 51
90.0
  0
LINE
  5
3FC
330
A
100
AcDbEntity
  8
Hawa6
 62
     3
 48
0.1675
100
AcDbLine
 10
85.38526199999999
 20
168.3018900000002
 30
0.0
 11
92.08526199999999
 21
168.3018900000002
 31
0.0
  0
LINE
  5
3FD
330
A
100
AcDbEntity
  8
Hawa6
 62
     3
 48
0.1675
100
AcDbLine
 10
78.68526199999999
 20
168.3018900000002
 30
0.0
 11
85.38526199999999
 21
168.3018900000002
 31
0.0
  0
ARC
  5
3FE
330
A
100
AcDbEntity
  8
Hawa6
 62
     3
100
AcDbCircle
 10
78.68526199999999
 20
168.00189
 30
0.0
 40
0.3
100
AcDbArc
 50
90.0
 51
180.0
  0
LINE
  5
3FF
330
A
100
AcDbEntity
  8
Hawa6
 62
     3
 48
0.1
100
AcDbLine
 10
78.385262
 20
168.00189
 30
0.0
 11
78.385262
 21
164.00189
 31
0.0
  0
ARC
  5
400
330
A
100
AcDbEntity
  8
Hawa6
 62
     3
100
AcDbCircle
 10
78.68526199999999
 20
164.00189
 30
0.0
 40
0.3
100
AcDbArc
 50
180.0
 51
270.0
  0
LINE
  5
401
330
A
100
AcDbEntity
  8
Hawa6
 62
     3
 48
0.0325
100
AcDbLine
 10
78.68526199999999
 20
163.70189
 30
0.0
 11
79.98526199999997
 21
163.70189
 31
0.0
  0
ARC
  5
402
330
A
100
AcDbEntity
  8
Hawa6
 62
     3
100
AcDbCircle
 10
79.98526199999997
 20
163.4018900000001
 30
0.0
 40
0.3
100
AcDbArc
 50
0.0
 51
90.0
  0
LINE
  5
403
330
A
100
AcDbEntity
  8
Hawa6
 62
     3
 48
0.0475
100
AcDbLine
 10
80.28526199999999
 20
163.4018900000001
 30
0.0
 11
80.28526199999999
 21
161.50189
 31
0.0
  0
ARC
  5
404
330
A
100
AcDbEntity
  8
Hawa6
 62
     3
100
AcDbCircle
 10
79.98526199999997
 20
161.50189
 30
0.0
 40
0.3
100
AcDbArc
 50
270.0
 51
0.0
  0
LINE
  5
405
330
A
100
AcDbEntity
  8
Hawa6
 62
     3
 48
0.09
100
AcDbLine
 10
79.98526199999997
 20
161.20189
 30
0.0
 11
76.385262
 21
161.20189
 31
0.0
  0
ARC
  5
406
330
A
100
AcDbEntity
  8
Hawa6
 62
     3
100
AcDbCircle
 10
76.385262
 20
162.20189
 30
0.0
 40
1.0
100
AcDbArc
 50
180.0
 51
270.0
  0
LINE
  5
407
330
A
100
AcDbEntity
  8
Hawa6
 62
     3
 48
0.1
100
AcDbLine
 10
80.48526199999997
 20
163.70189
 30
0.0
 11
80.48526199999997
 21
159.70189
 31
0.0
  0
LINE
  5
408
330
A
100
AcDbEntity
  8
Hawa6
 62
     3
 48
0.045
100
AcDbLine
 10
78.68526199999999
 20
163.70189
 30
0.0
 11
80.48526199999997
 21
163.70189
 31
0.0
  0
LINE
  5
409
330
A
100
AcDbEntity
  8
Hawa6
 62
     3
 48
0.105
100
AcDbLine
 10
78.68526199999999
 20
167.9018900000001
 30
0.0
 11
78.68526199999999
 21
163.70189
 31
0.0
  0
LINE
  5
40A
330
A
100
AcDbEntity
  8
Hawa6
 62
     3
 48
0.105
100
AcDbLine
 10
92.08526199999999
 20
167.9018900000001
 30
0.0
 11
87.88526199999999
 21
167.9018900000001
 31
0.0
  0
LINE
  5
40B
330
A
100
AcDbEntity
  8
Hawa6
 62
     3
 48
0.090929
100
AcDbLine
 10
87.843762
 20
167.9018900000001
 30
0.0
 11
84.20659399999999
 21
167.9018900000001
 31
0.0
  0
LINE
  5
40C
330
A
100
AcDbEntity
  8
Hawa6
 62
     3
 48
0.031996
100
AcDbLine
 10
84.20659399999999
 20
167.9018900000001
 30
0.0
 11
82.926762
 21
167.9018900000001
 31
0.0
  0
LINE
  5
40D
330
A
100
AcDbEntity
  8
Hawa6
 62
     3
 48
0.106038
100
AcDbLine
 10
82.926762
 20
167.9018900000001
 30
0.0
 11
78.68526199999999
 21
167.9018900000001
 31
0.0
  0
LINE
  5
40E
330
A
100
AcDbEntity
  8
Hawa6
 62
     3
 48
0.112499
100
AcDbLine
 10
80.38524
 20
184.3018900000002
 30
0.0
 11
75.885262
 21
184.3018900000002
 31
0.0
  0
LINE
  5
40F
330
A
100
AcDbEntity
  8
Hawa6
 62
     3
 48
0.112501
100
AcDbLine
 10
94.885262
 20
184.3018900000002
 30
0.0
 11
90.38524
 21
184.3018900000002
 31
0.0
  0
LINE
  5
410
330
A
100
AcDbEntity
  8
Hawa6
 62
     3
 48
0.012405
100
AcDbLine
 10
79.989048
 20
161.20189
 30
0.0
 11
80.48526199999997
 21
161.20189
 31
0.0
  0
LINE
  5
411
330
A
100
AcDbEntity
  8
Hawa6
 62
     3
 48
0.012404
100
AcDbLine
 10
90.28526199999999
 20
161.20189
 30
0.0
 11
90.78143100000001
 21
161.20189
 31
0.0
  0
LINE
  5
412
330
A
100
AcDbEntity
  8
Hawa6
 62
     3
 48
0.035
100
AcDbLine
 10
80.48526199999997
 20
159.70189
 30
0.0
 11
81.885262
 21
159.70189
 31
0.0
  0
LINE
  5
413
330
A
100
AcDbEntity
  8
Hawa6
 62
     3
 48
0.0125
100
AcDbLine
 10
81.885262
 20
159.70189
 30
0.0
 11
82.385263
 21
159.70189
 31
0.0
  0
LINE
  5
414
330
A
100
AcDbEntity
  8
Hawa6
 62
     3
 48
0.012501
100
AcDbLine
 10
88.385241
 20
159.70189
 30
0.0
 11
88.88526199999999
 21
159.70189
 31
0.0
  0
LINE
  5
415
330
A
100
AcDbEntity
  8
Hawa6
 62
     3
 48
0.035
100
AcDbLine
 10
88.88526199999999
 20
159.70189
 30
0.0
 11
90.28526199999999
 21
159.70189
 31
0.0
  0
LINE
  5
416
330
A
100
AcDbEntity
  8
Hawa6
 62
     3
 48
0.105
100
AcDbLine
 10
92.08526199999999
 20
163.70189
 30
0.0
 11
92.08526199999999
 21
167.9018900000001
 31
0.0
  0
LINE
  5
417
330
A
100
AcDbEntity
  8
Hawa6
 62
     3
 48
0.1
100
AcDbLine
 10
90.28526199999999
 20
159.70189
 30
0.0
 11
90.28526199999999
 21
163.70189
 31
0.0
  0
ARC
  5
418
330
A
100
AcDbEntity
  8
Hawa6
 62
     3
100
AcDbCircle
 10
94.385262
 20
162.20189
 30
0.0
 40
1.0
100
AcDbArc
 50
299.9999999999973
 51
0.0
  0
LINE
  5
419
330
A
100
AcDbEntity
  8
Hawa6
 62
     3
 48
0.05
100
AcDbLine
 10
88.88526199999999
 20
159.70189
 30
0.0
 11
88.88526199999999
 21
161.70189
 31
0.0
  0
LINE
  5
41A
330
A
100
AcDbEntity
  8
Hawa6
 62
     3
 48
0.05
100
AcDbLine
 10
81.885262
 20
159.70189
 30
0.0
 11
81.885262
 21
161.70189
 31
0.0
  0
LINE
  5
41B
330
A
100
AcDbEntity
  8
Hawa6
 62
     3
 48
0.045
100
AcDbLine
 10
90.28526199999999
 20
163.70189
 30
0.0
 11
92.08526199999999
 21
163.70189
 31
0.0
  0
LINE
  5
41C
330
A
100
AcDbEntity
  8
Hawa6
 62
     3
 48
0.0125
100
AcDbLine
 10
81.885262
 20
161.70189
 30
0.0
 11
82.385262
 21
161.70189
 31
0.0
  0
LINE
  5
41D
330
A
100
AcDbEntity
  8
Hawa6
 62
     3
 48
0.0125
100
AcDbLine
 10
88.385262
 20
161.70189
 30
0.0
 11
88.88526199999999
 21
161.70189
 31
0.0
  0
LINE
  5
41E
330
A
100
AcDbEntity
  8
Hawa6
 62
     3
 48
0.155
100
AcDbLine
 10
88.385262
 20
161.70189
 30
0.0
 11
88.385262
 21
167.9018900000001
 31
0.0
  0
LINE
  5
41F
330
A
100
AcDbEntity
  8
Hawa6
 62
     3
 48
0.155
100
AcDbLine
 10
82.385262
 20
161.70189
 30
0.0
 11
82.385262
 21
167.9018900000001
 31
0.0
  0
LINE
  5
420
330
A
100
AcDbEntity
  8
Hawa6
 62
     3
 48
0.0875
100
AcDbLine
 10
79.88526199999999
 20
158.4018900000001
 30
0.0
 11
79.88526199999999
 21
154.9018900000001
 31
0.0
  0
LINE
  5
421
330
A
100
AcDbEntity
  8
Hawa6
 62
     3
 48
0.1375
100
AcDbLine
 10
79.88526199999999
 20
158.4018900000001
 30
0.0
 11
85.38526199999999
 21
158.4018900000001
 31
0.0
  0
LINE
  5
422
330
A
100
AcDbEntity
  8
Hawa6
 62
     3
 48
0.0875
100
AcDbLine
 10
85.38526199999999
 20
158.4018900000001
 30
0.0
 11
85.38526199999999
 21
154.9018900000001
 31
0.0
  0
LINE
  5
423
330
A
100
AcDbEntity
  8
Hawa6
 62
     3
 48
0.1375
100
AcDbLine
 10
79.88526199999999
 20
154.9018900000001
 30
0.0
 11
85.38526199999999
 21
154.9018900000001
 31
0.0
  0
LINE
  5
424
330
A
100
AcDbEntity
  8
Hawa6
 62
     3
 48
0.1375
100
AcDbLine
 10
85.38526199999999
 20
154.9018900000001
 30
0.0
 11
90.885262
 21
154.9018900000001
 31
0.0
  0
LINE
  5
425
330
A
100
AcDbEntity
  8
Hawa6
 62
     3
 48
0.0875
100
AcDbLine
 10
90.885262
 20
158.4018900000001
 30
0.0
 11
90.885262
 21
154.9018900000001
 31
0.0
  0
LINE
  5
426
330
A
100
AcDbEntity
  8
Hawa6
 62
     3
 48
0.1375
100
AcDbLine
 10
85.38526199999999
 20
158.4018900000001
 30
0.0
 11
90.885262
 21
158.4018900000001
 31
0.0
  0
LINE
  5
427
330
A
100
AcDbEntity
  8
Hawa6
 62
     3
 48
0.110957
100
AcDbLine
 10
86.823539
 20
167.4018900000001
 30
0.0
 11
82.385262
 21
167.4018900000001
 31
0.0
  0
LINE
  5
428
330
A
100
AcDbEntity
  8
Hawa6
 62
     3
 48
0.092464
100
AcDbLine
 10
86.58382600000001
 20
167.9018900000001
 30
0.0
 11
82.88526199999999
 21
167.9018900000001
 31
0.0
  0
LINE
  5
429
330
A
100
AcDbEntity
  8
Hawa6
 62
     3
 48
0.039043
100
AcDbLine
 10
88.385262
 20
167.4018900000001
 30
0.0
 11
86.823539
 21
167.4018900000001
 31
0.0
  0
LINE
  5
42A
330
A
100
AcDbEntity
  8
Hawa6
 62
     3
 48
0.032536
100
AcDbLine
 10
87.88526199999999
 20
167.9018900000001
 30
0.0
 11
86.58382600000001
 21
167.9018900000001
 31
0.0
  0
LINE
  5
42B
330
A
100
AcDbEntity
  8
Hawa6
 62
     3
 48
0.110957
100
AcDbLine
 10
86.823539
 20
158.8018900000002
 30
0.0
 11
82.385262
 21
158.8018900000002
 31
0.0
  0
LINE
  5
42C
330
A
100
AcDbEntity
  8
Hawa6
 62
     3
 48
0.039043
100
AcDbLine
 10
88.385262
 20
158.8018900000002
 30
0.0
 11
86.823539
 21
158.8018900000002
 31
0.0
  0
LINE
  5
42D
330
A
100
AcDbEntity
  8
Hawa6
 62
     3
 48
0.00625
100
AcDbLine
 10
88.41026199999999
 20
154.651887
 30
0.0
 11
88.41026199999999
 21
154.9018900000001
 31
0.0
  0
LINE
  5
42E
330
A
100
AcDbEntity
  8
Hawa6
 62
     3
 48
0.00625
100
AcDbLine
 10
82.36026199999997
 20
154.651887
 30
0.0
 11
82.36026199999997
 21
154.9018900000001
 31
0.0
  0
LINE
  5
42F
330
A
100
AcDbEntity
  8
Hawa6
 62
     3
 48
0.017678
100
AcDbLine
 10
82.88526199999999
 20
167.9018900000001
 30
0.0
 11
82.385262
 21
167.4018900000001
 31
0.0
  0
LINE
  5
430
330
A
100
AcDbEntity
  8
Hawa6
 62
     3
 48
0.017678
100
AcDbLine
 10
87.88526199999999
 20
167.9018900000001
 30
0.0
 11
88.385262
 21
167.4018900000001
 31
0.0
  0
LINE
  5
431
330
A
100
AcDbEntity
  8
Hawa6
 62
     3
 48
0.215
100
AcDbLine
 10
82.385262
 20
158.8018900000002
 30
0.0
 11
82.385262
 21
167.4018900000001
 31
0.0
  0
LINE
  5
432
330
A
100
AcDbEntity
  8
Hawa6
 62
     3
 48
0.215
100
AcDbLine
 10
88.385262
 20
158.8018900000002
 30
0.0
 11
88.385262
 21
167.4018900000001
 31
0.0
  0
ARC
  5
433
330
A
100
AcDbEntity
  8
Hawa6
 62
     3
100
AcDbCircle
 10
88.78526200000001
 20
158.8018900000002
 30
0.0
 40
0.4
100
AcDbArc
 50
180.0
 51
270.0
  0
ARC
  5
434
330
A
100
AcDbEntity
  8
Hawa6
 62
     3
100
AcDbCircle
 10
81.98526199999998
 20
158.8018900000002
 30
0.0
 40
0.4
100
AcDbArc
 50
270.0
 51
0.0
  0
LINE
  5
435
330
A
100
AcDbEntity
  8
Hawa6
 62
     3
 48
0.126737
100
AcDbLine
 10
88.08526200000001
 20
160.4018900000001
 30
0.0
 11
83.015789
 21
160.4018900000001
 31
0.0
  0
LINE
  5
436
330
A
100
AcDbEntity
  8
Hawa6
 62
     3
 48
0.009181
100
AcDbLine
 10
82.75251399999998
 20
160.4018900000001
 30
0.0
 11
82.385262
 21
160.4018900000001
 31
0.0
  0
LINE
  5
437
330
A
100
AcDbEntity
  8
Hawa6
 62
     3
 48
0.140819
100
AcDbLine
 10
88.385262
 20
160.4018900000001
 30
0.0
 11
82.75251399999998
 21
160.4018900000001
 31
0.0
  0
LINE
  5
438
330
A
100
AcDbEntity
  8
Hawa6
 62
     3
 48
0.175
100
AcDbLine
 10
82.685262
 20
167.4018900000001
 30
0.0
 11
82.685262
 21
160.4018900000001
 31
0.0
  0
LINE
  5
439
330
A
100
AcDbEntity
  8
Hawa6
 62
     3
 48
0.175
100
AcDbLine
 10
88.08526200000001
 20
167.4018900000001
 30
0.0
 11
88.08526200000001
 21
160.4018900000001
 31
0.0
  0
LINE
  5
43A
330
A
100
AcDbEntity
  8
Hawa6
 62
     3
 48
0.015
100
AcDbLine
 10
88.08526200000001
 20
160.4018900000001
 30
0.0
 11
88.385262
 21
159.8822750000002
 31
0.0
  0
LINE
  5
43B
330
A
100
AcDbEntity
  8
Hawa6
 62
     3
 48
0.015
100
AcDbLine
 10
82.685262
 20
160.4018900000001
 30
0.0
 11
82.385262
 21
159.8822750000002
 31
0.0
  0
LINE
  5
43C
330
A
100
AcDbEntity
  8
Hawa6
 62
     3
 48
0.002403
100
AcDbLine
 10
90.33915
 20
154.6518900000001
 30
0.0
 11
90.435262
 21
154.6518900000001
 31
0.0
  0
LINE
  5
43D
330
A
100
AcDbEntity
  8
Hawa6
 62
     3
 48
0.017662
100
AcDbLine
 10
89.63268199999999
 20
154.6518900000001
 30
0.0
 11
90.33915
 21
154.6518900000001
 31
0.0
  0
LINE
  5
43E
330
A
100
AcDbEntity
  8
Hawa6
 62
     3
 48
0.060898
100
AcDbLine
 10
87.19675699999998
 20
154.6518900000001
 30
0.0
 11
89.63268199999999
 21
154.6518900000001
 31
0.0
  0
LINE
  5
43F
330
A
100
AcDbEntity
  8
Hawa6
 62
     3
 48
0.045287
100
AcDbLine
 10
85.38526199999999
 20
154.6518900000001
 30
0.0
 11
87.19675699999998
 21
154.6518900000001
 31
0.0
  0
LINE
  5
440
330
A
100
AcDbEntity
  8
Hawa6
 62
     3
 48
0.045287
100
AcDbLine
 10
85.38526199999999
 20
154.6518900000001
 30
0.0
 11
83.57376700000001
 21
154.6518900000001
 31
0.0
  0
LINE
  5
441
330
A
100
AcDbEntity
  8
Hawa6
 62
     3
 48
0.060898
100
AcDbLine
 10
81.13784199999997
 20
154.6518900000001
 30
0.0
 11
83.57376700000001
 21
154.6518900000001
 31
0.0
  0
LINE
  5
442
330
A
100
AcDbEntity
  8
Hawa6
 62
     3
 48
0.017662
100
AcDbLine
 10
81.13784199999997
 20
154.6518900000001
 30
0.0
 11
80.43137399999997
 21
154.6518900000001
 31
0.0
  0
LINE
  5
443
330
A
100
AcDbEntity
  8
Hawa6
 62
     3
 48
0.002403
100
AcDbLine
 10
80.335262
 20
154.6518900000001
 30
0.0
 11
80.43137399999997
 21
154.6518900000001
 31
0.0
  0
LINE
  5
444
330
A
100
AcDbEntity
  8
Hawa6
 62
     3
 48
0.002218
100
AcDbLine
 10
90.05787299999999
 20
141.1518900000001
 30
0.0
 11
90.146587
 21
141.1518900000001
 31
0.0
  0
LINE
  5
445
330
A
100
AcDbEntity
  8
Hawa6
 62
     3
 48
0.017662
100
AcDbLine
 10
90.05787299999999
 20
141.1518900000001
 30
0.0
 11
89.35140600000002
 21
141.1518900000001
 31
0.0
  0
LINE
  5
446
330
A
100
AcDbEntity
  8
Hawa6
 62
     3
 48
0.053866
100
AcDbLine
 10
87.19675699999998
 20
141.1518900000001
 30
0.0
 11
89.35140600000002
 21
141.1518900000001
 31
0.0
  0
LINE
  5
447
330
A
100
AcDbEntity
  8
Hawa6
 62
     3
 48
0.045287
100
AcDbLine
 10
87.19675699999998
 20
141.1518900000001
 30
0.0
 11
85.38526199999999
 21
141.1518900000001
 31
0.0
  0
LINE
  5
448
330
A
100
AcDbEntity
  8
Hawa6
 62
     3
 48
0.045287
100
AcDbLine
 10
85.38526199999999
 20
141.1518900000001
 30
0.0
 11
83.57376700000001
 21
141.1518900000001
 31
0.0
  0
LINE
  5
449
330
A
100
AcDbEntity
  8
Hawa6
 62
     3
 48
0.053866
100
AcDbLine
 10
81.419118
 20
141.1518900000001
 30
0.0
 11
83.57376700000001
 21
141.1518900000001
 31
0.0
  0
LINE
  5
44A
330
A
100
AcDbEntity
  8
Hawa6
 62
     3
 48
0.017662
100
AcDbLine
 10
80.71265099999999
 20
141.1518900000001
 30
0.0
 11
81.419118
 21
141.1518900000001
 31
0.0
  0
LINE
  5
44B
330
A
100
AcDbEntity
  8
Hawa6
 62
     3
 48
0.002218
100
AcDbLine
 10
80.62393699999999
 20
141.1518900000001
 30
0.0
 11
80.71265099999999
 21
141.1518900000001
 31
0.0
  0
LINE
  5
44C
330
A
100
AcDbEntity
  8
Hawa6
 62
     3
 48
0.325
100
AcDbLine
 10
90.33915
 20
154.6518900000001
 30
0.0
 11
90.33915
 21
141.6518900000001
 31
0.0
  0
LINE
  5
44D
330
A
100
AcDbEntity
  8
Hawa6
 62
     3
 48
0.002403
100
AcDbLine
 10
90.33915
 20
141.6518900000001
 30
0.0
 11
90.435262
 21
141.6518900000001
 31
0.0
  0
LINE
  5
44E
330
A
100
AcDbEntity
  8
Hawa6
 62
     3
 48
0.017662
100
AcDbLine
 10
90.33915
 20
141.6518900000001
 30
0.0
 11
89.63268199999999
 21
141.6518900000001
 31
0.0
  0
LINE
  5
44F
330
A
100
AcDbEntity
  8
Hawa6
 62
     3
 48
0.325
100
AcDbLine
 10
89.63268199999999
 20
154.6518900000001
 30
0.0
 11
89.63268199999999
 21
141.6518900000001
 31
0.0
  0
LINE
  5
450
330
A
100
AcDbEntity
  8
Hawa6
 62
     3
 48
0.325
100
AcDbLine
 10
87.19675699999998
 20
154.6518900000001
 30
0.0
 11
87.19675699999998
 21
141.6518900000001
 31
0.0
  0
LINE
  5
451
330
A
100
AcDbEntity
  8
Hawa6
 62
     3
 48
0.060898
100
AcDbLine
 10
87.19675699999998
 20
141.6518900000001
 30
0.0
 11
89.63268199999999
 21
141.6518900000001
 31
0.0
  0
LINE
  5
452
330
A
100
AcDbEntity
  8
Hawa6
 62
     3
 48
0.045287
100
AcDbLine
 10
87.19675699999998
 20
141.6518900000001
 30
0.0
 11
85.38526199999999
 21
141.6518900000001
 31
0.0
  0
LINE
  5
453
330
A
100
AcDbEntity
  8
Hawa6
 62
     3
 48
0.045287
100
AcDbLine
 10
85.38526199999999
 20
141.6518900000001
 30
0.0
 11
83.57376700000001
 21
141.6518900000001
 31
0.0
  0
LINE
  5
454
330
A
100
AcDbEntity
  8
Hawa6
 62
     3
 48
0.325
100
AcDbLine
 10
83.57376700000001
 20
154.6518900000001
 30
0.0
 11
83.57376700000001
 21
141.6518900000001
 31
0.0
  0
LINE
  5
455
330
A
100
AcDbEntity
  8
Hawa6
 62
     3
 48
0.325
100
AcDbLine
 10
81.13784199999997
 20
154.6518900000001
 30
0.0
 11
81.13784199999997
 21
141.6518900000001
 31
0.0
  0
LINE
  5
456
330
A
100
AcDbEntity
  8
Hawa6
 62
     3
 48
0.060898
100
AcDbLine
 10
81.13784199999997
 20
141.6518900000001
 30
0.0
 11
83.57376700000001
 21
141.6518900000001
 31
0.0
  0
LINE
  5
457
330
A
100
AcDbEntity
  8
Hawa6
 62
     3
 48
0.325
100
AcDbLine
 10
80.43137399999997
 20
154.6518900000001
 30
0.0
 11
80.43137399999997
 21
141.6518900000001
 31
0.0
  0
LINE
  5
458
330
A
100
AcDbEntity
  8
Hawa6
 62
     3
 48
0.017662
100
AcDbLine
 10
80.43137399999997
 20
141.6518900000001
 30
0.0
 11
81.13784199999997
 21
141.6518900000001
 31
0.0
  0
LINE
  5
459
330
A
100
AcDbEntity
  8
Hawa6
 62
     3
 48
0.002403
100
AcDbLine
 10
80.335262
 20
141.6518900000001
 30
0.0
 11
80.43137399999997
 21
141.6518900000001
 31
0.0
  0
LINE
  5
45A
330
A
100
AcDbEntity
  8
Hawa6
 62
     3
 48
0.014342
100
AcDbLine
 10
90.33915
 20
141.6518900000001
 30
0.0
 11
90.05787299999999
 21
141.1518900000001
 31
0.0
  0
LINE
  5
45B
330
A
100
AcDbEntity
  8
Hawa6
 62
     3
 48
0.014342
100
AcDbLine
 10
89.63268199999999
 20
141.6518900000001
 30
0.0
 11
89.35140600000002
 21
141.1518900000001
 31
0.0
  0
LINE
  5
45C
330
A
100
AcDbEntity
  8
Hawa6
 62
     3
 48
0.0125
100
AcDbLine
 10
87.19675699999998
 20
141.6518900000001
 30
0.0
 11
87.19675699999998
 21
141.1518900000001
 31
0.0
  0
LINE
  5
45D
330
A
100
AcDbEntity
  8
Hawa6
 62
     3
 48
0.0125
100
AcDbLine
 10
83.57376700000001
 20
141.6518900000001
 30
0.0
 11
83.57376700000001
 21
141.1518900000001
 31
0.0
  0
LINE
  5
45E
330
A
100
AcDbEntity
  8
Hawa6
 62
     3
 48
0.014342
100
AcDbLine
 10
81.13784199999997
 20
141.6518900000001
 30
0.0
 11
81.419118
 21
141.1518900000001
 31
0.0
  0
LINE
  5
45F
330
A
100
AcDbEntity
  8
Hawa6
 62
     3
 48
0.014342
100
AcDbLine
 10
80.43137399999997
 20
141.6518900000001
 30
0.0
 11
80.71265099999999
 21
141.1518900000001
 31
0.0
  0
LINE
  5
460
330
A
100
AcDbEntity
  8
Hawa6
 62
     3
 48
0.094591
100
AcDbLine
 10
90.435262
 20
154.6518900000001
 30
0.0
 11
90.435262
 21
150.8682600000002
 31
0.0
  0
LINE
  5
461
330
A
100
AcDbEntity
  8
Hawa6
 62
     3
 48
0.325
100
AcDbLine
 10
90.435262
 20
154.6518900000001
 30
0.0
 11
90.435262
 21
141.6518900000001
 31
0.0
  0
LINE
  5
462
330
A
100
AcDbEntity
  8
Hawa6
 62
     3
 48
0.325
100
AcDbLine
 10
80.335262
 20
154.6518900000001
 30
0.0
 11
80.335262
 21
141.6518900000001
 31
0.0
  0
LINE
  5
463
330
A
100
AcDbEntity
  8
Hawa6
 62
     3
 48
0.010365
100
AcDbLine
 10
90.146587
 20
141.1518900000001
 30
0.0
 11
90.35387900000001
 21
141.5109300000001
 31
0.0
  0
LINE
  5
464
330
A
100
AcDbEntity
  8
Hawa6
 62
     3
 48
0.014434
100
AcDbLine
 10
90.146587
 20
141.1518900000001
 30
0.0
 11
90.435262
 21
141.6518900000001
 31
0.0
  0
LINE
  5
465
330
A
100
AcDbEntity
  8
Hawa6
 62
     3
 48
0.014434
100
AcDbLine
 10
80.62393699999999
 20
141.1518900000001
 30
0.0
 11
80.335262
 21
141.6518900000001
 31
0.0
  0
LINE
  5
466
330
A
100
AcDbEntity
  8
Hawa5
 62
     1
 48
0.3
100
AcDbLine
 10
91.38526199999999
 20
171.3018900000002
 30
0.0
 11
79.385262
 21
171.3018900000002
 31
0.0
  0
LINE
  5
467
330
A
100
AcDbEntity
  8
Hawa5
 62
     1
 48
0.025
100
AcDbLine
 10
79.385262
 20
172.3018900000002
 30
0.0
 11
79.385262
 21
171.3018900000002
 31
0.0
  0
LINE
  5
468
330
A
100
AcDbEntity
  8
Hawa5
 62
     1
 48
0.3
100
AcDbLine
 10
91.38526199999999
 20
172.3018900000002
 30
0.0
 11
79.385262
 21
172.3018900000002
 31
0.0
  0
LINE
  5
469
330
A
100
AcDbEntity
  8
Hawa5
 62
     1
 48
0.025
100
AcDbLine
 10
91.38526199999999
 20
172.3018900000002
 30
0.0
 11
91.38526199999999
 21
171.3018900000002
 31
0.0
  0
LINE
  5
46A
330
A
100
AcDbEntity
  8
Hawa5
 62
     1
 48
0.2
100
AcDbLine
 10
80.38526199999999
 20
180.3018900000002
 30
0.0
 11
80.38526199999999
 21
172.3018900000002
 31
0.0
  0
LINE
  5
46B
330
A
100
AcDbEntity
  8
Hawa5
 62
     1
 48
0.075
100
AcDbLine
 10
77.38526199999999
 20
172.3018900000002
 30
0.0
 11
80.38526199999999
 21
172.3018900000002
 31
0.0
  0
LINE
  5
46C
330
A
100
AcDbEntity
  8
Hawa5
 62
     1
 48
0.2
100
AcDbLine
 10
77.38526199999999
 20
180.3018900000002
 30
0.0
 11
77.38526199999999
 21
172.3018900000002
 31
0.0
  0
LINE
  5
46D
330
A
100
AcDbEntity
  8
Hawa5
 62
     1
 48
0.075
100
AcDbLine
 10
77.38526199999999
 20
180.3018900000002
 30
0.0
 11
80.38526199999999
 21
180.3018900000002
 31
0.0
  0
LINE
  5
46E
330
A
100
AcDbEntity
  8
Hawa5
 62
     1
 48
0.2
100
AcDbLine
 10
93.385262
 20
180.3018900000002
 30
0.0
 11
93.385262
 21
172.3018900000002
 31
0.0
  0
LINE
  5
46F
330
A
100
AcDbEntity
  8
Hawa5
 62
     1
 48
0.075
100
AcDbLine
 10
90.38526199999999
 20
172.3018900000002
 30
0.0
 11
93.385262
 21
172.3018900000002
 31
0.0
  0
LINE
  5
470
330
A
100
AcDbEntity
  8
Hawa5
 62
     1
 48
0.2
100
AcDbLine
 10
90.38526199999999
 20
180.3018900000002
 30
0.0
 11
90.38526199999999
 21
172.3018900000002
 31
0.0
  0
LINE
  5
471
330
A
100
AcDbEntity
  8
Hawa5
 62
     1
 48
0.075
100
AcDbLine
 10
90.38526199999999
 20
180.3018900000002
 30
0.0
 11
93.385262
 21
180.3018900000002
 31
0.0
  0
LINE
  5
472
330
A
100
AcDbEntity
  8
Hawa5
 62
     1
 48
0.0625
100
AcDbLine
 10
87.88526199999999
 20
134.70189
 30
0.0
 11
87.88526199999999
 21
132.20189
 31
0.0
  0
LINE
  5
473
330
A
100
AcDbEntity
  8
Hawa5
 62
     1
 48
0.0125
100
AcDbLine
 10
87.88526199999999
 20
134.70189
 30
0.0
 11
88.385262
 21
134.70189
 31
0.0
  0
LINE
  5
474
330
A
100
AcDbEntity
  8
Hawa5
 62
     1
 48
0.0625
100
AcDbLine
 10
88.385262
 20
134.70189
 30
0.0
 11
88.385262
 21
132.20189
 31
0.0
  0
LINE
  5
475
330
A
100
AcDbEntity
  8
Hawa5
 62
     1
 48
0.0625
100
AcDbLine
 10
82.385262
 20
134.70189
 30
0.0
 11
82.385262
 21
132.20189
 31
0.0
  0
LINE
  5
476
330
A
100
AcDbEntity
  8
Hawa5
 62
     1
 48
0.0125
100
AcDbLine
 10
82.385262
 20
134.70189
 30
0.0
 11
82.88526199999999
 21
134.70189
 31
0.0
  0
LINE
  5
477
330
A
100
AcDbEntity
  8
Hawa5
 62
     1
 48
0.0625
100
AcDbLine
 10
82.88526199999999
 20
134.70189
 30
0.0
 11
82.88526199999999
 21
132.20189
 31
0.0
  0
LINE
  5
478
330
A
100
AcDbEntity
  8
Hawa5
 62
     1
 48
0.144244
100
AcDbLine
 10
83.515502
 20
137.23189
 30
0.0
 11
89.285262
 21
137.23189
 31
0.0
  0
LINE
  5
479
330
A
100
AcDbEntity
  8
Hawa5
 62
     1
 48
0.050756
100
AcDbLine
 10
81.48526199999997
 20
137.23189
 30
0.0
 11
83.515502
 21
137.23189
 31
0.0
  0
LINE
  5
47A
330
A
100
AcDbEntity
  8
Hawa5
 62
     1
 48
0.144244
100
AcDbLine
 10
83.515502
 20
136.95189
 30
0.0
 11
89.285262
 21
136.95189
 31
0.0
  0
LINE
  5
47B
330
A
100
AcDbEntity
  8
Hawa5
 62
     1
 48
0.050756
100
AcDbLine
 10
81.48526199999997
 20
136.95189
 30
0.0
 11
83.515502
 21
136.95189
 31
0.0
  0
LINE
  5
47C
330
A
100
AcDbEntity
  8
Hawa5
 62
     1
 48
0.057065
100
AcDbLine
 10
84.64555999999999
 20
134.594783
 30
0.0
 11
86.928155
 21
134.594783
 31
0.0
  0
LINE
  5
47D
330
A
100
AcDbEntity
  8
Hawa5
 62
     1
 48
0.02008
100
AcDbLine
 10
84.64555999999999
 20
134.594783
 30
0.0
 11
83.84236899999997
 21
134.594783
 31
0.0
  0
LINE
  5
47E
330
A
100
AcDbEntity
  8
Hawa5
 62
     1
 48
0.038576
100
AcDbLine
 10
84.78598000000001
 20
133.8876760000001
 30
0.0
 11
86.32901199999997
 21
133.8876760000001
 31
0.0
  0
SPLINE
  5
47F
330
A
100
AcDbEntity
  8
Hawa5
 62
     1
100
AcDbSpline
210
0.0
220
0.0
230
1.0
 70
     8
 71
     3
 72
    20
 73
    16
 74
     0
 42
0.0000000001
 43
0.0000000001
 40
0.0
 40
0.0
 40
0.0
 40
0.0
 40
0.0464469110967212
 40
0.0902591170755077
 40
0.131357525076235
 40
0.1696747330548553
 40
0.205157721320792
 40
0.2377716361199994
 40
0.2675052863163302
 40
0.2943793708113204
 40
0.3184590894251519
 40
0.339873690827061
 40
0.3588463338027143
 40
0.375736314627483
 40
0.391086343972817
 40
0.391086343972817
 40
0.391086343972817
 40
0.391086343972817
 10
86.32901175115895
 20
133.8876763703709
 30
0.0
 10
86.34362766670763
 20
133.892784267272
 30
0.0
 10
86.37195108267784
 20
133.9029353271073
 30
0.0
 10
86.41288286851972
 20
133.9184940742371
 30
0.0
 10
86.45094375541656
 20
133.9339515922566
 30
0.0
 10
86.48603523031873
 20
133.9493092824698
 30
0.0
 10
86.51806480196482
 20
133.9645683913138
 30
0.0
 10
86.5469470091333
 20
133.9797304735923
 30
0.0
 10
86.57260414316906
 20
133.9947979192591
 30
0.0
 10
86.59496725473493
 20
134.0097753777541
 30
0.0
 10
86.61397659855529
 20
134.0246717267225
 30
0.0
 10
86.62958154143764
 20
134.0395064214686
 30
0.0
 10
86.64173212100726
 20
134.0543113424308
 30
0.0
 10
86.65036682367091
 20
134.0691515282297
 30
0.0
 10
86.65380269218376
 20
134.0794156463949
 30
0.0
 10
86.65481344209391
 20
134.0844519412714
 30
0.0
  0
LINE
  5
480
330
A
100
AcDbEntity
  8
Hawa5
 62
     1
 48
0.016268
100
AcDbLine
 10
84.78598000000001
 20
133.8876760000001
 30
0.0
 11
84.13526199999999
 21
133.8876760000001
 31
0.0
  0
SPLINE
  5
481
330
A
100
AcDbEntity
  8
Hawa5
 62
     1
100
AcDbSpline
210
0.0
220
0.0
230
1.0
 70
     8
 71
     3
 72
    26
 73
    22
 74
     0
 42
0.0000000001
 43
0.0000000001
 40
0.0
 40
0.0
 40
0.0
 40
0.0
 40
0.0666221310035475
 40
0.1378297642642353
 40
0.2132985886331543
 40
0.2926715745746822
 40
0.3755630919193573
 40
0.4615623488943222
 40
0.5502364291946419
 40
0.6411331122676192
 40
0.733716249729843
 40
0.8261764861232954
 40
0.9164059788533208
 40
1.003631402044429
 40
1.088168827452464
 40
1.171031325635044
 40
1.253503262167896
 40
1.336713113312948
 40
1.421230513458626
 40
1.506718167088555
 40
1.591680776596724
 40
1.591680776596724
 40
1.591680776596724
 40
1.591680776596724
 10
86.32901175115895
 20
133.8876763703709
 30
0.0
 10
86.30804678055858
 20
133.8803496375358
 30
0.0
 10
86.26446960864484
 20
133.8657838460313
 30
0.0
 10
86.19656923535497
 20
133.8446811872625
 30
0.0
 10
86.12423449460059
 20
133.8235687842234
 30
0.0
 10
86.04785462560792
 20
133.8024467289836
 30
0.0
 10
85.96784189151639
 20
133.7813154497235
 30
0.0
 10
85.88462924413247
 20
133.7601753894567
 30
0.0
 10
85.79866846621712
 20
133.7390272720666
 30
0.0
 10
85.71044996290224
 20
133.7178773830956
 30
0.0
 10
85.62090939905948
 20
133.6968333591631
 30
0.0
 10
85.53152058521297
 20
133.6761182090665
 30
0.0
 10
85.44383446752558
 20
133.6559673213824
 30
0.0
 10
85.3587086339259
 20
133.636467133945
 30
0.0
 10
85.275982500084
 20
133.6174889047456
 30
0.0
 10
85.19482422260665
 20
133.5987627755837
 30
0.0
 10
85.11413837801519
 20
133.5799580540427
 30
0.0
 10
85.03297721227488
 20
133.5607639460541
 30
0.0
 10
84.95092567508615
 20
133.5409698648132
 30
0.0
 10
84.86842666091838
 20
133.5205444608516
 30
0.0
 10
84.81338215369852
 20
133.5064618814101
 30
0.0
 10
84.78598007674413
 20
133.4993059271737
 30
0.0
  0
SPLINE
  5
482
330
A
100
AcDbEntity
  8
Hawa5
 62
     1
100
AcDbSpline
210
0.0
220
0.0
230
1.0
 70
     8
 71
     3
 72
    15
 73
    11
 74
     0
 42
0.0000000001
 43
0.0000000001
 40
0.0
 40
0.0
 40
0.0
 40
0.0
 40
0.0507700098665523
 40
0.106618777413803
 40
0.1671040613241165
 40
0.231681950685991
 40
0.2997810829767918
 40
0.3708890834224018
 40
0.4446458148645366
 40
0.520937913604943
 40
0.520937913604943
 40
0.520937913604943
 40
0.520937913604943
 10
84.29153519982488
 20
133.3373386123906
 30
0.0
 10
84.30683363831175
 20
133.3445803537579
 30
0.0
 10
84.33935165919516
 20
133.3589462162099
 30
0.0
 10
84.39115006342866
 20
133.379460591246
 30
0.0
 10
84.44788631456104
 20
133.3999174452817
 30
0.0
 10
84.50898795991028
 20
133.4202404393334
 30
0.0
 10
84.57386806850534
 20
133.4403734206819
 30
0.0
 10
84.64200632554449
 20
133.4602941015094
 30
0.0
 10
84.7130373212842
 20
133.4800262928204
 30
0.0
 10
84.76137432530391
 20
133.4928802233283
 30
0.0
 10
84.78598007674413
 20
133.4993059271737
 30
0.0
  0
SPLINE
  5
483
330
A
100
AcDbEntity
  8
Hawa5
 62
     1
100
AcDbSpline
210
0.0
220
0.0
230
1.0
 70
     8
 71
     3
 72
    31
 73
    27
 74
     0
 42
0.0000000001
 43
0.0000000001
 40
0.0
 40
0.0
 40
0.0
 40
0.0
 40
0.0737927998456723
 40
0.1496953554567319
 40
0.2274200509566762
 40
0.3066697205726263
 40
0.387138927341353
 40
0.4685152357150661
 40
0.5504805068509395
 40
0.6327122411747097
 40
0.71488498954394
 40
0.796672743343939
 40
0.8779232479247898
 40
0.9587473631729281
 40
1.039052195663908
 40
1.118522022014292
 40
1.196674557733578
 40
1.272922406575553
 40
1.3466359396411
 40
1.4172034303364
 40
1.484084207327222
 40
1.546851017136688
 40
1.605218696268452
 40
1.65905749403615
 40
1.708390738401699
 40
1.75337779131722
 40
1.75337779131722
 40
1.75337779131722
 40
1.75337779131722
 10
84.78598007674413
 20
132.8779844418657
 30
0.0
 10
84.80977972592585
 20
132.88419929922
 30
0.0
 10
84.85811372911715
 20
132.8965978141841
 30
0.0
 10
84.93167452592832
 20
132.9149156692538
 30
0.0
 10
85.00710703696713
 20
132.9332385628195
 30
0.0
 10
85.08410386356663
 20
132.9515663124764
 30
0.0
 10
85.16235023250706
 20
132.9698984809709
 30
0.0
 10
85.2415250885995
 20
132.9882344280613
 30
0.0
 10
85.32130217150763
 20
133.0065733075817
 30
0.0
 10
85.40135118292276
 20
133.0249140829155
 30
0.0
 10
85.48133932247196
 20
133.0432555967277
 30
0.0
 10
85.56098901094614
 20
133.0616096037918
 30
0.0
 10
85.64016402694084
 20
133.080021034549
 30
0.0
 10
85.71880288347625
 20
133.0985545056467
 30
0.0
 10
85.79678908956669
 20
133.1172673723863
 30
0.0
 10
85.87381146328478
 20
133.1361764688488
 30
0.0
 10
85.94939646226739
 20
133.1552623066
 30
0.0
 10
86.02296734067222
 20
133.174478294573
 30
0.0
 10
86.0939046113409
 20
133.1937599275827
 30
0.0
 10
86.16160366640999
 20
133.2130339307735
 30
0.0
 10
86.22552536284462
 20
133.2322273739505
 30
0.0
 10
86.28523570860149
 20
133.2512767236738
 30
0.0
 10
86.34043168663263
 20
133.2701369574231
 30
0.0
 10
86.39095082829133
 20
133.2887903162009
 30
0.0
 10
86.43676465300393
 20
133.3072560570963
 30
0.0
 10
86.46549266047596
 20
133.3200485554016
 30
0.0
 10
86.47904789580881
 20
133.3264658596345
 30
0.0
  0
SPLINE
  5
484
330
A
100
AcDbEntity
  8
Hawa5
 62
     1
100
AcDbSpline
210
0.0
220
0.0
230
1.0
 70
     8
 71
     3
 72
    23
 73
    19
 74
     0
 42
0.0000000001
 43
0.0000000001
 40
0.0
 40
0.0
 40
0.0
 40
0.0
 40
0.0189036616274342
 40
0.0392521795479996
 40
0.0622316245386376
 40
0.0887865426173187
 40
0.1195903039923271
 40
0.1550776061785792
 40
0.1954750066890603
 40
0.2408161949856679
 40
0.2909567737552612
 40
0.3455977193180748
 40
0.4043217407324791
 40
0.4666431530331068
 40
0.5320694150679632
 40
0.6001709877859393
 40
0.6706555284111077
 40
0.74344248560151
 40
0.74344248560151
 40
0.74344248560151
 40
0.74344248560151
 10
84.13526200000051
 20
132.5712288635364
 30
0.0
 10
84.13526196301633
 20
132.5775709443751
 30
0.0
 10
84.1372122268496
 20
132.5906556351076
 30
0.0
 10
84.14568778220814
 20
132.6098255198954
 30
0.0
 10
84.15949004578653
 20
132.62874780318
 30
0.0
 10
84.1785865889531
 20
132.6476432593261
 30
0.0
 10
84.20308178621702
 20
132.6666483380559
 30
0.0
 10
84.23307293163221
 20
132.6858283704435
 30
0.0
 10
84.26857349702858
 20
132.7051829228077
 30
0.0
 10
84.30947777500566
 20
132.7246735032111
 30
0.0
 10
84.35554905705563
 20
132.7442375746475
 30
0.0
 10
84.40642775793145
 20
132.7638015544801
 30
0.0
 10
84.46165798374959
 20
132.7832915255028
 30
0.0
 10
84.5207304595508
 20
132.8026435386951
 30
0.0
 10
84.58313870742207
 20
132.8218135891973
 30
0.0
 10
84.64844447327015
 20
132.8407875097746
 30
0.0
 10
84.71634840169974
 20
132.8595909306166
 30
0.0
 10
84.76250474720147
 20
132.8718542748477
 30
0.0
 10
84.78598007674413
 20
132.8779844418657
 30
0.0
  0
SPLINE
  5
485
330
A
100
AcDbEntity
  8
Hawa5
 62
     1
100
AcDbSpline
210
0.0
220
0.0
230
1.0
 70
     8
 71
     3
 72
    13
 73
     9
 74
     0
 42
0.0000000001
 43
0.0000000001
 40
0.0
 40
0.0
 40
0.0
 40
0.0
 40
0.0685717175559856
 40
0.1171906467180355
 40
0.1512983489048762
 40
0.1854061926329848
 40
0.2340172479353933
 40
0.3025688945249017
 40
0.3025688945249017
 40
0.3025688945249017
 40
0.3025688945249017
 10
87.27541991046146
 20
133.877282174883
 30
0.0
 10
87.29638649946215
 20
133.8680928678389
 30
0.0
 10
87.33134000779312
 20
133.8504656692533
 30
0.0
 10
87.37226860537381
 20
133.8202743216443
 30
0.0
 10
87.39062151905685
 20
133.7818804663434
 30
0.0
 10
87.37225828222836
 20
133.7434959041652
 30
0.0
 10
87.33133847648884
 20
133.7133111952853
 30
0.0
 10
87.29639275160021
 20
133.6956886276878
 30
0.0
 10
87.27543214935769
 20
133.6865018912313
 30
0.0
  0
SPLINE
  5
486
330
A
100
AcDbEntity
  8
Hawa5
 62
     1
100
AcDbSpline
210
0.0
220
0.0
230
1.0
 70
     8
 71
     3
 72
    22
 73
    18
 74
     0
 42
0.0000000001
 43
0.0000000001
 40
0.0
 40
0.0
 40
0.0
 40
0.0
 40
0.1412055263528016
 40
0.3279847834154483
 40
0.5563799600018012
 40
0.8208567350979965
 40
1.114723300499702
 40
1.430363948579803
 40
1.759414070851153
 40
2.09293228496659
 40
2.421815049679951
 40
2.737272839919995
 40
3.031030240716201
 40
3.295497803093981
 40
3.523965748873091
 40
3.710856287109878
 40
3.852161385572454
 40
3.852161385572454
 40
3.852161385572454
 40
3.852161385572454
 10
87.27543214935769
 20
133.6865018912313
 30
0.0
 10
87.23228965024281
 20
133.6675931420998
 30
0.0
 10
87.12829370984829
 20
133.6329922356363
 30
0.0
 10
86.94850467397577
 20
133.5873600191599
 30
0.0
 10
86.72660590920909
 20
133.5413642169451
 30
0.0
 10
86.46847164445901
 20
133.495043688258
 30
0.0
 10
86.18086638196977
 20
133.4485483396559
 30
0.0
 10
85.8715050123286
 20
133.4019252088726
 30
0.0
 10
85.54879447901544
 20
133.3552356051509
 30
0.0
 10
85.22162816091082
 20
133.3085290309898
 30
0.0
 10
84.89903355632682
 20
133.2618534331575
 30
0.0
 10
84.58982332255633
 20
133.2152550932726
 30
0.0
 10
84.30231619602732
 20
133.1687820267564
 30
0.0
 10
84.04419534328056
 20
133.1224729697185
 30
0.0
 10
83.82223761114754
 20
133.0764743898203
 30
0.0
 10
83.64235510056465
 20
133.0308262762237
 30
0.0
 10
83.53829084019864
 20
132.9962071645459
 30
0.0
 10
83.49511756704483
 20
132.9772858586362
 30
0.0
  0
SPLINE
  5
487
330
A
100
AcDbEntity
  8
Hawa5
 62
     1
100
AcDbSpline
210
0.0
220
0.0
230
1.0
 70
     8
 71
     3
 72
    13
 73
     9
 74
     0
 42
0.0000000001
 43
0.0000000001
 40
0.0
 40
0.0
 40
0.0
 40
0.0
 40
0.0685953726727845
 40
0.117221150654546
 40
0.1513262220248913
 40
0.1854319465571282
 40
0.2340349541978451
 40
0.3025700483078788
 40
0.3025700483078788
 40
0.3025700483078788
 40
0.3025700483078788
 10
83.49511756704483
 20
132.9772858586362
 30
0.0
 10
83.47414380580975
 20
132.9680938070862
 30
0.0
 10
83.4391814702087
 20
132.9504623160979
 30
0.0
 10
83.39824348175309
 20
132.9202643137426
 30
0.0
 10
83.37990289175994
 20
132.8818633374726
 30
0.0
 10
83.39827230820876
 20
132.8434885367747
 30
0.0
 10
83.43918453795721
 20
132.8133102412432
 30
0.0
 10
83.4741232636971
 20
132.7956917195495
 30
0.0
 10
83.49507886727005
 20
132.7865071114209
 30
0.0
  0
LINE
  5
488
330
A
100
AcDbEntity
  8
Hawa5
 62
     1
 48
0.007
100
AcDbLine
 10
89.285262
 20
137.23189
 30
0.0
 11
89.285262
 21
136.95189
 31
0.0
  0
LINE
  5
489
330
A
100
AcDbEntity
  8
Hawa5
 62
     1
 48
0.007
100
AcDbLine
 10
81.48526199999997
 20
137.23189
 30
0.0
 11
81.48526199999997
 21
136.95189
 31
0.0
  0
LINE
  5
48A
330
A
100
AcDbEntity
  8
Hawa5
 62
     1
 48
0.083336
100
AcDbLine
 10
86.928155
 20
134.594783
 30
0.0
 11
89.285262
 21
136.95189
 31
0.0
  0
LINE
  5
48B
330
A
100
AcDbEntity
  8
Hawa5
 62
     1
 48
0.083336
100
AcDbLine
 10
83.84236899999997
 20
134.594783
 30
0.0
 11
81.48526199999997
 21
136.95189
 31
0.0
  0
ARC
  5
48C
330
A
100
AcDbEntity
  8
Hawa5
 62
     1
100
AcDbCircle
 10
87.63526199999999
 20
133.8876760000001
 30
0.0
 40
1.0
100
AcDbArc
 50
135.0000000000046
 51
168.6515340000016
  0
ARC
  5
48D
330
A
100
AcDbEntity
  8
Hawa5
 62
     1
100
AcDbCircle
 10
83.135262
 20
133.8876760000001
 30
0.0
 40
1.0
100
AcDbArc
 50
0.0
 51
44.99999999999539
  0
LINE
  5
48E
330
A
100
AcDbEntity
  8
Hawa5
 62
     1
 48
0.015525
100
AcDbLine
 10
84.13526199999999
 20
133.8876760000001
 30
0.0
 11
84.13526199999999
 21
133.2666920000001
 31
0.0
  0
LINE
  5
48F
330
A
100
AcDbEntity
  8
Hawa5
 62
     1
 48
0.027613
100
AcDbLine
 10
86.63526199999999
 20
133.3970570000001
 30
0.0
 11
86.63526199999999
 21
132.2925280000002
 31
0.0
  0
LINE
  5
490
330
A
100
AcDbEntity
  8
Hawa5
 62
     1
 48
0.027613
100
AcDbLine
 10
84.13526199999999
 20
132.5712290000001
 30
0.0
 11
84.13526199999999
 21
131.4666900000002
 31
0.0
  0
ARC
  5
491
330
A
100
AcDbEntity
  8
Hawa5
 62
     1
100
AcDbCircle
 10
71.158333
 20
161.356612
 30
0.0
 40
30.944641
100
AcDbArc
 50
293.4950749999999
 51
295.113426
  0
ARC
  5
492
330
A
100
AcDbEntity
  8
Hawa5
 62
     1
100
AcDbCircle
 10
99.586149
 20
105.366405
 30
0.0
 40
30.879937
100
AcDbArc
 50
113.494534
 51
115.11993
  0
LINE
  5
493
330
A
100
AcDbEntity
  8
Hawa5
 62
     1
 48
0.144244
100
AcDbLine
 10
111.515502
 20
138.9318900000001
 30
0.0
 11
117.285262
 21
138.9318900000001
 31
0.0
  0
LINE
  5
494
330
A
100
AcDbEntity
  8
Hawa5
 62
     1
 48
0.050756
100
AcDbLine
 10
109.485262
 20
138.9318900000001
 30
0.0
 11
111.515502
 21
138.9318900000001
 31
0.0
  0
LINE
  5
495
330
A
100
AcDbEntity
  8
Hawa5
 62
     1
 48
0.144244
100
AcDbLine
 10
111.515502
 20
138.6518900000001
 30
0.0
 11
117.285262
 21
138.6518900000001
 31
0.0
  0
LINE
  5
496
330
A
100
AcDbEntity
  8
Hawa5
 62
     1
 48
0.050756
100
AcDbLine
 10
109.485262
 20
138.6518900000001
 30
0.0
 11
111.515502
 21
138.6518900000001
 31
0.0
  0
LINE
  5
497
330
A
100
AcDbEntity
  8
Hawa5
 62
     1
 48
0.057065
100
AcDbLine
 10
112.64556
 20
136.2947830000001
 30
0.0
 11
114.928155
 21
136.2947830000001
 31
0.0
  0
LINE
  5
498
330
A
100
AcDbEntity
  8
Hawa5
 62
     1
 48
0.02008
100
AcDbLine
 10
112.64556
 20
136.2947830000001
 30
0.0
 11
111.842369
 21
136.2947830000001
 31
0.0
  0
LINE
  5
499
330
A
100
AcDbEntity
  8
Hawa5
 62
     1
 48
0.038576
100
AcDbLine
 10
112.78598
 20
135.5876760000001
 30
0.0
 11
114.329012
 21
135.5876760000001
 31
0.0
  0
SPLINE
  5
49A
330
A
100
AcDbEntity
  8
Hawa5
 62
     1
100
AcDbSpline
210
0.0
220
0.0
230
1.0
 70
     8
 71
     3
 72
    20
 73
    16
 74
     0
 42
0.0000000001
 43
0.0000000001
 40
0.0
 40
0.0
 40
0.0
 40
0.0
 40
0.0464469110967195
 40
0.090259117075506
 40
0.1313575250762317
 40
0.169674733054852
 40
0.2051577213207935
 40
0.2377716361199962
 40
0.2675052863163315
 40
0.2943793708113203
 40
0.3184590894251532
 40
0.339873690827061
 40
0.3588463338027109
 40
0.3757363146274824
 40
0.3910863439728169
 40
0.3910863439728169
 40
0.3910863439728169
 40
0.3910863439728169
 10
114.329011751159
 20
135.5876762634748
 30
0.0
 10
114.3436276667077
 20
135.5927841603759
 30
0.0
 10
114.371951082678
 20
135.6029352202113
 30
0.0
 10
114.4128828685198
 20
135.618493967341
 30
0.0
 10
114.4509437554167
 20
135.6339514853605
 30
0.0
 10
114.4860352303188
 20
135.6493091755738
 30
0.0
 10
114.5180648019649
 20
135.6645682844178
 30
0.0
 10
114.5469470091334
 20
135.6797303666963
 30
0.0
 10
114.5726041431692
 20
135.694797812363
 30
0.0
 10
114.5949672547351
 20
135.709775270858
 30
0.0
 10
114.6139765985554
 20
135.7246716198265
 30
0.0
 10
114.6295815414377
 20
135.7395063145725
 30
0.0
 10
114.6417321210074
 20
135.7543112355347
 30
0.0
 10
114.650366823671
 20
135.7691514213336
 30
0.0
 10
114.6538026921839
 20
135.7794155394988
 30
0.0
 10
114.654813442094
 20
135.7844518343754
 30
0.0
  0
LINE
  5
49B
330
A
100
AcDbEntity
  8
Hawa5
 62
     1
 48
0.016268
100
AcDbLine
 10
112.78598
 20
135.5876760000001
 30
0.0
 11
112.135262
 21
135.5876760000001
 31
0.0
  0
SPLINE
  5
49C
330
A
100
AcDbEntity
  8
Hawa5
 62
     1
100
AcDbSpline
210
0.0
220
0.0
230
1.0
 70
     8
 71
     3
 72
    26
 73
    22
 74
     0
 42
0.0000000001
 43
0.0000000001
 40
0.0
 40
0.0
 40
0.0
 40
0.0
 40
0.0666221310035491
 40
0.1378297642642319
 40
0.2132985886331543
 40
0.2926715745746788
 40
0.3755630919193556
 40
0.4615623488943222
 40
0.5502364291946419
 40
0.6411331122676157
 40
0.7337162497298412
 40
0.8261764861232986
 40
0.916405978853324
 40
1.00363140204443
 40
1.088168827452463
 40
1.171031325635043
 40
1.253503262167897
 40
1.336713113312948
 40
1.421230513458629
 40
1.506718167088558
 40
1.591680776596726
 40
1.591680776596726
 40
1.591680776596726
 40
1.591680776596726
 10
114.329011751159
 20
135.5876762634748
 30
0.0
 10
114.3080467805587
 20
135.5803495306398
 30
0.0
 10
114.264469608645
 20
135.5657837391352
 30
0.0
 10
114.1965692353551
 20
135.5446810803664
 30
0.0
 10
114.1242344946007
 20
135.5235686773274
 30
0.0
 10
114.047854625608
 20
135.5024466220875
 30
0.0
 10
113.9678418915165
 20
135.4813153428274
 30
0.0
 10
113.8846292441326
 20
135.4601752825606
 30
0.0
 10
113.7986684662172
 20
135.4390271651705
 30
0.0
 10
113.7104499629023
 20
135.4178772761995
 30
0.0
 10
113.6209093990596
 20
135.396833252267
 30
0.0
 10
113.5315205852131
 20
135.3761181021705
 30
0.0
 10
113.4438344675257
 20
135.3559672144863
 30
0.0
 10
113.358708633926
 20
135.3364670270489
 30
0.0
 10
113.2759825000841
 20
135.3174887978496
 30
0.0
 10
113.1948242226068
 20
135.2987626686877
 30
0.0
 10
113.1141383780153
 20
135.2799579471466
 30
0.0
 10
113.032977212275
 20
135.260763839158
 30
0.0
 10
112.9509256750863
 20
135.2409697579171
 30
0.0
 10
112.8684266609185
 20
135.2205443539556
 30
0.0
 10
112.8133821536986
 20
135.2064617745141
 30
0.0
 10
112.7859800767442
 20
135.1993058202777
 30
0.0
  0
SPLINE
  5
49D
330
A
100
AcDbEntity
  8
Hawa5
 62
     1
100
AcDbSpline
210
0.0
220
0.0
230
1.0
 70
     8
 71
     3
 72
    15
 73
    11
 74
     0
 42
0.0000000001
 43
0.0000000001
 40
0.0
 40
0.0
 40
0.0
 40
0.0
 40
0.0507700098665523
 40
0.1066187774137997
 40
0.1671040613241166
 40
0.231681950685991
 40
0.2997810829767919
 40
0.3708890834224001
 40
0.44464581486454
 40
0.5209379136049414
 40
0.5209379136049414
 40
0.5209379136049414
 40
0.5209379136049414
 10
112.291535199825
 20
135.0373385054945
 30
0.0
 10
112.3068336383118
 20
135.0445802468619
 30
0.0
 10
112.3393516591952
 20
135.0589461093139
 30
0.0
 10
112.3911500634288
 20
135.07946048435
 30
0.0
 10
112.4478863145611
 20
135.0999173383857
 30
0.0
 10
112.5089879599104
 20
135.1202403324373
 30
0.0
 10
112.5738680685054
 20
135.1403733137859
 30
0.0
 10
112.6420063255446
 20
135.1602939946133
 30
0.0
 10
112.7130373212843
 20
135.1800261859244
 30
0.0
 10
112.761374325304
 20
135.1928801164322
 30
0.0
 10
112.7859800767442
 20
135.1993058202777
 30
0.0
  0
SPLINE
  5
49E
330
A
100
AcDbEntity
  8
Hawa5
 62
     1
100
AcDbSpline
210
0.0
220
0.0
230
1.0
 70
     8
 71
     3
 72
    31
 73
    27
 74
     0
 42
0.0000000001
 43
0.0000000001
 40
0.0
 40
0.0
 40
0.0
 40
0.0
 40
0.0737927998456706
 40
0.1496953554567353
 40
0.2274200509566762
 40
0.3066697205726298
 40
0.3871389273413565
 40
0.4685152357150695
 40
0.5504805068509377
 40
0.6327122411747097
 40
0.7148849895439384
 40
0.7966727433439392
 40
0.8779232479247898
 40
0.9587473631729263
 40
1.039052195663908
 40
1.118522022014297
 40
1.196674557733579
 40
1.272922406575552
 40
1.346635939641098
 40
1.417203430336401
 40
1.484084207327223
 40
1.546851017136692
 40
1.605218696268451
 40
1.659057494036152
 40
1.708390738401703
 40
1.75337779131722
 40
1.75337779131722
 40
1.75337779131722
 40
1.75337779131722
 10
112.7859800767442
 20
134.5779843349696
 30
0.0
 10
112.8097797259259
 20
134.5841991923239
 30
0.0
 10
112.8581137291173
 20
134.5965977072881
 30
0.0
 10
112.9316745259284
 20
134.6149155623577
 30
0.0
 10
113.0071070369672
 20
134.6332384559234
 30
0.0
 10
113.0841038635667
 20
134.6515662055804
 30
0.0
 10
113.1623502325072
 20
134.6698983740748
 30
0.0
 10
113.2415250885996
 20
134.6882343211653
 30
0.0
 10
113.3213021715077
 20
134.7065732006856
 30
0.0
 10
113.4013511829229
 20
134.7249139760195
 30
0.0
 10
113.4813393224721
 20
134.7432554898317
 30
0.0
 10
113.5609890109462
 20
134.7616094968957
 30
0.0
 10
113.640164026941
 20
134.7800209276529
 30
0.0
 10
113.7188028834763
 20
134.7985543987506
 30
0.0
 10
113.7967890895668
 20
134.8172672654903
 30
0.0
 10
113.8738114632849
 20
134.8361763619528
 30
0.0
 10
113.9493964622675
 20
134.8552621997039
 30
0.0
 10
114.0229673406723
 20
134.8744781876769
 30
0.0
 10
114.093904611341
 20
134.8937598206867
 30
0.0
 10
114.1616036664101
 20
134.9130338238774
 30
0.0
 10
114.2255253628447
 20
134.9322272670545
 30
0.0
 10
114.2852357086016
 20
134.9512766167777
 30
0.0
 10
114.3404316866327
 20
134.9701368505271
 30
0.0
 10
114.3909508282914
 20
134.9887902093049
 30
0.0
 10
114.436764653004
 20
135.0072559502003
 30
0.0
 10
114.4654926604761
 20
135.0200484485056
 30
0.0
 10
114.4790478958089
 20
135.0264657527384
 30
0.0
  0
SPLINE
  5
49F
330
A
100
AcDbEntity
  8
Hawa5
 62
     1
100
AcDbSpline
210
0.0
220
0.0
230
1.0
 70
     8
 71
     3
 72
    43
 73
    39
 74
     0
 42
0.0000000001
 43
0.0000000001
 40
0.0
 40
0.0
 40
0.0
 40
0.0
 40
0.066286154844833
 40
0.1342987505786351
 40
0.203829520859942
 40
0.2746641872100478
 40
0.3465832147522793
 40
0.4193625438704592
 40
0.4927743124998094
 40
0.5665875820726348
 40
0.6405690788652909
 40
0.7144839614765059
 40
0.7880966066508397
 40
0.861151869927186
 40
0.93335256585882
 40
1.004426787847301
 40
1.074137285115728
 40
1.142276878622974
 40
1.208663268139639
 40
1.273133566554629
 40
1.335538888468887
 40
1.395739307204667
 40
1.453599481017918
 40
1.508985237893279
 40
1.561761400247159
 40
1.611791127052575
 40
1.658937052352548
 40
1.703064507844517
 40
1.74404713729016
 40
1.781777748145803
 40
1.816205847864134
 40
1.8473393937901
 40
1.875240710124914
 40
1.900047526136056
 40
1.922005542955155
 40
1.941514607626465
 40
1.959181217533281
 40
1.975843284078502
 40
1.975843284078502
 40
1.975843284078502
 40
1.975843284078502
 10
112.7859800767442
 20
133.3993085815143
 30
0.0
 10
112.807358684872
 20
133.404891148992
 30
0.0
 10
112.8507165081615
 20
133.4160331895171
 30
0.0
 10
112.9166301105968
 20
133.4325173732416
 30
0.0
 10
112.9841046821721
 20
133.4490043556498
 30
0.0
 10
113.0529181765486
 20
133.4654942879872
 30
0.0
 10
113.1228439127318
 20
133.4819872423561
 30
0.0
 10
113.1936512063558
 20
133.4984832258906
 30
0.0
 10
113.2651059532066
 20
133.5149821587695
 30
0.0
 10
113.3369712479669
 20
133.53148386285
 30
0.0
 10
113.4090080243095
 20
133.5479880473704
 30
0.0
 10
113.4809757224372
 20
133.5644942960719
 30
0.0
 10
113.5526266337125
 20
133.5810005818335
 30
0.0
 10
113.6236926952166
 20
133.5974999696348
 30
0.0
 10
113.6938939635696
 20
133.6139819860994
 30
0.0
 10
113.7629562504326
 20
133.6304359527439
 30
0.0
 10
113.8306344544689
 20
133.646856192001
 30
0.0
 10
113.8967122700004
 20
133.6632420419548
 30
0.0
 10
113.9609970183264
 20
133.679596893815
 30
0.0
 10
114.0233141584386
 20
133.6959272263307
 30
0.0
 10
114.083501794784
 20
133.7122416394895
 30
0.0
 10
114.1414054841677
 20
133.7285498878748
 30
0.0
 10
114.1968736253903
 20
133.7448619152215
 30
0.0
 10
114.2497536962064
 20
133.7611868925464
 30
0.0
 10
114.2998895829254
 20
133.7775322637876
 30
0.0
 10
114.3471202268557
 20
133.7939028066614
 30
0.0
 10
114.3912797893531
 20
133.8102997198819
 30
0.0
 10
114.4321995012299
 20
133.8267197670752
 30
0.0
 10
114.4697121013978
 20
133.8431548347787
 30
0.0
 10
114.5036658450772
 20
133.85959569415
 30
0.0
 10
114.5339351903513
 20
133.8760363662393
 30
0.0
 10
114.5604231545752
 20
133.8924779527936
 30
0.0
 10
114.5830537637477
 20
133.9089294871121
 30
0.0
 10
114.6017658949538
 20
133.9254094043883
 30
0.0
 10
114.6165068983548
 20
133.9419565742503
 30
0.0
 10
114.6272121146655
 20
133.9586265385065
 30
0.0
 10
114.633764556386
 20
133.975501055113
 30
0.0
 10
114.6352602342402
 20
133.9869458276603
 30
0.0
 10
114.6352619967271
 20
133.9925283652612
 30
0.0
  0
SPLINE
  5
4A0
330
A
100
AcDbEntity
  8
Hawa5
 62
     1
100
AcDbSpline
210
0.0
220
0.0
230
1.0
 70
     8
 71
     3
 72
    17
 73
    13
 74
     0
 42
0.0000000001
 43
0.0000000001
 40
0.0
 40
0.0
 40
0.0
 40
0.0
 40
0.0386149475935303
 40
0.0801029816521287
 40
0.1245266011403193
 40
0.1719648227354053
 40
0.2224959252998421
 40
0.276174191123191
 40
0.3330017158506552
 40
0.3928964300386545
 40
0.4556577019004324
 40
0.520931220815768
 40
0.520931220815768
 40
0.520931220815768
 40
0.520931220815768
 10
112.2915464983064
 20
133.237345133582
 30
0.0
 10
112.3031816100715
 20
133.2428528976261
 30
0.0
 10
112.3275429229105
 20
133.2537948105335
 30
0.0
 10
112.3659338774952
 20
133.269594158005
 30
0.0
 10
112.4074779540139
 20
133.2854141337541
 30
0.0
 10
112.4522067903932
 20
133.301304881976
 30
0.0
 10
112.5001580556406
 20
133.3173100427937
 30
0.0
 10
112.5513513519106
 20
133.3334625277787
 30
0.0
 10
112.6057590740352
 20
133.3497796212207
 30
0.0
 10
112.6632741121321
 20
133.3662582509191
 30
0.0
 10
112.7236756059494
 20
133.3828702639969
 30
0.0
 10
112.7649280117472
 20
133.3938112838098
 30
0.0
 10
112.7859800767442
 20
133.3993085815143
 30
0.0
  0
SPLINE
  5
4A1
330
A
100
AcDbEntity
  8
Hawa5
 62
     1
100
AcDbSpline
210
0.0
220
0.0
230
1.0
 70
     8
 71
     3
 72
    23
 73
    19
 74
     0
 42
0.0000000001
 43
0.0000000001
 40
0.0
 40
0.0
 40
0.0
 40
0.0
 40
0.0189036616274345
 40
0.0392521795479985
 40
0.0622316245386364
 40
0.0887865426173201
 40
0.1195903039923271
 40
0.1550776061785822
 40
0.1954750066890617
 40
0.2408161949856693
 40
0.2909567737552578
 40
0.3455977193180779
 40
0.4043217407324787
 40
0.4666431530331048
 40
0.532069415067963
 40
0.6001709877859391
 40
0.6706555284111109
 40
0.7434424856015082
 40
0.7434424856015082
 40
0.7434424856015082
 40
0.7434424856015082
 10
112.1352620000006
 20
134.2712287566403
 30
0.0
 10
112.1352619630164
 20
134.2775708374791
 30
0.0
 10
112.1372122268497
 20
134.2906555282116
 30
0.0
 10
112.1456877822082
 20
134.3098254129993
 30
0.0
 10
112.1594900457866
 20
134.3287476962839
 30
0.0
 10
112.1785865889532
 20
134.34764315243
 30
0.0
 10
112.2030817862171
 20
134.3666482311598
 30
0.0
 10
112.2330729316323
 20
134.3858282635474
 30
0.0
 10
112.2685734970287
 20
134.4051828159118
 30
0.0
 10
112.3094777750058
 20
134.424673396315
 30
0.0
 10
112.3555490570557
 20
134.4442374677515
 30
0.0
 10
112.4064277579316
 20
134.463801447584
 30
0.0
 10
112.4616579837497
 20
134.4832914186068
 30
0.0
 10
112.5207304595509
 20
134.502643431799
 30
0.0
 10
112.5831387074222
 20
134.5218134823012
 30
0.0
 10
112.6484444732702
 20
134.5407874028785
 30
0.0
 10
112.7163484016998
 20
134.5595908237205
 30
0.0
 10
112.7625047472016
 20
134.5718541679516
 30
0.0
 10
112.7859800767442
 20
134.5779843349696
 30
0.0
  0
SPLINE
  5
4A2
330
A
100
AcDbEntity
  8
Hawa5
 62
     1
100
AcDbSpline
210
0.0
220
0.0
230
1.0
 70
     8
 71
     3
 72
    36
 73
    32
 74
     0
 42
0.0000000001
 43
0.0000000001
 40
0.0
 40
0.0
 40
0.0
 40
0.0
 40
0.0622102055042689
 40
0.1259545783805332
 40
0.1910610307679057
 40
0.2573527150394576
 40
0.3246485810439775
 40
0.3927639145310997
 40
0.4615108665305394
 40
0.5306989823434062
 40
0.6001357379610401
 40
0.6696270910569692
 40
0.7389780531372649
 40
0.807992460213401
 40
0.8764453593676494
 40
0.9440908653784267
 40
1.01070919878635
 40
1.076107026971163
 40
1.140114048746054
 40
1.202579182239176
 40
1.263366572401094
 40
1.32235162882776
 40
1.379417296739436
 40
1.434450755798498
 40
1.487340734279264
 40
1.537975620741305
 40
1.586242552299739
 40
1.632027658311448
 40
1.675217641615255
 40
1.715702888046326
 40
1.753382311809212
 40
1.753382311809212
 40
1.753382311809212
 40
1.753382311809212
 10
112.7859800767442
 20
132.7779888325965
 30
0.0
 10
112.8060441320122
 20
132.783228007612
 30
0.0
 10
112.8467056403277
 20
132.7936871021684
 30
0.0
 10
112.9084816197425
 20
132.8091728684922
 30
0.0
 10
112.9716585774678
 20
132.8246609558199
 30
0.0
 10
113.0360530756171
 20
132.8401516264964
 30
0.0
 10
113.1014779871027
 20
132.8556450527822
 30
0.0
 10
113.1677429622484
 20
132.8711413274498
 30
0.0
 10
113.2346548503366
 20
132.8866404457965
 30
0.0
 10
113.3020181470087
 20
132.9021422955661
 30
0.0
 10
113.3696354533681
 20
132.9176466461604
 30
0.0
 10
113.4373079574958
 20
132.9331531338348
 30
0.0
 10
113.5048356666868
 20
132.9486612028193
 30
0.0
 10
113.5720085096983
 20
132.9641678605053
 30
0.0
 10
113.6385997678867
 20
132.9796661310838
 30
0.0
 10
113.7043749425079
 20
132.9951466663576
 30
0.0
 10
113.7691097707116
 20
133.0106011445018
 30
0.0
 10
113.8326044096533
 20
133.0260255395453
 30
0.0
 10
113.894681079506
 20
133.0414196393797
 30
0.0
 10
113.9551802556801
 20
133.0567863482806
 30
0.0
 10
114.0139566490043
 20
133.0721309824478
 30
0.0
 10
114.0708751771211
 20
133.0874605664603
 30
0.0
 10
114.1258071225529
 20
133.1027831290205
 30
0.0
 10
114.1786266617891
 20
133.1181069996719
 30
0.0
 10
114.229207936136
 20
133.1334401060769
 30
0.0
 10
114.2774228311111
 20
133.148789279137
 30
0.0
 10
114.3231395916475
 20
133.1641595509866
 30
0.0
 10
114.3662224817414
 20
133.1795535155577
 30
0.0
 10
114.4065323515892
 20
133.1949705416991
 30
0.0
 10
114.4439290827139
 20
133.2104066127131
 30
0.0
 10
114.4676955407614
 20
133.2210952088108
 30
0.0
 10
114.4790486234338
 20
133.2264697317569
 30
0.0
  0
SPLINE
  5
4A3
330
A
100
AcDbEntity
  8
Hawa5
 62
     1
100
AcDbSpline
210
0.0
220
0.0
230
1.0
 70
     8
 71
     3
 72
    26
 73
    22
 74
     0
 42
0.0000000001
 43
0.0000000001
 40
0.0
 40
0.0
 40
0.0
 40
0.0
 40
0.0658615408668406
 40
0.1294951003503434
 40
0.1907029295707294
 40
0.249298212101647
 40
0.3051063510839017
 40
0.3579664898963573
 40
0.4077333757770714
 40
0.4542797320652713
 40
0.4974993966347935
 40
0.5373116366786308
 40
0.5736579177465605
 40
0.6061450773909789
 40
0.6343514559931346
 40
0.6585061532983484
 40
0.6792256420375397
 40
0.6972831398469776
 40
0.7134819364503172
 40
0.728620309056916
 40
0.7435240431859639
 40
0.7435240431859639
 40
0.7435240431859639
 40
0.7435240431859639
 10
112.7859800767442
 20
132.7779888325965
 30
0.0
 10
112.7647383265942
 20
132.7724421350229
 30
0.0
 10
112.7230157508127
 20
132.7613750300384
 30
0.0
 10
112.6617254542312
 20
132.7445083099881
 30
0.0
 10
112.6029502688547
 20
132.727643327074
 30
0.0
 10
112.5468928323251
 20
132.7107799912224
 30
0.0
 10
112.493746562033
 20
132.6939183905754
 30
0.0
 10
112.4436948687399
 20
132.6770587532126
 30
0.0
 10
112.3969104734647
 20
132.660201451851
 30
0.0
 10
112.3535546302035
 20
132.6433469609992
 30
0.0
 10
112.3137762525091
 20
132.6264957569574
 30
0.0
 10
112.2777137645506
 20
132.6096493712646
 30
0.0
 10
112.2456044066621
 20
132.5928685400779
 30
0.0
 10
112.2177880278088
 20
132.5763199126034
 30
0.0
 10
112.1944963748016
 20
132.560229472736
 30
0.0
 10
112.1756409432125
 20
132.5447529426419
 30
0.0
 10
112.1608140913259
 20
132.5298538829193
 30
0.0
 10
112.1495364219185
 20
132.5153396297737
 30
0.0
 10
112.1414460454827
 20
132.5009171786326
 30
0.0
 10
112.1364241752727
 20
132.4862322201841
 30
0.0
 10
112.1352621330158
 20
132.4762155505693
 30
0.0
 10
112.1352620000228
 20
132.4712269613046
 30
0.0
  0
SPLINE
  5
4A4
330
A
100
AcDbEntity
  8
Hawa5
 62
     1
100
AcDbSpline
210
0.0
220
0.0
230
1.0
 70
     8
 71
     3
 72
    13
 73
     9
 74
     0
 42
0.0000000001
 43
0.0000000001
 40
0.0
 40
0.0
 40
0.0
 40
0.0
 40
0.0685717175559824
 40
0.1171906467180336
 40
0.1512983489048744
 40
0.1854061926329823
 40
0.2340172479353935
 40
0.3025688945249019
 40
0.3025688945249019
 40
0.3025688945249019
 40
0.3025688945249019
 10
115.2754199104616
 20
135.577282067987
 30
0.0
 10
115.2963864994623
 20
135.5680927609428
 30
0.0
 10
115.3313400077932
 20
135.5504655623572
 30
0.0
 10
115.3722686053739
 20
135.5202742147483
 30
0.0
 10
115.390621519057
 20
135.4818803594474
 30
0.0
 10
115.3722582822285
 20
135.4434957972692
 30
0.0
 10
115.3313384764889
 20
135.4133110883893
 30
0.0
 10
115.2963927516003
 20
135.3956885207917
 30
0.0
 10
115.2754321493578
 20
135.3865017843352
 30
0.0
  0
SPLINE
  5
4A5
330
A
100
AcDbEntity
  8
Hawa5
 62
     1
100
AcDbSpline
210
0.0
220
0.0
230
1.0
 70
     8
 71
     3
 72
    22
 73
    18
 74
     0
 42
0.0000000001
 43
0.0000000001
 40
0.0
 40
0.0
 40
0.0
 40
0.0
 40
0.1412055263527965
 40
0.3279847834154467
 40
0.5563799600018014
 40
0.8208567350979915
 40
1.114723300499697
 40
1.430363948579801
 40
1.759414070851149
 40
2.09293228496659
 40
2.421815049679953
 40
2.73727283991999
 40
3.031030240716201
 40
3.295497803093978
 40
3.523965748873091
 40
3.710856287109876
 40
3.852161385572455
 40
3.852161385572455
 40
3.852161385572455
 40
3.852161385572455
 10
115.2754321493578
 20
135.3865017843352
 30
0.0
 10
115.2322896502429
 20
135.3675930352038
 30
0.0
 10
115.1282937098484
 20
135.3329921287402
 30
0.0
 10
114.9485046739759
 20
135.2873599122638
 30
0.0
 10
114.7266059092092
 20
135.2413641100491
 30
0.0
 10
114.4684716444591
 20
135.1950435813619
 30
0.0
 10
114.1808663819699
 20
135.1485482327598
 30
0.0
 10
113.8715050123287
 20
135.1019251019766
 30
0.0
 10
113.5487944790155
 20
135.0552354982549
 30
0.0
 10
113.2216281609109
 20
135.0085289240938
 30
0.0
 10
112.8990335563269
 20
134.9618533262615
 30
0.0
 10
112.5898233225564
 20
134.9152549863766
 30
0.0
 10
112.3023161960274
 20
134.8687819198603
 30
0.0
 10
112.0441953432807
 20
134.8224728628225
 30
0.0
 10
111.8222376111476
 20
134.7764742829243
 30
0.0
 10
111.6423551005647
 20
134.7308261693276
 30
0.0
 10
111.5382908401987
 20
134.6962070576499
 30
0.0
 10
111.4951175670449
 20
134.6772857517401
 30
0.0
  0
SPLINE
  5
4A6
330
A
100
AcDbEntity
  8
Hawa5
 62
     1
100
AcDbSpline
210
0.0
220
0.0
230
1.0
 70
     8
 71
     3
 72
    13
 73
     9
 74
     0
 42
0.0000000001
 43
0.0000000001
 40
0.0
 40
0.0
 40
0.0
 40
0.0
 40
0.0685953726727782
 40
0.1172211506545397
 40
0.1513262220248879
 40
0.1854319465571251
 40
0.2340349541978474
 40
0.3025700483078763
 40
0.3025700483078763
 40
0.3025700483078763
 40
0.3025700483078763
 10
111.4951175670449
 20
134.6772857517401
 30
0.0
 10
111.4741438058098
 20
134.6680937001902
 30
0.0
 10
111.4391814702088
 20
134.6504622092018
 30
0.0
 10
111.3982434817532
 20
134.6202642068463
 30
0.0
 10
111.37990289176
 20
134.5818632305766
 30
0.0
 10
111.3982723082089
 20
134.5434884298786
 30
0.0
 10
111.4391845379573
 20
134.5133101343472
 30
0.0
 10
111.4741232636972
 20
134.4956916126534
 30
0.0
 10
111.4950788672701
 20
134.4865070045248
 30
0.0
  0
SPLINE
  5
4A7
330
A
100
AcDbEntity
  8
Hawa5
 62
     1
100
AcDbSpline
210
0.0
220
0.0
230
1.0
 70
     8
 71
     3
 72
    13
 73
     9
 74
     0
 42
0.0000000001
 43
0.0000000001
 40
0.0
 40
0.0
 40
0.0
 40
0.0
 40
0.0686054476746331
 40
0.1172251144727659
 40
0.1513214775190598
 40
0.1854218707097572
 40
0.2340137414851723
 40
0.3025294787918392
 40
0.3025294787918392
 40
0.3025294787918392
 40
0.3025294787918392
 10
115.2754249071919
 20
133.7772757050043
 30
0.0
 10
115.2964013622232
 20
133.7680817909388
 30
0.0
 10
115.3313642059965
 20
133.7504489335756
 30
0.0
 10
115.3722988212353
 20
133.7202453470761
 30
0.0
 10
115.3906205201722
 20
133.6818438133807
 30
0.0
 10
115.3722463047849
 20
133.6434834725214
 30
0.0
 10
115.3313446560866
 20
133.6133128529627
 30
0.0
 10
115.2964148864368
 20
133.5956988179612
 30
0.0
 10
115.2754652494324
 20
133.5865164277318
 30
0.0
  0
SPLINE
  5
4A8
330
A
100
AcDbEntity
  8
Hawa5
 62
     1
100
AcDbSpline
210
0.0
220
0.0
230
1.0
 70
     8
 71
     3
 72
    22
 73
    18
 74
     0
 42
0.0000000001
 43
0.0000000001
 40
0.0
 40
0.0
 40
0.0
 40
0.0
 40
0.1411199297550946
 40
0.3278273824636742
 40
0.5562126377909192
 40
0.8207707121556815
 40
1.114798845024268
 40
1.430608757497318
 40
1.759688701670584
 40
2.093046577789064
 40
2.421723651250241
 40
2.737034032472636
 40
3.030743887224624
 40
3.29525906550504
 40
3.523834589769936
 40
3.710842710001104
 40
3.852226312255016
 40
3.852226312255016
 40
3.852226312255016
 40
3.852226312255016
 10
115.2754652494324
 20
133.5865164277318
 30
0.0
 10
115.2323492644677
 20
133.5676183533171
 30
0.0
 10
115.1284049562992
 20
133.5330293538761
 30
0.0
 10
114.9486720501142
 20
133.4874024399257
 30
0.0
 10
114.7267752197421
 20
133.4413979441711
 30
0.0
 10
114.4685656033824
 20
133.395057470615
 30
0.0
 10
114.180824999496
 20
133.3485383147586
 30
0.0
 10
113.8713443081063
 20
133.3019001837015
 30
0.0
 10
113.5486207517538
 20
133.2552104338604
 30
0.0
 10
113.2215657855688
 20
133.2085168401795
 30
0.0
 10
112.8991404285578
 20
133.1618667190382
 30
0.0
 10
112.5900615679411
 20
133.1152929000691
 30
0.0
 10
112.3026018606548
 20
133.0688342900548
 30
0.0
 10
112.0444445554716
 20
133.0225252737264
 30
0.0
 10
111.8223967045922
 20
132.9765130797189
 30
0.0
 10
111.6424155007923
 20
132.9308426116224
 30
0.0
 10
111.5382884407932
 20
132.8962040894914
 30
0.0
 10
111.495091685919
 20
132.8772710937262
 30
0.0
  0
SPLINE
  5
4A9
330
A
100
AcDbEntity
  8
Hawa5
 62
     1
100
AcDbSpline
210
0.0
220
0.0
230
1.0
 70
     8
 71
     3
 72
    13
 73
     9
 74
     0
 42
0.0000000001
 43
0.0000000001
 40
0.0
 40
0.0
 40
0.0
 40
0.0
 40
0.068621694528358
 40
0.1172375452604264
 40
0.1513277515721216
 40
0.1854268532101325
 40
0.2340178099307533
 40
0.3025326407869979
 40
0.3025326407869979
 40
0.3025326407869979
 40
0.3025326407869979
 10
111.495091685919
 20
132.8772710937262
 30
0.0
 10
111.4741103438771
 20
132.8680750404305
 30
0.0
 10
111.4391440403866
 20
132.8504401437399
 30
0.0
 10
111.398209546476
 20
132.8202300821204
 30
0.0
 10
111.3799024337574
 20
132.78182579131
 30
0.0
 10
111.3982865014222
 20
132.7434745754122
 30
0.0
 10
111.4391882063188
 20
132.7133080175165
 30
0.0
 10
111.4741183524471
 20
132.6956956605134
 30
0.0
 10
111.4950680668545
 20
132.6865139045499
 30
0.0
  0
LINE
  5
4AA
330
A
100
AcDbEntity
  8
Hawa5
 62
     1
 48
0.007
100
AcDbLine
 10
117.285262
 20
138.9318900000001
 30
0.0
 11
117.285262
 21
138.6518900000001
 31
0.0
  0
LINE
  5
4AB
330
A
100
AcDbEntity
  8
Hawa5
 62
     1
 48
0.007
100
AcDbLine
 10
109.485262
 20
138.9318900000001
 30
0.0
 11
109.485262
 21
138.6518900000001
 31
0.0
  0
LINE
  5
4AC
330
A
100
AcDbEntity
  8
Hawa5
 62
     1
 48
0.083336
100
AcDbLine
 10
114.928155
 20
136.2947830000001
 30
0.0
 11
117.285262
 21
138.6518900000001
 31
0.0
  0
LINE
  5
4AD
330
A
100
AcDbEntity
  8
Hawa5
 62
     1
 48
0.083336
100
AcDbLine
 10
111.842369
 20
136.2947830000001
 30
0.0
 11
109.485262
 21
138.6518900000001
 31
0.0
  0
ARC
  5
4AE
330
A
100
AcDbEntity
  8
Hawa5
 62
     1
100
AcDbCircle
 10
115.635262
 20
135.5876760000001
 30
0.0
 40
1.0
100
AcDbArc
 50
135.000000000004
 51
168.6515340000018
  0
ARC
  5
4AF
330
A
100
AcDbEntity
  8
Hawa5
 62
     1
100
AcDbCircle
 10
111.135262
 20
135.5876760000001
 30
0.0
 40
1.0
100
AcDbArc
 50
0.0
 51
44.99999999999596
  0
LINE
  5
4B0
330
A
100
AcDbEntity
  8
Hawa5
 62
     1
 48
0.015525
100
AcDbLine
 10
112.135262
 20
135.5876760000001
 30
0.0
 11
112.135262
 21
134.9666920000002
 31
0.0
  0
LINE
  5
4B1
330
A
100
AcDbEntity
  8
Hawa5
 62
     1
 48
0.027613
100
AcDbLine
 10
114.635262
 20
135.0970570000002
 30
0.0
 11
114.635262
 21
133.992528
 31
0.0
  0
LINE
  5
4B2
330
A
100
AcDbEntity
  8
Hawa5
 62
     1
 48
0.027613
100
AcDbLine
 10
112.135262
 20
134.2712290000002
 30
0.0
 11
112.135262
 21
133.16669
 31
0.0
  0
LINE
  5
4B3
330
A
100
AcDbEntity
  8
Hawa5
 62
     1
 48
0.027613
100
AcDbLine
 10
114.635262
 20
133.2970600000001
 30
0.0
 11
114.635262
 21
132.1925490000001
 31
0.0
  0
ARC
  5
4B4
330
A
100
AcDbEntity
  8
Hawa5
 62
     1
100
AcDbCircle
 10
99.158333
 20
163.0566120000001
 30
0.0
 40
30.944641
100
AcDbArc
 50
293.4950749999999
 51
295.113426
  0
ARC
  5
4B5
330
A
100
AcDbEntity
  8
Hawa5
 62
     1
100
AcDbCircle
 10
99.16789200000001
 20
161.2338140000002
 30
0.0
 40
30.919934
100
AcDbArc
 50
293.4956109999999
 51
295.1153719999999
  0
ARC
  5
4B6
330
A
100
AcDbEntity
  8
Hawa5
 62
     1
100
AcDbCircle
 10
127.586149
 20
107.0664040000001
 30
0.0
 40
30.879937
100
AcDbArc
 50
113.494534
 51
115.11993
  0
ARC
  5
4B7
330
A
100
AcDbEntity
  8
Hawa5
 62
     1
100
AcDbCircle
 10
127.585857
 20
105.2667780000002
 30
0.0
 40
30.879478
100
AcDbArc
 50
113.494289
 51
115.1197370000001
  0
LINE
  5
4B8
330
A
100
AcDbEntity
  8
Hawa5
 62
     1
 48
0.1125
100
AcDbLine
 10
115.885262
 20
136.70189
 30
0.0
 11
115.885262
 21
132.20189
 31
0.0
  0
LINE
  5
4B9
330
A
100
AcDbEntity
  8
Hawa5
 62
     1
 48
0.0125
100
AcDbLine
 10
115.885262
 20
136.70189
 30
0.0
 11
116.385262
 21
136.70189
 31
0.0
  0
LINE
  5
4BA
330
A
100
AcDbEntity
  8
Hawa5
 62
     1
 48
0.1125
100
AcDbLine
 10
116.385262
 20
136.70189
 30
0.0
 11
116.385262
 21
132.20189
 31
0.0
  0
LINE
  5
4BB
330
A
100
AcDbEntity
  8
Hawa5
 62
     1
 48
0.1125
100
AcDbLine
 10
110.385262
 20
136.70189
 30
0.0
 11
110.385262
 21
132.20189
 31
0.0
  0
LINE
  5
4BC
330
A
100
AcDbEntity
  8
Hawa5
 62
     1
 48
0.0125
100
AcDbLine
 10
110.385262
 20
136.70189
 30
0.0
 11
110.885262
 21
136.70189
 31
0.0
  0
LINE
  5
4BD
330
A
100
AcDbEntity
  8
Hawa5
 62
     1
 48
0.1125
100
AcDbLine
 10
110.885262
 20
136.70189
 30
0.0
 11
110.885262
 21
132.20189
 31
0.0
  0
LINE
  5
4BE
330
A
100
AcDbEntity
  8
Hawa5
 62
     1
 48
0.014434
100
AcDbLine
 10
110.885262
 20
136.1733260000001
 30
0.0
 11
110.385262
 21
136.4620220000002
 31
0.0
  0
LINE
  5
4BF
330
A
100
AcDbEntity
  8
Hawa5
 62
     1
 48
0.014434
100
AcDbLine
 10
116.385262
 20
132.9979110000002
 30
0.0
 11
115.885262
 21
133.286607
 31
0.0
  0
LINE
  5
4C0
330
A
100
AcDbEntity
  8
Hawa5
 62
     1
 48
0.017678
100
AcDbLine
 10
82.385262
 20
132.429063
 30
0.0
 11
82.88526199999999
 21
132.929063
 31
0.0
  0
LINE
  5
4C1
330
A
100
AcDbEntity
  8
Hawa5
 62
     1
 48
0.017678
100
AcDbLine
 10
82.385262
 20
133.8432480000001
 30
0.0
 11
82.88526199999999
 21
134.3432480000001
 31
0.0
  0
LINE
  5
4C2
330
A
100
AcDbEntity
  8
Hawa5
 62
     1
 48
0.017678
100
AcDbLine
 10
87.88526199999999
 20
132.272203
 30
0.0
 11
88.385262
 21
132.772203
 31
0.0
  0
LINE
  5
4C3
330
A
100
AcDbEntity
  8
Hawa5
 62
     1
 48
0.017678
100
AcDbLine
 10
87.88526199999999
 20
133.6863880000001
 30
0.0
 11
88.385262
 21
134.1863880000001
 31
0.0
  0
VIEWPORT
  5
4A
102
{ACAD_XDICTIONARY
360
690
102
}
330
B
100
AcDbEntity
 67
     1
  8
0
 62
     0
100
AcDbViewport
 10
0.0
 20
0.0
 30
0.0
 40
1000.0
 41
1000.0
 68
     1
 69
     1
 12
0.0
 22
0.0
 13
0.0
 23
0.0
 14
1.0
 24
1.0
 15
1.0
 25
1.0
 16
0.0
 26
0.0
 36
1.0
 17
0.0
 27
0.0
 37
0.0
 42
50.0
 43
0.0
 44
0.0
 45
1000.0
 50
0.0
 51
0.0
 72
   100
 90
   557216
  1

281
     0
 71
     1
 74
     0
110
0.0
120
0.0
130
0.0
111
1.0
121
0.0
131
0.0
112
0.0
122
1.0
132
0.0
 79
     0
146
0.0
  0
ENDSEC
  0
SECTION
  2
OBJECTS
  0
DICTIONARY
  5
19
330
0
100
AcDbDictionary
281
     1
  3
ACAD_COLOR
350
4ED
  3
ACAD_GROUP
350
1A
  3
ACAD_LAYOUT
350
2DD
  3
ACAD_MATERIAL
350
4D8
  3
ACAD_MLEADERSTYLE
350
4CF
  3
ACAD_MLINESTYLE
350
1B
  3
ACAD_PLOTSETTINGS
350
4F0
  3
ACAD_PLOTSTYLENAME
350
4D6
  3
ACAD_SCALELIST
350
2E0
  3
ACAD_TABLESTYLE
350
4EE
  3
ACAD_VISUALSTYLE
350
4DC
  3
AcDbVariableDictionary
350
4CD
  3
DWGPROPS
350
68F
  0
DICTIONARY
  5
690
330
4A
100
AcDbDictionary
280
     1
281
     1
  3
ACAD_XREC_ROUNDTRIP
360
691
  0
DICTIONARY
  5
4ED
102
{ACAD_REACTORS
330
19
102
}
330
19
100
AcDbDictionary
281
     1
  0
DICTIONARY
  5
1A
102
{ACAD_REACTORS
330
19
102
}
330
19
100
AcDbDictionary
281
     1
  0
DICTIONARY
  5
2DD
102
{ACAD_REACTORS
330
19
102
}
330
19
100
AcDbDictionary
281
     1
  3
Layout1
350
2DF
  3
Model
350
2DE
  0
DICTIONARY
  5
4D8
102
{ACAD_REACTORS
330
19
102
}
330
19
100
AcDbDictionary
281
     1
  3
ByBlock
350
4DA
  3
ByLayer
350
4D9
  3
Global
350
4DB
  0
DICTIONARY
  5
4CF
102
{ACAD_REACTORS
330
19
102
}
330
19
100
AcDbDictionary
281
     1
  0
DICTIONARY
  5
1B
102
{ACAD_REACTORS
330
19
102
}
330
19
100
AcDbDictionary
281
     1
  3
STANDARD
350
1C
  0
DICTIONARY
  5
4F0
102
{ACAD_REACTORS
330
19
102
}
330
19
100
AcDbDictionary
281
     1
  0
ACDBDICTIONARYWDFLT
  5
4D6
102
{ACAD_REACTORS
330
19
102
}
330
19
100
AcDbDictionary
281
     1
  3
Normal
350
4D7
100
AcDbDictionaryWithDefault
340
4D7
  0
DICTIONARY
  5
2E0
102
{ACAD_REACTORS
330
19
102
}
330
19
100
AcDbDictionary
281
     1
  3
A0
350
2E1
  3
A1
350
2E2
  3
A2
350
2E3
  3
A3
350
2E4
  3
A4
350
2E5
  3
A5
350
2E6
  3
A6
350
2E7
  3
A7
350
2E8
  3
A8
350
2E9
  3
A9
350
2EA
  3
B0
350
2EB
  3
B1
350
2EC
  3
B2
350
2ED
  3
B3
350
2EE
  3
B4
350
2EF
  3
B5
350
2F0
  3
B6
350
2F1
  3
B7
350
2F2
  3
B8
350
2F3
  3
B9
350
2F4
  3
C0
350
2F5
  3
C1
350
2F6
  3
C2
350
2F7
  3
C3
350
2F8
  3
C4
350
2F9
  3
C5
350
2FA
  3
C6
350
2FB
  3
C7
350
2FC
  3
C8
350
2FD
  3
C9
350
2FE
  3
D0
350
2FF
  3
D1
350
300
  3
D2
350
301
  0
DICTIONARY
  5
4EE
102
{ACAD_REACTORS
330
19
102
}
330
19
100
AcDbDictionary
281
     1
  3
Standard
350
4EF
  0
DICTIONARY
  5
4DC
102
{ACAD_REACTORS
330
19
102
}
330
19
100
AcDbDictionary
281
     1
  3
2dWireframe
350
4E2
  3
3D Hidden
350
4E4
  3
3dWireframe
350
4E3
  3
Basic
350
4E1
  3
Brighten
350
4E8
  3
ColorChange
350
4EC
  3
Conceptual
350
4E5
  3
Dim
350
4E7
  3
Facepattern
350
4EB
  3
Flat
350
4DD
  3
FlatWithEdges
350
4DE
  3
Gouraud
350
4DF
  3
GouraudWithEdges
350
4E0
  3
Linepattern
350
4EA
  3
Realistic
350
4E6
  3
Thicken
350
4E9
  0
DICTIONARY
  5
4CD
102
{ACAD_REACTORS
330
19
102
}
330
19
100
AcDbDictionary
281
     1
  3
CANNOSCALE
350
4D0
  3
CTABLESTYLE
350
67C
  3
DIMASSOC
350
67F
  3
INDEXCTL
350
67E
  3
SORTENTS
350
67D
  0
XRECORD
  5
68F
102
{ACAD_REACTORS
330
19
102
}
330
19
100
AcDbXrecord
280
     1
  1
DWGPROPS COOKIE
  2

  3

  4

  6

  7

  8
rhu
  9

300
=
301
=
302
=
303
=
304
=
305
=
306
=
307
=
308
=
309
=
 40
0.0036529976851852
 41
2447893.0
 42
2455789.394235197
  1

 90
        0
  0
XRECORD
  5
691
102
{ACAD_REACTORS
330
690
102
}
330
690
100
AcDbXrecord
280
     1
102
SHADEPLOT
 70
     0
  0
LAYOUT
  5
2DF
102
{ACAD_XDICTIONARY
360
694
102
}
102
{ACAD_REACTORS
330
2DD
102
}
330
2DD
100
AcDbPlotSettings
  1

  2
none_device
  4

  6

 40
0.0
 41
0.0
 42
0.0
 43
0.0
 44
0.0
 45
0.0
 46
0.0
 47
0.0
 48
0.0
 49
0.0
140
0.0
141
0.0
142
1.0
143
1.0
 70
   688
 72
     0
 73
     0
 74
     5
  7

 75
    16
147
1.0
148
0.0
149
0.0
100
AcDbLayout
  1
Layout1
 70
     1
 71
     1
 10
0.0
 20
0.0
 11
420.0
 21
297.0
 12
0.0
 22
0.0
 32
0.0
 14
0.0
 24
0.0
 34
0.0
 15
101.689774
 25
-1686.902466
 35
2.0
146
0.0
 13
0.0
 23
0.0
 33
0.0
 16
1.0
 26
0.0
 36
0.0
 17
0.0
 27
1.0
 37
0.0
 76
     0
330
B
331
4A
  0
LAYOUT
  5
2DE
102
{ACAD_XDICTIONARY
360
692
102
}
102
{ACAD_REACTORS
330
2DD
102
}
330
2DD
100
AcDbPlotSettings
  1

  2
none_device
  4

  6

 40
0.0
 41
0.0
 42
0.0
 43
0.0
 44
0.0
 45
0.0
 46
0.0
 47
0.0
 48
0.0
 49
0.0
140
0.0
141
0.0
142
1.0
143
1.0
 70
   688
 72
     0
 73
     0
 74
     5
  7

 75
    16
147
1.0
148
0.0
149
0.0
100
AcDbLayout
  1
Model
 70
     1
 71
     0
 10
0.0
 20
0.0
 11
0.0
 21
0.0
 12
0.0
 22
0.0
 32
0.0
 14
0.0
 24
0.0
 34
0.0
 15
0.0
 25
0.0
 35
0.0
146
0.0
 13
0.0
 23
0.0
 33
0.0
 16
1.0
 26
0.0
 36
0.0
 17
0.0
 27
1.0
 37
0.0
 76
     0
330
A
331
15
  0
MATERIAL
  5
4DA
102
{ACAD_XDICTIONARY
360
698
102
}
102
{ACAD_REACTORS
330
4D8
102
}
330
4D8
100
AcDbMaterial
  1
ByBlock
  0
MATERIAL
  5
4D9
102
{ACAD_XDICTIONARY
360
696
102
}
102
{ACAD_REACTORS
330
4D8
102
}
330
4D8
100
AcDbMaterial
  1
ByLayer
  0
MATERIAL
  5
4DB
102
{ACAD_XDICTIONARY
360
69A
102
}
102
{ACAD_REACTORS
330
4D8
102
}
330
4D8
100
AcDbMaterial
  1
Global
  0
MLINESTYLE
  5
1C
102
{ACAD_REACTORS
330
1B
102
}
330
1B
100
AcDbMlineStyle
  2
STANDARD
 70
     0
  3

 62
     0
 51
90.0
 52
90.0
 71
     2
 49
0.5
 62
   256
  6
BYLAYER
 49
-0.5
 62
   256
  6
BYLAYER
  0
ACDBPLACEHOLDER
  5
4D7
102
{ACAD_REACTORS
330
4D6
102
}
330
4D6
  0
SCALE
  5
2E1
102
{ACAD_REACTORS
330
2E0
102
}
330
2E0
100
AcDbScale
 70
     0
300
1:1
140
1.0
141
1.0
290
     1
1001
ACAD
1000
AcRTDxfName
1000
SCALE
  0
SCALE
  5
2E2
102
{ACAD_REACTORS
330
2E0
102
}
330
2E0
100
AcDbScale
 70
     0
300
1:2
140
1.0
141
2.0
290
     0
1001
ACAD
1000
AcRTDxfName
1000
SCALE
  0
SCALE
  5
2E3
102
{ACAD_REACTORS
330
2E0
102
}
330
2E0
100
AcDbScale
 70
     0
300
1:4
140
1.0
141
4.0
290
     0
1001
ACAD
1000
AcRTDxfName
1000
SCALE
  0
SCALE
  5
2E4
102
{ACAD_REACTORS
330
2E0
102
}
330
2E0
100
AcDbScale
 70
     0
300
1:5
140
1.0
141
5.0
290
     0
1001
ACAD
1000
AcRTDxfName
1000
SCALE
  0
SCALE
  5
2E5
102
{ACAD_REACTORS
330
2E0
102
}
330
2E0
100
AcDbScale
 70
     0
300
1:8
140
1.0
141
8.0
290
     0
1001
ACAD
1000
AcRTDxfName
1000
SCALE
  0
SCALE
  5
2E6
102
{ACAD_REACTORS
330
2E0
102
}
330
2E0
100
AcDbScale
 70
     0
300
1:10
140
1.0
141
10.0
290
     0
1001
ACAD
1000
AcRTDxfName
1000
SCALE
  0
SCALE
  5
2E7
102
{ACAD_REACTORS
330
2E0
102
}
330
2E0
100
AcDbScale
 70
     0
300
1:16
140
1.0
141
16.0
290
     0
1001
ACAD
1000
AcRTDxfName
1000
SCALE
  0
SCALE
  5
2E8
102
{ACAD_REACTORS
330
2E0
102
}
330
2E0
100
AcDbScale
 70
     0
300
1:20
140
1.0
141
20.0
290
     0
1001
ACAD
1000
AcRTDxfName
1000
SCALE
  0
SCALE
  5
2E9
102
{ACAD_REACTORS
330
2E0
102
}
330
2E0
100
AcDbScale
 70
     0
300
1:30
140
1.0
141
30.0
290
     0
1001
ACAD
1000
AcRTDxfName
1000
SCALE
  0
SCALE
  5
2EA
102
{ACAD_REACTORS
330
2E0
102
}
330
2E0
100
AcDbScale
 70
     0
300
1:40
140
1.0
141
40.0
290
     0
1001
ACAD
1000
AcRTDxfName
1000
SCALE
  0
SCALE
  5
2EB
102
{ACAD_REACTORS
330
2E0
102
}
330
2E0
100
AcDbScale
 70
     0
300
1:50
140
1.0
141
50.0
290
     0
1001
ACAD
1000
AcRTDxfName
1000
SCALE
  0
SCALE
  5
2EC
102
{ACAD_REACTORS
330
2E0
102
}
330
2E0
100
AcDbScale
 70
     0
300
1:100
140
1.0
141
100.0
290
     0
1001
ACAD
1000
AcRTDxfName
1000
SCALE
  0
SCALE
  5
2ED
102
{ACAD_REACTORS
330
2E0
102
}
330
2E0
100
AcDbScale
 70
     0
300
2:1
140
2.0
141
1.0
290
     0
1001
ACAD
1000
AcRTDxfName
1000
SCALE
  0
SCALE
  5
2EE
102
{ACAD_REACTORS
330
2E0
102
}
330
2E0
100
AcDbScale
 70
     0
300
4:1
140
4.0
141
1.0
290
     0
1001
ACAD
1000
AcRTDxfName
1000
SCALE
  0
SCALE
  5
2EF
102
{ACAD_REACTORS
330
2E0
102
}
330
2E0
100
AcDbScale
 70
     0
300
8:1
140
8.0
141
1.0
290
     0
1001
ACAD
1000
AcRTDxfName
1000
SCALE
  0
SCALE
  5
2F0
102
{ACAD_REACTORS
330
2E0
102
}
330
2E0
100
AcDbScale
 70
     0
300
10:1
140
10.0
141
1.0
290
     0
1001
ACAD
1000
AcRTDxfName
1000
SCALE
  0
SCALE
  5
2F1
102
{ACAD_REACTORS
330
2E0
102
}
330
2E0
100
AcDbScale
 70
     0
300
100:1
140
100.0
141
1.0
290
     0
1001
ACAD
1000
AcRTDxfName
1000
SCALE
  0
SCALE
  5
2F2
102
{ACAD_REACTORS
330
2E0
102
}
330
2E0
100
AcDbScale
 70
     0
300
1/128" = 1'-0"
140
0.0078125
141
12.0
290
     0
1001
ACAD
1000
AcRTDxfName
1000
SCALE
  0
SCALE
  5
2F3
102
{ACAD_REACTORS
330
2E0
102
}
330
2E0
100
AcDbScale
 70
     0
300
1/64" = 1'-0"
140
0.015625
141
12.0
290
     0
1001
ACAD
1000
AcRTDxfName
1000
SCALE
  0
SCALE
  5
2F4
102
{ACAD_REACTORS
330
2E0
102
}
330
2E0
100
AcDbScale
 70
     0
300
1/32" = 1'-0"
140
0.03125
141
12.0
290
     0
1001
ACAD
1000
AcRTDxfName
1000
SCALE
  0
SCALE
  5
2F5
102
{ACAD_REACTORS
330
2E0
102
}
330
2E0
100
AcDbScale
 70
     0
300
1/16" = 1'-0"
140
0.0625
141
12.0
290
     0
1001
ACAD
1000
AcRTDxfName
1000
SCALE
  0
SCALE
  5
2F6
102
{ACAD_REACTORS
330
2E0
102
}
330
2E0
100
AcDbScale
 70
     0
300
3/32" = 1'-0"
140
0.09375
141
12.0
290
     0
1001
ACAD
1000
AcRTDxfName
1000
SCALE
  0
SCALE
  5
2F7
102
{ACAD_REACTORS
330
2E0
102
}
330
2E0
100
AcDbScale
 70
     0
300
1/8" = 1'-0"
140
0.125
141
12.0
290
     0
1001
ACAD
1000
AcRTDxfName
1000
SCALE
  0
SCALE
  5
2F8
102
{ACAD_REACTORS
330
2E0
102
}
330
2E0
100
AcDbScale
 70
     0
300
3/16" = 1'-0"
140
0.1875
141
12.0
290
     0
1001
ACAD
1000
AcRTDxfName
1000
SCALE
  0
SCALE
  5
2F9
102
{ACAD_REACTORS
330
2E0
102
}
330
2E0
100
AcDbScale
 70
     0
300
1/4" = 1'-0"
140
0.25
141
12.0
290
     0
1001
ACAD
1000
AcRTDxfName
1000
SCALE
  0
SCALE
  5
2FA
102
{ACAD_REACTORS
330
2E0
102
}
330
2E0
100
AcDbScale
 70
     0
300
3/8" = 1'-0"
140
0.375
141
12.0
290
     0
1001
ACAD
1000
AcRTDxfName
1000
SCALE
  0
SCALE
  5
2FB
102
{ACAD_REACTORS
330
2E0
102
}
330
2E0
100
AcDbScale
 70
     0
300
1/2" = 1'-0"
140
0.5
141
12.0
290
     0
1001
ACAD
1000
AcRTDxfName
1000
SCALE
  0
SCALE
  5
2FC
102
{ACAD_REACTORS
330
2E0
102
}
330
2E0
100
AcDbScale
 70
     0
300
3/4" = 1'-0"
140
0.75
141
12.0
290
     0
1001
ACAD
1000
AcRTDxfName
1000
SCALE
  0
SCALE
  5
2FD
102
{ACAD_REACTORS
330
2E0
102
}
330
2E0
100
AcDbScale
 70
     0
300
1" = 1'-0"
140
1.0
141
12.0
290
     0
1001
ACAD
1000
AcRTDxfName
1000
SCALE
  0
SCALE
  5
2FE
102
{ACAD_REACTORS
330
2E0
102
}
330
2E0
100
AcDbScale
 70
     0
300
1-1/2" = 1'-0"
140
1.5
141
12.0
290
     0
1001
ACAD
1000
AcRTDxfName
1000
SCALE
  0
SCALE
  5
2FF
102
{ACAD_REACTORS
330
2E0
102
}
330
2E0
100
AcDbScale
 70
     0
300
3" = 1'-0"
140
3.0
141
12.0
290
     0
1001
ACAD
1000
AcRTDxfName
1000
SCALE
  0
SCALE
  5
300
102
{ACAD_REACTORS
330
2E0
102
}
330
2E0
100
AcDbScale
 70
     0
300
6" = 1'-0"
140
6.0
141
12.0
290
     0
1001
ACAD
1000
AcRTDxfName
1000
SCALE
  0
SCALE
  5
301
102
{ACAD_REACTORS
330
2E0
102
}
330
2E0
100
AcDbScale
 70
     0
300
1'-0" = 1'-0"
140
12.0
141
12.0
290
     0
1001
ACAD
1000
AcRTDxfName
1000
SCALE
  0
TABLESTYLE
  5
4EF
102
{ACAD_XDICTIONARY
360
69C
102
}
102
{ACAD_REACTORS
330
4EE
102
}
330
4EE
100
AcDbTableStyle
  3
Standard
 70
     0
 71
     0
 40
1.5
 41
1.5
280
     0
281
     0
  7
STANDARD
140
4.5
170
     2
 62
     0
 63
     7
283
     0
274
    -2
284
     1
 64
     0
275
    -2
285
     1
 65
     0
276
    -2
286
     1
 66
     0
277
    -2
287
     1
 67
     0
278
    -2
288
     1
 68
     0
279
    -2
289
     1
 69
     0
  7
STANDARD
140
6.0
170
     5
 62
     0
 63
     7
283
     0
274
    -2
284
     1
 64
     0
275
    -2
285
     1
 65
     0
276
    -2
286
     1
 66
     0
277
    -2
287
     1
 67
     0
278
    -2
288
     1
 68
     0
279
    -2
289
     1
 69
     0
  7
STANDARD
140
4.5
170
     5
 62
     0
 63
     7
283
     0
274
    -2
284
     1
 64
     0
275
    -2
285
     1
 65
     0
276
    -2
286
     1
 66
     0
277
    -2
287
     1
 67
     0
278
    -2
288
     1
 68
     0
279
    -2
289
     1
 69
     0
  0
VISUALSTYLE
  5
4E2
102
{ACAD_REACTORS
330
4DC
102
}
330
4DC
100
AcDbVisualStyle
  2
2dWireframe
 70
     4
 71
     0
 72
     2
 73
     0
 90
        0
 40
-0.6
 41
-30.0
 62
     5
 63
     7
 74
     1
 91
        4
 64
     7
 65
   257
 75
     1
175
     1
 42
1.0
 92
        0
 66
   257
 43
1.0
 76
     1
 77
     6
 78
     2
 67
     7
 79
     5
170
     0
171
     0
290
     0
174
     0
 93
        1
 44
0.0
173
     0
291
     0
 45
0.0
1001
ACAD
1000
AcDbSavedByObjectVersion
1070
     0
  0
VISUALSTYLE
  5
4E4
102
{ACAD_REACTORS
330
4DC
102
}
330
4DC
100
AcDbVisualStyle
  2
3D Hidden
 70
     6
 71
     1
 72
     2
 73
     2
 90
        0
 40
-0.6
 41
-30.0
 62
     5
 63
     7
 74
     2
 91
        2
 64
     7
 65
   257
 75
     2
175
     1
 42
40.0
 92
        0
 66
   257
 43
1.0
 76
     1
 77
     6
 78
     2
 67
     7
 79
     3
170
     0
171
     0
290
     0
174
     0
 93
        1
 44
0.0
173
     0
291
     0
 45
0.0
1001
ACAD
1000
AcDbSavedByObjectVersion
1070
     0
  0
VISUALSTYLE
  5
4E3
102
{ACAD_REACTORS
330
4DC
102
}
330
4DC
100
AcDbVisualStyle
  2
3dWireframe
 70
     5
 71
     0
 72
     2
 73
     0
 90
        0
 40
-0.6
 41
-30.0
 62
     5
 63
     7
 74
     1
 91
        4
 64
     7
 65
   257
 75
     1
175
     1
 42
1.0
 92
        0
 66
   257
 43
1.0
 76
     1
 77
     6
 78
     2
 67
     7
 79
     5
170
     0
171
     0
290
     0
174
     0
 93
        1
 44
0.0
173
     0
291
     0
 45
0.0
1001
ACAD
1000
AcDbSavedByObjectVersion
1070
     0
  0
VISUALSTYLE
  5
4E1
102
{ACAD_REACTORS
330
4DC
102
}
330
4DC
100
AcDbVisualStyle
  2
Basic
 70
     7
 71
     1
 72
     0
 73
     1
 90
        0
 40
-0.6
 41
-30.0
 62
     5
 63
     7
 74
     0
 91
        4
 64
     7
 65
   257
 75
     1
175
     1
 42
1.0
 92
        8
 66
     7
 43
1.0
 76
     1
 77
     6
 78
     2
 67
     7
 79
     5
170
     0
171
     0
290
     0
174
     0
 93
        1
 44
0.0
173
     0
291
     1
 45
0.0
1001
ACAD
1000
AcDbSavedByObjectVersion
1070
     0
  0
VISUALSTYLE
  5
4E8
102
{ACAD_REACTORS
330
4DC
102
}
330
4DC
100
AcDbVisualStyle
  2
Brighten
 70
    12
 71
     2
 72
     2
 73
     0
 90
        0
 40
-0.6
 41
-30.0
 62
     5
 63
     7
 74
     1
 91
        4
 64
     7
 65
   257
 75
     1
175
     1
 42
1.0
 92
        8
 66
     7
 43
1.0
 76
     1
 77
     6
 78
     2
 67
     7
 79
     5
170
     0
171
     0
290
     0
174
     0
 93
        1
 44
50.0
173
     0
291
     1
 45
0.0
1001
ACAD
1000
AcDbSavedByObjectVersion
1070
     0
  0
VISUALSTYLE
  5
4EC
102
{ACAD_REACTORS
330
4DC
102
}
330
4DC
100
AcDbVisualStyle
  2
ColorChange
 70
    16
 71
     2
 72
     2
 73
     3
 90
        0
 40
-0.6
 41
-30.0
 62
     5
 63
     8
 74
     1
 91
        4
 64
     7
 65
   257
 75
     1
175
     1
 42
1.0
 92
        8
 66
     8
 43
1.0
 76
     1
 77
     6
 78
     2
 67
     7
 79
     5
170
     0
171
     0
290
     0
174
     0
 93
        1
 44
0.0
173
     0
291
     1
 45
0.0
1001
ACAD
1000
AcDbSavedByObjectVersion
1070
     0
  0
VISUALSTYLE
  5
4E5
102
{ACAD_REACTORS
330
4DC
102
}
330
4DC
100
AcDbVisualStyle
  2
Conceptual
 70
     9
 71
     3
 72
     2
 73
     0
 90
        0
 40
-0.6
 41
-30.0
 62
     5
 63
     7
 74
     2
 91
        2
 64
     7
 65
   257
 75
     1
175
     1
 42
40.0
 92
        8
 66
     7
 43
1.0
 76
     1
 77
     6
 78
     2
 67
     7
 79
     3
170
     0
171
     0
290
     0
174
     0
 93
        1
 44
0.0
173
     0
291
     0
 45
0.0
1001
ACAD
1000
AcDbSavedByObjectVersion
1070
     0
  0
VISUALSTYLE
  5
4E7
102
{ACAD_REACTORS
330
4DC
102
}
330
4DC
100
AcDbVisualStyle
  2
Dim
 70
    11
 71
     2
 72
     2
 73
     0
 90
        0
 40
-0.6
 41
-30.0
 62
     5
 63
     7
 74
     1
 91
        4
 64
     7
 65
   257
 75
     1
175
     1
 42
1.0
 92
        8
 66
     7
 43
1.0
 76
     1
 77
     6
 78
     2
 67
     7
 79
     5
170
     0
171
     0
290
     0
174
     0
 93
        1
 44
-50.0
173
     0
291
     1
 45
0.0
1001
ACAD
1000
AcDbSavedByObjectVersion
1070
     0
  0
VISUALSTYLE
  5
4EB
102
{ACAD_REACTORS
330
4DC
102
}
330
4DC
100
AcDbVisualStyle
  2
Facepattern
 70
    15
 71
     2
 72
     2
 73
     0
 90
        0
 40
-0.6
 41
-30.0
 62
     5
 63
     7
 74
     1
 91
        4
 64
     7
 65
   257
 75
     1
175
     1
 42
1.0
 92
        8
 66
     7
 43
1.0
 76
     1
 77
     6
 78
     2
 67
     7
 79
     5
170
     0
171
     0
290
     0
174
     0
 93
        1
 44
0.0
173
     0
291
     1
 45
0.0
1001
ACAD
1000
AcDbSavedByObjectVersion
1070
     0
  0
VISUALSTYLE
  5
4DD
102
{ACAD_REACTORS
330
4DC
102
}
330
4DC
100
AcDbVisualStyle
  2
Flat
 70
     0
 71
     2
 72
     1
 73
     1
 90
        2
 40
-0.6
 41
30.0
 62
     5
 63
     7
 74
     0
 91
        4
 64
     7
 65
   257
 75
     1
175
     1
 42
1.0
 92
        8
 66
     7
 43
1.0
 76
     1
 77
     6
 78
     2
 67
     7
 79
     5
170
     0
171
     0
290
     0
174
     0
 93
       13
 44
0.0
173
     0
291
     1
 45
0.0
1001
ACAD
1000
AcDbSavedByObjectVersion
1070
     0
  0
VISUALSTYLE
  5
4DE
102
{ACAD_REACTORS
330
4DC
102
}
330
4DC
100
AcDbVisualStyle
  2
FlatWithEdges
 70
     1
 71
     2
 72
     1
 73
     1
 90
        2
 40
-0.6
 41
30.0
 62
     5
 63
     7
 74
     1
 91
        4
 64
     7
 65
   257
 75
     1
175
     1
 42
1.0
 92
        0
 66
   257
 43
1.0
 76
     1
 77
     6
 78
     2
 67
     7
 79
     5
170
     0
171
     0
290
     0
174
     0
 93
       13
 44
0.0
173
     0
291
     1
 45
0.0
1001
ACAD
1000
AcDbSavedByObjectVersion
1070
     0
  0
VISUALSTYLE
  5
4DF
102
{ACAD_REACTORS
330
4DC
102
}
330
4DC
100
AcDbVisualStyle
  2
Gouraud
 70
     2
 71
     2
 72
     2
 73
     1
 90
        2
 40
-0.6
 41
30.0
 62
     5
 63
     7
 74
     0
 91
        4
 64
     7
 65
   257
 75
     1
175
     1
 42
1.0
 92
        0
 66
     7
 43
1.0
 76
     1
 77
     6
 78
     2
 67
     7
 79
     5
170
     0
171
     0
290
     0
174
     0
 93
       13
 44
0.0
173
     0
291
     1
 45
0.0
1001
ACAD
1000
AcDbSavedByObjectVersion
1070
     0
  0
VISUALSTYLE
  5
4E0
102
{ACAD_REACTORS
330
4DC
102
}
330
4DC
100
AcDbVisualStyle
  2
GouraudWithEdges
 70
     3
 71
     2
 72
     2
 73
     1
 90
        2
 40
-0.6
 41
30.0
 62
     5
 63
     7
 74
     1
 91
        4
 64
     7
 65
   257
 75
     1
175
     1
 42
1.0
 92
        0
 66
   257
 43
1.0
 76
     1
 77
     6
 78
     2
 67
     7
 79
     5
170
     0
171
     0
290
     0
174
     0
 93
       13
 44
0.0
173
     0
291
     1
 45
0.0
1001
ACAD
1000
AcDbSavedByObjectVersion
1070
     0
  0
VISUALSTYLE
  5
4EA
102
{ACAD_REACTORS
330
4DC
102
}
330
4DC
100
AcDbVisualStyle
  2
Linepattern
 70
    14
 71
     2
 72
     2
 73
     0
 90
        0
 40
-0.6
 41
-30.0
 62
     5
 63
     7
 74
     1
 91
        4
 64
     7
 65
   257
 75
     7
175
     7
 42
1.0
 92
        8
 66
     7
 43
1.0
 76
     1
 77
     6
 78
     2
 67
     7
 79
     5
170
     0
171
     0
290
     0
174
     0
 93
        1
 44
0.0
173
     0
291
     1
 45
0.0
1001
ACAD
1000
AcDbSavedByObjectVersion
1070
     0
  0
VISUALSTYLE
  5
4E6
102
{ACAD_REACTORS
330
4DC
102
}
330
4DC
100
AcDbVisualStyle
  2
Realistic
 70
     8
 71
     2
 72
     2
 73
     0
 90
        0
 40
-0.6
 41
-30.0
 62
     5
 63
     7
 74
     1
 91
        0
 64
     7
 65
   257
 75
     1
175
     1
 42
1.0
 92
        8
 66
     8
 43
1.0
 76
     1
 77
     6
 78
     2
 67
     7
 79
     5
170
     0
171
     0
290
     0
174
     0
 93
       13
 44
0.0
173
     0
291
     0
 45
0.0
1001
ACAD
1000
AcDbSavedByObjectVersion
1070
     0
  0
VISUALSTYLE
  5
4E9
102
{ACAD_REACTORS
330
4DC
102
}
330
4DC
100
AcDbVisualStyle
  2
Thicken
 70
    13
 71
     2
 72
     2
 73
     0
 90
        0
 40
-0.6
 41
-30.0
 62
     5
 63
     7
 74
     1
 91
        4
 64
     7
 65
   257
 75
     1
175
     1
 42
1.0
 92
       12
 66
     7
 43
1.0
 76
     1
 77
     6
 78
     2
 67
     7
 79
     5
170
     0
171
     0
290
     0
174
     0
 93
        1
 44
0.0
173
     0
291
     1
 45
0.0
1001
ACAD
1000
AcDbSavedByObjectVersion
1070
     0
  0
DICTIONARYVAR
  5
4D0
102
{ACAD_REACTORS
330
4CD
102
}
330
4CD
100
DictionaryVariables
280
     0
  1
1:1
  0
DICTIONARYVAR
  5
67C
102
{ACAD_REACTORS
330
4CD
102
}
330
4CD
100
DictionaryVariables
280
     0
  1
STANDARD
  0
DICTIONARYVAR
  5
67F
102
{ACAD_REACTORS
330
4CD
102
}
330
4CD
100
DictionaryVariables
280
     0
  1
1
  0
DICTIONARYVAR
  5
67E
102
{ACAD_REACTORS
330
4CD
102
}
330
4CD
100
DictionaryVariables
280
     0
  1
0
  0
DICTIONARYVAR
  5
67D
102
{ACAD_REACTORS
330
4CD
102
}
330
4CD
100
DictionaryVariables
280
     0
  1
127
  0
DICTIONARY
  5
694
330
2DF
100
AcDbDictionary
280
     1
281
     1
  3
ACAD_XREC_ROUNDTRIP
360
695
  0
DICTIONARY
  5
692
330
2DE
100
AcDbDictionary
280
     1
281
     1
  3
ACAD_XREC_ROUNDTRIP
360
693
  0
DICTIONARY
  5
698
330
4DA
100
AcDbDictionary
280
     1
281
     1
  3
ACAD_XREC_ROUNDTRIP
360
699
  0
DICTIONARY
  5
696
330
4D9
100
AcDbDictionary
280
     1
281
     1
  3
ACAD_XREC_ROUNDTRIP
360
697
  0
DICTIONARY
  5
69A
330
4DB
100
AcDbDictionary
280
     1
281
     1
  3
ACAD_XREC_ROUNDTRIP
360
69B
  0
DICTIONARY
  5
69C
330
4EF
100
AcDbDictionary
280
     1
281
     1
  3
ACAD_XREC_ROUNDTRIP
360
69D
  0
XRECORD
  5
695
102
{ACAD_REACTORS
330
694
102
}
330
694
100
AcDbXrecord
280
     1
102
SHADEPLOT
 70
     0
102
SHADEPLOTRESLEVEL
 70
     2
102
SHADEPLOTCUSTOMDPI
 70
   300
  0
XRECORD
  5
693
102
{ACAD_REACTORS
330
692
102
}
330
692
100
AcDbXrecord
280
     1
102
SHADEPLOT
 70
     0
102
SHADEPLOTRESLEVEL
 70
     2
102
SHADEPLOTCUSTOMDPI
 70
   300
  0
XRECORD
  5
699
102
{ACAD_REACTORS
330
698
102
}
330
698
100
AcDbXrecord
280
     1
102
MATERIAL
148
0.0
149
0.0
149
0.0
 93
        0
 94
       63
282
     0
 72
     1
 77
     1
171
     1
175
     1
179
     1
273
     0
  0
XRECORD
  5
697
102
{ACAD_REACTORS
330
696
102
}
330
696
100
AcDbXrecord
280
     1
102
MATERIAL
148
0.0
149
0.0
149
0.0
 93
        0
 94
       63
282
     0
 72
     1
 77
     1
171
     1
175
     1
179
     1
273
     0
  0
XRECORD
  5
69B
102
{ACAD_REACTORS
330
69A
102
}
330
69A
100
AcDbXrecord
280
     1
102
MATERIAL
148
0.0
149
0.0
149
0.0
 93
        0
 94
       63
282
     0
 72
     1
 77
     1
171
     1
175
     1
179
     1
273
     0
  0
XRECORD
  5
69D
102
{ACAD_REACTORS
330
69C
102
}
330
69C
100
AcDbXrecord
280
     1
102
ACAD_ROUNDTRIP_PRE2007_TABLESTYLE
 90
      512
 91
        0
  1

 92
      512
 93
        0
  2

 94
      512
 95
        0
  3

  0
ENDSEC
  0
EOF
