  0
SECTION
  2
HEADER
  9
$ACADVER
  1
AC1015
  9
$ACADMAINTVER
 70
    20
  9
$DWGCODEPAGE
  3
ANSI_1252
  9
$INSBASE
 10
0.0
 20
0.0
 30
0.0
  9
$EXTMIN
 10
-22.82775783774878
 20
-68.25888000319117
 30
-0.0000610304997082
  9
$EXTMAX
 10
283.2833870491984
 20
267.0761267553039
 30
0.000091555062788
  9
$LIMMIN
 10
0.0
 20
0.0
  9
$LIMMAX
 10
420.0
 20
297.0
  9
$ORTHOMODE
 70
     0
  9
$REGENMODE
 70
     1
  9
$FILLMODE
 70
     1
  9
$QTEXTMODE
 70
     0
  9
$MIRRTEXT
 70
     1
  9
$LTSCALE
 40
1.0
  9
$ATTMODE
 70
     1
  9
$TEXTSIZE
 40
2.5
  9
$TRACEWID
 40
1.0
  9
$TEXTSTYLE
  7
STANDARD
  9
$CLAYER
  8
Hawa6
  9
$CELTYPE
  6
BYLAYER
  9
$CECOLOR
 62
   256
  9
$CELTSCALE
 40
1.0
  9
$DISPSILH
 70
     0
  9
$DIMSCALE
 40
1.0
  9
$DIMASZ
 40
2.0
  9
$DIMEXO
 40
2.0
  9
$DIMDLI
 40
0.0
  9
$DIMRND
 40
0.0
  9
$DIMDLE
 40
1.0
  9
$DIMEXE
 40
1.0
  9
$DIMTP
 40
0.0
  9
$DIMTM
 40
0.0
  9
$DIMTXT
 40
3.5
  9
$DIMCEN
 40
0.0
  9
$DIMTSZ
 40
0.0
  9
$DIMTOL
 70
     0
  9
$DIMLIM
 70
     0
  9
$DIMTIH
 70
     0
  9
$DIMTOH
 70
     0
  9
$DIMSE1
 70
     0
  9
$DIMSE2
 70
     0
  9
$DIMTAD
 70
     1
  9
$DIMZIN
 70
     8
  9
$DIMBLK
  1

  9
$DIMASO
 70
     1
  9
$DIMSHO
 70
     1
  9
$DIMPOST
  1

  9
$DIMAPOST
  1

  9
$DIMALT
 70
     1
  9
$DIMALTD
 70
     5
  9
$DIMALTF
 40
0.039370078740157
  9
$DIMLFAC
 40
1.0
  9
$DIMTOFL
 70
     1
  9
$DIMTVP
 40
0.0
  9
$DIMTIX
 70
     0
  9
$DIMSOXD
 70
     0
  9
$DIMSAH
 70
     1
  9
$DIMBLK1
  1
Oblique
  9
$DIMBLK2
  1
Oblique
  9
$DIMSTYLE
  2
HAWA-Strich
  9
$DIMCLRD
 70
   256
  9
$DIMCLRE
 70
   256
  9
$DIMCLRT
 70
   256
  9
$DIMTFAC
 40
0.7114285714285719
  9
$DIMGAP
 40
1.0
  9
$DIMJUST
 70
     0
  9
$DIMSD1
 70
     0
  9
$DIMSD2
 70
     0
  9
$DIMTOLJ
 70
     1
  9
$DIMTZIN
 70
     8
  9
$DIMALTZ
 70
     8
  9
$DIMALTTZ
 70
     8
  9
$DIMUPT
 70
     0
  9
$DIMDEC
 70
     1
  9
$DIMTDEC
 70
     1
  9
$DIMALTU
 70
     4
  9
$DIMALTTD
 70
     5
  9
$DIMTXSTY
  7
Beschlag
  9
$DIMAUNIT
 70
     0
  9
$DIMADEC
 70
     1
  9
$DIMALTRND
 40
0.0
  9
$DIMAZIN
 70
     2
  9
$DIMDSEP
 70
    46
  9
$DIMATFIT
 70
     3
  9
$DIMFRAC
 70
     0
  9
$DIMLDRBLK
  1
Oblique
  9
$DIMLUNIT
 70
     2
  9
$DIMLWD
 70
    -2
  9
$DIMLWE
 70
    -2
  9
$DIMTMOVE
 70
     0
  9
$LUNITS
 70
     2
  9
$LUPREC
 70
     4
  9
$SKETCHINC
 40
1.0
  9
$FILLETRAD
 40
2.5
  9
$AUNITS
 70
     0
  9
$AUPREC
 70
     0
  9
$MENU
  1
.
  9
$ELEVATION
 40
0.0
  9
$PELEVATION
 40
0.0
  9
$THICKNESS
 40
0.0
  9
$LIMCHECK
 70
     0
  9
$CHAMFERA
 40
2.5
  9
$CHAMFERB
 40
2.5
  9
$CHAMFERC
 40
0.0
  9
$CHAMFERD
 40
0.0
  9
$SKPOLY
 70
     0
  9
$TDCREATE
 40
2447893.000000000
  9
$TDUCREATE
 40
2447892.958333333
  9
$TDUPDATE
 40
2455266.585736898
  9
$TDUUPDATE
 40
2455266.544070231
  9
$TDINDWG
 40
0.0016454167
  9
$TDUSRTIMER
 40
0.0016452431
  9
$USRTIMER
 70
     1
  9
$ANGBASE
 50
0.0
  9
$ANGDIR
 70
     0
  9
$PDMODE
 70
     0
  9
$PDSIZE
 40
0.0
  9
$PLINEWID
 40
0.0
  9
$SPLFRAME
 70
     0
  9
$SPLINETYPE
 70
     6
  9
$SPLINESEGS
 70
     8
  9
$HANDSEED
  5
4A6
  9
$SURFTAB1
 70
     6
  9
$SURFTAB2
 70
     6
  9
$SURFTYPE
 70
     6
  9
$SURFU
 70
     6
  9
$SURFV
 70
     6
  9
$UCSBASE
  2

  9
$UCSNAME
  2

  9
$UCSORG
 10
0.0
 20
0.0
 30
0.0
  9
$UCSXDIR
 10
1.0
 20
0.0
 30
0.0
  9
$UCSYDIR
 10
0.0
 20
1.0
 30
0.0
  9
$UCSORTHOREF
  2

  9
$UCSORTHOVIEW
 70
     0
  9
$UCSORGTOP
 10
0.0
 20
0.0
 30
0.0
  9
$UCSORGBOTTOM
 10
0.0
 20
0.0
 30
0.0
  9
$UCSORGLEFT
 10
0.0
 20
0.0
 30
0.0
  9
$UCSORGRIGHT
 10
0.0
 20
0.0
 30
0.0
  9
$UCSORGFRONT
 10
0.0
 20
0.0
 30
0.0
  9
$UCSORGBACK
 10
0.0
 20
0.0
 30
0.0
  9
$PUCSBASE
  2

  9
$PUCSNAME
  2

  9
$PUCSORG
 10
0.0
 20
0.0
 30
0.0
  9
$PUCSXDIR
 10
1.0
 20
0.0
 30
0.0
  9
$PUCSYDIR
 10
0.0
 20
1.0
 30
0.0
  9
$PUCSORTHOREF
  2

  9
$PUCSORTHOVIEW
 70
     0
  9
$PUCSORGTOP
 10
0.0
 20
0.0
 30
0.0
  9
$PUCSORGBOTTOM
 10
0.0
 20
0.0
 30
0.0
  9
$PUCSORGLEFT
 10
0.0
 20
0.0
 30
0.0
  9
$PUCSORGRIGHT
 10
0.0
 20
0.0
 30
0.0
  9
$PUCSORGFRONT
 10
0.0
 20
0.0
 30
0.0
  9
$PUCSORGBACK
 10
0.0
 20
0.0
 30
0.0
  9
$USERI1
 70
     0
  9
$USERI2
 70
     0
  9
$USERI3
 70
     0
  9
$USERI4
 70
     0
  9
$USERI5
 70
     0
  9
$USERR1
 40
0.0
  9
$USERR2
 40
0.0
  9
$USERR3
 40
0.0
  9
$USERR4
 40
0.0
  9
$USERR5
 40
0.0
  9
$WORLDVIEW
 70
     1
  9
$SHADEDGE
 70
     3
  9
$SHADEDIF
 70
    70
  9
$TILEMODE
 70
     1
  9
$MAXACTVP
 70
    48
  9
$PINSBASE
 10
0.0
 20
0.0
 30
0.0
  9
$PLIMCHECK
 70
     0
  9
$PEXTMIN
 10
0.0
 20
0.0
 30
0.0
  9
$PEXTMAX
 10
195.5
 20
253.664566
 30
2.0
  9
$PLIMMIN
 10
0.0
 20
0.0
  9
$PLIMMAX
 10
420.0
 20
297.0
  9
$UNITMODE
 70
     0
  9
$VISRETAIN
 70
     0
  9
$PLINEGEN
 70
     0
  9
$PSLTSCALE
 70
     1
  9
$TREEDEPTH
 70
  3020
  9
$CMLSTYLE
  2
STANDARD
  9
$CMLJUST
 70
     0
  9
$CMLSCALE
 40
20.0
  9
$PROXYGRAPHICS
 70
     1
  9
$MEASUREMENT
 70
     1
  9
$CELWEIGHT
370
    -1
  9
$ENDCAPS
280
     0
  9
$JOINSTYLE
280
     0
  9
$LWDISPLAY
290
     0
  9
$INSUNITS
 70
     0
  9
$HYPERLINKBASE
  1

  9
$STYLESHEET
  1

  9
$XEDIT
290
     1
  9
$CEPSNTYPE
380
     0
  9
$PSTYLEMODE
290
     1
  9
$FINGERPRINTGUID
  2
{BDB61114-4A48-42E3-ADC2-4C212681E124}
  9
$VERSIONGUID
  2
{9ABF8708-2AF3-4A32-9737-87566EE17222}
  9
$EXTNAMES
290
     1
  9
$PSVPSCALE
 40
0.0
  9
$OLESTARTUP
290
     0
  0
ENDSEC
  0
SECTION
  2
CLASSES
  0
CLASS
  1
IMAGE
  2
AcDbRasterImage
  3
ISM
 90
    34943
280
     0
281
     1
  0
CLASS
  1
DICTIONARYVAR
  2
AcDbDictionaryVar
  3
ObjectDBX Classes
 90
        0
280
     0
281
     0
  0
CLASS
  1
RASTERVARIABLES
  2
AcDbRasterVariables
  3
ISM
 90
    32768
280
     0
281
     0
  0
CLASS
  1
IMAGEDEF
  2
AcDbRasterImageDef
  3
ISM
 90
    32768
280
     0
281
     0
  0
CLASS
  1
IMAGEDEF_REACTOR
  2
AcDbRasterImageDefReactor
  3
ISM
 90
    32769
280
     0
281
     0
  0
CLASS
  1
IDBUFFER
  2
AcDbIdBuffer
  3
ObjectDBX Classes
 90
    32768
280
     0
281
     0
  0
CLASS
  1
SPATIAL_FILTER
  2
AcDbSpatialFilter
  3
ObjectDBX Classes
 90
    32768
280
     0
281
     0
  0
CLASS
  1
SORTENTSTABLE
  2
AcDbSortentsTable
  3
ObjectDBX Classes
 90
    32768
280
     0
281
     0
  0
CLASS
  1
LAYER_INDEX
  2
AcDbLayerIndex
  3
ObjectDBX Classes
 90
    32768
280
     0
281
     0
  0
CLASS
  1
SPATIAL_INDEX
  2
AcDbSpatialIndex
  3
ObjectDBX Classes
 90
    32768
280
     0
281
     0
  0
CLASS
  1
OBJECT_PTR
  2
CAseDLPNTableRecord
  3
ASE-LPNTableRecord
 90
    32769
280
     0
281
     0
  0
CLASS
  1
LAYOUT
  2
AcDbLayout
  3
ObjectDBX Classes
 90
        0
280
     0
281
     0
  0
CLASS
  1
PLOTSETTINGS
  2
AcDbPlotSettings
  3
ObjectDBX Classes
 90
    32768
280
     0
281
     0
  0
CLASS
  1
ACDBDICTIONARYWDFLT
  2
AcDbDictionaryWithDefault
  3
ObjectDBX Classes
 90
        0
280
     0
281
     0
  0
CLASS
  1
ACDBPLACEHOLDER
  2
AcDbPlaceHolder
  3
ObjectDBX Classes
 90
        0
280
     0
281
     0
  0
CLASS
  1
VBA_PROJECT
  2
AcDbVbaProject
  3
acad
 90
    32768
280
     0
281
     0
  0
CLASS
  1
WIPEOUT
  2
AcDbWipeout
  3
"WipeOut|Product Desc: Object Enabler for WipeOut entity                        |Company: Autodesk, Inc.                        |WEB Address: www.autodesk.com"
 90
    34943
280
     0
281
     1
  0
CLASS
  1
WIPEOUTVARIABLES
  2
AcDbWipeoutVariables
  3
"WipeOut|Product Desc:     WipeOut Dbx Application|Company:          Autodesk, Inc.|WEB Address:      www.autodesk.com"
 90
    32768
280
     0
281
     0
  0
CLASS
  1
RTEXT
  2
RText
  3
RText|AutoCAD Express Tool|expresstools@autodesk.com
 90
    32768
280
     0
281
     1
  0
CLASS
  1
ARCALIGNEDTEXT
  2
AcDbArcAlignedText
  3
ATEXT|AutoCAD Express Tool|expresstools@autodesk.com
 90
    32768
280
     0
281
     1
  0
CLASS
  1
MATERIAL
  2
AcDbMaterial
  3
ObjectDBX Classes
 90
     1024
280
     0
281
     0
  0
CLASS
  1
VISUALSTYLE
  2
AcDbVisualStyle
  3
ObjectDBX Classes
 90
     4095
280
     0
281
     0
  0
CLASS
  1
TABLESTYLE
  2
AcDbTableStyle
  3
ObjectDBX Classes
 90
     4095
280
     0
281
     0
  0
ENDSEC
  0
SECTION
  2
TABLES
  0
TABLE
  2
VPORT
  5
7
330
0
100
AcDbSymbolTable
 70
     1
  0
VPORT
  5
15
330
7
100
AcDbSymbolTableRecord
100
AcDbViewportTableRecord
  2
*ACTIVE
 70
     0
 10
0.0
 20
0.0
 11
1.0
 21
1.0
 12
130.2727656674291
 22
99.40862353062588
 13
0.0
 23
0.0
 14
1.0
 24
1.0
 15
0.0
 25
0.0
 16
0.0
 26
0.0
 36
1.0
 17
0.0
 27
0.0
 37
0.0
 40
337.4308507582055
 41
1.591240875912408
 42
50.0
 43
0.0
 44
0.0
 50
0.0
 51
0.0
 71
     0
 72
   100
 73
     1
 74
     1
 75
     0
 76
     0
 77
     0
 78
     0
281
     0
 65
     1
110
0.0
120
0.0
130
0.0
111
1.0
121
0.0
131
0.0
112
0.0
122
1.0
132
0.0
 79
     0
146
0.0
  0
ENDTAB
  0
TABLE
  2
LTYPE
  5
4
330
0
100
AcDbSymbolTable
 70
     8
  0
LTYPE
  5
11
330
4
100
AcDbSymbolTableRecord
100
AcDbLinetypeTableRecord
  2
BYBLOCK
 70
     0
  3

 72
    65
 73
     0
 40
0.0
  0
LTYPE
  5
12
330
4
100
AcDbSymbolTableRecord
100
AcDbLinetypeTableRecord
  2
BYLAYER
 70
     0
  3

 72
    65
 73
     0
 40
0.0
  0
LTYPE
  5
13
330
4
100
AcDbSymbolTableRecord
100
AcDbLinetypeTableRecord
  2
CONTINUOUS
 70
     0
  3
Solid line
 72
    65
 73
     0
 40
0.0
  0
LTYPE
  5
1D
330
4
100
AcDbSymbolTableRecord
100
AcDbLinetypeTableRecord
  2
DASHED
 70
     0
  3
__ __ __ __ __ __ __ __ __ __ __ __ __ __ __ __
 72
    65
 73
     2
 40
15.0
 49
12.0
 74
     0
 49
-3.0
 74
     0
  0
LTYPE
  5
1E
330
4
100
AcDbSymbolTableRecord
100
AcDbLinetypeTableRecord
  2
DASHDOT
 70
     0
  3
 __ . __ . __ . __ . __ . __ . __ . 
 72
    65
 73
     4
 40
18.5
 49
12.0
 74
     0
 49
-3.0
 74
     0
 49
0.5
 74
     0
 49
-3.0
 74
     0
  0
LTYPE
  5
1F
330
4
100
AcDbSymbolTableRecord
100
AcDbLinetypeTableRecord
  2
DOT
 70
     0
  3
 . . . . . . . . . . . . . . . .
 72
    65
 73
     2
 40
3.5
 49
0.5
 74
     0
 49
-3.0
 74
     0
  0
LTYPE
  5
20
330
4
100
AcDbSymbolTableRecord
100
AcDbLinetypeTableRecord
  2
DASHSPACE
 70
     0
  3
__    __    __    __    __   
 72
    65
 73
     2
 40
30.0
 49
12.0
 74
     0
 49
-18.0
 74
     0
  0
LTYPE
  5
21
330
4
100
AcDbSymbolTableRecord
100
AcDbLinetypeTableRecord
  2
DASHDOT2
 70
     0
  3
__ . . __ . . __ . . __ 
 72
    65
 73
     6
 40
22.0
 49
12.0
 74
     0
 49
-3.0
 74
     0
 49
0.5
 74
     0
 49
-3.0
 74
     0
 49
0.5
 74
     0
 49
-3.0
 74
     0
  0
LTYPE
  5
22
330
4
100
AcDbSymbolTableRecord
100
AcDbLinetypeTableRecord
  2
PHANTOM
 70
     0
  3
____________    ____    ____   _
 72
    65
 73
     6
 40
20.0
 49
10.0
 74
     0
 49
-2.0
 74
     0
 49
2.0
 74
     0
 49
-2.0
 74
     0
 49
2.0
 74
     0
 49
-2.0
 74
     0
  0
LTYPE
  5
23
330
4
100
AcDbSymbolTableRecord
100
AcDbLinetypeTableRecord
  2
AXES
 70
     0
  3
________  __  ________  __  _____
 72
    65
 73
     4
 40
24.0
 49
15.0
 74
     0
 49
-3.0
 74
     0
 49
3.0
 74
     0
 49
-3.0
 74
     0
  0
ENDTAB
  0
TABLE
  2
LAYER
  5
2
330
0
100
AcDbSymbolTable
 70
     6
  0
LAYER
  5
3E7
330
2
100
AcDbSymbolTableRecord
100
AcDbLayerTableRecord
  2
0
 70
     0
 62
     7
  6
CONTINUOUS
370
    -3
390
3E9
  0
LAYER
  5
3E5
330
2
100
AcDbSymbolTableRecord
100
AcDbLayerTableRecord
  2
Hawa5
 70
     0
 62
     1
  6
CONTINUOUS
370
    -3
390
3E9
  0
LAYER
  5
3E6
330
2
100
AcDbSymbolTableRecord
100
AcDbLayerTableRecord
  2
Hawa6
 70
     0
 62
     3
  6
CONTINUOUS
370
    -3
390
3E9
  0
LAYER
  5
14
330
2
100
AcDbSymbolTableRecord
100
AcDbLayerTableRecord
  2
HAWA1
 70
     0
 62
     2
  6
CONTINUOUS
370
     0
390
3E9
  0
LAYER
  5
40E
330
2
100
AcDbSymbolTableRecord
100
AcDbLayerTableRecord
  2
Defpoints
 70
     0
 62
     7
  6
CONTINUOUS
290
     0
370
    -3
390
3E9
  0
LAYER
  5
40F
330
2
100
AcDbSymbolTableRecord
100
AcDbLayerTableRecord
  2
1
 70
     0
 62
     7
  6
CONTINUOUS
370
    -3
390
3E9
  0
ENDTAB
  0
TABLE
  2
STYLE
  5
3
330
0
100
AcDbSymbolTable
 70
     3
  0
STYLE
  5
17
330
3
100
AcDbSymbolTableRecord
100
AcDbTextStyleTableRecord
  2
STANDARD
 70
     0
 40
0.0
 41
1.0
 50
0.0
 71
     0
 42
2.5
  3
isocp.shx
  4

  0
STYLE
  5
24
330
3
100
AcDbSymbolTableRecord
100
AcDbTextStyleTableRecord
  2
GDT
 70
     0
 40
0.0
 41
1.0
 50
0.0
 71
     0
 42
2.5
  3
amgdt.shx
  4

  0
STYLE
  5
410
330
3
100
AcDbSymbolTableRecord
100
AcDbTextStyleTableRecord
  2
Beschlag
 70
     0
 40
0.0
 41
0.9
 50
0.0
 71
     0
 42
3.5
  3
ARIAL.TTF
  4

1001
ACAD
1000
Arial
1071
       34
  0
ENDTAB
  0
TABLE
  2
VIEW
  5
5
330
0
100
AcDbSymbolTable
 70
     0
  0
ENDTAB
  0
TABLE
  2
UCS
  5
6
330
0
100
AcDbSymbolTable
 70
     0
  0
ENDTAB
  0
TABLE
  2
APPID
  5
8
330
0
100
AcDbSymbolTable
 70
     2
  0
APPID
  5
16
330
8
100
AcDbSymbolTableRecord
100
AcDbRegAppTableRecord
  2
ACAD
 70
     0
  0
APPID
  5
412
330
8
100
AcDbSymbolTableRecord
100
AcDbRegAppTableRecord
  2
ACAD_PSEXT
 70
     0
  0
ENDTAB
  0
TABLE
  2
DIMSTYLE
  5
9
330
0
100
AcDbSymbolTable
 70
     2
100
AcDbDimStyleTable
 71
     1
340
411
  0
DIMSTYLE
105
18
330
9
100
AcDbSymbolTableRecord
100
AcDbDimStyleTableRecord
  2
STANDARD
 70
     0
 41
2.5
 42
0.625
 43
3.75
 44
1.25
 73
     0
 74
     0
 77
     1
 78
     8
140
2.5
141
2.5
143
0.03937
147
0.625
171
     3
172
     1
271
     2
272
     2
274
     3
283
     0
284
     8
289
     0
340
17
  0
DIMSTYLE
105
411
102
{ACAD_REACTORS
330
2E
330
2C
330
2A
330
28
330
26
102
}
330
9
100
AcDbSymbolTableRecord
100
AcDbDimStyleTableRecord
  2
HAWA-Strich
 70
     0
 41
2.0
 42
2.0
 43
0.0
 44
1.0
 46
1.0
 73
     0
 74
     0
 77
     1
 78
     8
 79
     2
140
3.5
141
0.0
143
0.039370078740157
146
0.7114285714285719
147
1.0
170
     1
171
     5
172
     1
173
     1
176
   256
177
   256
178
   256
179
     1
271
     1
272
     1
273
     4
274
     5
284
     8
285
     8
286
     8
340
410
341
40A
343
40A
344
40A
  0
ENDTAB
  0
TABLE
  2
BLOCK_RECORD
  5
1
330
0
100
AcDbSymbolTable
 70
     7
  0
BLOCK_RECORD
  5
A
330
1
100
AcDbSymbolTableRecord
100
AcDbBlockTableRecord
  2
*MODEL_SPACE
340
3E1
  0
BLOCK_RECORD
  5
B
330
1
100
AcDbSymbolTableRecord
100
AcDbBlockTableRecord
  2
*PAPER_SPACE
340
3E2
  0
BLOCK_RECORD
  5
25
330
1
100
AcDbSymbolTableRecord
100
AcDbBlockTableRecord
  2
*D0
340
0
  0
BLOCK_RECORD
  5
27
330
1
100
AcDbSymbolTableRecord
100
AcDbBlockTableRecord
  2
*D1
340
0
  0
BLOCK_RECORD
  5
29
330
1
100
AcDbSymbolTableRecord
100
AcDbBlockTableRecord
  2
*D2
340
0
  0
BLOCK_RECORD
  5
2B
330
1
100
AcDbSymbolTableRecord
100
AcDbBlockTableRecord
  2
*D3
340
0
  0
BLOCK_RECORD
  5
2D
330
1
100
AcDbSymbolTableRecord
100
AcDbBlockTableRecord
  2
*D4
340
0
  0
BLOCK_RECORD
  5
40A
330
1
100
AcDbSymbolTableRecord
100
AcDbBlockTableRecord
  2
_Oblique
340
0
102
{BLKREFS
331
453
331
454
331
465
331
466
331
477
331
478
331
480
331
481
331
489
331
48A
102
}
  0
BLOCK_RECORD
  5
41E
330
1
100
AcDbSymbolTableRecord
100
AcDbBlockTableRecord
  2
HAWA
340
0
102
{BLKREFS
331
421
102
}
  0
ENDTAB
  0
ENDSEC
  0
SECTION
  2
BLOCKS
  0
BLOCK
  5
D
330
A
100
AcDbEntity
  8
HAWA1
100
AcDbBlockBegin
  2
*MODEL_SPACE
 70
     0
 10
0.0
 20
0.0
 30
0.0
  3
*MODEL_SPACE
  1

  0
ENDBLK
  5
E
330
A
100
AcDbEntity
  8
HAWA1
100
AcDbBlockEnd
  0
BLOCK
  5
F
330
B
100
AcDbEntity
 67
     1
  8
HAWA1
100
AcDbBlockBegin
  2
*PAPER_SPACE
 70
     0
 10
0.0
 20
0.0
 30
0.0
  3
*PAPER_SPACE
  1

  0
ENDBLK
  5
10
330
B
100
AcDbEntity
 67
     1
  8
HAWA1
100
AcDbBlockEnd
  0
BLOCK
  5
39C
330
25
100
AcDbEntity
  8
HAWA1
100
AcDbBlockBegin
  2
*D0
 70
     1
 10
0.0
 20
0.0
 30
0.0
  3
*D0
  1

  0
LINE
  5
474
330
25
100
AcDbEntity
  8
HAWA1
370
    -2
100
AcDbLine
 10
-20.81161160176425
 20
260.703774001109
 30
0.0
 11
-20.81171528616934
 21
257.5902106829314
 31
0.0
  0
LINE
  5
475
330
25
100
AcDbEntity
  8
HAWA1
370
    -2
100
AcDbLine
 10
35.18852060176424
 20
185.066573998891
 30
0.0
 11
35.19100224250204
 21
259.5883457441443
 31
0.0
  0
LINE
  5
476
330
25
100
AcDbEntity
  8
HAWA1
370
    -2
100
AcDbLine
 10
-21.81168198473275
 20
258.590243983259
 30
0.0
 11
36.19096894106545
 21
258.5883124438167
 31
0.0
  0
INSERT
  5
477
330
25
100
AcDbEntity
  8
HAWA1
370
    -2
100
AcDbBlockReference
  2
_Oblique
 10
-20.81168198528722
 20
258.5902106823769
 30
0.0
 41
2.0
 42
2.0
 43
2.0
 50
179.998092
  0
INSERT
  5
478
330
25
100
AcDbEntity
  8
HAWA1
370
    -2
100
AcDbBlockReference
  2
_Oblique
 10
35.19096894161992
 20
258.5883457446988
 30
0.0
 41
2.0
 42
2.0
 43
2.0
 50
359.998092
  0
MTEXT
  5
479
330
25
100
AcDbEntity
  8
HAWA1
100
AcDbMText
 10
7.189790064914465
 20
262.9911660523318
 30
0.0
 40
3.5
 41
0.0
 71
     5
 72
     1
  1
\A1;56 [2{\H0.711429x;\S7/32;}"]
  7
Beschlag
 11
0.9999999994455256
 21
-0.0000333008821221
 31
0.0
 73
     1
 44
1.0
1001
ACAD
1000
MTEXTBEGIN
1070
    73
1070
     1
1070
    44
1040
1.0
1070
    74
1070
     0
1000
MTEXTEND
  0
POINT
  5
47A
330
25
100
AcDbEntity
  8
Defpoints
 62
     0
100
AcDbPoint
 10
-20.81154500000001
 20
262.7037740000001
 30
0.0
  0
POINT
  5
47B
330
25
100
AcDbEntity
  8
Defpoints
 62
     0
100
AcDbPoint
 10
35.188454
 20
183.066574
 30
0.0
  0
POINT
  5
47C
330
25
100
AcDbEntity
  8
Defpoints
 62
     0
100
AcDbPoint
 10
35.19096894161992
 20
258.5883457446988
 30
0.0
  0
ENDBLK
  5
3A8
330
25
100
AcDbEntity
  8
HAWA1
100
AcDbBlockEnd
  0
BLOCK
  5
3A9
330
27
100
AcDbEntity
  8
HAWA1
100
AcDbBlockBegin
  2
*D1
 70
     1
 10
0.0
 20
0.0
 30
0.0
  3
*D1
  1

  0
LINE
  5
486
330
27
100
AcDbEntity
  8
HAWA1
370
    -2
100
AcDbLine
 10
94.28848530088213
 20
185.0665739997227
 30
0.0
 11
94.28972612793108
 21
259.588746958407
 31
0.0
  0
LINE
  5
487
330
27
100
AcDbEntity
  8
HAWA1
370
    -2
100
AcDbLine
 10
35.18848730088212
 20
185.0665739997227
 30
0.0
 11
35.18972814431578
 21
259.5897309994404
 31
0.0
  0
LINE
  5
488
330
27
100
AcDbEntity
  8
HAWA1
370
    -2
100
AcDbLine
 10
95.28970947735139
 20
258.5887303081046
 30
0.0
 11
34.18971149401334
 21
258.5897476500201
 31
0.0
  0
INSERT
  5
489
330
27
100
AcDbEntity
  8
HAWA1
370
    -2
100
AcDbBlockReference
  2
_Oblique
 10
94.28970947749
 20
258.5887469585456
 30
0.0
 41
2.0
 42
2.0
 43
2.0
 50
359.999046
  0
INSERT
  5
48A
330
27
100
AcDbEntity
  8
HAWA1
370
    -2
100
AcDbBlockReference
  2
_Oblique
 10
35.18971149387472
 20
258.589730999579
 30
0.0
 41
2.0
 42
2.0
 43
2.0
 50
179.999046
  0
MTEXT
  5
48B
330
27
100
AcDbEntity
  8
HAWA1
100
AcDbMText
 10
64.7397841042854
 20
263.0106595736064
 30
0.0
 40
3.5
 41
0.0
 71
     5
 72
     1
  1
\A1;59 [2{\H0.711429x;\S5/16;}"]
  7
Beschlag
 11
0.9999999998613814
 21
-0.0000166504410634
 31
0.0
 73
     1
 44
1.0
1001
ACAD
1000
MTEXTBEGIN
1070
    73
1070
     1
1070
    44
1040
1.0
1070
    74
1070
     0
1000
MTEXTEND
  0
POINT
  5
48C
330
27
100
AcDbEntity
  8
Defpoints
 62
     0
100
AcDbPoint
 10
94.28845200000001
 20
183.066574
 30
0.0
  0
POINT
  5
48D
330
27
100
AcDbEntity
  8
Defpoints
 62
     0
100
AcDbPoint
 10
35.188454
 20
183.066574
 30
0.0
  0
POINT
  5
48E
330
27
100
AcDbEntity
  8
Defpoints
 62
     0
100
AcDbPoint
 10
35.18971149387472
 20
258.589730999579
 30
0.0
  0
ENDBLK
  5
3B6
330
27
100
AcDbEntity
  8
HAWA1
100
AcDbBlockEnd
  0
BLOCK
  5
3B7
330
29
100
AcDbEntity
  8
HAWA1
100
AcDbBlockBegin
  2
*D2
 70
     1
 10
0.0
 20
0.0
 30
0.0
  3
*D2
  1

  0
LINE
  5
462
330
29
100
AcDbEntity
  8
HAWA1
370
    -2
100
AcDbLine
 10
208.288451
 20
185.066574
 30
0.0
 11
208.288451
 21
259.589239
 31
0.0
  0
LINE
  5
463
330
29
100
AcDbEntity
  8
HAWA1
370
    -2
100
AcDbLine
 10
94.28845200000001
 20
185.066574
 30
0.0
 11
94.28845200000001
 21
259.589239
 31
0.0
  0
LINE
  5
464
330
29
100
AcDbEntity
  8
HAWA1
370
    -2
100
AcDbLine
 10
209.288451
 20
258.589239
 30
0.0
 11
93.28845200000001
 21
258.589239
 31
0.0
  0
INSERT
  5
465
330
29
100
AcDbEntity
  8
HAWA1
370
    -2
100
AcDbBlockReference
  2
_Oblique
 10
208.288451
 20
258.589239
 30
0.0
 41
2.0
 42
2.0
 43
2.0
  0
INSERT
  5
466
330
29
100
AcDbEntity
  8
HAWA1
370
    -2
100
AcDbBlockReference
  2
_Oblique
 10
94.28845200000001
 20
258.589239
 30
0.0
 41
2.0
 42
2.0
 43
2.0
 50
180.0
  0
MTEXT
  5
467
330
29
100
AcDbEntity
  8
HAWA1
100
AcDbMText
 10
151.2884515
 20
262.9902775910641
 30
0.0
 40
3.5
 41
0.0
 71
     5
 72
     1
  1
\A1;114 [4{\H0.711429x;\S1/2;}"]
  7
Beschlag
 73
     1
 44
1.0
1001
ACAD
1000
MTEXTBEGIN
1070
    73
1070
     1
1070
    44
1040
1.0
1070
    74
1070
     0
1000
MTEXTEND
  0
POINT
  5
468
330
29
100
AcDbEntity
  8
Defpoints
 62
     0
100
AcDbPoint
 10
208.288451
 20
183.066574
 30
0.0
  0
POINT
  5
469
330
29
100
AcDbEntity
  8
Defpoints
 62
     0
100
AcDbPoint
 10
94.28845200000001
 20
183.066574
 30
0.0
  0
POINT
  5
46A
330
29
100
AcDbEntity
  8
Defpoints
 62
     0
100
AcDbPoint
 10
94.28845200000001
 20
258.589239
 30
0.0
  0
ENDBLK
  5
3C4
330
29
100
AcDbEntity
  8
HAWA1
100
AcDbBlockEnd
  0
BLOCK
  5
3C5
330
2B
100
AcDbEntity
  8
HAWA1
100
AcDbBlockBegin
  2
*D3
 70
     1
 10
0.0
 20
0.0
 30
0.0
  3
*D3
  1

  0
LINE
  5
47D
330
2B
100
AcDbEntity
  8
HAWA1
370
    -2
100
AcDbLine
 10
55.188454
 20
-44.494565
 30
0.0
 11
55.188454
 21
-68.24625400000001
 31
0.0
  0
LINE
  5
47E
330
2B
100
AcDbEntity
  8
HAWA1
370
    -2
100
AcDbLine
 10
74.28845200000001
 20
-44.494565
 30
0.0
 11
74.28845200000001
 21
-68.24625400000001
 31
0.0
  0
LINE
  5
47F
330
2B
100
AcDbEntity
  8
HAWA1
370
    -2
100
AcDbLine
 10
54.18845400000001
 20
-67.246254
 30
0.0
 11
75.28845200000001
 21
-67.246254
 31
0.0
  0
INSERT
  5
480
330
2B
100
AcDbEntity
  8
HAWA1
370
    -2
100
AcDbBlockReference
  2
_Oblique
 10
55.188454
 20
-67.246254
 30
0.0
 41
2.0
 42
2.0
 43
2.0
 50
180.0
  0
INSERT
  5
481
330
2B
100
AcDbEntity
  8
HAWA1
370
    -2
100
AcDbBlockReference
  2
_Oblique
 10
74.28845200000001
 20
-67.246254
 30
0.0
 41
2.0
 42
2.0
 43
2.0
  0
MTEXT
  5
482
330
2B
100
AcDbEntity
  8
HAWA1
100
AcDbMText
 10
64.738453
 20
-62.82823040552525
 30
0.0
 40
3.5
 41
0.0
 71
     5
 72
     1
  1
\A1;19 [{\H0.711429x;\S3/4;}"]
  7
Beschlag
 73
     1
 44
1.0
1001
ACAD
1000
MTEXTBEGIN
1070
    73
1070
     1
1070
    44
1040
1.0
1070
    74
1070
     0
1000
MTEXTEND
  0
POINT
  5
483
330
2B
100
AcDbEntity
  8
Defpoints
 62
     0
100
AcDbPoint
 10
55.188454
 20
-42.49456499999999
 30
0.0
  0
POINT
  5
484
330
2B
100
AcDbEntity
  8
Defpoints
 62
     0
100
AcDbPoint
 10
74.28845200000001
 20
-42.49456499999999
 30
0.0
  0
POINT
  5
485
330
2B
100
AcDbEntity
  8
Defpoints
 62
     0
100
AcDbPoint
 10
74.28845200000001
 20
-67.246254
 30
0.0
  0
ENDBLK
  5
3D1
330
2B
100
AcDbEntity
  8
HAWA1
100
AcDbBlockEnd
  0
BLOCK
  5
3D2
330
2D
100
AcDbEntity
  8
HAWA1
100
AcDbBlockBegin
  2
*D4
 70
     1
 10
0.0
 20
0.0
 30
0.0
  3
*D4
  1

  0
LINE
  5
450
330
2D
100
AcDbEntity
  8
HAWA1
370
    -2
100
AcDbLine
 10
268.1884509999307
 20
183.0665573495589
 30
0.0
 11
283.2693968683374
 21
183.0664317973587
 31
0.0
  0
LINE
  5
451
330
2D
100
AcDbEntity
  8
HAWA1
370
    -2
100
AcDbLine
 10
230.9112469999306
 20
233.0665573495589
 30
0.0
 11
283.2698131267803
 21
233.0661214529492
 31
0.0
  0
LINE
  5
452
330
2D
100
AcDbEntity
  8
HAWA1
370
    -2
100
AcDbLine
 10
282.2693885431515
 20
182.0664401226139
 30
0.0
 11
282.2698214520356
 21
234.0661297781351
 31
0.0
  0
INSERT
  5
453
330
2D
100
AcDbEntity
  8
HAWA1
370
    -2
100
AcDbBlockReference
  2
_Oblique
 10
282.2693968683721
 20
183.0664401225792
 30
0.0
 41
2.0
 42
2.0
 43
2.0
 50
269.9995229999999
  0
INSERT
  5
454
330
2D
100
AcDbEntity
  8
HAWA1
370
    -2
100
AcDbBlockReference
  2
_Oblique
 10
282.269813126815
 20
233.0661297781697
 30
0.0
 41
2.0
 42
2.0
 43
2.0
 50
89.999523
  0
MTEXT
  5
455
330
2D
100
AcDbEntity
  8
HAWA1
100
AcDbMText
 10
277.8244053978158
 20
208.0663219576415
 30
0.0
 40
3.5
 41
0.0
 71
     5
 72
     1
  1
\A1;50 [1{\H0.711429x;\S31/32;}"]
  7
Beschlag
 11
0.000008325220532
 21
0.9999999999653454
 31
0.0
 73
     1
 44
1.0
1001
ACAD
1000
MTEXTBEGIN
1070
    73
1070
     1
1070
    44
1040
1.0
1070
    74
1070
     0
1000
MTEXTEND
  0
POINT
  5
456
330
2D
100
AcDbEntity
  8
Defpoints
 62
     0
100
AcDbPoint
 10
266.1884510000001
 20
183.0665739999999
 30
0.0
  0
POINT
  5
457
330
2D
100
AcDbEntity
  8
Defpoints
 62
     0
100
AcDbPoint
 10
228.911247
 20
233.066574
 30
0.0
  0
POINT
  5
458
330
2D
100
AcDbEntity
  8
Defpoints
 62
     0
100
AcDbPoint
 10
282.269813126815
 20
233.0661297781697
 30
0.0
  0
ENDBLK
  5
3DF
330
2D
100
AcDbEntity
  8
HAWA1
100
AcDbBlockEnd
  0
BLOCK
  5
40B
330
40A
100
AcDbEntity
  8
0
100
AcDbBlockBegin
  2
_Oblique
 70
     0
 10
0.0
 20
0.0
 30
0.0
  3
_Oblique
  1

  0
LINE
  5
40C
330
40A
100
AcDbEntity
  8
0
 62
     0
370
    -2
100
AcDbLine
 10
-0.5
 20
-0.5
 30
0.0
 11
0.5
 21
0.5
 31
0.0
  0
ENDBLK
  5
40D
330
40A
100
AcDbEntity
  8
0
100
AcDbBlockEnd
  0
BLOCK
  5
41F
330
41E
100
AcDbEntity
  8
0
100
AcDbBlockBegin
  2
HAWA
 70
     0
 10
0.0
 20
0.0
 30
0.0
  3
HAWA
  1

  0
ENDBLK
  5
420
330
41E
100
AcDbEntity
  8
0
100
AcDbBlockEnd
  0
ENDSEC
  0
SECTION
  2
ENTITIES
  0
DIMENSION
  5
26
330
A
100
AcDbEntity
  8
HAWA1
 62
     0
100
AcDbDimension
  2
*D0
 10
35.19096894161992
 20
258.5883457446988
 30
0.0
 11
7.189790064914465
 21
262.9911660523318
 31
0.0
 70
    32
 71
     5
 42
56.00265095795918
 52
89.999523
  3
HAWA-Strich
100
AcDbAlignedDimension
 13
-20.811545
 23
262.703774
 33
0.0
 14
35.188454
 24
183.066574
 34
0.0
 50
359.998092
100
AcDbRotatedDimension
  0
DIMENSION
  5
28
330
A
100
AcDbEntity
  8
HAWA1
 62
     0
100
AcDbDimension
  2
*D1
 10
35.18971149387472
 20
258.589730999579
 30
0.0
 11
64.7397841042854
 21
263.0106595736064
 31
0.0
 70
    32
 71
     5
 42
59.09999799180766
 52
89.999523
  3
HAWA-Strich
100
AcDbAlignedDimension
 13
94.28845200000001
 23
183.066574
 33
0.0
 14
35.188454
 24
183.066574
 34
0.0
 50
179.999046
100
AcDbRotatedDimension
1001
ACAD
1000
DSTYLE
1002
{
1070
   271
1070
     0
1002
}
  0
DIMENSION
  5
2A
330
A
100
AcDbEntity
  8
HAWA1
 62
     0
100
AcDbDimension
  2
*D2
 10
94.28845200000001
 20
258.589239
 30
0.0
 11
151.2884515
 21
262.9902775910641
 31
0.0
 70
    33
 71
     5
 42
113.999999
 52
89.999523
  3
HAWA-Strich
100
AcDbAlignedDimension
 13
208.288451
 23
183.066574
 33
0.0
 14
94.28845200000001
 24
183.066574
 34
0.0
  0
DIMENSION
  5
2C
330
A
100
AcDbEntity
  8
HAWA1
 62
     0
100
AcDbDimension
  2
*D3
 10
74.28845200000001
 20
-67.246254
 30
0.0
 11
64.738453
 21
-62.82823040552525
 31
0.0
 70
    33
 71
     5
 42
19.099998
 52
89.999523
  3
HAWA-Strich
100
AcDbAlignedDimension
 13
55.188454
 23
-42.49456499999999
 33
0.0
 14
74.28845200000001
 24
-42.49456499999999
 34
0.0
1001
ACAD
1000
DSTYLE
1002
{
1070
   271
1070
     0
1002
}
  0
DIMENSION
  5
2E
330
A
100
AcDbEntity
  8
HAWA1
 62
     0
100
AcDbDimension
  2
*D4
 10
282.269813126815
 20
233.0661297781697
 30
0.0
 11
277.8244053978158
 21
208.0663219576415
 31
0.0
 70
    32
 71
     5
 42
49.99968965732316
 52
89.999523
  3
HAWA-Strich
100
AcDbAlignedDimension
 13
266.188451
 23
183.066574
 33
0.0
 14
228.911247
 24
233.066574
 34
0.0
 50
89.999523
100
AcDbRotatedDimension
  0
POINT
  5
2F
330
A
100
AcDbEntity
  8
Hawa6
 62
     3
100
AcDbPoint
 10
122.944151
 20
234.066574
 30
0.0
  0
LINE
  5
30
330
A
100
AcDbEntity
  8
Hawa5
 62
     1
100
AcDbLine
 10
-20.811546
 20
262.703773
 30
0.0
 11
-20.811546
 21
97.77009599999999
 31
0.0
  0
LINE
  5
31
330
A
100
AcDbEntity
  8
Hawa6
  6
DASHED
 62
     3
100
AcDbLine
 10
-13.811546
 20
166.166576
 30
0.0
 11
46.188454
 21
166.166576
 31
0.0
  0
LINE
  5
32
330
A
100
AcDbEntity
  8
Hawa6
  6
DASHDOT
 62
     3
 48
0.300236
100
AcDbLine
 10
-5.811545999999999
 20
171.265003
 30
0.0
 11
-5.811545999999999
 21
183.274425
 31
0.0
  0
LINE
  5
33
330
A
100
AcDbEntity
  8
Hawa6
 62
     3
 48
0.23317
100
AcDbLine
 10
129.961655
 20
190.066574
 30
0.0
 11
139.288452
 21
190.066574
 31
0.0
  0
LINE
  5
34
330
A
100
AcDbEntity
  8
Hawa6
 62
     3
 48
0.23317
100
AcDbLine
 10
139.288452
 20
176.066574
 30
0.0
 11
129.961655
 21
176.066574
 31
0.0
  0
LINE
  5
35
330
A
100
AcDbEntity
  8
Hawa6
 62
     3
 48
0.35
100
AcDbLine
 10
139.288452
 20
176.066574
 30
0.0
 11
139.288452
 21
190.066574
 31
0.0
  0
LINE
  5
36
330
A
100
AcDbEntity
  8
Hawa6
 62
     3
 48
0.022436
100
AcDbLine
 10
104.218994
 20
201.023045
 30
0.0
 11
105.102814
 21
200.867207
 31
0.0
  0
LINE
  5
37
330
A
100
AcDbEntity
  8
Hawa6
 62
     3
 48
0.017678
100
AcDbLine
 10
115.438452
 20
162.966574
 30
0.0
 11
114.938454
 21
163.466572
 31
0.0
  0
LINE
  5
38
330
A
100
AcDbEntity
  8
Hawa6
 62
     3
 48
0.375
100
AcDbLine
 10
113.788452
 20
192.166573
 30
0.0
 11
128.788452
 21
192.166573
 31
0.0
  0
LINE
  5
39
330
A
100
AcDbEntity
  8
Hawa6
 62
     3
100
AcDbLine
 10
104.288452
 20
192.666573
 30
0.0
 11
138.288452
 21
192.666573
 31
0.0
  0
LINE
  5
3A
330
A
100
AcDbEntity
  8
Hawa6
 62
     3
 48
0.022436
100
AcDbLine
 10
105.10281
 20
194.465944
 30
0.0
 11
104.218995
 21
194.310099
 31
0.0
  0
LINE
  5
3B
330
A
100
AcDbEntity
  8
Hawa6
 62
     3
 48
0.02124
100
AcDbLine
 10
103.888451
 20
202.266571
 30
0.0
 11
103.888451
 21
201.416962
 31
0.0
  0
LINE
  5
3C
330
A
100
AcDbEntity
  8
Hawa6
 62
     3
 48
0.017678
100
AcDbLine
 10
114.938452
 20
173.466581
 30
0.0
 11
115.438454
 21
173.966581
 31
0.0
  0
LINE
  5
3D
330
A
100
AcDbEntity
  8
Hawa6
 62
     3
 48
0.2925
100
AcDbLine
 10
115.438454
 20
203.166573
 30
0.0
 11
127.138451
 21
203.166573
 31
0.0
  0
LINE
  5
3E
330
A
100
AcDbEntity
  8
Hawa6
 62
     3
100
AcDbLine
 10
104.288452
 20
202.666573
 30
0.0
 11
138.288452
 21
202.666573
 31
0.0
  0
LINE
  5
3F
330
A
100
AcDbEntity
  8
Hawa6
 62
     3
 48
0.022436
100
AcDbLine
 10
138.35791
 20
165.110107
 30
0.0
 11
137.474091
 21
165.265949
 31
0.0
  0
LINE
  5
40
330
A
100
AcDbEntity
  8
Hawa6
 62
     3
 48
0.02124
100
AcDbLine
 10
138.68845
 20
172.216965
 30
0.0
 11
138.68845
 21
173.066578
 31
0.0
  0
LINE
  5
41
330
A
100
AcDbEntity
  8
Hawa6
 62
     3
 48
0.02124
100
AcDbLine
 10
103.888451
 20
172.216965
 30
0.0
 11
103.888451
 21
173.066574
 31
0.0
  0
LINE
  5
42
330
A
100
AcDbEntity
  8
Hawa6
 62
     3
 48
0.025
100
AcDbLine
 10
117.288452
 20
161.966576
 30
0.0
 11
117.288452
 21
162.966576
 31
0.0
  0
LINE
  5
43
330
A
100
AcDbEntity
  8
Hawa6
 62
     3
 48
0.2
100
AcDbLine
 10
117.288452
 20
161.966576
 30
0.0
 11
125.288452
 21
161.966576
 31
0.0
  0
LINE
  5
44
330
A
100
AcDbEntity
  8
Hawa6
 62
     3
 48
0.025
100
AcDbLine
 10
125.288452
 20
161.966576
 30
0.0
 11
125.288452
 21
162.966576
 31
0.0
  0
LINE
  5
45
330
A
100
AcDbEntity
  8
Hawa6
 62
     3
 48
0.0075
100
AcDbLine
 10
115.788452
 20
175.466576
 30
0.0
 11
115.788452
 21
175.766571
 31
0.0
  0
LINE
  5
46
330
A
100
AcDbEntity
  8
Hawa6
 62
     3
 48
0.0075
100
AcDbLine
 10
126.788452
 20
175.466576
 30
0.0
 11
126.788452
 21
175.766571
 31
0.0
  0
LINE
  5
47
330
A
100
AcDbEntity
  8
Hawa6
 62
     3
 48
0.022436
100
AcDbLine
 10
138.35791
 20
201.023039
 30
0.0
 11
137.474091
 21
200.867193
 31
0.0
  0
LINE
  5
48
330
A
100
AcDbEntity
  8
Hawa6
 62
     3
 48
0.022436
100
AcDbLine
 10
137.474094
 20
194.465948
 30
0.0
 11
138.35791
 21
194.310102
 31
0.0
  0
LINE
  5
49
330
A
100
AcDbEntity
  8
Hawa6
 62
     3
100
AcDbLine
 10
104.288452
 20
163.466576
 30
0.0
 11
138.288452
 21
163.466576
 31
0.0
  0
LINE
  5
4A
330
A
100
AcDbEntity
  8
Hawa6
 62
     3
 48
0.375
100
AcDbLine
 10
113.788452
 20
173.966576
 30
0.0
 11
128.788452
 21
173.966576
 31
0.0
  0
LINE
  5
4B
330
A
100
AcDbEntity
  8
Hawa6
 62
     3
100
AcDbLine
 10
104.288452
 20
173.466576
 30
0.0
 11
138.288452
 21
173.466576
 31
0.0
  0
LINE
  5
4C
330
A
100
AcDbEntity
  8
Hawa6
 62
     3
 48
0.022436
100
AcDbLine
 10
137.474091
 20
171.667197
 30
0.0
 11
138.35791
 21
171.823039
 31
0.0
  0
LINE
  5
4D
330
A
100
AcDbEntity
  8
Hawa6
 62
     3
 48
0.375
100
AcDbLine
 10
113.788452
 20
175.466576
 30
0.0
 11
128.788452
 21
175.466576
 31
0.0
  0
LINE
  5
4E
330
A
100
AcDbEntity
  8
Hawa6
 62
     3
 48
0.017678
100
AcDbLine
 10
127.138447
 20
162.966574
 30
0.0
 11
127.638451
 21
163.466576
 31
0.0
  0
LINE
  5
4F
330
A
100
AcDbEntity
  8
Hawa6
 62
     3
 48
0.0375
100
AcDbLine
 10
113.788452
 20
173.966576
 30
0.0
 11
113.788452
 21
175.466576
 31
0.0
  0
LINE
  5
50
330
A
100
AcDbEntity
  8
Hawa6
 62
     3
 48
0.0375
100
AcDbLine
 10
128.788452
 20
173.966576
 30
0.0
 11
128.788452
 21
175.466576
 31
0.0
  0
LINE
  5
51
330
A
100
AcDbEntity
  8
Hawa6
 62
     3
 48
0.2925
100
AcDbLine
 10
115.438454
 20
162.966576
 30
0.0
 11
127.138451
 21
162.966576
 31
0.0
  0
LINE
  5
52
330
A
100
AcDbEntity
  8
Hawa6
 62
     3
 48
0.02124
100
AcDbLine
 10
103.888451
 20
163.866573
 30
0.0
 11
103.888451
 21
164.716187
 31
0.0
  0
LINE
  5
53
330
A
100
AcDbEntity
  8
Hawa6
 62
     3
 48
0.017678
100
AcDbLine
 10
127.638454
 20
173.466581
 30
0.0
 11
127.138451
 21
173.966581
 31
0.0
  0
LINE
  5
54
330
A
100
AcDbEntity
  8
Hawa6
 62
     3
100
AcDbLine
 10
104.070862
 20
165.051826
 30
0.0
 11
138.506042
 21
165.051826
 31
0.0
  0
LINE
  5
55
330
A
100
AcDbEntity
  8
Hawa6
 62
     3
 48
0.022436
100
AcDbLine
 10
104.218994
 20
165.110104
 30
0.0
 11
105.102811
 21
165.2659449999999
 31
0.0
  0
LINE
  5
56
330
A
100
AcDbEntity
  8
Hawa6
 62
     3
 48
0.022436
100
AcDbLine
 10
105.102808
 20
171.667195
 30
0.0
 11
104.218993
 21
171.823036
 31
0.0
  0
LINE
  5
57
330
A
100
AcDbEntity
  8
Hawa6
 62
     3
100
AcDbLine
 10
104.070862
 20
171.881325
 30
0.0
 11
138.506042
 21
171.881325
 31
0.0
  0
LINE
  5
58
330
A
100
AcDbEntity
  8
Hawa6
 62
     3
 48
0.02124
100
AcDbLine
 10
138.68845
 20
163.866577
 30
0.0
 11
138.68845
 21
164.716187
 31
0.0
  0
LINE
  5
59
330
A
100
AcDbEntity
  8
Hawa6
 62
     3
 48
0.066395
100
AcDbLine
 10
129.788467
 20
190.36657
 30
0.0
 11
131.1163639999999
 21
188.066576
 31
0.0
  0
LINE
  5
5A
330
A
100
AcDbEntity
  8
Hawa6
 62
     3
 48
0.0375
100
AcDbLine
 10
128.788452
 20
192.166573
 30
0.0
 11
128.788452
 21
190.666573
 31
0.0
  0
LINE
  5
5B
330
A
100
AcDbEntity
  8
Hawa6
 62
     3
 48
0.0075
100
AcDbLine
 10
115.788452
 20
190.666573
 30
0.0
 11
115.788452
 21
190.366577
 31
0.0
  0
LINE
  5
5C
330
A
100
AcDbEntity
  8
Hawa6
 62
     3
 48
0.2
100
AcDbLine
 10
117.288452
 20
204.166573
 30
0.0
 11
125.288452
 21
204.166573
 31
0.0
  0
LINE
  5
5D
330
A
100
AcDbEntity
  8
Hawa6
 62
     3
 48
0.017678
100
AcDbLine
 10
127.638454
 20
192.666578
 30
0.0
 11
127.138451
 21
192.166578
 31
0.0
  0
LINE
  5
5E
330
A
100
AcDbEntity
  8
Hawa6
 62
     3
 48
0.017678
100
AcDbLine
 10
127.138451
 20
203.166582
 30
0.0
 11
127.638451
 21
202.666582
 31
0.0
  0
LINE
  5
5F
330
A
100
AcDbEntity
  8
Hawa6
 62
     3
 48
0.0075
100
AcDbLine
 10
126.788452
 20
190.666573
 30
0.0
 11
126.788452
 21
190.366577
 31
0.0
  0
LINE
  5
60
330
A
100
AcDbEntity
  8
Hawa6
 62
     3
 48
0.375
100
AcDbLine
 10
113.788452
 20
190.666573
 30
0.0
 11
128.788452
 21
190.666573
 31
0.0
  0
LINE
  5
61
330
A
100
AcDbEntity
  8
Hawa6
 62
     3
 48
0.02124
100
AcDbLine
 10
138.68845
 20
193.916183
 30
0.0
 11
138.68845
 21
193.066574
 31
0.0
  0
LINE
  5
62
330
A
100
AcDbEntity
  8
Hawa6
 62
     3
 48
0.0375
100
AcDbLine
 10
113.788452
 20
192.166573
 30
0.0
 11
113.788452
 21
190.666573
 31
0.0
  0
LINE
  5
63
330
A
100
AcDbEntity
  8
Hawa6
 62
     3
100
AcDbLine
 10
104.288452
 20
178.066574
 30
0.0
 11
132.242905
 21
178.066574
 31
0.0
  0
LINE
  5
64
330
A
100
AcDbEntity
  8
Hawa6
 62
     3
 48
0.02124
100
AcDbLine
 10
138.68845
 20
202.266571
 30
0.0
 11
138.68845
 21
201.416962
 31
0.0
  0
LINE
  5
65
330
A
100
AcDbEntity
  8
Hawa6
 62
     3
100
AcDbLine
 10
104.070862
 20
194.251823
 30
0.0
 11
138.506042
 21
194.251823
 31
0.0
  0
LINE
  5
66
330
A
100
AcDbEntity
  8
Hawa6
 62
     3
100
AcDbLine
 10
104.070862
 20
201.081322
 30
0.0
 11
138.506042
 21
201.081322
 31
0.0
  0
LINE
  5
67
330
A
100
AcDbEntity
  8
Hawa6
 62
     3
 48
0.017678
100
AcDbLine
 10
114.938454
 20
192.666572
 30
0.0
 11
115.438456
 21
192.166572
 31
0.0
  0
LINE
  5
68
330
A
100
AcDbEntity
  8
Hawa6
 62
     3
 48
0.017678
100
AcDbLine
 10
115.438452
 20
203.166571
 30
0.0
 11
114.938454
 21
202.666578
 31
0.0
  0
LINE
  5
69
330
A
100
AcDbEntity
  8
Hawa6
 62
     3
 48
0.02124
100
AcDbLine
 10
103.888451
 20
193.916183
 30
0.0
 11
103.888451
 21
193.066574
 31
0.0
  0
LINE
  5
6A
330
A
100
AcDbEntity
  8
Hawa6
 62
     3
 48
0.066395
100
AcDbLine
 10
129.788452
 20
175.766569
 30
0.0
 11
131.1163639999999
 21
178.06657
 31
0.0
  0
LINE
  5
6B
330
A
100
AcDbEntity
  8
Hawa6
 62
     3
 48
0.066395
100
AcDbLine
 10
112.78845
 20
190.366575
 30
0.0
 11
111.460543
 21
188.06658
 31
0.0
  0
LINE
  5
6C
330
A
100
AcDbEntity
  8
Hawa6
 62
     3
 48
0.23317
100
AcDbLine
 10
58.61525
 20
190.066574
 30
0.0
 11
49.288452
 21
190.066574
 31
0.0
  0
LINE
  5
6D
330
A
100
AcDbEntity
  8
Hawa6
 62
     3
 48
0.425
100
AcDbLine
 10
112.788452
 20
190.366577
 30
0.0
 11
129.7884639999999
 21
190.366577
 31
0.0
  0
LINE
  5
6E
330
A
100
AcDbEntity
  8
Hawa6
 62
     3
 48
0.425
100
AcDbLine
 10
112.788452
 20
175.766571
 30
0.0
 11
129.788456
 21
175.766571
 31
0.0
  0
LINE
  5
6F
330
A
100
AcDbEntity
  8
Hawa6
 62
     3
 48
0.066395
100
AcDbLine
 10
112.788454
 20
175.766572
 30
0.0
 11
111.460546
 21
178.066575
 31
0.0
  0
LINE
  5
70
330
A
100
AcDbEntity
  8
Hawa6
 62
     3
100
AcDbLine
 10
104.288452
 20
188.066574
 30
0.0
 11
132.242905
 21
188.066574
 31
0.0
  0
LINE
  5
71
330
A
100
AcDbEntity
  8
Hawa6
 62
     3
 48
0.025
100
AcDbLine
 10
117.288452
 20
204.166573
 30
0.0
 11
117.288452
 21
203.166573
 31
0.0
  0
LINE
  5
72
330
A
100
AcDbEntity
  8
Hawa6
 62
     3
 48
0.025
100
AcDbLine
 10
125.288452
 20
204.166573
 30
0.0
 11
125.288452
 21
203.166573
 31
0.0
  0
LINE
  5
73
330
A
100
AcDbEntity
  8
Hawa6
 62
     3
 48
0.025
100
AcDbLine
 10
63.28845199999999
 20
204.166573
 30
0.0
 11
63.28845199999999
 21
203.166573
 31
0.0
  0
LINE
  5
74
330
A
100
AcDbEntity
  8
Hawa6
 62
     3
 48
0.025
100
AcDbLine
 10
71.288452
 20
204.166573
 30
0.0
 11
71.288452
 21
203.166573
 31
0.0
  0
LINE
  5
75
330
A
100
AcDbEntity
  8
Hawa6
 62
     3
 48
0.2
100
AcDbLine
 10
71.288452
 20
204.166573
 30
0.0
 11
63.28845199999999
 21
204.166573
 31
0.0
  0
LINE
  5
76
330
A
100
AcDbEntity
  8
Hawa6
 62
     3
 48
0.0075
100
AcDbLine
 10
61.788452
 20
190.666573
 30
0.0
 11
61.788452
 21
190.366577
 31
0.0
  0
LINE
  5
77
330
A
100
AcDbEntity
  8
Hawa6
 62
     3
 48
0.0075
100
AcDbLine
 10
72.78845200000001
 20
190.666573
 30
0.0
 11
72.78845200000001
 21
190.366577
 31
0.0
  0
LINE
  5
78
330
A
100
AcDbEntity
  8
Hawa6
 62
     3
 48
0.375
100
AcDbLine
 10
74.78845200000001
 20
190.666573
 30
0.0
 11
59.788452
 21
190.666573
 31
0.0
  0
LINE
  5
79
330
A
100
AcDbEntity
  8
Hawa6
 62
     3
 48
0.0375
100
AcDbLine
 10
59.788452
 20
192.166573
 30
0.0
 11
59.788452
 21
190.666573
 31
0.0
  0
LINE
  5
7A
330
A
100
AcDbEntity
  8
Hawa6
 62
     3
 48
0.0375
100
AcDbLine
 10
74.78845200000001
 20
192.166573
 30
0.0
 11
74.78845200000001
 21
190.666573
 31
0.0
  0
LINE
  5
7B
330
A
100
AcDbEntity
  8
Hawa6
 62
     3
 48
0.017678
100
AcDbLine
 10
60.93845400000001
 20
192.666575
 30
0.0
 11
61.438454
 21
192.166575
 31
0.0
  0
LINE
  5
7C
330
A
100
AcDbEntity
  8
Hawa6
 62
     3
 48
0.017678
100
AcDbLine
 10
61.43845699999999
 20
203.166576
 30
0.0
 11
60.93845400000001
 21
202.666576
 31
0.0
  0
LINE
  5
7D
330
A
100
AcDbEntity
  8
Hawa6
 62
     3
 48
0.02124
100
AcDbLine
 10
49.88845399999999
 20
193.916183
 30
0.0
 11
49.88845399999999
 21
193.066574
 31
0.0
  0
LINE
  5
7E
330
A
100
AcDbEntity
  8
Hawa6
 62
     3
 48
0.022436
100
AcDbLine
 10
50.218994
 20
201.023043
 30
0.0
 11
51.10281
 21
200.867197
 31
0.0
  0
LINE
  5
7F
330
A
100
AcDbEntity
  8
Hawa6
 62
     3
 48
0.022436
100
AcDbLine
 10
51.10281
 20
194.465952
 30
0.0
 11
50.21899000000001
 21
194.310106
 31
0.0
  0
LINE
  5
80
330
A
100
AcDbEntity
  8
Hawa6
 62
     3
 48
0.02124
100
AcDbLine
 10
49.88845399999999
 20
202.266571
 30
0.0
 11
49.88845399999999
 21
201.416962
 31
0.0
  0
LINE
  5
81
330
A
100
AcDbEntity
  8
Hawa6
 62
     3
100
AcDbLine
 10
84.506042
 20
194.251823
 30
0.0
 11
50.07086199999999
 21
194.251823
 31
0.0
  0
LINE
  5
82
330
A
100
AcDbEntity
  8
Hawa6
 62
     3
100
AcDbLine
 10
84.506042
 20
201.081322
 30
0.0
 11
50.07086199999999
 21
201.081322
 31
0.0
  0
LINE
  5
83
330
A
100
AcDbEntity
  8
Hawa6
 62
     3
 48
0.017678
100
AcDbLine
 10
73.638453
 20
192.666566
 30
0.0
 11
73.138451
 21
192.166567
 31
0.0
  0
LINE
  5
84
330
A
100
AcDbEntity
  8
Hawa6
 62
     3
 48
0.017678
100
AcDbLine
 10
73.138451
 20
203.166573
 30
0.0
 11
73.638449
 21
202.66658
 31
0.0
  0
LINE
  5
85
330
A
100
AcDbEntity
  8
Hawa6
 62
     3
 48
0.02124
100
AcDbLine
 10
84.68845400000001
 20
193.916183
 30
0.0
 11
84.68845400000001
 21
193.066574
 31
0.0
  0
LINE
  5
86
330
A
100
AcDbEntity
  8
Hawa6
 62
     3
 48
0.022436
100
AcDbLine
 10
84.35791
 20
201.023041
 30
0.0
 11
83.474091
 21
200.867203
 31
0.0
  0
LINE
  5
87
330
A
100
AcDbEntity
  8
Hawa6
 62
     3
 48
0.022436
100
AcDbLine
 10
83.474094
 20
194.465945
 30
0.0
 11
84.35790899999998
 21
194.3101
 31
0.0
  0
LINE
  5
88
330
A
100
AcDbEntity
  8
Hawa6
 62
     3
 48
0.02124
100
AcDbLine
 10
84.68845400000001
 20
202.266571
 30
0.0
 11
84.68845400000001
 21
201.416962
 31
0.0
  0
LINE
  5
89
330
A
100
AcDbEntity
  8
Hawa6
 62
     3
100
AcDbLine
 10
84.28845200000001
 20
202.666573
 30
0.0
 11
50.288452
 21
202.666573
 31
0.0
  0
LINE
  5
8A
330
A
100
AcDbEntity
  8
Hawa6
 62
     3
 48
0.2925
100
AcDbLine
 10
73.138451
 20
203.166573
 30
0.0
 11
61.438454
 21
203.166573
 31
0.0
  0
LINE
  5
8B
330
A
100
AcDbEntity
  8
Hawa6
 62
     3
100
AcDbLine
 10
84.28845200000001
 20
192.666573
 30
0.0
 11
50.288452
 21
192.666573
 31
0.0
  0
LINE
  5
8C
330
A
100
AcDbEntity
  8
Hawa6
 62
     3
 48
0.375
100
AcDbLine
 10
74.78845200000001
 20
192.166573
 30
0.0
 11
59.788452
 21
192.166573
 31
0.0
  0
LINE
  5
8D
330
A
100
AcDbEntity
  8
Hawa6
 62
     3
 48
0.025
100
AcDbLine
 10
63.28845199999999
 20
161.966576
 30
0.0
 11
63.28845199999999
 21
162.966576
 31
0.0
  0
LINE
  5
8E
330
A
100
AcDbEntity
  8
Hawa6
 62
     3
 48
0.025
100
AcDbLine
 10
71.288452
 20
161.966576
 30
0.0
 11
71.288452
 21
162.966576
 31
0.0
  0
LINE
  5
8F
330
A
100
AcDbEntity
  8
Hawa6
 62
     3
 48
0.2
100
AcDbLine
 10
71.288452
 20
161.966576
 30
0.0
 11
63.28845199999999
 21
161.966576
 31
0.0
  0
LINE
  5
90
330
A
100
AcDbEntity
  8
Hawa6
 62
     3
 48
0.0075
100
AcDbLine
 10
61.788452
 20
175.466576
 30
0.0
 11
61.788452
 21
175.766571
 31
0.0
  0
LINE
  5
91
330
A
100
AcDbEntity
  8
Hawa6
 62
     3
 48
0.0075
100
AcDbLine
 10
72.78845200000001
 20
175.466576
 30
0.0
 11
72.78845200000001
 21
175.766571
 31
0.0
  0
LINE
  5
92
330
A
100
AcDbEntity
  8
Hawa6
 62
     3
 48
0.375
100
AcDbLine
 10
74.78845200000001
 20
175.466576
 30
0.0
 11
59.788452
 21
175.466576
 31
0.0
  0
LINE
  5
93
330
A
100
AcDbEntity
  8
Hawa6
 62
     3
 48
0.0375
100
AcDbLine
 10
59.788452
 20
173.966576
 30
0.0
 11
59.788452
 21
175.466576
 31
0.0
  0
LINE
  5
94
330
A
100
AcDbEntity
  8
Hawa6
 62
     3
 48
0.0375
100
AcDbLine
 10
74.78845200000001
 20
173.966576
 30
0.0
 11
74.78845200000001
 21
175.466576
 31
0.0
  0
LINE
  5
95
330
A
100
AcDbEntity
  8
Hawa6
 62
     3
 48
0.017678
100
AcDbLine
 10
60.93845400000001
 20
173.466577
 30
0.0
 11
61.438454
 21
173.966577
 31
0.0
  0
LINE
  5
96
330
A
100
AcDbEntity
  8
Hawa6
 62
     3
 48
0.017678
100
AcDbLine
 10
61.438454
 20
162.966576
 30
0.0
 11
60.93845400000001
 21
163.466576
 31
0.0
  0
LINE
  5
97
330
A
100
AcDbEntity
  8
Hawa6
 62
     3
 48
0.02124
100
AcDbLine
 10
49.88845399999999
 20
172.216965
 30
0.0
 11
49.88845399999999
 21
173.066578
 31
0.0
  0
LINE
  5
98
330
A
100
AcDbEntity
  8
Hawa6
 62
     3
 48
0.022436
100
AcDbLine
 10
50.218994
 20
165.110111
 30
0.0
 11
51.10281
 21
165.265953
 31
0.0
  0
LINE
  5
99
330
A
100
AcDbEntity
  8
Hawa6
 62
     3
 48
0.022436
100
AcDbLine
 10
51.10281
 20
171.667199
 30
0.0
 11
50.218994
 21
171.823042
 31
0.0
  0
LINE
  5
9A
330
A
100
AcDbEntity
  8
Hawa6
 62
     3
 48
0.02124
100
AcDbLine
 10
49.88845399999999
 20
163.866577
 30
0.0
 11
49.88845399999999
 21
164.716187
 31
0.0
  0
LINE
  5
9B
330
A
100
AcDbEntity
  8
Hawa6
 62
     3
100
AcDbLine
 10
84.506042
 20
171.881325
 30
0.0
 11
50.07086199999999
 21
171.881325
 31
0.0
  0
LINE
  5
9C
330
A
100
AcDbEntity
  8
Hawa6
 62
     3
100
AcDbLine
 10
84.506042
 20
165.051826
 30
0.0
 11
50.07086199999999
 21
165.051826
 31
0.0
  0
LINE
  5
9D
330
A
100
AcDbEntity
  8
Hawa6
 62
     3
 48
0.017678
100
AcDbLine
 10
73.63845400000001
 20
173.466579
 30
0.0
 11
73.138453
 21
173.966578
 31
0.0
  0
LINE
  5
9E
330
A
100
AcDbEntity
  8
Hawa6
 62
     3
 48
0.017678
100
AcDbLine
 10
73.138453
 20
162.966576
 30
0.0
 11
73.638451
 21
163.466574
 31
0.0
  0
LINE
  5
9F
330
A
100
AcDbEntity
  8
Hawa6
 62
     3
 48
0.02124
100
AcDbLine
 10
84.68845400000001
 20
172.216965
 30
0.0
 11
84.68845400000001
 21
173.066574
 31
0.0
  0
LINE
  5
A0
330
A
100
AcDbEntity
  8
Hawa6
 62
     3
 48
0.022436
100
AcDbLine
 10
84.35790899999998
 20
165.110106
 30
0.0
 11
83.47409199999999
 21
165.265947
 31
0.0
  0
LINE
  5
A1
330
A
100
AcDbEntity
  8
Hawa6
 62
     3
 48
0.022436
100
AcDbLine
 10
83.47409499999999
 20
171.667198
 30
0.0
 11
84.35791
 21
171.82304
 31
0.0
  0
LINE
  5
A2
330
A
100
AcDbEntity
  8
Hawa6
 62
     3
 48
0.02124
100
AcDbLine
 10
84.68845400000001
 20
163.866573
 30
0.0
 11
84.68845400000001
 21
164.716187
 31
0.0
  0
LINE
  5
A3
330
A
100
AcDbEntity
  8
Hawa6
 62
     3
100
AcDbLine
 10
84.28845200000001
 20
163.466576
 30
0.0
 11
50.288452
 21
163.466576
 31
0.0
  0
LINE
  5
A4
330
A
100
AcDbEntity
  8
Hawa6
 62
     3
 48
0.2925
100
AcDbLine
 10
73.138451
 20
162.966576
 30
0.0
 11
61.438454
 21
162.966576
 31
0.0
  0
LINE
  5
A5
330
A
100
AcDbEntity
  8
Hawa6
 62
     3
100
AcDbLine
 10
84.28845200000001
 20
173.466576
 30
0.0
 11
50.288452
 21
173.466576
 31
0.0
  0
LINE
  5
A6
330
A
100
AcDbEntity
  8
Hawa6
 62
     3
 48
0.375
100
AcDbLine
 10
74.78845200000001
 20
173.966576
 30
0.0
 11
59.788452
 21
173.966576
 31
0.0
  0
LINE
  5
A7
330
A
100
AcDbEntity
  8
Hawa6
 62
     3
 48
0.23317
100
AcDbLine
 10
49.288452
 20
176.066574
 30
0.0
 11
58.61525
 21
176.066574
 31
0.0
  0
LINE
  5
A8
330
A
100
AcDbEntity
  8
Hawa6
 62
     3
 48
0.066395
100
AcDbLine
 10
58.78844799999999
 20
175.76657
 30
0.0
 11
57.460537
 21
178.066572
 31
0.0
  0
LINE
  5
A9
330
A
100
AcDbEntity
  8
Hawa6
 62
     3
 48
0.066395
100
AcDbLine
 10
58.788437
 20
190.36657
 30
0.0
 11
57.46054100000001
 21
188.066576
 31
0.0
  0
LINE
  5
AA
330
A
100
AcDbEntity
  8
Hawa6
 62
     3
 48
0.425
100
AcDbLine
 10
75.788454
 20
190.366577
 30
0.0
 11
58.788452
 21
190.366577
 31
0.0
  0
LINE
  5
AB
330
A
100
AcDbEntity
  8
Hawa6
 62
     3
 48
0.066395
100
AcDbLine
 10
75.78845600000001
 20
190.366572
 30
0.0
 11
77.116364
 21
188.066578
 31
0.0
  0
LINE
  5
AD
330
A
100
AcDbEntity
  8
Hawa6
 62
     3
100
AcDbLine
 10
84.28845200000001
 20
178.066574
 30
0.0
 11
56.33399999999999
 21
178.066574
 31
0.0
  0
LINE
  5
AE
330
A
100
AcDbEntity
  8
Hawa6
 62
     3
100
AcDbLine
 10
84.28845200000001
 20
188.066574
 30
0.0
 11
56.33399999999999
 21
188.066574
 31
0.0
  0
LINE
  5
AF
330
A
100
AcDbEntity
  8
Hawa6
 62
     3
 48
0.066395
100
AcDbLine
 10
75.788452
 20
175.766569
 30
0.0
 11
77.11636
 21
178.066572
 31
0.0
  0
LINE
  5
B0
330
A
100
AcDbEntity
  8
Hawa6
 62
     3
 48
0.425
100
AcDbLine
 10
75.788452
 20
175.766571
 30
0.0
 11
58.78844799999999
 21
175.766571
 31
0.0
  0
LINE
  5
B1
330
A
100
AcDbEntity
  8
Hawa6
 62
     3
 48
0.223066
100
AcDbLine
 10
58.211105
 20
190.066574
 30
0.0
 11
49.288452
 21
190.066574
 31
0.0
  0
LINE
  5
B2
330
A
100
AcDbEntity
  8
Hawa6
 62
     3
 48
0.35
100
AcDbLine
 10
49.288452
 20
176.066574
 30
0.0
 11
49.288452
 21
190.066574
 31
0.0
  0
LINE
  5
B3
330
A
100
AcDbEntity
  8
Hawa6
 62
     3
 48
0.173656
100
AcDbLine
 10
87.788455
 20
172.066578
 30
0.0
 11
84.288457
 21
178.066577
 31
0.0
  0
LINE
  5
B4
330
A
100
AcDbEntity
  8
Hawa6
 62
     3
 48
0.173656
100
AcDbLine
 10
87.78845099999999
 20
194.066573
 30
0.0
 11
84.288451
 21
188.066566
 31
0.0
  0
LINE
  5
B5
330
A
100
AcDbEntity
  8
Hawa6
 62
     3
 48
0.354167
100
AcDbLine
 10
87.205116
 20
173.066574
 30
0.0
 11
101.371784
 21
173.066574
 31
0.0
  0
LINE
  5
B6
330
A
100
AcDbEntity
  8
Hawa6
 62
     3
 48
0.173656
100
AcDbLine
 10
100.788457
 20
172.066571
 30
0.0
 11
104.288458
 21
178.066578
 31
0.0
  0
LINE
  5
B7
330
A
100
AcDbEntity
  8
Hawa6
 62
     3
 48
0.325
100
AcDbLine
 10
87.78845200000001
 20
172.066574
 30
0.0
 11
100.788452
 21
172.066574
 31
0.0
  0
LINE
  5
B8
330
A
100
AcDbEntity
  8
Hawa6
 62
     3
 48
0.354167
100
AcDbLine
 10
87.20511999999999
 20
193.066574
 30
0.0
 11
101.371784
 21
193.066574
 31
0.0
  0
LINE
  5
B9
330
A
100
AcDbEntity
  8
Hawa6
 62
     3
 48
0.173656
100
AcDbLine
 10
100.788453
 20
194.066574
 30
0.0
 11
104.288454
 21
188.066573
 31
0.0
  0
LINE
  5
BA
330
A
100
AcDbEntity
  8
Hawa6
 62
     3
 48
0.325
100
AcDbLine
 10
87.78845200000001
 20
194.066574
 30
0.0
 11
100.788452
 21
194.066574
 31
0.0
  0
LINE
  5
BB
330
A
100
AcDbEntity
  8
Hawa6
 62
     3
 48
0.35
100
AcDbLine
 10
253.288452
 20
176.066574
 30
0.0
 11
253.288452
 21
190.066574
 31
0.0
  0
LINE
  5
BC
330
A
100
AcDbEntity
  8
Hawa6
 62
     3
 48
0.23317
100
AcDbLine
 10
253.288452
 20
176.066574
 30
0.0
 11
243.961655
 21
176.066574
 31
0.0
  0
LINE
  5
BD
330
A
100
AcDbEntity
  8
Hawa6
 62
     3
 48
0.23317
100
AcDbLine
 10
243.961655
 20
190.066574
 30
0.0
 11
253.288452
 21
190.066574
 31
0.0
  0
LINE
  5
BE
330
A
100
AcDbEntity
  8
Hawa6
 62
     3
 48
0.25
100
AcDbLine
 10
144.788513
 20
188.066565
 30
0.0
 11
144.788513
 21
178.066565
 31
0.0
  0
LINE
  5
BF
330
A
100
AcDbEntity
  8
Hawa6
 62
     3
 48
0.025
100
AcDbLine
 10
143.788452
 20
178.566574
 30
0.0
 11
144.788452
 21
178.566574
 31
0.0
  0
LINE
  5
C0
330
A
100
AcDbEntity
  8
Hawa6
 62
     3
 48
0.440171
100
AcDbLine
 10
145.23502
 20
185.953323
 30
0.0
 11
162.841873
 21
185.953323
 31
0.0
  0
LINE
  5
C1
330
A
100
AcDbEntity
  8
Hawa6
 62
     3
 48
0.022329
100
AcDbLine
 10
163.288452
 20
178.066555
 30
0.0
 11
162.841873
 21
177.293056
 31
0.0
  0
LINE
  5
C2
330
A
100
AcDbEntity
  8
Hawa6
 62
     3
 48
0.440171
100
AcDbLine
 10
145.235031
 20
177.293068
 30
0.0
 11
162.841873
 21
177.293068
 31
0.0
  0
LINE
  5
C3
330
A
100
AcDbEntity
  8
Hawa6
 62
     3
 48
0.440171
100
AcDbLine
 10
145.235023
 20
180.179825
 30
0.0
 11
162.841873
 21
180.179825
 31
0.0
  0
LINE
  5
C4
330
A
100
AcDbEntity
  8
Hawa6
 62
     3
 48
0.022436
100
AcDbLine
 10
218.218994
 20
201.023045
 30
0.0
 11
219.102814
 21
200.867207
 31
0.0
  0
LINE
  5
C5
330
A
100
AcDbEntity
  8
Hawa6
 62
     3
 48
0.017678
100
AcDbLine
 10
229.438446
 20
162.966574
 30
0.0
 11
228.938446
 21
163.466572
 31
0.0
  0
LINE
  5
C6
330
A
100
AcDbEntity
  8
Hawa6
 62
     3
 48
0.375
100
AcDbLine
 10
227.788452
 20
192.166573
 30
0.0
 11
242.788452
 21
192.166573
 31
0.0
  0
LINE
  5
C7
330
A
100
AcDbEntity
  8
Hawa6
 62
     3
100
AcDbLine
 10
218.288452
 20
192.666573
 30
0.0
 11
252.288452
 21
192.666573
 31
0.0
  0
LINE
  5
C8
330
A
100
AcDbEntity
  8
Hawa6
 62
     3
 48
0.022436
100
AcDbLine
 10
219.102806
 20
194.465944
 30
0.0
 11
218.218994
 21
194.310099
 31
0.0
  0
LINE
  5
C9
330
A
100
AcDbEntity
  8
Hawa6
 62
     3
 48
0.02124
100
AcDbLine
 10
217.888451
 20
202.266571
 30
0.0
 11
217.888451
 21
201.416962
 31
0.0
  0
LINE
  5
CA
330
A
100
AcDbEntity
  8
Hawa6
 62
     3
 48
0.017678
100
AcDbLine
 10
228.938446
 20
173.466581
 30
0.0
 11
229.438446
 21
173.966581
 31
0.0
  0
LINE
  5
CB
330
A
100
AcDbEntity
  8
Hawa6
 62
     3
 48
0.2925
100
AcDbLine
 10
229.438446
 20
203.166573
 30
0.0
 11
241.138443
 21
203.166573
 31
0.0
  0
LINE
  5
CC
330
A
100
AcDbEntity
  8
Hawa6
 62
     3
100
AcDbLine
 10
218.288452
 20
202.666573
 30
0.0
 11
252.288452
 21
202.666573
 31
0.0
  0
LINE
  5
CD
330
A
100
AcDbEntity
  8
Hawa6
 62
     3
 48
0.022436
100
AcDbLine
 10
252.35791
 20
165.110107
 30
0.0
 11
251.474091
 21
165.265949
 31
0.0
  0
LINE
  5
CE
330
A
100
AcDbEntity
  8
Hawa6
 62
     3
 48
0.02124
100
AcDbLine
 10
252.688446
 20
172.216965
 30
0.0
 11
252.688446
 21
173.066578
 31
0.0
  0
LINE
  5
CF
330
A
100
AcDbEntity
  8
Hawa6
 62
     3
 48
0.02124
100
AcDbLine
 10
217.888451
 20
172.216965
 30
0.0
 11
217.888451
 21
173.066574
 31
0.0
  0
LINE
  5
D0
330
A
100
AcDbEntity
  8
Hawa6
 62
     3
 48
0.025
100
AcDbLine
 10
231.288452
 20
161.966576
 30
0.0
 11
231.288452
 21
162.966576
 31
0.0
  0
LINE
  5
D1
330
A
100
AcDbEntity
  8
Hawa6
 62
     3
 48
0.2
100
AcDbLine
 10
231.288452
 20
161.966576
 30
0.0
 11
239.288452
 21
161.966576
 31
0.0
  0
LINE
  5
D2
330
A
100
AcDbEntity
  8
Hawa6
 62
     3
 48
0.025
100
AcDbLine
 10
239.288452
 20
161.966576
 30
0.0
 11
239.288452
 21
162.966576
 31
0.0
  0
LINE
  5
D3
330
A
100
AcDbEntity
  8
Hawa6
 62
     3
 48
0.0075
100
AcDbLine
 10
229.788452
 20
175.466576
 30
0.0
 11
229.788452
 21
175.766571
 31
0.0
  0
LINE
  5
D4
330
A
100
AcDbEntity
  8
Hawa6
 62
     3
 48
0.0075
100
AcDbLine
 10
240.788452
 20
175.466576
 30
0.0
 11
240.788452
 21
175.766571
 31
0.0
  0
LINE
  5
D5
330
A
100
AcDbEntity
  8
Hawa6
 62
     3
 48
0.022436
100
AcDbLine
 10
252.35791
 20
201.023039
 30
0.0
 11
251.474091
 21
200.867193
 31
0.0
  0
LINE
  5
D6
330
A
100
AcDbEntity
  8
Hawa6
 62
     3
 48
0.022436
100
AcDbLine
 10
251.474091
 20
194.465948
 30
0.0
 11
252.35791
 21
194.310102
 31
0.0
  0
LINE
  5
D7
330
A
100
AcDbEntity
  8
Hawa6
 62
     3
100
AcDbLine
 10
218.288452
 20
163.466576
 30
0.0
 11
252.288452
 21
163.466576
 31
0.0
  0
LINE
  5
D8
330
A
100
AcDbEntity
  8
Hawa6
 62
     3
 48
0.375
100
AcDbLine
 10
227.788452
 20
173.966576
 30
0.0
 11
242.788452
 21
173.966576
 31
0.0
  0
LINE
  5
D9
330
A
100
AcDbEntity
  8
Hawa6
 62
     3
100
AcDbLine
 10
218.288452
 20
173.466576
 30
0.0
 11
252.288452
 21
173.466576
 31
0.0
  0
LINE
  5
DA
330
A
100
AcDbEntity
  8
Hawa6
 62
     3
 48
0.022436
100
AcDbLine
 10
251.474091
 20
171.667197
 30
0.0
 11
252.35791
 21
171.823039
 31
0.0
  0
LINE
  5
DB
330
A
100
AcDbEntity
  8
Hawa6
 62
     3
 48
0.375
100
AcDbLine
 10
227.788452
 20
175.466576
 30
0.0
 11
242.788452
 21
175.466576
 31
0.0
  0
LINE
  5
DC
330
A
100
AcDbEntity
  8
Hawa6
 62
     3
 48
0.017678
100
AcDbLine
 10
241.138443
 20
162.966574
 30
0.0
 11
241.638443
 21
163.466576
 31
0.0
  0
LINE
  5
DD
330
A
100
AcDbEntity
  8
Hawa6
 62
     3
 48
0.0375
100
AcDbLine
 10
227.788452
 20
173.966576
 30
0.0
 11
227.788452
 21
175.466576
 31
0.0
  0
LINE
  5
DE
330
A
100
AcDbEntity
  8
Hawa6
 62
     3
 48
0.0375
100
AcDbLine
 10
242.788452
 20
173.966576
 30
0.0
 11
242.788452
 21
175.466576
 31
0.0
  0
LINE
  5
DF
330
A
100
AcDbEntity
  8
Hawa6
 62
     3
 48
0.2925
100
AcDbLine
 10
229.438446
 20
162.966576
 30
0.0
 11
241.138443
 21
162.966576
 31
0.0
  0
LINE
  5
E0
330
A
100
AcDbEntity
  8
Hawa6
 62
     3
 48
0.02124
100
AcDbLine
 10
217.888451
 20
163.866573
 30
0.0
 11
217.888451
 21
164.716187
 31
0.0
  0
LINE
  5
E1
330
A
100
AcDbEntity
  8
Hawa6
 62
     3
 48
0.017678
100
AcDbLine
 10
241.638458
 20
173.466581
 30
0.0
 11
241.138443
 21
173.966581
 31
0.0
  0
LINE
  5
E2
330
A
100
AcDbEntity
  8
Hawa6
 62
     3
100
AcDbLine
 10
218.070862
 20
165.051826
 30
0.0
 11
252.506042
 21
165.051826
 31
0.0
  0
LINE
  5
E3
330
A
100
AcDbEntity
  8
Hawa6
 62
     3
 48
0.022436
100
AcDbLine
 10
218.218994
 20
165.110104
 30
0.0
 11
219.102806
 21
165.2659449999999
 31
0.0
  0
LINE
  5
E4
330
A
100
AcDbEntity
  8
Hawa6
 62
     3
 48
0.022436
100
AcDbLine
 10
219.102806
 20
171.667195
 30
0.0
 11
218.218994
 21
171.823036
 31
0.0
  0
LINE
  5
E5
330
A
100
AcDbEntity
  8
Hawa6
 62
     3
100
AcDbLine
 10
218.070862
 20
171.881325
 30
0.0
 11
252.506042
 21
171.881325
 31
0.0
  0
LINE
  5
E6
330
A
100
AcDbEntity
  8
Hawa6
 62
     3
 48
0.02124
100
AcDbLine
 10
252.688446
 20
163.866577
 30
0.0
 11
252.688446
 21
164.716187
 31
0.0
  0
LINE
  5
E7
330
A
100
AcDbEntity
  8
Hawa6
 62
     3
 48
0.066395
100
AcDbLine
 10
243.788467
 20
190.36657
 30
0.0
 11
245.116364
 21
188.066576
 31
0.0
  0
LINE
  5
E8
330
A
100
AcDbEntity
  8
Hawa6
 62
     3
 48
0.0375
100
AcDbLine
 10
242.788452
 20
192.166573
 30
0.0
 11
242.788452
 21
190.666573
 31
0.0
  0
LINE
  5
E9
330
A
100
AcDbEntity
  8
Hawa6
 62
     3
 48
0.0075
100
AcDbLine
 10
229.788452
 20
190.666573
 30
0.0
 11
229.788452
 21
190.366577
 31
0.0
  0
LINE
  5
EA
330
A
100
AcDbEntity
  8
Hawa6
 62
     3
 48
0.2
100
AcDbLine
 10
231.288452
 20
204.166573
 30
0.0
 11
239.288452
 21
204.166573
 31
0.0
  0
LINE
  5
EB
330
A
100
AcDbEntity
  8
Hawa6
 62
     3
 48
0.017678
100
AcDbLine
 10
241.638458
 20
192.666578
 30
0.0
 11
241.138458
 21
192.166578
 31
0.0
  0
LINE
  5
EC
330
A
100
AcDbEntity
  8
Hawa6
 62
     3
 48
0.017678
100
AcDbLine
 10
241.138443
 20
203.166582
 30
0.0
 11
241.638443
 21
202.666582
 31
0.0
  0
LINE
  5
ED
330
A
100
AcDbEntity
  8
Hawa6
 62
     3
 48
0.0075
100
AcDbLine
 10
240.788452
 20
190.666573
 30
0.0
 11
240.788452
 21
190.366577
 31
0.0
  0
LINE
  5
EE
330
A
100
AcDbEntity
  8
Hawa6
 62
     3
 48
0.375
100
AcDbLine
 10
227.788452
 20
190.666573
 30
0.0
 11
242.788452
 21
190.666573
 31
0.0
  0
LINE
  5
EF
330
A
100
AcDbEntity
  8
Hawa6
 62
     3
 48
0.02124
100
AcDbLine
 10
252.688446
 20
193.916183
 30
0.0
 11
252.688446
 21
193.066574
 31
0.0
  0
LINE
  5
F0
330
A
100
AcDbEntity
  8
Hawa6
 62
     3
 48
0.0375
100
AcDbLine
 10
227.788452
 20
192.166573
 30
0.0
 11
227.788452
 21
190.666573
 31
0.0
  0
LINE
  5
F1
330
A
100
AcDbEntity
  8
Hawa6
 62
     3
100
AcDbLine
 10
218.288452
 20
178.066574
 30
0.0
 11
246.242905
 21
178.066574
 31
0.0
  0
LINE
  5
F2
330
A
100
AcDbEntity
  8
Hawa6
 62
     3
 48
0.02124
100
AcDbLine
 10
252.688446
 20
202.266571
 30
0.0
 11
252.688446
 21
201.416962
 31
0.0
  0
LINE
  5
F3
330
A
100
AcDbEntity
  8
Hawa6
 62
     3
100
AcDbLine
 10
218.070862
 20
194.251823
 30
0.0
 11
252.506042
 21
194.251823
 31
0.0
  0
LINE
  5
F4
330
A
100
AcDbEntity
  8
Hawa6
 62
     3
100
AcDbLine
 10
218.070862
 20
201.081322
 30
0.0
 11
252.506042
 21
201.081322
 31
0.0
  0
LINE
  5
F5
330
A
100
AcDbEntity
  8
Hawa6
 62
     3
 48
0.017678
100
AcDbLine
 10
228.938446
 20
192.666572
 30
0.0
 11
229.438446
 21
192.166572
 31
0.0
  0
LINE
  5
F6
330
A
100
AcDbEntity
  8
Hawa6
 62
     3
 48
0.017678
100
AcDbLine
 10
229.438446
 20
203.166571
 30
0.0
 11
228.938446
 21
202.666578
 31
0.0
  0
LINE
  5
F7
330
A
100
AcDbEntity
  8
Hawa6
 62
     3
 48
0.02124
100
AcDbLine
 10
217.888451
 20
193.916183
 30
0.0
 11
217.888451
 21
193.066574
 31
0.0
  0
LINE
  5
F8
330
A
100
AcDbEntity
  8
Hawa6
 62
     3
 48
0.066395
100
AcDbLine
 10
243.788452
 20
175.766569
 30
0.0
 11
245.116364
 21
178.06657
 31
0.0
  0
LINE
  5
F9
330
A
100
AcDbEntity
  8
Hawa6
 62
     3
 48
0.066395
100
AcDbLine
 10
226.788452
 20
190.366575
 30
0.0
 11
225.460541
 21
188.06658
 31
0.0
  0
LINE
  5
FA
330
A
100
AcDbEntity
  8
Hawa6
 62
     3
 48
0.23317
100
AcDbLine
 10
172.61525
 20
190.066574
 30
0.0
 11
163.288452
 21
190.066574
 31
0.0
  0
LINE
  5
FB
330
A
100
AcDbEntity
  8
Hawa6
 62
     3
 48
0.425
100
AcDbLine
 10
226.788452
 20
190.366577
 30
0.0
 11
243.788467
 21
190.366577
 31
0.0
  0
LINE
  5
FC
330
A
100
AcDbEntity
  8
Hawa6
 62
     3
 48
0.425
100
AcDbLine
 10
226.788452
 20
175.766571
 30
0.0
 11
243.788452
 21
175.766571
 31
0.0
  0
LINE
  5
FD
330
A
100
AcDbEntity
  8
Hawa6
 62
     3
 48
0.066395
100
AcDbLine
 10
226.788452
 20
175.766572
 30
0.0
 11
225.460541
 21
178.066575
 31
0.0
  0
LINE
  5
FE
330
A
100
AcDbEntity
  8
Hawa6
 62
     3
100
AcDbLine
 10
218.288452
 20
188.066574
 30
0.0
 11
246.242905
 21
188.066574
 31
0.0
  0
LINE
  5
FF
330
A
100
AcDbEntity
  8
Hawa6
 62
     3
 48
0.025
100
AcDbLine
 10
231.288452
 20
204.166573
 30
0.0
 11
231.288452
 21
203.166573
 31
0.0
  0
LINE
  5
100
330
A
100
AcDbEntity
  8
Hawa6
 62
     3
 48
0.025
100
AcDbLine
 10
239.288452
 20
204.166573
 30
0.0
 11
239.288452
 21
203.166573
 31
0.0
  0
LINE
  5
101
330
A
100
AcDbEntity
  8
Hawa6
 62
     3
 48
0.025
100
AcDbLine
 10
177.288452
 20
204.166573
 30
0.0
 11
177.288452
 21
203.166573
 31
0.0
  0
LINE
  5
102
330
A
100
AcDbEntity
  8
Hawa6
 62
     3
 48
0.025
100
AcDbLine
 10
185.288452
 20
204.166573
 30
0.0
 11
185.288452
 21
203.166573
 31
0.0
  0
LINE
  5
103
330
A
100
AcDbEntity
  8
Hawa6
 62
     3
 48
0.2
100
AcDbLine
 10
185.288452
 20
204.166573
 30
0.0
 11
177.288452
 21
204.166573
 31
0.0
  0
LINE
  5
104
330
A
100
AcDbEntity
  8
Hawa6
 62
     3
 48
0.0075
100
AcDbLine
 10
175.788452
 20
190.666573
 30
0.0
 11
175.788452
 21
190.366577
 31
0.0
  0
LINE
  5
105
330
A
100
AcDbEntity
  8
Hawa6
 62
     3
 48
0.0075
100
AcDbLine
 10
186.788452
 20
190.666573
 30
0.0
 11
186.788452
 21
190.366577
 31
0.0
  0
LINE
  5
106
330
A
100
AcDbEntity
  8
Hawa6
 62
     3
 48
0.375
100
AcDbLine
 10
188.788452
 20
190.666573
 30
0.0
 11
173.788452
 21
190.666573
 31
0.0
  0
LINE
  5
107
330
A
100
AcDbEntity
  8
Hawa6
 62
     3
 48
0.0375
100
AcDbLine
 10
173.788452
 20
192.166573
 30
0.0
 11
173.788452
 21
190.666573
 31
0.0
  0
LINE
  5
108
330
A
100
AcDbEntity
  8
Hawa6
 62
     3
 48
0.0375
100
AcDbLine
 10
188.788452
 20
192.166573
 30
0.0
 11
188.788452
 21
190.666573
 31
0.0
  0
LINE
  5
109
330
A
100
AcDbEntity
  8
Hawa6
 62
     3
 48
0.017678
100
AcDbLine
 10
174.938454
 20
192.666575
 30
0.0
 11
175.438454
 21
192.166575
 31
0.0
  0
LINE
  5
10A
330
A
100
AcDbEntity
  8
Hawa6
 62
     3
 48
0.017678
100
AcDbLine
 10
175.438454
 20
203.166576
 30
0.0
 11
174.938454
 21
202.666576
 31
0.0
  0
LINE
  5
10B
330
A
100
AcDbEntity
  8
Hawa6
 62
     3
 48
0.02124
100
AcDbLine
 10
163.888451
 20
193.916183
 30
0.0
 11
163.888451
 21
193.066574
 31
0.0
  0
LINE
  5
10C
330
A
100
AcDbEntity
  8
Hawa6
 62
     3
 48
0.022436
100
AcDbLine
 10
164.2189939999999
 20
201.023043
 30
0.0
 11
165.102806
 21
200.867197
 31
0.0
  0
LINE
  5
10D
330
A
100
AcDbEntity
  8
Hawa6
 62
     3
 48
0.022436
100
AcDbLine
 10
165.102806
 20
194.465952
 30
0.0
 11
164.218987
 21
194.310106
 31
0.0
  0
LINE
  5
10E
330
A
100
AcDbEntity
  8
Hawa6
 62
     3
 48
0.02124
100
AcDbLine
 10
163.888451
 20
202.266571
 30
0.0
 11
163.888451
 21
201.416962
 31
0.0
  0
LINE
  5
10F
330
A
100
AcDbEntity
  8
Hawa6
 62
     3
100
AcDbLine
 10
198.506042
 20
194.251823
 30
0.0
 11
164.070862
 21
194.251823
 31
0.0
  0
LINE
  5
110
330
A
100
AcDbEntity
  8
Hawa6
 62
     3
100
AcDbLine
 10
198.506042
 20
201.081322
 30
0.0
 11
164.070862
 21
201.081322
 31
0.0
  0
LINE
  5
111
330
A
100
AcDbEntity
  8
Hawa6
 62
     3
 48
0.017678
100
AcDbLine
 10
187.638451
 20
192.666566
 30
0.0
 11
187.138451
 21
192.166567
 31
0.0
  0
LINE
  5
112
330
A
100
AcDbEntity
  8
Hawa6
 62
     3
 48
0.017678
100
AcDbLine
 10
187.138451
 20
203.166573
 30
0.0
 11
187.638451
 21
202.66658
 31
0.0
  0
LINE
  5
113
330
A
100
AcDbEntity
  8
Hawa6
 62
     3
 48
0.02124
100
AcDbLine
 10
198.688454
 20
193.916183
 30
0.0
 11
198.688454
 21
193.066574
 31
0.0
  0
LINE
  5
114
330
A
100
AcDbEntity
  8
Hawa6
 62
     3
 48
0.022436
100
AcDbLine
 10
198.35791
 20
201.023041
 30
0.0
 11
197.474091
 21
200.867203
 31
0.0
  0
LINE
  5
115
330
A
100
AcDbEntity
  8
Hawa6
 62
     3
 48
0.022436
100
AcDbLine
 10
197.474091
 20
194.465945
 30
0.0
 11
198.35791
 21
194.3101
 31
0.0
  0
LINE
  5
116
330
A
100
AcDbEntity
  8
Hawa6
 62
     3
 48
0.02124
100
AcDbLine
 10
198.688454
 20
202.266571
 30
0.0
 11
198.688454
 21
201.416962
 31
0.0
  0
LINE
  5
117
330
A
100
AcDbEntity
  8
Hawa6
 62
     3
100
AcDbLine
 10
198.288452
 20
202.666573
 30
0.0
 11
164.288452
 21
202.666573
 31
0.0
  0
LINE
  5
118
330
A
100
AcDbEntity
  8
Hawa6
 62
     3
 48
0.2925
100
AcDbLine
 10
187.138451
 20
203.166573
 30
0.0
 11
175.438454
 21
203.166573
 31
0.0
  0
LINE
  5
119
330
A
100
AcDbEntity
  8
Hawa6
 62
     3
100
AcDbLine
 10
198.288452
 20
192.666573
 30
0.0
 11
164.288452
 21
192.666573
 31
0.0
  0
LINE
  5
11A
330
A
100
AcDbEntity
  8
Hawa6
 62
     3
 48
0.375
100
AcDbLine
 10
188.788452
 20
192.166573
 30
0.0
 11
173.788452
 21
192.166573
 31
0.0
  0
LINE
  5
11B
330
A
100
AcDbEntity
  8
Hawa6
 62
     3
 48
0.025
100
AcDbLine
 10
177.288452
 20
161.966576
 30
0.0
 11
177.288452
 21
162.966576
 31
0.0
  0
LINE
  5
11C
330
A
100
AcDbEntity
  8
Hawa6
 62
     3
 48
0.025
100
AcDbLine
 10
185.288452
 20
161.966576
 30
0.0
 11
185.288452
 21
162.966576
 31
0.0
  0
LINE
  5
11D
330
A
100
AcDbEntity
  8
Hawa6
 62
     3
 48
0.2
100
AcDbLine
 10
185.288452
 20
161.966576
 30
0.0
 11
177.288452
 21
161.966576
 31
0.0
  0
LINE
  5
11E
330
A
100
AcDbEntity
  8
Hawa6
 62
     3
 48
0.0075
100
AcDbLine
 10
175.788452
 20
175.466576
 30
0.0
 11
175.788452
 21
175.766571
 31
0.0
  0
LINE
  5
11F
330
A
100
AcDbEntity
  8
Hawa6
 62
     3
 48
0.0075
100
AcDbLine
 10
186.788452
 20
175.466576
 30
0.0
 11
186.788452
 21
175.766571
 31
0.0
  0
LINE
  5
120
330
A
100
AcDbEntity
  8
Hawa6
 62
     3
 48
0.375
100
AcDbLine
 10
188.788452
 20
175.466576
 30
0.0
 11
173.788452
 21
175.466576
 31
0.0
  0
LINE
  5
121
330
A
100
AcDbEntity
  8
Hawa6
 62
     3
 48
0.0375
100
AcDbLine
 10
173.788452
 20
173.966576
 30
0.0
 11
173.788452
 21
175.466576
 31
0.0
  0
LINE
  5
122
330
A
100
AcDbEntity
  8
Hawa6
 62
     3
 48
0.0375
100
AcDbLine
 10
188.788452
 20
173.966576
 30
0.0
 11
188.788452
 21
175.466576
 31
0.0
  0
LINE
  5
123
330
A
100
AcDbEntity
  8
Hawa6
 62
     3
 48
0.017678
100
AcDbLine
 10
174.938454
 20
173.466577
 30
0.0
 11
175.438454
 21
173.966577
 31
0.0
  0
LINE
  5
124
330
A
100
AcDbEntity
  8
Hawa6
 62
     3
 48
0.017678
100
AcDbLine
 10
175.438454
 20
162.966576
 30
0.0
 11
174.938454
 21
163.466576
 31
0.0
  0
LINE
  5
125
330
A
100
AcDbEntity
  8
Hawa6
 62
     3
 48
0.02124
100
AcDbLine
 10
163.888451
 20
172.216965
 30
0.0
 11
163.888451
 21
173.066578
 31
0.0
  0
LINE
  5
126
330
A
100
AcDbEntity
  8
Hawa6
 62
     3
 48
0.022436
100
AcDbLine
 10
164.2189939999999
 20
165.110111
 30
0.0
 11
165.102806
 21
165.265953
 31
0.0
  0
LINE
  5
127
330
A
100
AcDbEntity
  8
Hawa6
 62
     3
 48
0.022436
100
AcDbLine
 10
165.102806
 20
171.667199
 30
0.0
 11
164.2189939999999
 21
171.823042
 31
0.0
  0
LINE
  5
128
330
A
100
AcDbEntity
  8
Hawa6
 62
     3
 48
0.02124
100
AcDbLine
 10
163.888451
 20
163.866577
 30
0.0
 11
163.888451
 21
164.716187
 31
0.0
  0
LINE
  5
129
330
A
100
AcDbEntity
  8
Hawa6
 62
     3
100
AcDbLine
 10
198.506042
 20
171.881325
 30
0.0
 11
164.070862
 21
171.881325
 31
0.0
  0
LINE
  5
12A
330
A
100
AcDbEntity
  8
Hawa6
 62
     3
100
AcDbLine
 10
198.506042
 20
165.051826
 30
0.0
 11
164.070862
 21
165.051826
 31
0.0
  0
LINE
  5
12B
330
A
100
AcDbEntity
  8
Hawa6
 62
     3
 48
0.017678
100
AcDbLine
 10
187.638451
 20
173.466579
 30
0.0
 11
187.138451
 21
173.966578
 31
0.0
  0
LINE
  5
12C
330
A
100
AcDbEntity
  8
Hawa6
 62
     3
 48
0.017678
100
AcDbLine
 10
187.138451
 20
162.966576
 30
0.0
 11
187.638451
 21
163.466574
 31
0.0
  0
LINE
  5
12D
330
A
100
AcDbEntity
  8
Hawa6
 62
     3
 48
0.02124
100
AcDbLine
 10
198.688454
 20
172.216965
 30
0.0
 11
198.688454
 21
173.066574
 31
0.0
  0
LINE
  5
12E
330
A
100
AcDbEntity
  8
Hawa6
 62
     3
 48
0.022436
100
AcDbLine
 10
198.35791
 20
165.110106
 30
0.0
 11
197.474091
 21
165.265947
 31
0.0
  0
LINE
  5
12F
330
A
100
AcDbEntity
  8
Hawa6
 62
     3
 48
0.022436
100
AcDbLine
 10
197.474091
 20
171.667198
 30
0.0
 11
198.35791
 21
171.82304
 31
0.0
  0
LINE
  5
130
330
A
100
AcDbEntity
  8
Hawa6
 62
     3
 48
0.02124
100
AcDbLine
 10
198.688454
 20
163.866573
 30
0.0
 11
198.688454
 21
164.716187
 31
0.0
  0
LINE
  5
131
330
A
100
AcDbEntity
  8
Hawa6
 62
     3
100
AcDbLine
 10
198.288452
 20
163.466576
 30
0.0
 11
164.288452
 21
163.466576
 31
0.0
  0
LINE
  5
132
330
A
100
AcDbEntity
  8
Hawa6
 62
     3
 48
0.2925
100
AcDbLine
 10
187.138451
 20
162.966576
 30
0.0
 11
175.438454
 21
162.966576
 31
0.0
  0
LINE
  5
133
330
A
100
AcDbEntity
  8
Hawa6
 62
     3
100
AcDbLine
 10
198.288452
 20
173.466576
 30
0.0
 11
164.288452
 21
173.466576
 31
0.0
  0
LINE
  5
134
330
A
100
AcDbEntity
  8
Hawa6
 62
     3
 48
0.375
100
AcDbLine
 10
188.788452
 20
173.966576
 30
0.0
 11
173.788452
 21
173.966576
 31
0.0
  0
LINE
  5
135
330
A
100
AcDbEntity
  8
Hawa6
 62
     3
 48
0.23317
100
AcDbLine
 10
163.288452
 20
176.066574
 30
0.0
 11
172.61525
 21
176.066574
 31
0.0
  0
LINE
  5
136
330
A
100
AcDbEntity
  8
Hawa6
 62
     3
 48
0.066395
100
AcDbLine
 10
172.788445
 20
175.76657
 30
0.0
 11
171.460541
 21
178.066572
 31
0.0
  0
LINE
  5
137
330
A
100
AcDbEntity
  8
Hawa6
 62
     3
 48
0.066395
100
AcDbLine
 10
172.788437
 20
190.36657
 30
0.0
 11
171.460541
 21
188.066576
 31
0.0
  0
LINE
  5
138
330
A
100
AcDbEntity
  8
Hawa6
 62
     3
 48
0.425
100
AcDbLine
 10
189.788452
 20
190.366577
 30
0.0
 11
172.788452
 21
190.366577
 31
0.0
  0
LINE
  5
139
330
A
100
AcDbEntity
  8
Hawa6
 62
     3
 48
0.066395
100
AcDbLine
 10
189.788452
 20
190.366572
 30
0.0
 11
191.116364
 21
188.066578
 31
0.0
  0
LINE
  5
13B
330
A
100
AcDbEntity
  8
Hawa6
 62
     3
100
AcDbLine
 10
198.288452
 20
178.066574
 30
0.0
 11
170.334
 21
178.066574
 31
0.0
  0
LINE
  5
13C
330
A
100
AcDbEntity
  8
Hawa6
 62
     3
100
AcDbLine
 10
198.288452
 20
188.066574
 30
0.0
 11
170.334
 21
188.066574
 31
0.0
  0
LINE
  5
13D
330
A
100
AcDbEntity
  8
Hawa6
 62
     3
 48
0.425
100
AcDbLine
 10
189.788452
 20
175.766571
 30
0.0
 11
172.788452
 21
175.766571
 31
0.0
  0
LINE
  5
13E
330
A
100
AcDbEntity
  8
Hawa6
 62
     3
 48
0.066395
100
AcDbLine
 10
189.788452
 20
175.766569
 30
0.0
 11
191.116356
 21
178.066572
 31
0.0
  0
LINE
  5
13F
330
A
100
AcDbEntity
  8
Hawa6
 62
     3
 48
0.223066
100
AcDbLine
 10
172.211105
 20
190.066574
 30
0.0
 11
163.288452
 21
190.066574
 31
0.0
  0
LINE
  5
140
330
A
100
AcDbEntity
  8
Hawa6
 62
     3
 48
0.35
100
AcDbLine
 10
163.288452
 20
176.066574
 30
0.0
 11
163.288452
 21
190.066574
 31
0.0
  0
LINE
  5
141
330
A
100
AcDbEntity
  8
Hawa6
 62
     3
 48
0.173656
100
AcDbLine
 10
201.788452
 20
172.066578
 30
0.0
 11
198.288452
 21
178.066577
 31
0.0
  0
LINE
  5
142
330
A
100
AcDbEntity
  8
Hawa6
 62
     3
 48
0.173656
100
AcDbLine
 10
201.788452
 20
194.066573
 30
0.0
 11
198.288452
 21
188.066566
 31
0.0
  0
LINE
  5
143
330
A
100
AcDbEntity
  8
Hawa6
 62
     3
 48
0.354167
100
AcDbLine
 10
201.205116
 20
173.066574
 30
0.0
 11
215.37178
 21
173.066574
 31
0.0
  0
LINE
  5
144
330
A
100
AcDbEntity
  8
Hawa6
 62
     3
 48
0.173656
100
AcDbLine
 10
214.788452
 20
172.066571
 30
0.0
 11
218.28846
 21
178.066578
 31
0.0
  0
LINE
  5
145
330
A
100
AcDbEntity
  8
Hawa6
 62
     3
 48
0.325
100
AcDbLine
 10
201.788452
 20
172.066574
 30
0.0
 11
214.788452
 21
172.066574
 31
0.0
  0
LINE
  5
146
330
A
100
AcDbEntity
  8
Hawa6
 62
     3
 48
0.354167
100
AcDbLine
 10
201.205116
 20
193.066574
 30
0.0
 11
215.37178
 21
193.066574
 31
0.0
  0
LINE
  5
147
330
A
100
AcDbEntity
  8
Hawa6
 62
     3
 48
0.173656
100
AcDbLine
 10
214.788452
 20
194.066574
 30
0.0
 11
218.288452
 21
188.066573
 31
0.0
  0
LINE
  5
148
330
A
100
AcDbEntity
  8
Hawa6
 62
     3
 48
0.325
100
AcDbLine
 10
201.788452
 20
194.066574
 30
0.0
 11
214.788452
 21
194.066574
 31
0.0
  0
LINE
  5
149
330
A
100
AcDbEntity
  8
Hawa6
  6
DASHDOT
 62
     3
100
AcDbLine
 10
266.188446
 20
183.066574
 30
0.0
 11
-22.811546
 21
183.066574
 31
0.0
  0
LINE
  5
14A
330
A
100
AcDbEntity
  8
Hawa6
  6
DASHED
 62
     3
100
AcDbLine
 10
-13.811546
 20
171.266575
 30
0.0
 11
46.188454
 21
171.266575
 31
0.0
  0
LINE
  5
14B
330
A
100
AcDbEntity
  8
Hawa6
  6
DASHED
 62
     3
100
AcDbLine
 10
-13.811546
 20
194.866577
 30
0.0
 11
46.188454
 21
194.866577
 31
0.0
  0
LINE
  5
14C
330
A
100
AcDbEntity
  8
Hawa6
 62
     3
100
AcDbLine
 10
46.188454
 20
203.066574
 30
0.0
 11
46.188454
 21
163.066574
 31
0.0
  0
LINE
  5
14D
330
A
100
AcDbEntity
  8
Hawa6
 62
     3
100
AcDbLine
 10
-13.811546
 20
163.066574
 30
0.0
 11
46.188454
 21
163.066574
 31
0.0
  0
LINE
  5
14E
330
A
100
AcDbEntity
  8
Hawa6
 62
     3
100
AcDbLine
 10
-13.811546
 20
203.066574
 30
0.0
 11
46.188454
 21
203.066574
 31
0.0
  0
LINE
  5
14F
330
A
100
AcDbEntity
  8
Hawa6
  6
DASHDOT
 62
     3
 48
0.234147
100
AcDbLine
 10
8.618698
 20
189.066574
 30
0.0
 11
17.984581
 21
189.066574
 31
0.0
  0
LINE
  5
150
330
A
100
AcDbEntity
  8
Hawa6
 62
     3
 48
0.022329
100
AcDbLine
 10
144.788589
 20
178.06664
 30
0.0
 11
145.235168
 21
177.293142
 31
0.0
  0
LINE
  5
151
330
A
100
AcDbEntity
  8
Hawa6
 62
     3
 48
0.440171
100
AcDbLine
 10
145.235027
 20
188.840073
 30
0.0
 11
162.841866
 21
188.840073
 31
0.0
  0
LINE
  5
152
330
A
100
AcDbEntity
  8
Hawa6
 62
     3
 48
0.022329
100
AcDbLine
 10
163.288528
 20
188.066614
 30
0.0
 11
162.841949
 21
188.840111
 31
0.0
  0
LINE
  5
153
330
A
100
AcDbEntity
  8
Hawa6
 62
     3
 48
0.022329
100
AcDbLine
 10
144.788734
 20
188.066414
 30
0.0
 11
145.235313
 21
188.839919
 31
0.0
  0
LINE
  5
154
330
A
100
AcDbEntity
  8
Hawa6
  6
DASHED
 62
     3
100
AcDbLine
 10
-13.811546
 20
199.966576
 30
0.0
 11
46.188454
 21
199.966576
 31
0.0
  0
LINE
  5
155
330
A
100
AcDbEntity
  8
Hawa6
 62
     3
100
AcDbLine
 10
-13.811546
 20
203.066574
 30
0.0
 11
-13.811546
 21
163.066574
 31
0.0
  0
LINE
  5
156
330
A
100
AcDbEntity
  8
Hawa6
  6
DASHDOT
 62
     3
 48
0.293758
100
AcDbLine
 10
13.188454
 20
183.265003
 30
0.0
 11
13.188454
 21
195.015313
 31
0.0
  0
LINE
  5
157
330
A
100
AcDbEntity
  8
Hawa6
  6
DASHDOT
 62
     3
 48
0.234147
100
AcDbLine
 10
-10.381302
 20
177.066574
 30
0.0
 11
-1.015419
 21
177.066574
 31
0.0
  0
LINE
  5
158
330
A
100
AcDbEntity
  8
Hawa6
  6
DASHED
 62
     3
 48
0.1
100
AcDbLine
 10
169.288452
 20
185.066574
 30
0.0
 11
169.288452
 21
181.066574
 31
0.0
  0
LINE
  5
159
330
A
100
AcDbEntity
  8
Hawa6
 62
     3
 48
0.025
100
AcDbLine
 10
143.788452
 20
187.566574
 30
0.0
 11
144.788452
 21
187.566574
 31
0.0
  0
LINE
  5
15A
330
A
100
AcDbEntity
  8
Hawa6
  6
DASHED
 62
     3
 48
0.125
100
AcDbLine
 10
164.788452
 20
185.566574
 30
0.0
 11
164.788452
 21
180.566574
 31
0.0
  0
LINE
  5
15B
330
A
100
AcDbEntity
  8
Hawa6
  6
DASHED
 62
     3
 48
0.125
100
AcDbLine
 10
168.788452
 20
185.566574
 30
0.0
 11
168.788452
 21
180.566574
 31
0.0
  0
LINE
  5
15C
330
A
100
AcDbEntity
  8
Hawa6
  6
DASHED
 62
     3
 48
0.017678
100
AcDbLine
 10
169.288307
 20
181.066712
 30
0.0
 11
168.788307
 21
180.56671
 31
0.0
  0
LINE
  5
15D
330
A
100
AcDbEntity
  8
Hawa6
  6
DASHED
 62
     3
 48
0.017677
100
AcDbLine
 10
169.288429
 20
185.066562
 30
0.0
 11
168.788437
 21
185.566559
 31
0.0
  0
LINE
  5
15E
330
A
100
AcDbEntity
  8
Hawa6
 62
     3
 48
0.17652
100
AcDbLine
 10
143.788513
 20
186.524709
 30
0.0
 11
143.788513
 21
179.463908
 31
0.0
  0
LINE
  5
15F
330
A
100
AcDbEntity
  8
Hawa6
  6
DASHED
 62
     3
 48
0.1375
100
AcDbLine
 10
163.288452
 20
185.566574
 30
0.0
 11
168.78846
 21
185.566574
 31
0.0
  0
LINE
  5
160
330
A
100
AcDbEntity
  8
Hawa6
  6
DASHED
 62
     3
 48
0.1375
100
AcDbLine
 10
163.288452
 20
180.566574
 30
0.0
 11
168.788452
 21
180.566574
 31
0.0
  0
LINE
  5
161
330
A
100
AcDbEntity
  8
Hawa6
  6
DASHED
 62
     3
 48
0.15
100
AcDbLine
 10
163.288452
 20
185.066574
 30
0.0
 11
169.288452
 21
185.066574
 31
0.0
  0
LINE
  5
162
330
A
100
AcDbEntity
  8
Hawa6
  6
DASHED
 62
     3
 48
0.15
100
AcDbLine
 10
163.288452
 20
181.066574
 30
0.0
 11
169.288452
 21
181.066574
 31
0.0
  0
LINE
  5
163
330
A
100
AcDbEntity
  8
Hawa6
  6
PHANTOM
 62
     3
100
AcDbLine
 10
266.188446
 20
158.066574
 30
0.0
 11
-15.811546
 21
158.066574
 31
0.0
  0
LINE
  5
164
330
A
100
AcDbEntity
  8
Hawa6
  6
PHANTOM
 62
     3
100
AcDbLine
 10
266.188446
 20
208.066574
 30
0.0
 11
-15.811546
 21
208.066574
 31
0.0
  0
LINE
  5
165
330
A
100
AcDbEntity
  8
Hawa6
  6
PHANTOM
 62
     3
100
AcDbLine
 10
266.188446
 20
213.066574
 30
0.0
 11
266.188446
 21
153.066574
 31
0.0
  0
LINE
  5
166
330
A
100
AcDbEntity
  8
Hawa6
 62
     3
 48
0.00303
100
AcDbLine
 10
43.747646
 20
203.17079
 30
0.0
 11
43.809494
 21
203.066574
 31
0.0
  0
LINE
  5
167
330
A
100
AcDbEntity
  8
Hawa6
 62
     3
 48
0.060021
100
AcDbLine
 10
81.032901
 20
198.903166
 30
0.0
 11
81.00406900000001
 21
196.502519
 31
0.0
  0
LINE
  5
168
330
A
100
AcDbEntity
  8
Hawa6
 62
     3
 48
0.054303
100
AcDbLine
 10
194.98204
 20
198.771502
 30
0.0
 11
194.968651
 21
196.599409
 31
0.0
  0
LINE
  5
169
330
A
100
AcDbEntity
  8
Hawa6
  6
PHANTOM
 62
     3
100
AcDbLine
 10
-15.811546
 20
158.066574
 30
0.0
 11
-15.811546
 21
208.066574
 31
0.0
  0
LINE
  5
16A
330
A
100
AcDbEntity
  8
Hawa6
 62
     3
 48
0.216949
100
AcDbLine
 10
35.070324
 20
203.066574
 30
0.0
 11
43.747646
 21
203.17079
 31
0.0
  0
LINE
  5
16B
330
A
100
AcDbEntity
  8
Hawa6
  6
DASHED
 62
     3
 48
0.0375
100
AcDbLine
 10
44.688454
 20
177.066574
 30
0.0
 11
46.188454
 21
177.066574
 31
0.0
  0
LINE
  5
16C
330
A
100
AcDbEntity
  8
Hawa6
  6
DASHED
 62
     3
 48
0.0375
100
AcDbLine
 10
44.688454
 20
189.066574
 30
0.0
 11
46.188454
 21
189.066574
 31
0.0
  0
LINE
  5
16D
330
A
100
AcDbEntity
  8
Hawa6
  6
DASHED
 62
     3
 48
0.3
100
AcDbLine
 10
44.688454
 20
189.066574
 30
0.0
 11
44.688454
 21
177.066574
 31
0.0
  0
CIRCLE
  5
16E
330
A
100
AcDbEntity
  8
Hawa6
  6
DASHED
 62
     3
100
AcDbCircle
 10
208.288452
 20
183.066574
 30
0.0
 40
9.0
  0
CIRCLE
  5
170
330
A
100
AcDbEntity
  8
Hawa6
  6
DASHED
 62
     3
100
AcDbCircle
 10
208.288452
 20
183.066574
 30
0.0
 40
7.0
  0
ARC
  5
171
330
A
100
AcDbEntity
  8
Hawa6
 62
     3
100
AcDbCircle
 10
208.288452
 20
183.066574
 30
0.0
 40
5.0
100
AcDbArc
 50
12.48686
 51
280.4478410000001
  0
CIRCLE
  5
172
330
A
100
AcDbEntity
  8
Hawa6
 62
     3
100
AcDbCircle
 10
208.288452
 20
183.066574
 30
0.0
 40
4.2
  0
ARC
  5
173
330
A
100
AcDbEntity
  8
Hawa6
 62
     3
100
AcDbCircle
 10
198.038452
 20
168.466576
 30
0.0
 40
3.25
100
AcDbArc
 50
100.000028
 51
259.999976
  0
ARC
  5
174
330
A
100
AcDbEntity
  8
Hawa6
 62
     3
100
AcDbCircle
 10
198.288452
 20
163.866573
 30
0.0
 40
0.4
100
AcDbArc
 50
270.000001
 51
359.999983
  0
ARC
  5
175
330
A
100
AcDbEntity
  8
Hawa6
 62
     3
100
AcDbCircle
 10
198.288452
 20
164.716187
 30
0.0
 40
0.4
100
AcDbArc
 50
359.999983
 51
79.999902
  0
ARC
  5
176
330
A
100
AcDbEntity
  8
Hawa6
 62
     3
100
AcDbCircle
 10
198.288452
 20
172.216965
 30
0.0
 40
0.4
100
AcDbArc
 50
280.000081
 51
359.999983
  0
ARC
  5
177
330
A
100
AcDbEntity
  8
Hawa6
 62
     3
100
AcDbCircle
 10
198.288452
 20
173.066574
 30
0.0
 40
0.4
100
AcDbArc
 50
359.999983
 51
89.999996
  0
ARC
  5
178
330
A
100
AcDbEntity
  8
Hawa6
 62
     3
100
AcDbCircle
 10
164.538452
 20
168.466576
 30
0.0
 40
3.25
100
AcDbArc
 50
280.000053
 51
80.000011
  0
ARC
  5
179
330
A
100
AcDbEntity
  8
Hawa6
 62
     3
100
AcDbCircle
 10
164.288452
 20
163.866577
 30
0.0
 40
0.4
100
AcDbArc
 50
180.000019
 51
270.000001
  0
ARC
  5
17A
330
A
100
AcDbEntity
  8
Hawa6
 62
     3
100
AcDbCircle
 10
164.288452
 20
164.716187
 30
0.0
 40
0.4
100
AcDbArc
 50
100.00011
 51
180.000005
  0
ARC
  5
17B
330
A
100
AcDbEntity
  8
Hawa6
 62
     3
100
AcDbCircle
 10
164.288452
 20
172.216965
 30
0.0
 40
0.4
100
AcDbArc
 50
180.000005
 51
259.999921
  0
ARC
  5
17C
330
A
100
AcDbEntity
  8
Hawa6
 62
     3
100
AcDbCircle
 10
164.288452
 20
173.066578
 30
0.0
 40
0.4
100
AcDbArc
 50
90.00003000000001
 51
180.000005
  0
ARC
  5
17D
330
A
100
AcDbEntity
  8
Hawa6
 62
     3
100
AcDbCircle
 10
198.038452
 20
197.666573
 30
0.0
 40
3.25
100
AcDbArc
 50
100.000055
 51
260.000003
  0
ARC
  5
17E
330
A
100
AcDbEntity
  8
Hawa6
 62
     3
100
AcDbCircle
 10
198.288452
 20
202.266571
 30
0.0
 40
0.4
100
AcDbArc
 50
0.00002
 51
90.000023
  0
ARC
  5
17F
330
A
100
AcDbEntity
  8
Hawa6
 62
     3
100
AcDbCircle
 10
198.288452
 20
201.416962
 30
0.0
 40
0.4
100
AcDbArc
 50
280.000108
 51
0.000023
  0
ARC
  5
180
330
A
100
AcDbEntity
  8
Hawa6
 62
     3
100
AcDbCircle
 10
198.288452
 20
193.916183
 30
0.0
 40
0.4
100
AcDbArc
 50
0.00002
 51
79.99993
  0
ARC
  5
181
330
A
100
AcDbEntity
  8
Hawa6
 62
     3
100
AcDbCircle
 10
198.288452
 20
193.066574
 30
0.0
 40
0.4
100
AcDbArc
 50
270.000028
 51
0.000023
  0
ARC
  5
182
330
A
100
AcDbEntity
  8
Hawa6
 62
     3
100
AcDbCircle
 10
164.538452
 20
197.666573
 30
0.0
 40
3.25
100
AcDbArc
 50
279.999999
 51
79.999971
  0
ARC
  5
183
330
A
100
AcDbEntity
  8
Hawa6
 62
     3
100
AcDbCircle
 10
164.288452
 20
202.266571
 30
0.0
 40
0.4
100
AcDbArc
 50
93.96744699999999
 51
179.999991
  0
ARC
  5
184
330
A
100
AcDbEntity
  8
Hawa6
 62
     3
100
AcDbCircle
 10
164.288452
 20
201.416962
 30
0.0
 40
0.4
100
AcDbArc
 50
180.000019
 51
259.999921
  0
ARC
  5
185
330
A
100
AcDbEntity
  8
Hawa6
 62
     3
100
AcDbCircle
 10
164.288452
 20
193.916183
 30
0.0
 40
0.4
100
AcDbArc
 50
100.00011
 51
180.000005
  0
ARC
  5
186
330
A
100
AcDbEntity
  8
Hawa6
 62
     3
100
AcDbCircle
 10
164.288452
 20
193.066574
 30
0.0
 40
0.4
100
AcDbArc
 50
180.000019
 51
270.000001
  0
ARC
  5
187
330
A
100
AcDbEntity
  8
Hawa6
 62
     3
100
AcDbCircle
 10
218.288452
 20
201.416962
 30
0.0
 40
0.4
100
AcDbArc
 50
179.999978
 51
259.999893
  0
ARC
  5
188
330
A
100
AcDbEntity
  8
Hawa6
 62
     3
100
AcDbCircle
 10
218.288452
 20
202.266571
 30
0.0
 40
0.4
100
AcDbArc
 50
89.999975
 51
179.999978
  0
ARC
  5
189
330
A
100
AcDbEntity
  8
Hawa6
 62
     3
100
AcDbCircle
 10
218.538452
 20
197.666573
 30
0.0
 40
3.25
100
AcDbArc
 50
279.999999
 51
79.99995
  0
ARC
  5
18A
330
A
100
AcDbEntity
  8
Hawa6
 62
     3
100
AcDbCircle
 10
252.288452
 20
193.066574
 30
0.0
 40
0.4
100
AcDbArc
 50
270.000001
 51
359.999983
  0
ARC
  5
18B
330
A
100
AcDbEntity
  8
Hawa6
 62
     3
100
AcDbCircle
 10
252.288452
 20
201.416962
 30
0.0
 40
0.4
100
AcDbArc
 50
280.000081
 51
359.999983
  0
ARC
  5
18C
330
A
100
AcDbEntity
  8
Hawa6
 62
     3
100
AcDbCircle
 10
252.288452
 20
193.916183
 30
0.0
 40
0.4
100
AcDbArc
 50
359.999983
 51
79.99989499999999
  0
ARC
  5
18D
330
A
100
AcDbEntity
  8
Hawa6
 62
     3
100
AcDbCircle
 10
252.288452
 20
172.216965
 30
0.0
 40
0.4
100
AcDbArc
 50
280.000081
 51
359.999983
  0
ARC
  5
18E
330
A
100
AcDbEntity
  8
Hawa6
 62
     3
100
AcDbCircle
 10
252.288452
 20
163.866577
 30
0.0
 40
0.4
100
AcDbArc
 50
273.967439
 51
359.999983
  0
ARC
  5
18F
330
A
100
AcDbEntity
  8
Hawa6
 62
     3
100
AcDbCircle
 10
252.288452
 20
164.716187
 30
0.0
 40
0.4
100
AcDbArc
 50
359.999983
 51
79.99989499999999
  0
ARC
  5
190
330
A
100
AcDbEntity
  8
Hawa6
 62
     3
100
AcDbCircle
 10
252.288452
 20
202.266571
 30
0.0
 40
0.4
100
AcDbArc
 50
0.000009
 51
86.03255
  0
ARC
  5
191
330
A
100
AcDbEntity
  8
Hawa6
 62
     3
100
AcDbCircle
 10
252.288452
 20
173.066578
 30
0.0
 40
0.4
100
AcDbArc
 50
359.999983
 51
89.999975
  0
ARC
  5
192
330
A
100
AcDbEntity
  8
Hawa6
 62
     3
100
AcDbCircle
 10
252.038452
 20
197.666573
 30
0.0
 40
3.25
100
AcDbArc
 50
100.000028
 51
260.000003
  0
ARC
  5
193
330
A
100
AcDbEntity
  8
Hawa6
 62
     3
100
AcDbCircle
 10
218.288452
 20
172.216965
 30
0.0
 40
0.4
100
AcDbArc
 50
180.000005
 51
259.999921
  0
ARC
  5
194
330
A
100
AcDbEntity
  8
Hawa6
 62
     3
100
AcDbCircle
 10
252.038452
 20
168.466576
 30
0.0
 40
3.25
100
AcDbArc
 50
99.999987
 51
259.999948
  0
ARC
  5
195
330
A
100
AcDbEntity
  8
Hawa6
 62
     3
100
AcDbCircle
 10
218.288452
 20
173.066574
 30
0.0
 40
0.4
100
AcDbArc
 50
90.00000300000001
 51
180.000005
  0
ARC
  5
196
330
A
100
AcDbEntity
  8
Hawa6
 62
     3
100
AcDbCircle
 10
218.288452
 20
193.916183
 30
0.0
 40
0.4
100
AcDbArc
 50
100.000068
 51
179.999978
  0
ARC
  5
197
330
A
100
AcDbEntity
  8
Hawa6
 62
     3
100
AcDbCircle
 10
218.288452
 20
193.066574
 30
0.0
 40
0.4
100
AcDbArc
 50
179.999978
 51
269.999973
  0
ARC
  5
198
330
A
100
AcDbEntity
  8
Hawa6
 62
     3
100
AcDbCircle
 10
218.288452
 20
164.716187
 30
0.0
 40
0.4
100
AcDbArc
 50
100.000096
 51
180.000005
  0
ARC
  5
199
330
A
100
AcDbEntity
  8
Hawa6
 62
     3
100
AcDbCircle
 10
218.538452
 20
168.466576
 30
0.0
 40
3.25
100
AcDbArc
 50
280.000026
 51
79.999977
  0
ARC
  5
19A
330
A
100
AcDbEntity
  8
Hawa6
 62
     3
100
AcDbCircle
 10
218.288452
 20
163.866573
 30
0.0
 40
0.4
100
AcDbArc
 50
180.000005
 51
270.000001
  0
ARC
  5
19B
330
A
100
AcDbEntity
  8
Hawa6
 62
     3
100
AcDbCircle
 10
208.288452
 20
183.066574
 30
0.0
 40
11.850019
100
AcDbArc
 50
68.16649699999999
 51
111.833508
  0
ARC
  5
19C
330
A
100
AcDbEntity
  8
Hawa6
 62
     3
100
AcDbCircle
 10
208.288452
 20
183.066574
 30
0.0
 40
11.850019
100
AcDbArc
 50
248.166481
 51
291.833491
  0
ARC
  5
19D
330
A
100
AcDbEntity
  8
Hawa6
  6
DASHED
 62
     3
100
AcDbCircle
 10
208.288452
 20
183.066574
 30
0.0
 40
11.850019
100
AcDbArc
 50
111.833508
 51
130.05359
  0
ARC
  5
19E
330
A
100
AcDbEntity
  8
Hawa6
  6
DASHED
 62
     3
100
AcDbCircle
 10
208.288452
 20
183.066574
 30
0.0
 40
11.850019
100
AcDbArc
 50
291.833491
 51
310.053677
  0
ARC
  5
19F
330
A
100
AcDbEntity
  8
Hawa6
  6
DASHED
 62
     3
100
AcDbCircle
 10
208.288452
 20
183.066574
 30
0.0
 40
11.850019
100
AcDbArc
 50
49.94639
 51
68.16649699999999
  0
ARC
  5
1A0
330
A
100
AcDbEntity
  8
Hawa6
 62
     3
100
AcDbCircle
 10
208.288452
 20
183.066574
 30
0.0
 40
11.850019
100
AcDbArc
 50
24.957142
 51
49.94639
  0
ARC
  5
1A1
330
A
100
AcDbEntity
  8
Hawa6
  6
DASHED
 62
     3
100
AcDbCircle
 10
208.288452
 20
183.066574
 30
0.0
 40
11.850019
100
AcDbArc
 50
335.042854
 51
24.957142
  0
ARC
  5
1A2
330
A
100
AcDbEntity
  8
Hawa6
 62
     3
100
AcDbCircle
 10
208.288452
 20
183.066574
 30
0.0
 40
11.850019
100
AcDbArc
 50
310.053677
 51
335.042854
  0
ARC
  5
1A3
330
A
100
AcDbEntity
  8
Hawa6
  6
DASHED
 62
     3
100
AcDbCircle
 10
208.288452
 20
183.066574
 30
0.0
 40
11.850019
100
AcDbArc
 50
229.946461
 51
248.166481
  0
ARC
  5
1A4
330
A
100
AcDbEntity
  8
Hawa6
 62
     3
100
AcDbCircle
 10
208.288452
 20
183.066574
 30
0.0
 40
11.850019
100
AcDbArc
 50
204.957134
 51
229.946461
  0
ARC
  5
1A5
330
A
100
AcDbEntity
  8
Hawa6
  6
DASHED
 62
     3
100
AcDbCircle
 10
208.288452
 20
183.066574
 30
0.0
 40
11.850019
100
AcDbArc
 50
155.042863
 51
204.957148
  0
ARC
  5
1A6
330
A
100
AcDbEntity
  8
Hawa6
 62
     3
100
AcDbCircle
 10
208.288452
 20
183.066574
 30
0.0
 40
11.850019
100
AcDbArc
 50
130.05359
 51
155.042863
  0
CIRCLE
  5
1A7
330
A
100
AcDbEntity
  8
Hawa6
  6
DASHED
 62
     3
100
AcDbCircle
 10
94.28845200000001
 20
183.066574
 30
0.0
 40
9.0
  0
CIRCLE
  5
1A9
330
A
100
AcDbEntity
  8
Hawa6
  6
DASHED
 62
     3
100
AcDbCircle
 10
94.28845200000001
 20
183.066574
 30
0.0
 40
7.0
  0
ARC
  5
1AA
330
A
100
AcDbEntity
  8
Hawa6
 62
     3
100
AcDbCircle
 10
94.28845200000001
 20
183.066574
 30
0.0
 40
5.0
100
AcDbArc
 50
12.48686
 51
280.4478410000001
  0
CIRCLE
  5
1AB
330
A
100
AcDbEntity
  8
Hawa6
 62
     3
100
AcDbCircle
 10
94.28845200000001
 20
183.066574
 30
0.0
 40
4.2
  0
ARC
  5
1AC
330
A
100
AcDbEntity
  8
Hawa6
 62
     3
100
AcDbCircle
 10
84.03845200000001
 20
168.466576
 30
0.0
 40
3.25
100
AcDbArc
 50
100.000028
 51
259.999976
  0
ARC
  5
1AD
330
A
100
AcDbEntity
  8
Hawa6
 62
     3
100
AcDbCircle
 10
84.28845200000001
 20
163.866573
 30
0.0
 40
0.4
100
AcDbArc
 50
270.000001
 51
359.999983
  0
ARC
  5
1AE
330
A
100
AcDbEntity
  8
Hawa6
 62
     3
100
AcDbCircle
 10
84.28845200000001
 20
164.716187
 30
0.0
 40
0.4
100
AcDbArc
 50
359.999983
 51
79.999902
  0
ARC
  5
1AF
330
A
100
AcDbEntity
  8
Hawa6
 62
     3
100
AcDbCircle
 10
84.28845200000001
 20
172.216965
 30
0.0
 40
0.4
100
AcDbArc
 50
280.000081
 51
359.999983
  0
ARC
  5
1B0
330
A
100
AcDbEntity
  8
Hawa6
 62
     3
100
AcDbCircle
 10
84.28845200000001
 20
173.066574
 30
0.0
 40
0.4
100
AcDbArc
 50
359.999983
 51
89.999996
  0
ARC
  5
1B1
330
A
100
AcDbEntity
  8
Hawa6
 62
     3
100
AcDbCircle
 10
50.538452
 20
168.466576
 30
0.0
 40
3.25
100
AcDbArc
 50
280.000053
 51
80.000011
  0
ARC
  5
1B2
330
A
100
AcDbEntity
  8
Hawa6
 62
     3
100
AcDbCircle
 10
50.288452
 20
163.866577
 30
0.0
 40
0.4
100
AcDbArc
 50
180.000019
 51
266.032562
  0
ARC
  5
1B3
330
A
100
AcDbEntity
  8
Hawa6
 62
     3
100
AcDbCircle
 10
50.288452
 20
164.716187
 30
0.0
 40
0.4
100
AcDbArc
 50
100.00011
 51
180.000005
  0
ARC
  5
1B4
330
A
100
AcDbEntity
  8
Hawa6
 62
     3
100
AcDbCircle
 10
50.288452
 20
172.216965
 30
0.0
 40
0.4
100
AcDbArc
 50
180.000005
 51
259.999921
  0
ARC
  5
1B5
330
A
100
AcDbEntity
  8
Hawa6
 62
     3
100
AcDbCircle
 10
50.288452
 20
173.066578
 30
0.0
 40
0.4
100
AcDbArc
 50
90.00003000000001
 51
180.000005
  0
ARC
  5
1B6
330
A
100
AcDbEntity
  8
Hawa6
 62
     3
100
AcDbCircle
 10
84.03845200000001
 20
197.666573
 30
0.0
 40
3.25
100
AcDbArc
 50
100.000055
 51
260.000003
  0
ARC
  5
1B7
330
A
100
AcDbEntity
  8
Hawa6
 62
     3
100
AcDbCircle
 10
84.28845200000001
 20
202.266571
 30
0.0
 40
0.4
100
AcDbArc
 50
0.00002
 51
90.000023
  0
ARC
  5
1B8
330
A
100
AcDbEntity
  8
Hawa6
 62
     3
100
AcDbCircle
 10
84.28845200000001
 20
201.416962
 30
0.0
 40
0.4
100
AcDbArc
 50
280.000108
 51
0.000023
  0
ARC
  5
1B9
330
A
100
AcDbEntity
  8
Hawa6
 62
     3
100
AcDbCircle
 10
84.28845200000001
 20
193.916183
 30
0.0
 40
0.4
100
AcDbArc
 50
0.00002
 51
79.99993
  0
ARC
  5
1BA
330
A
100
AcDbEntity
  8
Hawa6
 62
     3
100
AcDbCircle
 10
84.28845200000001
 20
193.066574
 30
0.0
 40
0.4
100
AcDbArc
 50
270.000028
 51
0.000023
  0
ARC
  5
1BB
330
A
100
AcDbEntity
  8
Hawa6
 62
     3
100
AcDbCircle
 10
50.538452
 20
197.666573
 30
0.0
 40
3.25
100
AcDbArc
 50
279.999999
 51
79.999971
  0
ARC
  5
1BC
330
A
100
AcDbEntity
  8
Hawa6
 62
     3
100
AcDbCircle
 10
50.288452
 20
202.266571
 30
0.0
 40
0.4
100
AcDbArc
 50
93.96744699999999
 51
179.999991
  0
ARC
  5
1BD
330
A
100
AcDbEntity
  8
Hawa6
 62
     3
100
AcDbCircle
 10
50.288452
 20
201.416962
 30
0.0
 40
0.4
100
AcDbArc
 50
180.000019
 51
259.999921
  0
ARC
  5
1BE
330
A
100
AcDbEntity
  8
Hawa6
 62
     3
100
AcDbCircle
 10
50.288452
 20
193.916183
 30
0.0
 40
0.4
100
AcDbArc
 50
100.00011
 51
180.000005
  0
ARC
  5
1BF
330
A
100
AcDbEntity
  8
Hawa6
 62
     3
100
AcDbCircle
 10
50.288452
 20
193.066574
 30
0.0
 40
0.4
100
AcDbArc
 50
180.000019
 51
270.000001
  0
ARC
  5
1C0
330
A
100
AcDbEntity
  8
Hawa6
 62
     3
100
AcDbCircle
 10
104.288452
 20
201.416962
 30
0.0
 40
0.4
100
AcDbArc
 50
179.999978
 51
259.999893
  0
ARC
  5
1C1
330
A
100
AcDbEntity
  8
Hawa6
 62
     3
100
AcDbCircle
 10
104.288452
 20
202.266571
 30
0.0
 40
0.4
100
AcDbArc
 50
89.999975
 51
179.999978
  0
ARC
  5
1C2
330
A
100
AcDbEntity
  8
Hawa6
 62
     3
100
AcDbCircle
 10
104.538452
 20
197.666573
 30
0.0
 40
3.25
100
AcDbArc
 50
279.999999
 51
79.99995
  0
ARC
  5
1C3
330
A
100
AcDbEntity
  8
Hawa6
 62
     3
100
AcDbCircle
 10
138.288452
 20
193.066574
 30
0.0
 40
0.4
100
AcDbArc
 50
270.000001
 51
359.999983
  0
ARC
  5
1C4
330
A
100
AcDbEntity
  8
Hawa6
 62
     3
100
AcDbCircle
 10
138.288452
 20
201.416962
 30
0.0
 40
0.4
100
AcDbArc
 50
280.000081
 51
359.999983
  0
ARC
  5
1C5
330
A
100
AcDbEntity
  8
Hawa6
 62
     3
100
AcDbCircle
 10
138.288452
 20
193.916183
 30
0.0
 40
0.4
100
AcDbArc
 50
359.999983
 51
79.99989499999999
  0
ARC
  5
1C6
330
A
100
AcDbEntity
  8
Hawa6
 62
     3
100
AcDbCircle
 10
138.288452
 20
172.216965
 30
0.0
 40
0.4
100
AcDbArc
 50
280.000081
 51
359.999983
  0
ARC
  5
1C7
330
A
100
AcDbEntity
  8
Hawa6
 62
     3
100
AcDbCircle
 10
138.288452
 20
163.866577
 30
0.0
 40
0.4
100
AcDbArc
 50
273.967439
 51
359.999983
  0
ARC
  5
1C8
330
A
100
AcDbEntity
  8
Hawa6
 62
     3
100
AcDbCircle
 10
138.288452
 20
164.716187
 30
0.0
 40
0.4
100
AcDbArc
 50
359.999983
 51
79.99989499999999
  0
ARC
  5
1C9
330
A
100
AcDbEntity
  8
Hawa6
 62
     3
100
AcDbCircle
 10
138.288452
 20
202.266571
 30
0.0
 40
0.4
100
AcDbArc
 50
0.000009
 51
86.03255
  0
ARC
  5
1CA
330
A
100
AcDbEntity
  8
Hawa6
 62
     3
100
AcDbCircle
 10
138.288452
 20
173.066578
 30
0.0
 40
0.4
100
AcDbArc
 50
359.999983
 51
89.999975
  0
ARC
  5
1CB
330
A
100
AcDbEntity
  8
Hawa6
 62
     3
100
AcDbCircle
 10
138.038452
 20
197.666573
 30
0.0
 40
3.25
100
AcDbArc
 50
100.000028
 51
260.000003
  0
ARC
  5
1CC
330
A
100
AcDbEntity
  8
Hawa6
 62
     3
100
AcDbCircle
 10
104.288452
 20
172.216965
 30
0.0
 40
0.4
100
AcDbArc
 50
180.000005
 51
259.999921
  0
ARC
  5
1CD
330
A
100
AcDbEntity
  8
Hawa6
 62
     3
100
AcDbCircle
 10
138.038452
 20
168.466576
 30
0.0
 40
3.25
100
AcDbArc
 50
99.999987
 51
259.999948
  0
ARC
  5
1CE
330
A
100
AcDbEntity
  8
Hawa6
 62
     3
100
AcDbCircle
 10
104.288452
 20
173.066574
 30
0.0
 40
0.4
100
AcDbArc
 50
90.00000300000001
 51
180.000005
  0
ARC
  5
1CF
330
A
100
AcDbEntity
  8
Hawa6
 62
     3
100
AcDbCircle
 10
104.288452
 20
193.916183
 30
0.0
 40
0.4
100
AcDbArc
 50
100.000068
 51
179.999978
  0
ARC
  5
1D0
330
A
100
AcDbEntity
  8
Hawa6
 62
     3
100
AcDbCircle
 10
104.288452
 20
193.066574
 30
0.0
 40
0.4
100
AcDbArc
 50
179.999978
 51
269.999973
  0
ARC
  5
1D1
330
A
100
AcDbEntity
  8
Hawa6
 62
     3
100
AcDbCircle
 10
104.288452
 20
164.716187
 30
0.0
 40
0.4
100
AcDbArc
 50
100.000096
 51
180.000005
  0
ARC
  5
1D2
330
A
100
AcDbEntity
  8
Hawa6
 62
     3
100
AcDbCircle
 10
104.538452
 20
168.466576
 30
0.0
 40
3.25
100
AcDbArc
 50
280.000026
 51
79.999977
  0
ARC
  5
1D3
330
A
100
AcDbEntity
  8
Hawa6
 62
     3
100
AcDbCircle
 10
104.288452
 20
163.866573
 30
0.0
 40
0.4
100
AcDbArc
 50
180.000005
 51
270.000001
  0
ARC
  5
1D4
330
A
100
AcDbEntity
  8
Hawa6
 62
     3
100
AcDbCircle
 10
94.28845200000001
 20
183.066574
 30
0.0
 40
11.850019
100
AcDbArc
 50
68.16649699999999
 51
111.833508
  0
ARC
  5
1D5
330
A
100
AcDbEntity
  8
Hawa6
 62
     3
100
AcDbCircle
 10
94.28845200000001
 20
183.066574
 30
0.0
 40
11.850019
100
AcDbArc
 50
248.166481
 51
291.833491
  0
ARC
  5
1D6
330
A
100
AcDbEntity
  8
Hawa6
  6
DASHED
 62
     3
100
AcDbCircle
 10
94.28845200000001
 20
183.066574
 30
0.0
 40
11.850019
100
AcDbArc
 50
111.833508
 51
130.05359
  0
ARC
  5
1D7
330
A
100
AcDbEntity
  8
Hawa6
  6
DASHED
 62
     3
100
AcDbCircle
 10
94.28845200000001
 20
183.066574
 30
0.0
 40
11.850019
100
AcDbArc
 50
291.833491
 51
310.053677
  0
ARC
  5
1D8
330
A
100
AcDbEntity
  8
Hawa6
  6
DASHED
 62
     3
100
AcDbCircle
 10
94.28845200000001
 20
183.066574
 30
0.0
 40
11.850019
100
AcDbArc
 50
49.94639
 51
68.16649699999999
  0
ARC
  5
1D9
330
A
100
AcDbEntity
  8
Hawa6
 62
     3
100
AcDbCircle
 10
94.28845200000001
 20
183.066574
 30
0.0
 40
11.850019
100
AcDbArc
 50
24.957142
 51
49.94639
  0
ARC
  5
1DA
330
A
100
AcDbEntity
  8
Hawa6
  6
DASHED
 62
     3
100
AcDbCircle
 10
94.28845200000001
 20
183.066574
 30
0.0
 40
11.850019
100
AcDbArc
 50
335.042854
 51
24.957142
  0
ARC
  5
1DB
330
A
100
AcDbEntity
  8
Hawa6
 62
     3
100
AcDbCircle
 10
94.28845200000001
 20
183.066574
 30
0.0
 40
11.850019
100
AcDbArc
 50
310.053677
 51
335.042854
  0
ARC
  5
1DC
330
A
100
AcDbEntity
  8
Hawa6
  6
DASHED
 62
     3
100
AcDbCircle
 10
94.28845200000001
 20
183.066574
 30
0.0
 40
11.850019
100
AcDbArc
 50
229.946461
 51
248.166481
  0
ARC
  5
1DD
330
A
100
AcDbEntity
  8
Hawa6
 62
     3
100
AcDbCircle
 10
94.28845200000001
 20
183.066574
 30
0.0
 40
11.850019
100
AcDbArc
 50
204.957134
 51
229.946461
  0
ARC
  5
1DE
330
A
100
AcDbEntity
  8
Hawa6
  6
DASHED
 62
     3
100
AcDbCircle
 10
94.28845200000001
 20
183.066574
 30
0.0
 40
11.850019
100
AcDbArc
 50
155.042863
 51
204.957148
  0
ARC
  5
1DF
330
A
100
AcDbEntity
  8
Hawa6
 62
     3
100
AcDbCircle
 10
94.28845200000001
 20
183.066574
 30
0.0
 40
11.850019
100
AcDbArc
 50
130.05359
 51
155.042863
  0
CIRCLE
  5
1E0
330
A
100
AcDbEntity
  8
Hawa6
 62
     3
100
AcDbCircle
 10
35.188454
 20
183.066574
 30
0.0
 40
6.5
  0
ARC
  5
1E1
330
A
100
AcDbEntity
  8
Hawa6
  6
DASHED
 62
     3
100
AcDbCircle
 10
13.188454
 20
189.066574
 30
0.0
 40
4.0
100
AcDbArc
 50
270.000028
 51
180.000005
  0
ARC
  5
1E2
330
A
100
AcDbEntity
  8
Hawa6
  6
DASHED
 62
     3
100
AcDbCircle
 10
-5.811545999999999
 20
177.066574
 30
0.0
 40
4.0
100
AcDbArc
 50
270.000028
 51
180.000005
  0
CIRCLE
  5
1E3
330
A
100
AcDbEntity
  8
Hawa6
 62
     3
100
AcDbCircle
 10
13.188454
 20
189.066574
 30
0.0
 40
3.0
  0
CIRCLE
  5
1E4
330
A
100
AcDbEntity
  8
Hawa6
 62
     3
100
AcDbCircle
 10
-5.811545999999999
 20
177.066574
 30
0.0
 40
3.0
  0
CIRCLE
  5
1E6
330
A
100
AcDbEntity
  8
Hawa6
 62
     3
100
AcDbCircle
 10
35.188454
 20
183.066574
 30
0.0
 40
6.0
  0
ARC
  5
1E7
330
A
100
AcDbEntity
  8
Hawa6
  6
DASHED
 62
     3
100
AcDbCircle
 10
163.588448
 20
185.366574
 30
0.0
 40
0.3
100
AcDbArc
 50
179.999991
 51
270.000001
  0
ARC
  5
1E8
330
A
100
AcDbEntity
  8
Hawa6
  6
DASHED
 62
     3
100
AcDbCircle
 10
164.488457
 20
185.366574
 30
0.0
 40
0.3
100
AcDbArc
 50
270.000001
 51
0.000007
  0
ARC
  5
1E9
330
A
100
AcDbEntity
  8
Hawa6
 62
     3
100
AcDbCircle
 10
147.344276
 20
178.736434
 30
0.0
 40
2.555836
100
AcDbArc
 50
145.61596
 51
214.384053
  0
ARC
  5
1EA
330
A
100
AcDbEntity
  8
Hawa6
 62
     3
100
AcDbCircle
 10
147.34428
 20
187.396689
 30
0.0
 40
2.555836
100
AcDbArc
 50
145.615876
 51
214.383942
  0
ARC
  5
1EB
330
A
100
AcDbEntity
  8
Hawa6
  6
DASHED
 62
     3
100
AcDbCircle
 10
164.488457
 20
180.766574
 30
0.0
 40
0.3
100
AcDbArc
 50
0.000009
 51
90.00000300000001
  0
ARC
  5
1EC
330
A
100
AcDbEntity
  8
Hawa6
  6
DASHED
 62
     3
100
AcDbCircle
 10
163.588448
 20
180.766574
 30
0.0
 40
0.3
100
AcDbArc
 50
90.00000300000001
 51
180.000005
  0
ARC
  5
1ED
330
A
100
AcDbEntity
  8
Hawa6
 62
     3
100
AcDbCircle
 10
160.732613
 20
187.396689
 30
0.0
 40
2.555830999999999
100
AcDbArc
 50
325.6159890000001
 51
34.384205
  0
ARC
  5
1EE
330
A
100
AcDbEntity
  8
Hawa6
 62
     3
100
AcDbCircle
 10
160.732605
 20
178.736434
 30
0.0
 40
2.555836
100
AcDbArc
 50
325.615965
 51
34.38404
  0
ARC
  5
1EF
330
A
100
AcDbEntity
  8
Hawa6
 62
     3
100
AcDbCircle
 10
153.73497
 20
183.066561
 30
0.0
 40
9.553482
100
AcDbArc
 50
342.412163
 51
17.58784
  0
ARC
  5
1F0
330
A
100
AcDbEntity
  8
Hawa6
 62
     3
100
AcDbCircle
 10
143.788452
 20
183.066574
 30
0.0
 40
4.5
100
AcDbArc
 50
90.00000300000001
 51
270.000001
  0
ARC
  5
1F1
330
A
100
AcDbEntity
  8
Hawa6
 62
     3
100
AcDbCircle
 10
154.34211
 20
183.06657
 30
0.0
 40
9.553658
100
AcDbArc
 50
162.4125
 51
197.587523
  0
LWPOLYLINE
  5
1F2
330
A
100
AcDbEntity
  8
Hawa6
 62
     3
100
AcDbPolyline
 90
       52
 70
     0
 43
0.0
 10
132.242905
 20
178.066574
 10
132.108059
 20
178.363677
 10
131.978893
 20
178.667656
 10
131.855518
 20
178.978491
 10
131.738064
 20
179.296141
 10
131.644608
 20
179.566574
 10
131.590546
 20
179.731268
 10
131.538483
 20
179.896604
 10
131.490402
 20
180.056129
 10
131.444332
 20
180.21623
 10
131.401855
 20
180.371256
 10
131.361397
 20
180.526805
 10
131.324223
 20
180.677867
 10
131.28907
 20
180.829405
 10
131.256947
 20
180.97694
 10
131.226849
 20
181.12491
 10
131.202202
 20
181.254845
 10
131.177021
 20
181.397904
 10
131.153835
 20
181.541325
 10
131.132778
 20
181.6842409999999
 10
131.113728
 20
181.827451
 10
131.096802
 20
181.970034
 10
131.08189
 20
182.112848
 10
131.069088
 20
182.254919
 10
131.058311
 20
182.397159
 10
131.049625
 20
182.538552
 10
131.042969
 20
182.680053
 10
131.03838
 20
182.820611
 10
131.035824
 20
182.961218
 10
131.035248
 20
183.066574
 10
131.039257
 20
183.344898
 10
131.051331
 20
183.625099
 10
131.07151
 20
183.9068969999999
 10
131.099834
 20
184.189989
 10
131.136333
 20
184.474046
 10
131.181011
 20
184.758721
 10
131.202202
 20
184.878304
 10
131.25843
 20
185.163247
 10
131.32391
 20
185.453966
 10
131.398972
 20
185.751071
 10
131.484016
 20
186.055282
 10
131.579521
 20
186.367454
 10
131.644608
 20
186.566574
 10
131.700592
 20
186.73061
 10
131.758503
 20
186.893961
 10
131.817577
 20
187.05453
 10
131.878555
 20
187.214364
 10
131.940651
 20
187.371433
 10
132.004631
 20
187.527719
 10
132.069683
 20
187.681265
 10
132.1366
 20
187.833985
 10
132.242905
 20
188.066574
  0
LWPOLYLINE
  5
228
330
A
100
AcDbEntity
  8
Hawa6
 62
     3
100
AcDbPolyline
 90
       52
 70
     0
 43
0.0
 10
56.33399999999999
 20
178.066574
 10
56.46884499999999
 20
178.363677
 10
56.598011
 20
178.667656
 10
56.721386
 20
178.978491
 10
56.83884
 20
179.296141
 10
56.93229699999999
 20
179.566574
 10
56.986359
 20
179.731268
 10
57.038422
 20
179.896604
 10
57.08650200000001
 20
180.056129
 10
57.132572
 20
180.21623
 10
57.175049
 20
180.371256
 10
57.21550799999999
 20
180.526805
 10
57.25268199999999
 20
180.677867
 10
57.287834
 20
180.829405
 10
57.31995799999999
 20
180.97694
 10
57.350056
 20
181.12491
 10
57.374702
 20
181.254845
 10
57.399883
 20
181.397904
 10
57.42306899999999
 20
181.541325
 10
57.444126
 20
181.6842409999999
 10
57.463177
 20
181.827451
 10
57.480103
 20
181.970034
 10
57.495014
 20
182.112848
 10
57.507816
 20
182.254919
 10
57.518593
 20
182.397159
 10
57.527279
 20
182.538552
 10
57.53393599999999
 20
182.680053
 10
57.538525
 20
182.820611
 10
57.54108000000001
 20
182.961218
 10
57.541656
 20
183.066574
 10
57.537647
 20
183.344898
 10
57.525574
 20
183.625099
 10
57.505394
 20
183.9068969999999
 10
57.47707
 20
184.189989
 10
57.440571
 20
184.474046
 10
57.39589300000001
 20
184.758721
 10
57.374702
 20
184.878304
 10
57.318474
 20
185.163247
 10
57.252995
 20
185.453966
 10
57.177933
 20
185.751071
 10
57.092888
 20
186.055282
 10
56.99738299999999
 20
186.367454
 10
56.93229699999999
 20
186.566574
 10
56.876312
 20
186.73061
 10
56.818401
 20
186.893961
 10
56.759327
 20
187.05453
 10
56.698349
 20
187.214364
 10
56.636253
 20
187.371433
 10
56.57227299999999
 20
187.527719
 10
56.50722099999999
 20
187.681265
 10
56.44030400000001
 20
187.833985
 10
56.33399999999999
 20
188.066574
  0
LWPOLYLINE
  5
25E
330
A
100
AcDbEntity
  8
Hawa6
 62
     3
100
AcDbPolyline
 90
       52
 70
     0
 43
0.0
 10
246.242905
 20
178.066574
 10
246.108063
 20
178.363677
 10
245.978897
 20
178.667656
 10
245.855515
 20
178.978491
 10
245.738068
 20
179.296141
 10
245.644608
 20
179.566574
 10
245.590546
 20
179.73127
 10
245.538483
 20
179.896607
 10
245.490402
 20
180.056132
 10
245.444336
 20
180.216233
 10
245.401855
 20
180.371259
 10
245.361389
 20
180.526808
 10
245.324219
 20
180.67787
 10
245.289063
 20
180.829408
 10
245.256943
 20
180.976943
 10
245.226852
 20
181.124913
 10
245.202194
 20
181.254845
 10
245.177017
 20
181.39791
 10
245.153824
 20
181.541336
 10
245.132767
 20
181.684252
 10
245.113724
 20
181.827463
 10
245.096802
 20
181.970046
 10
245.081894
 20
182.112859
 10
245.069092
 20
182.254931
 10
245.058304
 20
182.397171
 10
245.049622
 20
182.538564
 10
245.042969
 20
182.680064
 10
245.038376
 20
182.820622
 10
245.035828
 20
182.96123
 10
245.035248
 20
183.066574
 10
245.039261
 20
183.344899
 10
245.051331
 20
183.6251
 10
245.071503
 20
183.906898
 10
245.099838
 20
184.18999
 10
245.136337
 20
184.4740469999999
 10
245.181015
 20
184.758722
 10
245.202194
 20
184.878304
 10
245.258423
 20
185.163236
 10
245.323898
 20
185.453954
 10
245.398972
 20
185.751059
 10
245.484009
 20
186.05527
 10
245.579514
 20
186.367442
 10
245.644608
 20
186.566574
 10
245.700592
 20
186.730621
 10
245.758514
 20
186.893982
 10
245.817581
 20
187.054551
 10
245.878571
 20
187.214385
 10
245.940659
 20
187.371453
 10
246.004639
 20
187.527739
 10
246.069687
 20
187.681285
 10
246.136612
 20
187.834005
 10
246.242905
 20
188.066574
  0
LWPOLYLINE
  5
294
330
A
100
AcDbEntity
  8
Hawa6
 62
     3
100
AcDbPolyline
 90
       52
 70
     0
 43
0.0
 10
170.334
 20
178.066574
 10
170.468849
 20
178.363679
 10
170.598015
 20
178.667658
 10
170.721382
 20
178.978493
 10
170.838837
 20
179.296144
 10
170.932297
 20
179.566574
 10
170.986359
 20
179.731268
 10
171.038422
 20
179.896604
 10
171.086502
 20
180.056129
 10
171.132568
 20
180.216229
 10
171.175049
 20
180.371256
 10
171.215508
 20
180.526805
 10
171.252678
 20
180.677867
 10
171.287834
 20
180.829405
 10
171.319954
 20
180.9769389999999
 10
171.350052
 20
181.12491
 10
171.374702
 20
181.254845
 10
171.399879
 20
181.397901
 10
171.423065
 20
181.541318
 10
171.444122
 20
181.684233
 10
171.463173
 20
181.827444
 10
171.480103
 20
181.970027
 10
171.49501
 20
182.112841
 10
171.507813
 20
182.254912
 10
171.518593
 20
182.397152
 10
171.527275
 20
182.538545
 10
171.533936
 20
182.680046
 10
171.538521
 20
182.820604
 10
171.541077
 20
182.961211
 10
171.541656
 20
183.066574
 10
171.537643
 20
183.344895
 10
171.525574
 20
183.625096
 10
171.505394
 20
183.906895
 10
171.477066
 20
184.189986
 10
171.440567
 20
184.474043
 10
171.3958889999999
 20
184.758718
 10
171.374702
 20
184.878304
 10
171.318474
 20
185.163249
 10
171.2529909999999
 20
185.453967
 10
171.177933
 20
185.751072
 10
171.092888
 20
186.055283
 10
170.997383
 20
186.367455
 10
170.932297
 20
186.566574
 10
170.876312
 20
186.730613
 10
170.818398
 20
186.893966
 10
170.759323
 20
187.054535
 10
170.698341
 20
187.214368
 10
170.636246
 20
187.371438
 10
170.572266
 20
187.527724
 10
170.507217
 20
187.68127
 10
170.4403
 20
187.83399
 10
170.334
 20
188.066574
  0
LWPOLYLINE
  5
2CA
330
A
100
AcDbEntity
  8
Hawa6
  6
DASHED
 62
     3
100
AcDbPolyline
 90
       18
 70
     0
 43
0.0
 10
46.188454
 20
188.265943
 10
46.104317
 20
188.299562
 10
46.01964999999999
 20
188.331235
 10
45.934689
 20
188.360884
 10
45.849266
 20
188.388572
 10
45.76359199999999
 20
188.414238
 10
45.67752099999999
 20
188.437933
 10
45.591244
 20
188.459611
 10
45.504635
 20
188.479307
 10
45.417866
 20
188.4969889999999
 10
45.330826
 20
188.512682
 10
45.24365999999999
 20
188.526366
 10
45.156296
 20
188.538054
 10
45.06884399999999
 20
188.547737
 10
44.98125499999999
 20
188.555421
 10
44.89361599999999
 20
188.561101
 10
44.80590099999999
 20
188.564781
 10
44.688454
 20
188.566574
  0
LWPOLYLINE
  5
2DE
330
A
100
AcDbEntity
  8
Hawa6
 62
     3
100
AcDbPolyline
 90
       87
 70
     0
 43
0.0
 10
46.188454
 20
177.867206
 10
46.361919
 20
177.943444
 10
46.533134
 20
178.028187
 10
46.701836
 20
178.121386
 10
46.867752
 20
178.222979
 10
47.030613
 20
178.332894
 10
47.190132
 20
178.451046
 10
47.34602699999999
 20
178.577333
 10
47.498005
 20
178.711637
 10
47.645771
 20
178.853825
 10
47.789028
 20
179.003742
 10
47.92747499999999
 20
179.161213
 10
48.060818
 20
179.326044
 10
48.188751
 20
179.498017
 10
48.310986
 20
179.676893
 10
48.427223
 20
179.862408
 10
48.537186
 20
180.054276
 10
48.640591
 20
180.252186
 10
48.737167
 20
180.455806
 10
48.82666799999999
 20
180.664779
 10
48.908844
 20
180.878726
 10
48.983467
 20
181.097249
 10
49.050331
 20
181.319927
 10
49.10923799999999
 20
181.546321
 10
49.160015
 20
181.775975
 10
49.202515
 20
182.008419
 10
49.23661
 20
182.243166
 10
49.262192
 20
182.47972
 10
49.279182
 20
182.717576
 10
49.287525
 20
182.956223
 10
49.287197
 20
183.195142
 10
49.278187
 20
183.4338159999999
 10
49.27043499999999
 20
183.552886
 10
49.260525
 20
183.671727
 10
49.248463
 20
183.790215
 10
49.234257
 20
183.908362
 10
49.21792199999999
 20
184.026011
 10
49.199459
 20
184.14321
 10
49.178898
 20
184.259771
 10
49.156231
 20
184.375773
 10
49.131504
 20
184.490999
 10
49.104702
 20
184.60556
 10
49.075878
 20
184.719212
 10
49.04500999999999
 20
184.8320939999999
 10
49.012177
 20
184.943939
 10
48.97733699999999
 20
185.054913
 10
48.94058199999999
 20
185.164727
 10
48.90186299999999
 20
185.273571
 10
48.861294
 20
185.38114
 10
48.818806
 20
185.487643
 10
48.774532
 20
185.592759
 10
48.728386
 20
185.696719
 10
48.680531
 20
185.799189
 10
48.630856
 20
185.900414
 10
48.57954
 20
186.000054
 10
48.52646299999999
 20
186.098365
 10
48.471825
 20
186.195002
 10
48.415485
 20
186.290231
 10
48.35766599999999
 20
186.383704
 10
48.298203
 20
186.475694
 10
48.237339
 20
186.565855
 10
48.1749
 20
186.654462
 10
48.111145
 20
186.741173
 10
48.045879
 20
186.826265
 10
47.97938199999999
 20
186.909401
 10
47.911438
 20
186.990857
 10
47.842346
 20
187.070306
 10
47.771885
 20
187.148016
 10
47.700352
 20
187.223676
 10
47.627518
 20
187.297544
 10
47.553699
 20
187.369323
 10
47.47865299999999
 20
187.439261
 10
47.402695
 20
187.507081
 10
47.325584
 20
187.573014
 10
47.247646
 20
187.636803
 10
47.168625
 20
187.698665
 10
47.08884799999999
 20
187.758362
 10
47.008068
 20
187.816096
 10
46.926605
 20
187.87165
 10
46.844208
 20
187.925208
 10
46.7612
 20
187.976575
 10
46.677334
 20
188.025915
 10
46.59292199999999
 20
188.073059
 10
46.50773199999999
 20
188.118148
 10
46.42205399999999
 20
188.161038
 10
46.33567
 20
188.201851
 10
46.188454
 20
188.265943
  0
LWPOLYLINE
  5
337
330
A
100
AcDbEntity
  8
Hawa6
  6
DASHED
 62
     3
100
AcDbPolyline
 90
       10
 70
     0
 43
0.0
 10
44.688454
 20
177.566574
 10
44.86387299999999
 20
177.570575
 10
45.03906299999999
 20
177.582573
 10
45.213821
 20
177.6025629999999
 10
45.387951
 20
177.630536
 10
45.561245
 20
177.666482
 10
45.73349799999999
 20
177.710388
 10
45.904499
 20
177.762238
 10
46.074032
 20
177.822011
 10
46.188454
 20
177.867206
  0
LINE
  5
343
330
A
100
AcDbEntity
  8
Hawa5
 62
     1
100
AcDbLine
 10
228.91124
 20
233.066574
 30
0.0
 11
188.911247
 21
233.066574
 31
0.0
  0
LINE
  5
344
330
A
100
AcDbEntity
  8
Hawa5
 62
     1
100
AcDbLine
 10
188.911247
 20
233.066574
 30
0.0
 11
188.911247
 21
208.066574
 31
0.0
  0
LINE
  5
345
330
A
100
AcDbEntity
  8
Hawa5
 62
     1
100
AcDbLine
 10
228.911255
 20
233.066574
 30
0.0
 11
228.911255
 21
208.066574
 31
0.0
  0
LINE
  5
346
330
A
100
AcDbEntity
  8
Hawa5
 62
     1
100
AcDbLine
 10
114.288452
 20
234.066574
 30
0.0
 11
114.288452
 21
208.066574
 31
0.0
  0
LINE
  5
347
330
A
100
AcDbEntity
  8
Hawa5
 62
     1
100
AcDbLine
 10
74.28845200000001
 20
233.066574
 30
0.0
 11
74.28845200000001
 21
208.066574
 31
0.0
  0
LINE
  5
348
330
A
100
AcDbEntity
  8
Hawa5
 62
     1
100
AcDbLine
 10
55.188454
 20
233.066574
 30
0.0
 11
55.188454
 21
208.066574
 31
0.0
  0
LINE
  5
349
330
A
100
AcDbEntity
  8
Hawa5
 62
     1
100
AcDbLine
 10
15.188454
 20
233.066574
 30
0.0
 11
15.188454
 21
208.066574
 31
0.0
  0
LINE
  5
34A
330
A
100
AcDbEntity
  8
Hawa5
 62
     1
100
AcDbLine
 10
131.59985
 20
100.783669
 30
0.0
 11
131.59985
 21
158.066574
 31
0.0
  0
LINE
  5
34B
330
A
100
AcDbEntity
  8
Hawa5
 62
     1
100
AcDbLine
 10
171.599854
 20
100.783669
 30
0.0
 11
171.599854
 21
158.066574
 31
0.0
  0
LINE
  5
34C
330
A
100
AcDbEntity
  8
Hawa6
 62
     3
100
AcDbLine
 10
114.288452
 20
234.066574
 30
0.0
 11
84.94415100000001
 21
234.066574
 31
0.0
  0
LINE
  5
34D
330
A
100
AcDbEntity
  8
Hawa5
 62
     1
100
AcDbLine
 10
55.188454
 20
233.066574
 30
0.0
 11
15.188454
 21
233.066574
 31
0.0
  0
LINE
  5
34E
330
A
100
AcDbEntity
  8
Hawa6
 62
     3
100
AcDbLine
 10
160.944153
 20
234.066574
 30
0.0
 11
131.59985
 21
234.066574
 31
0.0
  0
LINE
  5
34F
330
A
100
AcDbEntity
  8
Hawa6
 62
     3
100
AcDbLine
 10
218.449852
 20
-42.49456799999999
 30
0.0
 11
188.911247
 21
-42.49456799999999
 31
0.0
  0
LINE
  5
350
330
A
100
AcDbEntity
  8
Hawa6
 62
     3
100
AcDbLine
 10
102.738453
 20
-42.49456799999999
 30
0.0
 11
74.185675
 21
-42.49456799999999
 31
0.0
  0
LINE
  5
351
330
A
100
AcDbEntity
  8
Hawa6
 62
     3
100
AcDbLine
 10
55.291233
 20
-42.49456799999999
 30
0.0
 11
26.738457
 21
-42.49456799999999
 31
0.0
  0
LINE
  5
352
330
A
100
AcDbEntity
  8
Hawa6
 62
     3
100
AcDbLine
 10
171.599854
 20
-42.49456799999999
 30
0.0
 11
142.449848
 21
-42.49456799999999
 31
0.0
  0
LINE
  5
353
330
A
100
AcDbEntity
  8
Hawa5
 62
     1
100
AcDbLine
 10
15.188454
 20
-41.494568
 30
0.0
 11
15.188454
 21
90.78833799999999
 31
0.0
  0
LINE
  5
354
330
A
100
AcDbEntity
  8
Hawa5
 62
     1
100
AcDbLine
 10
55.188454
 20
-42.49456799999999
 30
0.0
 11
55.188454
 21
90.78833799999999
 31
0.0
  0
LINE
  5
355
330
A
100
AcDbEntity
  8
Hawa5
 62
     1
100
AcDbLine
 10
74.28845200000001
 20
-42.49456799999999
 30
0.0
 11
74.28845200000001
 21
90.78833799999999
 31
0.0
  0
LINE
  5
356
330
A
100
AcDbEntity
  8
Hawa5
 62
     1
100
AcDbLine
 10
114.288452
 20
-41.494568
 30
0.0
 11
114.288452
 21
90.78833799999999
 31
0.0
  0
LINE
  5
357
330
A
100
AcDbEntity
  8
Hawa5
 62
     1
100
AcDbLine
 10
131.59985
 20
90.78833799999999
 30
0.0
 11
131.59985
 21
-41.494568
 31
0.0
  0
LINE
  5
358
330
A
100
AcDbEntity
  8
Hawa5
 62
     1
100
AcDbLine
 10
171.599854
 20
90.78833799999999
 30
0.0
 11
171.599854
 21
-42.49456799999999
 31
0.0
  0
LINE
  5
359
330
A
100
AcDbEntity
  8
Hawa5
 62
     1
100
AcDbLine
 10
188.911247
 20
-42.49456799999999
 30
0.0
 11
188.911247
 21
90.78833799999999
 31
0.0
  0
LINE
  5
35A
330
A
100
AcDbEntity
  8
Hawa5
 62
     1
100
AcDbLine
 10
228.911255
 20
-41.494568
 30
0.0
 11
228.911255
 21
90.78833799999999
 31
0.0
  0
LINE
  5
35B
330
A
100
AcDbEntity
  8
Hawa6
  6
DASHSPACE
 62
     3
 48
0.0575
100
AcDbLine
 10
26.738457
 20
-39.19456500000001
 30
0.0
 11
26.738457
 21
-41.494568
 31
0.0
  0
LINE
  5
35C
330
A
100
AcDbEntity
  8
Hawa6
  6
DASHSPACE
 62
     3
100
AcDbLine
 10
26.738457
 20
-39.19456500000001
 30
0.0
 11
55.238453
 21
-39.19456500000001
 31
0.0
  0
LINE
  5
35D
330
A
100
AcDbEntity
  8
Hawa6
 62
     3
 48
0.059736
100
AcDbLine
 10
57.627899
 20
-39.19456500000001
 30
0.0
 11
55.238453
 21
-39.19456500000001
 31
0.0
  0
ARC
  5
35E
330
A
100
AcDbEntity
  8
Hawa6
 62
     3
100
AcDbCircle
 10
57.627899
 20
-37.19456500000001
 30
0.0
 40
2.0
100
AcDbArc
 50
270.000001
 51
307.04061
  0
LINE
  5
35F
330
A
100
AcDbEntity
  8
Hawa6
 62
     3
 48
0.00132
100
AcDbLine
 10
55.291233
 20
-42.49456799999999
 30
0.0
 11
55.238453
 21
-42.49456799999999
 31
0.0
  0
ARC
  5
360
330
A
100
AcDbEntity
  8
Hawa6
 62
     3
100
AcDbCircle
 10
55.291233
 20
-44.494568
 30
0.0
 40
2.0
100
AcDbArc
 50
17.46157
 51
90.00000300000001
  0
LINE
  5
361
330
A
100
AcDbEntity
  8
Hawa6
  6
DASHSPACE
 62
     3
 48
0.0575
100
AcDbLine
 10
102.738453
 20
-39.19456500000001
 30
0.0
 11
102.738453
 21
-41.494568
 31
0.0
  0
LINE
  5
362
330
A
100
AcDbEntity
  8
Hawa6
  6
DASHSPACE
 62
     3
100
AcDbLine
 10
74.28845200000001
 20
-39.19456500000001
 30
0.0
 11
102.738453
 21
-39.19456500000001
 31
0.0
  0
CIRCLE
  5
363
330
A
100
AcDbEntity
  8
Hawa6
 62
     3
100
AcDbCircle
 10
64.738453
 20
-43.494568
 30
0.0
 40
1.878718
  0
LINE
  5
364
330
A
100
AcDbEntity
  8
Hawa6
 62
     3
 48
0.060986
100
AcDbLine
 10
74.28845200000001
 20
-39.19456500000001
 30
0.0
 11
71.84900899999999
 21
-39.19456500000001
 31
0.0
  0
ARC
  5
365
330
A
100
AcDbEntity
  8
Hawa6
 62
     3
100
AcDbCircle
 10
74.185675
 20
-44.494568
 30
0.0
 40
2.0
100
AcDbArc
 50
90.00000300000001
 51
162.536291
  0
ARC
  5
366
330
A
100
AcDbEntity
  8
Hawa6
 62
     3
100
AcDbCircle
 10
71.84900899999999
 20
-37.19456500000001
 30
0.0
 40
2.0
100
AcDbArc
 50
232.9625339999999
 51
270.000001
  0
LINE
  5
368
330
A
100
AcDbEntity
  8
Hawa6
  6
DASHSPACE
 62
     3
 48
0.0575
100
AcDbLine
 10
142.449848
 20
-39.19456500000001
 30
0.0
 11
142.449848
 21
-41.494568
 31
0.0
  0
LINE
  5
369
330
A
100
AcDbEntity
  8
Hawa6
  6
DASHSPACE
 62
     3
100
AcDbLine
 10
142.449848
 20
-39.19456500000001
 30
0.0
 11
171.599854
 21
-39.19456500000001
 31
0.0
  0
LINE
  5
36A
330
A
100
AcDbEntity
  8
Hawa6
 62
     3
 48
0.043486
100
AcDbLine
 10
173.339294
 20
-39.19456500000001
 30
0.0
 11
171.599854
 21
-39.19456500000001
 31
0.0
  0
ARC
  5
36B
330
A
100
AcDbEntity
  8
Hawa6
 62
     3
100
AcDbCircle
 10
173.339294
 20
-37.19456500000001
 30
0.0
 40
2.0
100
AcDbArc
 50
270.000001
 51
307.04061
  0
LINE
  5
36C
330
A
100
AcDbEntity
  8
Hawa6
 62
     3
 48
0.001319
100
AcDbLine
 10
171.002625
 20
-42.49456799999999
 30
0.0
 11
170.949852
 21
-42.49456799999999
 31
0.0
  0
ARC
  5
36D
330
A
100
AcDbEntity
  8
Hawa6
 62
     3
100
AcDbCircle
 10
171.002625
 20
-44.494568
 30
0.0
 40
2.0
100
AcDbArc
 50
17.46157
 51
90.00000300000001
  0
LINE
  5
36E
330
A
100
AcDbEntity
  8
Hawa6
  6
DASHSPACE
 62
     3
 48
0.0575
100
AcDbLine
 10
218.449852
 20
-39.19456500000001
 30
0.0
 11
218.449852
 21
-41.494568
 31
0.0
  0
LINE
  5
36F
330
A
100
AcDbEntity
  8
Hawa6
  6
DASHSPACE
 62
     3
100
AcDbLine
 10
188.911247
 20
-39.19456500000001
 30
0.0
 11
218.449852
 21
-39.19456500000001
 31
0.0
  0
CIRCLE
  5
370
330
A
100
AcDbEntity
  8
Hawa6
 62
     3
100
AcDbCircle
 10
180.449852
 20
-43.494568
 30
0.0
 40
1.878718
  0
LINE
  5
371
330
A
100
AcDbEntity
  8
Hawa6
 62
     3
 48
0.033771
100
AcDbLine
 10
188.911247
 20
-39.19456500000001
 30
0.0
 11
187.560402
 21
-39.19456500000001
 31
0.0
  0
ARC
  5
372
330
A
100
AcDbEntity
  8
Hawa6
 62
     3
100
AcDbCircle
 10
189.897072
 20
-44.494568
 30
0.0
 40
2.0
100
AcDbArc
 50
90.00000300000001
 51
162.536291
  0
ARC
  5
373
330
A
100
AcDbEntity
  8
Hawa6
 62
     3
100
AcDbCircle
 10
187.560402
 20
-37.19456500000001
 30
0.0
 40
2.0
100
AcDbArc
 50
232.9625339999999
 51
270.000001
  0
LINE
  5
375
330
A
100
AcDbEntity
  8
Hawa6
  6
DASHSPACE
 62
     3
 48
0.0575
100
AcDbLine
 10
160.944153
 20
230.766575
 30
0.0
 11
160.944153
 21
233.066574
 31
0.0
  0
LINE
  5
376
330
A
100
AcDbEntity
  8
Hawa6
  6
DASHSPACE
 62
     3
100
AcDbLine
 10
160.944153
 20
230.766575
 30
0.0
 11
131.794151
 21
230.766575
 31
0.0
  0
LINE
  5
377
330
A
100
AcDbEntity
  8
Hawa6
 62
     3
 48
0.043486
100
AcDbLine
 10
130.054707
 20
230.766575
 30
0.0
 11
131.794151
 21
230.766575
 31
0.0
  0
ARC
  5
378
330
A
100
AcDbEntity
  8
Hawa6
 62
     3
100
AcDbCircle
 10
130.054707
 20
228.766575
 30
0.0
 40
2.0
100
AcDbArc
 50
90.00000300000001
 51
127.040619
  0
LINE
  5
379
330
A
100
AcDbEntity
  8
Hawa6
 62
     3
 48
0.00132
100
AcDbLine
 10
132.391373
 20
234.066574
 30
0.0
 11
132.444153
 21
234.066574
 31
0.0
  0
ARC
  5
37A
330
A
100
AcDbEntity
  8
Hawa6
 62
     3
100
AcDbCircle
 10
132.391373
 20
236.066574
 30
0.0
 40
2.0
100
AcDbArc
 50
197.461562
 51
270.000001
  0
LINE
  5
37B
330
A
100
AcDbEntity
  8
Hawa6
  6
DASHSPACE
 62
     3
 48
0.0575
100
AcDbLine
 10
84.94415100000001
 20
230.766575
 30
0.0
 11
84.94415100000001
 21
233.066574
 31
0.0
  0
LINE
  5
37C
330
A
100
AcDbEntity
  8
Hawa6
  6
DASHSPACE
 62
     3
100
AcDbLine
 10
114.288452
 20
230.766575
 30
0.0
 11
84.94415100000001
 21
230.766575
 31
0.0
  0
CIRCLE
  5
37D
330
A
100
AcDbEntity
  8
Hawa6
 62
     3
100
AcDbCircle
 10
122.944151
 20
235.066574
 30
0.0
 40
1.878718
  0
LINE
  5
37E
330
A
100
AcDbEntity
  8
Hawa6
 62
     3
 48
0.038629
100
AcDbLine
 10
114.288452
 20
230.766575
 30
0.0
 11
115.833595
 21
230.766575
 31
0.0
  0
ARC
  5
37F
330
A
100
AcDbEntity
  8
Hawa6
 62
     3
100
AcDbCircle
 10
113.496929
 20
236.066574
 30
0.0
 40
2.0
100
AcDbArc
 50
270.000001
 51
342.536308
  0
ARC
  5
380
330
A
100
AcDbEntity
  8
Hawa6
 62
     3
100
AcDbCircle
 10
115.833595
 20
228.766575
 30
0.0
 40
2.0
100
AcDbArc
 50
52.962534
 51
90.00000300000001
  0
LINE
  5
382
330
A
100
AcDbEntity
  8
Hawa5
 62
     1
100
AcDbLine
 10
15.188454
 20
158.066574
 30
0.0
 11
15.188454
 21
100.783669
 31
0.0
  0
LINE
  5
383
330
A
100
AcDbEntity
  8
Hawa5
 62
     1
100
AcDbLine
 10
55.188454
 20
158.066574
 30
0.0
 11
55.188454
 21
100.783669
 31
0.0
  0
LINE
  5
384
330
A
100
AcDbEntity
  8
Hawa5
  6
PHANTOM
 62
     1
100
AcDbLine
 10
1.816849
 20
100.783669
 30
0.0
 11
239.755737
 21
100.783669
 31
0.0
  0
LINE
  5
385
330
A
100
AcDbEntity
  8
Hawa5
  6
PHANTOM
 62
     1
100
AcDbLine
 10
1.816849
 20
90.78833799999999
 30
0.0
 11
239.755737
 21
90.78833799999999
 31
0.0
  0
LINE
  5
386
330
A
100
AcDbEntity
  8
Hawa5
 62
     1
100
AcDbLine
 10
74.28845200000001
 20
158.066574
 30
0.0
 11
74.28845200000001
 21
100.783669
 31
0.0
  0
LINE
  5
387
330
A
100
AcDbEntity
  8
Hawa5
 62
     1
100
AcDbLine
 10
131.59985
 20
208.066574
 30
0.0
 11
131.59985
 21
234.066574
 31
0.0
  0
LINE
  5
388
330
A
100
AcDbEntity
  8
Hawa5
 62
     1
100
AcDbLine
 10
114.288452
 20
158.066574
 30
0.0
 11
114.288452
 21
100.783669
 31
0.0
  0
LINE
  5
389
330
A
100
AcDbEntity
  8
Hawa5
 62
     1
100
AcDbLine
 10
171.599854
 20
208.066574
 30
0.0
 11
171.599854
 21
233.066574
 31
0.0
  0
LINE
  5
38A
330
A
100
AcDbEntity
  8
Hawa5
 62
     1
100
AcDbLine
 10
188.911247
 20
158.066574
 30
0.0
 11
188.911247
 21
100.783669
 31
0.0
  0
LINE
  5
38B
330
A
100
AcDbEntity
  8
Hawa5
 62
     1
100
AcDbLine
 10
228.911255
 20
158.066574
 30
0.0
 11
228.911255
 21
100.783669
 31
0.0
  0
LINE
  5
38C
330
A
100
AcDbEntity
  8
Hawa5
 62
     1
 48
0.28875
100
AcDbLine
 10
15.188454
 20
-41.494568
 30
0.0
 11
26.738457
 21
-41.494568
 31
0.0
  0
LINE
  5
38D
330
A
100
AcDbEntity
  8
Hawa5
 62
     1
 48
0.28875
100
AcDbLine
 10
114.288452
 20
-41.494568
 30
0.0
 11
102.738453
 21
-41.494568
 31
0.0
  0
LINE
  5
38E
330
A
100
AcDbEntity
  8
Hawa5
 62
     1
 48
0.27125
100
AcDbLine
 10
131.59985
 20
-41.494568
 30
0.0
 11
142.449848
 21
-41.494568
 31
0.0
  0
LINE
  5
38F
330
A
100
AcDbEntity
  8
Hawa5
 62
     1
 48
0.261535
100
AcDbLine
 10
228.911255
 20
-41.494568
 30
0.0
 11
218.449852
 21
-41.494568
 31
0.0
  0
LINE
  5
390
330
A
100
AcDbEntity
  8
Hawa5
 62
     1
 48
0.266392
100
AcDbLine
 10
74.28845200000001
 20
233.066574
 30
0.0
 11
84.94415100000001
 21
233.066574
 31
0.0
  0
LINE
  5
391
330
A
100
AcDbEntity
  8
Hawa5
 62
     1
 48
0.266393
100
AcDbLine
 10
171.599854
 20
233.066574
 30
0.0
 11
160.944153
 21
233.066574
 31
0.0
  0
LINE
  5
392
330
A
100
AcDbEntity
  8
Hawa6
 62
     3
 48
0.025
100
AcDbLine
 10
218.449852
 20
-41.494568
 30
0.0
 11
218.449852
 21
-42.49456799999999
 31
0.0
  0
LINE
  5
393
330
A
100
AcDbEntity
  8
Hawa6
 62
     3
 48
0.025
100
AcDbLine
 10
142.449848
 20
-41.494568
 30
0.0
 11
142.449848
 21
-42.49456799999999
 31
0.0
  0
LINE
  5
394
330
A
100
AcDbEntity
  8
Hawa6
 62
     3
 48
0.025
100
AcDbLine
 10
102.738453
 20
-41.494568
 30
0.0
 11
102.738453
 21
-42.49456799999999
 31
0.0
  0
LINE
  5
395
330
A
100
AcDbEntity
  8
Hawa6
 62
     3
 48
0.025
100
AcDbLine
 10
26.738457
 20
-41.494568
 30
0.0
 11
26.738457
 21
-42.49456799999999
 31
0.0
  0
LINE
  5
396
330
A
100
AcDbEntity
  8
Hawa6
 62
     3
 48
0.025
100
AcDbLine
 10
84.94415100000001
 20
234.066574
 30
0.0
 11
84.94415100000001
 21
233.066574
 31
0.0
  0
LINE
  5
397
330
A
100
AcDbEntity
  8
Hawa6
 62
     3
 48
0.025
100
AcDbLine
 10
160.944153
 20
234.066574
 30
0.0
 11
160.944153
 21
233.066574
 31
0.0
  0
LINE
  5
398
330
A
100
AcDbEntity
  8
Hawa5
 62
     1
 48
0.25
100
AcDbLine
 10
218.911247
 20
233.066574
 30
0.0
 11
218.911247
 21
223.066574
 31
0.0
  0
LINE
  5
399
330
A
100
AcDbEntity
  8
Hawa5
 62
     1
 48
0.25
100
AcDbLine
 10
198.911247
 20
233.066574
 30
0.0
 11
198.911247
 21
223.066574
 31
0.0
  0
LINE
  5
39A
330
A
100
AcDbEntity
  8
Hawa5
 62
     1
100
AcDbLine
 10
198.911247
 20
223.066574
 30
0.0
 11
218.911247
 21
223.066574
 31
0.0
  0
INSERT
  5
421
330
A
100
AcDbEntity
  8
HAWA1
100
AcDbBlockReference
  2
HAWA
 10
0.0
 20
0.0
 30
0.0
  0
CIRCLE
  5
48F
330
A
100
AcDbEntity
  8
Hawa6
100
AcDbCircle
 10
64.738453
 20
-43.494568
 30
0.0
 40
7.549973331317398
  0
CIRCLE
  5
490
330
A
100
AcDbEntity
  8
Hawa6
100
AcDbCircle
 10
180.449852
 20
-43.494568
 30
0.0
 40
7.549976460225344
  0
CIRCLE
  5
491
330
A
100
AcDbEntity
  8
Hawa6
100
AcDbCircle
 10
122.944151
 20
235.066574
 30
0.0
 40
7.55000008878035
  0
VIEWPORT
  5
39B
102
{ACAD_XDICTIONARY
360
498
102
}
330
B
100
AcDbEntity
 67
     1
  8
HAWA1
 62
     0
100
AcDbViewport
 10
0.0
 20
0.0
 30
0.0
 40
1000.0
 41
1000.0
 68
     1
 69
     1
 12
0.0
 22
0.0
 13
0.0
 23
0.0
 14
1.0
 24
1.0
 15
1.0
 25
1.0
 16
0.0
 26
0.0
 36
1.0
 17
0.0
 27
0.0
 37
0.0
 42
50.0
 43
0.0
 44
0.0
 45
1000.0
 50
0.0
 51
0.0
 72
   100
 90
   557216
  1

281
     0
 71
     1
 74
     0
110
0.0
120
0.0
130
0.0
111
1.0
121
0.0
131
0.0
112
0.0
122
1.0
132
0.0
 79
     0
146
0.0
  0
ENDSEC
  0
SECTION
  2
OBJECTS
  0
DICTIONARY
  5
19
330
0
100
AcDbDictionary
281
     1
  3
ACAD_COLOR
350
404
  3
ACAD_GROUP
350
1A
  3
ACAD_LAYOUT
350
3E0
  3
ACAD_MATERIAL
350
3EF
  3
ACAD_MLINESTYLE
350
1B
  3
ACAD_PLOTSETTINGS
350
407
  3
ACAD_PLOTSTYLENAME
350
3E8
  3
ACAD_TABLESTYLE
350
405
  3
ACAD_VISUALSTYLE
350
3F3
  3
AcDbVariableDictionary
350
492
  3
DWGPROPS
350
497
  0
DICTIONARY
  5
498
330
39B
100
AcDbDictionary
280
     1
281
     1
  3
ACAD_XREC_ROUNDTRIP
360
499
  0
DICTIONARY
  5
404
102
{ACAD_REACTORS
330
19
102
}
330
19
100
AcDbDictionary
281
     1
  0
DICTIONARY
  5
1A
102
{ACAD_REACTORS
330
19
102
}
330
19
100
AcDbDictionary
281
     1
  3
*A1
350
413
  3
*A10
350
41C
  3
*A11
350
41D
  3
*A2
350
414
  3
*A3
350
415
  3
*A4
350
416
  3
*A5
350
417
  3
*A6
350
418
  3
*A7
350
419
  3
*A8
350
41A
  3
*A9
350
41B
  0
DICTIONARY
  5
3E0
102
{ACAD_REACTORS
330
19
102
}
330
19
100
AcDbDictionary
281
     1
  3
Layout1
350
3E2
  3
Model
350
3E1
  0
DICTIONARY
  5
3EF
102
{ACAD_REACTORS
330
19
102
}
330
19
100
AcDbDictionary
281
     1
  3
ByBlock
350
3F1
  3
ByLayer
350
3F0
  3
Global
350
3F2
  0
DICTIONARY
  5
1B
102
{ACAD_REACTORS
330
19
102
}
330
19
100
AcDbDictionary
281
     1
  3
STANDARD
350
1C
  0
DICTIONARY
  5
407
102
{ACAD_REACTORS
330
19
102
}
330
19
100
AcDbDictionary
281
     1
  0
ACDBDICTIONARYWDFLT
  5
3E8
102
{ACAD_REACTORS
330
19
102
}
330
19
100
AcDbDictionary
281
     1
  3
Normal
350
3E9
100
AcDbDictionaryWithDefault
340
3E9
  0
DICTIONARY
  5
405
102
{ACAD_REACTORS
330
19
102
}
330
19
100
AcDbDictionary
281
     1
  3
Standard
350
406
  0
DICTIONARY
  5
3F3
102
{ACAD_REACTORS
330
19
102
}
330
19
100
AcDbDictionary
281
     1
  3
2dWireframe
350
3F9
  3
3D Hidden
350
3FB
  3
3dWireframe
350
3FA
  3
Basic
350
3F8
  3
Brighten
350
3FF
  3
ColorChange
350
403
  3
Conceptual
350
3FC
  3
Dim
350
3FE
  3
Facepattern
350
402
  3
Flat
350
3F4
  3
FlatWithEdges
350
3F5
  3
Gouraud
350
3F6
  3
GouraudWithEdges
350
3F7
  3
Linepattern
350
401
  3
Realistic
350
3FD
  3
Thicken
350
400
  0
DICTIONARY
  5
492
102
{ACAD_REACTORS
330
19
102
}
330
19
100
AcDbDictionary
281
     1
  3
CTABLESTYLE
350
493
  3
DIMASSOC
350
496
  3
INDEXCTL
350
495
  3
SORTENTS
350
494
  0
XRECORD
  5
497
102
{ACAD_REACTORS
330
19
102
}
330
19
100
AcDbXrecord
280
     1
  1
DWGPROPS COOKIE
  2

  3

  4

  6

  7

  8
stj
  9

300
=
301
=
302
=
303
=
304
=
305
=
306
=
307
=
308
=
309
=
 40
0.0016452314814815
 41
2447893.0
 42
2455266.585736898
  1

 90
        0
  0
XRECORD
  5
499
102
{ACAD_REACTORS
330
498
102
}
330
498
100
AcDbXrecord
280
     1
102
SHADEPLOT
 70
     0
  0
GROUP
  5
413
102
{ACAD_REACTORS
330
1A
102
}
330
1A
100
AcDbGroup
300

 70
     1
 71
     1
  0
GROUP
  5
41C
102
{ACAD_REACTORS
330
1A
102
}
330
1A
100
AcDbGroup
300

 70
     1
 71
     1
  0
GROUP
  5
41D
102
{ACAD_REACTORS
330
1A
102
}
330
1A
100
AcDbGroup
300

 70
     1
 71
     1
  0
GROUP
  5
414
102
{ACAD_REACTORS
330
1A
102
}
330
1A
100
AcDbGroup
300

 70
     1
 71
     1
  0
GROUP
  5
415
102
{ACAD_REACTORS
330
1A
102
}
330
1A
100
AcDbGroup
300

 70
     1
 71
     1
  0
GROUP
  5
416
102
{ACAD_REACTORS
330
1A
102
}
330
1A
100
AcDbGroup
300

 70
     1
 71
     1
  0
GROUP
  5
417
102
{ACAD_REACTORS
330
1A
102
}
330
1A
100
AcDbGroup
300

 70
     1
 71
     1
  0
GROUP
  5
418
102
{ACAD_REACTORS
330
1A
102
}
330
1A
100
AcDbGroup
300

 70
     1
 71
     1
  0
GROUP
  5
419
102
{ACAD_REACTORS
330
1A
102
}
330
1A
100
AcDbGroup
300

 70
     1
 71
     1
  0
GROUP
  5
41A
102
{ACAD_REACTORS
330
1A
102
}
330
1A
100
AcDbGroup
300

 70
     1
 71
     1
  0
GROUP
  5
41B
102
{ACAD_REACTORS
330
1A
102
}
330
1A
100
AcDbGroup
300

 70
     1
 71
     1
  0
LAYOUT
  5
3E2
102
{ACAD_XDICTIONARY
360
49C
102
}
102
{ACAD_REACTORS
330
3E0
102
}
330
3E0
100
AcDbPlotSettings
  1

  2
none_device
  4

  6

 40
0.0
 41
0.0
 42
0.0
 43
0.0
 44
0.0
 45
0.0
 46
0.0
 47
0.0
 48
0.0
 49
0.0
140
0.0
141
0.0
142
1.0
143
1.0
 70
   688
 72
     0
 73
     0
 74
     5
  7

 75
    16
147
1.0
148
0.0
149
0.0
100
AcDbLayout
  1
Layout1
 70
     1
 71
     1
 10
0.0
 20
0.0
 11
420.0
 21
297.0
 12
0.0
 22
0.0
 32
0.0
 14
0.0
 24
0.0
 34
0.0
 15
195.5
 25
253.664566
 35
2.0
146
0.0
 13
0.0
 23
0.0
 33
0.0
 16
1.0
 26
0.0
 36
0.0
 17
0.0
 27
1.0
 37
0.0
 76
     0
330
B
331
39B
  0
LAYOUT
  5
3E1
102
{ACAD_XDICTIONARY
360
49A
102
}
102
{ACAD_REACTORS
330
3E0
102
}
330
3E0
100
AcDbPlotSettings
  1

  2
none_device
  4

  6

 40
0.0
 41
0.0
 42
0.0
 43
0.0
 44
0.0
 45
0.0
 46
0.0
 47
0.0
 48
0.0
 49
0.0
140
0.0
141
0.0
142
1.0
143
1.0
 70
   688
 72
     0
 73
     0
 74
     5
  7

 75
    16
147
1.0
148
0.0
149
0.0
100
AcDbLayout
  1
Model
 70
     1
 71
     0
 10
0.0
 20
0.0
 11
0.0
 21
0.0
 12
0.0
 22
0.0
 32
0.0
 14
0.0
 24
0.0
 34
0.0
 15
0.0
 25
0.0
 35
0.0
146
0.0
 13
0.0
 23
0.0
 33
0.0
 16
1.0
 26
0.0
 36
0.0
 17
0.0
 27
1.0
 37
0.0
 76
     0
330
A
331
15
  0
MATERIAL
  5
3F1
102
{ACAD_XDICTIONARY
360
4A0
102
}
102
{ACAD_REACTORS
330
3EF
102
}
330
3EF
100
AcDbMaterial
  1
ByBlock
  0
MATERIAL
  5
3F0
102
{ACAD_XDICTIONARY
360
49E
102
}
102
{ACAD_REACTORS
330
3EF
102
}
330
3EF
100
AcDbMaterial
  1
ByLayer
  0
MATERIAL
  5
3F2
102
{ACAD_XDICTIONARY
360
4A2
102
}
102
{ACAD_REACTORS
330
3EF
102
}
330
3EF
100
AcDbMaterial
  1
Global
  0
MLINESTYLE
  5
1C
102
{ACAD_REACTORS
330
1B
102
}
330
1B
100
AcDbMlineStyle
  2
STANDARD
 70
     0
  3

 62
     0
 51
90.0
 52
90.0
 71
     2
 49
0.5
 62
   256
  6
BYLAYER
 49
-0.5
 62
   256
  6
BYLAYER
  0
ACDBPLACEHOLDER
  5
3E9
102
{ACAD_REACTORS
330
3E8
102
}
330
3E8
  0
TABLESTYLE
  5
406
102
{ACAD_XDICTIONARY
360
4A4
102
}
102
{ACAD_REACTORS
330
405
102
}
330
405
100
AcDbTableStyle
  3
Standard
 70
     0
 71
     0
 40
1.5
 41
1.5
280
     0
281
     0
  7
STANDARD
140
4.5
170
     2
 62
     0
 63
     7
283
     0
274
    -2
284
     1
 64
     0
275
    -2
285
     1
 65
     0
276
    -2
286
     1
 66
     0
277
    -2
287
     1
 67
     0
278
    -2
288
     1
 68
     0
279
    -2
289
     1
 69
     0
  7
STANDARD
140
6.0
170
     5
 62
     0
 63
     7
283
     0
274
    -2
284
     1
 64
     0
275
    -2
285
     1
 65
     0
276
    -2
286
     1
 66
     0
277
    -2
287
     1
 67
     0
278
    -2
288
     1
 68
     0
279
    -2
289
     1
 69
     0
  7
STANDARD
140
4.5
170
     5
 62
     0
 63
     7
283
     0
274
    -2
284
     1
 64
     0
275
    -2
285
     1
 65
     0
276
    -2
286
     1
 66
     0
277
    -2
287
     1
 67
     0
278
    -2
288
     1
 68
     0
279
    -2
289
     1
 69
     0
  0
VISUALSTYLE
  5
3F9
102
{ACAD_REACTORS
330
3F3
102
}
330
3F3
100
AcDbVisualStyle
  2
2dWireframe
 70
     4
 71
     0
 72
     2
 73
     0
 90
        0
 40
-0.6
 41
-30.0
 62
     5
 63
     7
 74
     1
 91
        4
 64
     7
 65
   257
 75
     1
175
     1
 42
1.0
 92
        0
 66
   257
 43
1.0
 76
     1
 77
     6
 78
     2
 67
     7
 79
     5
170
     0
171
     0
290
     0
174
     0
 93
        1
 44
0.0
173
     0
291
     0
 45
0.0
1001
ACAD
1000
AcDbSavedByObjectVersion
1070
     0
  0
VISUALSTYLE
  5
3FB
102
{ACAD_REACTORS
330
3F3
102
}
330
3F3
100
AcDbVisualStyle
  2
3D Hidden
 70
     6
 71
     1
 72
     2
 73
     2
 90
        0
 40
-0.6
 41
-30.0
 62
     5
 63
     7
 74
     2
 91
        2
 64
     7
 65
   257
 75
     2
175
     1
 42
40.0
 92
        0
 66
   257
 43
1.0
 76
     1
 77
     6
 78
     2
 67
     7
 79
     3
170
     0
171
     0
290
     0
174
     0
 93
        1
 44
0.0
173
     0
291
     0
 45
0.0
1001
ACAD
1000
AcDbSavedByObjectVersion
1070
     0
  0
VISUALSTYLE
  5
3FA
102
{ACAD_REACTORS
330
3F3
102
}
330
3F3
100
AcDbVisualStyle
  2
3dWireframe
 70
     5
 71
     0
 72
     2
 73
     0
 90
        0
 40
-0.6
 41
-30.0
 62
     5
 63
     7
 74
     1
 91
        4
 64
     7
 65
   257
 75
     1
175
     1
 42
1.0
 92
        0
 66
   257
 43
1.0
 76
     1
 77
     6
 78
     2
 67
     7
 79
     5
170
     0
171
     0
290
     0
174
     0
 93
        1
 44
0.0
173
     0
291
     0
 45
0.0
1001
ACAD
1000
AcDbSavedByObjectVersion
1070
     0
  0
VISUALSTYLE
  5
3F8
102
{ACAD_REACTORS
330
3F3
102
}
330
3F3
100
AcDbVisualStyle
  2
Basic
 70
     7
 71
     1
 72
     0
 73
     1
 90
        0
 40
-0.6
 41
-30.0
 62
     5
 63
     7
 74
     0
 91
        4
 64
     7
 65
   257
 75
     1
175
     1
 42
1.0
 92
        8
 66
     7
 43
1.0
 76
     1
 77
     6
 78
     2
 67
     7
 79
     5
170
     0
171
     0
290
     0
174
     0
 93
        1
 44
0.0
173
     0
291
     1
 45
0.0
1001
ACAD
1000
AcDbSavedByObjectVersion
1070
     0
  0
VISUALSTYLE
  5
3FF
102
{ACAD_REACTORS
330
3F3
102
}
330
3F3
100
AcDbVisualStyle
  2
Brighten
 70
    12
 71
     2
 72
     2
 73
     0
 90
        0
 40
-0.6
 41
-30.0
 62
     5
 63
     7
 74
     1
 91
        4
 64
     7
 65
   257
 75
     1
175
     1
 42
1.0
 92
        8
 66
     7
 43
1.0
 76
     1
 77
     6
 78
     2
 67
     7
 79
     5
170
     0
171
     0
290
     0
174
     0
 93
        1
 44
50.0
173
     0
291
     1
 45
0.0
1001
ACAD
1000
AcDbSavedByObjectVersion
1070
     0
  0
VISUALSTYLE
  5
403
102
{ACAD_REACTORS
330
3F3
102
}
330
3F3
100
AcDbVisualStyle
  2
ColorChange
 70
    16
 71
     2
 72
     2
 73
     3
 90
        0
 40
-0.6
 41
-30.0
 62
     5
 63
     8
 74
     1
 91
        4
 64
     7
 65
   257
 75
     1
175
     1
 42
1.0
 92
        8
 66
     8
 43
1.0
 76
     1
 77
     6
 78
     2
 67
     7
 79
     5
170
     0
171
     0
290
     0
174
     0
 93
        1
 44
0.0
173
     0
291
     1
 45
0.0
1001
ACAD
1000
AcDbSavedByObjectVersion
1070
     0
  0
VISUALSTYLE
  5
3FC
102
{ACAD_REACTORS
330
3F3
102
}
330
3F3
100
AcDbVisualStyle
  2
Conceptual
 70
     9
 71
     3
 72
     2
 73
     0
 90
        0
 40
-0.6
 41
-30.0
 62
     5
 63
     7
 74
     2
 91
        2
 64
     7
 65
   257
 75
     1
175
     1
 42
40.0
 92
        8
 66
     7
 43
1.0
 76
     1
 77
     6
 78
     2
 67
     7
 79
     3
170
     0
171
     0
290
     0
174
     0
 93
        1
 44
0.0
173
     0
291
     0
 45
0.0
1001
ACAD
1000
AcDbSavedByObjectVersion
1070
     0
  0
VISUALSTYLE
  5
3FE
102
{ACAD_REACTORS
330
3F3
102
}
330
3F3
100
AcDbVisualStyle
  2
Dim
 70
    11
 71
     2
 72
     2
 73
     0
 90
        0
 40
-0.6
 41
-30.0
 62
     5
 63
     7
 74
     1
 91
        4
 64
     7
 65
   257
 75
     1
175
     1
 42
1.0
 92
        8
 66
     7
 43
1.0
 76
     1
 77
     6
 78
     2
 67
     7
 79
     5
170
     0
171
     0
290
     0
174
     0
 93
        1
 44
-50.0
173
     0
291
     1
 45
0.0
1001
ACAD
1000
AcDbSavedByObjectVersion
1070
     0
  0
VISUALSTYLE
  5
402
102
{ACAD_REACTORS
330
3F3
102
}
330
3F3
100
AcDbVisualStyle
  2
Facepattern
 70
    15
 71
     2
 72
     2
 73
     0
 90
        0
 40
-0.6
 41
-30.0
 62
     5
 63
     7
 74
     1
 91
        4
 64
     7
 65
   257
 75
     1
175
     1
 42
1.0
 92
        8
 66
     7
 43
1.0
 76
     1
 77
     6
 78
     2
 67
     7
 79
     5
170
     0
171
     0
290
     0
174
     0
 93
        1
 44
0.0
173
     0
291
     1
 45
0.0
1001
ACAD
1000
AcDbSavedByObjectVersion
1070
     0
  0
VISUALSTYLE
  5
3F4
102
{ACAD_REACTORS
330
3F3
102
}
330
3F3
100
AcDbVisualStyle
  2
Flat
 70
     0
 71
     2
 72
     1
 73
     1
 90
        2
 40
-0.6
 41
30.0
 62
     5
 63
     7
 74
     0
 91
        4
 64
     7
 65
   257
 75
     1
175
     1
 42
1.0
 92
        8
 66
     7
 43
1.0
 76
     1
 77
     6
 78
     2
 67
     7
 79
     5
170
     0
171
     0
290
     0
174
     0
 93
       13
 44
0.0
173
     0
291
     1
 45
0.0
1001
ACAD
1000
AcDbSavedByObjectVersion
1070
     0
  0
VISUALSTYLE
  5
3F5
102
{ACAD_REACTORS
330
3F3
102
}
330
3F3
100
AcDbVisualStyle
  2
FlatWithEdges
 70
     1
 71
     2
 72
     1
 73
     1
 90
        2
 40
-0.6
 41
30.0
 62
     5
 63
     7
 74
     1
 91
        4
 64
     7
 65
   257
 75
     1
175
     1
 42
1.0
 92
        0
 66
   257
 43
1.0
 76
     1
 77
     6
 78
     2
 67
     7
 79
     5
170
     0
171
     0
290
     0
174
     0
 93
       13
 44
0.0
173
     0
291
     1
 45
0.0
1001
ACAD
1000
AcDbSavedByObjectVersion
1070
     0
  0
VISUALSTYLE
  5
3F6
102
{ACAD_REACTORS
330
3F3
102
}
330
3F3
100
AcDbVisualStyle
  2
Gouraud
 70
     2
 71
     2
 72
     2
 73
     1
 90
        2
 40
-0.6
 41
30.0
 62
     5
 63
     7
 74
     0
 91
        4
 64
     7
 65
   257
 75
     1
175
     1
 42
1.0
 92
        0
 66
     7
 43
1.0
 76
     1
 77
     6
 78
     2
 67
     7
 79
     5
170
     0
171
     0
290
     0
174
     0
 93
       13
 44
0.0
173
     0
291
     1
 45
0.0
1001
ACAD
1000
AcDbSavedByObjectVersion
1070
     0
  0
VISUALSTYLE
  5
3F7
102
{ACAD_REACTORS
330
3F3
102
}
330
3F3
100
AcDbVisualStyle
  2
GouraudWithEdges
 70
     3
 71
     2
 72
     2
 73
     1
 90
        2
 40
-0.6
 41
30.0
 62
     5
 63
     7
 74
     1
 91
        4
 64
     7
 65
   257
 75
     1
175
     1
 42
1.0
 92
        0
 66
   257
 43
1.0
 76
     1
 77
     6
 78
     2
 67
     7
 79
     5
170
     0
171
     0
290
     0
174
     0
 93
       13
 44
0.0
173
     0
291
     1
 45
0.0
1001
ACAD
1000
AcDbSavedByObjectVersion
1070
     0
  0
VISUALSTYLE
  5
401
102
{ACAD_REACTORS
330
3F3
102
}
330
3F3
100
AcDbVisualStyle
  2
Linepattern
 70
    14
 71
     2
 72
     2
 73
     0
 90
        0
 40
-0.6
 41
-30.0
 62
     5
 63
     7
 74
     1
 91
        4
 64
     7
 65
   257
 75
     7
175
     7
 42
1.0
 92
        8
 66
     7
 43
1.0
 76
     1
 77
     6
 78
     2
 67
     7
 79
     5
170
     0
171
     0
290
     0
174
     0
 93
        1
 44
0.0
173
     0
291
     1
 45
0.0
1001
ACAD
1000
AcDbSavedByObjectVersion
1070
     0
  0
VISUALSTYLE
  5
3FD
102
{ACAD_REACTORS
330
3F3
102
}
330
3F3
100
AcDbVisualStyle
  2
Realistic
 70
     8
 71
     2
 72
     2
 73
     0
 90
        0
 40
-0.6
 41
-30.0
 62
     5
 63
     7
 74
     1
 91
        0
 64
     7
 65
   257
 75
     1
175
     1
 42
1.0
 92
        8
 66
     8
 43
1.0
 76
     1
 77
     6
 78
     2
 67
     7
 79
     5
170
     0
171
     0
290
     0
174
     0
 93
       13
 44
0.0
173
     0
291
     0
 45
0.0
1001
ACAD
1000
AcDbSavedByObjectVersion
1070
     0
  0
VISUALSTYLE
  5
400
102
{ACAD_REACTORS
330
3F3
102
}
330
3F3
100
AcDbVisualStyle
  2
Thicken
 70
    13
 71
     2
 72
     2
 73
     0
 90
        0
 40
-0.6
 41
-30.0
 62
     5
 63
     7
 74
     1
 91
        4
 64
     7
 65
   257
 75
     1
175
     1
 42
1.0
 92
       12
 66
     7
 43
1.0
 76
     1
 77
     6
 78
     2
 67
     7
 79
     5
170
     0
171
     0
290
     0
174
     0
 93
        1
 44
0.0
173
     0
291
     1
 45
0.0
1001
ACAD
1000
AcDbSavedByObjectVersion
1070
     0
  0
DICTIONARYVAR
  5
493
102
{ACAD_REACTORS
330
492
102
}
330
492
100
DictionaryVariables
280
     0
  1
STANDARD
  0
DICTIONARYVAR
  5
496
102
{ACAD_REACTORS
330
492
102
}
330
492
100
DictionaryVariables
280
     0
  1
1
  0
DICTIONARYVAR
  5
495
102
{ACAD_REACTORS
330
492
102
}
330
492
100
DictionaryVariables
280
     0
  1
0
  0
DICTIONARYVAR
  5
494
102
{ACAD_REACTORS
330
492
102
}
330
492
100
DictionaryVariables
280
     0
  1
127
  0
DICTIONARY
  5
49C
330
3E2
100
AcDbDictionary
280
     1
281
     1
  3
ACAD_XREC_ROUNDTRIP
360
49D
  0
DICTIONARY
  5
49A
330
3E1
100
AcDbDictionary
280
     1
281
     1
  3
ACAD_XREC_ROUNDTRIP
360
49B
  0
DICTIONARY
  5
4A0
330
3F1
100
AcDbDictionary
280
     1
281
     1
  3
ACAD_XREC_ROUNDTRIP
360
4A1
  0
DICTIONARY
  5
49E
330
3F0
100
AcDbDictionary
280
     1
281
     1
  3
ACAD_XREC_ROUNDTRIP
360
49F
  0
DICTIONARY
  5
4A2
330
3F2
100
AcDbDictionary
280
     1
281
     1
  3
ACAD_XREC_ROUNDTRIP
360
4A3
  0
DICTIONARY
  5
4A4
330
406
100
AcDbDictionary
280
     1
281
     1
  3
ACAD_XREC_ROUNDTRIP
360
4A5
  0
XRECORD
  5
49D
102
{ACAD_REACTORS
330
49C
102
}
330
49C
100
AcDbXrecord
280
     1
102
SHADEPLOT
 70
     0
102
SHADEPLOTRESLEVEL
 70
     2
102
SHADEPLOTCUSTOMDPI
 70
   300
  0
XRECORD
  5
49B
102
{ACAD_REACTORS
330
49A
102
}
330
49A
100
AcDbXrecord
280
     1
102
SHADEPLOT
 70
     0
102
SHADEPLOTRESLEVEL
 70
     2
102
SHADEPLOTCUSTOMDPI
 70
   300
  0
XRECORD
  5
4A1
102
{ACAD_REACTORS
330
4A0
102
}
330
4A0
100
AcDbXrecord
280
     1
102
MATERIAL
148
0.0
149
0.0
149
0.0
 93
        0
 94
       63
282
     0
 72
     1
 77
     1
171
     1
175
     1
179
     1
273
     0
  0
XRECORD
  5
49F
102
{ACAD_REACTORS
330
49E
102
}
330
49E
100
AcDbXrecord
280
     1
102
MATERIAL
148
0.0
149
0.0
149
0.0
 93
        0
 94
       63
282
     0
 72
     1
 77
     1
171
     1
175
     1
179
     1
273
     0
  0
XRECORD
  5
4A3
102
{ACAD_REACTORS
330
4A2
102
}
330
4A2
100
AcDbXrecord
280
     1
102
MATERIAL
148
0.0
149
0.0
149
0.0
 93
        0
 94
       63
282
     0
 72
     1
 77
     1
171
     1
175
     1
179
     1
273
     0
  0
XRECORD
  5
4A5
102
{ACAD_REACTORS
330
4A4
102
}
330
4A4
100
AcDbXrecord
280
     1
102
ACAD_ROUNDTRIP_PRE2007_TABLESTYLE
 90
      512
 91
        0
  1

 92
      512
 93
        0
  2

 94
      512
 95
        0
  3

  0
ENDSEC
  0
EOF
