  0
SECTION
  2
HEADER
  9
$ACADVER
  1
AC1015
  9
$ACADMAINTVER
 70
    20
  9
$DWGCODEPAGE
  3
ANSI_1252
  9
$INSBASE
 10
0.0
 20
0.0
 30
0.0
  9
$EXTMIN
 10
2.390442875202779
 20
146.8232125323536
 30
-0.0000610304997082
  9
$EXTMAX
 10
201.9891364662783
 20
205.8733526362029
 30
0.000091555062788
  9
$LIMMIN
 10
0.0
 20
0.0
  9
$LIMMAX
 10
420.0
 20
297.0
  9
$ORTHOMODE
 70
     0
  9
$REGENMODE
 70
     1
  9
$FILLMODE
 70
     1
  9
$QTEXTMODE
 70
     0
  9
$MIRRTEXT
 70
     1
  9
$LTSCALE
 40
1.0
  9
$ATTMODE
 70
     1
  9
$TEXTSIZE
 40
2.5
  9
$TRACEWID
 40
1.0
  9
$TEXTSTYLE
  7
STANDARD
  9
$CLAYER
  8
HAWA1
  9
$CELTYPE
  6
BYLAYER
  9
$CECOLOR
 62
   256
  9
$CELTSCALE
 40
1.0
  9
$DISPSILH
 70
     0
  9
$DIMSCALE
 40
1.0
  9
$DIMASZ
 40
2.5
  9
$DIMEXO
 40
0.625
  9
$DIMDLI
 40
3.75
  9
$DIMRND
 40
0.0
  9
$DIMDLE
 40
0.0
  9
$DIMEXE
 40
1.25
  9
$DIMTP
 40
0.0
  9
$DIMTM
 40
0.0
  9
$DIMTXT
 40
2.5
  9
$DIMCEN
 40
2.5
  9
$DIMTSZ
 40
0.0
  9
$DIMTOL
 70
     0
  9
$DIMLIM
 70
     0
  9
$DIMTIH
 70
     0
  9
$DIMTOH
 70
     0
  9
$DIMSE1
 70
     0
  9
$DIMSE2
 70
     0
  9
$DIMTAD
 70
     1
  9
$DIMZIN
 70
     8
  9
$DIMBLK
  1

  9
$DIMASO
 70
     1
  9
$DIMSHO
 70
     1
  9
$DIMPOST
  1

  9
$DIMAPOST
  1

  9
$DIMALT
 70
     0
  9
$DIMALTD
 70
     3
  9
$DIMALTF
 40
0.03937
  9
$DIMLFAC
 40
1.0
  9
$DIMTOFL
 70
     1
  9
$DIMTVP
 40
0.0
  9
$DIMTIX
 70
     0
  9
$DIMSOXD
 70
     0
  9
$DIMSAH
 70
     0
  9
$DIMBLK1
  1

  9
$DIMBLK2
  1

  9
$DIMSTYLE
  2
STANDARD
  9
$DIMCLRD
 70
     0
  9
$DIMCLRE
 70
     0
  9
$DIMCLRT
 70
     0
  9
$DIMTFAC
 40
1.0
  9
$DIMGAP
 40
0.625
  9
$DIMJUST
 70
     0
  9
$DIMSD1
 70
     0
  9
$DIMSD2
 70
     0
  9
$DIMTOLJ
 70
     0
  9
$DIMTZIN
 70
     8
  9
$DIMALTZ
 70
     0
  9
$DIMALTTZ
 70
     0
  9
$DIMUPT
 70
     0
  9
$DIMDEC
 70
     2
  9
$DIMTDEC
 70
     2
  9
$DIMALTU
 70
     2
  9
$DIMALTTD
 70
     3
  9
$DIMTXSTY
  7
STANDARD
  9
$DIMAUNIT
 70
     0
  9
$DIMADEC
 70
     0
  9
$DIMALTRND
 40
0.0
  9
$DIMAZIN
 70
     0
  9
$DIMDSEP
 70
    46
  9
$DIMATFIT
 70
     0
  9
$DIMFRAC
 70
     0
  9
$DIMLDRBLK
  1

  9
$DIMLUNIT
 70
     2
  9
$DIMLWD
 70
    -2
  9
$DIMLWE
 70
    -2
  9
$DIMTMOVE
 70
     0
  9
$LUNITS
 70
     2
  9
$LUPREC
 70
     4
  9
$SKETCHINC
 40
1.0
  9
$FILLETRAD
 40
2.5
  9
$AUNITS
 70
     0
  9
$AUPREC
 70
     0
  9
$MENU
  1
.
  9
$ELEVATION
 40
0.0
  9
$PELEVATION
 40
0.0
  9
$THICKNESS
 40
0.0
  9
$LIMCHECK
 70
     0
  9
$CHAMFERA
 40
2.5
  9
$CHAMFERB
 40
2.5
  9
$CHAMFERC
 40
0.0
  9
$CHAMFERD
 40
0.0
  9
$SKPOLY
 70
     0
  9
$TDCREATE
 40
2447893.000000000
  9
$TDUCREATE
 40
2447892.958333333
  9
$TDUPDATE
 40
2455231.368277952
  9
$TDUUPDATE
 40
2455231.326611285
  9
$TDINDWG
 40
0.0001774074
  9
$TDUSRTIMER
 40
0.0001774074
  9
$USRTIMER
 70
     1
  9
$ANGBASE
 50
0.0
  9
$ANGDIR
 70
     0
  9
$PDMODE
 70
     0
  9
$PDSIZE
 40
0.0
  9
$PLINEWID
 40
0.0
  9
$SPLFRAME
 70
     0
  9
$SPLINETYPE
 70
     6
  9
$SPLINESEGS
 70
     8
  9
$HANDSEED
  5
691
  9
$SURFTAB1
 70
     6
  9
$SURFTAB2
 70
     6
  9
$SURFTYPE
 70
     6
  9
$SURFU
 70
     6
  9
$SURFV
 70
     6
  9
$UCSBASE
  2

  9
$UCSNAME
  2

  9
$UCSORG
 10
0.0
 20
0.0
 30
0.0
  9
$UCSXDIR
 10
1.0
 20
0.0
 30
0.0
  9
$UCSYDIR
 10
0.0
 20
1.0
 30
0.0
  9
$UCSORTHOREF
  2

  9
$UCSORTHOVIEW
 70
     0
  9
$UCSORGTOP
 10
0.0
 20
0.0
 30
0.0
  9
$UCSORGBOTTOM
 10
0.0
 20
0.0
 30
0.0
  9
$UCSORGLEFT
 10
0.0
 20
0.0
 30
0.0
  9
$UCSORGRIGHT
 10
0.0
 20
0.0
 30
0.0
  9
$UCSORGFRONT
 10
0.0
 20
0.0
 30
0.0
  9
$UCSORGBACK
 10
0.0
 20
0.0
 30
0.0
  9
$PUCSBASE
  2

  9
$PUCSNAME
  2

  9
$PUCSORG
 10
0.0
 20
0.0
 30
0.0
  9
$PUCSXDIR
 10
1.0
 20
0.0
 30
0.0
  9
$PUCSYDIR
 10
0.0
 20
1.0
 30
0.0
  9
$PUCSORTHOREF
  2

  9
$PUCSORTHOVIEW
 70
     0
  9
$PUCSORGTOP
 10
0.0
 20
0.0
 30
0.0
  9
$PUCSORGBOTTOM
 10
0.0
 20
0.0
 30
0.0
  9
$PUCSORGLEFT
 10
0.0
 20
0.0
 30
0.0
  9
$PUCSORGRIGHT
 10
0.0
 20
0.0
 30
0.0
  9
$PUCSORGFRONT
 10
0.0
 20
0.0
 30
0.0
  9
$PUCSORGBACK
 10
0.0
 20
0.0
 30
0.0
  9
$USERI1
 70
     0
  9
$USERI2
 70
     0
  9
$USERI3
 70
     0
  9
$USERI4
 70
     0
  9
$USERI5
 70
     0
  9
$USERR1
 40
0.0
  9
$USERR2
 40
0.0
  9
$USERR3
 40
0.0
  9
$USERR4
 40
0.0
  9
$USERR5
 40
0.0
  9
$WORLDVIEW
 70
     1
  9
$SHADEDGE
 70
     3
  9
$SHADEDIF
 70
    70
  9
$TILEMODE
 70
     1
  9
$MAXACTVP
 70
    48
  9
$PINSBASE
 10
0.0
 20
0.0
 30
0.0
  9
$PLIMCHECK
 70
     0
  9
$PEXTMIN
 10
0.0
 20
0.0
 30
0.0
  9
$PEXTMAX
 10
195.5
 20
253.664566
 30
2.0
  9
$PLIMMIN
 10
0.0
 20
0.0
  9
$PLIMMAX
 10
420.0
 20
297.0
  9
$UNITMODE
 70
     0
  9
$VISRETAIN
 70
     0
  9
$PLINEGEN
 70
     0
  9
$PSLTSCALE
 70
     1
  9
$TREEDEPTH
 70
  3020
  9
$CMLSTYLE
  2
STANDARD
  9
$CMLJUST
 70
     0
  9
$CMLSCALE
 40
20.0
  9
$PROXYGRAPHICS
 70
     1
  9
$MEASUREMENT
 70
     1
  9
$CELWEIGHT
370
    -1
  9
$ENDCAPS
280
     0
  9
$JOINSTYLE
280
     0
  9
$LWDISPLAY
290
     0
  9
$INSUNITS
 70
     0
  9
$HYPERLINKBASE
  1

  9
$STYLESHEET
  1

  9
$XEDIT
290
     1
  9
$CEPSNTYPE
380
     0
  9
$PSTYLEMODE
290
     1
  9
$FINGERPRINTGUID
  2
{9E249CD8-1EEA-4ED5-8D4B-C921272BE7CF}
  9
$VERSIONGUID
  2
{A8E2E28B-13E6-45EF-A168-5BABC7743A08}
  9
$EXTNAMES
290
     1
  9
$PSVPSCALE
 40
0.0
  9
$OLESTARTUP
290
     0
  0
ENDSEC
  0
SECTION
  2
CLASSES
  0
CLASS
  1
IMAGE
  2
AcDbRasterImage
  3
ISM
 90
    34943
280
     0
281
     1
  0
CLASS
  1
DICTIONARYVAR
  2
AcDbDictionaryVar
  3
ObjectDBX Classes
 90
        0
280
     0
281
     0
  0
CLASS
  1
RASTERVARIABLES
  2
AcDbRasterVariables
  3
ISM
 90
    32768
280
     0
281
     0
  0
CLASS
  1
IMAGEDEF
  2
AcDbRasterImageDef
  3
ISM
 90
    32768
280
     0
281
     0
  0
CLASS
  1
IMAGEDEF_REACTOR
  2
AcDbRasterImageDefReactor
  3
ISM
 90
    32769
280
     0
281
     0
  0
CLASS
  1
IDBUFFER
  2
AcDbIdBuffer
  3
ObjectDBX Classes
 90
    32768
280
     0
281
     0
  0
CLASS
  1
SPATIAL_FILTER
  2
AcDbSpatialFilter
  3
ObjectDBX Classes
 90
    32768
280
     0
281
     0
  0
CLASS
  1
SORTENTSTABLE
  2
AcDbSortentsTable
  3
ObjectDBX Classes
 90
    32768
280
     0
281
     0
  0
CLASS
  1
LAYER_INDEX
  2
AcDbLayerIndex
  3
ObjectDBX Classes
 90
    32768
280
     0
281
     0
  0
CLASS
  1
SPATIAL_INDEX
  2
AcDbSpatialIndex
  3
ObjectDBX Classes
 90
    32768
280
     0
281
     0
  0
CLASS
  1
OBJECT_PTR
  2
CAseDLPNTableRecord
  3
ASE-LPNTableRecord
 90
    32769
280
     0
281
     0
  0
CLASS
  1
LAYOUT
  2
AcDbLayout
  3
ObjectDBX Classes
 90
        0
280
     0
281
     0
  0
CLASS
  1
PLOTSETTINGS
  2
AcDbPlotSettings
  3
ObjectDBX Classes
 90
    32768
280
     0
281
     0
  0
CLASS
  1
ACDBDICTIONARYWDFLT
  2
AcDbDictionaryWithDefault
  3
ObjectDBX Classes
 90
        0
280
     0
281
     0
  0
CLASS
  1
ACDBPLACEHOLDER
  2
AcDbPlaceHolder
  3
ObjectDBX Classes
 90
        0
280
     0
281
     0
  0
CLASS
  1
VBA_PROJECT
  2
AcDbVbaProject
  3
acad
 90
    32768
280
     0
281
     0
  0
CLASS
  1
WIPEOUT
  2
AcDbWipeout
  3
"WipeOut|Product Desc: Object Enabler for WipeOut entity                        |Company: Autodesk, Inc.                        |WEB Address: www.autodesk.com"
 90
    34943
280
     0
281
     1
  0
CLASS
  1
WIPEOUTVARIABLES
  2
AcDbWipeoutVariables
  3
"WipeOut|Product Desc:     WipeOut Dbx Application|Company:          Autodesk, Inc.|WEB Address:      www.autodesk.com"
 90
    32768
280
     0
281
     0
  0
CLASS
  1
RTEXT
  2
RText
  3
RText|AutoCAD Express Tool|expresstools@autodesk.com
 90
    32768
280
     0
281
     1
  0
CLASS
  1
ARCALIGNEDTEXT
  2
AcDbArcAlignedText
  3
ATEXT|AutoCAD Express Tool|expresstools@autodesk.com
 90
    32768
280
     0
281
     1
  0
CLASS
  1
MATERIAL
  2
AcDbMaterial
  3
ObjectDBX Classes
 90
     1024
280
     0
281
     0
  0
CLASS
  1
VISUALSTYLE
  2
AcDbVisualStyle
  3
ObjectDBX Classes
 90
     4095
280
     0
281
     0
  0
CLASS
  1
TABLESTYLE
  2
AcDbTableStyle
  3
ObjectDBX Classes
 90
     4095
280
     0
281
     0
  0
ENDSEC
  0
SECTION
  2
TABLES
  0
TABLE
  2
VPORT
  5
7
330
0
100
AcDbSymbolTable
 70
     1
  0
VPORT
  5
15
330
7
100
AcDbSymbolTableRecord
100
AcDbViewportTableRecord
  2
*ACTIVE
 70
     0
 10
0.0
 20
0.0
 11
1.0
 21
1.0
 12
102.1897896707405
 22
176.3482825842782
 13
0.0
 23
0.0
 14
1.0
 24
1.0
 15
0.0
 25
0.0
 16
0.0
 26
0.0
 36
1.0
 17
0.0
 27
0.0
 37
0.0
 40
124.7467153967008
 41
1.606349206349206
 42
50.0
 43
0.0
 44
0.0
 50
0.0
 51
0.0
 71
     0
 72
   100
 73
     1
 74
     1
 75
     0
 76
     0
 77
     0
 78
     0
281
     0
 65
     1
110
0.0
120
0.0
130
0.0
111
1.0
121
0.0
131
0.0
112
0.0
122
1.0
132
0.0
 79
     0
146
0.0
  0
ENDTAB
  0
TABLE
  2
LTYPE
  5
4
330
0
100
AcDbSymbolTable
 70
     8
  0
LTYPE
  5
11
330
4
100
AcDbSymbolTableRecord
100
AcDbLinetypeTableRecord
  2
BYBLOCK
 70
     0
  3

 72
    65
 73
     0
 40
0.0
  0
LTYPE
  5
12
330
4
100
AcDbSymbolTableRecord
100
AcDbLinetypeTableRecord
  2
BYLAYER
 70
     0
  3

 72
    65
 73
     0
 40
0.0
  0
LTYPE
  5
13
330
4
100
AcDbSymbolTableRecord
100
AcDbLinetypeTableRecord
  2
CONTINUOUS
 70
     0
  3
Solid line
 72
    65
 73
     0
 40
0.0
  0
LTYPE
  5
1D
330
4
100
AcDbSymbolTableRecord
100
AcDbLinetypeTableRecord
  2
DASHED
 70
     0
  3
__ __ __ __ __ __ __ __ __ __ __ __ __ __ __ __
 72
    65
 73
     2
 40
15.0
 49
12.0
 74
     0
 49
-3.0
 74
     0
  0
LTYPE
  5
1E
330
4
100
AcDbSymbolTableRecord
100
AcDbLinetypeTableRecord
  2
DASHDOT
 70
     0
  3
 __ . __ . __ . __ . __ . __ . __ . 
 72
    65
 73
     4
 40
18.5
 49
12.0
 74
     0
 49
-3.0
 74
     0
 49
0.5
 74
     0
 49
-3.0
 74
     0
  0
LTYPE
  5
1F
330
4
100
AcDbSymbolTableRecord
100
AcDbLinetypeTableRecord
  2
DOT
 70
     0
  3
 . . . . . . . . . . . . . . . .
 72
    65
 73
     2
 40
3.5
 49
0.5
 74
     0
 49
-3.0
 74
     0
  0
LTYPE
  5
20
330
4
100
AcDbSymbolTableRecord
100
AcDbLinetypeTableRecord
  2
DASHSPACE
 70
     0
  3
__    __    __    __    __   
 72
    65
 73
     2
 40
30.0
 49
12.0
 74
     0
 49
-18.0
 74
     0
  0
LTYPE
  5
21
330
4
100
AcDbSymbolTableRecord
100
AcDbLinetypeTableRecord
  2
DASHDOT2
 70
     0
  3
__ . . __ . . __ . . __ 
 72
    65
 73
     6
 40
22.0
 49
12.0
 74
     0
 49
-3.0
 74
     0
 49
0.5
 74
     0
 49
-3.0
 74
     0
 49
0.5
 74
     0
 49
-3.0
 74
     0
  0
LTYPE
  5
22
330
4
100
AcDbSymbolTableRecord
100
AcDbLinetypeTableRecord
  2
PHANTOM
 70
     0
  3
____________    ____    ____   _
 72
    65
 73
     6
 40
20.0
 49
10.0
 74
     0
 49
-2.0
 74
     0
 49
2.0
 74
     0
 49
-2.0
 74
     0
 49
2.0
 74
     0
 49
-2.0
 74
     0
  0
LTYPE
  5
23
330
4
100
AcDbSymbolTableRecord
100
AcDbLinetypeTableRecord
  2
AXES
 70
     0
  3
________  __  ________  __  _____
 72
    65
 73
     4
 40
24.0
 49
15.0
 74
     0
 49
-3.0
 74
     0
 49
3.0
 74
     0
 49
-3.0
 74
     0
  0
ENDTAB
  0
TABLE
  2
LAYER
  5
2
330
0
100
AcDbSymbolTable
 70
     5
  0
LAYER
  5
659
330
2
100
AcDbSymbolTableRecord
100
AcDbLayerTableRecord
  2
0
 70
     0
 62
     7
  6
CONTINUOUS
370
    -3
390
65B
  0
LAYER
  5
656
330
2
100
AcDbSymbolTableRecord
100
AcDbLayerTableRecord
  2
Hawa4
 70
     0
 62
     4
  6
CONTINUOUS
370
     0
390
65B
  0
LAYER
  5
657
330
2
100
AcDbSymbolTableRecord
100
AcDbLayerTableRecord
  2
Hawa5
 70
     0
 62
     1
  6
CONTINUOUS
370
    -3
390
65B
  0
LAYER
  5
658
330
2
100
AcDbSymbolTableRecord
100
AcDbLayerTableRecord
  2
Hawa6
 70
     0
 62
     3
  6
CONTINUOUS
370
    -3
390
65B
  0
LAYER
  5
14
330
2
100
AcDbSymbolTableRecord
100
AcDbLayerTableRecord
  2
HAWA1
 70
     0
 62
     2
  6
CONTINUOUS
370
     0
390
65B
  0
ENDTAB
  0
TABLE
  2
STYLE
  5
3
330
0
100
AcDbSymbolTable
 70
     2
  0
STYLE
  5
17
330
3
100
AcDbSymbolTableRecord
100
AcDbTextStyleTableRecord
  2
STANDARD
 70
     0
 40
0.0
 41
1.0
 50
0.0
 71
     0
 42
2.5
  3
isocp.shx
  4

  0
STYLE
  5
24
330
3
100
AcDbSymbolTableRecord
100
AcDbTextStyleTableRecord
  2
GDT
 70
     0
 40
0.0
 41
1.0
 50
0.0
 71
     0
 42
2.5
  3
amgdt.shx
  4

  0
ENDTAB
  0
TABLE
  2
VIEW
  5
5
330
0
100
AcDbSymbolTable
 70
     1
  0
ENDTAB
  0
TABLE
  2
UCS
  5
6
330
0
100
AcDbSymbolTable
 70
     0
  0
ENDTAB
  0
TABLE
  2
APPID
  5
8
330
0
100
AcDbSymbolTable
 70
     1
  0
APPID
  5
16
330
8
100
AcDbSymbolTableRecord
100
AcDbRegAppTableRecord
  2
ACAD
 70
     0
  0
ENDTAB
  0
TABLE
  2
DIMSTYLE
  5
9
330
0
100
AcDbSymbolTable
 70
     1
100
AcDbDimStyleTable
 71
     0
  0
DIMSTYLE
105
18
102
{ACAD_REACTORS
330
26
330
28
330
2A
330
39
330
3B
330
3D
330
3F
330
41
330
43
102
}
330
9
100
AcDbSymbolTableRecord
100
AcDbDimStyleTableRecord
  2
STANDARD
 70
     0
 41
2.5
 42
0.625
 43
3.75
 44
1.25
 73
     0
 74
     0
 77
     1
 78
     8
140
2.5
141
2.5
143
0.03937
147
0.625
171
     3
172
     1
271
     2
272
     2
274
     3
283
     0
284
     8
289
     0
340
17
  0
ENDTAB
  0
TABLE
  2
BLOCK_RECORD
  5
1
330
0
100
AcDbSymbolTable
 70
    13
  0
BLOCK_RECORD
  5
A
330
1
100
AcDbSymbolTableRecord
100
AcDbBlockTableRecord
  2
*MODEL_SPACE
340
516
  0
BLOCK_RECORD
  5
B
330
1
100
AcDbSymbolTableRecord
100
AcDbBlockTableRecord
  2
*PAPER_SPACE
340
517
  0
BLOCK_RECORD
  5
25
330
1
100
AcDbSymbolTableRecord
100
AcDbBlockTableRecord
  2
*D0
340
0
  0
BLOCK_RECORD
  5
27
330
1
100
AcDbSymbolTableRecord
100
AcDbBlockTableRecord
  2
*D1
340
0
  0
BLOCK_RECORD
  5
29
330
1
100
AcDbSymbolTableRecord
100
AcDbBlockTableRecord
  2
*D2
340
0
  0
BLOCK_RECORD
  5
47
330
1
100
AcDbSymbolTableRecord
100
AcDbBlockTableRecord
  2
BLOCK0
340
0
  0
BLOCK_RECORD
  5
48
330
1
100
AcDbSymbolTableRecord
100
AcDbBlockTableRecord
  2
BLOCK1
340
0
  0
BLOCK_RECORD
  5
49
330
1
100
AcDbSymbolTableRecord
100
AcDbBlockTableRecord
  2
BLOCK2
340
0
  0
BLOCK_RECORD
  5
38
330
1
100
AcDbSymbolTableRecord
100
AcDbBlockTableRecord
  2
*D6
340
0
  0
BLOCK_RECORD
  5
3A
330
1
100
AcDbSymbolTableRecord
100
AcDbBlockTableRecord
  2
*D7
340
0
  0
BLOCK_RECORD
  5
3C
330
1
100
AcDbSymbolTableRecord
100
AcDbBlockTableRecord
  2
*D8
340
0
  0
BLOCK_RECORD
  5
3E
330
1
100
AcDbSymbolTableRecord
100
AcDbBlockTableRecord
  2
*D9
340
0
  0
BLOCK_RECORD
  5
40
330
1
100
AcDbSymbolTableRecord
100
AcDbBlockTableRecord
  2
*D10
340
0
  0
BLOCK_RECORD
  5
42
330
1
100
AcDbSymbolTableRecord
100
AcDbBlockTableRecord
  2
*D11
340
0
  0
BLOCK_RECORD
  5
4A
330
1
100
AcDbSymbolTableRecord
100
AcDbBlockTableRecord
  2
BLOCK3
340
0
  0
ENDTAB
  0
ENDSEC
  0
SECTION
  2
BLOCKS
  0
BLOCK
  5
D
330
A
100
AcDbEntity
  8
HAWA1
100
AcDbBlockBegin
  2
*MODEL_SPACE
 70
     0
 10
0.0
 20
0.0
 30
0.0
  3
*MODEL_SPACE
  1

  0
ENDBLK
  5
E
330
A
100
AcDbEntity
  8
HAWA1
100
AcDbBlockEnd
  0
BLOCK
  5
F
330
B
100
AcDbEntity
 67
     1
  8
HAWA1
100
AcDbBlockBegin
  2
*PAPER_SPACE
 70
     0
 10
0.0
 20
0.0
 30
0.0
  3
*PAPER_SPACE
  1

  0
ENDBLK
  5
10
330
B
100
AcDbEntity
 67
     1
  8
HAWA1
100
AcDbBlockEnd
  0
BLOCK
  5
4B
330
25
100
AcDbEntity
  8
HAWA1
100
AcDbBlockBegin
  2
*D0
 70
     1
 10
0.0
 20
0.0
 30
0.0
  3
*D0
  1

  0
TEXT
  5
4C
330
25
100
AcDbEntity
  8
HAWA1
 62
     2
100
AcDbText
 10
18.844246
 20
182.83523
 30
0.0
 40
3.5
  1
10
 50
90.0
 41
1.643644155649524
 72
     5
 11
18.844246
 21
188.880152
 31
0.0
100
AcDbText
  0
TEXT
  5
4D
330
25
100
AcDbEntity
  8
HAWA1
 62
     2
100
AcDbText
 10
16.74424
 20
191.880152
 30
0.0
 40
2.33345
  1
13
 50
90.0
 41
1.582499661700214
 72
     5
 11
16.74424
 21
195.910426
 31
0.0
100
AcDbText
  0
TEXT
  5
4E
330
25
100
AcDbEntity
  8
HAWA1
 62
     2
100
AcDbText
 10
19.777703
 20
191.880152
 30
0.0
 40
2.33345
  1
32
 50
90.0
 41
1.318393945883771
 72
     5
 11
19.777703
 21
195.910426
 31
0.0
100
AcDbText
  0
TEXT
  5
4F
330
25
100
AcDbEntity
  8
HAWA1
 62
     2
100
AcDbText
 10
17.969246
 20
195.910181
 30
0.0
 40
3.5
  1
"
 50
90.0
 41
1.629774603174613
 72
     5
 11
17.969246
 21
198.477076
 31
0.0
100
AcDbText
  0
TEXT
  5
50
330
25
100
AcDbEntity
  8
HAWA1
 62
     2
100
AcDbText
 10
17.594246
 20
189.880152
 30
0.0
 40
1.0
  1
/
 50
90.0
 41
1.818181818181818
 72
     5
 11
17.594246
 21
190.880152
 31
0.0
100
AcDbText
  0
LINE
  5
51
330
25
100
AcDbEntity
  8
HAWA1
 62
     2
 48
0.100757
100
AcDbLine
 10
17.094246
 20
191.880152
 30
0.0
 11
17.094246
 21
195.910426
 31
0.0
  0
LINE
  5
52
330
25
100
AcDbEntity
  8
HAWA1
 62
     2
100
AcDbLine
 10
40.41550499999999
 20
177.83523
 30
0.0
 11
19.777703
 21
177.83523
 31
0.0
  0
LINE
  5
53
330
25
100
AcDbEntity
  8
HAWA1
 62
     2
 48
0.075
100
AcDbLine
 10
21.838356
 20
176.774683
 30
0.0
 11
19.717049
 21
178.896021
 31
0.0
  0
LINE
  5
54
330
25
100
AcDbEntity
  8
HAWA1
 62
     2
 48
0.075
100
AcDbLine
 10
19.717049
 20
168.896021
 30
0.0
 11
21.838356
 21
166.774683
 31
0.0
  0
LINE
  5
55
330
25
100
AcDbEntity
  8
HAWA1
 62
     2
100
AcDbLine
 10
20.777703
 20
167.83523
 30
0.0
 11
20.777703
 21
198.477076
 31
0.0
  0
ENDBLK
  5
56
330
25
100
AcDbEntity
  8
HAWA1
100
AcDbBlockEnd
  0
BLOCK
  5
57
330
27
100
AcDbEntity
  8
HAWA1
100
AcDbBlockBegin
  2
*D1
 70
     1
 10
0.0
 20
0.0
 30
0.0
  3
*D1
  1

  0
TEXT
  5
58
330
27
100
AcDbEntity
  8
HAWA1
 62
     2
100
AcDbText
 10
63.125588
 20
170.803248
 30
0.0
 40
3.5
  1
26
 50
90.0
 41
1.328956755961393
 72
     5
 11
63.125588
 21
176.84817
 31
0.0
100
AcDbText
  0
TEXT
  5
59
330
27
100
AcDbEntity
  8
HAWA1
 62
     2
100
AcDbText
 10
61.875588
 20
177.84817
 30
0.0
 40
1.0
  1
/
 50
90.0
 41
1.818181818181818
 72
     5
 11
61.875588
 21
178.84817
 31
0.0
100
AcDbText
  0
TEXT
  5
5A
330
27
100
AcDbEntity
  8
HAWA1
 62
     2
100
AcDbText
 10
63.125588
 20
179.84817
 30
0.0
 40
3.5
  1
1
 50
90.0
 41
2.181520816326545
 72
     5
 11
63.125588
 21
182.520533
 31
0.0
100
AcDbText
  0
TEXT
  5
5B
330
27
100
AcDbEntity
  8
HAWA1
 62
     2
100
AcDbText
 10
61.02558199999999
 20
185.394801
 30
0.0
 40
2.33345
  1
1
 50
90.0
 41
2.181610919454015
 72
     5
 11
61.02558199999999
 21
187.176539
 31
0.0
100
AcDbText
  0
TEXT
  5
5C
330
27
100
AcDbEntity
  8
HAWA1
 62
     2
100
AcDbText
 10
64.059029
 20
184.270533
 30
0.0
 40
2.33345
  1
32
 50
90.0
 41
1.318393618761114
 72
     5
 11
64.059029
 21
188.300806
 31
0.0
100
AcDbText
  0
TEXT
  5
5D
330
27
100
AcDbEntity
  8
HAWA1
 62
     2
100
AcDbText
 10
62.250588
 20
188.300562
 30
0.0
 40
3.5
  1
"
 50
90.0
 41
1.629774603174595
 72
     5
 11
62.250588
 21
190.867457
 31
0.0
100
AcDbText
  0
LINE
  5
5E
330
27
100
AcDbEntity
  8
HAWA1
 62
     2
 48
0.100757
100
AcDbLine
 10
61.375588
 20
184.270533
 30
0.0
 11
61.375588
 21
188.300806
 31
0.0
  0
LINE
  5
5F
330
27
100
AcDbEntity
  8
HAWA1
 62
     2
 48
0.253565
100
AcDbLine
 10
55.91642
 20
167.83523
 30
0.0
 11
66.05902900000001
 21
167.83523
 31
0.0
  0
LINE
  5
60
330
27
100
AcDbEntity
  8
HAWA1
 62
     2
 48
0.275
100
AcDbLine
 10
55.059029
 20
193.83523
 30
0.0
 11
66.05902900000001
 21
193.83523
 31
0.0
  0
LINE
  5
61
330
27
100
AcDbEntity
  8
HAWA1
 62
     2
 48
0.075
100
AcDbLine
 10
66.11969000000001
 20
192.774683
 30
0.0
 11
63.998375
 21
194.896021
 31
0.0
  0
LINE
  5
62
330
27
100
AcDbEntity
  8
HAWA1
 62
     2
 48
0.075
100
AcDbLine
 10
63.998375
 20
168.896021
 30
0.0
 11
66.11969000000001
 21
166.774683
 31
0.0
  0
LINE
  5
63
330
27
100
AcDbEntity
  8
HAWA1
 62
     2
100
AcDbLine
 10
65.05902900000001
 20
167.83523
 30
0.0
 11
65.05902900000001
 21
193.83523
 31
0.0
  0
ENDBLK
  5
64
330
27
100
AcDbEntity
  8
HAWA1
100
AcDbBlockEnd
  0
BLOCK
  5
65
330
29
100
AcDbEntity
  8
HAWA1
100
AcDbBlockBegin
  2
*D2
 70
     1
 10
0.0
 20
0.0
 30
0.0
  3
*D2
  1

  0
TEXT
  5
66
330
29
100
AcDbEntity
  8
HAWA1
 62
     2
100
AcDbText
 10
33.3834
 20
149.838892
 30
0.0
 40
3.5
  1
28
 41
1.381696457142855
 72
     5
 11
39.428322
 21
149.838892
 31
0.0
100
AcDbText
  0
TEXT
  5
67
330
29
100
AcDbEntity
  8
HAWA1
 62
     2
100
AcDbText
 10
40.42832199999999
 20
151.088892
 30
0.0
 40
1.0
  1
/
 41
1.818181818181818
 72
     5
 11
41.42832199999999
 21
151.088892
 31
0.0
100
AcDbText
  0
TEXT
  5
68
330
29
100
AcDbEntity
  8
HAWA1
 62
     2
100
AcDbText
 10
42.428337
 20
149.838892
 30
0.0
 40
3.5
  1
1
 41
2.181595918367345
 72
     5
 11
45.10079199999999
 21
149.838892
 31
0.0
100
AcDbText
  0
TEXT
  5
69
330
29
100
AcDbEntity
  8
HAWA1
 62
     2
100
AcDbText
 10
47.974999
 20
151.938746
 30
0.0
 40
2.33345
  1
3
 41
1.291065690740002
 72
     5
 11
49.756737
 21
151.938746
 31
0.0
100
AcDbText
  0
TEXT
  5
6A
330
29
100
AcDbEntity
  8
HAWA1
 62
     2
100
AcDbText
 10
46.85079199999999
 20
148.905299
 30
0.0
 40
2.33345
  1
32
 41
1.318354036919422
 72
     5
 11
50.880944
 21
148.905299
 31
0.0
100
AcDbText
  0
TEXT
  5
6B
330
29
100
AcDbEntity
  8
HAWA1
 62
     2
100
AcDbText
 10
50.880928
 20
150.713892
 30
0.0
 40
3.5
  1
"
 41
1.629638730158727
 72
     5
 11
53.447609
 21
150.713892
 31
0.0
100
AcDbText
  0
LINE
  5
6C
330
29
100
AcDbEntity
  8
HAWA1
 62
     2
 48
0.100754
100
AcDbLine
 10
46.85079199999999
 20
151.588892
 30
0.0
 11
50.880944
 21
151.588892
 31
0.0
  0
LINE
  5
6D
330
29
100
AcDbEntity
  8
HAWA1
 62
     2
100
AcDbLine
 10
29.415505
 20
167.83523
 30
0.0
 11
29.415505
 21
146.9052989999999
 31
0.0
  0
LINE
  5
6E
330
29
100
AcDbEntity
  8
HAWA1
 62
     2
100
AcDbLine
 10
57.415505
 20
167.83523
 30
0.0
 11
57.415505
 21
146.9052989999999
 31
0.0
  0
LINE
  5
6F
330
29
100
AcDbEntity
  8
HAWA1
 62
     2
 48
0.075
100
AcDbLine
 10
56.354851
 20
146.844752
 30
0.0
 11
58.476159
 21
148.96609
 31
0.0
  0
LINE
  5
70
330
29
100
AcDbEntity
  8
HAWA1
 62
     2
 48
0.075
100
AcDbLine
 10
30.476159
 20
148.96609
 30
0.0
 11
28.354851
 21
146.844752
 31
0.0
  0
LINE
  5
71
330
29
100
AcDbEntity
  8
HAWA1
 62
     2
100
AcDbLine
 10
29.415505
 20
147.905299
 30
0.0
 11
57.415505
 21
147.905299
 31
0.0
  0
ENDBLK
  5
72
330
29
100
AcDbEntity
  8
HAWA1
100
AcDbBlockEnd
  0
BLOCK
  5
73
330
47
100
AcDbEntity
  8
HAWA1
100
AcDbBlockBegin
  2
BLOCK0
 70
     0
 10
0.0
 20
0.0
 30
0.0
  3
BLOCK0
  1

  0
LINE
  5
74
330
47
100
AcDbEntity
  8
Hawa5
 62
     1
100
AcDbLine
 10
-109.689423
 20
-2227.033691
 30
0.0
 11
-134.689423
 21
-2227.033691
 31
0.0
  0
LINE
  5
75
330
47
100
AcDbEntity
  8
Hawa5
 62
     1
100
AcDbLine
 10
-162.689423
 20
-2227.033691
 30
0.0
 11
-189.689423
 21
-2227.033691
 31
0.0
  0
LINE
  5
76
330
47
100
AcDbEntity
  8
Hawa5
  6
PHANTOM
 62
     1
 48
0.2
100
AcDbLine
 10
-144.689423
 20
-2196.033691
 30
0.0
 11
-152.689423
 21
-2196.033691
 31
0.0
  0
LINE
  5
77
330
47
100
AcDbEntity
  8
Hawa5
 62
     1
100
AcDbLine
 10
-144.689423
 20
-2216.033691
 30
0.0
 11
-144.689423
 21
-2196.033691
 31
0.0
  0
LINE
  5
78
330
47
100
AcDbEntity
  8
Hawa5
 62
     1
 48
0.035355
100
AcDbLine
 10
-145.689423
 20
-2217.033691
 30
0.0
 11
-144.689423
 21
-2216.033691
 31
0.0
  0
LINE
  5
79
330
47
100
AcDbEntity
  8
Hawa5
 62
     1
 48
0.15
100
AcDbLine
 10
-145.689423
 20
-2217.033691
 30
0.0
 11
-151.689423
 21
-2217.033691
 31
0.0
  0
LINE
  5
7A
330
47
100
AcDbEntity
  8
Hawa5
 62
     1
 48
0.035355
100
AcDbLine
 10
-151.689423
 20
-2217.033691
 30
0.0
 11
-152.689423
 21
-2216.033691
 31
0.0
  0
LINE
  5
7B
330
47
100
AcDbEntity
  8
Hawa5
 62
     1
100
AcDbLine
 10
-152.689423
 20
-2216.033691
 30
0.0
 11
-152.689423
 21
-2196.033691
 31
0.0
  0
LINE
  5
7C
330
47
100
AcDbEntity
  8
Hawa6
 62
     3
 48
0.037477
100
AcDbLine
 10
-162.689423
 20
-2227.033691
 30
0.0
 11
-161.190338
 21
-2227.033691
 31
0.0
  0
LINE
  5
7D
330
47
100
AcDbEntity
  8
Hawa6
 62
     3
 48
0.312523
100
AcDbLine
 10
-148.689423
 20
-2227.033691
 30
0.0
 11
-161.190338
 21
-2227.033691
 31
0.0
  0
LINE
  5
7E
330
47
100
AcDbEntity
  8
Hawa6
 62
     3
 48
0.312523
100
AcDbLine
 10
-136.188507
 20
-2227.033691
 30
0.0
 11
-148.689423
 21
-2227.033691
 31
0.0
  0
LINE
  5
7F
330
47
100
AcDbEntity
  8
Hawa6
 62
     3
 48
0.037477
100
AcDbLine
 10
-136.188507
 20
-2227.033691
 30
0.0
 11
-134.689423
 21
-2227.033691
 31
0.0
  0
LINE
  5
80
330
47
100
AcDbEntity
  8
Hawa6
 62
     3
100
AcDbLine
 10
-135.546814
 20
-2202.481201
 30
0.0
 11
-134.689423
 21
-2227.033691
 31
0.0
  0
ELLIPSE
  5
81
330
47
100
AcDbEntity
  8
Hawa6
 62
     3
100
AcDbEllipse
 10
-137.045898
 20
-2202.533691
 30
0.0
 11
1.499086260795593
 21
0.0523492433130741
 31
0.0
210
0.0
220
0.0
230
0.9999999999999998
 40
0.034878
 41
0.0000000000000584
 42
1.569578409194946
  0
LINE
  5
82
330
47
100
AcDbEntity
  8
Hawa6
 62
     3
100
AcDbLine
 10
-137.045898
 20
-2202.481201
 30
0.0
 11
-136.188507
 21
-2227.033691
 31
0.0
  0
LINE
  5
83
330
47
100
AcDbEntity
  8
Hawa6
 62
     3
100
AcDbLine
 10
-161.832031
 20
-2202.481201
 30
0.0
 11
-162.689423
 21
-2227.033691
 31
0.0
  0
LINE
  5
84
330
47
100
AcDbEntity
  8
Hawa6
 62
     3
 48
0.063251
100
AcDbLine
 10
-158.58873
 20
-2222.533691
 30
0.0
 11
-158.58873
 21
-2220.003662
 31
0.0
  0
LINE
  5
85
330
47
100
AcDbEntity
  8
Hawa6
 62
     3
 48
0.061749
100
AcDbLine
 10
-158.58873
 20
-2207.503662
 30
0.0
 11
-158.58873
 21
-2205.033691
 31
0.0
  0
ARC
  5
86
330
47
100
AcDbEntity
  8
Hawa6
 62
     3
100
AcDbCircle
 10
-158.801498
 20
-2203.533691
 30
0.0
 40
1.499997999999999
100
AcDbArc
 50
223.11185
 51
270.000004
  0
LINE
  5
87
330
47
100
AcDbEntity
  8
Hawa6
 62
     3
 48
0.449371
100
AcDbLine
 10
-159.89653
 20
-2222.533691
 30
0.0
 11
-159.89653
 21
-2204.558838
 31
0.0
  0
ARC
  5
88
330
47
100
AcDbEntity
  8
Hawa6
 62
     3
100
AcDbCircle
 10
637.286865
 20
-2212.109863
 30
0.0
 40
797.476257
100
AcDbArc
 50
179.491593
 51
180.00357
  0
LINE
  5
89
330
47
100
AcDbEntity
  8
Hawa6
 62
     3
 48
0.038814
100
AcDbLine
 10
-160.157974
 20
-2205.033691
 30
0.0
 11
-160.142395
 21
-2203.481201
 31
0.0
  0
LWPOLYLINE
  5
8A
330
47
100
AcDbEntity
  8
Hawa6
 62
     3
100
AcDbPolyline
 90
       14
 70
     0
 43
0.0
 10
-159.89653
 20
-2204.558838
 10
-159.939789
 20
-2204.507324
 10
-159.977615
 20
-2204.451172
 10
-160.010254
 20
-2204.390869
 10
-160.038086
 20
-2204.32666
 10
-160.061523
 20
-2204.259277
 10
-160.081024
 20
-2204.188965
 10
-160.097031
 20
-2204.115967
 10
-160.110001
 20
-2204.041016
 10
-160.1203459999999
 20
-2203.964111
 10
-160.128372
 20
-2203.885742
 10
-160.134415
 20
-2203.806152
 10
-160.141373
 20
-2203.644287
 10
-160.142395
 20
-2203.481201
  0
LINE
  5
9A
330
47
100
AcDbEntity
  8
Hawa6
 62
     3
 48
0.259357
100
AcDbLine
 10
-160.189423
 20
-2212.159424
 30
0.0
 11
-160.189423
 21
-2222.533691
 31
0.0
  0
ARC
  5
9B
330
47
100
AcDbEntity
  8
Hawa6
 62
     3
100
AcDbCircle
 10
-137.045898
 20
-2202.533691
 30
0.0
 40
1.5
100
AcDbArc
 50
2.0
 51
90.00000300000001
  0
LINE
  5
9C
330
47
100
AcDbEntity
  8
Hawa6
 62
     3
 48
0.036188
100
AcDbLine
 10
-137.045898
 20
-2201.033691000001
 30
0.0
 11
-137.045898
 21
-2202.481201
 31
0.0
  0
ARC
  5
9D
330
47
100
AcDbEntity
  8
Hawa6
 62
     3
100
AcDbCircle
 10
-160.332947
 20
-2202.533691
 30
0.0
 40
1.5
100
AcDbArc
 50
90.00000300000001
 51
178.000003
  0
LINE
  5
9E
330
47
100
AcDbEntity
  8
Hawa6
 62
     3
 48
0.070302
100
AcDbLine
 10
-155.989426
 20
-2205.033691
 30
0.0
 11
-158.801498
 21
-2205.033691
 31
0.0
  0
LWPOLYLINE
  5
9F
330
47
100
AcDbEntity
  8
Hawa6
 62
     3
100
AcDbPolyline
 90
       10
 70
     0
 43
0.0
 10
-140.189423
 20
-2202.481201
 10
-140.6703639999999
 20
-2201.884766
 10
-140.99678
 20
-2201.486328
 10
-141.178726
 20
-2201.268066
 10
-141.285507
 20
-2201.143066
 10
-141.33812
 20
-2201.083496
 10
-141.373123
 20
-2201.046387
 10
-141.383423
 20
-2201.036865
 10
-141.386765
 20
-2201.034424
 10
-141.388687
 20
-2201.033691000001
  0
LINE
  5
AB
330
47
100
AcDbEntity
  8
Hawa6
 62
     3
 48
0.078588
100
AcDbLine
 10
-140.189423
 20
-2202.481201
 30
0.0
 11
-137.045898
 21
-2202.481201
 31
0.0
  0
LINE
  5
AC
330
47
100
AcDbEntity
  8
Hawa6
 62
     3
 48
0.108588
100
AcDbLine
 10
-141.38942
 20
-2201.033691000001
 30
0.0
 11
-137.045898
 21
-2201.033691000001
 31
0.0
  0
LINE
  5
AD
330
47
100
AcDbEntity
  8
Hawa6
 62
     3
 48
0.108588
100
AcDbLine
 10
-160.332947
 20
-2201.033691000001
 30
0.0
 11
-155.989426
 21
-2201.033691000001
 31
0.0
  0
ELLIPSE
  5
AE
330
47
100
AcDbEntity
  8
Hawa6
 62
     3
100
AcDbEllipse
 10
-160.332947
 20
-2202.533691
 30
0.0
 11
-1.499086260795593
 21
0.0523491762578487
 31
0.0
210
0.0
220
0.0
230
0.9999999999999998
 40
0.034878
 41
4.713606834411621
 42
6.283185482025146
  0
LINE
  5
AF
330
47
100
AcDbEntity
  8
Hawa6
 62
     3
 48
0.036188
100
AcDbLine
 10
-160.332947
 20
-2201.033691000001
 30
0.0
 11
-160.332947
 21
-2202.481201
 31
0.0
  0
LWPOLYLINE
  5
B0
330
47
100
AcDbEntity
  8
Hawa6
 62
     3
100
AcDbPolyline
 90
       10
 70
     0
 43
0.0
 10
-140.189423
 20
-2202.481201
 10
-140.717712
 20
-2202.062256
 10
-141.135117
 20
-2201.736816
 10
-141.373779
 20
-2201.554688
 10
-141.519302
 20
-2201.446289
 10
-141.594986
 20
-2201.391602000001
 10
-141.650085
 20
-2201.354004
 10
-141.681915
 20
-2201.335205
 10
-141.686279
 20
-2201.333252
 10
-141.688507
 20
-2201.333252
  0
ARC
  5
BC
330
47
100
AcDbEntity
  8
Hawa6
 62
     3
100
AcDbCircle
 10
-141.38858
 20
-2201.333496
 30
0.0
 40
0.299909
100
AcDbArc
 50
90.02008299999999
 51
179.950391
  0
ARC
  5
BD
330
47
100
AcDbEntity
  8
Hawa6
 62
     3
100
AcDbCircle
 10
-155.989426
 20
-2201.33374
 30
0.0
 40
0.3
100
AcDbArc
 50
0.0
 51
90.00000300000001
  0
LINE
  5
BE
330
47
100
AcDbEntity
  8
Hawa6
 62
     3
 48
0.078588
100
AcDbLine
 10
-160.332947
 20
-2202.481201
 30
0.0
 11
-157.189423
 21
-2202.481201
 31
0.0
  0
LWPOLYLINE
  5
BF
330
47
100
AcDbEntity
  8
Hawa6
 62
     3
100
AcDbPolyline
 90
       10
 70
     0
 43
0.0
 10
-157.189423
 20
-2202.481201
 10
-156.708481
 20
-2201.884766
 10
-156.382065
 20
-2201.486328
 10
-156.200119
 20
-2201.268066
 10
-156.0933379999999
 20
-2201.143066
 10
-156.040726
 20
-2201.083496
 10
-156.005722
 20
-2201.046387
 10
-155.995422
 20
-2201.036865
 10
-155.992081
 20
-2201.034424
 10
-155.990158
 20
-2201.033691000001
  0
LINE
  5
CC
330
47
100
AcDbEntity
  8
Hawa6
 62
     3
 48
0.025
100
AcDbLine
 10
-140.189423
 20
-2202.481201
 30
0.0
 11
-140.189423
 21
-2203.481201
 31
0.0
  0
LINE
  5
CD
330
47
100
AcDbEntity
  8
Hawa6
 62
     3
 48
0.084998
100
AcDbLine
 10
-141.689423
 20
-2201.33374
 30
0.0
 11
-141.689423
 21
-2204.733643
 31
0.0
  0
LWPOLYLINE
  5
CE
330
47
100
AcDbEntity
  8
Hawa6
 62
     3
100
AcDbPolyline
 90
       10
 70
     0
 43
0.0
 10
-140.189423
 20
-2203.481201
 10
-140.727875
 20
-2203.915283
 10
-141.1516879999999
 20
-2204.262939
 10
-141.391769
 20
-2204.463623
 10
-141.535782
 20
-2204.586914
 10
-141.608841
 20
-2204.651611
 10
-141.659836
 20
-2204.698975
 10
-141.686096
 20
-2204.726807
 10
-141.688919
 20
-2204.730713
 10
-141.689423
 20
-2204.73291
  0
LINE
  5
DA
330
47
100
AcDbEntity
  8
Hawa6
 62
     3
 48
0.084998
100
AcDbLine
 10
-155.689423
 20
-2201.33374
 30
0.0
 11
-155.689423
 21
-2204.733643
 31
0.0
  0
LWPOLYLINE
  5
DB
330
47
100
AcDbEntity
  8
Hawa6
 62
     3
100
AcDbPolyline
 90
        9
 70
     0
 43
0.0
 10
-140.189423
 20
-2203.481201
 10
-140.679535
 20
-2204.098145
 10
-141.010544
 20
-2204.52124
 10
-141.192947
 20
-2204.758545
 10
-141.297791
 20
-2204.898193
 10
-141.365753
 20
-2204.99292
 10
-141.386765
 20
-2205.025879
 10
-141.389023
 20
-2205.030273
 10
-141.38942
 20
-2205.032715
  0
ELLIPSE
  5
E6
330
47
100
AcDbEntity
  8
Hawa6
 62
     3
100
AcDbEllipse
 10
-141.38942
 20
-2204.73291
 30
0.0
 11
0.3000000119209289
 21
0.0
 31
0.0
210
0.0
220
0.0
230
1.0
 40
0.9993909999999999
 41
3.141592741012573
 42
4.71238899230957
  0
LWPOLYLINE
  5
E7
330
47
100
AcDbEntity
  8
Hawa6
 62
     3
100
AcDbPolyline
 90
       10
 70
     0
 43
0.0
 10
-157.189423
 20
-2203.481201
 10
-156.65097
 20
-2203.915283
 10
-156.227158
 20
-2204.262939
 10
-155.987076
 20
-2204.463623
 10
-155.843063
 20
-2204.586914
 10
-155.770004
 20
-2204.651611
 10
-155.719009
 20
-2204.698975
 10
-155.692749
 20
-2204.726807
 10
-155.689926
 20
-2204.730713
 10
-155.689423
 20
-2204.73291
  0
LWPOLYLINE
  5
F3
330
47
100
AcDbEntity
  8
Hawa6
 62
     3
100
AcDbPolyline
 90
       10
 70
     0
 43
0.0
 10
-157.189423
 20
-2202.481201
 10
-156.661133
 20
-2202.062256
 10
-156.243729
 20
-2201.736816
 10
-156.005066
 20
-2201.554688
 10
-155.859543
 20
-2201.446289
 10
-155.783859
 20
-2201.391602000001
 10
-155.72876
 20
-2201.354004
 10
-155.69693
 20
-2201.335205
 10
-155.692566
 20
-2201.333252
 10
-155.690338
 20
-2201.333252
  0
LINE
  5
FF
330
47
100
AcDbEntity
  8
Hawa6
 62
     3
 48
0.025
100
AcDbLine
 10
-157.189423
 20
-2202.481201
 30
0.0
 11
-157.189423
 21
-2203.481201
 31
0.0
  0
ARC
  5
100
330
47
100
AcDbEntity
  8
Hawa6
 62
     3
100
AcDbCircle
 10
-138.577347
 20
-2203.533691
 30
0.0
 40
1.499997999999999
100
AcDbArc
 50
269.999997
 51
316.88815
  0
LWPOLYLINE
  5
101
330
47
100
AcDbEntity
  8
Hawa6
 62
     3
100
AcDbPolyline
 90
       14
 70
     0
 43
0.0
 10
-137.482315
 20
-2204.558838
 10
-137.439056
 20
-2204.507324
 10
-137.40123
 20
-2204.451172
 10
-137.368591
 20
-2204.390869
 10
-137.340759
 20
-2204.32666
 10
-137.317322
 20
-2204.259277
 10
-137.297821
 20
-2204.188965
 10
-137.281815
 20
-2204.115967
 10
-137.268829
 20
-2204.041016
 10
-137.258499
 20
-2203.964111
 10
-137.250473
 20
-2203.885742
 10
-137.244431
 20
-2203.806152
 10
-137.237473
 20
-2203.644287
 10
-137.23645
 20
-2203.481201
  0
LINE
  5
111
330
47
100
AcDbEntity
  8
Hawa6
 62
     3
 48
0.073824
100
AcDbLine
 10
-137.23645
 20
-2203.481201
 30
0.0
 11
-140.189423
 21
-2203.481201
 31
0.0
  0
LINE
  5
112
330
47
100
AcDbEntity
  8
Hawa6
 62
     3
 48
0.070302
100
AcDbLine
 10
-138.577347
 20
-2205.033691
 30
0.0
 11
-141.38942
 21
-2205.033691
 31
0.0
  0
ELLIPSE
  5
113
330
47
100
AcDbEntity
  8
Hawa6
 62
     3
100
AcDbEllipse
 10
-155.989426
 20
-2204.73291
 30
0.0
 11
-0.300000011920929
 21
-0.0000000262268358
 31
0.0
210
0.0
220
0.0
230
1.0
 40
0.9993909999999999
 41
1.570796370506286
 42
3.141592741012573
  0
LWPOLYLINE
  5
114
330
47
100
AcDbEntity
  8
Hawa6
 62
     3
100
AcDbPolyline
 90
        9
 70
     0
 43
0.0
 10
-157.189423
 20
-2203.481201
 10
-156.69931
 20
-2204.098145
 10
-156.368301
 20
-2204.52124
 10
-156.185898
 20
-2204.758545
 10
-156.081055
 20
-2204.898193
 10
-156.013092
 20
-2204.99292
 10
-155.992081
 20
-2205.025879
 10
-155.989822
 20
-2205.030273
 10
-155.989426
 20
-2205.032715
  0
ARC
  5
11F
330
47
100
AcDbEntity
  8
Hawa6
 62
     3
100
AcDbCircle
 10
-141.38942
 20
-2204.733643
 30
0.0
 40
0.3
100
AcDbArc
 50
180.000005
 51
270.000001
  0
ARC
  5
120
330
47
100
AcDbEntity
  8
Hawa6
 62
     3
100
AcDbCircle
 10
-155.989426
 20
-2204.733643
 30
0.0
 40
0.3
100
AcDbArc
 50
270.000001
 51
0.00001
  0
LINE
  5
122
330
47
100
AcDbEntity
  8
Hawa6
 62
     3
 48
0.073824
100
AcDbLine
 10
-157.189423
 20
-2203.481201
 30
0.0
 11
-160.142395
 21
-2203.481201
 31
0.0
  0
LINE
  5
123
330
47
100
AcDbEntity
  8
Hawa6
 62
     3
 48
0.063251
100
AcDbLine
 10
-138.790115
 20
-2222.533691
 30
0.0
 11
-138.790115
 21
-2220.003662
 31
0.0
  0
LINE
  5
124
330
47
100
AcDbEntity
  8
Hawa6
 62
     3
 48
0.061749
100
AcDbLine
 10
-138.790115
 20
-2207.503662
 30
0.0
 11
-138.790115
 21
-2205.033691
 31
0.0
  0
LINE
  5
125
330
47
100
AcDbEntity
  8
Hawa6
 62
     3
 48
0.449371
100
AcDbLine
 10
-137.482315
 20
-2222.533691
 30
0.0
 11
-137.482315
 21
-2204.558838
 31
0.0
  0
LINE
  5
126
330
47
100
AcDbEntity
  8
Hawa6
 62
     3
 48
0.038814
100
AcDbLine
 10
-137.220871
 20
-2205.033691
 30
0.0
 11
-137.23645
 21
-2203.481201
 31
0.0
  0
ARC
  5
127
330
47
100
AcDbEntity
  8
Hawa6
 62
     3
100
AcDbCircle
 10
-934.6657099999999
 20
-2212.109863
 30
0.0
 40
797.476257
100
AcDbArc
 50
359.996433
 51
0.5084080000000001
  0
LINE
  5
128
330
47
100
AcDbEntity
  8
Hawa6
 62
     3
 48
0.259357
100
AcDbLine
 10
-137.189423
 20
-2212.159424
 30
0.0
 11
-137.189423
 21
-2222.533691
 31
0.0
  0
LINE
  5
129
330
47
100
AcDbEntity
  8
Hawa6
 62
     3
100
AcDbLine
 10
-160.332947
 20
-2202.481201
 30
0.0
 11
-161.190338
 21
-2227.033691
 31
0.0
  0
LINE
  5
12A
330
47
100
AcDbEntity
  8
Hawa6
 62
     3
 48
0.045875
100
AcDbLine
 10
-160.189423
 20
-2222.533691
 30
0.0
 11
-158.354416
 21
-2222.533691
 31
0.0
  0
LINE
  5
12B
330
47
100
AcDbEntity
  8
Hawa6
 62
     3
 48
0.241625
100
AcDbLine
 10
-158.354416
 20
-2222.533691
 30
0.0
 11
-148.689423
 21
-2222.533691
 31
0.0
  0
LINE
  5
12C
330
47
100
AcDbEntity
  8
Hawa6
 62
     3
 48
0.241625
100
AcDbLine
 10
-148.689423
 20
-2222.533691
 30
0.0
 11
-139.024429
 21
-2222.533691
 31
0.0
  0
LINE
  5
12D
330
47
100
AcDbEntity
  8
Hawa6
 62
     3
 48
0.045875
100
AcDbLine
 10
-139.024429
 20
-2222.533691
 30
0.0
 11
-137.189423
 21
-2222.533691
 31
0.0
  0
LINE
  5
12E
330
47
100
AcDbEntity
  8
Hawa6
 62
     3
 48
0.063251
100
AcDbLine
 10
-158.354416
 20
-2222.533691
 30
0.0
 11
-158.354416
 21
-2220.003662
 31
0.0
  0
LINE
  5
12F
330
47
100
AcDbEntity
  8
Hawa6
 62
     3
 48
0.061749
100
AcDbLine
 10
-158.354416
 20
-2207.503662
 30
0.0
 11
-158.354416
 21
-2205.033691
 31
0.0
  0
LINE
  5
130
330
47
100
AcDbEntity
  8
Hawa6
 62
     3
 48
0.061749
100
AcDbLine
 10
-139.024429
 20
-2205.033691
 30
0.0
 11
-139.024429
 21
-2207.503662
 31
0.0
  0
LINE
  5
131
330
47
100
AcDbEntity
  8
Hawa6
 62
     3
 48
0.063251
100
AcDbLine
 10
-139.024429
 20
-2220.003662
 30
0.0
 11
-139.024429
 21
-2222.533691
 31
0.0
  0
ELLIPSE
  5
132
330
47
100
AcDbEntity
  8
Hawa6
 62
     3
100
AcDbEllipse
 10
-156.991226
 20
-2210.003662
 30
0.0
 11
0.0000000387558607
 21
-3.25
 31
0.0
210
0.0
220
0.0
230
0.9999999999999998
 40
0.017452
 41
2.455022573471068
 42
3.141592741012573
  0
ELLIPSE
  5
133
330
47
100
AcDbEntity
  8
Hawa6
 62
     3
100
AcDbEllipse
 10
-156.991226
 20
-2210.003662
 30
0.0
 11
0.0000000387558607
 21
-3.25
 31
0.0
210
0.0
220
0.0
230
0.9999999999999998
 40
0.017452
 41
3.141592741012573
 42
3.839635372161865
  0
ELLIPSE
  5
134
330
47
100
AcDbEntity
  8
Hawa6
 62
     3
100
AcDbEllipse
 10
-157.043594
 20
-2219.753662
 30
0.0
 11
0.0000000119248806
 21
-1.0
 31
0.0
210
0.0
220
0.0
230
1.0
 40
0.017452
 41
4.96506929397583
 42
6.283185482025146
  0
LINE
  5
135
330
47
100
AcDbEntity
  8
Hawa6
 62
     3
 48
0.002618
100
AcDbLine
 10
-157.043594
 20
-2220.753662
 30
0.0
 11
-156.938873
 21
-2220.753662
 31
0.0
  0
ELLIPSE
  5
136
330
47
100
AcDbEntity
  8
Hawa6
 62
     3
100
AcDbEllipse
 10
-156.938873
 20
-2219.753662
 30
0.0
 11
0.0000000119248806
 21
-1.0
 31
0.0
210
0.0
220
0.0
230
1.0
 40
0.017452
 41
6.283185482025146
 42
7.600130081176757
  0
LINE
  5
137
330
47
100
AcDbEntity
  8
Hawa6
 62
     3
 48
0.011346
100
AcDbLine
 10
-157.092453
 20
-2206.628662
 30
0.0
 11
-157.546295
 21
-2206.628662
 31
0.0
  0
LWPOLYLINE
  5
138
330
47
100
AcDbEntity
  8
Hawa6
 62
     3
100
AcDbPolyline
 90
        8
 70
     0
 43
0.0
 10
-157.563614
 20
-2207.503662
 10
-157.560333
 20
-2207.035156
 10
-157.556076
 20
-2206.800537
 10
-157.552109
 20
-2206.686035
 10
-157.54924
 20
-2206.643066
 10
-157.547775
 20
-2206.632324
 10
-157.547073
 20
-2206.629639
 10
-157.546295
 20
-2206.628662
  0
LINE
  5
142
330
47
100
AcDbEntity
  8
Hawa6
 62
     3
 48
0.061749
100
AcDbLine
 10
-156.916321
 20
-2207.503662
 30
0.0
 11
-156.916321
 21
-2205.033691
 31
0.0
  0
LINE
  5
143
330
47
100
AcDbEntity
  8
Hawa6
 62
     3
 48
0.063251
100
AcDbLine
 10
-156.916321
 20
-2222.533691
 30
0.0
 11
-156.916321
 21
-2220.003662
 31
0.0
  0
LINE
  5
144
330
47
100
AcDbEntity
  8
Hawa6
 62
     3
 48
0.063251
100
AcDbLine
 10
-157.689423
 20
-2220.003662
 30
0.0
 11
-157.689423
 21
-2222.533691
 31
0.0
  0
LWPOLYLINE
  5
145
330
47
100
AcDbEntity
  8
Hawa6
 62
     3
100
AcDbPolyline
 90
        8
 70
     0
 43
0.0
 10
-157.563614
 20
-2220.003662
 10
-157.560333
 20
-2220.472168
 10
-157.556076
 20
-2220.706787
 10
-157.552109
 20
-2220.821289
 10
-157.54924
 20
-2220.864258
 10
-157.547775
 20
-2220.875
 10
-157.547073
 20
-2220.877686
 10
-157.546295
 20
-2220.878662
  0
LINE
  5
14F
330
47
100
AcDbEntity
  8
Hawa6
 62
     3
 48
0.011346
100
AcDbLine
 10
-157.546295
 20
-2220.878662
 30
0.0
 11
-157.092453
 21
-2220.878662
 31
0.0
  0
ELLIPSE
  5
150
330
47
100
AcDbEntity
  8
Hawa6
 62
     3
100
AcDbEllipse
 10
-157.092453
 20
-2219.878662
 30
0.0
 11
0.000000011924846
 21
-0.9999970793724058
 31
0.0
210
0.0
220
0.0
230
1.0
 40
0.017455
 41
6.283185005187987
 42
7.728149890899657
  0
ELLIPSE
  5
151
330
47
100
AcDbEntity
  8
Hawa6
 62
     3
100
AcDbEllipse
 10
-157.092453
 20
-2207.628662
 30
0.0
 11
0.000000011924846
 21
-0.9999970793724058
 31
0.0
210
0.0
220
0.0
230
1.0
 40
0.017455
 41
1.696577787399291
 42
3.141592979431151
  0
LINE
  5
152
330
47
100
AcDbEntity
  8
Hawa6
 62
     3
 48
0.061749
100
AcDbLine
 10
-157.689423
 20
-2205.033691
 30
0.0
 11
-157.689423
 21
-2207.503662
 31
0.0
  0
LINE
  5
153
330
47
100
AcDbEntity
  8
Hawa6
 62
     3
 48
0.0075
100
AcDbLine
 10
-158.289429
 20
-2207.503662
 30
0.0
 11
-158.589417
 21
-2207.503662
 31
0.0
  0
LINE
  5
154
330
47
100
AcDbEntity
  8
Hawa6
 62
     3
 48
0.0525
100
AcDbLine
 10
-156.189423
 20
-2207.503662
 30
0.0
 11
-158.289429
 21
-2207.503662
 31
0.0
  0
LINE
  5
155
330
47
100
AcDbEntity
  8
Hawa6
 62
     3
 48
0.0125
100
AcDbLine
 10
-155.689423
 20
-2207.503662
 30
0.0
 11
-156.189423
 21
-2207.503662
 31
0.0
  0
LINE
  5
156
330
47
100
AcDbEntity
  8
Hawa6
 62
     3
 48
0.062482
100
AcDbLine
 10
-153.189423
 20
-2207.503662
 30
0.0
 11
-155.688705
 21
-2207.503662
 31
0.0
  0
LINE
  5
157
330
47
100
AcDbEntity
  8
Hawa6
 62
     3
 48
0.024577
100
AcDbLine
 10
-154.687759
 20
-2207.503662
 30
0.0
 11
-155.670853
 21
-2207.503662
 31
0.0
  0
LINE
  5
158
330
47
100
AcDbEntity
  8
Hawa6
 62
     3
 48
0.0075
100
AcDbLine
 10
-158.289429
 20
-2220.003662
 30
0.0
 11
-158.589417
 21
-2220.003662
 31
0.0
  0
LINE
  5
159
330
47
100
AcDbEntity
  8
Hawa6
 62
     3
 48
0.0525
100
AcDbLine
 10
-158.289429
 20
-2220.003662
 30
0.0
 11
-156.189423
 21
-2220.003662
 31
0.0
  0
LINE
  5
15A
330
47
100
AcDbEntity
  8
Hawa6
 62
     3
 48
0.0125
100
AcDbLine
 10
-155.689423
 20
-2220.003662
 30
0.0
 11
-156.189423
 21
-2220.003662
 31
0.0
  0
LINE
  5
15B
330
47
100
AcDbEntity
  8
Hawa6
 62
     3
 48
0.062429
100
AcDbLine
 10
-153.189423
 20
-2220.003662
 30
0.0
 11
-155.686569
 21
-2220.003662
 31
0.0
  0
LINE
  5
15C
330
47
100
AcDbEntity
  8
Hawa6
 62
     3
 48
0.02
100
AcDbLine
 10
-158.289429
 20
-2208.003662
 30
0.0
 11
-159.089417
 21
-2208.003662
 31
0.0
  0
LINE
  5
15D
330
47
100
AcDbEntity
  8
Hawa6
 62
     3
 48
0.0125
100
AcDbLine
 10
-158.289429
 20
-2207.503662
 30
0.0
 11
-158.289429
 21
-2208.003662
 31
0.0
  0
LINE
  5
15E
330
47
100
AcDbEntity
  8
Hawa6
 62
     3
 48
0.0525
100
AcDbLine
 10
-156.189423
 20
-2208.003662
 30
0.0
 11
-158.289429
 21
-2208.003662
 31
0.0
  0
LINE
  5
15F
330
47
100
AcDbEntity
  8
Hawa6
 62
     3
 48
0.0125
100
AcDbLine
 10
-156.189423
 20
-2207.503662
 30
0.0
 11
-156.189423
 21
-2208.003662
 31
0.0
  0
LINE
  5
160
330
47
100
AcDbEntity
  8
Hawa6
 62
     3
 48
0.025
100
AcDbLine
 10
-155.189423
 20
-2208.003662
 30
0.0
 11
-156.189423
 21
-2208.003662
 31
0.0
  0
ARC
  5
161
330
47
100
AcDbEntity
  8
Hawa6
 62
     3
100
AcDbCircle
 10
-155.689423
 20
-2208.003662
 30
0.0
 40
0.5
100
AcDbArc
 50
0.0
 51
90.00000300000001
  0
LINE
  5
162
330
47
100
AcDbEntity
  8
Hawa6
 62
     3
 48
0.0625
100
AcDbLine
 10
-152.689423
 20
-2208.003662
 30
0.0
 11
-155.189423
 21
-2208.003662
 31
0.0
  0
ELLIPSE
  5
163
330
47
100
AcDbEntity
  8
Hawa6
 62
     3
100
AcDbEllipse
 10
-155.670853
 20
-2208.003662
 30
0.0
 11
-0.0000000218556941
 21
0.5
 31
0.0
210
0.0
220
0.0
230
1.0
 40
0.9741290000000001
 41
6.283185482025146
 42
6.291244506835937
  0
LINE
  5
164
330
47
100
AcDbEntity
  8
Hawa6
 62
     3
 48
0.0125
100
AcDbLine
 10
-158.289429
 20
-2219.503662
 30
0.0
 11
-158.289429
 21
-2220.003662
 31
0.0
  0
LINE
  5
165
330
47
100
AcDbEntity
  8
Hawa6
 62
     3
 48
0.02
100
AcDbLine
 10
-158.289429
 20
-2219.503662
 30
0.0
 11
-159.089417
 21
-2219.503662
 31
0.0
  0
LINE
  5
166
330
47
100
AcDbEntity
  8
Hawa6
 62
     3
 48
0.0125
100
AcDbLine
 10
-156.189423
 20
-2219.503662
 30
0.0
 11
-156.189423
 21
-2220.003662
 31
0.0
  0
LINE
  5
167
330
47
100
AcDbEntity
  8
Hawa6
 62
     3
 48
0.0525
100
AcDbLine
 10
-158.289429
 20
-2219.503662
 30
0.0
 11
-156.189423
 21
-2219.503662
 31
0.0
  0
ARC
  5
168
330
47
100
AcDbEntity
  8
Hawa6
 62
     3
100
AcDbCircle
 10
-155.689423
 20
-2219.503662
 30
0.0
 40
0.5
100
AcDbArc
 50
270.000001
 51
0.00001
  0
LINE
  5
169
330
47
100
AcDbEntity
  8
Hawa6
 62
     3
 48
0.025
100
AcDbLine
 10
-155.189423
 20
-2219.503662
 30
0.0
 11
-156.189423
 21
-2219.503662
 31
0.0
  0
LINE
  5
16A
330
47
100
AcDbEntity
  8
Hawa6
 62
     3
 48
0.0625
100
AcDbLine
 10
-152.689423
 20
-2219.503662
 30
0.0
 11
-155.189423
 21
-2219.503662
 31
0.0
  0
LINE
  5
16B
330
47
100
AcDbEntity
  8
Hawa6
 62
     3
 48
0.2875
100
AcDbLine
 10
-158.289429
 20
-2219.503662
 30
0.0
 11
-158.289429
 21
-2208.003662
 31
0.0
  0
LINE
  5
16C
330
47
100
AcDbEntity
  8
Hawa6
 62
     3
 48
0.2875
100
AcDbLine
 10
-156.189423
 20
-2219.503662
 30
0.0
 11
-156.189423
 21
-2208.003662
 31
0.0
  0
LINE
  5
16D
330
47
100
AcDbEntity
  8
Hawa6
 62
     3
 48
0.2875
100
AcDbLine
 10
-155.189423
 20
-2219.503662
 30
0.0
 11
-155.189423
 21
-2208.003662
 31
0.0
  0
ARC
  5
170
330
47
100
AcDbEntity
  8
Hawa6
 62
     3
100
AcDbCircle
 10
-158.589417
 20
-2208.003662
 30
0.0
 40
0.5
100
AcDbArc
 50
89.999996
 51
180.000005
  0
ARC
  5
171
330
47
100
AcDbEntity
  8
Hawa6
 62
     3
100
AcDbCircle
 10
-153.189423
 20
-2208.003662
 30
0.0
 40
0.5
100
AcDbArc
 50
360.0
 51
90.00000300000001
  0
ARC
  5
172
330
47
100
AcDbEntity
  8
Hawa6
 62
     3
100
AcDbCircle
 10
-158.589417
 20
-2219.503662
 30
0.0
 40
0.5
100
AcDbArc
 50
180.000005
 51
270.000001
  0
ARC
  5
173
330
47
100
AcDbEntity
  8
Hawa6
 62
     3
100
AcDbCircle
 10
-153.189423
 20
-2219.503662
 30
0.0
 40
0.5
100
AcDbArc
 50
269.999997
 51
0.0
  0
LINE
  5
174
330
47
100
AcDbEntity
  8
Hawa6
 62
     3
 48
0.2875
100
AcDbLine
 10
-159.089417
 20
-2219.503662
 30
0.0
 11
-159.089417
 21
-2208.003662
 31
0.0
  0
LINE
  5
175
330
47
100
AcDbEntity
  8
Hawa6
 62
     3
 48
0.086749
100
AcDbLine
 10
-152.689423
 20
-2219.503662
 30
0.0
 11
-152.689423
 21
-2216.033691
 31
0.0
  0
ELLIPSE
  5
176
330
47
100
AcDbEntity
  8
Hawa6
 62
     3
100
AcDbEllipse
 10
-140.387619
 20
-2217.503662
 30
0.0
 11
-0.0000001420620208
 21
3.25
 31
0.0
210
0.0
220
0.0
230
0.9999999999999998
 40
0.017452
 41
2.448406934738159
 42
3.141592741012573
  0
ELLIPSE
  5
177
330
47
100
AcDbEntity
  8
Hawa6
 62
     3
100
AcDbEllipse
 10
-140.387619
 20
-2217.503662
 30
0.0
 11
-0.0000001420620208
 21
3.25
 31
0.0
210
0.0
220
0.0
230
0.9999999999999998
 40
0.017452
 41
3.141592741012573
 42
3.834778785705566
  0
ELLIPSE
  5
178
330
47
100
AcDbEntity
  8
Hawa6
 62
     3
100
AcDbEllipse
 10
-140.335251
 20
-2207.753662
 30
0.0
 11
-0.0000000437113883
 21
1.0
 31
0.0
210
0.0
220
0.0
230
1.0
 40
0.017452
 41
4.965005874633789
 42
6.283185482025146
  0
LINE
  5
179
330
47
100
AcDbEntity
  8
Hawa6
 62
     3
 48
0.002618
100
AcDbLine
 10
-140.335251
 20
-2206.753662
 30
0.0
 11
-140.4399719999999
 21
-2206.753662
 31
0.0
  0
ELLIPSE
  5
17A
330
47
100
AcDbEntity
  8
Hawa6
 62
     3
100
AcDbEllipse
 10
-140.4399719999999
 20
-2207.753662
 30
0.0
 11
-0.0000000437113883
 21
1.0
 31
0.0
210
0.0
220
0.0
230
1.0
 40
0.017452
 41
0.0000000000000271
 42
1.317010045051574
  0
LINE
  5
17B
330
47
100
AcDbEntity
  8
Hawa6
 62
     3
 48
0.011346
100
AcDbLine
 10
-140.286392
 20
-2220.878662
 30
0.0
 11
-139.83255
 21
-2220.878662
 31
0.0
  0
LWPOLYLINE
  5
17C
330
47
100
AcDbEntity
  8
Hawa6
 62
     3
100
AcDbPolyline
 90
        8
 70
     0
 43
0.0
 10
-139.815231
 20
-2220.003662
 10
-139.818512
 20
-2220.472168
 10
-139.822769
 20
-2220.706787
 10
-139.826736
 20
-2220.821289
 10
-139.829605
 20
-2220.864258
 10
-139.83107
 20
-2220.875
 10
-139.831772
 20
-2220.877686
 10
-139.83255
 20
-2220.878662
  0
LINE
  5
186
330
47
100
AcDbEntity
  8
Hawa6
 62
     3
 48
0.063251
100
AcDbLine
 10
-140.462524
 20
-2220.003662
 30
0.0
 11
-140.462524
 21
-2222.533691
 31
0.0
  0
LINE
  5
187
330
47
100
AcDbEntity
  8
Hawa6
 62
     3
 48
0.061749
100
AcDbLine
 10
-140.462524
 20
-2205.033691
 30
0.0
 11
-140.462524
 21
-2207.503662
 31
0.0
  0
LINE
  5
188
330
47
100
AcDbEntity
  8
Hawa6
 62
     3
 48
0.061749
100
AcDbLine
 10
-139.689423
 20
-2207.503662
 30
0.0
 11
-139.689423
 21
-2205.033691
 31
0.0
  0
LWPOLYLINE
  5
189
330
47
100
AcDbEntity
  8
Hawa6
 62
     3
100
AcDbPolyline
 90
        8
 70
     0
 43
0.0
 10
-139.815231
 20
-2207.503662
 10
-139.818512
 20
-2207.035156
 10
-139.822769
 20
-2206.800537
 10
-139.826736
 20
-2206.686035
 10
-139.829605
 20
-2206.643066
 10
-139.83107
 20
-2206.632324
 10
-139.831772
 20
-2206.629639
 10
-139.83255
 20
-2206.628662
  0
LINE
  5
193
330
47
100
AcDbEntity
  8
Hawa6
 62
     3
 48
0.011346
100
AcDbLine
 10
-139.83255
 20
-2206.628662
 30
0.0
 11
-140.286392
 21
-2206.628662
 31
0.0
  0
ELLIPSE
  5
194
330
47
100
AcDbEntity
  8
Hawa6
 62
     3
100
AcDbEllipse
 10
-140.286392
 20
-2207.628662
 30
0.0
 11
0.000000011924846
 21
-0.9999970793724058
 31
0.0
210
0.0
220
0.0
230
1.0
 40
0.017455
 41
3.141592264175415
 42
4.586607456207275
  0
ELLIPSE
  5
195
330
47
100
AcDbEntity
  8
Hawa6
 62
     3
100
AcDbEllipse
 10
-140.286392
 20
-2219.878662
 30
0.0
 11
0.000000011924846
 21
-0.9999970793724058
 31
0.0
210
0.0
220
0.0
230
1.0
 40
0.017455
 41
4.838220596313476
 42
6.283185482025146
  0
LINE
  5
196
330
47
100
AcDbEntity
  8
Hawa6
 62
     3
 48
0.063251
100
AcDbLine
 10
-139.689423
 20
-2222.533691
 30
0.0
 11
-139.689423
 21
-2220.003662
 31
0.0
  0
LINE
  5
197
330
47
100
AcDbEntity
  8
Hawa6
 62
     3
 48
0.0075
100
AcDbLine
 10
-139.089417
 20
-2220.003662
 30
0.0
 11
-138.789429
 21
-2220.003662
 31
0.0
  0
LINE
  5
198
330
47
100
AcDbEntity
  8
Hawa6
 62
     3
 48
0.0525
100
AcDbLine
 10
-141.189423
 20
-2220.003662
 30
0.0
 11
-139.089417
 21
-2220.003662
 31
0.0
  0
LINE
  5
199
330
47
100
AcDbEntity
  8
Hawa6
 62
     3
 48
0.0125
100
AcDbLine
 10
-141.689423
 20
-2220.003662
 30
0.0
 11
-141.189423
 21
-2220.003662
 31
0.0
  0
LINE
  5
19A
330
47
100
AcDbEntity
  8
Hawa6
 62
     3
 48
0.062428
100
AcDbLine
 10
-144.189423
 20
-2220.003662
 30
0.0
 11
-141.692291
 21
-2220.003662
 31
0.0
  0
LINE
  5
19B
330
47
100
AcDbEntity
  8
Hawa6
 62
     3
 48
0.0075
100
AcDbLine
 10
-139.089417
 20
-2207.503662
 30
0.0
 11
-138.789429
 21
-2207.503662
 31
0.0
  0
LINE
  5
19C
330
47
100
AcDbEntity
  8
Hawa6
 62
     3
 48
0.0525
100
AcDbLine
 10
-139.089417
 20
-2207.503662
 30
0.0
 11
-141.189423
 21
-2207.503662
 31
0.0
  0
LINE
  5
19D
330
47
100
AcDbEntity
  8
Hawa6
 62
     3
 48
0.0125
100
AcDbLine
 10
-141.689423
 20
-2207.503662
 30
0.0
 11
-141.189423
 21
-2207.503662
 31
0.0
  0
LINE
  5
19E
330
47
100
AcDbEntity
  8
Hawa6
 62
     3
 48
0.062482
100
AcDbLine
 10
-144.189423
 20
-2207.503662
 30
0.0
 11
-141.690155
 21
-2207.503662
 31
0.0
  0
LINE
  5
19F
330
47
100
AcDbEntity
  8
Hawa6
 62
     3
 48
0.024577
100
AcDbLine
 10
-142.691086
 20
-2207.503662
 30
0.0
 11
-141.707993
 21
-2207.503662
 31
0.0
  0
LINE
  5
1A0
330
47
100
AcDbEntity
  8
Hawa6
 62
     3
 48
0.02
100
AcDbLine
 10
-139.089417
 20
-2219.503662
 30
0.0
 11
-138.289429
 21
-2219.503662
 31
0.0
  0
LINE
  5
1A1
330
47
100
AcDbEntity
  8
Hawa6
 62
     3
 48
0.0125
100
AcDbLine
 10
-139.089417
 20
-2220.003662
 30
0.0
 11
-139.089417
 21
-2219.503662
 31
0.0
  0
LINE
  5
1A2
330
47
100
AcDbEntity
  8
Hawa6
 62
     3
 48
0.0525
100
AcDbLine
 10
-141.189423
 20
-2219.503662
 30
0.0
 11
-139.089417
 21
-2219.503662
 31
0.0
  0
LINE
  5
1A3
330
47
100
AcDbEntity
  8
Hawa6
 62
     3
 48
0.0125
100
AcDbLine
 10
-141.189423
 20
-2220.003662
 30
0.0
 11
-141.189423
 21
-2219.503662
 31
0.0
  0
LINE
  5
1A4
330
47
100
AcDbEntity
  8
Hawa6
 62
     3
 48
0.025
100
AcDbLine
 10
-142.189423
 20
-2219.503662
 30
0.0
 11
-141.189423
 21
-2219.503662
 31
0.0
  0
ARC
  5
1A5
330
47
100
AcDbEntity
  8
Hawa6
 62
     3
100
AcDbCircle
 10
-141.689423
 20
-2219.503662
 30
0.0
 40
0.5
100
AcDbArc
 50
180.000005
 51
270.000001
  0
LINE
  5
1A6
330
47
100
AcDbEntity
  8
Hawa6
 62
     3
 48
0.0625
100
AcDbLine
 10
-144.689423
 20
-2219.503662
 30
0.0
 11
-142.189423
 21
-2219.503662
 31
0.0
  0
LINE
  5
1A7
330
47
100
AcDbEntity
  8
Hawa6
 62
     3
 48
0.0125
100
AcDbLine
 10
-139.089417
 20
-2208.003662
 30
0.0
 11
-139.089417
 21
-2207.503662
 31
0.0
  0
LINE
  5
1A8
330
47
100
AcDbEntity
  8
Hawa6
 62
     3
 48
0.02
100
AcDbLine
 10
-139.089417
 20
-2208.003662
 30
0.0
 11
-138.289429
 21
-2208.003662
 31
0.0
  0
LINE
  5
1A9
330
47
100
AcDbEntity
  8
Hawa6
 62
     3
 48
0.0125
100
AcDbLine
 10
-141.189423
 20
-2208.003662
 30
0.0
 11
-141.189423
 21
-2207.503662
 31
0.0
  0
LINE
  5
1AA
330
47
100
AcDbEntity
  8
Hawa6
 62
     3
 48
0.0525
100
AcDbLine
 10
-139.089417
 20
-2208.003662
 30
0.0
 11
-141.189423
 21
-2208.003662
 31
0.0
  0
ARC
  5
1AB
330
47
100
AcDbEntity
  8
Hawa6
 62
     3
100
AcDbCircle
 10
-141.689423
 20
-2208.003662
 30
0.0
 40
0.5
100
AcDbArc
 50
90.00000300000001
 51
180.000005
  0
LINE
  5
1AC
330
47
100
AcDbEntity
  8
Hawa6
 62
     3
 48
0.025
100
AcDbLine
 10
-142.189423
 20
-2208.003662
 30
0.0
 11
-141.189423
 21
-2208.003662
 31
0.0
  0
LINE
  5
1AD
330
47
100
AcDbEntity
  8
Hawa6
 62
     3
 48
0.0625
100
AcDbLine
 10
-144.689423
 20
-2208.003662
 30
0.0
 11
-142.189423
 21
-2208.003662
 31
0.0
  0
LINE
  5
1AE
330
47
100
AcDbEntity
  8
Hawa6
 62
     3
 48
0.2875
100
AcDbLine
 10
-139.089417
 20
-2208.003662
 30
0.0
 11
-139.089417
 21
-2219.503662
 31
0.0
  0
LINE
  5
1AF
330
47
100
AcDbEntity
  8
Hawa6
 62
     3
 48
0.2875
100
AcDbLine
 10
-141.189423
 20
-2208.003662
 30
0.0
 11
-141.189423
 21
-2219.503662
 31
0.0
  0
LINE
  5
1B0
330
47
100
AcDbEntity
  8
Hawa6
 62
     3
 48
0.2875
100
AcDbLine
 10
-142.189423
 20
-2208.003662
 30
0.0
 11
-142.189423
 21
-2219.503662
 31
0.0
  0
ARC
  5
1B3
330
47
100
AcDbEntity
  8
Hawa6
 62
     3
100
AcDbCircle
 10
-138.789429
 20
-2219.503662
 30
0.0
 40
0.5
100
AcDbArc
 50
269.999997
 51
0.0
  0
ARC
  5
1B4
330
47
100
AcDbEntity
  8
Hawa6
 62
     3
100
AcDbCircle
 10
-144.189423
 20
-2219.503662
 30
0.0
 40
0.5
100
AcDbArc
 50
180.000005
 51
270.000001
  0
ARC
  5
1B5
330
47
100
AcDbEntity
  8
Hawa6
 62
     3
100
AcDbCircle
 10
-138.789429
 20
-2208.003662
 30
0.0
 40
0.5
100
AcDbArc
 50
360.0
 51
90.00000300000001
  0
ARC
  5
1B6
330
47
100
AcDbEntity
  8
Hawa6
 62
     3
100
AcDbCircle
 10
-144.189423
 20
-2208.003662
 30
0.0
 40
0.5
100
AcDbArc
 50
90.00000300000001
 51
180.000005
  0
LINE
  5
1B7
330
47
100
AcDbEntity
  8
Hawa6
 62
     3
 48
0.000101
100
AcDbLine
 10
-141.688599
 20
-2207.503662
 30
0.0
 11
-141.68454
 21
-2207.503662
 31
0.0
  0
LINE
  5
1B8
330
47
100
AcDbEntity
  8
Hawa6
 62
     3
 48
0.2875
100
AcDbLine
 10
-138.289429
 20
-2208.003662
 30
0.0
 11
-138.289429
 21
-2219.503662
 31
0.0
  0
LINE
  5
1B9
330
47
100
AcDbEntity
  8
Hawa6
 62
     3
 48
0.2875
100
AcDbLine
 10
-144.689423
 20
-2208.003662
 30
0.0
 11
-144.689423
 21
-2219.503662
 31
0.0
  0
LWPOLYLINE
  5
1BA
330
47
100
AcDbEntity
  8
Hawa5
 62
     1
100
AcDbPolyline
 90
       18
 70
     0
 43
0.0
 10
-147.2117
 20
-2227.033203
 10
-147.223602
 20
-2227.049561
 10
-147.236954
 20
-2227.064941
 10
-147.271378
 20
-2227.09668
 10
-147.314728
 20
-2227.128174
 10
-147.366745
 20
-2227.159912
 10
-147.42717
 20
-2227.19165
 10
-147.495682
 20
-2227.223145
 10
-147.571945
 20
-2227.255127
 10
-147.655518
 20
-2227.286865
 10
-147.74588
 20
-2227.318848
 10
-147.842331
 20
-2227.350586
 10
-148.05098
 20
-2227.414551
 10
-148.276093
 20
-2227.478271
 10
-148.6320189999999
 20
-2227.574219
 10
-148.978302
 20
-2227.666504
 10
-149.19371
 20
-2227.72583
 10
-149.408554
 20
-2227.78833
  0
ARC
  5
1CE
330
47
100
AcDbEntity
  8
Hawa5
 62
     1
100
AcDbCircle
 10
-148.3927149999999
 20
-2231.429443
 30
0.0
 40
3.779306999999999
100
AcDbArc
 50
105.58911
 51
114.382904
  0
LWPOLYLINE
  5
1CF
330
47
100
AcDbEntity
  8
Hawa5
 62
     1
100
AcDbPolyline
 90
       12
 70
     0
 43
0.0
 10
-147.426224
 20
-2228.019531
 10
-147.483383
 20
-2228.046143
 10
-147.5467379999999
 20
-2228.073242
 10
-147.616241
 20
-2228.100586
 10
-147.69165
 20
-2228.128418
 10
-147.8582
 20
-2228.184082
 10
-148.040863
 20
-2228.23999
 10
-148.232895
 20
-2228.294922
 10
-148.528
 20
-2228.375
 10
-148.979385
 20
-2228.495361
 10
-149.231689
 20
-2228.564941
 10
-149.408554
 20
-2228.616699
  0
LWPOLYLINE
  5
1DD
330
47
100
AcDbEntity
  8
Hawa5
 62
     1
100
AcDbPolyline
 90
       21
 70
     0
 43
0.0
 10
-149.408554
 20
-2230.28833
 10
-149.174789
 20
-2230.220459
 10
-148.889343
 20
-2230.142578
 10
-148.481628
 20
-2230.03418
 10
-148.220901
 20
-2229.963135
 10
-147.974258
 20
-2229.891602
 10
-147.821808
 20
-2229.843994000001
 10
-147.681839
 20
-2229.796387
 10
-147.556503
 20
-2229.748779
 10
-147.499893
 20
-2229.725098
 10
-147.447586
 20
-2229.701416
 10
-147.399734
 20
-2229.677734
 10
-147.356461
 20
-2229.654053
 10
-147.317902
 20
-2229.630371
 10
-147.28418
 20
-2229.606689
 10
-147.255447
 20
-2229.583008
 10
-147.231796
 20
-2229.559326
 10
-147.213318
 20
-2229.535645
 10
-147.200058
 20
-2229.511963
 10
-147.192093
 20
-2229.488037
 10
-147.189423
 20
-2229.464355
  0
ARC
  5
1F4
330
47
100
AcDbEntity
  8
Hawa5
 62
     1
100
AcDbCircle
 10
-148.3927
 20
-2233.929199
 30
0.0
 40
3.779199999999999
100
AcDbArc
 50
105.589806
 51
114.383847
  0
LWPOLYLINE
  5
1F5
330
47
100
AcDbEntity
  8
Hawa5
 62
     1
100
AcDbPolyline
 90
       15
 70
     0
 43
0.0
 10
-149.408554
 20
-2228.616699
 10
-149.585602
 20
-2228.672607
 10
-149.668976
 20
-2228.700928
 10
-149.748337
 20
-2228.729736
 10
-149.822952
 20
-2228.758789
 10
-149.891998
 20
-2228.788086
 10
-149.954727
 20
-2228.817383
 10
-150.010483
 20
-2228.846436
 10
-150.058807
 20
-2228.875487999999
 10
-150.099442
 20
-2228.904297
 10
-150.132355
 20
-2228.932861
 10
-150.157654
 20
-2228.960938
 10
-150.175537
 20
-2228.98877
 10
-150.186081
 20
-2229.016357
 10
-150.189423
 20
-2229.042969
  0
LWPOLYLINE
  5
206
330
47
100
AcDbEntity
  8
Hawa5
 62
     1
100
AcDbPolyline
 90
       21
 70
     0
 43
0.0
 10
-149.408554
 20
-2232.78833
 10
-149.150116
 20
-2232.713623
 10
-148.801971
 20
-2232.619385
 10
-148.427353
 20
-2232.519531
 10
-148.145905
 20
-2232.441895
 10
-147.964554
 20
-2232.388672
 10
-147.794342
 20
-2232.334961
 10
-147.641083
 20
-2232.281494
 10
-147.572205
 20
-2232.255127
 10
-147.508926
 20
-2232.229004
 10
-147.45137
 20
-2232.203125
 10
-147.39946
 20
-2232.17749
 10
-147.353088
 20
-2232.1521
 10
-147.312729
 20
-2232.126953
 10
-147.278854
 20
-2232.102539
 10
-147.251205
 20
-2232.079102
 10
-147.229172
 20
-2232.056152
 10
-147.212158
 20
-2232.033691
 10
-147.199814
 20
-2232.01123
 10
-147.192108
 20
-2231.988281
 10
-147.189423
 20
-2231.964355
  0
LWPOLYLINE
  5
21D
330
47
100
AcDbEntity
  8
Hawa5
 62
     1
100
AcDbPolyline
 90
       11
 70
     0
 43
0.0
 10
-147.426331
 20
-2230.519531
 10
-147.473785
 20
-2230.541992
 10
-147.580261
 20
-2230.58667
 10
-147.701096
 20
-2230.631592
 10
-147.834732
 20
-2230.676757999999
 10
-147.979294
 20
-2230.72168
 10
-148.212067
 20
-2230.789063
 10
-148.541107
 20
-2230.878418
 10
-148.98381
 20
-2230.996582
 10
-149.2596889999999
 20
-2231.072998
 10
-149.408554
 20
-2231.116699
  0
ARC
  5
22A
330
47
100
AcDbEntity
  8
Hawa5
 62
     1
100
AcDbCircle
 10
-148.39328
 20
-2236.42749
 30
0.0
 40
3.777317
100
AcDbArc
 50
105.588571
 51
114.386572
  0
LWPOLYLINE
  5
22B
330
47
100
AcDbEntity
  8
Hawa5
 62
     1
100
AcDbPolyline
 90
       15
 70
     0
 43
0.0
 10
-150.189423
 20
-2231.542969
 10
-150.186066
 20
-2231.516357
 10
-150.175491
 20
-2231.488525
 10
-150.157562
 20
-2231.460693
 10
-150.132217
 20
-2231.432617000001
 10
-150.099289
 20
-2231.404297
 10
-150.058655
 20
-2231.375488
 10
-150.010376
 20
-2231.346436
 10
-149.954697
 20
-2231.317383
 10
-149.89209
 20
-2231.288086
 10
-149.823135
 20
-2231.258789
 10
-149.748627
 20
-2231.229736
 10
-149.669312
 20
-2231.201172
 10
-149.498917
 20
-2231.144775
 10
-149.408554
 20
-2231.116699
  0
LWPOLYLINE
  5
23C
330
47
100
AcDbEntity
  8
Hawa5
 62
     1
100
AcDbPolyline
 90
       21
 70
     0
 43
0.0
 10
-147.189423
 20
-2234.464355
 10
-147.192307
 20
-2234.489014000001
 10
-147.200943
 20
-2234.513672
 10
-147.215302
 20
-2234.538574
 10
-147.235336
 20
-2234.563232
 10
-147.260986
 20
-2234.587891
 10
-147.292114
 20
-2234.612549
 10
-147.328644
 20
-2234.637207
 10
-147.370422
 20
-2234.661865
 10
-147.417313
 20
-2234.686523
 10
-147.469406
 20
-2234.711426
 10
-147.526749
 20
-2234.736572
 10
-147.589325
 20
-2234.761963
 10
-147.729446
 20
-2234.813232
 10
-147.886932
 20
-2234.864746
 10
-148.057297
 20
-2234.91626
 10
-148.3261719999999
 20
-2234.992188
 10
-148.6949919999999
 20
-2235.09082
 10
-149.063095
 20
-2235.189697
 10
-149.325516
 20
-2235.263672
 10
-149.408554
 20
-2235.28833
  0
LWPOLYLINE
  5
253
330
47
100
AcDbEntity
  8
Hawa5
 62
     1
100
AcDbPolyline
 90
       12
 70
     0
 43
0.0
 10
-149.408554
 20
-2233.616699
 10
-149.233032
 20
-2233.56543
 10
-148.968903
 20
-2233.492432
 10
-148.502945
 20
-2233.368164
 10
-148.214127
 20
-2233.289551
 10
-148.026474
 20
-2233.23584
 10
-147.848282
 20
-2233.180908
 10
-147.685867
 20
-2233.126221
 10
-147.612274
 20
-2233.099121
 10
-147.544357
 20
-2233.072266
 10
-147.482346
 20
-2233.045654
 10
-147.42627
 20
-2233.019531
  0
LWPOLYLINE
  5
261
330
47
100
AcDbEntity
  8
Hawa5
 62
     1
100
AcDbPolyline
 90
       17
 70
     0
 43
0.0
 10
-150.189423
 20
-2234.042969
 10
-150.188324
 20
-2234.027588
 10
-150.18515
 20
-2234.012695
 10
-150.179626
 20
-2233.997314
 10
-150.172302
 20
-2233.982666
 10
-150.1622919999999
 20
-2233.967041
 10
-150.150879
 20
-2233.952393
 10
-150.120895
 20
-2233.922119
 10
-150.082428
 20
-2233.891602
 10
-150.035706
 20
-2233.861084
 10
-149.981049
 20
-2233.830566
 10
-149.918793
 20
-2233.800049
 10
-149.849274
 20
-2233.769531
 10
-149.772934
 20
-2233.739014000001
 10
-149.690186
 20
-2233.708496
 10
-149.601532
 20
-2233.677979
 10
-149.408554
 20
-2233.616699
  0
ARC
  5
274
330
47
100
AcDbEntity
  8
Hawa5
 62
     1
100
AcDbCircle
 10
-148.3935699999999
 20
-2238.926757999999
 30
0.0
 40
3.776498999999999
100
AcDbArc
 50
105.587506
 51
114.388259
  0
LWPOLYLINE
  5
275
330
47
100
AcDbEntity
  8
Hawa5
 62
     1
100
AcDbPolyline
 90
       12
 70
     0
 43
0.0
 10
-149.408554
 20
-2236.116699
 10
-149.23317
 20
-2236.06543
 10
-148.947678
 20
-2235.986816
 10
-148.446564
 20
-2235.853271
 10
-148.16246
 20
-2235.775146
 10
-147.9868469999999
 20
-2235.723877
 10
-147.822983
 20
-2235.672852
 10
-147.673309
 20
-2235.621826
 10
-147.604599
 20
-2235.596191
 10
-147.540329
 20
-2235.570557
 10
-147.480804
 20
-2235.545166
 10
-147.426254
 20
-2235.519531
  0
LWPOLYLINE
  5
283
330
47
100
AcDbEntity
  8
Hawa5
 62
     1
100
AcDbPolyline
 90
       20
 70
     0
 43
0.0
 10
-147.189423
 20
-2236.964355
 10
-147.192398
 20
-2236.989502
 10
-147.201309
 20
-2237.014648
 10
-147.21611
 20
-2237.039551
 10
-147.236771
 20
-2237.064697
 10
-147.263199
 20
-2237.089844
 10
-147.295303
 20
-2237.114746
 10
-147.332947
 20
-2237.139893
 10
-147.375992
 20
-2237.165039
 10
-147.423996
 20
-2237.189941
 10
-147.4758
 20
-2237.214355
 10
-147.587555
 20
-2237.26123
 10
-147.710037
 20
-2237.306396
 10
-147.848404
 20
-2237.352539
 10
-148.006973
 20
-2237.401611
 10
-148.271545
 20
-2237.477051
 10
-148.55954
 20
-2237.554932
 10
-148.956024
 20
-2237.660645
 10
-149.236526
 20
-2237.738037
 10
-149.408554
 20
-2237.78833
  0
LWPOLYLINE
  5
299
330
47
100
AcDbEntity
  8
Hawa5
 62
     1
100
AcDbPolyline
 90
       18
 70
     0
 43
0.0
 10
-149.408554
 20
-2236.116699
 10
-149.512848
 20
-2236.14917
 10
-149.612366
 20
-2236.181641
 10
-149.706589
 20
-2236.214355
 10
-149.794678
 20
-2236.247559
 10
-149.875641
 20
-2236.280762000001
 10
-149.948486
 20
-2236.314209
 10
-150.01236
 20
-2236.347656
 10
-150.06665
 20
-2236.380859
 10
-150.111023
 20
-2236.413574
 10
-150.128769
 20
-2236.429443
 10
-150.145386
 20
-2236.446289
 10
-150.158386
 20
-2236.46167
 10
-150.169846
 20
-2236.478516
 10
-150.178192
 20
-2236.494141
 10
-150.184525
 20
-2236.510742
 10
-150.188156
 20
-2236.526611
 10
-150.189423
 20
-2236.542969
  0
ARC
  5
2AD
330
47
100
AcDbEntity
  8
Hawa5
 62
     1
100
AcDbCircle
 10
-148.394684
 20
-2241.426514
 30
0.0
 40
3.775822
100
AcDbArc
 50
105.572464
 51
114.373191
  0
LWPOLYLINE
  5
2AE
330
47
100
AcDbEntity
  8
Hawa5
 62
     1
100
AcDbPolyline
 90
       20
 70
     0
 43
0.0
 10
-147.189423
 20
-2239.464355
 10
-147.192993
 20
-2239.491943
 10
-147.203659
 20
-2239.519287
 10
-147.221252
 20
-2239.546631
 10
-147.245499
 20
-2239.57373
 10
-147.276031
 20
-2239.600342000001
 10
-147.312561
 20
-2239.626953
 10
-147.354828
 20
-2239.653076
 10
-147.402664
 20
-2239.679443
 10
-147.454636
 20
-2239.704834
 10
-147.508667
 20
-2239.729004
 10
-147.619553
 20
-2239.773682
 10
-147.738632
 20
-2239.81665
 10
-147.878723
 20
-2239.862549
 10
-148.046646
 20
-2239.913574
 10
-148.327133
 20
-2239.99292
 10
-148.732269
 20
-2240.101563
 10
-149.036743
 20
-2240.18335
 10
-149.320343
 20
-2240.263428
 10
-149.408554
 20
-2240.289551
  0
LWPOLYLINE
  5
2C4
330
47
100
AcDbEntity
  8
Hawa5
 62
     1
100
AcDbPolyline
 90
       12
 70
     0
 43
0.0
 10
-147.426285
 20
-2238.019531
 10
-147.480453
 20
-2238.044922
 10
-147.537674
 20
-2238.06958
 10
-147.660217
 20
-2238.116943
 10
-147.797394
 20
-2238.164551
 10
-147.955551
 20
-2238.214355
 10
-148.132645
 20
-2238.266602
 10
-148.421295
 20
-2238.346436
 10
-148.833252
 20
-2238.456055
 10
-149.134323
 20
-2238.537598
 10
-149.320511
 20
-2238.590576
 10
-149.408554
 20
-2238.616699
  0
LWPOLYLINE
  5
2D2
330
47
100
AcDbEntity
  8
Hawa5
 62
     1
100
AcDbPolyline
 90
       15
 70
     0
 43
0.0
 10
-149.408554
 20
-2238.616699
 10
-149.570587
 20
-2238.667725
 10
-149.707947
 20
-2238.714844
 10
-149.825531
 20
-2238.759766
 10
-149.879791
 20
-2238.782715
 10
-149.93187
 20
-2238.806152
 10
-149.981537
 20
-2238.830811
 10
-150.027786
 20
-2238.856445
 10
-150.069061
 20
-2238.882324
 10
-150.104645
 20
-2238.908447
 10
-150.134399
 20
-2238.934814
 10
-150.158081
 20
-2238.961426
 10
-150.175354
 20
-2238.988281
 10
-150.185883
 20
-2239.015625
 10
-150.189423
 20
-2239.042969
  0
ARC
  5
2E3
330
47
100
AcDbEntity
  8
Hawa5
 62
     1
100
AcDbCircle
 10
-148.385345
 20
-2243.946289
 30
0.0
 40
3.796248
100
AcDbArc
 50
105.632844
 51
114.341008
  0
LWPOLYLINE
  5
2E4
330
47
100
AcDbEntity
  8
Hawa5
 62
     1
100
AcDbPolyline
 90
       14
 70
     0
 43
0.0
 10
-147.189423
 20
-2241.972656
 10
-147.192596
 20
-2241.998779
 10
-147.202103
 20
-2242.024658
 10
-147.217789
 20
-2242.050537
 10
-147.239395
 20
-2242.076172
 10
-147.266647
 20
-2242.101318
 10
-147.299225
 20
-2242.126465
 10
-147.336899
 20
-2242.151367
 10
-147.379547
 20
-2242.176025
 10
-147.42717
 20
-2242.200684
 10
-147.479614
 20
-2242.225342
 10
-147.536697
 20
-2242.25
 10
-147.663849
 20
-2242.299561
 10
-147.806702
 20
-2242.348877
  0
LWPOLYLINE
  5
2F4
330
47
100
AcDbEntity
  8
Hawa5
 62
     1
100
AcDbPolyline
 90
       11
 70
     0
 43
0.0
 10
-149.408554
 20
-2241.118164
 10
-149.2087399999999
 20
-2241.05957
 10
-148.909805
 20
-2240.977539
 10
-148.419754
 20
-2240.84668
 10
-148.112625
 20
-2240.76123
 10
-147.916473
 20
-2240.702881
 10
-147.751312
 20
-2240.649414
 10
-147.613266
 20
-2240.599854
 10
-147.549194
 20
-2240.574463
 10
-147.486755
 20
-2240.547852
 10
-147.426453
 20
-2240.519775
  0
LWPOLYLINE
  5
301
330
47
100
AcDbEntity
  8
Hawa5
 62
     1
100
AcDbPolyline
 90
       16
 70
     0
 43
0.0
 10
-150.189423
 20
-2241.545654
 10
-150.186981
 20
-2241.522705
 10
-150.179672
 20
-2241.5
 10
-150.167542
 20
-2241.477295000001
 10
-150.150681
 20
-2241.45459
 10
-150.129211
 20
-2241.431885
 10
-150.103226
 20
-2241.409424
 10
-150.07283
 20
-2241.386963
 10
-150.038101
 20
-2241.364746
 10
-149.999146
 20
-2241.342285
 10
-149.956039
 20
-2241.319824
 10
-149.908936
 20
-2241.297363
 10
-149.803345
 20
-2241.252441
 10
-149.683685
 20
-2241.207764
 10
-149.551529
 20
-2241.162842
 10
-149.408554
 20
-2241.118164
  0
LWPOLYLINE
  5
313
330
47
100
AcDbEntity
  8
Hawa5
 62
     1
100
AcDbPolyline
 90
       19
 70
     0
 43
0.0
 10
-146.355759
 20
-2227.232666
 10
-146.319107
 20
-2227.25
 10
-146.283493
 20
-2227.269043
 10
-146.256622
 20
-2227.286133
 10
-146.2314
 20
-2227.305664
 10
-146.219604
 20
-2227.31665
 10
-146.208939
 20
-2227.328613
 10
-146.199951
 20
-2227.342041
 10
-146.192322
 20
-2227.359863
 10
-146.189423
 20
-2227.378662
 10
-146.192322
 20
-2227.397461
 10
-146.199936
 20
-2227.415039
 10
-146.208923
 20
-2227.428467000001
 10
-146.219574
 20
-2227.440674
 10
-146.231384
 20
-2227.45166
 10
-146.256607
 20
-2227.471191
 10
-146.283493
 20
-2227.488037
 10
-146.319107
 20
-2227.507324
 10
-146.355774
 20
-2227.524658
  0
LWPOLYLINE
  5
328
330
47
100
AcDbEntity
  8
Hawa5
 62
     1
100
AcDbPolyline
 90
       23
 70
     0
 43
0.0
 10
-146.355774
 20
-2227.524658
 10
-146.438217
 20
-2227.557617
 10
-146.536133
 20
-2227.59082
 10
-146.648849
 20
-2227.623779
 10
-146.775574
 20
-2227.656738
 10
-146.915451
 20
-2227.689697
 10
-147.06752
 20
-2227.722656
 10
-147.230743
 20
-2227.755859
 10
-147.404022
 20
-2227.788818
 10
-147.775986
 20
-2227.854736
 10
-148.173355
 20
-2227.920898
 10
-148.793106
 20
-2228.020264
 10
-149.406586
 20
-2228.119385
 10
-149.792831
 20
-2228.185547
 10
-149.975082
 20
-2228.218506
 10
-150.148422
 20
-2228.251709
 10
-150.311676
 20
-2228.284668
 10
-150.46373
 20
-2228.317627
 10
-150.603561
 20
-2228.350586
 10
-150.73024
 20
-2228.383545
 10
-150.84288
 20
-2228.416748
 10
-150.94072
 20
-2228.449707000001
 10
-151.023102
 20
-2228.482666
  0
LWPOLYLINE
  5
341
330
47
100
AcDbEntity
  8
Hawa5
 62
     1
100
AcDbPolyline
 90
       10
 70
     0
 43
0.0
 10
-151.023102
 20
-2228.482666
 10
-151.073486
 20
-2228.50708
 10
-151.1149899999999
 20
-2228.53125
 10
-151.147446
 20
-2228.555664
 10
-151.159683
 20
-2228.567139
 10
-151.170731
 20
-2228.579834
 10
-151.178619
 20
-2228.591553000001
 10
-151.184738
 20
-2228.604248
 10
-151.188187
 20
-2228.616211
 10
-151.189423
 20
-2228.628662
  0
LWPOLYLINE
  5
34D
330
47
100
AcDbEntity
  8
Hawa5
 62
     1
100
AcDbPolyline
 90
       10
 70
     0
 43
0.0
 10
-146.189423
 20
-2229.878662
 10
-146.190643
 20
-2229.891113
 10
-146.194077
 20
-2229.902832
 10
-146.200195
 20
-2229.915527
 10
-146.208069
 20
-2229.927246
 10
-146.219101
 20
-2229.939941
 10
-146.231354
 20
-2229.95166
 10
-146.263824
 20
-2229.976074
 10
-146.305359
 20
-2230.000244000001
 10
-146.355789
 20
-2230.024658
  0
LWPOLYLINE
  5
359
330
47
100
AcDbEntity
  8
Hawa5
 62
     1
100
AcDbPolyline
 90
       23
 70
     0
 43
0.0
 10
-146.355789
 20
-2230.024658
 10
-146.438278
 20
-2230.057617
 10
-146.53627
 20
-2230.09082
 10
-146.649078
 20
-2230.123779
 10
-146.775894
 20
-2230.156738
 10
-146.915833
 20
-2230.189941
 10
-147.067947
 20
-2230.222900000001
 10
-147.231201
 20
-2230.255859
 10
-147.404465
 20
-2230.288818
 10
-147.776306
 20
-2230.35498
 10
-148.173386
 20
-2230.420898
 10
-148.792664
 20
-2230.52002
 10
-149.406158
 20
-2230.619385
 10
-149.792664
 20
-2230.685547
 10
-149.975052
 20
-2230.718506
 10
-150.1484989999999
 20
-2230.751709
 10
-150.311813
 20
-2230.784668
 10
-150.463898
 20
-2230.817627
 10
-150.603745
 20
-2230.850586
 10
-150.730392
 20
-2230.883789
 10
-150.843002
 20
-2230.916748
 10
-150.940796
 20
-2230.949707
 10
-151.023132
 20
-2230.982666
  0
LWPOLYLINE
  5
372
330
47
100
AcDbEntity
  8
Hawa5
 62
     1
100
AcDbPolyline
 90
       10
 70
     0
 43
0.0
 10
-151.023132
 20
-2230.982666
 10
-151.073517
 20
-2231.00708
 10
-151.115021
 20
-2231.03125
 10
-151.147461
 20
-2231.055664
 10
-151.159714
 20
-2231.067139
 10
-151.170746
 20
-2231.080078
 10
-151.178635
 20
-2231.091553
 10
-151.184753
 20
-2231.104248
 10
-151.188202
 20
-2231.116211
 10
-151.189438
 20
-2231.128662
  0
LWPOLYLINE
  5
37E
330
47
100
AcDbEntity
  8
Hawa5
 62
     1
100
AcDbPolyline
 90
       10
 70
     0
 43
0.0
 10
-146.189407
 20
-2232.378662
 10
-146.190643
 20
-2232.391113
 10
-146.194077
 20
-2232.403076
 10
-146.200195
 20
-2232.415527
 10
-146.208069
 20
-2232.427246
 10
-146.219086
 20
-2232.439941
 10
-146.231339
 20
-2232.45166
 10
-146.263779
 20
-2232.47583
 10
-146.305313
 20
-2232.500244
 10
-146.355759
 20
-2232.524658
  0
LWPOLYLINE
  5
38A
330
47
100
AcDbEntity
  8
Hawa5
 62
     1
100
AcDbPolyline
 90
       23
 70
     0
 43
0.0
 10
-146.355759
 20
-2232.524658
 10
-146.438293
 20
-2232.557617000001
 10
-146.536346
 20
-2232.59082
 10
-146.649231
 20
-2232.623779
 10
-146.7761229999999
 20
-2232.656982
 10
-146.916168
 20
-2232.689941
 10
-147.068359
 20
-2232.7229
 10
-147.231674
 20
-2232.755859
 10
-147.404968
 20
-2232.789063
 10
-147.776764
 20
-2232.85498
 10
-148.17366
 20
-2232.920898
 10
-148.792435
 20
-2233.02002
 10
-149.405548
 20
-2233.119141
 10
-149.792175
 20
-2233.185303
 10
-149.97467
 20
-2233.218506
 10
-150.148239
 20
-2233.251465
 10
-150.311676
 20
-2233.284668
 10
-150.463852
 20
-2233.317627
 10
-150.60376
 20
-2233.350586
 10
-150.730438
 20
-2233.383789
 10
-150.843048
 20
-2233.416748
 10
-150.940826
 20
-2233.449707
 10
-151.023117
 20
-2233.482666
  0
LWPOLYLINE
  5
3A3
330
47
100
AcDbEntity
  8
Hawa5
 62
     1
100
AcDbPolyline
 90
       10
 70
     0
 43
0.0
 10
-151.023117
 20
-2233.482666
 10
-151.073532
 20
-2233.50708
 10
-151.115036
 20
-2233.53125
 10
-151.147491
 20
-2233.555664
 10
-151.159729
 20
-2233.567139
 10
-151.170761
 20
-2233.580078
 10
-151.17865
 20
-2233.591553
 10
-151.184769
 20
-2233.604248
 10
-151.188202
 20
-2233.616211
 10
-151.189438
 20
-2233.628662
  0
LWPOLYLINE
  5
3AF
330
47
100
AcDbEntity
  8
Hawa5
 62
     1
100
AcDbPolyline
 90
       10
 70
     0
 43
0.0
 10
-146.189407
 20
-2234.878662
 10
-146.190643
 20
-2234.891113
 10
-146.194077
 20
-2234.903076
 10
-146.200195
 20
-2234.915527
 10
-146.208069
 20
-2234.927246
 10
-146.219086
 20
-2234.939941
 10
-146.231323
 20
-2234.95166
 10
-146.263779
 20
-2234.97583
 10
-146.305298
 20
-2235.000244
 10
-146.355759
 20
-2235.024658
  0
LWPOLYLINE
  5
3BB
330
47
100
AcDbEntity
  8
Hawa5
 62
     1
100
AcDbPolyline
 90
       23
 70
     0
 43
0.0
 10
-146.355759
 20
-2235.024658
 10
-146.438278
 20
-2235.057617
 10
-146.536346
 20
-2235.09082
 10
-146.649277
 20
-2235.123779
 10
-146.77626
 20
-2235.156982
 10
-146.916397
 20
-2235.189941
 10
-147.068695
 20
-2235.2229
 10
-147.232086
 20
-2235.256104
 10
-147.405457
 20
-2235.289063
 10
-147.777313
 20
-2235.35498
 10
-148.174118
 20
-2235.421143
 10
-148.792496
 20
-2235.52002
 10
-149.405075
 20
-2235.619141
 10
-149.791534
 20
-2235.685303
 10
-149.974075
 20
-2235.718262
 10
-150.147736
 20
-2235.751465
 10
-150.311279
 20
-2235.784424
 10
-150.463577
 20
-2235.817627
 10
-150.603577
 20
-2235.850586
 10
-150.730331
 20
-2235.883789
 10
-150.842987
 20
-2235.916748
 10
-150.940796
 20
-2235.949707
 10
-151.023102
 20
-2235.982666
  0
LWPOLYLINE
  5
3D4
330
47
100
AcDbEntity
  8
Hawa5
 62
     1
100
AcDbPolyline
 90
       10
 70
     0
 43
0.0
 10
-151.023102
 20
-2235.982666
 10
-151.073517
 20
-2236.00708
 10
-151.115036
 20
-2236.03125
 10
-151.147491
 20
-2236.055664
 10
-151.159729
 20
-2236.067139000001
 10
-151.170761
 20
-2236.080078
 10
-151.178635
 20
-2236.091553
 10
-151.184753
 20
-2236.104248
 10
-151.188202
 20
-2236.116211
 10
-151.189423
 20
-2236.128662
  0
LWPOLYLINE
  5
3E0
330
47
100
AcDbEntity
  8
Hawa5
 62
     1
100
AcDbPolyline
 90
       10
 70
     0
 43
0.0
 10
-146.189423
 20
-2237.378662
 10
-146.190643
 20
-2237.391113
 10
-146.1940919999999
 20
-2237.403076
 10
-146.200195
 20
-2237.415527
 10
-146.208069
 20
-2237.427246000001
 10
-146.219086
 20
-2237.439941
 10
-146.231323
 20
-2237.45166
 10
-146.263779
 20
-2237.47583
 10
-146.305298
 20
-2237.500244
 10
-146.355759
 20
-2237.524658
  0
LWPOLYLINE
  5
3EC
330
47
100
AcDbEntity
  8
Hawa5
 62
     1
100
AcDbPolyline
 90
       23
 70
     0
 43
0.0
 10
-146.355759
 20
-2237.524658
 10
-146.438217
 20
-2237.557617000001
 10
-146.53624
 20
-2237.59082
 10
-146.649155
 20
-2237.623779
 10
-146.776154
 20
-2237.656982
 10
-146.916351
 20
-2237.689941
 10
-147.068741
 20
-2237.7229
 10
-147.232239
 20
-2237.756104
 10
-147.405716
 20
-2237.789063
 10
-147.777725
 20
-2237.855225
 10
-148.174576
 20
-2237.921143
 10
-148.79274
 20
-2238.02002
 10
-149.404861
 20
-2238.119141
 10
-149.791016
 20
-2238.185303
 10
-149.97348
 20
-2238.218262000001
 10
-150.1471249999999
 20
-2238.251221
 10
-150.31073
 20
-2238.284424
 10
-150.463135
 20
-2238.317383
 10
-150.603256
 20
-2238.350586
 10
-150.730118
 20
-2238.383545
 10
-150.842865
 20
-2238.416748
 10
-150.940735
 20
-2238.449707
 10
-151.023087
 20
-2238.482666
  0
LWPOLYLINE
  5
405
330
47
100
AcDbEntity
  8
Hawa5
 62
     1
100
AcDbPolyline
 90
       19
 70
     0
 43
0.0
 10
-151.023087
 20
-2238.482666
 10
-151.059769
 20
-2238.5
 10
-151.095398
 20
-2238.519287
 10
-151.122253
 20
-2238.536133
 10
-151.147476
 20
-2238.555664
 10
-151.159271
 20
-2238.56665
 10
-151.169922
 20
-2238.578857
 10
-151.178909
 20
-2238.592041
 10
-151.186508
 20
-2238.609863
 10
-151.189423
 20
-2238.628662
 10
-151.186539
 20
-2238.647461
 10
-151.17894
 20
-2238.665039
 10
-151.1699679999999
 20
-2238.678467
 10
-151.159317
 20
-2238.690674
 10
-151.147537
 20
-2238.70166
 10
-151.122314
 20
-2238.720947
 10
-151.095444
 20
-2238.738037
 10
-151.059784
 20
-2238.757324
 10
-151.023071
 20
-2238.774658
  0
LWPOLYLINE
  5
41A
330
47
100
AcDbEntity
  8
Hawa5
 62
     1
100
AcDbPolyline
 90
       19
 70
     0
 43
0.0
 10
-146.355774
 20
-2239.732666
 10
-146.319077
 20
-2239.75
 10
-146.283447
 20
-2239.769287
 10
-146.256577
 20
-2239.786133
 10
-146.231354
 20
-2239.805664
 10
-146.219574
 20
-2239.81665
 10
-146.208923
 20
-2239.828857
 10
-146.199936
 20
-2239.842041
 10
-146.192322
 20
-2239.859863
 10
-146.189423
 20
-2239.878662
 10
-146.192322
 20
-2239.897461
 10
-146.199905
 20
-2239.915039
 10
-146.208878
 20
-2239.928467
 10
-146.219528
 20
-2239.940674
 10
-146.231308
 20
-2239.95166
 10
-146.256516
 20
-2239.970947
 10
-146.283371
 20
-2239.988037
 10
-146.319
 20
-2240.007324
 10
-146.355682
 20
-2240.024658
  0
LWPOLYLINE
  5
42F
330
47
100
AcDbEntity
  8
Hawa5
 62
     1
100
AcDbPolyline
 90
       23
 70
     0
 43
0.0
 10
-146.355682
 20
-2240.024658
 10
-146.437988
 20
-2240.057617000001
 10
-146.535828
 20
-2240.090576
 10
-146.648529
 20
-2240.123535
 10
-146.775345
 20
-2240.156738
 10
-146.915375
 20
-2240.189697
 10
-147.067657
 20
-2240.2229
 10
-147.231079
 20
-2240.255859
 10
-147.404495
 20
-2240.288818
 10
-147.776398
 20
-2240.35498
 10
-148.17308
 20
-2240.420898
 10
-148.790817
 20
-2240.519775
 10
-149.402344
 20
-2240.618652
 10
-149.788132
 20
-2240.68457
 10
-149.970459
 20
-2240.717773
 10
-150.144043
 20
-2240.750732
 10
-150.307663
 20
-2240.783691
 10
-150.460175
 20
-2240.816895
 10
-150.60051
 20
-2240.849854
 10
-150.727646
 20
-2240.882813
 10
-150.840683
 20
-2240.916016
 10
-150.938873
 20
-2240.948975
 10
-151.021545
 20
-2240.981934
  0
LWPOLYLINE
  5
448
330
47
100
AcDbEntity
  8
Hawa5
 62
     1
100
AcDbPolyline
 90
       19
 70
     0
 43
0.0
 10
-151.021545
 20
-2240.981934
 10
-151.058395
 20
-2240.999268
 10
-151.094193
 20
-2241.018555
 10
-151.121246
 20
-2241.0354
 10
-151.146637
 20
-2241.054932
 10
-151.158554
 20
-2241.065918
 10
-151.169327
 20
-2241.077881
 10
-151.178467
 20
-2241.091309
 10
-151.186279
 20
-2241.109130999999
 10
-151.189407
 20
-2241.12793
 10
-151.186768
 20
-2241.146484
 10
-151.179413
 20
-2241.164307
 10
-151.170639
 20
-2241.177734
 10
-151.1601719999999
 20
-2241.189697
 10
-151.148544
 20
-2241.200684
 10
-151.123642
 20
-2241.220215
 10
-151.097061
 20
-2241.237061
 10
-151.061752
 20
-2241.256348
 10
-151.025375
 20
-2241.273682
  0
LINE
  5
45D
330
47
100
AcDbEntity
  8
Hawa5
 62
     1
 48
0.026587
100
AcDbLine
 10
-150.189423
 20
-2227.033691
 30
0.0
 11
-150.189423
 21
-2228.097168
 31
0.0
  0
LINE
  5
45E
330
47
100
AcDbEntity
  8
Hawa5
 62
     1
 48
0.038855
100
AcDbLine
 10
-147.189423
 20
-2227.910156
 30
0.0
 11
-147.189423
 21
-2229.464355
 31
0.0
  0
LINE
  5
45F
330
47
100
AcDbEntity
  8
Hawa5
 62
     1
 48
0.038855
100
AcDbLine
 10
-150.189423
 20
-2229.042969
 30
0.0
 11
-150.189423
 21
-2230.597168
 31
0.0
  0
LINE
  5
460
330
47
100
AcDbEntity
  8
Hawa5
 62
     1
 48
0.038855
100
AcDbLine
 10
-147.189423
 20
-2230.410156
 30
0.0
 11
-147.189423
 21
-2231.964355
 31
0.0
  0
LINE
  5
461
330
47
100
AcDbEntity
  8
Hawa5
 62
     1
 48
0.038861
100
AcDbLine
 10
-150.189423
 20
-2231.542969
 30
0.0
 11
-150.189423
 21
-2233.097412
 31
0.0
  0
LINE
  5
462
330
47
100
AcDbEntity
  8
Hawa5
 62
     1
 48
0.038855
100
AcDbLine
 10
-147.189423
 20
-2232.910156
 30
0.0
 11
-147.189423
 21
-2234.464355
 31
0.0
  0
LINE
  5
463
330
47
100
AcDbEntity
  8
Hawa5
 62
     1
 48
0.038861
100
AcDbLine
 10
-150.189423
 20
-2234.042969
 30
0.0
 11
-150.189423
 21
-2235.597412
 31
0.0
  0
LINE
  5
464
330
47
100
AcDbEntity
  8
Hawa5
 62
     1
 48
0.038855
100
AcDbLine
 10
-147.189423
 20
-2235.410156
 30
0.0
 11
-147.189423
 21
-2236.964355
 31
0.0
  0
LINE
  5
465
330
47
100
AcDbEntity
  8
Hawa5
 62
     1
 48
0.038861
100
AcDbLine
 10
-150.189423
 20
-2236.542969
 30
0.0
 11
-150.189423
 21
-2238.097412
 31
0.0
  0
LINE
  5
466
330
47
100
AcDbEntity
  8
Hawa5
 62
     1
 48
0.038855
100
AcDbLine
 10
-147.189423
 20
-2237.910156
 30
0.0
 11
-147.189423
 21
-2239.464355
 31
0.0
  0
LINE
  5
467
330
47
100
AcDbEntity
  8
Hawa5
 62
     1
 48
0.038892
100
AcDbLine
 10
-150.189423
 20
-2239.042969
 30
0.0
 11
-150.189423
 21
-2240.598633
 31
0.0
  0
LINE
  5
468
330
47
100
AcDbEntity
  8
Hawa5
 62
     1
 48
0.039063
100
AcDbLine
 10
-147.189423
 20
-2240.410156
 30
0.0
 11
-147.189423
 21
-2241.972656
 31
0.0
  0
ARC
  5
469
330
47
100
AcDbEntity
  8
Hawa5
 62
     1
100
AcDbCircle
 10
-163.4101409999999
 20
-2200.241943
 30
0.0
 40
30.83762
100
AcDbArc
 50
293.683487
 51
295.874597
  0
ARC
  5
46A
330
47
100
AcDbEntity
  8
Hawa5
 62
     1
100
AcDbCircle
 10
-163.409042
 20
-2202.744141
 30
0.0
 40
30.835115
100
AcDbArc
 50
293.6830700000001
 51
295.874597
  0
ARC
  5
46B
330
47
100
AcDbEntity
  8
Hawa5
 62
     1
100
AcDbCircle
 10
-163.55513
 20
-2204.918213
 30
0.0
 40
31.192217
100
AcDbArc
 50
293.688364
 51
295.854811
  0
ARC
  5
46C
330
47
100
AcDbEntity
  8
Hawa5
 62
     1
100
AcDbCircle
 10
-163.405334
 20
-2207.752686
 30
0.0
 40
30.825796
100
AcDbArc
 50
293.683214
 51
295.87548
  0
ARC
  5
46D
330
47
100
AcDbEntity
  8
Hawa5
 62
     1
100
AcDbCircle
 10
-163.389603
 20
-2210.280029
 30
0.0
 40
30.794472
100
AcDbArc
 50
293.676848
 51
295.871272
  0
ARC
  5
46E
330
47
100
AcDbEntity
  8
Hawa5
 62
     1
100
AcDbCircle
 10
-163.130829
 20
-2213.245605
 30
0.0
 40
30.264143
100
AcDbArc
 50
293.585358
 51
295.821193
  0
ARC
  5
46F
330
47
100
AcDbEntity
  8
Hawa5
 62
     1
100
AcDbCircle
 10
-134.005661
 20
-2255.684082
 30
0.0
 40
30.748217
100
AcDbArc
 50
113.681285
 51
115.886564
  0
ARC
  5
470
330
47
100
AcDbEntity
  8
Hawa5
 62
     1
100
AcDbCircle
 10
-134.009552
 20
-2258.175049
 30
0.0
 40
30.738579
100
AcDbArc
 50
113.681252
 51
115.88745
  0
ARC
  5
471
330
47
100
AcDbEntity
  8
Hawa5
 62
     1
100
AcDbCircle
 10
-133.943436
 20
-2260.830811
 30
0.0
 40
30.90761
100
AcDbArc
 50
113.677577
 51
115.871632
  0
ARC
  5
472
330
47
100
AcDbEntity
  8
Hawa5
 62
     1
100
AcDbCircle
 10
-134.009018
 20
-2263.176758
 30
0.0
 40
30.740236
100
AcDbArc
 50
113.680931
 51
115.886932
  0
ARC
  5
473
330
47
100
AcDbEntity
  8
Hawa5
 62
     1
100
AcDbCircle
 10
-134.077652
 20
-2265.538818
 30
0.0
 40
30.586178
100
AcDbArc
 50
113.667065
 51
115.884103
  0
ARC
  5
474
330
47
100
AcDbEntity
  8
Hawa5
 62
     1
100
AcDbCircle
 10
-134.045807
 20
-2268.087158
 30
0.0
 40
30.643379
100
AcDbArc
 50
113.685084
 51
115.898571
  0
LINE
  5
475
330
47
100
AcDbEntity
  8
Hawa5
 62
     1
 48
0.25
100
AcDbLine
 10
-145.689423
 20
-2227.533691
 30
0.0
 11
-145.689423
 21
-2237.533691
 31
0.0
  0
LINE
  5
476
330
47
100
AcDbEntity
  8
Hawa5
 62
     1
 48
0.113192
100
AcDbLine
 10
-146.189423
 20
-2242.033691
 30
0.0
 11
-145.689423
 21
-2237.533691
 31
0.0
  0
LINE
  5
477
330
47
100
AcDbEntity
  8
Hawa5
 62
     1
 48
0.0125
100
AcDbLine
 10
-146.189423
 20
-2242.033691
 30
0.0
 11
-145.689423
 21
-2242.033691
 31
0.0
  0
LINE
  5
478
330
47
100
AcDbEntity
  8
Hawa5
 62
     1
 48
0.25
100
AcDbLine
 10
-151.689423
 20
-2227.533691
 30
0.0
 11
-151.689423
 21
-2237.533691
 31
0.0
  0
LINE
  5
479
330
47
100
AcDbEntity
  8
Hawa5
 62
     1
 48
0.0125
100
AcDbLine
 10
-151.689423
 20
-2227.533691
 30
0.0
 11
-151.189423
 21
-2227.533691
 31
0.0
  0
LINE
  5
47A
330
47
100
AcDbEntity
  8
Hawa5
 62
     1
 48
0.0125
100
AcDbLine
 10
-146.189423
 20
-2227.533691
 30
0.0
 11
-145.689423
 21
-2227.533691
 31
0.0
  0
LINE
  5
47B
330
47
100
AcDbEntity
  8
Hawa5
 62
     1
 48
0.000934
100
AcDbLine
 10
-145.689423
 20
-2242.033691
 30
0.0
 11
-145.689423
 21
-2242.071045
 31
0.0
  0
LINE
  5
47C
330
47
100
AcDbEntity
  8
Hawa5
 62
     1
 48
0.249304
100
AcDbLine
 10
-146.189423
 20
-2227.533691
 30
0.0
 11
-146.189423
 21
-2237.505859
 31
0.0
  0
LINE
  5
47D
330
47
100
AcDbEntity
  8
Hawa5
 62
     1
 48
0.114832
100
AcDbLine
 10
-146.189423
 20
-2237.505859
 30
0.0
 11
-146.696655
 21
-2242.071045
 31
0.0
  0
LINE
  5
47E
330
47
100
AcDbEntity
  8
Hawa5
 62
     1
 48
0.0125
100
AcDbLine
 10
-151.689423
 20
-2242.033691
 30
0.0
 11
-151.189423
 21
-2242.033691
 31
0.0
  0
LINE
  5
47F
330
47
100
AcDbEntity
  8
Hawa5
 62
     1
 48
0.113192
100
AcDbLine
 10
-151.189423
 20
-2242.033691
 30
0.0
 11
-151.689423
 21
-2237.533691
 31
0.0
  0
LINE
  5
480
330
47
100
AcDbEntity
  8
Hawa5
 62
     1
 48
0.249304
100
AcDbLine
 10
-151.189423
 20
-2227.533691
 30
0.0
 11
-151.189423
 21
-2237.505859
 31
0.0
  0
LINE
  5
481
330
47
100
AcDbEntity
  8
Hawa5
 62
     1
 48
0.000934
100
AcDbLine
 10
-151.689423
 20
-2242.033691
 30
0.0
 11
-151.689423
 21
-2242.071045
 31
0.0
  0
LINE
  5
482
330
47
100
AcDbEntity
  8
Hawa5
 62
     1
 48
0.114832
100
AcDbLine
 10
-151.189423
 20
-2237.505859
 30
0.0
 11
-150.68219
 21
-2242.071045
 31
0.0
  0
ENDBLK
  5
483
330
47
100
AcDbEntity
  8
HAWA1
100
AcDbBlockEnd
  0
BLOCK
  5
484
330
48
100
AcDbEntity
  8
HAWA1
100
AcDbBlockBegin
  2
BLOCK1
 70
     0
 10
0.0
 20
0.0
 30
0.0
  3
BLOCK1
  1

  0
LINE
  5
485
330
48
100
AcDbEntity
  8
HAWA1
 48
0.000875
100
AcDbLine
 10
-151.305283
 20
-2242.068359
 30
0.0
 11
-151.28772
 21
-2242.038086
 31
0.0
  0
LINE
  5
486
330
48
100
AcDbEntity
  8
HAWA1
 48
0.021086
100
AcDbLine
 10
-151.206528
 20
-2241.897461
 30
0.0
 11
-150.784821
 21
-2241.166992000001
 31
0.0
  0
LINE
  5
487
330
48
100
AcDbEntity
  8
HAWA1
 48
0.025005
100
AcDbLine
 10
-151.6865389999999
 20
-2232.72876
 30
0.0
 11
-151.186447
 21
-2231.862549
 31
0.0
  0
ENDBLK
  5
488
330
48
100
AcDbEntity
  8
HAWA1
100
AcDbBlockEnd
  0
BLOCK
  5
489
330
49
100
AcDbEntity
  8
HAWA1
100
AcDbBlockBegin
  2
BLOCK2
 70
     0
 10
0.0
 20
0.0
 30
0.0
  3
BLOCK2
  1

  0
LINE
  5
48A
330
49
100
AcDbEntity
  8
HAWA1
 48
0.025062
100
AcDbLine
 10
-146.193558
 20
-2233.2146
 30
0.0
 11
-145.692307
 21
-2232.346436
 31
0.0
  0
ENDBLK
  5
48B
330
49
100
AcDbEntity
  8
HAWA1
100
AcDbBlockEnd
  0
BLOCK
  5
48C
330
38
100
AcDbEntity
  8
HAWA1
100
AcDbBlockBegin
  2
*D6
 70
     1
 10
0.0
 20
0.0
 30
0.0
  3
*D6
  1

  0
TEXT
  5
48D
330
38
100
AcDbEntity
  8
HAWA1
 62
     2
100
AcDbText
 10
158.927252
 20
172.014432
 30
0.0
 40
3.5
  1
20
 50
90.0
 41
1.380826645082965
 72
     5
 11
158.927252
 21
178.059354
 31
0.0
100
AcDbText
  0
TEXT
  5
48E
330
38
100
AcDbEntity
  8
HAWA1
 62
     2
100
AcDbText
 10
156.827252
 20
181.059354
 30
0.0
 40
2.33345
  1
25
 50
90.0
 41
1.337420579368634
 72
     5
 11
156.827252
 21
185.089627
 31
0.0
100
AcDbText
  0
TEXT
  5
48F
330
38
100
AcDbEntity
  8
HAWA1
 62
     2
100
AcDbText
 10
159.860702
 20
181.059354
 30
0.0
 40
2.33345
  1
32
 50
90.0
 41
1.318393618761114
 72
     5
 11
159.860702
 21
185.089627
 31
0.0
100
AcDbText
  0
TEXT
  5
490
330
38
100
AcDbEntity
  8
HAWA1
 62
     2
100
AcDbText
 10
158.052252
 20
185.089383
 30
0.0
 40
3.5
  1
"
 50
90.0
 41
1.629773968253962
 72
     5
 11
158.052252
 21
187.6562769999999
 31
0.0
100
AcDbText
  0
TEXT
  5
491
330
38
100
AcDbEntity
  8
HAWA1
 62
     2
100
AcDbText
 10
157.677252
 20
179.059354
 30
0.0
 40
1.0
  1
/
 50
90.0
 41
1.818181818181818
 72
     5
 11
157.677252
 21
180.059354
 31
0.0
100
AcDbText
  0
LINE
  5
492
330
38
100
AcDbEntity
  8
HAWA1
 62
     2
 48
0.100751
100
AcDbLine
 10
157.177252
 20
181.059354
 30
0.0
 11
157.177252
 21
185.089383
 31
0.0
  0
LINE
  5
493
330
38
100
AcDbEntity
  8
HAWA1
 62
     2
 48
0.267671
100
AcDbLine
 10
151.153854
 20
169.835233
 30
0.0
 11
161.860702
 21
169.835233
 31
0.0
  0
LINE
  5
494
330
38
100
AcDbEntity
  8
HAWA1
 62
     2
 48
0.075
100
AcDbLine
 10
159.800042
 20
190.896024
 30
0.0
 11
161.921362
 21
188.774686
 31
0.0
  0
LINE
  5
495
330
38
100
AcDbEntity
  8
HAWA1
 62
     2
 48
0.075
100
AcDbLine
 10
161.921362
 20
168.774686
 30
0.0
 11
159.800042
 21
170.896024
 31
0.0
  0
LINE
  5
496
330
38
100
AcDbEntity
  8
HAWA1
 62
     2
100
AcDbLine
 10
160.860702
 20
164.835233
 30
0.0
 11
160.860702
 21
194.835233
 31
0.0
  0
ENDBLK
  5
497
330
38
100
AcDbEntity
  8
HAWA1
100
AcDbBlockEnd
  0
BLOCK
  5
498
330
3A
100
AcDbEntity
  8
HAWA1
100
AcDbBlockBegin
  2
*D7
 70
     1
 10
0.0
 20
0.0
 30
0.0
  3
*D7
  1

  0
TEXT
  5
499
330
3A
100
AcDbEntity
  8
HAWA1
 62
     2
100
AcDbText
 10
133.332984
 20
163.9595
 30
0.0
 40
3.5
  1
20
 41
1.380826873510495
 72
     5
 11
139.377907
 21
163.9595
 31
0.0
100
AcDbText
  0
TEXT
  5
49A
330
3A
100
AcDbEntity
  8
HAWA1
 62
     2
100
AcDbText
 10
142.377907
 20
166.059598
 30
0.0
 40
2.33345
  1
25
 41
1.337380094441025
 72
     5
 11
146.408058
 21
166.059598
 31
0.0
100
AcDbText
  0
TEXT
  5
49B
330
3A
100
AcDbEntity
  8
HAWA1
 62
     2
100
AcDbText
 10
142.377907
 20
163.026151
 30
0.0
 40
2.33345
  1
32
 41
1.318353709796768
 72
     5
 11
146.408058
 21
163.026151
 31
0.0
100
AcDbText
  0
TEXT
  5
49C
330
3A
100
AcDbEntity
  8
HAWA1
 62
     2
100
AcDbText
 10
146.408058
 20
164.8345
 30
0.0
 40
3.5
  1
"
 41
1.629629206349205
 72
     5
 11
148.974724
 21
164.8345
 31
0.0
100
AcDbText
  0
TEXT
  5
49D
330
3A
100
AcDbEntity
  8
HAWA1
 62
     2
100
AcDbText
 10
140.377907
 20
165.2095
 30
0.0
 40
1.0
  1
/
 41
1.818181818181818
 72
     5
 11
141.377907
 21
165.2095
 31
0.0
100
AcDbText
  0
LINE
  5
49E
330
3A
100
AcDbEntity
  8
HAWA1
 62
     2
 48
0.100754
100
AcDbLine
 10
142.377907
 20
165.7095
 30
0.0
 11
146.408058
 21
165.7095
 31
0.0
  0
LINE
  5
49F
330
3A
100
AcDbEntity
  8
HAWA1
 62
     2
 48
0.220227
100
AcDbLine
 10
131.153854
 20
169.835233
 30
0.0
 11
131.153854
 21
161.026151
 31
0.0
  0
LINE
  5
4A0
330
3A
100
AcDbEntity
  8
HAWA1
 62
     2
 48
0.220227
100
AcDbLine
 10
151.153854
 20
169.835233
 30
0.0
 11
151.153854
 21
161.026151
 31
0.0
  0
LINE
  5
4A1
330
3A
100
AcDbEntity
  8
HAWA1
 62
     2
 48
0.075
100
AcDbLine
 10
152.214514
 20
163.086697
 30
0.0
 11
150.093194
 21
160.965359
 31
0.0
  0
LINE
  5
4A2
330
3A
100
AcDbEntity
  8
HAWA1
 62
     2
 48
0.075
100
AcDbLine
 10
130.093195
 20
160.965359
 30
0.0
 11
132.2145139999999
 21
163.086697
 31
0.0
  0
LINE
  5
4A3
330
3A
100
AcDbEntity
  8
HAWA1
 62
     2
100
AcDbLine
 10
126.153854
 20
162.026151
 30
0.0
 11
156.153854
 21
162.026151
 31
0.0
  0
ENDBLK
  5
4A4
330
3A
100
AcDbEntity
  8
HAWA1
100
AcDbBlockEnd
  0
BLOCK
  5
4A5
330
3C
100
AcDbEntity
  8
HAWA1
100
AcDbBlockBegin
  2
*D8
 70
     1
 10
0.0
 20
0.0
 30
0.0
  3
*D8
  1

  0
TEXT
  5
4A6
330
3C
100
AcDbEntity
  8
HAWA1
 62
     2
100
AcDbText
 10
119.40685
 20
173.580594
 30
0.0
 40
3.5
  1
12
 50
90.0
 41
1.555881701487322
 72
     5
 11
119.40685
 21
179.625516
 31
0.0
100
AcDbText
  0
TEXT
  5
4A7
330
3C
100
AcDbEntity
  8
HAWA1
 62
     2
100
AcDbText
 10
117.306852
 20
182.625516
 30
0.0
 40
2.33345
  1
15
 50
90.0
 41
1.582499269047094
 72
     5
 11
117.306852
 21
186.655789
 31
0.0
100
AcDbText
  0
TEXT
  5
4A8
330
3C
100
AcDbEntity
  8
HAWA1
 62
     2
100
AcDbText
 10
120.340301
 20
182.625516
 30
0.0
 40
2.33345
  1
32
 50
90.0
 41
1.318393618761114
 72
     5
 11
120.340301
 21
186.655789
 31
0.0
100
AcDbText
  0
TEXT
  5
4A9
330
3C
100
AcDbEntity
  8
HAWA1
 62
     2
100
AcDbText
 10
118.53185
 20
186.655545
 30
0.0
 40
3.5
  1
"
 50
90.0
 41
1.629774603174595
 72
     5
 11
118.53185
 21
189.22244
 31
0.0
100
AcDbText
  0
TEXT
  5
4AA
330
3C
100
AcDbEntity
  8
HAWA1
 62
     2
100
AcDbText
 10
118.15685
 20
180.625516
 30
0.0
 40
1.0
  1
/
 50
90.0
 41
1.818181818181818
 72
     5
 11
118.15685
 21
181.625516
 31
0.0
100
AcDbText
  0
LINE
  5
4AB
330
3C
100
AcDbEntity
  8
HAWA1
 62
     2
 48
0.100757
100
AcDbLine
 10
117.65685
 20
182.625516
 30
0.0
 11
117.65685
 21
186.655789
 31
0.0
  0
LINE
  5
4AC
330
3C
100
AcDbEntity
  8
HAWA1
 62
     2
 48
0.4203390000000001
100
AcDbLine
 10
137.153854
 20
177.835233
 30
0.0
 11
120.340301
 21
177.835233
 31
0.0
  0
LINE
  5
4AD
330
3C
100
AcDbEntity
  8
HAWA1
 62
     2
 48
0.075
100
AcDbLine
 10
122.40096
 20
188.774686
 30
0.0
 11
120.279642
 21
190.896024
 31
0.0
  0
LINE
  5
4AE
330
3C
100
AcDbEntity
  8
HAWA1
 62
     2
 48
0.075
100
AcDbLine
 10
120.279642
 20
178.896024
 30
0.0
 11
122.40096
 21
176.774686
 31
0.0
  0
LINE
  5
4AF
330
3C
100
AcDbEntity
  8
HAWA1
 62
     2
 48
0.4063660000000001
100
AcDbLine
 10
121.340301
 20
173.580594
 30
0.0
 11
121.340301
 21
189.835233
 31
0.0
  0
ENDBLK
  5
4B0
330
3C
100
AcDbEntity
  8
HAWA1
100
AcDbBlockEnd
  0
BLOCK
  5
4B1
330
3E
100
AcDbEntity
  8
HAWA1
100
AcDbBlockBegin
  2
*D9
 70
     1
 10
0.0
 20
0.0
 30
0.0
  3
*D9
  1

  0
TEXT
  5
4B2
330
3E
100
AcDbEntity
  8
HAWA1
 62
     2
100
AcDbText
 10
147.65
 20
201.543973
 30
0.0
 40
3.5
  1
10
 41
1.643644427554456
 72
     5
 11
153.694923
 21
201.543973
 31
0.0
100
AcDbText
  0
TEXT
  5
4B3
330
3E
100
AcDbEntity
  8
HAWA1
 62
     2
100
AcDbText
 10
156.694923
 20
203.64407
 30
0.0
 40
2.33345
  1
13
 41
1.582451365366428
 72
     5
 11
160.725074
 21
203.64407
 31
0.0
100
AcDbText
  0
TEXT
  5
4B4
330
3E
100
AcDbEntity
  8
HAWA1
 62
     2
100
AcDbText
 10
156.694923
 20
200.610623
 30
0.0
 40
2.33345
  1
32
 41
1.318353709796768
 72
     5
 11
160.725074
 21
200.610623
 31
0.0
100
AcDbText
  0
TEXT
  5
4B5
330
3E
100
AcDbEntity
  8
HAWA1
 62
     2
100
AcDbText
 10
160.725074
 20
202.418973
 30
0.0
 40
3.5
  1
"
 41
1.629630476190471
 72
     5
 11
163.291742
 21
202.418973
 31
0.0
100
AcDbText
  0
TEXT
  5
4B6
330
3E
100
AcDbEntity
  8
HAWA1
 62
     2
100
AcDbText
 10
154.694924
 20
202.793973
 30
0.0
 40
1.0
  1
/
 41
1.818181818181818
 72
     5
 11
155.6949239999999
 21
202.793973
 31
0.0
100
AcDbText
  0
LINE
  5
4B7
330
3E
100
AcDbEntity
  8
HAWA1
 62
     2
 48
0.100754
100
AcDbLine
 10
156.694924
 20
203.293973
 30
0.0
 11
160.725074
 21
203.293973
 31
0.0
  0
LINE
  5
4B8
330
3E
100
AcDbEntity
  8
HAWA1
 62
     2
 48
0.075
100
AcDbLine
 10
135.093194
 20
198.549832
 30
0.0
 11
137.2145139999999
 21
200.67117
 31
0.0
  0
LINE
  5
4B9
330
3E
100
AcDbEntity
  8
HAWA1
 62
     2
 48
0.075
100
AcDbLine
 10
147.214514
 20
200.67117
 30
0.0
 11
145.093194
 21
198.549832
 31
0.0
  0
LINE
  5
4BA
330
3E
100
AcDbEntity
  8
HAWA1
 62
     2
100
AcDbLine
 10
136.153854
 20
199.610623
 30
0.0
 11
163.291742
 21
199.610623
 31
0.0
  0
ENDBLK
  5
4BB
330
3E
100
AcDbEntity
  8
HAWA1
100
AcDbBlockEnd
  0
BLOCK
  5
4BC
330
40
100
AcDbEntity
  8
HAWA1
100
AcDbBlockBegin
  2
*D10
 70
     1
 10
0.0
 20
0.0
 30
0.0
  3
*D10
  1

  0
TEXT
  5
4BD
330
40
100
AcDbEntity
  8
HAWA1
 62
     2
100
AcDbText
 10
166.206836
 20
201.543973
 30
0.0
 40
3.5
  1
8
 41
1.388292467532464
 72
     5
 11
168.879299
 21
201.543973
 31
0.0
100
AcDbText
  0
TEXT
  5
4BE
330
40
100
AcDbEntity
  8
HAWA1
 62
     2
100
AcDbText
 10
173.003509
 20
203.64407
 30
0.0
 40
2.33345
  1
5
 41
1.291060618467947
 72
     5
 11
174.78524
 21
203.64407
 31
0.0
100
AcDbText
  0
TEXT
  5
4BF
330
40
100
AcDbEntity
  8
HAWA1
 62
     2
100
AcDbText
 10
171.879299
 20
200.610623
 30
0.0
 40
2.33345
  1
16
 41
1.570672354827857
 72
     5
 11
175.90945
 21
200.610623
 31
0.0
100
AcDbText
  0
TEXT
  5
4C0
330
40
100
AcDbEntity
  8
HAWA1
 62
     2
100
AcDbText
 10
175.90945
 20
202.418973
 30
0.0
 40
3.5
  1
"
 41
1.629629206349205
 72
     5
 11
178.476116
 21
202.418973
 31
0.0
100
AcDbText
  0
TEXT
  5
4C1
330
40
100
AcDbEntity
  8
HAWA1
 62
     2
100
AcDbText
 10
163.571231
 20
201.543973
 30
0.0
 40
3.5
  1
(
 41
1.869262857142854
 72
     5
 11
165.206836
 21
201.543973
 31
0.0
100
AcDbText
  0
TEXT
  5
4C2
330
40
100
AcDbEntity
  8
HAWA1
 62
     2
100
AcDbText
 10
169.879299
 20
202.793973
 30
0.0
 40
1.0
  1
/
 41
1.818181818181818
 72
     5
 11
170.879299
 21
202.793973
 31
0.0
100
AcDbText
  0
LINE
  5
4C3
330
40
100
AcDbEntity
  8
HAWA1
 62
     2
 48
0.100754
100
AcDbLine
 10
171.879299
 20
203.293973
 30
0.0
 11
175.909448
 21
203.293973
 31
0.0
  0
LINE
  5
4C4
330
40
100
AcDbEntity
  8
HAWA1
 62
     2
 48
0.075
100
AcDbLine
 10
147.214514
 20
200.67117
 30
0.0
 11
145.093194
 21
198.549832
 31
0.0
  0
LINE
  5
4C5
330
40
100
AcDbEntity
  8
HAWA1
 62
     2
 48
0.075
100
AcDbLine
 10
135.093194
 20
198.549832
 30
0.0
 11
137.2145139999999
 21
200.67117
 31
0.0
  0
LINE
  5
4C6
330
40
100
AcDbEntity
  8
HAWA1
 62
     2
100
AcDbLine
 10
136.153854
 20
199.610623
 30
0.0
 11
178.476116
 21
199.610623
 31
0.0
  0
ENDBLK
  5
4C7
330
40
100
AcDbEntity
  8
HAWA1
100
AcDbBlockEnd
  0
BLOCK
  5
4C8
330
42
100
AcDbEntity
  8
HAWA1
100
AcDbBlockBegin
  2
*D11
 70
     1
 10
0.0
 20
0.0
 30
0.0
  3
*D11
  1

  0
TEXT
  5
4C9
330
42
100
AcDbEntity
  8
HAWA1
 62
     2
100
AcDbText
 10
181.978767
 20
201.543973
 30
0.0
 40
3.5
  1
10
 41
1.643644155649516
 72
     5
 11
188.023689
 21
201.543973
 31
0.0
100
AcDbText
  0
TEXT
  5
4CA
330
42
100
AcDbEntity
  8
HAWA1
 62
     2
100
AcDbText
 10
191.023689
 20
203.64407
 30
0.0
 40
2.33345
  1
13
 41
1.582451365366417
 72
     5
 11
195.05384
 21
203.64407
 31
0.0
100
AcDbText
  0
TEXT
  5
4CB
330
42
100
AcDbEntity
  8
HAWA1
 62
     2
100
AcDbText
 10
191.023689
 20
200.610623
 30
0.0
 40
2.33345
  1
32
 41
1.318353709796759
 72
     5
 11
195.05384
 21
200.610623
 31
0.0
100
AcDbText
  0
TEXT
  5
4CC
330
42
100
AcDbEntity
  8
HAWA1
 62
     2
100
AcDbText
 10
195.05384
 20
202.418973
 30
0.0
 40
3.5
  1
"
 41
1.629629206349223
 72
     5
 11
197.620506
 21
202.418973
 31
0.0
100
AcDbText
  0
TEXT
  5
4CD
330
42
100
AcDbEntity
  8
HAWA1
 62
     2
100
AcDbText
 10
179.459991
 20
201.543973
 30
0.0
 40
3.5
  1
-
 41
0.7889745454545468
 72
     5
 11
180.978767
 21
201.543973
 31
0.0
100
AcDbText
  0
TEXT
  5
4CE
330
42
100
AcDbEntity
  8
HAWA1
 62
     2
100
AcDbText
 10
189.023689
 20
202.793973
 30
0.0
 40
1.0
  1
/
 41
1.818181818181818
 72
     5
 11
190.023689
 21
202.793973
 31
0.0
100
AcDbText
  0
TEXT
  5
4CF
330
42
100
AcDbEntity
  8
HAWA1
 62
     2
100
AcDbText
 10
198.620506
 20
201.543973
 30
0.0
 40
3.5
  1
)
 41
1.87221122127084
 72
     5
 11
200.256111
 21
201.543973
 31
0.0
100
AcDbText
  0
LINE
  5
4D0
330
42
100
AcDbEntity
  8
HAWA1
 62
     2
 48
0.100754
100
AcDbLine
 10
191.023689
 20
203.293973
 30
0.0
 11
195.05384
 21
203.293973
 31
0.0
  0
LINE
  5
4D1
330
42
100
AcDbEntity
  8
HAWA1
 62
     2
 48
0.075
100
AcDbLine
 10
147.214514
 20
200.67117
 30
0.0
 11
145.093194
 21
198.549832
 31
0.0
  0
LINE
  5
4D2
330
42
100
AcDbEntity
  8
HAWA1
 62
     2
 48
0.075
100
AcDbLine
 10
135.093194
 20
198.549832
 30
0.0
 11
137.2145139999999
 21
200.67117
 31
0.0
  0
LINE
  5
4D3
330
42
100
AcDbEntity
  8
HAWA1
 62
     2
100
AcDbLine
 10
136.153854
 20
199.610623
 30
0.0
 11
200.256111
 21
199.610623
 31
0.0
  0
ENDBLK
  5
4D4
330
42
100
AcDbEntity
  8
HAWA1
100
AcDbBlockEnd
  0
BLOCK
  5
4D5
330
4A
100
AcDbEntity
  8
HAWA1
100
AcDbBlockBegin
  2
BLOCK3
 70
     0
 10
0.0
 20
0.0
 30
0.0
  3
BLOCK3
  1

  0
LINE
  5
4D6
330
4A
100
AcDbEntity
  8
Hawa5
  6
PHANTOM
 62
     1
 48
0.25
100
AcDbLine
 10
0.0
 20
-2322.259277
 30
0.0
 11
-10.0
 21
-2322.259277
 31
0.0
  0
LINE
  5
4D7
330
4A
100
AcDbEntity
  8
Hawa5
 62
     1
100
AcDbLine
 10
0.0
 20
-2348.259277
 30
0.0
 11
0.0
 21
-2322.259277
 31
0.0
  0
LINE
  5
4D8
330
4A
100
AcDbEntity
  8
Hawa5
 62
     1
 48
0.035355
100
AcDbLine
 10
-1.0
 20
-2349.259277
 30
0.0
 11
0.0
 21
-2348.259277
 31
0.0
  0
LINE
  5
4D9
330
4A
100
AcDbEntity
  8
Hawa5
 62
     1
 48
0.2
100
AcDbLine
 10
-9.0
 20
-2349.259277
 30
0.0
 11
-1.0
 21
-2349.259277
 31
0.0
  0
LINE
  5
4DA
330
4A
100
AcDbEntity
  8
Hawa5
 62
     1
 48
0.035355
100
AcDbLine
 10
-9.0
 20
-2349.259277
 30
0.0
 11
-10.0
 21
-2348.259277
 31
0.0
  0
LINE
  5
4DB
330
4A
100
AcDbEntity
  8
Hawa5
 62
     1
100
AcDbLine
 10
-10.0
 20
-2348.259277
 30
0.0
 11
-10.0
 21
-2322.259277
 31
0.0
  0
LINE
  5
4DC
330
4A
100
AcDbEntity
  8
Hawa4
 62
     4
100
AcDbLine
 10
5.0
 20
-2337.259277
 30
0.0
 11
5.0
 21
-2357.259277
 31
0.0
  0
LINE
  5
4DD
330
4A
100
AcDbEntity
  8
Hawa4
 62
     4
 48
0.18375
100
AcDbLine
 10
-7.65
 20
-2357.259277
 30
0.0
 11
-15.0
 21
-2357.259277
 31
0.0
  0
LINE
  5
4DE
330
4A
100
AcDbEntity
  8
Hawa4
 62
     4
 48
0.18375
100
AcDbLine
 10
5.0
 20
-2357.259277
 30
0.0
 11
-2.35
 21
-2357.259277
 31
0.0
  0
LINE
  5
4DF
330
4A
100
AcDbEntity
  8
Hawa4
 62
     4
100
AcDbLine
 10
-15.0
 20
-2357.259277
 30
0.0
 11
-15.0
 21
-2337.259277
 31
0.0
  0
LINE
  5
4E0
330
4A
100
AcDbEntity
  8
Hawa4
 62
     4
 48
0.075
100
AcDbLine
 10
-15.0
 20
-2337.259277
 30
0.0
 11
-12.0
 21
-2337.259277
 31
0.0
  0
LINE
  5
4E1
330
4A
100
AcDbEntity
  8
Hawa4
 62
     4
 48
0.425
100
AcDbLine
 10
-12.0
 20
-2337.259277
 30
0.0
 11
-12.0
 21
-2354.259277
 31
0.0
  0
LINE
  5
4E2
330
4A
100
AcDbEntity
  8
Hawa4
 62
     4
 48
0.04625
100
AcDbLine
 10
0.15
 20
-2354.259277
 30
0.0
 11
2.0
 21
-2354.259277
 31
0.0
  0
LINE
  5
4E3
330
4A
100
AcDbEntity
  8
Hawa4
 62
     4
 48
0.067024
100
AcDbLine
 10
-2.530958
 20
-2354.259277
 30
0.0
 11
0.15
 21
-2354.259277
 31
0.0
  0
LINE
  5
4E4
330
4A
100
AcDbEntity
  8
Hawa4
 62
     4
 48
0.190476
100
AcDbLine
 10
-10.15
 20
-2354.259277
 30
0.0
 11
-2.530958
 21
-2354.259277
 31
0.0
  0
LINE
  5
4E5
330
4A
100
AcDbEntity
  8
Hawa4
 62
     4
 48
0.04625
100
AcDbLine
 10
-12.0
 20
-2354.259277
 30
0.0
 11
-10.15
 21
-2354.259277
 31
0.0
  0
LINE
  5
4E6
330
4A
100
AcDbEntity
  8
Hawa4
 62
     4
 48
0.425
100
AcDbLine
 10
2.0
 20
-2354.259277
 30
0.0
 11
2.0
 21
-2337.259277
 31
0.0
  0
LINE
  5
4E7
330
4A
100
AcDbEntity
  8
Hawa4
 62
     4
 48
0.075
100
AcDbLine
 10
2.0
 20
-2337.259277
 30
0.0
 11
5.0
 21
-2337.259277
 31
0.0
  0
LINE
  5
4E8
330
4A
100
AcDbEntity
  8
Hawa4
 62
     4
 48
0.003754
100
AcDbLine
 10
-7.65
 20
-2357.109131
 30
0.0
 11
-7.65
 21
-2357.259277
 31
0.0
  0
LINE
  5
4E9
330
4A
100
AcDbEntity
  8
Hawa4
 62
     4
 48
0.003754
100
AcDbLine
 10
-2.35
 20
-2357.109131
 30
0.0
 11
-2.35
 21
-2357.259277
 31
0.0
  0
LINE
  5
4EA
330
4A
100
AcDbEntity
  8
Hawa4
 62
     4
 48
0.067024
100
AcDbLine
 10
-2.530958
 20
-2354.609131
 30
0.0
 11
0.15
 21
-2354.609131
 31
0.0
  0
LINE
  5
4EB
330
4A
100
AcDbEntity
  8
Hawa4
 62
     4
 48
0.008746
100
AcDbLine
 10
0.15
 20
-2354.259277
 30
0.0
 11
0.15
 21
-2354.609131
 31
0.0
  0
LINE
  5
4EC
330
4A
100
AcDbEntity
  8
Hawa4
 62
     4
 48
0.190476
100
AcDbLine
 10
-10.15
 20
-2354.609131
 30
0.0
 11
-2.530958
 21
-2354.609131
 31
0.0
  0
LINE
  5
4ED
330
4A
100
AcDbEntity
  8
Hawa4
 62
     4
 48
0.008746
100
AcDbLine
 10
-10.15
 20
-2354.259277
 30
0.0
 11
-10.15
 21
-2354.609131
 31
0.0
  0
LINE
  5
4EE
330
4A
100
AcDbEntity
  8
Hawa4
 62
     4
 48
0.088388
100
AcDbLine
 10
-7.65
 20
-2357.109131
 30
0.0
 11
-10.15
 21
-2354.609131
 31
0.0
  0
LINE
  5
4EF
330
4A
100
AcDbEntity
  8
Hawa4
 62
     4
 48
0.088388
100
AcDbLine
 10
-2.35
 20
-2357.109131
 30
0.0
 11
0.15
 21
-2354.609131
 31
0.0
  0
LINE
  5
4F0
330
4A
100
AcDbEntity
  8
Hawa5
 62
     1
100
AcDbLine
 10
-15.0
 20
-2337.259277
 30
0.0
 11
-45.0
 21
-2337.259277
 31
0.0
  0
LINE
  5
4F2
330
4A
100
AcDbEntity
  8
Hawa4
 62
     4
 48
0.1875
100
AcDbLine
 10
5.0
 20
-2357.259277
 30
0.0
 11
-2.5
 21
-2357.259277
 31
0.0
  0
LINE
  5
4F3
330
4A
100
AcDbEntity
  8
Hawa4
 62
     4
 48
0.1875
100
AcDbLine
 10
-7.5
 20
-2357.259277
 30
0.0
 11
-15.0
 21
-2357.259277
 31
0.0
  0
LINE
  5
4F5
330
4A
100
AcDbEntity
  8
Hawa5
 62
     1
100
AcDbLine
 10
35.0
 20
-2337.259277
 30
0.0
 11
5.0
 21
-2337.259277
 31
0.0
  0
LINE
  5
4F6
330
4A
100
AcDbEntity
  8
Hawa6
 62
     3
 48
0.045
100
AcDbLine
 10
0.0
 20
-2347.759277
 30
0.0
 11
1.8
 21
-2347.759277
 31
0.0
  0
LINE
  5
4F7
330
4A
100
AcDbEntity
  8
Hawa6
 62
     3
 48
0.225
100
AcDbLine
 10
0.0
 20
-2338.759277
 30
0.0
 11
0.0
 21
-2347.759277
 31
0.0
  0
LINE
  5
4F8
330
4A
100
AcDbEntity
  8
Hawa6
 62
     3
 48
0.045
100
AcDbLine
 10
0.0
 20
-2338.759277
 30
0.0
 11
1.8
 21
-2338.759277
 31
0.0
  0
LINE
  5
4F9
330
4A
100
AcDbEntity
  8
Hawa6
 62
     3
 48
0.225
100
AcDbLine
 10
1.8
 20
-2338.759277
 30
0.0
 11
1.8
 21
-2347.759277
 31
0.0
  0
LINE
  5
4FA
330
4A
100
AcDbEntity
  8
Hawa6
 62
     3
 48
0.045
100
AcDbLine
 10
-11.8
 20
-2347.759277
 30
0.0
 11
-10.0
 21
-2347.759277
 31
0.0
  0
LINE
  5
4FB
330
4A
100
AcDbEntity
  8
Hawa6
 62
     3
 48
0.225
100
AcDbLine
 10
-11.8
 20
-2338.759277
 30
0.0
 11
-11.8
 21
-2347.759277
 31
0.0
  0
LINE
  5
4FC
330
4A
100
AcDbEntity
  8
Hawa6
 62
     3
 48
0.045
100
AcDbLine
 10
-11.8
 20
-2338.759277
 30
0.0
 11
-10.0
 21
-2338.759277
 31
0.0
  0
LINE
  5
4FD
330
4A
100
AcDbEntity
  8
Hawa6
 62
     3
 48
0.225
100
AcDbLine
 10
-10.0
 20
-2338.759277
 30
0.0
 11
-10.0
 21
-2347.759277
 31
0.0
  0
LINE
  5
4FE
330
4A
100
AcDbEntity
  8
Hawa5
 62
     1
 48
0.061818
100
AcDbLine
 10
-9.75
 20
-2354.729248
 30
0.0
 11
-7.277271
 21
-2354.729248
 31
0.0
  0
LINE
  5
4FF
330
4A
100
AcDbEntity
  8
Hawa5
 62
     1
 48
0.175682
100
AcDbLine
 10
-7.277271
 20
-2354.729248
 30
0.0
 11
-0.25
 21
-2354.729248
 31
0.0
  0
LINE
  5
500
330
4A
100
AcDbEntity
  8
Hawa5
 62
     1
 48
0.061818
100
AcDbLine
 10
-9.75
 20
-2355.009277
 30
0.0
 11
-7.277271
 21
-2355.009277
 31
0.0
  0
LINE
  5
501
330
4A
100
AcDbEntity
  8
Hawa5
 62
     1
 48
0.175682
100
AcDbLine
 10
-7.277271
 20
-2355.009277
 30
0.0
 11
-0.25
 21
-2355.009277
 31
0.0
  0
LINE
  5
502
330
4A
100
AcDbEntity
  8
Hawa5
 62
     1
 48
0.023333
100
AcDbLine
 10
-6.792892999999999
 20
-2357.966309
 30
0.0
 11
-5.859558999999999
 21
-2357.966309
 31
0.0
  0
LINE
  5
503
330
4A
100
AcDbEntity
  8
Hawa5
 62
     1
 48
0.066311
100
AcDbLine
 10
-3.207107
 20
-2357.966309
 30
0.0
 11
-5.859558999999999
 21
-2357.966309
 31
0.0
  0
LINE
  5
504
330
4A
100
AcDbEntity
  8
Hawa5
 62
     1
 48
0.008107
100
AcDbLine
 10
-6.5
 20
-2358.67334
 30
0.0
 11
-6.175739
 21
-2358.67334
 31
0.0
  0
ARC
  5
505
330
4A
100
AcDbEntity
  8
Hawa5
 62
     1
100
AcDbCircle
 10
-4.66948
 20
-2362.351074
 30
0.0
 40
3.97453
100
AcDbArc
 50
105.397933
 51
112.272293
  0
LINE
  5
506
330
4A
100
AcDbEntity
  8
Hawa5
 62
     1
 48
0.0375
100
AcDbLine
 10
-3.5
 20
-2358.67334
 30
0.0
 11
-5.0
 21
-2358.67334
 31
0.0
  0
ARC
  5
507
330
4A
100
AcDbEntity
  8
Hawa5
 62
     1
100
AcDbCircle
 10
-2.363668999999999
 20
-2370.547852
 30
0.0
 40
12.490061
100
AcDbArc
 50
102.184964
 51
105.611841
  0
LINE
  5
508
330
4A
100
AcDbEntity
  8
Hawa5
 62
     1
 48
0.00976
100
AcDbLine
 10
-5.0
 20
-2358.338867
 30
0.0
 11
-5.0
 21
-2358.729248
 31
0.0
  0
LINE
  5
509
330
4A
100
AcDbEntity
  8
Hawa5
 62
     1
 48
0.010358
100
AcDbLine
 10
-5.0
 20
-2358.729248
 30
0.0
 11
-5.0
 21
-2359.143555
 31
0.0
  0
LINE
  5
50A
330
4A
100
AcDbEntity
  8
Hawa5
 62
     1
 48
0.007001
100
AcDbLine
 10
-9.75
 20
-2354.729248
 30
0.0
 11
-9.75
 21
-2355.009277
 31
0.0
  0
LINE
  5
50B
330
4A
100
AcDbEntity
  8
Hawa5
 62
     1
 48
0.007001
100
AcDbLine
 10
-0.25
 20
-2354.729248
 30
0.0
 11
-0.25
 21
-2355.009277
 31
0.0
  0
LINE
  5
50C
330
4A
100
AcDbEntity
  8
Hawa5
 62
     1
 48
0.104548
100
AcDbLine
 10
-6.792892999999999
 20
-2357.966309
 30
0.0
 11
-9.75
 21
-2355.009277
 31
0.0
  0
LINE
  5
50D
330
4A
100
AcDbEntity
  8
Hawa5
 62
     1
 48
0.104548
100
AcDbLine
 10
-3.207107
 20
-2357.966309
 30
0.0
 11
-0.25
 21
-2355.009277
 31
0.0
  0
ARC
  5
50E
330
4A
100
AcDbEntity
  8
Hawa5
 62
     1
100
AcDbCircle
 10
-7.5
 20
-2358.67334
 30
0.0
 40
1.0
100
AcDbArc
 50
360.0
 51
45.0
  0
ARC
  5
50F
330
4A
100
AcDbEntity
  8
Hawa5
 62
     1
100
AcDbCircle
 10
-2.5
 20
-2358.67334
 30
0.0
 40
1.0
100
AcDbArc
 50
135.0
 51
180.000005
  0
ENDBLK
  5
510
330
4A
100
AcDbEntity
  8
HAWA1
100
AcDbBlockEnd
  0
ENDSEC
  0
SECTION
  2
ENTITIES
  0
DIMENSION
  5
26
330
A
100
AcDbEntity
  8
HAWA1
 62
     0
100
AcDbDimension
  2
*D0
 10
20.777703
 20
177.83527
 30
0.0
 11
20.777703
 21
190.656141
 31
0.0
 70
   160
 71
     5
 42
-1.0
 52
89.999523
  3
STANDARD
100
AcDbAlignedDimension
 13
10.777703
 23
167.83527
 33
0.0
 14
40.41550499999999
 24
177.83527
 34
0.0
 50
89.999523
100
AcDbRotatedDimension
  0
DIMENSION
  5
28
330
A
100
AcDbEntity
  8
HAWA1
 62
     0
100
AcDbDimension
  2
*D1
 10
65.059032
 20
193.83527
 30
0.0
 11
65.059032
 21
180.83527
 31
0.0
 70
   160
 71
     5
 42
-1.0
 52
89.999523
  3
STANDARD
100
AcDbAlignedDimension
 13
55.91641899999999
 23
167.83527
 33
0.0
 14
55.05903199999999
 24
193.83527
 34
0.0
 50
89.999523
100
AcDbRotatedDimension
  0
DIMENSION
  5
2A
330
A
100
AcDbEntity
  8
HAWA1
 62
     0
100
AcDbDimension
  2
*D2
 10
57.415505
 20
147.905405
 30
0.0
 11
43.41550499999999
 21
147.905405
 31
0.0
 70
   160
 71
     5
 42
-1.0
 52
89.999523
  3
STANDARD
100
AcDbAlignedDimension
 13
29.415505
 23
167.83527
 33
0.0
 14
57.415505
 24
167.83527
 34
0.0
 50
359.998092
100
AcDbRotatedDimension
  0
LINE
  5
2B
330
A
100
AcDbEntity
  8
Hawa5
  6
DASHDOT
 62
     1
 48
0.404431
100
AcDbLine
 10
43.41550499999999
 20
173.406763
 30
0.0
 11
43.41550499999999
 21
157.229517
 31
0.0
  0
LINE
  5
2C
330
A
100
AcDbEntity
  8
Hawa6
  6
DASHDOT
 62
     3
 48
0.000534
100
AcDbLine
 10
35.031563
 20
187.24026
 30
0.0
 11
35.010186
 21
187.24026
 31
0.0
  0
LINE
  5
2D
330
A
100
AcDbEntity
  8
Hawa6
  6
DASHDOT
 62
     3
 48
0.000534
100
AcDbLine
 10
35.031563
 20
174.99026
 30
0.0
 11
35.010186
 21
174.99026
 31
0.0
  0
LINE
  5
2E
330
A
100
AcDbEntity
  8
Hawa6
  6
DASHDOT
 62
     3
 48
0.000534
100
AcDbLine
 10
34.560418
 20
187.24026
 30
0.0
 11
34.53904
 21
187.24026
 31
0.0
  0
LINE
  5
2F
330
A
100
AcDbEntity
  8
Hawa6
  6
DASHDOT
 62
     3
 48
0.000534
100
AcDbLine
 10
34.560418
 20
174.99026
 30
0.0
 11
34.53904
 21
174.99026
 31
0.0
  0
LINE
  5
30
330
A
100
AcDbEntity
  8
Hawa6
  6
DASHDOT
 62
     3
 48
0.00052
100
AcDbLine
 10
51.799492
 20
174.99026
 30
0.0
 11
51.820275
 21
174.99026
 31
0.0
  0
LINE
  5
31
330
A
100
AcDbEntity
  8
Hawa6
  6
DASHDOT
 62
     3
 48
0.00052
100
AcDbLine
 10
51.799492
 20
187.24026
 30
0.0
 11
51.820275
 21
187.24026
 31
0.0
  0
LINE
  5
32
330
A
100
AcDbEntity
  8
Hawa6
  6
DASHDOT
 62
     3
 48
0.00052
100
AcDbLine
 10
52.27063799999999
 20
174.99026
 30
0.0
 11
52.29142
 21
174.99026
 31
0.0
  0
LINE
  5
33
330
A
100
AcDbEntity
  8
Hawa6
  6
DASHDOT
 62
     3
 48
0.00052
100
AcDbLine
 10
52.27063799999999
 20
187.24026
 30
0.0
 11
52.29142
 21
187.24026
 31
0.0
  0
LINE
  5
34
330
A
100
AcDbEntity
  8
Hawa6
  6
DASHDOT
 62
     3
 48
0.344995
100
AcDbLine
 10
33.81549899999999
 20
174.215357
 30
0.0
 11
33.81549899999999
 21
188.015162
 31
0.0
  0
LINE
  5
35
330
A
100
AcDbEntity
  8
Hawa6
  6
DASHDOT
 62
     3
 48
0.34502
100
AcDbLine
 10
53.015511
 20
188.015406
 30
0.0
 11
53.015511
 21
174.214625
 31
0.0
  0
POINT
  5
36
330
A
100
AcDbEntity
  8
Hawa6
 62
     3
100
AcDbPoint
 10
57.415505
 20
167.83523
 30
0.0
  0
POINT
  5
37
330
A
100
AcDbEntity
  8
Hawa6
 62
     3
100
AcDbPoint
 10
29.415505
 20
167.83523
 30
0.0
  0
DIMENSION
  5
39
330
A
100
AcDbEntity
  8
HAWA1
 62
     0
100
AcDbDimension
  2
*D6
 10
160.860702
 20
189.83527
 30
0.0
 11
160.860702
 21
179.83527
 31
0.0
 70
   160
 71
     5
 42
-1.0
 52
89.999523
  3
STANDARD
100
AcDbAlignedDimension
 13
151.153854
 23
169.83527
 33
0.0
 14
150.860702
 24
189.83527
 34
0.0
 50
89.999523
100
AcDbRotatedDimension
  0
DIMENSION
  5
3B
330
A
100
AcDbEntity
  8
HAWA1
 62
     0
100
AcDbDimension
  2
*D7
 10
151.153854
 20
162.026119
 30
0.0
 11
141.153854
 21
162.026119
 31
0.0
 70
   161
 71
     5
 42
-1.0
 52
89.999523
  3
STANDARD
100
AcDbAlignedDimension
 13
131.153854
 23
169.83527
 33
0.0
 14
151.153854
 24
169.83527
 34
0.0
  0
DIMENSION
  5
3D
330
A
100
AcDbEntity
  8
HAWA1
 62
     0
100
AcDbDimension
  2
*D8
 10
121.340301
 20
189.83527
 30
0.0
 11
121.340301
 21
181.401478
 31
0.0
 70
   160
 71
     5
 42
-1.0
 52
89.999523
  3
STANDARD
100
AcDbAlignedDimension
 13
137.153854
 23
177.83527
 33
0.0
 14
131.340301
 24
189.83527
 34
0.0
 50
89.999523
100
AcDbRotatedDimension
  0
DIMENSION
  5
3F
330
A
100
AcDbEntity
  8
HAWA1
 62
     0
100
AcDbDimension
  2
*D9
 10
136.153854
 20
199.610538
 30
0.0
 11
155.470871
 21
199.610538
 31
0.0
 70
   161
 71
     5
 42
-1.0
 52
89.999523
  3
STANDARD
100
AcDbAlignedDimension
 13
146.153854
 23
204.83527
 33
0.0
 14
136.153854
 24
204.83527
 34
0.0
  0
DIMENSION
  5
41
330
A
100
AcDbEntity
  8
HAWA1
 62
     0
100
AcDbDimension
  2
*D10
 10
146.153854
 20
199.610538
 30
0.0
 11
171.023673
 21
199.610538
 31
0.0
 70
   161
  1
(8
 71
     5
 42
-1.0
 52
89.999523
  3
STANDARD
100
AcDbAlignedDimension
 13
136.153854
 23
204.83527
 33
0.0
 14
146.153854
 24
204.83527
 34
0.0
  0
DIMENSION
  5
43
330
A
100
AcDbEntity
  8
HAWA1
 62
     0
100
AcDbDimension
  2
*D11
 10
146.153854
 20
199.610538
 30
0.0
 11
189.858051
 21
199.610538
 31
0.0
 70
   161
  1
-<>
 71
     5
 42
-1.0
 52
89.999523
  3
STANDARD
100
AcDbAlignedDimension
 13
136.153854
 23
204.83527
 33
0.0
 14
146.153854
 24
204.83527
 34
0.0
  0
LINE
  5
44
330
A
100
AcDbEntity
  8
Hawa5
  6
DASHDOT
 62
     1
 48
0.008417
100
AcDbLine
 10
141.153854
 20
172.393338
 30
0.0
 11
141.153854
 21
172.056668
 31
0.0
  0
LINE
  5
45
330
A
100
AcDbEntity
  8
Hawa5
  6
DASHDOT
 62
     1
 48
0.004486
100
AcDbLine
 10
141.153854
 20
168.436063
 30
0.0
 11
141.153854
 21
168.256619
 31
0.0
  0
LINE
  5
518
330
A
100
AcDbEntity
  8
Hawa5
 62
     1
100
AcDbLine
 10
82.41550399999999
 20
167.835231
 30
0.0
 11
57.41550400000001
 21
167.835231
 31
0.0
  0
LINE
  5
519
330
A
100
AcDbEntity
  8
Hawa5
 62
     1
100
AcDbLine
 10
29.415504
 20
167.835231
 30
0.0
 11
2.415503999999998
 21
167.835231
 31
0.0
  0
LINE
  5
51A
330
A
100
AcDbEntity
  8
Hawa5
  6
PHANTOM
 62
     1
 48
0.2
100
AcDbLine
 10
47.415504
 20
198.835231
 30
0.0
 11
39.415504
 21
198.835231
 31
0.0
  0
LINE
  5
51B
330
A
100
AcDbEntity
  8
Hawa5
 62
     1
100
AcDbLine
 10
47.415504
 20
178.835231
 30
0.0
 11
47.415504
 21
198.835231
 31
0.0
  0
LINE
  5
51C
330
A
100
AcDbEntity
  8
Hawa5
 62
     1
 48
0.035355
100
AcDbLine
 10
46.41550399999999
 20
177.835231
 30
0.0
 11
47.415504
 21
178.835231
 31
0.0
  0
LINE
  5
51D
330
A
100
AcDbEntity
  8
Hawa5
 62
     1
 48
0.15
100
AcDbLine
 10
46.41550399999999
 20
177.835231
 30
0.0
 11
40.415504
 21
177.835231
 31
0.0
  0
LINE
  5
51E
330
A
100
AcDbEntity
  8
Hawa5
 62
     1
 48
0.035355
100
AcDbLine
 10
40.415504
 20
177.835231
 30
0.0
 11
39.415504
 21
178.835231
 31
0.0
  0
LINE
  5
51F
330
A
100
AcDbEntity
  8
Hawa5
 62
     1
100
AcDbLine
 10
39.415504
 20
178.835231
 30
0.0
 11
39.415504
 21
198.835231
 31
0.0
  0
LINE
  5
520
330
A
100
AcDbEntity
  8
Hawa6
 62
     3
 48
0.037477
100
AcDbLine
 10
29.415504
 20
167.835231
 30
0.0
 11
30.91458900000001
 21
167.835231
 31
0.0
  0
LINE
  5
521
330
A
100
AcDbEntity
  8
Hawa6
 62
     3
 48
0.312523
100
AcDbLine
 10
43.415504
 20
167.835231
 30
0.0
 11
30.91458900000001
 21
167.835231
 31
0.0
  0
LINE
  5
522
330
A
100
AcDbEntity
  8
Hawa6
 62
     3
 48
0.312523
100
AcDbLine
 10
55.91642000000001
 20
167.835231
 30
0.0
 11
43.415504
 21
167.835231
 31
0.0
  0
LINE
  5
523
330
A
100
AcDbEntity
  8
Hawa6
 62
     3
 48
0.037477
100
AcDbLine
 10
55.91642000000001
 20
167.835231
 30
0.0
 11
57.41550400000001
 21
167.835231
 31
0.0
  0
LINE
  5
524
330
A
100
AcDbEntity
  8
Hawa6
 62
     3
100
AcDbLine
 10
56.55811299999999
 20
192.387721
 30
0.0
 11
57.41550400000001
 21
167.835231
 31
0.0
  0
ELLIPSE
  5
525
330
A
100
AcDbEntity
  8
Hawa6
 62
     3
100
AcDbEllipse
 10
55.05902900000001
 20
192.335231
 30
0.0
 11
1.499086260795593
 21
0.0523492433130741
 31
0.0
210
0.0
220
0.0
230
0.9999999999999998
 40
0.034878
 41
0.0000000000000584
 42
1.569578409194946
  0
LINE
  5
526
330
A
100
AcDbEntity
  8
Hawa6
 62
     3
100
AcDbLine
 10
55.05902900000001
 20
192.387721
 30
0.0
 11
55.91642000000001
 21
167.835231
 31
0.0
  0
LINE
  5
527
330
A
100
AcDbEntity
  8
Hawa6
 62
     3
100
AcDbLine
 10
30.272896
 20
192.387721
 30
0.0
 11
29.415504
 21
167.835231
 31
0.0
  0
LINE
  5
528
330
A
100
AcDbEntity
  8
Hawa6
 62
     3
 48
0.063251
100
AcDbLine
 10
33.51619700000001
 20
172.335231
 30
0.0
 11
33.51619700000001
 21
174.86526
 31
0.0
  0
LINE
  5
529
330
A
100
AcDbEntity
  8
Hawa6
 62
     3
 48
0.061749
100
AcDbLine
 10
33.51619700000001
 20
187.36526
 30
0.0
 11
33.51619700000001
 21
189.835231
 31
0.0
  0
ARC
  5
52A
330
A
100
AcDbEntity
  8
Hawa6
 62
     3
100
AcDbCircle
 10
33.30342899999999
 20
191.335231
 30
0.0
 40
1.499997999999999
100
AcDbArc
 50
223.1118500000017
 51
270.000004
  0
LINE
  5
52B
330
A
100
AcDbEntity
  8
Hawa6
 62
     3
 48
0.449371
100
AcDbLine
 10
32.20839699999999
 20
172.335231
 30
0.0
 11
32.20839699999999
 21
190.3100840000002
 31
0.0
  0
ARC
  5
52C
330
A
100
AcDbEntity
  8
Hawa6
 62
     3
100
AcDbCircle
 10
829.391792
 20
182.759059
 30
0.0
 40
797.476257
100
AcDbArc
 50
179.4915930000003
 51
180.0035699999606
  0
LINE
  5
52D
330
A
100
AcDbEntity
  8
Hawa6
 62
     3
 48
0.038814
100
AcDbLine
 10
31.94695300000001
 20
189.835231
 30
0.0
 11
31.96253200000001
 21
191.387721
 31
0.0
  0
LWPOLYLINE
  5
52E
330
A
100
AcDbEntity
  8
Hawa6
 62
     3
100
AcDbPolyline
 90
       14
 70
     0
 43
0.0
 10
32.20839699999999
 20
190.3100840000002
 10
32.16513800000001
 20
190.361598
 10
32.12731200000002
 20
190.4177500000001
 10
32.094673
 20
190.4780530000003
 10
32.06684100000001
 20
190.5422619999999
 10
32.04340400000001
 20
190.609645
 10
32.02390299999999
 20
190.6799570000003
 10
32.00789600000002
 20
190.7529549999999
 10
31.99492599999999
 20
190.827906
 10
31.98458099999999
 20
190.9048110000003
 10
31.97655499999999
 20
190.9831800000002
 10
31.97051200000001
 20
191.06277
 10
31.96355400000002
 20
191.224635
 10
31.96253200000001
 20
191.387721
  0
LINE
  5
52F
330
A
100
AcDbEntity
  8
Hawa6
 62
     3
 48
0.259357
100
AcDbLine
 10
31.915504
 20
182.7094980000002
 30
0.0
 11
31.915504
 21
172.335231
 31
0.0
  0
ARC
  5
530
330
A
100
AcDbEntity
  8
Hawa6
 62
     3
100
AcDbCircle
 10
55.05902900000001
 20
192.335231
 30
0.0
 40
1.5
100
AcDbArc
 50
2.000000000003411
 51
90.00000299999987
  0
LINE
  5
531
330
A
100
AcDbEntity
  8
Hawa6
 62
     3
 48
0.036188
100
AcDbLine
 10
55.05902900000001
 20
193.835231
 30
0.0
 11
55.05902900000001
 21
192.387721
 31
0.0
  0
ARC
  5
532
330
A
100
AcDbEntity
  8
Hawa6
 62
     3
100
AcDbCircle
 10
31.77198000000001
 20
192.335231
 30
0.0
 40
1.5
100
AcDbArc
 50
90.00000299999987
 51
178.0000030000024
  0
LINE
  5
533
330
A
100
AcDbEntity
  8
Hawa6
 62
     3
 48
0.070302
100
AcDbLine
 10
36.11550099999999
 20
189.835231
 30
0.0
 11
33.30342899999999
 21
189.835231
 31
0.0
  0
LWPOLYLINE
  5
534
330
A
100
AcDbEntity
  8
Hawa6
 62
     3
100
AcDbPolyline
 90
       10
 70
     0
 43
0.0
 10
51.915504
 20
192.387721
 10
51.434563
 20
192.984156
 10
51.10814699999999
 20
193.3825940000002
 10
50.92620099999999
 20
193.600856
 10
50.81942000000001
 20
193.725856
 10
50.766807
 20
193.7854259999999
 10
50.73180400000001
 20
193.8225350000002
 10
50.72150400000001
 20
193.8320570000001
 10
50.718162
 20
193.8344980000002
 10
50.71623999999999
 20
193.835231
  0
LINE
  5
535
330
A
100
AcDbEntity
  8
Hawa6
 62
     3
 48
0.078588
100
AcDbLine
 10
51.915504
 20
192.387721
 30
0.0
 11
55.05902900000001
 21
192.387721
 31
0.0
  0
LINE
  5
536
330
A
100
AcDbEntity
  8
Hawa6
 62
     3
 48
0.108588
100
AcDbLine
 10
50.715507
 20
193.835231
 30
0.0
 11
55.05902900000001
 21
193.835231
 31
0.0
  0
LINE
  5
537
330
A
100
AcDbEntity
  8
Hawa6
 62
     3
 48
0.108588
100
AcDbLine
 10
31.77198000000001
 20
193.835231
 30
0.0
 11
36.11550099999999
 21
193.835231
 31
0.0
  0
ELLIPSE
  5
538
330
A
100
AcDbEntity
  8
Hawa6
 62
     3
100
AcDbEllipse
 10
31.77198000000001
 20
192.335231
 30
0.0
 11
-1.499086260795593
 21
0.0523491762578487
 31
0.0
210
0.0
220
0.0
230
1.0
 40
0.034878
 41
4.713606834411621
 42
6.283185482025146
  0
LINE
  5
539
330
A
100
AcDbEntity
  8
Hawa6
 62
     3
 48
0.036188
100
AcDbLine
 10
31.77198000000001
 20
193.835231
 30
0.0
 11
31.77198000000001
 21
192.387721
 31
0.0
  0
LWPOLYLINE
  5
53A
330
A
100
AcDbEntity
  8
Hawa6
 62
     3
100
AcDbPolyline
 90
       10
 70
     0
 43
0.0
 10
51.915504
 20
192.387721
 10
51.387215
 20
192.8066659999999
 10
50.96980999999999
 20
193.132106
 10
50.73114799999999
 20
193.3142339999999
 10
50.58562499999999
 20
193.4226330000001
 10
50.509941
 20
193.47732
 10
50.454842
 20
193.5149180000003
 10
50.423012
 20
193.5337170000003
 10
50.41864799999999
 20
193.5356700000001
 10
50.41642000000002
 20
193.5356700000001
  0
ARC
  5
53B
330
A
100
AcDbEntity
  8
Hawa6
 62
     3
100
AcDbCircle
 10
50.716347
 20
193.5354259999999
 30
0.0
 40
0.299909
100
AcDbArc
 50
90.02008299999943
 51
179.9503910000424
  0
ARC
  5
53C
330
A
100
AcDbEntity
  8
Hawa6
 62
     3
100
AcDbCircle
 10
36.11550099999999
 20
193.5351820000001
 30
0.0
 40
0.3
100
AcDbArc
 50
0.0
 51
90.00000300000095
  0
LINE
  5
53D
330
A
100
AcDbEntity
  8
Hawa6
 62
     3
 48
0.078588
100
AcDbLine
 10
31.77198000000001
 20
192.387721
 30
0.0
 11
34.915504
 21
192.387721
 31
0.0
  0
LWPOLYLINE
  5
53E
330
A
100
AcDbEntity
  8
Hawa6
 62
     3
100
AcDbPolyline
 90
       10
 70
     0
 43
0.0
 10
34.915504
 20
192.387721
 10
35.39644600000001
 20
192.984156
 10
35.72286199999999
 20
193.3825940000002
 10
35.904808
 20
193.600856
 10
36.01158900000001
 20
193.725856
 10
36.06420100000001
 20
193.7854259999999
 10
36.09920500000001
 20
193.8225350000002
 10
36.10950500000001
 20
193.8320570000001
 10
36.11284599999999
 20
193.8344980000002
 10
36.114769
 20
193.835231
  0
LINE
  5
540
330
A
100
AcDbEntity
  8
Hawa6
 62
     3
 48
0.025
100
AcDbLine
 10
51.915504
 20
192.387721
 30
0.0
 11
51.915504
 21
191.387721
 31
0.0
  0
LINE
  5
541
330
A
100
AcDbEntity
  8
Hawa6
 62
     3
 48
0.084998
100
AcDbLine
 10
50.415504
 20
193.5351820000001
 30
0.0
 11
50.415504
 21
190.1352790000001
 31
0.0
  0
LWPOLYLINE
  5
542
330
A
100
AcDbEntity
  8
Hawa6
 62
     3
100
AcDbPolyline
 90
       10
 70
     0
 43
0.0
 10
51.915504
 20
191.387721
 10
51.37705199999999
 20
190.9536390000003
 10
50.953239
 20
190.6059829999999
 10
50.71315799999999
 20
190.405299
 10
50.56914499999999
 20
190.2820080000001
 10
50.49608599999999
 20
190.2173110000003
 10
50.44509099999999
 20
190.1699470000003
 10
50.41883100000001
 20
190.1421150000001
 10
50.41600800000001
 20
190.1382090000002
 10
50.415504
 20
190.1360119999999
  0
LINE
  5
543
330
A
100
AcDbEntity
  8
Hawa6
 62
     3
 48
0.084998
100
AcDbLine
 10
36.415504
 20
193.5351820000001
 30
0.0
 11
36.415504
 21
190.1352790000001
 31
0.0
  0
LWPOLYLINE
  5
544
330
A
100
AcDbEntity
  8
Hawa6
 62
     3
100
AcDbPolyline
 90
        9
 70
     0
 43
0.0
 10
51.915504
 20
191.387721
 10
51.42539200000001
 20
190.7707770000001
 10
51.09438299999999
 20
190.347682
 10
50.91198
 20
190.110377
 10
50.80713600000001
 20
189.970729
 10
50.73917399999999
 20
189.876002
 10
50.718162
 20
189.8430430000003
 10
50.71590399999998
 20
189.8386490000003
 10
50.715507
 20
189.8362070000003
  0
ELLIPSE
  5
545
330
A
100
AcDbEntity
  8
Hawa6
 62
     3
100
AcDbEllipse
 10
50.715507
 20
190.1360119999999
 30
0.0
 11
0.3000000119209289
 21
0.0
 31
0.0
210
0.0
220
0.0
230
1.0
 40
0.9993909999999999
 41
3.141592741012573
 42
4.71238899230957
  0
LWPOLYLINE
  5
546
330
A
100
AcDbEntity
  8
Hawa6
 62
     3
100
AcDbPolyline
 90
       10
 70
     0
 43
0.0
 10
34.915504
 20
191.387721
 10
35.453957
 20
190.9536390000003
 10
35.877769
 20
190.6059829999999
 10
36.117851
 20
190.405299
 10
36.261864
 20
190.2820080000001
 10
36.334923
 20
190.2173110000003
 10
36.385918
 20
190.1699470000003
 10
36.41217800000001
 20
190.1421150000001
 10
36.41500099999999
 20
190.1382090000002
 10
36.415504
 20
190.1360119999999
  0
LWPOLYLINE
  5
547
330
A
100
AcDbEntity
  8
Hawa6
 62
     3
100
AcDbPolyline
 90
       10
 70
     0
 43
0.0
 10
34.915504
 20
192.387721
 10
35.443794
 20
192.8066659999999
 10
35.861198
 20
193.132106
 10
36.099861
 20
193.3142339999999
 10
36.245384
 20
193.4226330000001
 10
36.321068
 20
193.47732
 10
36.37616700000001
 20
193.5149180000003
 10
36.40799699999999
 20
193.5337170000003
 10
36.412361
 20
193.5356700000001
 10
36.41458900000001
 20
193.5356700000001
  0
LINE
  5
548
330
A
100
AcDbEntity
  8
Hawa6
 62
     3
 48
0.025
100
AcDbLine
 10
34.915504
 20
192.387721
 30
0.0
 11
34.915504
 21
191.387721
 31
0.0
  0
ARC
  5
549
330
A
100
AcDbEntity
  8
Hawa6
 62
     3
100
AcDbCircle
 10
53.52758000000001
 20
191.335231
 30
0.0
 40
1.499997999999999
100
AcDbArc
 50
269.9999970000005
 51
316.8881499999983
  0
LWPOLYLINE
  5
54A
330
A
100
AcDbEntity
  8
Hawa6
 62
     3
100
AcDbPolyline
 90
       14
 70
     0
 43
0.0
 10
54.622612
 20
190.3100840000002
 10
54.66587100000001
 20
190.361598
 10
54.70369700000001
 20
190.4177500000001
 10
54.73633599999999
 20
190.4780530000003
 10
54.76416800000001
 20
190.5422619999999
 10
54.787605
 20
190.609645
 10
54.807106
 20
190.6799570000003
 10
54.82311200000001
 20
190.7529549999999
 10
54.83609799999999
 20
190.827906
 10
54.846428
 20
190.9048110000003
 10
54.854454
 20
190.9831800000002
 10
54.86049600000001
 20
191.06277
 10
54.86745400000001
 20
191.224635
 10
54.86847700000001
 20
191.387721
  0
LINE
  5
54B
330
A
100
AcDbEntity
  8
Hawa6
 62
     3
 48
0.073824
100
AcDbLine
 10
54.86847700000001
 20
191.387721
 30
0.0
 11
51.915504
 21
191.387721
 31
0.0
  0
LINE
  5
54C
330
A
100
AcDbEntity
  8
Hawa6
 62
     3
 48
0.070302
100
AcDbLine
 10
53.52758000000001
 20
189.835231
 30
0.0
 11
50.715507
 21
189.835231
 31
0.0
  0
ELLIPSE
  5
54D
330
A
100
AcDbEntity
  8
Hawa6
 62
     3
100
AcDbEllipse
 10
36.11550099999999
 20
190.1360119999999
 30
0.0
 11
-0.300000011920929
 21
-0.0000000262268358
 31
0.0
210
0.0
220
0.0
230
1.0
 40
0.9993909999999999
 41
1.570796370506286
 42
3.141592741012573
  0
LWPOLYLINE
  5
54E
330
A
100
AcDbEntity
  8
Hawa6
 62
     3
100
AcDbPolyline
 90
        9
 70
     0
 43
0.0
 10
34.915504
 20
191.387721
 10
35.40561700000001
 20
190.7707770000001
 10
35.736626
 20
190.347682
 10
35.91902899999999
 20
190.110377
 10
36.02387200000001
 20
189.970729
 10
36.091835
 20
189.876002
 10
36.11284599999999
 20
189.8430430000003
 10
36.115105
 20
189.8386490000003
 10
36.11550099999999
 20
189.8362070000003
  0
ARC
  5
54F
330
A
100
AcDbEntity
  8
Hawa6
 62
     3
100
AcDbCircle
 10
50.715507
 20
190.1352790000001
 30
0.0
 40
0.3
100
AcDbArc
 50
180.0000049045562
 51
270.0000010000003
  0
ARC
  5
550
330
A
100
AcDbEntity
  8
Hawa6
 62
     3
100
AcDbCircle
 10
36.11550099999999
 20
190.1352790000001
 30
0.0
 40
0.3
100
AcDbArc
 50
270.0000010000003
 51
0.0000099931643211
  0
LINE
  5
552
330
A
100
AcDbEntity
  8
Hawa6
 62
     3
 48
0.073824
100
AcDbLine
 10
34.915504
 20
191.387721
 30
0.0
 11
31.96253200000001
 21
191.387721
 31
0.0
  0
LINE
  5
553
330
A
100
AcDbEntity
  8
Hawa6
 62
     3
 48
0.063251
100
AcDbLine
 10
53.31481200000002
 20
172.335231
 30
0.0
 11
53.31481200000002
 21
174.86526
 31
0.0
  0
LINE
  5
554
330
A
100
AcDbEntity
  8
Hawa6
 62
     3
 48
0.061749
100
AcDbLine
 10
53.31481200000002
 20
187.36526
 30
0.0
 11
53.31481200000002
 21
189.835231
 31
0.0
  0
LINE
  5
555
330
A
100
AcDbEntity
  8
Hawa6
 62
     3
 48
0.449371
100
AcDbLine
 10
54.622612
 20
172.335231
 30
0.0
 11
54.622612
 21
190.3100840000002
 31
0.0
  0
LINE
  5
556
330
A
100
AcDbEntity
  8
Hawa6
 62
     3
 48
0.038814
100
AcDbLine
 10
54.88405600000002
 20
189.835231
 30
0.0
 11
54.86847700000001
 21
191.387721
 31
0.0
  0
ARC
  5
557
330
A
100
AcDbEntity
  8
Hawa6
 62
     3
100
AcDbCircle
 10
-742.560783
 20
182.759059
 30
0.0
 40
797.476257
100
AcDbArc
 50
359.9964330001197
 51
0.5084079999992117
  0
LINE
  5
558
330
A
100
AcDbEntity
  8
Hawa6
 62
     3
 48
0.259357
100
AcDbLine
 10
54.91550400000001
 20
182.7094980000002
 30
0.0
 11
54.91550400000001
 21
172.335231
 31
0.0
  0
LINE
  5
559
330
A
100
AcDbEntity
  8
Hawa6
 62
     3
100
AcDbLine
 10
31.77198000000001
 20
192.387721
 30
0.0
 11
30.91458900000001
 21
167.835231
 31
0.0
  0
LINE
  5
55A
330
A
100
AcDbEntity
  8
Hawa6
 62
     3
 48
0.045875
100
AcDbLine
 10
31.915504
 20
172.335231
 30
0.0
 11
33.75051100000002
 21
172.335231
 31
0.0
  0
LINE
  5
55B
330
A
100
AcDbEntity
  8
Hawa6
 62
     3
 48
0.241625
100
AcDbLine
 10
33.75051100000002
 20
172.335231
 30
0.0
 11
43.415504
 21
172.335231
 31
0.0
  0
LINE
  5
55C
330
A
100
AcDbEntity
  8
Hawa6
 62
     3
 48
0.241625
100
AcDbLine
 10
43.415504
 20
172.335231
 30
0.0
 11
53.08049800000001
 21
172.335231
 31
0.0
  0
LINE
  5
55D
330
A
100
AcDbEntity
  8
Hawa6
 62
     3
 48
0.045875
100
AcDbLine
 10
53.08049800000001
 20
172.335231
 30
0.0
 11
54.91550400000001
 21
172.335231
 31
0.0
  0
LINE
  5
55E
330
A
100
AcDbEntity
  8
Hawa6
 62
     3
 48
0.063251
100
AcDbLine
 10
33.75051100000002
 20
172.335231
 30
0.0
 11
33.75051100000002
 21
174.86526
 31
0.0
  0
LINE
  5
55F
330
A
100
AcDbEntity
  8
Hawa6
 62
     3
 48
0.061749
100
AcDbLine
 10
33.75051100000002
 20
187.36526
 30
0.0
 11
33.75051100000002
 21
189.835231
 31
0.0
  0
LINE
  5
560
330
A
100
AcDbEntity
  8
Hawa6
 62
     3
 48
0.061749
100
AcDbLine
 10
53.08049800000001
 20
189.835231
 30
0.0
 11
53.08049800000001
 21
187.36526
 31
0.0
  0
LINE
  5
561
330
A
100
AcDbEntity
  8
Hawa6
 62
     3
 48
0.063251
100
AcDbLine
 10
53.08049800000001
 20
174.86526
 30
0.0
 11
53.08049800000001
 21
172.335231
 31
0.0
  0
ELLIPSE
  5
562
330
A
100
AcDbEntity
  8
Hawa6
 62
     3
100
AcDbEllipse
 10
35.11370099999999
 20
184.86526
 30
0.0
 11
0.0000000387558607
 21
-3.25
 31
0.0
210
0.0
220
0.0
230
0.9999999999999998
 40
0.017452
 41
2.455022573471068
 42
3.141592741012573
  0
ELLIPSE
  5
563
330
A
100
AcDbEntity
  8
Hawa6
 62
     3
100
AcDbEllipse
 10
35.11370099999999
 20
184.86526
 30
0.0
 11
0.0000000387558607
 21
-3.25
 31
0.0
210
0.0
220
0.0
230
0.9999999999999998
 40
0.017452
 41
3.141592741012573
 42
3.839635372161865
  0
ELLIPSE
  5
564
330
A
100
AcDbEntity
  8
Hawa6
 62
     3
100
AcDbEllipse
 10
35.06133299999999
 20
175.11526
 30
0.0
 11
0.0000000119248806
 21
-1.0
 31
0.0
210
0.0
220
0.0
230
1.0
 40
0.017452
 41
4.96506929397583
 42
6.283185482025146
  0
LINE
  5
565
330
A
100
AcDbEntity
  8
Hawa6
 62
     3
 48
0.002618
100
AcDbLine
 10
35.06133299999999
 20
174.11526
 30
0.0
 11
35.16605399999999
 21
174.11526
 31
0.0
  0
ELLIPSE
  5
566
330
A
100
AcDbEntity
  8
Hawa6
 62
     3
100
AcDbEllipse
 10
35.16605399999999
 20
175.11526
 30
0.0
 11
0.0000000119248806
 21
-1.0
 31
0.0
210
0.0
220
0.0
230
1.0
 40
0.017452
 41
6.283185482025146
 42
7.600130081176757
  0
LINE
  5
567
330
A
100
AcDbEntity
  8
Hawa6
 62
     3
 48
0.011346
100
AcDbLine
 10
35.012474
 20
188.24026
 30
0.0
 11
34.55863200000002
 21
188.24026
 31
0.0
  0
LWPOLYLINE
  5
568
330
A
100
AcDbEntity
  8
Hawa6
 62
     3
100
AcDbPolyline
 90
        8
 70
     0
 43
0.0
 10
34.541313
 20
187.36526
 10
34.54459399999999
 20
187.8337660000002
 10
34.54885100000001
 20
188.068385
 10
34.552818
 20
188.1828869999999
 10
34.55568700000001
 20
188.225856
 10
34.557152
 20
188.236598
 10
34.55785399999999
 20
188.2392829999999
 10
34.55863200000002
 20
188.24026
  0
LINE
  5
569
330
A
100
AcDbEntity
  8
Hawa6
 62
     3
 48
0.061749
100
AcDbLine
 10
35.188606
 20
187.36526
 30
0.0
 11
35.188606
 21
189.835231
 31
0.0
  0
LINE
  5
56A
330
A
100
AcDbEntity
  8
Hawa6
 62
     3
 48
0.063251
100
AcDbLine
 10
35.188606
 20
172.335231
 30
0.0
 11
35.188606
 21
174.86526
 31
0.0
  0
LINE
  5
56B
330
A
100
AcDbEntity
  8
Hawa6
 62
     3
 48
0.063251
100
AcDbLine
 10
34.415504
 20
174.86526
 30
0.0
 11
34.415504
 21
172.335231
 31
0.0
  0
LWPOLYLINE
  5
56C
330
A
100
AcDbEntity
  8
Hawa6
 62
     3
100
AcDbPolyline
 90
        8
 70
     0
 43
0.0
 10
34.541313
 20
174.86526
 10
34.54459399999999
 20
174.3967540000003
 10
34.54885100000001
 20
174.162135
 10
34.552818
 20
174.047633
 10
34.55568700000001
 20
174.004664
 10
34.557152
 20
173.9939220000001
 10
34.55785399999999
 20
173.9912360000003
 10
34.55863200000002
 20
173.99026
  0
LINE
  5
56D
330
A
100
AcDbEntity
  8
Hawa6
 62
     3
 48
0.011346
100
AcDbLine
 10
34.55863200000002
 20
173.99026
 30
0.0
 11
35.012474
 21
173.99026
 31
0.0
  0
ELLIPSE
  5
56E
330
A
100
AcDbEntity
  8
Hawa6
 62
     3
100
AcDbEllipse
 10
35.012474
 20
174.99026
 30
0.0
 11
0.000000011924846
 21
-0.9999970793724058
 31
0.0
210
0.0
220
0.0
230
1.0
 40
0.017455
 41
6.283185005187987
 42
7.728149890899657
  0
ELLIPSE
  5
56F
330
A
100
AcDbEntity
  8
Hawa6
 62
     3
100
AcDbEllipse
 10
35.012474
 20
187.24026
 30
0.0
 11
0.000000011924846
 21
-0.9999970793724058
 31
0.0
210
0.0
220
0.0
230
1.0
 40
0.017455
 41
1.696577787399291
 42
3.141592979431151
  0
LINE
  5
570
330
A
100
AcDbEntity
  8
Hawa6
 62
     3
 48
0.061749
100
AcDbLine
 10
34.415504
 20
189.835231
 30
0.0
 11
34.415504
 21
187.36526
 31
0.0
  0
LINE
  5
571
330
A
100
AcDbEntity
  8
Hawa6
 62
     3
 48
0.0075
100
AcDbLine
 10
33.81549799999999
 20
187.36526
 30
0.0
 11
33.51551000000001
 21
187.36526
 31
0.0
  0
LINE
  5
572
330
A
100
AcDbEntity
  8
Hawa6
 62
     3
 48
0.0525
100
AcDbLine
 10
35.915504
 20
187.36526
 30
0.0
 11
33.81549799999999
 21
187.36526
 31
0.0
  0
LINE
  5
573
330
A
100
AcDbEntity
  8
Hawa6
 62
     3
 48
0.0125
100
AcDbLine
 10
36.415504
 20
187.36526
 30
0.0
 11
35.915504
 21
187.36526
 31
0.0
  0
LINE
  5
574
330
A
100
AcDbEntity
  8
Hawa6
 62
     3
 48
0.062482
100
AcDbLine
 10
38.915504
 20
187.36526
 30
0.0
 11
36.416222
 21
187.36526
 31
0.0
  0
LINE
  5
575
330
A
100
AcDbEntity
  8
Hawa6
 62
     3
 48
0.024577
100
AcDbLine
 10
37.417168
 20
187.36526
 30
0.0
 11
36.43407400000001
 21
187.36526
 31
0.0
  0
LINE
  5
576
330
A
100
AcDbEntity
  8
Hawa6
 62
     3
 48
0.0075
100
AcDbLine
 10
33.81549799999999
 20
174.86526
 30
0.0
 11
33.51551000000001
 21
174.86526
 31
0.0
  0
LINE
  5
577
330
A
100
AcDbEntity
  8
Hawa6
 62
     3
 48
0.0525
100
AcDbLine
 10
33.81549799999999
 20
174.86526
 30
0.0
 11
35.915504
 21
174.86526
 31
0.0
  0
LINE
  5
578
330
A
100
AcDbEntity
  8
Hawa6
 62
     3
 48
0.0125
100
AcDbLine
 10
36.415504
 20
174.86526
 30
0.0
 11
35.915504
 21
174.86526
 31
0.0
  0
LINE
  5
579
330
A
100
AcDbEntity
  8
Hawa6
 62
     3
 48
0.062429
100
AcDbLine
 10
38.915504
 20
174.86526
 30
0.0
 11
36.41835800000001
 21
174.86526
 31
0.0
  0
LINE
  5
57A
330
A
100
AcDbEntity
  8
Hawa6
 62
     3
 48
0.02
100
AcDbLine
 10
33.81549799999999
 20
186.86526
 30
0.0
 11
33.01551000000001
 21
186.86526
 31
0.0
  0
LINE
  5
57B
330
A
100
AcDbEntity
  8
Hawa6
 62
     3
 48
0.0125
100
AcDbLine
 10
33.81549799999999
 20
187.36526
 30
0.0
 11
33.81549799999999
 21
186.86526
 31
0.0
  0
LINE
  5
57C
330
A
100
AcDbEntity
  8
Hawa6
 62
     3
 48
0.0525
100
AcDbLine
 10
35.915504
 20
186.86526
 30
0.0
 11
33.81549799999999
 21
186.86526
 31
0.0
  0
LINE
  5
57D
330
A
100
AcDbEntity
  8
Hawa6
 62
     3
 48
0.0125
100
AcDbLine
 10
35.915504
 20
187.36526
 30
0.0
 11
35.915504
 21
186.86526
 31
0.0
  0
LINE
  5
57E
330
A
100
AcDbEntity
  8
Hawa6
 62
     3
 48
0.025
100
AcDbLine
 10
36.915504
 20
186.86526
 30
0.0
 11
35.915504
 21
186.86526
 31
0.0
  0
ARC
  5
57F
330
A
100
AcDbEntity
  8
Hawa6
 62
     3
100
AcDbCircle
 10
36.415504
 20
186.86526
 30
0.0
 40
0.5
100
AcDbArc
 50
0.0
 51
90.00000300000095
  0
LINE
  5
580
330
A
100
AcDbEntity
  8
Hawa6
 62
     3
 48
0.0625
100
AcDbLine
 10
39.415504
 20
186.86526
 30
0.0
 11
36.915504
 21
186.86526
 31
0.0
  0
ELLIPSE
  5
581
330
A
100
AcDbEntity
  8
Hawa6
 62
     3
100
AcDbEllipse
 10
36.43407400000001
 20
186.86526
 30
0.0
 11
-0.0000000218556941
 21
0.5
 31
0.0
210
0.0
220
0.0
230
1.0
 40
0.9741290000000001
 41
6.283185482025146
 42
6.291244506835937
  0
LINE
  5
582
330
A
100
AcDbEntity
  8
Hawa6
 62
     3
 48
0.0125
100
AcDbLine
 10
33.81549799999999
 20
175.36526
 30
0.0
 11
33.81549799999999
 21
174.86526
 31
0.0
  0
LINE
  5
583
330
A
100
AcDbEntity
  8
Hawa6
 62
     3
 48
0.02
100
AcDbLine
 10
33.81549799999999
 20
175.36526
 30
0.0
 11
33.01551000000001
 21
175.36526
 31
0.0
  0
LINE
  5
584
330
A
100
AcDbEntity
  8
Hawa6
 62
     3
 48
0.0125
100
AcDbLine
 10
35.915504
 20
175.36526
 30
0.0
 11
35.915504
 21
174.86526
 31
0.0
  0
LINE
  5
585
330
A
100
AcDbEntity
  8
Hawa6
 62
     3
 48
0.0525
100
AcDbLine
 10
33.81549799999999
 20
175.36526
 30
0.0
 11
35.915504
 21
175.36526
 31
0.0
  0
ARC
  5
586
330
A
100
AcDbEntity
  8
Hawa6
 62
     3
100
AcDbCircle
 10
36.415504
 20
175.36526
 30
0.0
 40
0.5
100
AcDbArc
 50
270.0000010000014
 51
0.0000099566261208
  0
LINE
  5
587
330
A
100
AcDbEntity
  8
Hawa6
 62
     3
 48
0.025
100
AcDbLine
 10
36.915504
 20
175.36526
 30
0.0
 11
35.915504
 21
175.36526
 31
0.0
  0
LINE
  5
588
330
A
100
AcDbEntity
  8
Hawa6
 62
     3
 48
0.0625
100
AcDbLine
 10
39.415504
 20
175.36526
 30
0.0
 11
36.915504
 21
175.36526
 31
0.0
  0
LINE
  5
589
330
A
100
AcDbEntity
  8
Hawa6
 62
     3
 48
0.2875
100
AcDbLine
 10
33.81549799999999
 20
175.36526
 30
0.0
 11
33.81549799999999
 21
186.86526
 31
0.0
  0
LINE
  5
58A
330
A
100
AcDbEntity
  8
Hawa6
 62
     3
 48
0.2875
100
AcDbLine
 10
35.915504
 20
175.36526
 30
0.0
 11
35.915504
 21
186.86526
 31
0.0
  0
LINE
  5
58B
330
A
100
AcDbEntity
  8
Hawa6
 62
     3
 48
0.2875
100
AcDbLine
 10
36.915504
 20
175.36526
 30
0.0
 11
36.915504
 21
186.86526
 31
0.0
  0
ARC
  5
58E
330
A
100
AcDbEntity
  8
Hawa6
 62
     3
100
AcDbCircle
 10
33.51551000000001
 20
186.86526
 30
0.0
 40
0.5
100
AcDbArc
 50
89.99999600000093
 51
180.0000049783131
  0
ARC
  5
58F
330
A
100
AcDbEntity
  8
Hawa6
 62
     3
100
AcDbCircle
 10
38.915504
 20
186.86526
 30
0.0
 40
0.5
100
AcDbArc
 50
0.0
 51
90.00000300000095
  0
ARC
  5
590
330
A
100
AcDbEntity
  8
Hawa6
 62
     3
100
AcDbCircle
 10
33.51551000000001
 20
175.36526
 30
0.0
 40
0.5
100
AcDbArc
 50
180.0000049783131
 51
270.0000010000014
  0
ARC
  5
591
330
A
100
AcDbEntity
  8
Hawa6
 62
     3
100
AcDbCircle
 10
38.915504
 20
175.36526
 30
0.0
 40
0.5
100
AcDbArc
 50
269.999996999999
 51
0.0
  0
LINE
  5
592
330
A
100
AcDbEntity
  8
Hawa6
 62
     3
 48
0.2875
100
AcDbLine
 10
33.01551000000001
 20
175.36526
 30
0.0
 11
33.01551000000001
 21
186.86526
 31
0.0
  0
LINE
  5
593
330
A
100
AcDbEntity
  8
Hawa6
 62
     3
 48
0.086749
100
AcDbLine
 10
39.415504
 20
175.36526
 30
0.0
 11
39.415504
 21
178.835231
 31
0.0
  0
ELLIPSE
  5
594
330
A
100
AcDbEntity
  8
Hawa6
 62
     3
100
AcDbEllipse
 10
51.717308
 20
177.36526
 30
0.0
 11
-0.0000001420620208
 21
3.25
 31
0.0
210
0.0
220
0.0
230
0.9999999999999998
 40
0.017452
 41
2.448406934738159
 42
3.141592741012573
  0
ELLIPSE
  5
595
330
A
100
AcDbEntity
  8
Hawa6
 62
     3
100
AcDbEllipse
 10
51.717308
 20
177.36526
 30
0.0
 11
-0.0000001420620208
 21
3.25
 31
0.0
210
0.0
220
0.0
230
0.9999999999999998
 40
0.017452
 41
3.141592741012573
 42
3.834778785705566
  0
ELLIPSE
  5
596
330
A
100
AcDbEntity
  8
Hawa6
 62
     3
100
AcDbEllipse
 10
51.76967600000001
 20
187.11526
 30
0.0
 11
-0.0000000437113883
 21
1.0
 31
0.0
210
0.0
220
0.0
230
1.0
 40
0.017452
 41
4.965005874633789
 42
6.283185482025146
  0
LINE
  5
597
330
A
100
AcDbEntity
  8
Hawa6
 62
     3
 48
0.002618
100
AcDbLine
 10
51.76967600000001
 20
188.11526
 30
0.0
 11
51.66495499999999
 21
188.11526
 31
0.0
  0
ELLIPSE
  5
598
330
A
100
AcDbEntity
  8
Hawa6
 62
     3
100
AcDbEllipse
 10
51.66495499999999
 20
187.11526
 30
0.0
 11
-0.0000000437113883
 21
1.0
 31
0.0
210
0.0
220
0.0
230
1.0
 40
0.017452
 41
0.0000000000000271
 42
1.317010045051574
  0
LINE
  5
599
330
A
100
AcDbEntity
  8
Hawa6
 62
     3
 48
0.011346
100
AcDbLine
 10
51.81853499999999
 20
173.99026
 30
0.0
 11
52.27237700000001
 21
173.99026
 31
0.0
  0
LWPOLYLINE
  5
59A
330
A
100
AcDbEntity
  8
Hawa6
 62
     3
100
AcDbPolyline
 90
        8
 70
     0
 43
0.0
 10
52.28969599999999
 20
174.86526
 10
52.28641500000001
 20
174.3967540000003
 10
52.282158
 20
174.162135
 10
52.27819099999999
 20
174.047633
 10
52.27532200000002
 20
174.004664
 10
52.27385699999999
 20
173.9939220000001
 10
52.27315499999999
 20
173.9912360000003
 10
52.27237700000001
 20
173.99026
  0
LINE
  5
59B
330
A
100
AcDbEntity
  8
Hawa6
 62
     3
 48
0.063251
100
AcDbLine
 10
51.642403
 20
174.86526
 30
0.0
 11
51.642403
 21
172.335231
 31
0.0
  0
LINE
  5
59C
330
A
100
AcDbEntity
  8
Hawa6
 62
     3
 48
0.061749
100
AcDbLine
 10
51.642403
 20
189.835231
 30
0.0
 11
51.642403
 21
187.36526
 31
0.0
  0
LINE
  5
59D
330
A
100
AcDbEntity
  8
Hawa6
 62
     3
 48
0.061749
100
AcDbLine
 10
52.415504
 20
187.36526
 30
0.0
 11
52.415504
 21
189.835231
 31
0.0
  0
LWPOLYLINE
  5
59E
330
A
100
AcDbEntity
  8
Hawa6
 62
     3
100
AcDbPolyline
 90
        8
 70
     0
 43
0.0
 10
52.28969599999999
 20
187.36526
 10
52.28641500000001
 20
187.8337660000002
 10
52.282158
 20
188.068385
 10
52.27819099999999
 20
188.1828869999999
 10
52.27532200000002
 20
188.225856
 10
52.27385699999999
 20
188.236598
 10
52.27315499999999
 20
188.2392829999999
 10
52.27237700000001
 20
188.24026
  0
LINE
  5
59F
330
A
100
AcDbEntity
  8
Hawa6
 62
     3
 48
0.011346
100
AcDbLine
 10
52.27237700000001
 20
188.24026
 30
0.0
 11
51.81853499999999
 21
188.24026
 31
0.0
  0
ELLIPSE
  5
5A0
330
A
100
AcDbEntity
  8
Hawa6
 62
     3
100
AcDbEllipse
 10
51.81853499999999
 20
187.24026
 30
0.0
 11
0.000000011924846
 21
-0.9999970793724058
 31
0.0
210
0.0
220
0.0
230
1.0
 40
0.017455
 41
3.141592264175415
 42
4.586607456207275
  0
ELLIPSE
  5
5A1
330
A
100
AcDbEntity
  8
Hawa6
 62
     3
100
AcDbEllipse
 10
51.81853499999999
 20
174.99026
 30
0.0
 11
0.000000011924846
 21
-0.9999970793724058
 31
0.0
210
0.0
220
0.0
230
1.0
 40
0.017455
 41
4.838220596313476
 42
6.283185482025146
  0
LINE
  5
5A2
330
A
100
AcDbEntity
  8
Hawa6
 62
     3
 48
0.063251
100
AcDbLine
 10
52.415504
 20
172.335231
 30
0.0
 11
52.415504
 21
174.86526
 31
0.0
  0
LINE
  5
5A3
330
A
100
AcDbEntity
  8
Hawa6
 62
     3
 48
0.0075
100
AcDbLine
 10
53.01551
 20
174.86526
 30
0.0
 11
53.31549799999999
 21
174.86526
 31
0.0
  0
LINE
  5
5A4
330
A
100
AcDbEntity
  8
Hawa6
 62
     3
 48
0.0525
100
AcDbLine
 10
50.915504
 20
174.86526
 30
0.0
 11
53.01551
 21
174.86526
 31
0.0
  0
LINE
  5
5A5
330
A
100
AcDbEntity
  8
Hawa6
 62
     3
 48
0.0125
100
AcDbLine
 10
50.415504
 20
174.86526
 30
0.0
 11
50.915504
 21
174.86526
 31
0.0
  0
LINE
  5
5A6
330
A
100
AcDbEntity
  8
Hawa6
 62
     3
 48
0.062428
100
AcDbLine
 10
47.915504
 20
174.86526
 30
0.0
 11
50.41263599999999
 21
174.86526
 31
0.0
  0
LINE
  5
5A7
330
A
100
AcDbEntity
  8
Hawa6
 62
     3
 48
0.0075
100
AcDbLine
 10
53.01551
 20
187.36526
 30
0.0
 11
53.31549799999999
 21
187.36526
 31
0.0
  0
LINE
  5
5A8
330
A
100
AcDbEntity
  8
Hawa6
 62
     3
 48
0.0525
100
AcDbLine
 10
53.01551
 20
187.36526
 30
0.0
 11
50.915504
 21
187.36526
 31
0.0
  0
LINE
  5
5A9
330
A
100
AcDbEntity
  8
Hawa6
 62
     3
 48
0.0125
100
AcDbLine
 10
50.415504
 20
187.36526
 30
0.0
 11
50.915504
 21
187.36526
 31
0.0
  0
LINE
  5
5AA
330
A
100
AcDbEntity
  8
Hawa6
 62
     3
 48
0.062482
100
AcDbLine
 10
47.915504
 20
187.36526
 30
0.0
 11
50.414772
 21
187.36526
 31
0.0
  0
LINE
  5
5AB
330
A
100
AcDbEntity
  8
Hawa6
 62
     3
 48
0.024577
100
AcDbLine
 10
49.41384099999999
 20
187.36526
 30
0.0
 11
50.39693400000001
 21
187.36526
 31
0.0
  0
LINE
  5
5AC
330
A
100
AcDbEntity
  8
Hawa6
 62
     3
 48
0.02
100
AcDbLine
 10
53.01551
 20
175.36526
 30
0.0
 11
53.81549799999999
 21
175.36526
 31
0.0
  0
LINE
  5
5AD
330
A
100
AcDbEntity
  8
Hawa6
 62
     3
 48
0.0125
100
AcDbLine
 10
53.01551
 20
174.86526
 30
0.0
 11
53.01551
 21
175.36526
 31
0.0
  0
LINE
  5
5AE
330
A
100
AcDbEntity
  8
Hawa6
 62
     3
 48
0.0525
100
AcDbLine
 10
50.915504
 20
175.36526
 30
0.0
 11
53.01551
 21
175.36526
 31
0.0
  0
LINE
  5
5AF
330
A
100
AcDbEntity
  8
Hawa6
 62
     3
 48
0.0125
100
AcDbLine
 10
50.915504
 20
174.86526
 30
0.0
 11
50.915504
 21
175.36526
 31
0.0
  0
LINE
  5
5B0
330
A
100
AcDbEntity
  8
Hawa6
 62
     3
 48
0.025
100
AcDbLine
 10
49.915504
 20
175.36526
 30
0.0
 11
50.915504
 21
175.36526
 31
0.0
  0
ARC
  5
5B1
330
A
100
AcDbEntity
  8
Hawa6
 62
     3
100
AcDbCircle
 10
50.415504
 20
175.36526
 30
0.0
 40
0.5
100
AcDbArc
 50
180.0000049783131
 51
270.0000010000014
  0
LINE
  5
5B2
330
A
100
AcDbEntity
  8
Hawa6
 62
     3
 48
0.0625
100
AcDbLine
 10
47.415504
 20
175.36526
 30
0.0
 11
49.915504
 21
175.36526
 31
0.0
  0
LINE
  5
5B3
330
A
100
AcDbEntity
  8
Hawa6
 62
     3
 48
0.0125
100
AcDbLine
 10
53.01551
 20
186.86526
 30
0.0
 11
53.01551
 21
187.36526
 31
0.0
  0
LINE
  5
5B4
330
A
100
AcDbEntity
  8
Hawa6
 62
     3
 48
0.02
100
AcDbLine
 10
53.01551
 20
186.86526
 30
0.0
 11
53.81549799999999
 21
186.86526
 31
0.0
  0
LINE
  5
5B5
330
A
100
AcDbEntity
  8
Hawa6
 62
     3
 48
0.0125
100
AcDbLine
 10
50.915504
 20
186.86526
 30
0.0
 11
50.915504
 21
187.36526
 31
0.0
  0
LINE
  5
5B6
330
A
100
AcDbEntity
  8
Hawa6
 62
     3
 48
0.0525
100
AcDbLine
 10
53.01551
 20
186.86526
 30
0.0
 11
50.915504
 21
186.86526
 31
0.0
  0
ARC
  5
5B7
330
A
100
AcDbEntity
  8
Hawa6
 62
     3
100
AcDbCircle
 10
50.415504
 20
186.86526
 30
0.0
 40
0.5
100
AcDbArc
 50
90.00000300000095
 51
180.0000049783131
  0
LINE
  5
5B8
330
A
100
AcDbEntity
  8
Hawa6
 62
     3
 48
0.025
100
AcDbLine
 10
49.915504
 20
186.86526
 30
0.0
 11
50.915504
 21
186.86526
 31
0.0
  0
LINE
  5
5B9
330
A
100
AcDbEntity
  8
Hawa6
 62
     3
 48
0.0625
100
AcDbLine
 10
47.415504
 20
186.86526
 30
0.0
 11
49.915504
 21
186.86526
 31
0.0
  0
LINE
  5
5BA
330
A
100
AcDbEntity
  8
Hawa6
 62
     3
 48
0.2875
100
AcDbLine
 10
53.01551
 20
186.86526
 30
0.0
 11
53.01551
 21
175.36526
 31
0.0
  0
LINE
  5
5BB
330
A
100
AcDbEntity
  8
Hawa6
 62
     3
 48
0.2875
100
AcDbLine
 10
50.915504
 20
186.86526
 30
0.0
 11
50.915504
 21
175.36526
 31
0.0
  0
LINE
  5
5BC
330
A
100
AcDbEntity
  8
Hawa6
 62
     3
 48
0.2875
100
AcDbLine
 10
49.915504
 20
186.86526
 30
0.0
 11
49.915504
 21
175.36526
 31
0.0
  0
ARC
  5
5BF
330
A
100
AcDbEntity
  8
Hawa6
 62
     3
100
AcDbCircle
 10
53.31549799999999
 20
175.36526
 30
0.0
 40
0.5
100
AcDbArc
 50
269.999996999999
 51
0.0
  0
ARC
  5
5C0
330
A
100
AcDbEntity
  8
Hawa6
 62
     3
100
AcDbCircle
 10
47.915504
 20
175.36526
 30
0.0
 40
0.5
100
AcDbArc
 50
180.0000049783131
 51
270.0000010000014
  0
ARC
  5
5C1
330
A
100
AcDbEntity
  8
Hawa6
 62
     3
100
AcDbCircle
 10
53.31549799999999
 20
186.86526
 30
0.0
 40
0.5
100
AcDbArc
 50
0.0
 51
90.00000300000095
  0
ARC
  5
5C2
330
A
100
AcDbEntity
  8
Hawa6
 62
     3
100
AcDbCircle
 10
47.915504
 20
186.86526
 30
0.0
 40
0.5
100
AcDbArc
 50
90.00000300000095
 51
180.0000049783131
  0
LINE
  5
5C3
330
A
100
AcDbEntity
  8
Hawa6
 62
     3
 48
0.000101
100
AcDbLine
 10
50.41632799999999
 20
187.36526
 30
0.0
 11
50.42038700000001
 21
187.36526
 31
0.0
  0
LINE
  5
5C4
330
A
100
AcDbEntity
  8
Hawa6
 62
     3
 48
0.2875
100
AcDbLine
 10
53.81549799999999
 20
186.86526
 30
0.0
 11
53.81549799999999
 21
175.36526
 31
0.0
  0
LINE
  5
5C5
330
A
100
AcDbEntity
  8
Hawa6
 62
     3
 48
0.2875
100
AcDbLine
 10
47.415504
 20
186.86526
 30
0.0
 11
47.415504
 21
175.36526
 31
0.0
  0
LWPOLYLINE
  5
5C6
330
A
100
AcDbEntity
  8
Hawa5
 62
     1
100
AcDbPolyline
 90
       18
 70
     0
 43
0.0
 10
44.893227
 20
167.8357190000002
 10
44.88132499999999
 20
167.8193610000003
 10
44.867973
 20
167.803981
 10
44.833549
 20
167.772242
 10
44.79019899999999
 20
167.7407480000002
 10
44.73818199999999
 20
167.70901
 10
44.677757
 20
167.6772719999999
 10
44.60924500000001
 20
167.6457770000002
 10
44.532982
 20
167.6137950000001
 10
44.449409
 20
167.5820570000001
 10
44.359047
 20
167.5500740000002
 10
44.262596
 20
167.5183360000001
 10
44.05394699999999
 20
167.4543710000003
 10
43.82883399999999
 20
167.3906510000002
 10
43.47290799999998
 20
167.294703
 10
43.12662499999999
 20
167.2024180000003
 10
42.91121699999999
 20
167.1430920000003
 10
42.69637299999998
 20
167.0805920000003
  0
ARC
  5
5C7
330
A
100
AcDbEntity
  8
Hawa5
 62
     1
100
AcDbCircle
 10
43.71221199999999
 20
163.4394790000001
 30
0.0
 40
3.779306999999999
100
AcDbArc
 50
105.5891099999996
 51
114.3829039999989
  0
LWPOLYLINE
  5
5C8
330
A
100
AcDbEntity
  8
Hawa5
 62
     1
100
AcDbPolyline
 90
       12
 70
     0
 43
0.0
 10
44.67870300000001
 20
166.8493910000002
 10
44.621544
 20
166.8227790000001
 10
44.55818899999999
 20
166.7956800000002
 10
44.48868599999999
 20
166.7683360000001
 10
44.41327699999999
 20
166.7405040000003
 10
44.24672699999999
 20
166.6848399999999
 10
44.064064
 20
166.6289320000001
 10
43.87203199999999
 20
166.5740000000001
 10
43.57692700000001
 20
166.4939220000001
 10
43.125542
 20
166.3735610000003
 10
42.87323800000001
 20
166.303981
 10
42.69637299999998
 20
166.252223
  0
LWPOLYLINE
  5
5C9
330
A
100
AcDbEntity
  8
Hawa5
 62
     1
100
AcDbPolyline
 90
       21
 70
     0
 43
0.0
 10
42.69637299999998
 20
164.5805920000003
 10
42.93013799999999
 20
164.648463
 10
43.215584
 20
164.7263440000002
 10
43.62329899999999
 20
164.834742
 10
43.88402600000001
 20
164.9057870000001
 10
44.13066900000001
 20
164.97732
 10
44.28311899999999
 20
165.0249280000003
 10
44.42308800000001
 20
165.0725350000002
 10
44.54842400000001
 20
165.1201430000001
 10
44.60503400000002
 20
165.1438240000002
 10
44.65734099999999
 20
165.1675060000002
 10
44.70519300000001
 20
165.1911880000002
 10
44.74846600000001
 20
165.2148689999999
 10
44.78702499999999
 20
165.2385509999999
 10
44.820747
 20
165.2622329999999
 10
44.84948
 20
165.285914
 10
44.873131
 20
165.309596
 10
44.89160900000001
 20
165.3332770000002
 10
44.90486899999999
 20
165.3569590000001
 10
44.912834
 20
165.380885
 10
44.915504
 20
165.404567
  0
ARC
  5
5CA
330
A
100
AcDbEntity
  8
Hawa5
 62
     1
100
AcDbCircle
 10
43.71222700000001
 20
160.939723
 30
0.0
 40
3.779199999999999
100
AcDbArc
 50
105.5898059999993
 51
114.3838470000015
  0
LWPOLYLINE
  5
5CB
330
A
100
AcDbEntity
  8
Hawa5
 62
     1
100
AcDbPolyline
 90
       15
 70
     0
 43
0.0
 10
42.69637299999998
 20
166.252223
 10
42.51932500000001
 20
166.1963150000001
 10
42.43595100000002
 20
166.1679939999999
 10
42.35659
 20
166.1391860000003
 10
42.28197500000002
 20
166.1101330000001
 10
42.21292899999999
 20
166.0808360000001
 10
42.15020000000001
 20
166.051539
 10
42.09444400000001
 20
166.0224860000003
 10
42.04612
 20
165.993434
 10
42.00548499999999
 20
165.9646250000001
 10
41.97257200000001
 20
165.9360610000003
 10
41.94727299999999
 20
165.9079839999999
 10
41.92939000000001
 20
165.8801520000002
 10
41.918846
 20
165.8525650000001
 10
41.91550399999999
 20
165.825953
  0
LWPOLYLINE
  5
5CC
330
A
100
AcDbEntity
  8
Hawa5
 62
     1
100
AcDbPolyline
 90
       21
 70
     0
 43
0.0
 10
42.69637299999998
 20
162.0805920000003
 10
42.954811
 20
162.155299
 10
43.30295599999998
 20
162.2495370000001
 10
43.67757399999999
 20
162.3493910000002
 10
43.959022
 20
162.4270270000002
 10
44.14037300000001
 20
162.4802500000001
 10
44.31058499999999
 20
162.5339610000001
 10
44.46384399999998
 20
162.5874280000003
 10
44.532722
 20
162.6137950000002
 10
44.596001
 20
162.6399180000003
 10
44.653557
 20
162.6657970000001
 10
44.70546699999999
 20
162.6914320000001
 10
44.75183899999999
 20
162.7168220000003
 10
44.792198
 20
162.7419690000001
 10
44.826073
 20
162.7663830000001
 10
44.85372199999999
 20
162.78982
 10
44.875755
 20
162.81277
 10
44.89276900000002
 20
162.835231
 10
44.905113
 20
162.857692
 10
44.912819
 20
162.8806410000002
 10
44.915504
 20
162.904567
  0
LWPOLYLINE
  5
5CD
330
A
100
AcDbEntity
  8
Hawa5
 62
     1
100
AcDbPolyline
 90
       11
 70
     0
 43
0.0
 10
44.67859599999999
 20
164.3493910000002
 10
44.63114200000001
 20
164.3269300000002
 10
44.524666
 20
164.282252
 10
44.403831
 20
164.2373299999999
 10
44.270195
 20
164.192164
 10
44.12563299999999
 20
164.147242
 10
43.89286000000001
 20
164.0798589999999
 10
43.56381999999999
 20
163.9905040000003
 10
43.12111699999999
 20
163.8723399999999
 10
42.84523799999998
 20
163.7959239999999
 10
42.69637299999998
 20
163.752223
  0
ARC
  5
5CE
330
A
100
AcDbEntity
  8
Hawa5
 62
     1
100
AcDbCircle
 10
43.711647
 20
158.4414320000001
 30
0.0
 40
3.777317
100
AcDbArc
 50
105.5885710000008
 51
114.3865720000001
  0
LWPOLYLINE
  5
5CF
330
A
100
AcDbEntity
  8
Hawa5
 62
     1
100
AcDbPolyline
 90
       15
 70
     0
 43
0.0
 10
41.91550399999999
 20
163.325953
 10
41.91886099999999
 20
163.3525650000001
 10
41.92943600000001
 20
163.3803969999999
 10
41.94736499999999
 20
163.4082290000001
 10
41.97271
 20
163.4363050000002
 10
42.005638
 20
163.4646250000001
 10
42.04627200000002
 20
163.493434
 10
42.094551
 20
163.5224860000003
 10
42.15022999999999
 20
163.551539
 10
42.212837
 20
163.5808360000001
 10
42.28179199999999
 20
163.6101330000001
 10
42.35629999999999
 20
163.6391860000003
 10
42.43561500000001
 20
163.6677500000001
 10
42.60601
 20
163.7241469999999
 10
42.69637299999998
 20
163.752223
  0
LWPOLYLINE
  5
5D0
330
A
100
AcDbEntity
  8
Hawa5
 62
     1
100
AcDbPolyline
 90
       21
 70
     0
 43
0.0
 10
44.915504
 20
160.404567
 10
44.91262
 20
160.3799079999999
 10
44.90398400000001
 20
160.3552500000001
 10
44.889625
 20
160.330348
 10
44.869591
 20
160.3056900000001
 10
44.843941
 20
160.281031
 10
44.81281300000001
 20
160.2563730000002
 10
44.77628300000001
 20
160.2317149999999
 10
44.73450500000001
 20
160.2070570000001
 10
44.687614
 20
160.1823990000003
 10
44.63552100000001
 20
160.1574960000003
 10
44.578178
 20
160.1323500000003
 10
44.515602
 20
160.1069590000002
 10
44.375481
 20
160.0556900000001
 10
44.217995
 20
160.0041759999999
 10
44.04762999999999
 20
159.9526620000001
 10
43.77875499999999
 20
159.8767339999999
 10
43.40993499999998
 20
159.7781020000002
 10
43.04183199999999
 20
159.6792250000003
 10
42.77941100000001
 20
159.6052500000001
 10
42.69637299999998
 20
159.5805920000003
  0
LWPOLYLINE
  5
5D1
330
A
100
AcDbEntity
  8
Hawa5
 62
     1
100
AcDbPolyline
 90
       12
 70
     0
 43
0.0
 10
42.69637299999998
 20
161.252223
 10
42.87189499999999
 20
161.303492
 10
43.13602399999999
 20
161.3764900000001
 10
43.60198199999999
 20
161.5007580000001
 10
43.89080000000001
 20
161.5793710000003
 10
44.078453
 20
161.6330820000003
 10
44.25664499999999
 20
161.6880140000003
 10
44.41905999999999
 20
161.7427010000001
 10
44.49265299999999
 20
161.7698009999999
 10
44.56057000000001
 20
161.796656
 10
44.62258099999999
 20
161.8232680000001
 10
44.67865700000002
 20
161.8493910000002
  0
LWPOLYLINE
  5
5D2
330
A
100
AcDbEntity
  8
Hawa5
 62
     1
100
AcDbPolyline
 90
       17
 70
     0
 43
0.0
 10
41.91550399999999
 20
160.825953
 10
41.91660300000001
 20
160.8413340000002
 10
41.91977700000001
 20
160.8562270000002
 10
41.92530099999999
 20
160.8716079999999
 10
41.932625
 20
160.8862560000002
 10
41.94263499999999
 20
160.9018810000002
 10
41.954048
 20
160.9165290000001
 10
41.984032
 20
160.9468030000003
 10
42.022499
 20
160.97732
 10
42.06922099999999
 20
161.007838
 10
42.12387799999999
 20
161.038356
 10
42.18613400000001
 20
161.0688730000002
 10
42.255653
 20
161.0993910000002
 10
42.33199300000001
 20
161.1299079999999
 10
42.41474099999999
 20
161.1604259999999
 10
42.50339500000001
 20
161.1909430000001
 10
42.69637299999998
 20
161.252223
  0
ARC
  5
5D3
330
A
100
AcDbEntity
  8
Hawa5
 62
     1
100
AcDbCircle
 10
43.71135699999999
 20
155.942164
 30
0.0
 40
3.776498999999999
100
AcDbArc
 50
105.5875059999991
 51
114.3882590000001
  0
LWPOLYLINE
  5
5D4
330
A
100
AcDbEntity
  8
Hawa5
 62
     1
100
AcDbPolyline
 90
       12
 70
     0
 43
0.0
 10
42.69637299999998
 20
158.752223
 10
42.871757
 20
158.803492
 10
43.15724900000001
 20
158.882106
 10
43.658363
 20
159.0156510000002
 10
43.94246699999999
 20
159.0937760000002
 10
44.11807999999999
 20
159.1450450000001
 10
44.28194400000001
 20
159.19607
 10
44.43161800000001
 20
159.2470960000001
 10
44.500328
 20
159.272731
 10
44.56459799999999
 20
159.2983650000001
 10
44.62412299999999
 20
159.3237560000002
 10
44.67867299999999
 20
159.3493910000002
  0
LWPOLYLINE
  5
5D5
330
A
100
AcDbEntity
  8
Hawa5
 62
     1
100
AcDbPolyline
 90
       20
 70
     0
 43
0.0
 10
44.915504
 20
157.904567
 10
44.912529
 20
157.8794200000002
 10
44.90361799999998
 20
157.8542740000003
 10
44.88881700000002
 20
157.8293710000003
 10
44.86815599999999
 20
157.8042250000003
 10
44.84172800000002
 20
157.779078
 10
44.80962400000001
 20
157.7541759999999
 10
44.77198
 20
157.729029
 10
44.728935
 20
157.7038830000001
 10
44.68093100000002
 20
157.678981
 10
44.62912700000001
 20
157.6545669999999
 10
44.51737199999999
 20
157.607692
 10
44.39489
 20
157.5625260000002
 10
44.25652300000002
 20
157.5163830000001
 10
44.09795400000001
 20
157.4673110000003
 10
43.83338199999999
 20
157.3918710000003
 10
43.54538700000001
 20
157.3139900000001
 10
43.14890299999999
 20
157.2082770000001
 10
42.86840100000001
 20
157.130885
 10
42.69637299999998
 20
157.0805920000003
  0
LWPOLYLINE
  5
5D6
330
A
100
AcDbEntity
  8
Hawa5
 62
     1
100
AcDbPolyline
 90
       18
 70
     0
 43
0.0
 10
42.69637299999998
 20
158.752223
 10
42.59207900000001
 20
158.719752
 10
42.49256099999999
 20
158.687281
 10
42.398338
 20
158.654567
 10
42.310249
 20
158.6213630000002
 10
42.229286
 20
158.5881600000002
 10
42.156441
 20
158.554713
 10
42.092567
 20
158.5212660000002
 10
42.03827699999999
 20
158.4880630000002
 10
41.99390400000001
 20
158.455348
 10
41.976158
 20
158.4394790000001
 10
41.95954099999999
 20
158.4226330000001
 10
41.946541
 20
158.407252
 10
41.93508099999999
 20
158.390406
 10
41.926735
 20
158.374781
 10
41.920402
 20
158.3581800000002
 10
41.91677100000001
 20
158.3423110000003
 10
41.91550399999999
 20
158.325953
  0
ARC
  5
5D7
330
A
100
AcDbEntity
  8
Hawa5
 62
     1
100
AcDbCircle
 10
43.71024299999999
 20
153.4424079999999
 30
0.0
 40
3.775822
100
AcDbArc
 50
105.5724640000006
 51
114.3731909999994
  0
LWPOLYLINE
  5
5D8
330
A
100
AcDbEntity
  8
Hawa5
 62
     1
100
AcDbPolyline
 90
       20
 70
     0
 43
0.0
 10
44.915504
 20
155.404567
 10
44.911934
 20
155.3769790000001
 10
44.90126800000001
 20
155.349635
 10
44.88367500000001
 20
155.322291
 10
44.85942800000001
 20
155.295192
 10
44.828896
 20
155.2685799999999
 10
44.79236600000002
 20
155.2419690000002
 10
44.75009900000001
 20
155.2158460000001
 10
44.70226300000001
 20
155.1894790000001
 10
44.65029100000001
 20
155.164088
 10
44.59626
 20
155.1399180000003
 10
44.48537400000001
 20
155.0952400000001
 10
44.36629500000001
 20
155.0522719999999
 10
44.22620399999999
 20
155.0063730000002
 10
44.05828099999999
 20
154.955348
 10
43.777794
 20
154.876002
 10
43.37265799999999
 20
154.7673589999999
 10
43.068184
 20
154.6855720000003
 10
42.784584
 20
154.6054939999999
 10
42.69637299999998
 20
154.5793710000003
  0
LWPOLYLINE
  5
5D9
330
A
100
AcDbEntity
  8
Hawa5
 62
     1
100
AcDbPolyline
 90
       12
 70
     0
 43
0.0
 10
44.678642
 20
156.8493910000002
 10
44.62447399999999
 20
156.8240000000001
 10
44.56725299999999
 20
156.7993420000003
 10
44.44471
 20
156.7519790000001
 10
44.30753300000001
 20
156.7043710000003
 10
44.14937599999999
 20
156.654567
 10
43.972282
 20
156.60232
 10
43.68363200000001
 20
156.5224860000003
 10
43.27167500000001
 20
156.412867
 10
42.97060400000001
 20
156.3313240000002
 10
42.78441599999999
 20
156.2783460000001
 10
42.69637299999998
 20
156.252223
  0
LWPOLYLINE
  5
5DA
330
A
100
AcDbEntity
  8
Hawa5
 62
     1
100
AcDbPolyline
 90
       15
 70
     0
 43
0.0
 10
42.69637299999998
 20
156.252223
 10
42.53434000000001
 20
156.2011970000003
 10
42.39698
 20
156.154078
 10
42.27939599999999
 20
156.109156
 10
42.22513599999999
 20
156.0862070000003
 10
42.17305699999999
 20
156.06277
 10
42.12339
 20
156.0381110000003
 10
42.07714100000001
 20
156.0124770000002
 10
42.035866
 20
155.986598
 10
42.000282
 20
155.9604750000003
 10
41.970528
 20
155.9341079999999
 10
41.94684599999999
 20
155.9074960000003
 10
41.92957299999999
 20
155.8806410000002
 10
41.91904400000001
 20
155.853297
 10
41.91550399999999
 20
155.825953
  0
ARC
  5
5DB
330
A
100
AcDbEntity
  8
Hawa5
 62
     1
100
AcDbCircle
 10
43.719582
 20
150.9226330000001
 30
0.0
 40
3.796248
100
AcDbArc
 50
105.632844000001
 51
114.3410080000002
  0
LWPOLYLINE
  5
5DC
330
A
100
AcDbEntity
  8
Hawa5
 62
     1
100
AcDbPolyline
 90
       14
 70
     0
 43
0.0
 10
44.915504
 20
152.8962660000002
 10
44.91233099999998
 20
152.8701430000001
 10
44.902824
 20
152.8442640000003
 10
44.88713799999999
 20
152.818385
 10
44.865532
 20
152.7927500000001
 10
44.83827999999999
 20
152.7676040000001
 10
44.805702
 20
152.7424570000003
 10
44.76802800000002
 20
152.7175550000002
 10
44.72538
 20
152.6928969999999
 10
44.677757
 20
152.6682380000002
 10
44.62531300000001
 20
152.6435799999999
 10
44.56822999999999
 20
152.6189220000001
 10
44.441078
 20
152.5693610000003
 10
44.298225
 20
152.5200450000002
  0
LWPOLYLINE
  5
5DD
330
A
100
AcDbEntity
  8
Hawa5
 62
     1
100
AcDbPolyline
 90
       11
 70
     0
 43
0.0
 10
42.69637299999998
 20
153.7507580000001
 10
42.896187
 20
153.8093520000002
 10
43.195122
 20
153.8913830000001
 10
43.68517299999999
 20
154.022242
 10
43.992302
 20
154.107692
 10
44.18845400000001
 20
154.1660409999999
 10
44.35361499999999
 20
154.2195080000001
 10
44.49166099999999
 20
154.2690680000001
 10
44.555733
 20
154.2944590000002
 10
44.61817200000002
 20
154.32107
 10
44.67847399999999
 20
154.3491469999999
  0
LWPOLYLINE
  5
5DE
330
A
100
AcDbEntity
  8
Hawa5
 62
     1
100
AcDbPolyline
 90
       16
 70
     0
 43
0.0
 10
41.91550399999999
 20
153.3232680000001
 10
41.917946
 20
153.3462170000003
 10
41.92525499999999
 20
153.3689220000001
 10
41.93738500000001
 20
153.391627
 10
41.95424600000001
 20
153.4143320000003
 10
41.97571600000001
 20
153.4370370000001
 10
42.001701
 20
153.4594980000002
 10
42.03209699999999
 20
153.4819590000002
 10
42.06682599999999
 20
153.5041759999999
 10
42.10578100000001
 20
153.5266369999999
 10
42.14888799999999
 20
153.549098
 10
42.19599099999999
 20
153.571559
 10
42.301582
 20
153.616481
 10
42.42124200000001
 20
153.6611579999999
 10
42.55339800000002
 20
153.7060799999999
 10
42.69637299999998
 20
153.7507580000001
  0
LWPOLYLINE
  5
5DF
330
A
100
AcDbEntity
  8
Hawa5
 62
     1
100
AcDbPolyline
 90
       19
 70
     0
 43
0.0
 10
45.74916799999999
 20
167.6362560000002
 10
45.78581999999999
 20
167.6189220000001
 10
45.82143400000001
 20
167.5998790000003
 10
45.84830500000001
 20
167.582789
 10
45.873527
 20
167.5632580000001
 10
45.88532299999999
 20
167.5522719999999
 10
45.89598800000001
 20
167.540309
 10
45.90497599999999
 20
167.5268810000002
 10
45.912605
 20
167.509059
 10
45.915504
 20
167.49026
 10
45.912605
 20
167.4714610000001
 10
45.90499099999999
 20
167.4538830000001
 10
45.896004
 20
167.4404549999999
 10
45.88535300000001
 20
167.4282480000002
 10
45.87354300000001
 20
167.4172619999999
 10
45.84832
 20
167.397731
 10
45.82143400000001
 20
167.380885
 10
45.78581999999999
 20
167.361598
 10
45.749153
 20
167.3442640000003
  0
LWPOLYLINE
  5
5E0
330
A
100
AcDbEntity
  8
Hawa5
 62
     1
100
AcDbPolyline
 90
       23
 70
     0
 43
0.0
 10
45.749153
 20
167.3442640000003
 10
45.66670999999998
 20
167.3113050000002
 10
45.56879399999999
 20
167.2781020000002
 10
45.45607799999999
 20
167.2451430000001
 10
45.329353
 20
167.212184
 10
45.189476
 20
167.1792250000003
 10
45.037407
 20
167.1462660000002
 10
44.87418400000001
 20
167.1130630000002
 10
44.70090500000001
 20
167.0801040000001
 10
44.32894100000001
 20
167.0141860000003
 10
43.93157200000001
 20
166.9480240000003
 10
43.31182100000001
 20
166.8486579999999
 10
42.69834099999999
 20
166.7495370000001
 10
42.312096
 20
166.6833750000001
 10
42.12984500000002
 20
166.650416
 10
41.95650499999999
 20
166.617213
 10
41.79325099999999
 20
166.5842540000003
 10
41.64119700000001
 20
166.5512950000002
 10
41.50136599999998
 20
166.5183360000001
 10
41.37468699999998
 20
166.485377
 10
41.26204699999999
 20
166.452174
 10
41.16420699999999
 20
166.4192149999999
 10
41.081825
 20
166.3862560000002
  0
LWPOLYLINE
  5
5E1
330
A
100
AcDbEntity
  8
Hawa5
 62
     1
100
AcDbPolyline
 90
       10
 70
     0
 43
0.0
 10
41.081825
 20
166.3862560000002
 10
41.031441
 20
166.3618420000003
 10
40.989937
 20
166.3376720000001
 10
40.957481
 20
166.3132580000001
 10
40.945244
 20
166.3017829999999
 10
40.934196
 20
166.289088
 10
40.92630800000001
 20
166.2773689999999
 10
40.92018899999999
 20
166.264674
 10
40.91674
 20
166.2527110000001
 10
40.915504
 20
166.24026
  0
LWPOLYLINE
  5
5E2
330
A
100
AcDbEntity
  8
Hawa5
 62
     1
100
AcDbPolyline
 90
       10
 70
     0
 43
0.0
 10
45.915504
 20
164.99026
 10
45.914284
 20
164.977809
 10
45.91085000000001
 20
164.9660899999999
 10
45.904732
 20
164.953395
 10
45.896858
 20
164.9416759999999
 10
45.88582600000001
 20
164.928981
 10
45.87357299999999
 20
164.9172619999999
 10
45.841103
 20
164.892848
 10
45.79956799999999
 20
164.8686780000003
 10
45.74913800000001
 20
164.8442640000003
  0
LWPOLYLINE
  5
5E3
330
A
100
AcDbEntity
  8
Hawa5
 62
     1
100
AcDbPolyline
 90
       23
 70
     0
 43
0.0
 10
45.74913800000001
 20
164.8442640000003
 10
45.66664900000001
 20
164.8113050000002
 10
45.568657
 20
164.7781020000001
 10
45.455849
 20
164.7451430000001
 10
45.329033
 20
164.712184
 10
45.189094
 20
164.678981
 10
45.03697999999999
 20
164.6460219999999
 10
44.87372599999999
 20
164.6130630000001
 10
44.70046200000001
 20
164.5801040000001
 10
44.328621
 20
164.513942
 10
43.93154100000001
 20
164.4480240000003
 10
43.31226299999999
 20
164.3489020000002
 10
42.69876899999999
 20
164.2495370000001
 10
42.312263
 20
164.1833750000001
 10
42.12987499999999
 20
164.150416
 10
41.95642800000002
 20
164.117213
 10
41.793114
 20
164.0842540000003
 10
41.64102899999999
 20
164.0512950000001
 10
41.501182
 20
164.0183360000001
 10
41.37453500000001
 20
163.9851330000001
 10
41.26192499999999
 20
163.952174
 10
41.16413099999999
 20
163.9192149999999
 10
41.081795
 20
163.8862560000002
  0
LWPOLYLINE
  5
5E4
330
A
100
AcDbEntity
  8
Hawa5
 62
     1
100
AcDbPolyline
 90
       10
 70
     0
 43
0.0
 10
41.081795
 20
163.8862560000002
 10
41.03140999999999
 20
163.8618420000003
 10
40.98990599999999
 20
163.8376720000001
 10
40.957466
 20
163.8132580000001
 10
40.945213
 20
163.8017829999999
 10
40.934181
 20
163.7888440000001
 10
40.92629199999999
 20
163.7773689999999
 10
40.92017399999999
 20
163.764674
 10
40.916725
 20
163.7527110000001
 10
40.91548900000001
 20
163.74026
  0
LWPOLYLINE
  5
5E5
330
A
100
AcDbEntity
  8
Hawa5
 62
     1
100
AcDbPolyline
 90
       10
 70
     0
 43
0.0
 10
45.91552
 20
162.49026
 10
45.914284
 20
162.477809
 10
45.91085000000001
 20
162.4658460000001
 10
45.904732
 20
162.453395
 10
45.896858
 20
162.4416759999999
 10
45.885841
 20
162.428981
 10
45.87358800000001
 20
162.4172619999999
 10
45.841148
 20
162.3930920000003
 10
45.79961399999999
 20
162.3686780000003
 10
45.74916799999999
 20
162.3442640000003
  0
LWPOLYLINE
  5
5E6
330
A
100
AcDbEntity
  8
Hawa5
 62
     1
100
AcDbPolyline
 90
       23
 70
     0
 43
0.0
 10
45.74916799999999
 20
162.3442640000003
 10
45.66663400000002
 20
162.3113050000002
 10
45.56858099999998
 20
162.2781020000002
 10
45.45569600000002
 20
162.2451430000001
 10
45.32880399999998
 20
162.21194
 10
45.188759
 20
162.178981
 10
45.03656800000001
 20
162.1460219999999
 10
44.87325300000001
 20
162.1130630000002
 10
44.699959
 20
162.0798589999999
 10
44.32816300000001
 20
162.013942
 10
43.93126699999998
 20
161.9480240000003
 10
43.31249199999999
 20
161.8489020000002
 10
42.69937899999999
 20
161.749781
 10
42.31275200000002
 20
161.6836189999999
 10
42.130257
 20
161.650416
 10
41.956688
 20
161.6174570000003
 10
41.79325099999999
 20
161.5842540000003
 10
41.641075
 20
161.5512950000002
 10
41.501167
 20
161.5183360000001
 10
41.37448900000001
 20
161.4851330000001
 10
41.26187899999999
 20
161.4521739999999
 10
41.16410100000002
 20
161.4192149999999
 10
41.08180999999999
 20
161.3862560000002
  0
LWPOLYLINE
  5
5E7
330
A
100
AcDbEntity
  8
Hawa5
 62
     1
100
AcDbPolyline
 90
       10
 70
     0
 43
0.0
 10
41.08180999999999
 20
161.3862560000002
 10
41.031395
 20
161.3618420000003
 10
40.98989099999999
 20
161.3376720000001
 10
40.957436
 20
161.3132580000001
 10
40.94519799999999
 20
161.3017829999999
 10
40.934166
 20
161.2888440000002
 10
40.926277
 20
161.2773689999999
 10
40.92015800000001
 20
161.264674
 10
40.916725
 20
161.2527110000001
 10
40.91548900000001
 20
161.24026
  0
LWPOLYLINE
  5
5E8
330
A
100
AcDbEntity
  8
Hawa5
 62
     1
100
AcDbPolyline
 90
       10
 70
     0
 43
0.0
 10
45.91552
 20
159.99026
 10
45.914284
 20
159.977809
 10
45.91085000000001
 20
159.9658460000001
 10
45.904732
 20
159.953395
 10
45.896858
 20
159.9416759999999
 10
45.885841
 20
159.928981
 10
45.873604
 20
159.9172619999999
 10
45.841148
 20
159.8930920000003
 10
45.799629
 20
159.8686780000003
 10
45.74916799999999
 20
159.8442640000003
  0
LWPOLYLINE
  5
5E9
330
A
100
AcDbEntity
  8
Hawa5
 62
     1
100
AcDbPolyline
 90
       23
 70
     0
 43
0.0
 10
45.74916799999999
 20
159.8442640000003
 10
45.66664900000001
 20
159.8113050000002
 10
45.56858099999998
 20
159.7781020000002
 10
45.45564999999998
 20
159.7451430000001
 10
45.32866699999999
 20
159.7119400000001
 10
45.18853
 20
159.678981
 10
45.03623200000001
 20
159.6460219999999
 10
44.87284099999999
 20
159.6128180000001
 10
44.69946999999999
 20
159.5798589999999
 10
44.32761400000001
 20
159.513942
 10
43.93080900000001
 20
159.4477790000001
 10
43.312431
 20
159.3489020000002
 10
42.69985199999999
 20
159.249781
 10
42.31339299999999
 20
159.1836189999999
 10
42.130852
 20
159.1506600000002
 10
41.95719099999998
 20
159.1174570000003
 10
41.79364799999999
 20
159.0844980000002
 10
41.64135000000002
 20
159.0512950000002
 10
41.50135
 20
159.0183360000001
 10
41.374596
 20
158.9851330000001
 10
41.26194
 20
158.952174
 10
41.16413099999999
 20
158.9192149999999
 10
41.081825
 20
158.8862560000002
  0
LWPOLYLINE
  5
5EA
330
A
100
AcDbEntity
  8
Hawa5
 62
     1
100
AcDbPolyline
 90
       10
 70
     0
 43
0.0
 10
41.081825
 20
158.8862560000002
 10
41.03140999999999
 20
158.8618420000003
 10
40.98989099999999
 20
158.8376720000001
 10
40.957436
 20
158.8132580000001
 10
40.94519799999999
 20
158.8017829999999
 10
40.934166
 20
158.7888440000002
 10
40.92629199999999
 20
158.7773689999999
 10
40.92017399999999
 20
158.764674
 10
40.916725
 20
158.7527110000001
 10
40.915504
 20
158.74026
  0
LWPOLYLINE
  5
5EB
330
A
100
AcDbEntity
  8
Hawa5
 62
     1
100
AcDbPolyline
 90
       10
 70
     0
 43
0.0
 10
45.915504
 20
157.49026
 10
45.914284
 20
157.477809
 10
45.91083499999998
 20
157.4658460000001
 10
45.904732
 20
157.453395
 10
45.896858
 20
157.4416759999999
 10
45.885841
 20
157.428981
 10
45.873604
 20
157.4172619999999
 10
45.841148
 20
157.3930920000003
 10
45.799629
 20
157.3686780000003
 10
45.74916799999999
 20
157.3442640000003
  0
LWPOLYLINE
  5
5EC
330
A
100
AcDbEntity
  8
Hawa5
 62
     1
100
AcDbPolyline
 90
       23
 70
     0
 43
0.0
 10
45.74916799999999
 20
157.3442640000003
 10
45.66670999999998
 20
157.3113050000002
 10
45.56868700000001
 20
157.2781020000002
 10
45.45577199999999
 20
157.2451430000001
 10
45.32877300000001
 20
157.2119400000001
 10
45.18857600000001
 20
157.178981
 10
45.03618600000001
 20
157.1460219999999
 10
44.87268800000001
 20
157.1128180000001
 10
44.69921099999999
 20
157.0798589999999
 10
44.327202
 20
157.0136970000003
 10
43.930351
 20
156.947779
 10
43.31218699999999
 20
156.8489020000002
 10
42.70006599999999
 20
156.749781
 10
42.31391099999998
 20
156.6836189999999
 10
42.131447
 20
156.6506600000002
 10
41.95780200000002
 20
156.6177010000001
 10
41.79419699999999
 20
156.5844980000002
 10
41.64179200000001
 20
156.551539
 10
41.50167100000002
 20
156.5183360000001
 10
41.37480899999999
 20
156.485377
 10
41.26206200000001
 20
156.452174
 10
41.16419200000001
 20
156.4192149999999
 10
41.08184
 20
156.3862560000002
  0
LWPOLYLINE
  5
5ED
330
A
100
AcDbEntity
  8
Hawa5
 62
     1
100
AcDbPolyline
 90
       19
 70
     0
 43
0.0
 10
41.08184
 20
156.3862560000002
 10
41.045158
 20
156.368922
 10
41.00952900000001
 20
156.349635
 10
40.982674
 20
156.332789
 10
40.95745099999999
 20
156.3132580000001
 10
40.94565600000001
 20
156.3022719999999
 10
40.93500499999999
 20
156.2900650000001
 10
40.92601799999999
 20
156.2768810000002
 10
40.918419
 20
156.259059
 10
40.915504
 20
156.24026
 10
40.91838799999999
 20
156.2214610000001
 10
40.92598699999999
 20
156.2038830000001
 10
40.93495899999999
 20
156.1904549999999
 10
40.94561000000002
 20
156.1782480000002
 10
40.95739
 20
156.1672619999999
 10
40.982613
 20
156.1479750000003
 10
41.00948300000002
 20
156.130885
 10
41.04514299999999
 20
156.111598
 10
41.08185600000002
 20
156.0942640000003
  0
LWPOLYLINE
  5
5EE
330
A
100
AcDbEntity
  8
Hawa5
 62
     1
100
AcDbPolyline
 90
       19
 70
     0
 43
0.0
 10
45.749153
 20
155.1362560000002
 10
45.78585000000001
 20
155.1189220000001
 10
45.82148
 20
155.099635
 10
45.84835
 20
155.082789
 10
45.87357299999999
 20
155.0632580000001
 10
45.88535300000001
 20
155.0522719999999
 10
45.896004
 20
155.0400650000001
 10
45.90499099999999
 20
155.0268810000002
 10
45.912605
 20
155.009059
 10
45.915504
 20
154.99026
 10
45.912605
 20
154.9714610000001
 10
45.90502199999999
 20
154.9538830000001
 10
45.896049
 20
154.9404549999999
 10
45.885399
 20
154.9282480000002
 10
45.87361899999999
 20
154.9172619999999
 10
45.848411
 20
154.8979750000003
 10
45.82155600000002
 20
154.880885
 10
45.78592700000002
 20
154.861598
 10
45.749245
 20
154.8442640000003
  0
LWPOLYLINE
  5
5EF
330
A
100
AcDbEntity
  8
Hawa5
 62
     1
100
AcDbPolyline
 90
       23
 70
     0
 43
0.0
 10
45.749245
 20
154.8442640000003
 10
45.666939
 20
154.8113050000002
 10
45.56909899999999
 20
154.7783460000001
 10
45.456398
 20
154.7453869999999
 10
45.32958200000002
 20
154.712184
 10
45.18955199999999
 20
154.6792250000003
 10
45.03727
 20
154.6460219999999
 10
44.873848
 20
154.6130630000002
 10
44.700432
 20
154.5801040000001
 10
44.32852899999999
 20
154.513942
 10
43.93184699999999
 20
154.4480240000003
 10
43.31411
 20
154.3491469999999
 10
42.702583
 20
154.25027
 10
42.31679500000001
 20
154.1843520000002
 10
42.13446799999999
 20
154.1511490000003
 10
41.96088399999999
 20
154.1181900000001
 10
41.79726400000001
 20
154.085231
 10
41.644752
 20
154.0520270000001
 10
41.50441699999999
 20
154.0190680000001
 10
41.37728100000001
 20
153.9861089999999
 10
41.26424399999999
 20
153.952906
 10
41.166054
 20
153.9199470000003
 10
41.083382
 20
153.8869880000002
  0
LWPOLYLINE
  5
5F0
330
A
100
AcDbEntity
  8
Hawa5
 62
     1
100
AcDbPolyline
 90
       19
 70
     0
 43
0.0
 10
41.083382
 20
153.8869880000002
 10
41.046532
 20
153.8696540000001
 10
41.010734
 20
153.850367
 10
40.98368099999999
 20
153.8335219999999
 10
40.95829000000001
 20
153.8139900000001
 10
40.94637299999998
 20
153.8030040000003
 10
40.93559999999999
 20
153.791041
 10
40.92645999999999
 20
153.7776130000002
 10
40.91864799999998
 20
153.759791
 10
40.91552
 20
153.740992
 10
40.918159
 20
153.7224380000002
 10
40.92551399999999
 20
153.7046150000001
 10
40.934288
 20
153.6911880000002
 10
40.944755
 20
153.6792250000003
 10
40.95638300000002
 20
153.6682380000002
 10
40.981285
 20
153.6487070000003
 10
41.00786600000001
 20
153.6318610000003
 10
41.04317499999999
 20
153.6125740000002
 10
41.07955200000001
 20
153.5952400000001
  0
LINE
  5
5F1
330
A
100
AcDbEntity
  8
Hawa5
 62
     1
 48
0.026587
100
AcDbLine
 10
41.91550399999999
 20
167.835231
 30
0.0
 11
41.91550399999999
 21
166.7717540000003
 31
0.0
  0
LINE
  5
5F2
330
A
100
AcDbEntity
  8
Hawa5
 62
     1
 48
0.038855
100
AcDbLine
 10
44.915504
 20
166.9587660000002
 30
0.0
 11
44.915504
 21
165.404567
 31
0.0
  0
LINE
  5
5F3
330
A
100
AcDbEntity
  8
Hawa5
 62
     1
 48
0.038855
100
AcDbLine
 10
41.91550399999999
 20
165.825953
 30
0.0
 11
41.91550399999999
 21
164.2717540000003
 31
0.0
  0
LINE
  5
5F4
330
A
100
AcDbEntity
  8
Hawa5
 62
     1
 48
0.038855
100
AcDbLine
 10
44.915504
 20
164.4587660000002
 30
0.0
 11
44.915504
 21
162.904567
 31
0.0
  0
LINE
  5
5F5
330
A
100
AcDbEntity
  8
Hawa5
 62
     1
 48
0.038861
100
AcDbLine
 10
41.91550399999999
 20
163.325953
 30
0.0
 11
41.91550399999999
 21
161.77151
 31
0.0
  0
LINE
  5
5F6
330
A
100
AcDbEntity
  8
Hawa5
 62
     1
 48
0.038855
100
AcDbLine
 10
44.915504
 20
161.9587660000002
 30
0.0
 11
44.915504
 21
160.404567
 31
0.0
  0
LINE
  5
5F7
330
A
100
AcDbEntity
  8
Hawa5
 62
     1
 48
0.038861
100
AcDbLine
 10
41.91550399999999
 20
160.825953
 30
0.0
 11
41.91550399999999
 21
159.27151
 31
0.0
  0
LINE
  5
5F8
330
A
100
AcDbEntity
  8
Hawa5
 62
     1
 48
0.038855
100
AcDbLine
 10
44.915504
 20
159.4587660000002
 30
0.0
 11
44.915504
 21
157.904567
 31
0.0
  0
LINE
  5
5F9
330
A
100
AcDbEntity
  8
Hawa5
 62
     1
 48
0.038861
100
AcDbLine
 10
41.91550399999999
 20
158.325953
 30
0.0
 11
41.91550399999999
 21
156.77151
 31
0.0
  0
LINE
  5
5FA
330
A
100
AcDbEntity
  8
Hawa5
 62
     1
 48
0.038855
100
AcDbLine
 10
44.915504
 20
156.9587660000002
 30
0.0
 11
44.915504
 21
155.404567
 31
0.0
  0
LINE
  5
5FB
330
A
100
AcDbEntity
  8
Hawa5
 62
     1
 48
0.038892
100
AcDbLine
 10
41.91550399999999
 20
155.825953
 30
0.0
 11
41.91550399999999
 21
154.270289
 31
0.0
  0
LINE
  5
5FC
330
A
100
AcDbEntity
  8
Hawa5
 62
     1
 48
0.039063
100
AcDbLine
 10
44.915504
 20
154.4587660000002
 30
0.0
 11
44.915504
 21
152.8962660000002
 31
0.0
  0
ARC
  5
5FD
330
A
100
AcDbEntity
  8
Hawa5
 62
     1
100
AcDbCircle
 10
28.69478599999999
 20
194.626979
 30
0.0
 40
30.83762
100
AcDbArc
 50
293.6834870000001
 51
295.8745969999999
  0
ARC
  5
5FE
330
A
100
AcDbEntity
  8
Hawa5
 62
     1
100
AcDbCircle
 10
28.695885
 20
192.124781
 30
0.0
 40
30.835115
100
AcDbArc
 50
293.6830699999999
 51
295.8745970000001
  0
ARC
  5
5FF
330
A
100
AcDbEntity
  8
Hawa5
 62
     1
100
AcDbCircle
 10
28.54979700000001
 20
189.9507090000002
 30
0.0
 40
31.192217
100
AcDbArc
 50
293.6883640000001
 51
295.8548109999998
  0
ARC
  5
600
330
A
100
AcDbEntity
  8
Hawa5
 62
     1
100
AcDbCircle
 10
28.69959299999999
 20
187.1162360000003
 30
0.0
 40
30.825796
100
AcDbArc
 50
293.6832140000001
 51
295.8754800000001
  0
ARC
  5
601
330
A
100
AcDbEntity
  8
Hawa5
 62
     1
100
AcDbCircle
 10
28.71532400000001
 20
184.588893
 30
0.0
 40
30.794472
100
AcDbArc
 50
293.6768480000001
 51
295.871272
  0
ARC
  5
602
330
A
100
AcDbEntity
  8
Hawa5
 62
     1
100
AcDbCircle
 10
28.974098
 20
181.623317
 30
0.0
 40
30.264143
100
AcDbArc
 50
293.5853579999999
 51
295.8211930000001
  0
ARC
  5
603
330
A
100
AcDbEntity
  8
Hawa5
 62
     1
100
AcDbCircle
 10
58.099266
 20
139.1848399999999
 30
0.0
 40
30.748217
100
AcDbArc
 50
113.6812850000001
 51
115.8865640000001
  0
ARC
  5
604
330
A
100
AcDbEntity
  8
Hawa5
 62
     1
100
AcDbCircle
 10
58.09537499999999
 20
136.6938730000002
 30
0.0
 40
30.738579
100
AcDbArc
 50
113.6812519999999
 51
115.8874500000001
  0
ARC
  5
605
330
A
100
AcDbEntity
  8
Hawa5
 62
     1
100
AcDbCircle
 10
58.16149100000001
 20
134.0381110000003
 30
0.0
 40
30.90761
100
AcDbArc
 50
113.6775770000001
 51
115.8716319999999
  0
ARC
  5
606
330
A
100
AcDbEntity
  8
Hawa5
 62
     1
100
AcDbCircle
 10
58.095909
 20
131.692164
 30
0.0
 40
30.740236
100
AcDbArc
 50
113.6809309999999
 51
115.886932
  0
ARC
  5
607
330
A
100
AcDbEntity
  8
Hawa5
 62
     1
100
AcDbCircle
 10
58.027275
 20
129.3301040000001
 30
0.0
 40
30.586178
100
AcDbArc
 50
113.6670650000002
 51
115.8841030000001
  0
ARC
  5
608
330
A
100
AcDbEntity
  8
Hawa5
 62
     1
100
AcDbCircle
 10
58.05912000000001
 20
126.7817640000003
 30
0.0
 40
30.643379
100
AcDbArc
 50
113.685084
 51
115.8985710000002
  0
LINE
  5
609
330
A
100
AcDbEntity
  8
Hawa5
 62
     1
 48
0.25
100
AcDbLine
 10
46.41550399999999
 20
167.335231
 30
0.0
 11
46.41550399999999
 21
157.335231
 31
0.0
  0
LINE
  5
60A
330
A
100
AcDbEntity
  8
Hawa5
 62
     1
 48
0.113192
100
AcDbLine
 10
45.915504
 20
152.835231
 30
0.0
 11
46.41550399999999
 21
157.335231
 31
0.0
  0
LINE
  5
60B
330
A
100
AcDbEntity
  8
Hawa5
 62
     1
 48
0.0125
100
AcDbLine
 10
45.915504
 20
152.835231
 30
0.0
 11
46.41550399999999
 21
152.835231
 31
0.0
  0
LINE
  5
60C
330
A
100
AcDbEntity
  8
Hawa5
 62
     1
 48
0.25
100
AcDbLine
 10
40.415504
 20
167.335231
 30
0.0
 11
40.415504
 21
157.335231
 31
0.0
  0
LINE
  5
60D
330
A
100
AcDbEntity
  8
Hawa5
 62
     1
 48
0.0125
100
AcDbLine
 10
40.415504
 20
167.335231
 30
0.0
 11
40.915504
 21
167.335231
 31
0.0
  0
LINE
  5
60E
330
A
100
AcDbEntity
  8
Hawa5
 62
     1
 48
0.0125
100
AcDbLine
 10
45.915504
 20
167.335231
 30
0.0
 11
46.41550399999999
 21
167.335231
 31
0.0
  0
LINE
  5
60F
330
A
100
AcDbEntity
  8
Hawa5
 62
     1
 48
0.000934
100
AcDbLine
 10
46.41550399999999
 20
152.835231
 30
0.0
 11
46.41550399999999
 21
152.797877
 31
0.0
  0
LINE
  5
610
330
A
100
AcDbEntity
  8
Hawa5
 62
     1
 48
0.249304
100
AcDbLine
 10
45.915504
 20
167.335231
 30
0.0
 11
45.915504
 21
157.3630630000002
 31
0.0
  0
LINE
  5
611
330
A
100
AcDbEntity
  8
Hawa5
 62
     1
 48
0.114832
100
AcDbLine
 10
45.915504
 20
157.3630630000002
 30
0.0
 11
45.40827200000001
 21
152.797877
 31
0.0
  0
LINE
  5
612
330
A
100
AcDbEntity
  8
Hawa5
 62
     1
 48
0.0125
100
AcDbLine
 10
40.415504
 20
152.835231
 30
0.0
 11
40.915504
 21
152.835231
 31
0.0
  0
LINE
  5
613
330
A
100
AcDbEntity
  8
Hawa5
 62
     1
 48
0.113192
100
AcDbLine
 10
40.915504
 20
152.835231
 30
0.0
 11
40.415504
 21
157.335231
 31
0.0
  0
LINE
  5
614
330
A
100
AcDbEntity
  8
Hawa5
 62
     1
 48
0.249304
100
AcDbLine
 10
40.915504
 20
167.335231
 30
0.0
 11
40.915504
 21
157.3630630000002
 31
0.0
  0
LINE
  5
615
330
A
100
AcDbEntity
  8
Hawa5
 62
     1
 48
0.000934
100
AcDbLine
 10
40.415504
 20
152.835231
 30
0.0
 11
40.415504
 21
152.797877
 31
0.0
  0
LINE
  5
616
330
A
100
AcDbEntity
  8
Hawa5
 62
     1
 48
0.114832
100
AcDbLine
 10
40.915504
 20
157.3630630000002
 30
0.0
 11
41.42273700000001
 21
152.797877
 31
0.0
  0
LINE
  5
617
330
A
100
AcDbEntity
  8
HAWA1
 48
0.000875
100
AcDbLine
 10
40.799644
 20
152.8005630000001
 30
0.0
 11
40.817207
 21
152.8308360000001
 31
0.0
  0
LINE
  5
618
330
A
100
AcDbEntity
  8
HAWA1
 48
0.021086
100
AcDbLine
 10
40.89839900000001
 20
152.9714610000001
 30
0.0
 11
41.320106
 21
153.7019300000002
 31
0.0
  0
LINE
  5
619
330
A
100
AcDbEntity
  8
HAWA1
 48
0.025005
100
AcDbLine
 10
40.41838799999999
 20
162.1401620000001
 30
0.0
 11
40.91848000000002
 21
163.0063730000002
 31
0.0
  0
LINE
  5
61A
330
A
100
AcDbEntity
  8
HAWA1
 48
0.025062
100
AcDbLine
 10
45.91136900000001
 20
161.6543220000003
 30
0.0
 11
46.41262
 21
162.5224860000003
 31
0.0
  0
LINE
  5
61B
330
A
100
AcDbEntity
  8
Hawa5
  6
PHANTOM
 62
     1
 48
0.25
100
AcDbLine
 10
146.153854
 20
204.8352329999998
 30
0.0
 11
136.153854
 21
204.8352329999998
 31
0.0
  0
LINE
  5
61C
330
A
100
AcDbEntity
  8
Hawa5
 62
     1
100
AcDbLine
 10
146.153854
 20
178.8352329999998
 30
0.0
 11
146.153854
 21
204.8352329999998
 31
0.0
  0
LINE
  5
61D
330
A
100
AcDbEntity
  8
Hawa5
 62
     1
 48
0.035355
100
AcDbLine
 10
145.153854
 20
177.8352329999998
 30
0.0
 11
146.153854
 21
178.8352329999998
 31
0.0
  0
LINE
  5
61E
330
A
100
AcDbEntity
  8
Hawa5
 62
     1
 48
0.2
100
AcDbLine
 10
137.153854
 20
177.8352329999998
 30
0.0
 11
145.153854
 21
177.8352329999998
 31
0.0
  0
LINE
  5
61F
330
A
100
AcDbEntity
  8
Hawa5
 62
     1
 48
0.035355
100
AcDbLine
 10
137.153854
 20
177.8352329999998
 30
0.0
 11
136.153854
 21
178.8352329999998
 31
0.0
  0
LINE
  5
620
330
A
100
AcDbEntity
  8
Hawa5
 62
     1
100
AcDbLine
 10
136.153854
 20
178.8352329999998
 30
0.0
 11
136.153854
 21
204.8352329999998
 31
0.0
  0
LINE
  5
621
330
A
100
AcDbEntity
  8
Hawa4
 62
     4
100
AcDbLine
 10
151.153854
 20
189.8352329999998
 30
0.0
 11
151.153854
 21
169.8352329999998
 31
0.0
  0
LINE
  5
622
330
A
100
AcDbEntity
  8
Hawa4
 62
     4
 48
0.18375
100
AcDbLine
 10
138.503854
 20
169.8352329999998
 30
0.0
 11
131.153854
 21
169.8352329999998
 31
0.0
  0
LINE
  5
623
330
A
100
AcDbEntity
  8
Hawa4
 62
     4
 48
0.18375
100
AcDbLine
 10
151.153854
 20
169.8352329999998
 30
0.0
 11
143.803854
 21
169.8352329999998
 31
0.0
  0
LINE
  5
624
330
A
100
AcDbEntity
  8
Hawa4
 62
     4
100
AcDbLine
 10
131.153854
 20
169.8352329999998
 30
0.0
 11
131.153854
 21
189.8352329999998
 31
0.0
  0
LINE
  5
625
330
A
100
AcDbEntity
  8
Hawa4
 62
     4
 48
0.075
100
AcDbLine
 10
131.153854
 20
189.8352329999998
 30
0.0
 11
134.153854
 21
189.8352329999998
 31
0.0
  0
LINE
  5
626
330
A
100
AcDbEntity
  8
Hawa4
 62
     4
 48
0.425
100
AcDbLine
 10
134.153854
 20
189.8352329999998
 30
0.0
 11
134.153854
 21
172.8352329999998
 31
0.0
  0
LINE
  5
627
330
A
100
AcDbEntity
  8
Hawa4
 62
     4
 48
0.04625
100
AcDbLine
 10
146.303854
 20
172.8352329999998
 30
0.0
 11
148.153854
 21
172.8352329999998
 31
0.0
  0
LINE
  5
628
330
A
100
AcDbEntity
  8
Hawa4
 62
     4
 48
0.067024
100
AcDbLine
 10
143.622896
 20
172.8352329999998
 30
0.0
 11
146.303854
 21
172.8352329999998
 31
0.0
  0
LINE
  5
629
330
A
100
AcDbEntity
  8
Hawa4
 62
     4
 48
0.190476
100
AcDbLine
 10
136.003854
 20
172.8352329999998
 30
0.0
 11
143.622896
 21
172.8352329999998
 31
0.0
  0
LINE
  5
62A
330
A
100
AcDbEntity
  8
Hawa4
 62
     4
 48
0.04625
100
AcDbLine
 10
134.153854
 20
172.8352329999998
 30
0.0
 11
136.003854
 21
172.8352329999998
 31
0.0
  0
LINE
  5
62B
330
A
100
AcDbEntity
  8
Hawa4
 62
     4
 48
0.425
100
AcDbLine
 10
148.153854
 20
172.8352329999998
 30
0.0
 11
148.153854
 21
189.8352329999998
 31
0.0
  0
LINE
  5
62C
330
A
100
AcDbEntity
  8
Hawa4
 62
     4
 48
0.075
100
AcDbLine
 10
148.153854
 20
189.8352329999998
 30
0.0
 11
151.153854
 21
189.8352329999998
 31
0.0
  0
LINE
  5
62D
330
A
100
AcDbEntity
  8
Hawa4
 62
     4
 48
0.003754
100
AcDbLine
 10
138.503854
 20
169.9853789999997
 30
0.0
 11
138.503854
 21
169.8352329999998
 31
0.0
  0
LINE
  5
62E
330
A
100
AcDbEntity
  8
Hawa4
 62
     4
 48
0.003754
100
AcDbLine
 10
143.803854
 20
169.9853789999997
 30
0.0
 11
143.803854
 21
169.8352329999998
 31
0.0
  0
LINE
  5
62F
330
A
100
AcDbEntity
  8
Hawa4
 62
     4
 48
0.067024
100
AcDbLine
 10
143.622896
 20
172.4853789999997
 30
0.0
 11
146.303854
 21
172.4853789999997
 31
0.0
  0
LINE
  5
630
330
A
100
AcDbEntity
  8
Hawa4
 62
     4
 48
0.008746
100
AcDbLine
 10
146.303854
 20
172.8352329999998
 30
0.0
 11
146.303854
 21
172.4853789999997
 31
0.0
  0
LINE
  5
631
330
A
100
AcDbEntity
  8
Hawa4
 62
     4
 48
0.190476
100
AcDbLine
 10
136.003854
 20
172.4853789999997
 30
0.0
 11
143.622896
 21
172.4853789999997
 31
0.0
  0
LINE
  5
632
330
A
100
AcDbEntity
  8
Hawa4
 62
     4
 48
0.008746
100
AcDbLine
 10
136.003854
 20
172.8352329999998
 30
0.0
 11
136.003854
 21
172.4853789999997
 31
0.0
  0
LINE
  5
633
330
A
100
AcDbEntity
  8
Hawa4
 62
     4
 48
0.088388
100
AcDbLine
 10
138.503854
 20
169.9853789999997
 30
0.0
 11
136.003854
 21
172.4853789999997
 31
0.0
  0
LINE
  5
634
330
A
100
AcDbEntity
  8
Hawa4
 62
     4
 48
0.088388
100
AcDbLine
 10
143.803854
 20
169.9853789999997
 30
0.0
 11
146.303854
 21
172.4853789999997
 31
0.0
  0
LINE
  5
635
330
A
100
AcDbEntity
  8
Hawa5
 62
     1
100
AcDbLine
 10
131.153854
 20
189.8352329999998
 30
0.0
 11
101.153854
 21
189.8352329999998
 31
0.0
  0
LINE
  5
637
330
A
100
AcDbEntity
  8
Hawa4
 62
     4
 48
0.1875
100
AcDbLine
 10
151.153854
 20
169.8352329999998
 30
0.0
 11
143.653854
 21
169.8352329999998
 31
0.0
  0
LINE
  5
638
330
A
100
AcDbEntity
  8
Hawa4
 62
     4
 48
0.1875
100
AcDbLine
 10
138.653854
 20
169.8352329999998
 30
0.0
 11
131.153854
 21
169.8352329999998
 31
0.0
  0
LINE
  5
63A
330
A
100
AcDbEntity
  8
Hawa5
 62
     1
100
AcDbLine
 10
181.153854
 20
189.8352329999998
 30
0.0
 11
151.153854
 21
189.8352329999998
 31
0.0
  0
LINE
  5
63B
330
A
100
AcDbEntity
  8
Hawa6
 62
     3
 48
0.045
100
AcDbLine
 10
146.153854
 20
179.3352329999998
 30
0.0
 11
147.953854
 21
179.3352329999998
 31
0.0
  0
LINE
  5
63C
330
A
100
AcDbEntity
  8
Hawa6
 62
     3
 48
0.225
100
AcDbLine
 10
146.153854
 20
188.3352329999998
 30
0.0
 11
146.153854
 21
179.3352329999998
 31
0.0
  0
LINE
  5
63D
330
A
100
AcDbEntity
  8
Hawa6
 62
     3
 48
0.045
100
AcDbLine
 10
146.153854
 20
188.3352329999998
 30
0.0
 11
147.953854
 21
188.3352329999998
 31
0.0
  0
LINE
  5
63E
330
A
100
AcDbEntity
  8
Hawa6
 62
     3
 48
0.225
100
AcDbLine
 10
147.953854
 20
188.3352329999998
 30
0.0
 11
147.953854
 21
179.3352329999998
 31
0.0
  0
LINE
  5
63F
330
A
100
AcDbEntity
  8
Hawa6
 62
     3
 48
0.045
100
AcDbLine
 10
134.353854
 20
179.3352329999998
 30
0.0
 11
136.153854
 21
179.3352329999998
 31
0.0
  0
LINE
  5
640
330
A
100
AcDbEntity
  8
Hawa6
 62
     3
 48
0.225
100
AcDbLine
 10
134.353854
 20
188.3352329999998
 30
0.0
 11
134.353854
 21
179.3352329999998
 31
0.0
  0
LINE
  5
641
330
A
100
AcDbEntity
  8
Hawa6
 62
     3
 48
0.045
100
AcDbLine
 10
134.353854
 20
188.3352329999998
 30
0.0
 11
136.153854
 21
188.3352329999998
 31
0.0
  0
LINE
  5
642
330
A
100
AcDbEntity
  8
Hawa6
 62
     3
 48
0.225
100
AcDbLine
 10
136.153854
 20
188.3352329999998
 30
0.0
 11
136.153854
 21
179.3352329999998
 31
0.0
  0
LINE
  5
643
330
A
100
AcDbEntity
  8
Hawa5
 62
     1
 48
0.061818
100
AcDbLine
 10
136.403854
 20
172.3652619999998
 30
0.0
 11
138.876583
 21
172.3652619999998
 31
0.0
  0
LINE
  5
644
330
A
100
AcDbEntity
  8
Hawa5
 62
     1
 48
0.175682
100
AcDbLine
 10
138.876583
 20
172.3652619999998
 30
0.0
 11
145.903854
 21
172.3652619999998
 31
0.0
  0
LINE
  5
645
330
A
100
AcDbEntity
  8
Hawa5
 62
     1
 48
0.061818
100
AcDbLine
 10
136.403854
 20
172.0852329999998
 30
0.0
 11
138.876583
 21
172.0852329999998
 31
0.0
  0
LINE
  5
646
330
A
100
AcDbEntity
  8
Hawa5
 62
     1
 48
0.175682
100
AcDbLine
 10
138.876583
 20
172.0852329999998
 30
0.0
 11
145.903854
 21
172.0852329999998
 31
0.0
  0
LINE
  5
647
330
A
100
AcDbEntity
  8
Hawa5
 62
     1
 48
0.023333
100
AcDbLine
 10
139.360961
 20
169.128201
 30
0.0
 11
140.294295
 21
169.128201
 31
0.0
  0
LINE
  5
648
330
A
100
AcDbEntity
  8
Hawa5
 62
     1
 48
0.066311
100
AcDbLine
 10
142.946747
 20
169.128201
 30
0.0
 11
140.294295
 21
169.128201
 31
0.0
  0
LINE
  5
649
330
A
100
AcDbEntity
  8
Hawa5
 62
     1
 48
0.008107
100
AcDbLine
 10
139.653854
 20
168.4211700000001
 30
0.0
 11
139.978115
 21
168.4211700000001
 31
0.0
  0
ARC
  5
64A
330
A
100
AcDbEntity
  8
Hawa5
 62
     1
100
AcDbCircle
 10
141.484374
 20
164.7434359999997
 30
0.0
 40
3.97453
100
AcDbArc
 50
105.3979330000001
 51
112.272293000001
  0
LINE
  5
64B
330
A
100
AcDbEntity
  8
Hawa5
 62
     1
 48
0.0375
100
AcDbLine
 10
142.653854
 20
168.4211700000001
 30
0.0
 11
141.153854
 21
168.4211700000001
 31
0.0
  0
ARC
  5
64C
330
A
100
AcDbEntity
  8
Hawa5
 62
     1
100
AcDbCircle
 10
143.790185
 20
156.5466579999998
 30
0.0
 40
12.490061
100
AcDbArc
 50
102.1849639999999
 51
105.6118409999999
  0
LINE
  5
64D
330
A
100
AcDbEntity
  8
Hawa5
 62
     1
 48
0.00976
100
AcDbLine
 10
141.153854
 20
168.755643
 30
0.0
 11
141.153854
 21
168.3652619999998
 31
0.0
  0
LINE
  5
64E
330
A
100
AcDbEntity
  8
Hawa5
 62
     1
 48
0.010358
100
AcDbLine
 10
141.153854
 20
168.3652619999998
 30
0.0
 11
141.153854
 21
167.9509549999998
 31
0.0
  0
LINE
  5
64F
330
A
100
AcDbEntity
  8
Hawa5
 62
     1
 48
0.007001
100
AcDbLine
 10
136.403854
 20
172.3652619999998
 30
0.0
 11
136.403854
 21
172.0852329999998
 31
0.0
  0
LINE
  5
650
330
A
100
AcDbEntity
  8
Hawa5
 62
     1
 48
0.007001
100
AcDbLine
 10
145.903854
 20
172.3652619999998
 30
0.0
 11
145.903854
 21
172.0852329999998
 31
0.0
  0
LINE
  5
651
330
A
100
AcDbEntity
  8
Hawa5
 62
     1
 48
0.104548
100
AcDbLine
 10
139.360961
 20
169.128201
 30
0.0
 11
136.403854
 21
172.0852329999998
 31
0.0
  0
LINE
  5
652
330
A
100
AcDbEntity
  8
Hawa5
 62
     1
 48
0.104548
100
AcDbLine
 10
142.946747
 20
169.128201
 30
0.0
 11
145.903854
 21
172.0852329999998
 31
0.0
  0
ARC
  5
653
330
A
100
AcDbEntity
  8
Hawa5
 62
     1
100
AcDbCircle
 10
138.653854
 20
168.4211700000001
 30
0.0
 40
1.0
100
AcDbArc
 50
0.0
 51
45.0000000000046
  0
ARC
  5
654
330
A
100
AcDbEntity
  8
Hawa5
 62
     1
100
AcDbCircle
 10
143.653854
 20
168.4211700000001
 30
0.0
 40
1.0
100
AcDbArc
 50
134.9999999999954
 51
180.0000049783131
  0
VIEWPORT
  5
46
102
{ACAD_XDICTIONARY
360
683
102
}
330
B
100
AcDbEntity
 67
     1
  8
HAWA1
 62
     0
100
AcDbViewport
 10
0.0
 20
0.0
 30
0.0
 40
1000.0
 41
1000.0
 68
     1
 69
     1
 12
0.0
 22
0.0
 13
0.0
 23
0.0
 14
1.0
 24
1.0
 15
1.0
 25
1.0
 16
0.0
 26
0.0
 36
1.0
 17
0.0
 27
0.0
 37
0.0
 42
50.0
 43
0.0
 44
0.0
 45
1000.0
 50
0.0
 51
0.0
 72
   100
 90
   557216
  1

281
     0
 71
     1
 74
     0
110
0.0
120
0.0
130
0.0
111
1.0
121
0.0
131
0.0
112
0.0
122
1.0
132
0.0
 79
     0
146
0.0
  0
ENDSEC
  0
SECTION
  2
OBJECTS
  0
DICTIONARY
  5
19
330
0
100
AcDbDictionary
281
     1
  3
ACAD_COLOR
350
676
  3
ACAD_GROUP
350
1A
  3
ACAD_LAYOUT
350
515
  3
ACAD_MATERIAL
350
661
  3
ACAD_MLINESTYLE
350
1B
  3
ACAD_PLOTSETTINGS
350
679
  3
ACAD_PLOTSTYLENAME
350
65A
  3
ACAD_TABLESTYLE
350
677
  3
ACAD_VISUALSTYLE
350
665
  3
AcDbVariableDictionary
350
67D
  3
DWGPROPS
350
682
  0
DICTIONARY
  5
683
330
46
100
AcDbDictionary
280
     1
281
     1
  3
ACAD_XREC_ROUNDTRIP
360
684
  0
DICTIONARY
  5
676
102
{ACAD_REACTORS
330
19
102
}
330
19
100
AcDbDictionary
281
     1
  0
DICTIONARY
  5
1A
102
{ACAD_REACTORS
330
19
102
}
330
19
100
AcDbDictionary
281
     1
  0
DICTIONARY
  5
515
102
{ACAD_REACTORS
330
19
102
}
330
19
100
AcDbDictionary
281
     1
  3
Layout1
350
517
  3
Model
350
516
  0
DICTIONARY
  5
661
102
{ACAD_REACTORS
330
19
102
}
330
19
100
AcDbDictionary
281
     1
  3
ByBlock
350
663
  3
ByLayer
350
662
  3
Global
350
664
  0
DICTIONARY
  5
1B
102
{ACAD_REACTORS
330
19
102
}
330
19
100
AcDbDictionary
281
     1
  3
STANDARD
350
1C
  0
DICTIONARY
  5
679
102
{ACAD_REACTORS
330
19
102
}
330
19
100
AcDbDictionary
281
     1
  0
ACDBDICTIONARYWDFLT
  5
65A
102
{ACAD_REACTORS
330
19
102
}
330
19
100
AcDbDictionary
281
     1
  3
Normal
350
65B
100
AcDbDictionaryWithDefault
340
65B
  0
DICTIONARY
  5
677
102
{ACAD_REACTORS
330
19
102
}
330
19
100
AcDbDictionary
281
     1
  3
Standard
350
678
  0
DICTIONARY
  5
665
102
{ACAD_REACTORS
330
19
102
}
330
19
100
AcDbDictionary
281
     1
  3
2dWireframe
350
66B
  3
3D Hidden
350
66D
  3
3dWireframe
350
66C
  3
Basic
350
66A
  3
Brighten
350
671
  3
ColorChange
350
675
  3
Conceptual
350
66E
  3
Dim
350
670
  3
Facepattern
350
674
  3
Flat
350
666
  3
FlatWithEdges
350
667
  3
Gouraud
350
668
  3
GouraudWithEdges
350
669
  3
Linepattern
350
673
  3
Realistic
350
66F
  3
Thicken
350
672
  0
DICTIONARY
  5
67D
102
{ACAD_REACTORS
330
19
102
}
330
19
100
AcDbDictionary
281
     1
  3
CTABLESTYLE
350
67E
  3
DIMASSOC
350
681
  3
INDEXCTL
350
680
  3
SORTENTS
350
67F
  0
XRECORD
  5
682
102
{ACAD_REACTORS
330
19
102
}
330
19
100
AcDbXrecord
280
     1
  1
DWGPROPS COOKIE
  2

  3

  4

  6

  7

  8
stj
  9

300
=
301
=
302
=
303
=
304
=
305
=
306
=
307
=
308
=
309
=
 40
0.0001774074074074
 41
2447893.0
 42
2455231.368277952
  1

 90
        0
  0
XRECORD
  5
684
102
{ACAD_REACTORS
330
683
102
}
330
683
100
AcDbXrecord
280
     1
102
SHADEPLOT
 70
     0
  0
LAYOUT
  5
517
102
{ACAD_XDICTIONARY
360
687
102
}
102
{ACAD_REACTORS
330
515
102
}
330
515
100
AcDbPlotSettings
  1

  2
none_device
  4

  6

 40
0.0
 41
0.0
 42
0.0
 43
0.0
 44
0.0
 45
0.0
 46
0.0
 47
0.0
 48
0.0
 49
0.0
140
0.0
141
0.0
142
1.0
143
1.0
 70
   688
 72
     0
 73
     0
 74
     5
  7

 75
    16
147
1.0
148
0.0
149
0.0
100
AcDbLayout
  1
Layout1
 70
     1
 71
     1
 10
0.0
 20
0.0
 11
420.0
 21
297.0
 12
0.0
 22
0.0
 32
0.0
 14
0.0
 24
0.0
 34
0.0
 15
195.5
 25
253.664566
 35
2.0
146
0.0
 13
0.0
 23
0.0
 33
0.0
 16
1.0
 26
0.0
 36
0.0
 17
0.0
 27
1.0
 37
0.0
 76
     0
330
B
331
46
  0
LAYOUT
  5
516
102
{ACAD_XDICTIONARY
360
685
102
}
102
{ACAD_REACTORS
330
515
102
}
330
515
100
AcDbPlotSettings
  1

  2
none_device
  4

  6

 40
0.0
 41
0.0
 42
0.0
 43
0.0
 44
0.0
 45
0.0
 46
0.0
 47
0.0
 48
0.0
 49
0.0
140
0.0
141
0.0
142
1.0
143
1.0
 70
   688
 72
     0
 73
     0
 74
     5
  7

 75
    16
147
1.0
148
0.0
149
0.0
100
AcDbLayout
  1
Model
 70
     1
 71
     0
 10
0.0
 20
0.0
 11
0.0
 21
0.0
 12
0.0
 22
0.0
 32
0.0
 14
0.0
 24
0.0
 34
0.0
 15
0.0
 25
0.0
 35
0.0
146
0.0
 13
0.0
 23
0.0
 33
0.0
 16
1.0
 26
0.0
 36
0.0
 17
0.0
 27
1.0
 37
0.0
 76
     0
330
A
331
15
  0
MATERIAL
  5
663
102
{ACAD_XDICTIONARY
360
68B
102
}
102
{ACAD_REACTORS
330
661
102
}
330
661
100
AcDbMaterial
  1
ByBlock
  0
MATERIAL
  5
662
102
{ACAD_XDICTIONARY
360
689
102
}
102
{ACAD_REACTORS
330
661
102
}
330
661
100
AcDbMaterial
  1
ByLayer
  0
MATERIAL
  5
664
102
{ACAD_XDICTIONARY
360
68D
102
}
102
{ACAD_REACTORS
330
661
102
}
330
661
100
AcDbMaterial
  1
Global
  0
MLINESTYLE
  5
1C
102
{ACAD_REACTORS
330
1B
102
}
330
1B
100
AcDbMlineStyle
  2
STANDARD
 70
     0
  3

 62
     0
 51
90.0
 52
90.0
 71
     2
 49
0.5
 62
   256
  6
BYLAYER
 49
-0.5
 62
   256
  6
BYLAYER
  0
ACDBPLACEHOLDER
  5
65B
102
{ACAD_REACTORS
330
65A
102
}
330
65A
  0
TABLESTYLE
  5
678
102
{ACAD_XDICTIONARY
360
68F
102
}
102
{ACAD_REACTORS
330
677
102
}
330
677
100
AcDbTableStyle
  3
Standard
 70
     0
 71
     0
 40
1.5
 41
1.5
280
     0
281
     0
  7
STANDARD
140
4.5
170
     2
 62
     0
 63
     7
283
     0
274
    -2
284
     1
 64
     0
275
    -2
285
     1
 65
     0
276
    -2
286
     1
 66
     0
277
    -2
287
     1
 67
     0
278
    -2
288
     1
 68
     0
279
    -2
289
     1
 69
     0
  7
STANDARD
140
6.0
170
     5
 62
     0
 63
     7
283
     0
274
    -2
284
     1
 64
     0
275
    -2
285
     1
 65
     0
276
    -2
286
     1
 66
     0
277
    -2
287
     1
 67
     0
278
    -2
288
     1
 68
     0
279
    -2
289
     1
 69
     0
  7
STANDARD
140
4.5
170
     5
 62
     0
 63
     7
283
     0
274
    -2
284
     1
 64
     0
275
    -2
285
     1
 65
     0
276
    -2
286
     1
 66
     0
277
    -2
287
     1
 67
     0
278
    -2
288
     1
 68
     0
279
    -2
289
     1
 69
     0
  0
VISUALSTYLE
  5
66B
102
{ACAD_REACTORS
330
665
102
}
330
665
100
AcDbVisualStyle
  2
2dWireframe
 70
     4
 71
     0
 72
     2
 73
     0
 90
        0
 40
-0.6
 41
-30.0
 62
     5
 63
     7
 74
     1
 91
        4
 64
     7
 65
   257
 75
     1
175
     1
 42
1.0
 92
        0
 66
   257
 43
1.0
 76
     1
 77
     6
 78
     2
 67
     7
 79
     5
170
     0
171
     0
290
     0
174
     0
 93
        1
 44
0.0
173
     0
291
     0
 45
0.0
1001
ACAD
1000
AcDbSavedByObjectVersion
1070
     0
  0
VISUALSTYLE
  5
66D
102
{ACAD_REACTORS
330
665
102
}
330
665
100
AcDbVisualStyle
  2
3D Hidden
 70
     6
 71
     1
 72
     2
 73
     2
 90
        0
 40
-0.6
 41
-30.0
 62
     5
 63
     7
 74
     2
 91
        2
 64
     7
 65
   257
 75
     2
175
     1
 42
40.0
 92
        0
 66
   257
 43
1.0
 76
     1
 77
     6
 78
     2
 67
     7
 79
     3
170
     0
171
     0
290
     0
174
     0
 93
        1
 44
0.0
173
     0
291
     0
 45
0.0
1001
ACAD
1000
AcDbSavedByObjectVersion
1070
     0
  0
VISUALSTYLE
  5
66C
102
{ACAD_REACTORS
330
665
102
}
330
665
100
AcDbVisualStyle
  2
3dWireframe
 70
     5
 71
     0
 72
     2
 73
     0
 90
        0
 40
-0.6
 41
-30.0
 62
     5
 63
     7
 74
     1
 91
        4
 64
     7
 65
   257
 75
     1
175
     1
 42
1.0
 92
        0
 66
   257
 43
1.0
 76
     1
 77
     6
 78
     2
 67
     7
 79
     5
170
     0
171
     0
290
     0
174
     0
 93
        1
 44
0.0
173
     0
291
     0
 45
0.0
1001
ACAD
1000
AcDbSavedByObjectVersion
1070
     0
  0
VISUALSTYLE
  5
66A
102
{ACAD_REACTORS
330
665
102
}
330
665
100
AcDbVisualStyle
  2
Basic
 70
     7
 71
     1
 72
     0
 73
     1
 90
        0
 40
-0.6
 41
-30.0
 62
     5
 63
     7
 74
     0
 91
        4
 64
     7
 65
   257
 75
     1
175
     1
 42
1.0
 92
        8
 66
     7
 43
1.0
 76
     1
 77
     6
 78
     2
 67
     7
 79
     5
170
     0
171
     0
290
     0
174
     0
 93
        1
 44
0.0
173
     0
291
     1
 45
0.0
1001
ACAD
1000
AcDbSavedByObjectVersion
1070
     0
  0
VISUALSTYLE
  5
671
102
{ACAD_REACTORS
330
665
102
}
330
665
100
AcDbVisualStyle
  2
Brighten
 70
    12
 71
     2
 72
     2
 73
     0
 90
        0
 40
-0.6
 41
-30.0
 62
     5
 63
     7
 74
     1
 91
        4
 64
     7
 65
   257
 75
     1
175
     1
 42
1.0
 92
        8
 66
     7
 43
1.0
 76
     1
 77
     6
 78
     2
 67
     7
 79
     5
170
     0
171
     0
290
     0
174
     0
 93
        1
 44
50.0
173
     0
291
     1
 45
0.0
1001
ACAD
1000
AcDbSavedByObjectVersion
1070
     0
  0
VISUALSTYLE
  5
675
102
{ACAD_REACTORS
330
665
102
}
330
665
100
AcDbVisualStyle
  2
ColorChange
 70
    16
 71
     2
 72
     2
 73
     3
 90
        0
 40
-0.6
 41
-30.0
 62
     5
 63
     8
 74
     1
 91
        4
 64
     7
 65
   257
 75
     1
175
     1
 42
1.0
 92
        8
 66
     8
 43
1.0
 76
     1
 77
     6
 78
     2
 67
     7
 79
     5
170
     0
171
     0
290
     0
174
     0
 93
        1
 44
0.0
173
     0
291
     1
 45
0.0
1001
ACAD
1000
AcDbSavedByObjectVersion
1070
     0
  0
VISUALSTYLE
  5
66E
102
{ACAD_REACTORS
330
665
102
}
330
665
100
AcDbVisualStyle
  2
Conceptual
 70
     9
 71
     3
 72
     2
 73
     0
 90
        0
 40
-0.6
 41
-30.0
 62
     5
 63
     7
 74
     2
 91
        2
 64
     7
 65
   257
 75
     1
175
     1
 42
40.0
 92
        8
 66
     7
 43
1.0
 76
     1
 77
     6
 78
     2
 67
     7
 79
     3
170
     0
171
     0
290
     0
174
     0
 93
        1
 44
0.0
173
     0
291
     0
 45
0.0
1001
ACAD
1000
AcDbSavedByObjectVersion
1070
     0
  0
VISUALSTYLE
  5
670
102
{ACAD_REACTORS
330
665
102
}
330
665
100
AcDbVisualStyle
  2
Dim
 70
    11
 71
     2
 72
     2
 73
     0
 90
        0
 40
-0.6
 41
-30.0
 62
     5
 63
     7
 74
     1
 91
        4
 64
     7
 65
   257
 75
     1
175
     1
 42
1.0
 92
        8
 66
     7
 43
1.0
 76
     1
 77
     6
 78
     2
 67
     7
 79
     5
170
     0
171
     0
290
     0
174
     0
 93
        1
 44
-50.0
173
     0
291
     1
 45
0.0
1001
ACAD
1000
AcDbSavedByObjectVersion
1070
     0
  0
VISUALSTYLE
  5
674
102
{ACAD_REACTORS
330
665
102
}
330
665
100
AcDbVisualStyle
  2
Facepattern
 70
    15
 71
     2
 72
     2
 73
     0
 90
        0
 40
-0.6
 41
-30.0
 62
     5
 63
     7
 74
     1
 91
        4
 64
     7
 65
   257
 75
     1
175
     1
 42
1.0
 92
        8
 66
     7
 43
1.0
 76
     1
 77
     6
 78
     2
 67
     7
 79
     5
170
     0
171
     0
290
     0
174
     0
 93
        1
 44
0.0
173
     0
291
     1
 45
0.0
1001
ACAD
1000
AcDbSavedByObjectVersion
1070
     0
  0
VISUALSTYLE
  5
666
102
{ACAD_REACTORS
330
665
102
}
330
665
100
AcDbVisualStyle
  2
Flat
 70
     0
 71
     2
 72
     1
 73
     1
 90
        2
 40
-0.6
 41
30.0
 62
     5
 63
     7
 74
     0
 91
        4
 64
     7
 65
   257
 75
     1
175
     1
 42
1.0
 92
        8
 66
     7
 43
1.0
 76
     1
 77
     6
 78
     2
 67
     7
 79
     5
170
     0
171
     0
290
     0
174
     0
 93
       13
 44
0.0
173
     0
291
     1
 45
0.0
1001
ACAD
1000
AcDbSavedByObjectVersion
1070
     0
  0
VISUALSTYLE
  5
667
102
{ACAD_REACTORS
330
665
102
}
330
665
100
AcDbVisualStyle
  2
FlatWithEdges
 70
     1
 71
     2
 72
     1
 73
     1
 90
        2
 40
-0.6
 41
30.0
 62
     5
 63
     7
 74
     1
 91
        4
 64
     7
 65
   257
 75
     1
175
     1
 42
1.0
 92
        0
 66
   257
 43
1.0
 76
     1
 77
     6
 78
     2
 67
     7
 79
     5
170
     0
171
     0
290
     0
174
     0
 93
       13
 44
0.0
173
     0
291
     1
 45
0.0
1001
ACAD
1000
AcDbSavedByObjectVersion
1070
     0
  0
VISUALSTYLE
  5
668
102
{ACAD_REACTORS
330
665
102
}
330
665
100
AcDbVisualStyle
  2
Gouraud
 70
     2
 71
     2
 72
     2
 73
     1
 90
        2
 40
-0.6
 41
30.0
 62
     5
 63
     7
 74
     0
 91
        4
 64
     7
 65
   257
 75
     1
175
     1
 42
1.0
 92
        0
 66
     7
 43
1.0
 76
     1
 77
     6
 78
     2
 67
     7
 79
     5
170
     0
171
     0
290
     0
174
     0
 93
       13
 44
0.0
173
     0
291
     1
 45
0.0
1001
ACAD
1000
AcDbSavedByObjectVersion
1070
     0
  0
VISUALSTYLE
  5
669
102
{ACAD_REACTORS
330
665
102
}
330
665
100
AcDbVisualStyle
  2
GouraudWithEdges
 70
     3
 71
     2
 72
     2
 73
     1
 90
        2
 40
-0.6
 41
30.0
 62
     5
 63
     7
 74
     1
 91
        4
 64
     7
 65
   257
 75
     1
175
     1
 42
1.0
 92
        0
 66
   257
 43
1.0
 76
     1
 77
     6
 78
     2
 67
     7
 79
     5
170
     0
171
     0
290
     0
174
     0
 93
       13
 44
0.0
173
     0
291
     1
 45
0.0
1001
ACAD
1000
AcDbSavedByObjectVersion
1070
     0
  0
VISUALSTYLE
  5
673
102
{ACAD_REACTORS
330
665
102
}
330
665
100
AcDbVisualStyle
  2
Linepattern
 70
    14
 71
     2
 72
     2
 73
     0
 90
        0
 40
-0.6
 41
-30.0
 62
     5
 63
     7
 74
     1
 91
        4
 64
     7
 65
   257
 75
     7
175
     7
 42
1.0
 92
        8
 66
     7
 43
1.0
 76
     1
 77
     6
 78
     2
 67
     7
 79
     5
170
     0
171
     0
290
     0
174
     0
 93
        1
 44
0.0
173
     0
291
     1
 45
0.0
1001
ACAD
1000
AcDbSavedByObjectVersion
1070
     0
  0
VISUALSTYLE
  5
66F
102
{ACAD_REACTORS
330
665
102
}
330
665
100
AcDbVisualStyle
  2
Realistic
 70
     8
 71
     2
 72
     2
 73
     0
 90
        0
 40
-0.6
 41
-30.0
 62
     5
 63
     7
 74
     1
 91
        0
 64
     7
 65
   257
 75
     1
175
     1
 42
1.0
 92
        8
 66
     8
 43
1.0
 76
     1
 77
     6
 78
     2
 67
     7
 79
     5
170
     0
171
     0
290
     0
174
     0
 93
       13
 44
0.0
173
     0
291
     0
 45
0.0
1001
ACAD
1000
AcDbSavedByObjectVersion
1070
     0
  0
VISUALSTYLE
  5
672
102
{ACAD_REACTORS
330
665
102
}
330
665
100
AcDbVisualStyle
  2
Thicken
 70
    13
 71
     2
 72
     2
 73
     0
 90
        0
 40
-0.6
 41
-30.0
 62
     5
 63
     7
 74
     1
 91
        4
 64
     7
 65
   257
 75
     1
175
     1
 42
1.0
 92
       12
 66
     7
 43
1.0
 76
     1
 77
     6
 78
     2
 67
     7
 79
     5
170
     0
171
     0
290
     0
174
     0
 93
        1
 44
0.0
173
     0
291
     1
 45
0.0
1001
ACAD
1000
AcDbSavedByObjectVersion
1070
     0
  0
DICTIONARYVAR
  5
67E
102
{ACAD_REACTORS
330
67D
102
}
330
67D
100
DictionaryVariables
280
     0
  1
STANDARD
  0
DICTIONARYVAR
  5
681
102
{ACAD_REACTORS
330
67D
102
}
330
67D
100
DictionaryVariables
280
     0
  1
1
  0
DICTIONARYVAR
  5
680
102
{ACAD_REACTORS
330
67D
102
}
330
67D
100
DictionaryVariables
280
     0
  1
0
  0
DICTIONARYVAR
  5
67F
102
{ACAD_REACTORS
330
67D
102
}
330
67D
100
DictionaryVariables
280
     0
  1
127
  0
DICTIONARY
  5
687
330
517
100
AcDbDictionary
280
     1
281
     1
  3
ACAD_XREC_ROUNDTRIP
360
688
  0
DICTIONARY
  5
685
330
516
100
AcDbDictionary
280
     1
281
     1
  3
ACAD_XREC_ROUNDTRIP
360
686
  0
DICTIONARY
  5
68B
330
663
100
AcDbDictionary
280
     1
281
     1
  3
ACAD_XREC_ROUNDTRIP
360
68C
  0
DICTIONARY
  5
689
330
662
100
AcDbDictionary
280
     1
281
     1
  3
ACAD_XREC_ROUNDTRIP
360
68A
  0
DICTIONARY
  5
68D
330
664
100
AcDbDictionary
280
     1
281
     1
  3
ACAD_XREC_ROUNDTRIP
360
68E
  0
DICTIONARY
  5
68F
330
678
100
AcDbDictionary
280
     1
281
     1
  3
ACAD_XREC_ROUNDTRIP
360
690
  0
XRECORD
  5
688
102
{ACAD_REACTORS
330
687
102
}
330
687
100
AcDbXrecord
280
     1
102
SHADEPLOT
 70
     0
102
SHADEPLOTRESLEVEL
 70
     2
102
SHADEPLOTCUSTOMDPI
 70
   300
  0
XRECORD
  5
686
102
{ACAD_REACTORS
330
685
102
}
330
685
100
AcDbXrecord
280
     1
102
SHADEPLOT
 70
     0
102
SHADEPLOTRESLEVEL
 70
     2
102
SHADEPLOTCUSTOMDPI
 70
   300
  0
XRECORD
  5
68C
102
{ACAD_REACTORS
330
68B
102
}
330
68B
100
AcDbXrecord
280
     1
102
MATERIAL
148
0.0
149
0.0
149
0.0
 93
        0
 94
       63
282
     0
 72
     1
 77
     1
171
     1
175
     1
179
     1
273
     0
  0
XRECORD
  5
68A
102
{ACAD_REACTORS
330
689
102
}
330
689
100
AcDbXrecord
280
     1
102
MATERIAL
148
0.0
149
0.0
149
0.0
 93
        0
 94
       63
282
     0
 72
     1
 77
     1
171
     1
175
     1
179
     1
273
     0
  0
XRECORD
  5
68E
102
{ACAD_REACTORS
330
68D
102
}
330
68D
100
AcDbXrecord
280
     1
102
MATERIAL
148
0.0
149
0.0
149
0.0
 93
        0
 94
       63
282
     0
 72
     1
 77
     1
171
     1
175
     1
179
     1
273
     0
  0
XRECORD
  5
690
102
{ACAD_REACTORS
330
68F
102
}
330
68F
100
AcDbXrecord
280
     1
102
ACAD_ROUNDTRIP_PRE2007_TABLESTYLE
 90
      512
 91
        0
  1

 92
      512
 93
        0
  2

 94
      512
 95
        0
  3

  0
ENDSEC
  0
EOF
