  0
SECTION
  2
HEADER
  9
$ACADVER
  1
AC1015
  9
$ACADMAINTVER
 70
    20
  9
$DWGCODEPAGE
  3
ANSI_1252
  9
$INSBASE
 10
0.0
 20
0.0
 30
0.0
  9
$EXTMIN
 10
1.717530276763227
 20
70.61998063211797
 30
-0.0000610304997082
  9
$EXTMAX
 10
193.0810554012203
 20
246.3428656227687
 30
0.000091555062788
  9
$LIMMIN
 10
0.0
 20
0.0
  9
$LIMMAX
 10
420.0
 20
297.0
  9
$ORTHOMODE
 70
     1
  9
$REGENMODE
 70
     1
  9
$FILLMODE
 70
     1
  9
$QTEXTMODE
 70
     0
  9
$MIRRTEXT
 70
     1
  9
$LTSCALE
 40
1.0
  9
$ATTMODE
 70
     1
  9
$TEXTSIZE
 40
2.5
  9
$TRACEWID
 40
1.0
  9
$TEXTSTYLE
  7
STANDARD
  9
$CLAYER
  8
0
  9
$CELTYPE
  6
BYLAYER
  9
$CECOLOR
 62
   256
  9
$CELTSCALE
 40
1.0
  9
$DISPSILH
 70
     0
  9
$DIMSCALE
 40
1.0
  9
$DIMASZ
 40
2.0
  9
$DIMEXO
 40
2.0
  9
$DIMDLI
 40
0.0
  9
$DIMRND
 40
0.0
  9
$DIMDLE
 40
1.0
  9
$DIMEXE
 40
1.0
  9
$DIMTP
 40
0.0
  9
$DIMTM
 40
0.0
  9
$DIMTXT
 40
3.5
  9
$DIMCEN
 40
0.0
  9
$DIMTSZ
 40
0.0
  9
$DIMTOL
 70
     0
  9
$DIMLIM
 70
     0
  9
$DIMTIH
 70
     0
  9
$DIMTOH
 70
     0
  9
$DIMSE1
 70
     0
  9
$DIMSE2
 70
     0
  9
$DIMTAD
 70
     1
  9
$DIMZIN
 70
     8
  9
$DIMBLK
  1

  9
$DIMASO
 70
     1
  9
$DIMSHO
 70
     1
  9
$DIMPOST
  1

  9
$DIMAPOST
  1

  9
$DIMALT
 70
     1
  9
$DIMALTD
 70
     5
  9
$DIMALTF
 40
0.039370078740157
  9
$DIMLFAC
 40
1.0
  9
$DIMTOFL
 70
     1
  9
$DIMTVP
 40
0.0
  9
$DIMTIX
 70
     0
  9
$DIMSOXD
 70
     0
  9
$DIMSAH
 70
     1
  9
$DIMBLK1
  1
Oblique
  9
$DIMBLK2
  1
Oblique
  9
$DIMSTYLE
  2
HAWA-Strich
  9
$DIMCLRD
 70
   256
  9
$DIMCLRE
 70
   256
  9
$DIMCLRT
 70
   256
  9
$DIMTFAC
 40
0.7114285714285719
  9
$DIMGAP
 40
1.0
  9
$DIMJUST
 70
     0
  9
$DIMSD1
 70
     0
  9
$DIMSD2
 70
     0
  9
$DIMTOLJ
 70
     1
  9
$DIMTZIN
 70
     8
  9
$DIMALTZ
 70
     8
  9
$DIMALTTZ
 70
     8
  9
$DIMUPT
 70
     0
  9
$DIMDEC
 70
     1
  9
$DIMTDEC
 70
     1
  9
$DIMALTU
 70
     4
  9
$DIMALTTD
 70
     5
  9
$DIMTXSTY
  7
Beschlag
  9
$DIMAUNIT
 70
     0
  9
$DIMADEC
 70
     1
  9
$DIMALTRND
 40
0.0
  9
$DIMAZIN
 70
     2
  9
$DIMDSEP
 70
    46
  9
$DIMATFIT
 70
     3
  9
$DIMFRAC
 70
     0
  9
$DIMLDRBLK
  1
Oblique
  9
$DIMLUNIT
 70
     2
  9
$DIMLWD
 70
    -2
  9
$DIMLWE
 70
    -2
  9
$DIMTMOVE
 70
     0
  9
$LUNITS
 70
     2
  9
$LUPREC
 70
     4
  9
$SKETCHINC
 40
1.0
  9
$FILLETRAD
 40
2.5
  9
$AUNITS
 70
     0
  9
$AUPREC
 70
     0
  9
$MENU
  1
.
  9
$ELEVATION
 40
0.0
  9
$PELEVATION
 40
0.0
  9
$THICKNESS
 40
0.0
  9
$LIMCHECK
 70
     0
  9
$CHAMFERA
 40
2.5
  9
$CHAMFERB
 40
2.5
  9
$CHAMFERC
 40
0.0
  9
$CHAMFERD
 40
0.0
  9
$SKPOLY
 70
     0
  9
$TDCREATE
 40
2447893.000000000
  9
$TDUCREATE
 40
2447892.916666666
  9
$TDUPDATE
 40
2455705.339481540
  9
$TDUUPDATE
 40
2455705.256148206
  9
$TDINDWG
 40
0.0479091782
  9
$TDUSRTIMER
 40
0.0479052083
  9
$USRTIMER
 70
     1
  9
$ANGBASE
 50
0.0
  9
$ANGDIR
 70
     0
  9
$PDMODE
 70
     0
  9
$PDSIZE
 40
0.0
  9
$PLINEWID
 40
0.0
  9
$SPLFRAME
 70
     0
  9
$SPLINETYPE
 70
     6
  9
$SPLINESEGS
 70
     8
  9
$HANDSEED
  5
353
  9
$SURFTAB1
 70
     6
  9
$SURFTAB2
 70
     6
  9
$SURFTYPE
 70
     6
  9
$SURFU
 70
     6
  9
$SURFV
 70
     6
  9
$UCSBASE
  2

  9
$UCSNAME
  2

  9
$UCSORG
 10
0.0
 20
0.0
 30
0.0
  9
$UCSXDIR
 10
1.0
 20
0.0
 30
0.0
  9
$UCSYDIR
 10
0.0
 20
1.0
 30
0.0
  9
$UCSORTHOREF
  2

  9
$UCSORTHOVIEW
 70
     0
  9
$UCSORGTOP
 10
0.0
 20
0.0
 30
0.0
  9
$UCSORGBOTTOM
 10
0.0
 20
0.0
 30
0.0
  9
$UCSORGLEFT
 10
0.0
 20
0.0
 30
0.0
  9
$UCSORGRIGHT
 10
0.0
 20
0.0
 30
0.0
  9
$UCSORGFRONT
 10
0.0
 20
0.0
 30
0.0
  9
$UCSORGBACK
 10
0.0
 20
0.0
 30
0.0
  9
$PUCSBASE
  2

  9
$PUCSNAME
  2

  9
$PUCSORG
 10
0.0
 20
0.0
 30
0.0
  9
$PUCSXDIR
 10
1.0
 20
0.0
 30
0.0
  9
$PUCSYDIR
 10
0.0
 20
1.0
 30
0.0
  9
$PUCSORTHOREF
  2

  9
$PUCSORTHOVIEW
 70
     0
  9
$PUCSORGTOP
 10
0.0
 20
0.0
 30
0.0
  9
$PUCSORGBOTTOM
 10
0.0
 20
0.0
 30
0.0
  9
$PUCSORGLEFT
 10
0.0
 20
0.0
 30
0.0
  9
$PUCSORGRIGHT
 10
0.0
 20
0.0
 30
0.0
  9
$PUCSORGFRONT
 10
0.0
 20
0.0
 30
0.0
  9
$PUCSORGBACK
 10
0.0
 20
0.0
 30
0.0
  9
$USERI1
 70
     0
  9
$USERI2
 70
     0
  9
$USERI3
 70
     0
  9
$USERI4
 70
     0
  9
$USERI5
 70
     0
  9
$USERR1
 40
0.0
  9
$USERR2
 40
0.0
  9
$USERR3
 40
0.0
  9
$USERR4
 40
0.0
  9
$USERR5
 40
0.0
  9
$WORLDVIEW
 70
     1
  9
$SHADEDGE
 70
     3
  9
$SHADEDIF
 70
    70
  9
$TILEMODE
 70
     1
  9
$MAXACTVP
 70
    48
  9
$PINSBASE
 10
0.0
 20
0.0
 30
0.0
  9
$PLIMCHECK
 70
     0
  9
$PEXTMIN
 10
0.0
 20
0.0
 30
0.0
  9
$PEXTMAX
 10
195.5
 20
253.664566
 30
2.0
  9
$PLIMMIN
 10
0.0
 20
0.0
  9
$PLIMMAX
 10
420.0
 20
297.0
  9
$UNITMODE
 70
     0
  9
$VISRETAIN
 70
     0
  9
$PLINEGEN
 70
     0
  9
$PSLTSCALE
 70
     1
  9
$TREEDEPTH
 70
  3020
  9
$CMLSTYLE
  2
STANDARD
  9
$CMLJUST
 70
     0
  9
$CMLSCALE
 40
20.0
  9
$PROXYGRAPHICS
 70
     1
  9
$MEASUREMENT
 70
     1
  9
$CELWEIGHT
370
    -1
  9
$ENDCAPS
280
     0
  9
$JOINSTYLE
280
     0
  9
$LWDISPLAY
290
     0
  9
$INSUNITS
 70
     0
  9
$HYPERLINKBASE
  1

  9
$STYLESHEET
  1

  9
$XEDIT
290
     1
  9
$CEPSNTYPE
380
     0
  9
$PSTYLEMODE
290
     1
  9
$FINGERPRINTGUID
  2
{A5FFDFEC-65C8-43BA-9CC2-F2FB53185F5A}
  9
$VERSIONGUID
  2
{F9996309-95D1-47F8-BE52-7B7D34F199CE}
  9
$EXTNAMES
290
     1
  9
$PSVPSCALE
 40
0.0
  9
$OLESTARTUP
290
     0
  0
ENDSEC
  0
SECTION
  2
CLASSES
  0
CLASS
  1
LWPOLYLINE
  2
AcDbPolyline
  3
ObjectDBX Classes
 90
        0
280
     0
281
     1
  0
CLASS
  1
IMAGE
  2
AcDbRasterImage
  3
ISM
 90
    34943
280
     0
281
     1
  0
CLASS
  1
OLE2FRAME
  2
AcDbOle2Frame
  3
ObjectDBX Classes
 90
    32768
280
     0
281
     1
  0
CLASS
  1
HATCH
  2
AcDbHatch
  3
ObjectDBX Classes
 90
    32768
280
     0
281
     1
  0
CLASS
  1
DICTIONARYVAR
  2
AcDbDictionaryVar
  3
ObjectDBX Classes
 90
        0
280
     0
281
     0
  0
CLASS
  1
RASTERVARIABLES
  2
AcDbRasterVariables
  3
ISM
 90
    32768
280
     0
281
     0
  0
CLASS
  1
IMAGEDEF
  2
AcDbRasterImageDef
  3
ISM
 90
    32768
280
     0
281
     0
  0
CLASS
  1
IMAGEDEF_REACTOR
  2
AcDbRasterImageDefReactor
  3
ISM
 90
    32769
280
     0
281
     0
  0
CLASS
  1
IDBUFFER
  2
AcDbIdBuffer
  3
ObjectDBX Classes
 90
    32768
280
     0
281
     0
  0
CLASS
  1
SPATIAL_FILTER
  2
AcDbSpatialFilter
  3
ObjectDBX Classes
 90
    32768
280
     0
281
     0
  0
CLASS
  1
XRECORD
  2
AcDbXrecord
  3
ObjectDBX Classes
 90
        0
280
     0
281
     0
  0
CLASS
  1
SORTENTSTABLE
  2
AcDbSortentsTable
  3
ObjectDBX Classes
 90
        0
280
     0
281
     0
  0
CLASS
  1
LAYER_INDEX
  2
AcDbLayerIndex
  3
ObjectDBX Classes
 90
    32768
280
     0
281
     0
  0
CLASS
  1
SPATIAL_INDEX
  2
AcDbSpatialIndex
  3
ObjectDBX Classes
 90
    32768
280
     0
281
     0
  0
CLASS
  1
OBJECT_PTR
  2
CAseDLPNTableRecord
  3
ASE-LPNTableRecord
 90
    32769
280
     0
281
     0
  0
CLASS
  1
LAYOUT
  2
AcDbLayout
  3
ObjectDBX Classes
 90
        0
280
     0
281
     0
  0
CLASS
  1
PLOTSETTINGS
  2
AcDbPlotSettings
  3
ObjectDBX Classes
 90
    32768
280
     0
281
     0
  0
CLASS
  1
ACDBDICTIONARYWDFLT
  2
AcDbDictionaryWithDefault
  3
ObjectDBX Classes
 90
        0
280
     0
281
     0
  0
CLASS
  1
ACDBPLACEHOLDER
  2
AcDbPlaceHolder
  3
ObjectDBX Classes
 90
        0
280
     0
281
     0
  0
CLASS
  1
VBA_PROJECT
  2
AcDbVbaProject
  3
acad
 90
    32768
280
     0
281
     0
  0
CLASS
  1
WIPEOUT
  2
AcDbWipeout
  3
"WipeOut|Product Desc: Object Enabler for WipeOut entity                        |Company: Autodesk, Inc.                        |WEB Address: www.autodesk.com"
 90
    34943
280
     0
281
     1
  0
CLASS
  1
WIPEOUTVARIABLES
  2
AcDbWipeoutVariables
  3
"WipeOut|Product Desc:     WipeOut Dbx Application|Company:          Autodesk, Inc.|WEB Address:      www.autodesk.com"
 90
    32768
280
     0
281
     0
  0
CLASS
  1
RTEXT
  2
RText
  3
RText|AutoCAD Express Tool|expresstools@autodesk.com
 90
    32768
280
     0
281
     1
  0
CLASS
  1
ARCALIGNEDTEXT
  2
AcDbArcAlignedText
  3
ATEXT|AutoCAD Express Tool|expresstools@autodesk.com
 90
    32768
280
     0
281
     1
  0
CLASS
  1
SCALE
  2
AcDbScale
  3
ObjectDBX Classes
 90
     1153
280
     0
281
     0
  0
CLASS
  1
MATERIAL
  2
AcDbMaterial
  3
ObjectDBX Classes
 90
     1024
280
     0
281
     0
  0
CLASS
  1
VISUALSTYLE
  2
AcDbVisualStyle
  3
ObjectDBX Classes
 90
     4095
280
     0
281
     0
  0
CLASS
  1
TABLESTYLE
  2
AcDbTableStyle
  3
ObjectDBX Classes
 90
     4095
280
     0
281
     0
  0
ENDSEC
  0
SECTION
  2
TABLES
  0
TABLE
  2
VPORT
  5
7
330
0
100
AcDbSymbolTable
 70
     1
  0
VPORT
  5
15
330
7
100
AcDbSymbolTableRecord
100
AcDbViewportTableRecord
  2
*ACTIVE
 70
     0
 10
0.0
 20
0.0
 11
1.0
 21
1.0
 12
97.39929283899178
 22
158.4814231274433
 13
0.0
 23
0.0
 14
1.0
 24
1.0
 15
0.0
 25
0.0
 16
0.0
 26
0.0
 36
1.0
 17
0.0
 27
0.0
 37
0.0
 40
176.8177316261065
 41
1.892931392931392
 42
50.0
 43
0.0
 44
0.0
 50
0.0
 51
0.0
 71
     0
 72
   100
 73
     1
 74
     1
 75
     0
 76
     0
 77
     0
 78
     0
281
     0
 65
     1
110
0.0
120
0.0
130
0.0
111
1.0
121
0.0
131
0.0
112
0.0
122
1.0
132
0.0
 79
     0
146
0.0
  0
ENDTAB
  0
TABLE
  2
LTYPE
  5
4
330
0
100
AcDbSymbolTable
 70
     5
  0
LTYPE
  5
11
330
4
100
AcDbSymbolTableRecord
100
AcDbLinetypeTableRecord
  2
BYBLOCK
 70
     0
  3

 72
    65
 73
     0
 40
0.0
  0
LTYPE
  5
12
330
4
100
AcDbSymbolTableRecord
100
AcDbLinetypeTableRecord
  2
BYLAYER
 70
     0
  3

 72
    65
 73
     0
 40
0.0
  0
LTYPE
  5
13
330
4
100
AcDbSymbolTableRecord
100
AcDbLinetypeTableRecord
  2
CONTINUOUS
 70
     0
  3
Solid line
 72
    65
 73
     0
 40
0.0
  0
LTYPE
  5
1D
330
4
100
AcDbSymbolTableRecord
100
AcDbLinetypeTableRecord
  2
DASHED
 70
     0
  3
__ __ __ __ __ __ __ __ __ __ __ __ __ __ __ __
 72
    65
 73
     2
 40
15.0
 49
12.0
 74
     0
 49
-3.0
 74
     0
  0
LTYPE
  5
1E
330
4
100
AcDbSymbolTableRecord
100
AcDbLinetypeTableRecord
  2
PHANTOM
 70
     0
  3
____________    ____    ____   _
 72
    65
 73
     6
 40
20.0
 49
10.0
 74
     0
 49
-2.0
 74
     0
 49
2.0
 74
     0
 49
-2.0
 74
     0
 49
2.0
 74
     0
 49
-2.0
 74
     0
  0
LTYPE
  5
1F
330
4
100
AcDbSymbolTableRecord
100
AcDbLinetypeTableRecord
  2
DASHSPACE
 70
     0
  3
__    __    __    __    __   
 72
    65
 73
     2
 40
30.0
 49
12.0
 74
     0
 49
-18.0
 74
     0
  0
LTYPE
  5
20
330
4
100
AcDbSymbolTableRecord
100
AcDbLinetypeTableRecord
  2
DASHDOT
 70
     0
  3
 __ . __ . __ . __ . __ . __ . __ . 
 72
    65
 73
     4
 40
18.5
 49
12.0
 74
     0
 49
-3.0
 74
     0
 49
0.5
 74
     0
 49
-3.0
 74
     0
  0
ENDTAB
  0
TABLE
  2
LAYER
  5
2
330
0
100
AcDbSymbolTable
 70
     5
  0
LAYER
  5
14
330
2
100
AcDbSymbolTableRecord
100
AcDbLayerTableRecord
  2
0
 70
     0
 62
     7
  6
CONTINUOUS
370
    -3
390
1A9
  0
LAYER
  5
19A
330
2
100
AcDbSymbolTableRecord
100
AcDbLayerTableRecord
  2
Hawa1
 70
     0
 62
     2
  6
CONTINUOUS
370
     0
390
1A9
  0
LAYER
  5
19D
330
2
100
AcDbSymbolTableRecord
100
AcDbLayerTableRecord
  2
Hawa5
 70
     0
 62
     1
  6
CONTINUOUS
370
    -3
390
1A9
  0
LAYER
  5
19E
330
2
100
AcDbSymbolTableRecord
100
AcDbLayerTableRecord
  2
Hawa6
 70
     0
 62
     3
  6
CONTINUOUS
370
    -3
390
1A9
  0
LAYER
  5
1C5
330
2
100
AcDbSymbolTableRecord
100
AcDbLayerTableRecord
  2
Defpoints
 70
     0
 62
     7
  6
CONTINUOUS
290
     0
370
    -3
390
1A9
  0
ENDTAB
  0
TABLE
  2
STYLE
  5
3
330
0
100
AcDbSymbolTable
 70
     3
  0
STYLE
  5
17
330
3
100
AcDbSymbolTableRecord
100
AcDbTextStyleTableRecord
  2
STANDARD
 70
     0
 40
0.0
 41
1.0
 50
0.0
 71
     0
 42
2.5
  3
isocp.shx
  4

  0
STYLE
  5
21
330
3
100
AcDbSymbolTableRecord
100
AcDbTextStyleTableRecord
  2
GDT
 70
     0
 40
0.0
 41
1.0
 50
0.0
 71
     0
 42
2.5
  3
gdt.shx
  4

  0
STYLE
  5
1C7
330
3
100
AcDbSymbolTableRecord
100
AcDbTextStyleTableRecord
  2
Beschlag
 70
     0
 40
0.0
 41
0.9
 50
0.0
 71
     0
 42
3.5
  3
arial.ttf
  4

1001
ACAD
1000
Arial
1071
       34
  0
ENDTAB
  0
TABLE
  2
VIEW
  5
5
330
0
100
AcDbSymbolTable
 70
     0
  0
ENDTAB
  0
TABLE
  2
UCS
  5
6
330
0
100
AcDbSymbolTable
 70
     0
  0
ENDTAB
  0
TABLE
  2
APPID
  5
8
330
0
100
AcDbSymbolTable
 70
     1
  0
APPID
  5
16
330
8
100
AcDbSymbolTableRecord
100
AcDbRegAppTableRecord
  2
ACAD
 70
     0
  0
ENDTAB
  0
TABLE
  2
DIMSTYLE
  5
9
330
0
100
AcDbSymbolTable
 70
     2
100
AcDbDimStyleTable
 71
     2
340
1C6
340
18
  0
DIMSTYLE
105
18
330
9
100
AcDbSymbolTableRecord
100
AcDbDimStyleTableRecord
  2
STANDARD
 70
     0
 41
2.5
 42
0.625
 43
3.75
 44
1.25
 73
     0
 74
     0
 77
     1
 78
     8
140
2.5
141
2.5
143
0.03937
147
0.625
171
     3
172
     1
271
     2
272
     2
274
     3
283
     0
284
     8
289
     0
340
17
  0
DIMSTYLE
105
1C6
102
{ACAD_REACTORS
330
B4
330
8C
330
8A
330
88
330
80
330
7E
330
7C
330
7A
102
}
330
9
100
AcDbSymbolTableRecord
100
AcDbDimStyleTableRecord
  2
HAWA-Strich
 70
     0
 41
2.0
 42
2.0
 43
0.0
 44
1.0
 46
1.0
 73
     0
 74
     0
 77
     1
 78
     8
 79
     2
140
3.5
141
0.0
143
0.039370078740157
146
0.7114285714285719
147
1.0
170
     1
171
     5
172
     1
173
     1
176
   256
177
   256
178
   256
179
     1
271
     1
272
     1
273
     4
274
     5
284
     8
285
     8
286
     8
340
1C7
341
1C8
343
1C8
344
1C8
  0
ENDTAB
  0
TABLE
  2
BLOCK_RECORD
  5
1
330
0
100
AcDbSymbolTable
 70
    13
  0
BLOCK_RECORD
  5
A
102
{ACAD_XDICTIONARY
360
318
102
}
330
1
100
AcDbSymbolTableRecord
100
AcDbBlockTableRecord
  2
*MODEL_SPACE
340
168
  0
BLOCK_RECORD
  5
B
330
1
100
AcDbSymbolTableRecord
100
AcDbBlockTableRecord
  2
*PAPER_SPACE
340
169
  0
BLOCK_RECORD
  5
79
330
1
100
AcDbSymbolTableRecord
100
AcDbBlockTableRecord
  2
*D0
340
0
  0
BLOCK_RECORD
  5
7B
330
1
100
AcDbSymbolTableRecord
100
AcDbBlockTableRecord
  2
*D1
340
0
  0
BLOCK_RECORD
  5
7D
330
1
100
AcDbSymbolTableRecord
100
AcDbBlockTableRecord
  2
*D2
340
0
  0
BLOCK_RECORD
  5
7F
330
1
100
AcDbSymbolTableRecord
100
AcDbBlockTableRecord
  2
*D3
340
0
  0
BLOCK_RECORD
  5
81
330
1
100
AcDbSymbolTableRecord
100
AcDbBlockTableRecord
  2
*D4
340
0
  0
BLOCK_RECORD
  5
83
330
1
100
AcDbSymbolTableRecord
100
AcDbBlockTableRecord
  2
*D5
340
0
  0
BLOCK_RECORD
  5
85
330
1
100
AcDbSymbolTableRecord
100
AcDbBlockTableRecord
  2
*D6
340
0
  0
BLOCK_RECORD
  5
87
330
1
100
AcDbSymbolTableRecord
100
AcDbBlockTableRecord
  2
*D7
340
0
  0
BLOCK_RECORD
  5
89
330
1
100
AcDbSymbolTableRecord
100
AcDbBlockTableRecord
  2
*D8
340
0
  0
BLOCK_RECORD
  5
8B
330
1
100
AcDbSymbolTableRecord
100
AcDbBlockTableRecord
  2
*D9
340
0
  0
BLOCK_RECORD
  5
B3
330
1
100
AcDbSymbolTableRecord
100
AcDbBlockTableRecord
  2
*D10
340
0
  0
BLOCK_RECORD
  5
C2
330
1
100
AcDbSymbolTableRecord
100
AcDbBlockTableRecord
  2
BLOCK1
340
0
  0
BLOCK_RECORD
  5
1C8
330
1
100
AcDbSymbolTableRecord
100
AcDbBlockTableRecord
  2
_Oblique
340
0
310
2800000020000000200000000100080000000000000400000000000000000000000000000000000000000000000080000080000000808000800000008000800080800000C0C0C000C0DCC000F0CAA6000020400000206000002080000020A0000020C0000020E00000400000004020000040400000406000004080000040A0
310
000040C0000040E00000600000006020000060400000606000006080000060A0000060C0000060E00000800000008020000080400000806000008080000080A0000080C0000080E00000A0000000A0200000A0400000A0600000A0800000A0A00000A0C00000A0E00000C0000000C0200000C0400000C0600000C0800000C0
310
A00000C0C00000C0E00000E0000000E0200000E0400000E0600000E0800000E0A00000E0C00000E0E00040000000400020004000400040006000400080004000A0004000C0004000E00040200000402020004020400040206000402080004020A0004020C0004020E000404000004040200040404000404060004040800040
310
40A0004040C0004040E00040600000406020004060400040606000406080004060A0004060C0004060E00040800000408020004080400040806000408080004080A0004080C0004080E00040A0000040A0200040A0400040A0600040A0800040A0A00040A0C00040A0E00040C0000040C0200040C0400040C0600040C08000
310
40C0A00040C0C00040C0E00040E0000040E0200040E0400040E0600040E0800040E0A00040E0C00040E0E00080000000800020008000400080006000800080008000A0008000C0008000E00080200000802020008020400080206000802080008020A0008020C0008020E00080400000804020008040400080406000804080
310
008040A0008040C0008040E00080600000806020008060400080606000806080008060A0008060C0008060E00080800000808020008080400080806000808080008080A0008080C0008080E00080A0000080A0200080A0400080A0600080A0800080A0A00080A0C00080A0E00080C0000080C0200080C0400080C0600080C0
310
800080C0A00080C0C00080C0E00080E0000080E0200080E0400080E0600080E0800080E0A00080E0C00080E0E000C0000000C0002000C0004000C0006000C0008000C000A000C000C000C000E000C0200000C0202000C0204000C0206000C0208000C020A000C020C000C020E000C0400000C0402000C0404000C0406000C0
310
408000C040A000C040C000C040E000C0600000C0602000C0604000C0606000C0608000C060A000C060C000C060E000C0800000C0802000C0804000C0806000C0808000C080A000C080C000C080E000C0A00000C0A02000C0A04000C0A06000C0A08000C0A0A000C0A0C000C0A0E000C0C00000C0C02000C0C04000C0C06000
310
C0C08000C0C0A000F0FBFF00A4A0A000808080000000FF0000FF000000FFFF00FF000000FF00FF00FFFF0000FFFFFF00000000000000000000000000000000000000000000000000000000000000000000FF0000000000000000000000000000000000000000000000000000000000000000FF000000000000000000000000
310
0000000000000000000000000000000000000000FF0000000000000000000000000000000000000000000000000000000000000000FF0000000000000000000000000000000000000000000000000000000000000000FF0000000000000000000000000000000000000000000000000000000000000000FF00000000000000
310
00000000000000000000000000000000000000000000000000FF0000000000000000000000000000000000000000000000000000000000000000FF0000000000000000000000000000000000000000000000000000000000000000FF0000000000000000000000000000000000000000000000000000000000000000FF0000
310
000000000000000000000000000000000000000000000000000000000000FF0000000000000000000000000000000000000000000000000000000000000000FF0000000000000000000000000000000000000000000000000000000000000000FF000000000000000000000000000000000000000000000000000000000000
310
0000FF0000000000000000000000000000000000000000000000000000000000000000FF0000000000000000000000000000000000000000000000000000000000000000FF0000000000000000000000000000000000000000000000000000000000000000FF00000000000000000000000000000000000000000000000000
310
00000000000000FF0000000000000000000000000000000000000000000000000000000000000000FF0000000000000000000000000000000000000000000000000000000000000000FF0000000000000000000000000000000000000000000000000000000000000000FF0000000000000000000000000000000000000000
310
000000000000000000000000FF0000000000000000000000000000000000000000000000000000000000000000FF0000000000000000000000000000000000000000000000000000000000000000FF0000000000000000000000000000000000000000000000000000000000000000FF000000000000000000000000000000
310
0000000000000000000000000000000000FF0000000000000000000000000000000000000000000000000000000000000000FF0000000000000000000000000000000000000000000000000000000000000000FF0000000000000000000000000000000000000000000000000000000000000000FF00000000000000000000
310
00000000000000000000000000000000000000000000FF000000000000000000000000000000000000000000000000000000000000000000
102
{BLKREFS
331
231
331
232
331
240
331
241
331
249
331
24A
331
270
331
277
331
278
331
2C7
331
2C8
331
2D0
331
2F1
331
2F2
331
2FA
331
2FB
331
303
331
304
331
30C
331
30D
102
}
  0
ENDTAB
  0
ENDSEC
  0
SECTION
  2
BLOCKS
  0
BLOCK
  5
D
330
A
100
AcDbEntity
  8
0
100
AcDbBlockBegin
  2
*MODEL_SPACE
 70
     0
 10
0.0
 20
0.0
 30
0.0
  3
*MODEL_SPACE
  1

  0
ENDBLK
  5
E
330
A
100
AcDbEntity
  8
0
100
AcDbBlockEnd
  0
BLOCK
  5
F
330
B
100
AcDbEntity
 67
     1
  8
0
100
AcDbBlockBegin
  2
*PAPER_SPACE
 70
     0
 10
0.0
 20
0.0
 30
0.0
  3
*PAPER_SPACE
  1

  0
ENDBLK
  5
10
330
B
100
AcDbEntity
 67
     1
  8
0
100
AcDbBlockEnd
  0
BLOCK
  5
C3
330
79
100
AcDbEntity
  8
Hawa1
100
AcDbBlockBegin
  2
*D0
 70
     1
 10
0.0
 20
0.0
 30
0.0
  3
*D0
  1

  0
LINE
  5
2C4
330
79
100
AcDbEntity
  8
Hawa1
370
    -2
100
AcDbLine
 10
102.7663820000693
 20
156.3318876504411
 30
0.0
 11
73.89363332946903
 21
156.3321280224411
 31
0.0
  0
LINE
  5
2C5
330
79
100
AcDbEntity
  8
Hawa1
370
    -2
100
AcDbLine
 10
90.0649100000693
 20
227.8318346504411
 30
0.0
 11
73.89422858141549
 21
227.8319692749301
 31
0.0
  0
LINE
  5
2C6
330
79
100
AcDbEntity
  8
Hawa1
370
    -2
100
AcDbLine
 10
74.89362500421385
 20
155.3321196972552
 30
0.0
 11
74.89423690660138
 21
228.8319609496749
 31
0.0
  0
INSERT
  5
2C7
330
79
100
AcDbEntity
  8
Hawa1
370
    -2
100
AcDbBlockReference
  2
_Oblique
 10
74.89363332943438
 20
156.3321196972206
 30
0.0
 41
2.0
 42
2.0
 43
2.0
 50
269.9995229999999
  0
INSERT
  5
2C8
330
79
100
AcDbEntity
  8
Hawa1
370
    -2
100
AcDbBlockReference
  2
_Oblique
 10
74.89422858138084
 20
227.8319609497095
 30
0.0
 41
2.0
 42
2.0
 43
2.0
 50
89.999523
  0
MTEXT
  5
2C9
330
79
100
AcDbEntity
  8
Hawa1
100
AcDbMText
 10
70.44957435068091
 20
191.3307315276382
 30
0.0
 40
3.5
 41
0.0
 71
     5
 72
     1
  1
\A1;71.5 [2{\H0.711429x;\S13/16;}"]{}{%%p0.5}
  7
Beschlag
 11
0.000008325220532
 21
0.9999999999653454
 31
0.0
 73
     1
 44
1.0
1001
ACAD
1000
MTEXTBEGIN
1070
    73
1070
     1
1070
    44
1040
1.0
1070
    74
1070
     0
1000
MTEXTEND
  0
POINT
  5
2CA
330
79
100
AcDbEntity
  8
Defpoints
 62
     0
100
AcDbPoint
 10
104.766382
 20
156.331871
 30
0.0
  0
POINT
  5
2CB
330
79
100
AcDbEntity
  8
Defpoints
 62
     0
100
AcDbPoint
 10
92.06490999999997
 20
227.831818
 30
0.0
  0
POINT
  5
2CC
330
79
100
AcDbEntity
  8
Defpoints
 62
     0
100
AcDbPoint
 10
74.89422858138084
 20
227.8319609497095
 30
0.0
  0
ENDBLK
  5
CB
330
79
100
AcDbEntity
  8
Hawa1
100
AcDbBlockEnd
  0
BLOCK
  5
CC
330
7B
100
AcDbEntity
  8
Hawa1
100
AcDbBlockBegin
  2
*D1
 70
     1
 10
0.0
 20
0.0
 30
0.0
  3
*D1
  1

  0
LINE
  5
300
330
7B
100
AcDbEntity
  8
Hawa1
370
    -2
100
AcDbLine
 10
188.0649656991179
 20
171.3318630002772
 30
0.0
 11
188.0649756947599
 21
171.9321859618007
 31
0.0
  0
LINE
  5
301
330
7B
100
AcDbEntity
  8
Hawa1
370
    -2
100
AcDbLine
 10
118.0648516991179
 20
172.3318630002772
 30
0.0
 11
118.0648450637255
 21
171.9333514948504
 31
0.0
  0
LINE
  5
302
330
7B
100
AcDbEntity
  8
Hawa1
370
    -2
100
AcDbLine
 10
189.0649923450624
 20
172.932169311221
 30
0.0
 11
117.0648617143052
 21
172.9333681451528
 31
0.0
  0
INSERT
  5
303
330
7B
100
AcDbEntity
  8
Hawa1
370
    -2
100
AcDbBlockReference
  2
_Oblique
 10
188.064992345201
 20
172.9321859616621
 30
0.0
 41
2.0
 42
2.0
 43
2.0
 50
359.999046
  0
INSERT
  5
304
330
7B
100
AcDbEntity
  8
Hawa1
370
    -2
100
AcDbBlockReference
  2
_Oblique
 10
118.0648617141666
 20
172.9333514947117
 30
0.0
 41
2.0
 42
2.0
 43
2.0
 50
179.999046
  0
MTEXT
  5
305
330
7B
100
AcDbEntity
  8
Hawa1
100
AcDbMText
 10
167.7471528467576
 20
175.7207234444838
 30
0.0
 40
3.5
 41
0.0
 71
     5
 72
     1
  1
\A1;=>130
  7
Beschlag
 11
0.9999999998613814
 21
-0.0000166504410634
 31
0.0
 73
     1
 44
1.0
1001
ACAD
1000
MTEXTBEGIN
1070
    73
1070
     1
1070
    44
1040
1.0
1070
    74
1070
     0
1000
MTEXTEND
  0
POINT
  5
306
330
7B
100
AcDbEntity
  8
Defpoints
 62
     0
100
AcDbPoint
 10
188.064999
 20
173.331863
 30
0.0
  0
POINT
  5
307
330
7B
100
AcDbEntity
  8
Defpoints
 62
     0
100
AcDbPoint
 10
118.064885
 20
174.331863
 30
0.0
  0
POINT
  5
308
330
7B
100
AcDbEntity
  8
Defpoints
 62
     0
100
AcDbPoint
 10
118.0648617141666
 20
172.9333514947117
 30
0.0
  0
ENDBLK
  5
E1
330
7B
100
AcDbEntity
  8
Hawa1
100
AcDbBlockEnd
  0
BLOCK
  5
E2
330
7D
100
AcDbEntity
  8
Hawa1
100
AcDbBlockBegin
  2
*D2
 70
     1
 10
0.0
 20
0.0
 30
0.0
  3
*D2
  1

  0
LINE
  5
273
330
7D
100
AcDbEntity
  8
Hawa1
370
    -2
100
AcDbLine
 10
120.0649573008821
 20
181.4119909997227
 30
0.0
 11
120.0650821814543
 21
188.9121269859321
 31
0.0
  0
LINE
  5
274
330
7D
100
AcDbEntity
  8
Hawa1
370
    -2
100
AcDbLine
 10
116.0649363008821
 20
181.4119869997228
 30
0.0
 11
116.0650611826299
 21
188.912193588046
 31
0.0
  0
LINE
  5
275
330
7D
100
AcDbEntity
  8
Hawa1
370
    -2
100
AcDbLine
 10
121.0650655308747
 20
187.9121103356296
 30
0.0
 11
116.0650445321888
 21
187.9121935881846
 31
0.0
  0
LINE
  5
276
330
7D
100
AcDbEntity
  8
Hawa1
370
    -2
100
AcDbLine
 10
116.0650445321888
 20
187.9121935881846
 30
0.0
 11
96.53563461286326
 21
187.9125187614735
 31
0.0
  0
INSERT
  5
277
330
7D
100
AcDbEntity
  8
Hawa1
370
    -2
100
AcDbBlockReference
  2
_Oblique
 10
120.0650655310133
 20
187.9121269860707
 30
0.0
 41
2.0
 42
2.0
 43
2.0
 50
359.999046
  0
INSERT
  5
278
330
7D
100
AcDbEntity
  8
Hawa1
370
    -2
100
AcDbBlockReference
  2
_Oblique
 10
116.0650445321888
 20
187.9121935881846
 30
0.0
 41
2.0
 42
2.0
 43
2.0
 50
179.999046
  0
MTEXT
  5
279
330
7D
100
AcDbEntity
  8
Hawa1
100
AcDbMText
 10
105.3004335541446
 20
193.5567566353108
 30
0.0
 40
3.5
 41
0.0
 71
     5
 72
     1
  1
\A1;4 [{\H0.711429x;\S5/32;}"]{}{\S+3^ 0;}
  7
Beschlag
 11
0.9999999998613814
 21
-0.0000166504410634
 31
0.0
 73
     1
 44
1.0
1001
ACAD
1000
MTEXTBEGIN
1070
    73
1070
     1
1070
    44
1040
1.0
1070
    74
1070
     0
1000
MTEXTEND
  0
POINT
  5
27A
330
7D
100
AcDbEntity
  8
Defpoints
 62
     0
100
AcDbPoint
 10
120.064924
 20
179.411991
 30
0.0
  0
POINT
  5
27B
330
7D
100
AcDbEntity
  8
Defpoints
 62
     0
100
AcDbPoint
 10
116.064903
 20
179.411987
 30
0.0
  0
POINT
  5
27C
330
7D
100
AcDbEntity
  8
Defpoints
 62
     0
100
AcDbPoint
 10
116.0650445321888
 20
187.9121935881846
 30
0.0
  0
ENDBLK
  5
EB
330
7D
100
AcDbEntity
  8
Hawa1
100
AcDbBlockEnd
  0
BLOCK
  5
EC
330
7F
100
AcDbEntity
  8
Hawa1
100
AcDbBlockBegin
  2
*D3
 70
     1
 10
0.0
 20
0.0
 30
0.0
  3
*D3
  1

  0
LINE
  5
26D
330
7F
100
AcDbEntity
  8
Hawa1
370
    -2
100
AcDbLine
 10
81.62765704137248
 20
178.6637085819985
 30
0.0
 11
110.391412
 21
161.0348289999999
 31
0.0
  0
MTEXT
  5
26E
330
7F
100
AcDbEntity
  8
Hawa1
100
AcDbMText
 10
97.25317228022289
 20
175.7058001427749
 30
0.0
 40
3.5
 41
0.0
 71
     5
 72
     1
  1
\A1;R9 [R{\H0.711429x;\S11/32;}"]{}{\S+0.25^ 0;}
  7
Beschlag
 11
0.8526081014719391
 21
-0.5225508829811845
 31
0.0
 73
     1
 44
1.0
1001
ACAD
1000
MTEXTBEGIN
1070
    73
1070
     1
1070
    44
1040
1.0
1070
    74
1070
     0
1000
MTEXTEND
  0
LINE
  5
26F
330
7F
100
AcDbEntity
  8
Hawa1
370
    -2
100
AcDbLine
 10
118.064885
 20
156.331871
 30
0.0
 11
110.391412
 21
161.0348289999999
 31
0.0
  0
INSERT
  5
270
330
7F
100
AcDbEntity
  8
Hawa1
370
    -2
100
AcDbBlockReference
  2
_Oblique
 10
110.391412
 20
161.0348289999999
 30
0.0
 41
2.0
 42
2.0
 43
2.0
 50
328.4964842470758
  0
POINT
  5
271
330
7F
100
AcDbEntity
  8
Defpoints
 62
     0
100
AcDbPoint
 10
110.391412
 20
161.0348289999999
 30
0.0
  0
POINT
  5
272
330
7F
100
AcDbEntity
  8
Defpoints
 62
     0
100
AcDbPoint
 10
118.064885
 20
156.331871
 30
0.0
  0
ENDBLK
  5
F4
330
7F
100
AcDbEntity
  8
Hawa1
100
AcDbBlockEnd
  0
BLOCK
  5
F5
330
81
100
AcDbEntity
  8
Hawa1
100
AcDbBlockBegin
  2
*D4
 70
     1
 10
0.0
 20
0.0
 30
0.0
  3
*D4
  1

  0
LINE
  5
309
330
81
100
AcDbEntity
  8
Hawa1
370
    -2
100
AcDbLine
 10
181.117466
 20
182.34607
 30
0.0
 11
181.117466
 21
182.8662858406682
 31
0.0
  0
LINE
  5
30A
330
81
100
AcDbEntity
  8
Hawa1
370
    -2
100
AcDbLine
 10
170.451817
 20
182.34607
 30
0.0
 11
170.451817
 21
182.8662858406682
 31
0.0
  0
LINE
  5
30B
330
81
100
AcDbEntity
  8
Hawa1
370
    -2
100
AcDbLine
 10
182.117466
 20
183.8662858406682
 30
0.0
 11
169.451817
 21
183.8662858406682
 31
0.0
  0
INSERT
  5
30C
330
81
100
AcDbEntity
  8
Hawa1
370
    -2
100
AcDbBlockReference
  2
_Oblique
 10
181.117466
 20
183.8662858406682
 30
0.0
 41
2.0
 42
2.0
 43
2.0
  0
INSERT
  5
30D
330
81
100
AcDbEntity
  8
Hawa1
370
    -2
100
AcDbBlockReference
  2
_Oblique
 10
170.451817
 20
183.8662858406682
 30
0.0
 41
2.0
 42
2.0
 43
2.0
 50
180.0
  0
MTEXT
  5
30E
330
81
100
AcDbEntity
  8
Hawa1
100
AcDbMText
 10
175.7846415
 20
186.6532912976941
 30
0.0
 40
3.5
 41
0.0
 71
     5
 72
     1
  1
\A1;=>95
  7
Beschlag
 73
     1
 44
1.0
1001
ACAD
1000
MTEXTBEGIN
1070
    73
1070
     1
1070
    44
1040
1.0
1070
    74
1070
     0
1000
MTEXTEND
  0
POINT
  5
30F
330
81
100
AcDbEntity
  8
Defpoints
 62
     0
100
AcDbPoint
 10
181.117466
 20
184.34607
 30
0.0
  0
POINT
  5
310
330
81
100
AcDbEntity
  8
Defpoints
 62
     0
100
AcDbPoint
 10
170.451817
 20
184.34607
 30
0.0
  0
POINT
  5
311
330
81
100
AcDbEntity
  8
Defpoints
 62
     0
100
AcDbPoint
 10
170.451817
 20
183.8662858406682
 30
0.0
  0
ENDBLK
  5
107
330
81
100
AcDbEntity
  8
Hawa1
100
AcDbBlockEnd
  0
BLOCK
  5
108
330
83
100
AcDbEntity
  8
Hawa1
100
AcDbBlockBegin
  2
*D5
 70
     1
 10
0.0
 20
0.0
 30
0.0
  3
*D5
  1

  0
LINE
  5
2EE
330
83
100
AcDbEntity
  8
Hawa1
370
    -2
100
AcDbLine
 10
162.494907
 20
162.221375
 30
0.0
 11
162.494907
 21
161.221375
 31
0.0
  0
LINE
  5
2EF
330
83
100
AcDbEntity
  8
Hawa1
370
    -2
100
AcDbLine
 10
160.36208
 20
162.221375
 30
0.0
 11
160.36208
 21
161.221375
 31
0.0
  0
LINE
  5
2F0
330
83
100
AcDbEntity
  8
Hawa1
370
    -2
100
AcDbLine
 10
163.494907
 20
160.221375
 30
0.0
 11
159.36208
 21
160.221375
 31
0.0
  0
INSERT
  5
2F1
330
83
100
AcDbEntity
  8
Hawa1
370
    -2
100
AcDbBlockReference
  2
_Oblique
 10
162.494907
 20
160.221375
 30
0.0
 41
2.0
 42
2.0
 43
2.0
  0
INSERT
  5
2F2
330
83
100
AcDbEntity
  8
Hawa1
370
    -2
100
AcDbBlockReference
  2
_Oblique
 10
160.36208
 20
160.221375
 30
0.0
 41
2.0
 42
2.0
 43
2.0
 50
180.0
  0
MTEXT
  5
2F3
330
83
100
AcDbEntity
  8
Hawa1
100
AcDbMText
 10
161.4284935
 20
163.0083804570259
 30
0.0
 40
3.5
 41
0.0
 71
     5
 72
     1
  1
\A1;=>155
  7
Beschlag
 73
     1
 44
1.0
1001
ACAD
1000
MTEXTBEGIN
1070
    73
1070
     1
1070
    44
1040
1.0
1070
    74
1070
     0
1000
MTEXTEND
  0
POINT
  5
2F4
330
83
100
AcDbEntity
  8
Defpoints
 62
     0
100
AcDbPoint
 10
162.494907
 20
160.221375
 30
0.0
  0
POINT
  5
2F5
330
83
100
AcDbEntity
  8
Defpoints
 62
     0
100
AcDbPoint
 10
160.36208
 20
160.221375
 30
0.0
  0
POINT
  5
2F6
330
83
100
AcDbEntity
  8
Defpoints
 62
     0
100
AcDbPoint
 10
160.36208
 20
160.221375
 30
0.0
  0
ENDBLK
  5
11A
330
83
100
AcDbEntity
  8
Hawa1
100
AcDbBlockEnd
  0
BLOCK
  5
11B
330
85
100
AcDbEntity
  8
Hawa1
100
AcDbBlockBegin
  2
*D6
 70
     1
 10
0.0
 20
0.0
 30
0.0
  3
*D6
  1

  0
LINE
  5
2F7
330
85
100
AcDbEntity
  8
Hawa1
370
    -2
100
AcDbLine
 10
161.71645
 20
150.159027
 30
0.0
 11
161.71645
 21
149.159027
 31
0.0
  0
LINE
  5
2F8
330
85
100
AcDbEntity
  8
Hawa1
370
    -2
100
AcDbLine
 10
151.0508
 20
150.159027
 30
0.0
 11
151.0508
 21
149.159027
 31
0.0
  0
LINE
  5
2F9
330
85
100
AcDbEntity
  8
Hawa1
370
    -2
100
AcDbLine
 10
162.71645
 20
148.159027
 30
0.0
 11
150.0508
 21
148.159027
 31
0.0
  0
INSERT
  5
2FA
330
85
100
AcDbEntity
  8
Hawa1
370
    -2
100
AcDbBlockReference
  2
_Oblique
 10
161.71645
 20
148.159027
 30
0.0
 41
2.0
 42
2.0
 43
2.0
  0
INSERT
  5
2FB
330
85
100
AcDbEntity
  8
Hawa1
370
    -2
100
AcDbBlockReference
  2
_Oblique
 10
151.0508
 20
148.159027
 30
0.0
 41
2.0
 42
2.0
 43
2.0
 50
180.0
  0
MTEXT
  5
2FC
330
85
100
AcDbEntity
  8
Hawa1
100
AcDbMText
 10
156.383625
 20
150.9460324570259
 30
0.0
 40
3.5
 41
0.0
 71
     5
 72
     1
  1
\A1;=>190
  7
Beschlag
 73
     1
 44
1.0
1001
ACAD
1000
MTEXTBEGIN
1070
    73
1070
     1
1070
    44
1040
1.0
1070
    74
1070
     0
1000
MTEXTEND
  0
POINT
  5
2FD
330
85
100
AcDbEntity
  8
Defpoints
 62
     0
100
AcDbPoint
 10
161.71645
 20
148.159027
 30
0.0
  0
POINT
  5
2FE
330
85
100
AcDbEntity
  8
Defpoints
 62
     0
100
AcDbPoint
 10
151.0508
 20
148.159027
 30
0.0
  0
POINT
  5
2FF
330
85
100
AcDbEntity
  8
Defpoints
 62
     0
100
AcDbPoint
 10
151.0508
 20
148.159027
 30
0.0
  0
ENDBLK
  5
12D
330
85
100
AcDbEntity
  8
Hawa1
100
AcDbBlockEnd
  0
BLOCK
  5
12E
330
87
100
AcDbEntity
  8
Hawa1
100
AcDbBlockBegin
  2
*D7
 70
     1
 10
0.0
 20
0.0
 30
0.0
  3
*D7
  1

  0
LINE
  5
246
330
87
100
AcDbEntity
  8
Hawa1
370
    -2
100
AcDbLine
 10
92.06498960176425
 20
229.8318219988911
 30
0.0
 11
92.06520270176211
 21
236.2310518141425
 31
0.0
  0
LINE
  5
247
330
87
100
AcDbEntity
  8
Hawa1
370
    -2
100
AcDbLine
 10
144.0649886017642
 20
229.831833998891
 30
0.0
 11
144.0652016436972
 21
236.2293201683065
 31
0.0
  0
LINE
  5
248
330
87
100
AcDbEntity
  8
Hawa1
370
    -2
100
AcDbLine
 10
91.06516940143446
 20
235.2310851155791
 30
0.0
 11
145.0651683422606
 21
235.2292868679788
 31
0.0
  0
INSERT
  5
249
330
87
100
AcDbEntity
  8
Hawa1
370
    -2
100
AcDbBlockReference
  2
_Oblique
 10
92.06516940087999
 20
235.231051814697
 30
0.0
 41
2.0
 42
2.0
 43
2.0
 50
179.998092
  0
INSERT
  5
24A
330
87
100
AcDbEntity
  8
Hawa1
370
    -2
100
AcDbBlockReference
  2
_Oblique
 10
144.065168342815
 20
235.2293201688609
 30
0.0
 41
2.0
 42
2.0
 43
2.0
 50
359.998092
  0
MTEXT
  5
24B
330
87
100
AcDbEntity
  8
Hawa1
100
AcDbMText
 10
118.0653558012535
 20
240.8435329645647
 30
0.0
 40
3.5
 41
0.0
 71
     5
 72
     1
  1
\A1;52 [2{\H0.711429x;\S1/16;}"]{}{\S+1^ 0;}
  7
Beschlag
 11
0.9999999994455256
 21
-0.0000333008821221
 31
0.0
 73
     1
 44
1.0
1001
ACAD
1000
MTEXTBEGIN
1070
    73
1070
     1
1070
    44
1040
1.0
1070
    74
1070
     0
1000
MTEXTEND
  0
POINT
  5
24C
330
87
100
AcDbEntity
  8
Defpoints
 62
     0
100
AcDbPoint
 10
92.064923
 20
227.831822
 30
0.0
  0
POINT
  5
24D
330
87
100
AcDbEntity
  8
Defpoints
 62
     0
100
AcDbPoint
 10
144.064922
 20
227.831834
 30
0.0
  0
POINT
  5
24E
330
87
100
AcDbEntity
  8
Defpoints
 62
     0
100
AcDbPoint
 10
144.065168342815
 20
235.2293201688609
 30
0.0
  0
ENDBLK
  5
137
330
87
100
AcDbEntity
  8
Hawa1
100
AcDbBlockEnd
  0
BLOCK
  5
138
330
89
100
AcDbEntity
  8
Hawa1
100
AcDbBlockBegin
  2
*D8
 70
     1
 10
0.0
 20
0.0
 30
0.0
  3
*D8
  1

  0
LINE
  5
23D
330
89
100
AcDbEntity
  8
Hawa1
370
    -2
100
AcDbLine
 10
94.06490899937619
 20
227.8317700486768
 30
0.0
 11
105.6173901871285
 21
227.831481517816
 31
0.0
  0
LINE
  5
23E
330
89
100
AcDbEntity
  8
Hawa1
370
    -2
100
AcDbLine
 10
113.5648860006237
 20
202.8319099513232
 30
0.0
 11
103.6167658118706
 21
202.8321584122065
 31
0.0
  0
LINE
  5
23F
330
89
100
AcDbEntity
  8
Hawa1
370
    -2
100
AcDbLine
 10
104.617415163102
 20
228.8315064931657
 30
0.0
 11
104.6167408358971
 21
201.8321334368569
 31
0.0
  0
INSERT
  5
240
330
89
100
AcDbEntity
  8
Hawa1
370
    -2
100
AcDbBlockReference
  2
_Oblique
 10
104.6173901874404
 20
227.8315064934776
 30
0.0
 41
2.0
 42
2.0
 43
2.0
 50
89.99856899999997
  0
INSERT
  5
241
330
89
100
AcDbEntity
  8
Hawa1
370
    -2
100
AcDbBlockReference
  2
_Oblique
 10
104.6167658115587
 20
202.832133436545
 30
0.0
 41
2.0
 42
2.0
 43
2.0
 50
269.998569
  0
MTEXT
  5
242
330
89
100
AcDbEntity
  8
Hawa1
100
AcDbMText
 10
100.1718784009542
 20
215.3319309868122
 30
0.0
 40
3.5
 41
0.0
 71
     5
 72
     1
  1
\A1;25 [{\H0.711429x;\S31/32;}"]{}{%%p0.5}
  7
Beschlag
 11
0.0000249756615941
 21
0.9999999996881081
 31
0.0
 73
     1
 44
1.0
1001
ACAD
1000
MTEXTBEGIN
1070
    73
1070
     1
1070
    44
1040
1.0
1070
    74
1070
     0
1000
MTEXTEND
  0
POINT
  5
243
330
89
100
AcDbEntity
  8
Defpoints
 62
     0
100
AcDbPoint
 10
92.06490899999996
 20
227.83182
 30
0.0
  0
POINT
  5
244
330
89
100
AcDbEntity
  8
Defpoints
 62
     0
100
AcDbPoint
 10
115.564886
 20
202.83186
 30
0.0
  0
POINT
  5
245
330
89
100
AcDbEntity
  8
Defpoints
 62
     0
100
AcDbPoint
 10
104.6167658115587
 20
202.832133436545
 30
0.0
  0
ENDBLK
  5
140
330
89
100
AcDbEntity
  8
Hawa1
100
AcDbBlockEnd
  0
BLOCK
  5
141
330
8B
100
AcDbEntity
  8
Hawa1
100
AcDbBlockBegin
  2
*D9
 70
     1
 10
0.0
 20
0.0
 30
0.0
  3
*D9
  1

  0
LINE
  5
2CD
330
8B
100
AcDbEntity
  8
Hawa1
370
    -2
100
AcDbLine
 10
182.8774328805435
 20
211.591483083472
 30
0.0
 11
143.8340413040129
 21
206.3532665123507
 31
0.0
  0
MTEXT
  5
2CE
330
8B
100
AcDbEntity
  8
Hawa1
100
AcDbMText
 10
164.9653373444497
 20
214.8820773677637
 30
0.0
 40
3.5
 41
0.0
 71
     5
 72
     1
  1
\A1;R26 [R1{\H0.711429x;\S1/32;}"]{}{\S+0.25^ 0;}
  7
Beschlag
 11
0.9911197194205369
 21
0.1329725602361481
 31
0.0
 73
     1
 44
1.0
1001
ACAD
1000
MTEXTBEGIN
1070
    73
1070
     1
1070
    44
1040
1.0
1070
    74
1070
     0
1000
MTEXTEND
  0
LINE
  5
2CF
330
8B
100
AcDbEntity
  8
Hawa1
370
    -2
100
AcDbLine
 10
118.064929
 20
202.89598
 30
0.0
 11
143.8340413040129
 21
206.3532665123507
 31
0.0
  0
INSERT
  5
2D0
330
8B
100
AcDbEntity
  8
Hawa1
370
    -2
100
AcDbBlockReference
  2
_Oblique
 10
143.8340413040129
 20
206.3532665123507
 30
0.0
 41
2.0
 42
2.0
 43
2.0
 50
187.6413991682049
  0
POINT
  5
2D1
330
8B
100
AcDbEntity
  8
Defpoints
 62
     0
100
AcDbPoint
 10
143.8340413040129
 20
206.3532665123507
 30
0.0
  0
POINT
  5
2D2
330
8B
100
AcDbEntity
  8
Defpoints
 62
     0
100
AcDbPoint
 10
118.064929
 20
202.89598
 30
0.0
  0
ENDBLK
  5
148
330
8B
100
AcDbEntity
  8
Hawa1
100
AcDbBlockEnd
  0
BLOCK
  5
149
330
B3
100
AcDbEntity
  8
Hawa1
100
AcDbBlockBegin
  2
*D10
 70
     1
 10
0.0
 20
0.0
 30
0.0
  3
*D10
  1

  0
LINE
  5
22D
330
B3
100
AcDbEntity
  8
Hawa1
370
    -2
100
AcDbLine
 10
104.071613
 20
81.924349
 30
0.0
 11
104.071613
 21
95.392883
 31
0.0
  0
LINE
  5
22E
330
B3
100
AcDbEntity
  8
Hawa1
370
    -2
100
AcDbLine
 10
100.071613
 20
81.924349
 30
0.0
 11
100.071613
 21
95.392883
 31
0.0
  0
LINE
  5
22F
330
B3
100
AcDbEntity
  8
Hawa1
370
    -2
100
AcDbLine
 10
105.071613
 20
94.39288299999999
 30
0.0
 11
100.071613
 21
94.39288299999999
 31
0.0
  0
LINE
  5
230
330
B3
100
AcDbEntity
  8
Hawa1
370
    -2
100
AcDbLine
 10
100.071613
 20
94.39288299999999
 30
0.0
 11
85.40042272326058
 21
94.39288299999999
 31
0.0
  0
INSERT
  5
231
330
B3
100
AcDbEntity
  8
Hawa1
370
    -2
100
AcDbBlockReference
  2
_Oblique
 10
104.071613
 20
94.39288299999999
 30
0.0
 41
2.0
 42
2.0
 43
2.0
  0
INSERT
  5
232
330
B3
100
AcDbEntity
  8
Hawa1
370
    -2
100
AcDbBlockReference
  2
_Oblique
 10
100.071613
 20
94.39288299999999
 30
0.0
 41
2.0
 42
2.0
 43
2.0
 50
180.0
  0
MTEXT
  5
233
330
B3
100
AcDbEntity
  8
Hawa1
100
AcDbMText
 10
91.73601786163029
 20
98.81515284532742
 30
0.0
 40
3.5
 41
0.0
 71
     5
 72
     1
  1
\A1;4 [{\H0.711429x;\S5/32;}"]
  7
Beschlag
 73
     1
 44
1.0
1001
ACAD
1000
MTEXTBEGIN
1070
    73
1070
     1
1070
    44
1040
1.0
1070
    74
1070
     0
1000
MTEXTEND
  0
POINT
  5
234
330
B3
100
AcDbEntity
  8
Defpoints
 62
     0
100
AcDbPoint
 10
104.071613
 20
79.92434899999999
 30
0.0
  0
POINT
  5
235
330
B3
100
AcDbEntity
  8
Defpoints
 62
     0
100
AcDbPoint
 10
100.071613
 20
79.92434899999999
 30
0.0
  0
POINT
  5
236
330
B3
100
AcDbEntity
  8
Defpoints
 62
     0
100
AcDbPoint
 10
100.071613
 20
94.39288299999999
 30
0.0
  0
ENDBLK
  5
155
330
B3
100
AcDbEntity
  8
Hawa1
100
AcDbBlockEnd
  0
BLOCK
  5
156
330
C2
100
AcDbEntity
  8
0
100
AcDbBlockBegin
  2
BLOCK1
 70
     0
 10
0.0
 20
0.0
 30
0.0
  3
BLOCK1
  1

  0
LINE
  5
157
330
C2
100
AcDbEntity
  8
Hawa6
 62
     3
 48
0.07
100
AcDbLine
 10
0.000001
 20
2.799999999999999
 30
0.0
 11
0.0
 21
0.0
 31
0.0
  0
LINE
  5
158
330
C2
100
AcDbEntity
  8
Hawa6
 62
     3
 48
0.07
100
AcDbLine
 10
-0.000001
 20
-2.799999999999999
 30
0.0
 11
0.0
 21
0.0
 31
0.0
  0
ARC
  5
159
330
C2
100
AcDbEntity
  8
Hawa6
 62
     3
100
AcDbCircle
 10
0.199999
 20
-2.799999999999999
 30
0.0
 40
0.2
100
AcDbArc
 50
179.999974
 51
269.999974
  0
LINE
  5
15A
330
C2
100
AcDbEntity
  8
Hawa6
 62
     3
 48
0.02
100
AcDbLine
 10
0.999999
 20
-3.0
 30
0.0
 11
0.199999
 21
-3.0
 31
0.0
  0
ARC
  5
15B
330
C2
100
AcDbEntity
  8
Hawa6
 62
     3
100
AcDbCircle
 10
1.0
 20
0.0
 30
0.0
 40
3.0
100
AcDbArc
 50
269.999974
 51
449.9999739999999
  0
LINE
  5
15C
330
C2
100
AcDbEntity
  8
Hawa6
 62
     3
 48
0.02
100
AcDbLine
 10
1.000000999999999
 20
3.0
 30
0.0
 11
0.200001
 21
3.0
 31
0.0
  0
ARC
  5
15D
330
C2
100
AcDbEntity
  8
Hawa6
 62
     3
100
AcDbCircle
 10
0.200001
 20
2.799999999999999
 30
0.0
 40
0.2
100
AcDbArc
 50
89.99997399999999
 51
179.999974
  0
LINE
  5
15E
330
C2
100
AcDbEntity
  8
Hawa6
 62
     3
 48
0.038777
100
AcDbLine
 10
1.199999999999999
 20
0.6499990000000001
 30
0.0
 11
0.7985540000000001
 21
2.14822
 31
0.0
  0
ARC
  5
15F
330
C2
100
AcDbEntity
  8
Hawa6
 62
     3
100
AcDbCircle
 10
0.9917389999999999
 20
2.199984
 30
0.0
 40
0.2
100
AcDbArc
 50
90.215142
 51
194.999974
  0
ARC
  5
160
330
C2
100
AcDbEntity
  8
Hawa6
 62
     3
100
AcDbCircle
 10
1.0
 20
0.0
 30
0.0
 40
2.399999999999999
100
AcDbArc
 50
269.784806
 51
450.215142
  0
ARC
  5
161
330
C2
100
AcDbEntity
  8
Hawa6
 62
     3
100
AcDbCircle
 10
0.9917370000000001
 20
-2.199984999999999
 30
0.0
 40
0.2
100
AcDbArc
 50
164.999974
 51
269.784806
  0
LINE
  5
162
330
C2
100
AcDbEntity
  8
Hawa6
 62
     3
 48
0.038777
100
AcDbLine
 10
1.199999999999999
 20
-0.6500010000000001
 30
0.0
 11
0.7985520000000001
 21
-2.148220999999999
 31
0.0
  0
LINE
  5
163
330
C2
100
AcDbEntity
  8
Hawa6
 62
     3
 48
0.01625
100
AcDbLine
 10
1.199999999999999
 20
-0.6500010000000001
 30
0.0
 11
1.199999999999999
 21
-0.000001
 31
0.0
  0
LINE
  5
164
330
C2
100
AcDbEntity
  8
Hawa6
 62
     3
 48
0.01625
100
AcDbLine
 10
1.199999999999999
 20
0.6499990000000001
 30
0.0
 11
1.199999999999999
 21
-0.000001
 31
0.0
  0
ENDBLK
  5
165
330
C2
100
AcDbEntity
  8
0
100
AcDbBlockEnd
  0
BLOCK
  5
1C9
330
1C8
100
AcDbEntity
  8
0
100
AcDbBlockBegin
  2
_Oblique
 70
     0
 10
0.0
 20
0.0
 30
0.0
  3
_Oblique
  1

  0
LINE
  5
1CA
330
1C8
100
AcDbEntity
  8
0
 62
     0
370
    -2
100
AcDbLine
 10
-0.5
 20
-0.5
 30
0.0
 11
0.5
 21
0.5
 31
0.0
  0
ENDBLK
  5
1CB
330
1C8
100
AcDbEntity
  8
0
100
AcDbBlockEnd
  0
ENDSEC
  0
SECTION
  2
ENTITIES
  0
LINE
  5
22
330
A
100
AcDbEntity
  8
Hawa5
 62
     1
 48
0.175
100
AcDbLine
 10
4.739006846541318
 20
227.176033
 30
0.0
 11
11.73900684654132
 21
227.176033
 31
0.0
  0
LINE
  5
23
330
A
100
AcDbEntity
  8
Hawa5
 62
     1
100
AcDbLine
 10
4.739006846541318
 20
227.176033
 30
0.0
 11
4.739006846541318
 21
192.416889
 31
0.0
  0
LINE
  5
24
330
A
100
AcDbEntity
  8
Hawa5
 62
     1
100
AcDbLine
 10
51.40567084654131
 20
227.176033
 30
0.0
 11
51.40567084654131
 21
192.416889
 31
0.0
  0
LINE
  5
25
330
A
100
AcDbEntity
  8
Hawa5
 62
     1
100
AcDbLine
 10
16.73900684654131
 20
227.176033
 30
0.0
 11
39.40567484654132
 21
227.176033
 31
0.0
  0
LINE
  5
26
330
A
100
AcDbEntity
  8
Hawa5
 62
     1
 48
0.175
100
AcDbLine
 10
44.40567484654131
 20
227.176033
 30
0.0
 11
51.40567084654131
 21
227.176033
 31
0.0
  0
LINE
  5
27
330
A
100
AcDbEntity
  8
Hawa5
 62
     1
100
AcDbLine
 10
4.809716846541316
 20
135.509365
 30
0.0
 11
51.33495984654131
 21
135.509365
 31
0.0
  0
LINE
  5
28
330
A
100
AcDbEntity
  8
Hawa5
 62
     1
 48
0.05875
100
AcDbLine
 10
39.40567084654131
 20
227.176035
 30
0.0
 11
39.40567084654131
 21
224.826036
 31
0.0
  0
LINE
  5
29
330
A
100
AcDbEntity
  8
Hawa5
 62
     1
 48
0.05875
100
AcDbLine
 10
44.40567084654131
 20
227.176036
 30
0.0
 11
44.40567084654131
 21
224.826037
 31
0.0
  0
LINE
  5
2A
330
A
100
AcDbEntity
  8
Hawa5
 62
     1
 48
0.035763
100
AcDbLine
 10
42.10567584654131
 20
222.334055
 30
0.0
 11
42.10567684654132
 21
220.903536
 31
0.0
  0
LINE
  5
2B
330
A
100
AcDbEntity
  8
Hawa5
 62
     1
 48
0.035763
100
AcDbLine
 10
41.70567484654131
 20
222.334055
 30
0.0
 11
41.70567484654131
 21
220.903536
 31
0.0
  0
LINE
  5
2C
330
A
100
AcDbEntity
  8
Hawa5
 62
     1
 48
0.05875
100
AcDbLine
 10
16.73900284654132
 20
227.176033
 30
0.0
 11
16.73900284654132
 21
224.826035
 31
0.0
  0
LINE
  5
2D
330
A
100
AcDbEntity
  8
Hawa5
 62
     1
 48
0.05875
100
AcDbLine
 10
11.73900284654131
 20
227.176027
 30
0.0
 11
11.73900284654131
 21
224.826028
 31
0.0
  0
LINE
  5
2E
330
A
100
AcDbEntity
  8
Hawa5
 62
     1
 48
0.035763
100
AcDbLine
 10
14.03900484654132
 20
222.334054
 30
0.0
 11
14.03900484654132
 21
220.903535
 31
0.0
  0
LINE
  5
2F
330
A
100
AcDbEntity
  8
Hawa5
 62
     1
 48
0.035763
100
AcDbLine
 10
14.43900684654131
 20
222.334054
 30
0.0
 11
14.43900584654131
 21
220.903535
 31
0.0
  0
LINE
  5
30
330
A
100
AcDbEntity
  8
Hawa5
  6
DASHED
 62
     1
 48
0.05875
100
AcDbLine
 10
39.40567884654132
 20
135.509369
 30
0.0
 11
39.40567984654132
 21
137.859364
 31
0.0
  0
LINE
  5
31
330
A
100
AcDbEntity
  8
Hawa5
  6
DASHED
 62
     1
 48
0.05875
100
AcDbLine
 10
44.40567884654131
 20
135.509368
 30
0.0
 11
44.40567984654132
 21
137.859367
 31
0.0
  0
LINE
  5
32
330
A
100
AcDbEntity
  8
Hawa5
  6
DASHED
 62
     1
 48
0.035763
100
AcDbLine
 10
42.10567684654132
 20
140.351347
 30
0.0
 11
42.10567684654132
 21
141.781864
 31
0.0
  0
LINE
  5
33
330
A
100
AcDbEntity
  8
Hawa5
  6
DASHED
 62
     1
 48
0.035763
100
AcDbLine
 10
41.70567584654132
 20
140.351347
 30
0.0
 11
41.70567584654132
 21
141.781864
 31
0.0
  0
LINE
  5
34
330
A
100
AcDbEntity
  8
Hawa5
  6
PHANTOM
 62
     1
100
AcDbLine
 10
1.739006846541318
 20
170.268509
 30
0.0
 11
54.40567084654131
 21
170.268509
 31
0.0
  0
LINE
  5
35
330
A
100
AcDbEntity
  8
Hawa5
  6
PHANTOM
 62
     1
100
AcDbLine
 10
1.739006846541318
 20
192.416889
 30
0.0
 11
54.40567084654131
 21
192.416889
 31
0.0
  0
LINE
  5
36
330
A
100
AcDbEntity
  8
Hawa5
 62
     1
100
AcDbLine
 10
4.739006846541318
 20
170.268509
 30
0.0
 11
4.739006846541318
 21
135.580076
 31
0.0
  0
LINE
  5
37
330
A
100
AcDbEntity
  8
Hawa5
 62
     1
100
AcDbLine
 10
51.40567084654131
 20
170.268509
 30
0.0
 11
51.40567084654131
 21
135.580076
 31
0.0
  0
ARC
  5
38
330
A
100
AcDbEntity
  8
Hawa5
 62
     1
100
AcDbCircle
 10
41.90566684654132
 20
224.826042
 30
0.0
 40
2.5
100
AcDbArc
 50
180.000009
 51
265.4114419999999
  0
ARC
  5
39
330
A
100
AcDbEntity
  8
Hawa5
 62
     1
100
AcDbCircle
 10
41.90566684654132
 20
224.826042
 30
0.0
 40
2.5
100
AcDbArc
 50
274.58858
 51
0.0000200000000142
  0
ARC
  5
3A
330
A
100
AcDbEntity
  8
Hawa5
 62
     1
100
AcDbCircle
 10
41.90566684654132
 20
220.026039
 30
0.0
 40
0.9
100
AcDbArc
 50
102.8396379999999
 51
77.16046600000012
  0
ARC
  5
3B
330
A
100
AcDbEntity
  8
Hawa5
 62
     1
100
AcDbCircle
 10
14.23900684654132
 20
224.826042
 30
0.0
 40
2.5
100
AcDbArc
 50
274.5885600000001
 51
359.9999930000001
  0
ARC
  5
3C
330
A
100
AcDbEntity
  8
Hawa5
 62
     1
100
AcDbCircle
 10
14.23900684654132
 20
224.826042
 30
0.0
 40
2.5
100
AcDbArc
 50
179.999978
 51
265.411425
  0
ARC
  5
3D
330
A
100
AcDbEntity
  8
Hawa5
 62
     1
100
AcDbCircle
 10
14.23900684654132
 20
220.026039
 30
0.0
 40
0.9
100
AcDbArc
 50
102.839536
 51
77.16035699999993
  0
ARC
  5
3E
330
A
100
AcDbEntity
  8
Hawa5
  6
DASHED
 62
     1
100
AcDbCircle
 10
41.90566684654132
 20
137.85936
 30
0.0
 40
2.5
100
AcDbArc
 50
94.588558
 51
179.999991
  0
ARC
  5
3F
330
A
100
AcDbEntity
  8
Hawa5
  6
DASHED
 62
     1
100
AcDbCircle
 10
41.90566684654132
 20
137.85936
 30
0.0
 40
2.5
100
AcDbArc
 50
359.99998
 51
85.41142
  0
ARC
  5
40
330
A
100
AcDbEntity
  8
Hawa5
  6
DASHED
 62
     1
100
AcDbCircle
 10
41.90566684654132
 20
142.659359
 30
0.0
 40
0.9
100
AcDbArc
 50
282.8395370000001
 51
257.160365
  0
CIRCLE
  5
41
330
A
100
AcDbEntity
  8
Hawa1
100
AcDbCircle
 10
43.40672784654132
 20
223.455269
 30
0.0
 40
11.0
  0
LINE
  5
42
330
A
100
AcDbEntity
  8
Hawa5
 62
     1
 48
0.05625
100
AcDbLine
 10
44.50567084654131
 20
227.076033
 30
0.0
 11
44.50567084654131
 21
224.826037
 31
0.0
  0
ARC
  5
43
330
A
100
AcDbEntity
  8
Hawa5
 62
     1
100
AcDbCircle
 10
41.90567084654131
 20
224.826042
 30
0.0
 40
2.6
100
AcDbArc
 50
276.6260130000001
 51
359.999885
  0
LINE
  5
44
330
A
100
AcDbEntity
  8
Hawa5
 62
     1
 48
0.031586
100
AcDbLine
 10
42.20567984654132
 20
222.243409
 30
0.0
 11
42.20568084654131
 21
220.979976
 31
0.0
  0
ARC
  5
45
330
A
100
AcDbEntity
  8
Hawa5
 62
     1
100
AcDbCircle
 10
41.90567084654131
 20
220.026039
 30
0.0
 40
1.0
100
AcDbArc
 50
107.457126
 51
72.541829
  0
LINE
  5
46
330
A
100
AcDbEntity
  8
Hawa5
 62
     1
 48
0.031586
100
AcDbLine
 10
41.60567884654132
 20
222.243407
 30
0.0
 11
41.60567884654132
 21
220.979981
 31
0.0
  0
ARC
  5
47
330
A
100
AcDbEntity
  8
Hawa5
 62
     1
100
AcDbCircle
 10
41.90567084654131
 20
224.826042
 30
0.0
 40
2.6
100
AcDbArc
 50
180.000009
 51
263.3743600000001
  0
LINE
  5
48
330
A
100
AcDbEntity
  8
Hawa5
 62
     1
 48
0.05625
100
AcDbLine
 10
39.30567084654131
 20
227.076033
 30
0.0
 11
39.30567084654131
 21
224.826042
 31
0.0
  0
LINE
  5
49
330
A
100
AcDbEntity
  8
Hawa5
 62
     1
 48
0.17
100
AcDbLine
 10
4.839006846541316
 20
227.076033
 30
0.0
 11
11.63900284654132
 21
227.076033
 31
0.0
  0
LINE
  5
4A
330
A
100
AcDbEntity
  8
Hawa5
 62
     1
 48
0.05625
100
AcDbLine
 10
11.63900284654132
 20
227.076033
 30
0.0
 11
11.63900284654132
 21
224.826028
 31
0.0
  0
ARC
  5
4B
330
A
100
AcDbEntity
  8
Hawa5
 62
     1
100
AcDbCircle
 10
14.23900284654132
 20
224.826042
 30
0.0
 40
2.6
100
AcDbArc
 50
180.000309
 51
263.374156
  0
LINE
  5
4C
330
A
100
AcDbEntity
  8
Hawa5
 62
     1
 48
0.031586
100
AcDbLine
 10
13.93900084654132
 20
222.243408
 30
0.0
 11
13.93900084654132
 21
220.979978
 31
0.0
  0
ARC
  5
4D
330
A
100
AcDbEntity
  8
Hawa5
 62
     1
100
AcDbCircle
 10
14.23900284654132
 20
220.026039
 30
0.0
 40
1.0
100
AcDbArc
 50
107.4577129999999
 51
72.54241600000003
  0
LINE
  5
4E
330
A
100
AcDbEntity
  8
Hawa5
 62
     1
 48
0.031586
100
AcDbLine
 10
14.53900284654132
 20
222.243408
 30
0.0
 11
14.53900184654132
 21
220.979979
 31
0.0
  0
ARC
  5
4F
330
A
100
AcDbEntity
  8
Hawa5
 62
     1
100
AcDbCircle
 10
14.23900284654132
 20
224.826042
 30
0.0
 40
2.6
100
AcDbArc
 50
276.6258089999999
 51
359.9999930000001
  0
LINE
  5
50
330
A
100
AcDbEntity
  8
Hawa5
 62
     1
 48
0.05625
100
AcDbLine
 10
16.83900284654132
 20
227.076033
 30
0.0
 11
16.83900284654132
 21
224.826042
 31
0.0
  0
LINE
  5
51
330
A
100
AcDbEntity
  8
Hawa5
 62
     1
100
AcDbLine
 10
16.83900284654132
 20
227.076033
 30
0.0
 11
39.30567084654131
 21
227.076033
 31
0.0
  0
LINE
  5
52
330
A
100
AcDbEntity
  8
Hawa5
 62
     1
 48
0.17
100
AcDbLine
 10
44.50567084654131
 20
227.076033
 30
0.0
 11
51.30567084654131
 21
227.076033
 31
0.0
  0
LINE
  5
53
330
A
100
AcDbEntity
  8
Hawa5
 62
     1
100
AcDbLine
 10
51.30567084654131
 20
227.076033
 30
0.0
 11
51.30567084654131
 21
192.416889
 31
0.0
  0
LINE
  5
54
330
A
100
AcDbEntity
  8
Hawa5
 62
     1
100
AcDbLine
 10
4.839006846541316
 20
227.076033
 30
0.0
 11
4.839006846541316
 21
192.416889
 31
0.0
  0
LINE
  5
55
330
A
100
AcDbEntity
  8
Hawa5
 62
     1
 48
0.003536
100
AcDbLine
 10
51.40567084654131
 20
227.176033
 30
0.0
 11
51.30567084654131
 21
227.076033
 31
0.0
  0
LINE
  5
56
330
A
100
AcDbEntity
  8
Hawa5
 62
     1
 48
0.003536
100
AcDbLine
 10
44.40567084654131
 20
227.176036
 30
0.0
 11
44.50567084654131
 21
227.076033
 31
0.0
  0
LINE
  5
57
330
A
100
AcDbEntity
  8
Hawa5
 62
     1
 48
0.003536
100
AcDbLine
 10
39.40567084654131
 20
227.176035
 30
0.0
 11
39.30567084654131
 21
227.076033
 31
0.0
  0
LINE
  5
58
330
A
100
AcDbEntity
  8
Hawa5
 62
     1
 48
0.003536
100
AcDbLine
 10
16.73900284654132
 20
227.176033
 30
0.0
 11
16.83900284654132
 21
227.076033
 31
0.0
  0
LINE
  5
59
330
A
100
AcDbEntity
  8
Hawa5
 62
     1
 48
0.003535
100
AcDbLine
 10
11.73900284654131
 20
227.176027
 30
0.0
 11
11.63900284654132
 21
227.076033
 31
0.0
  0
LINE
  5
5A
330
A
100
AcDbEntity
  8
Hawa5
 62
     1
 48
0.003536
100
AcDbLine
 10
4.739006846541318
 20
227.176033
 30
0.0
 11
4.839006846541316
 21
227.076033
 31
0.0
  0
LINE
  5
5B
330
A
100
AcDbEntity
  8
Hawa5
 62
     1
 48
0.003374
100
AcDbLine
 10
14.03900584654131
 20
222.334055
 30
0.0
 11
13.93900084654132
 21
222.243408
 31
0.0
  0
LINE
  5
5C
330
A
100
AcDbEntity
  8
Hawa5
 62
     1
 48
0.003374
100
AcDbLine
 10
14.43900584654131
 20
222.334055
 30
0.0
 11
14.53900284654132
 21
222.243408
 31
0.0
  0
LINE
  5
5D
330
A
100
AcDbEntity
  8
Hawa5
 62
     1
 48
0.003147
100
AcDbLine
 10
14.53900184654132
 20
220.979979
 30
0.0
 11
14.43900784654132
 21
220.903536
 31
0.0
  0
LINE
  5
5E
330
A
100
AcDbEntity
  8
Hawa5
 62
     1
 48
0.003147
100
AcDbLine
 10
14.03900784654132
 20
220.903536
 30
0.0
 11
13.93900084654132
 21
220.979978
 31
0.0
  0
LINE
  5
5F
330
A
100
AcDbEntity
  8
Hawa5
 62
     1
 48
0.003374
100
AcDbLine
 10
41.70566684654132
 20
222.334055
 30
0.0
 11
41.60567884654132
 21
222.243407
 31
0.0
  0
LINE
  5
60
330
A
100
AcDbEntity
  8
Hawa5
 62
     1
 48
0.003374
100
AcDbLine
 10
42.10566784654132
 20
222.334055
 30
0.0
 11
42.20567984654132
 21
222.243409
 31
0.0
  0
LINE
  5
61
330
A
100
AcDbEntity
  8
Hawa5
 62
     1
 48
0.003147
100
AcDbLine
 10
42.20568084654131
 20
220.979976
 30
0.0
 11
42.10567684654132
 21
220.903536
 31
0.0
  0
LINE
  5
62
330
A
100
AcDbEntity
  8
Hawa5
 62
     1
 48
0.003147
100
AcDbLine
 10
41.60567884654132
 20
220.979981
 30
0.0
 11
41.70566584654132
 21
220.903536
 31
0.0
  0
LINE
  5
63
330
A
100
AcDbEntity
  8
Hawa5
 62
     1
100
AcDbLine
 10
4.639006846541317
 20
170.268509
 30
0.0
 11
4.639006846541317
 21
135.480076
 31
0.0
  0
LINE
  5
64
330
A
100
AcDbEntity
  8
Hawa5
 62
     1
100
AcDbLine
 10
4.709716846541319
 20
135.409365
 30
0.0
 11
51.43495984654132
 21
135.409365
 31
0.0
  0
LINE
  5
65
330
A
100
AcDbEntity
  8
Hawa5
 62
     1
100
AcDbLine
 10
51.50567084654131
 20
170.268509
 30
0.0
 11
51.50567084654131
 21
135.480076
 31
0.0
  0
LINE
  5
66
330
A
100
AcDbEntity
  8
Hawa5
  6
DASHSPACE
 62
     1
 48
0.05875
100
AcDbLine
 10
39.30567884654132
 20
135.509369
 30
0.0
 11
39.30567984654132
 21
137.859364
 31
0.0
  0
ARC
  5
67
330
A
100
AcDbEntity
  8
Hawa5
  6
DASHSPACE
 62
     1
100
AcDbCircle
 10
41.90566684654132
 20
137.85936
 30
0.0
 40
2.6
100
AcDbArc
 50
96.62562199999999
 51
179.999901
  0
LINE
  5
68
330
A
100
AcDbEntity
  8
Hawa5
  6
DASHSPACE
 62
     1
 48
0.031586
100
AcDbLine
 10
41.60567584654131
 20
140.441995
 30
0.0
 11
41.60567584654131
 21
141.705417
 31
0.0
  0
ARC
  5
69
330
A
100
AcDbEntity
  8
Hawa5
  6
DASHSPACE
 62
     1
100
AcDbCircle
 10
41.90566684654132
 20
142.659359
 30
0.0
 40
1.0
100
AcDbArc
 50
287.45822
 51
252.5429230000001
  0
LINE
  5
6A
330
A
100
AcDbEntity
  8
Hawa5
  6
DASHSPACE
 62
     1
 48
0.031586
100
AcDbLine
 10
42.20567684654131
 20
140.441993
 30
0.0
 11
42.20567684654131
 21
141.705423
 31
0.0
  0
ARC
  5
6B
330
A
100
AcDbEntity
  8
Hawa5
  6
DASHSPACE
 62
     1
100
AcDbCircle
 10
41.90566684654132
 20
137.85936
 30
0.0
 40
2.6
100
AcDbArc
 50
359.99998
 51
83.37396900000005
  0
LINE
  5
6C
330
A
100
AcDbEntity
  8
Hawa5
  6
DASHSPACE
 62
     1
 48
0.05875
100
AcDbLine
 10
44.50567884654132
 20
135.509368
 30
0.0
 11
44.50567984654131
 21
137.859359
 31
0.0
  0
LINE
  5
6D
330
A
100
AcDbEntity
  8
Hawa5
 62
     1
 48
0.003147
100
AcDbLine
 10
42.10566584654132
 20
141.781862
 30
0.0
 11
42.20567684654131
 21
141.705423
 31
0.0
  0
LINE
  5
6E
330
A
100
AcDbEntity
  8
Hawa5
 62
     1
 48
0.003147
100
AcDbLine
 10
41.70566584654132
 20
141.781863
 30
0.0
 11
41.60567584654131
 21
141.705417
 31
0.0
  0
LINE
  5
6F
330
A
100
AcDbEntity
  8
Hawa5
 62
     1
 48
0.003374
100
AcDbLine
 10
41.60567584654131
 20
140.441995
 30
0.0
 11
41.70566684654132
 21
140.351347
 31
0.0
  0
LINE
  5
70
330
A
100
AcDbEntity
  8
Hawa5
 62
     1
 48
0.003374
100
AcDbLine
 10
42.20567684654131
 20
140.441993
 30
0.0
 11
42.10566784654132
 21
140.351347
 31
0.0
  0
LINE
  5
71
330
A
100
AcDbEntity
  8
Hawa5
 62
     1
 48
0.0025
100
AcDbLine
 10
4.809716846541316
 20
135.509365
 30
0.0
 11
4.739006846541318
 21
135.580076
 31
0.0
  0
LINE
  5
72
330
A
100
AcDbEntity
  8
Hawa5
 62
     1
 48
0.0025
100
AcDbLine
 10
4.639006846541317
 20
135.480076
 30
0.0
 11
4.709716846541319
 21
135.409365
 31
0.0
  0
LINE
  5
73
330
A
100
AcDbEntity
  8
Hawa5
 62
     1
 48
0.0025
100
AcDbLine
 10
51.33495984654131
 20
135.509365
 30
0.0
 11
51.40567084654131
 21
135.580076
 31
0.0
  0
LINE
  5
74
330
A
100
AcDbEntity
  8
Hawa5
 62
     1
 48
0.0025
100
AcDbLine
 10
51.43495984654132
 20
135.409365
 30
0.0
 11
51.50567084654131
 21
135.480076
 31
0.0
  0
TEXT
  5
75
330
A
100
AcDbEntity
  8
Hawa1
100
AcDbText
 10
126.855202
 20
149.317386
 30
0.0
 40
2.5
  1
Junior 160/GP
 41
0.9957989761686526
  7
Beschlag
 72
     5
 11
149.087467
 21
149.317386
 31
0.0
100
AcDbText
  0
TEXT
  5
76
330
A
100
AcDbEntity
  8
Hawa1
100
AcDbText
 10
132.3504702061953
 20
161.733692
 30
0.0
 40
2.5
  1
Junior 120/GP
 41
0.9957990209593637
  7
Beschlag
 72
     5
 11
154.5827362061952
 21
161.733692
 31
0.0
100
AcDbText
  0
TEXT
  5
77
330
A
100
AcDbEntity
  8
Hawa1
100
AcDbText
 10
140.1102036616651
 20
174.343037
 30
0.0
 40
2.5
  1
Junior 80/GP
 41
0.9970401279678753
  7
Beschlag
 72
     5
 11
160.4335676616651
 21
174.343037
 31
0.0
100
AcDbText
  0
TEXT
  5
78
330
A
100
AcDbEntity
  8
Hawa1
100
AcDbText
 10
149.8102651021746
 20
185.3282771999272
 30
0.0
 40
2.5
  1
Junior 40/GP
 41
0.9970401279678739
  7
Beschlag
 72
     5
 11
170.1336291021746
 21
185.3282771999272
 31
0.0
100
AcDbText
  0
DIMENSION
  5
7A
330
A
100
AcDbEntity
  8
Hawa1
 62
     0
100
AcDbDimension
  2
*D0
 10
74.89422858138084
 20
227.8319609497095
 30
0.0
 11
74.89392470028815
 21
191.3306945274414
 31
0.0
 70
   160
  1
<>{}{%%p0.5}
 71
     5
 42
71.49984125496672
 52
89.999523
  3
HAWA-Strich
100
AcDbAlignedDimension
 13
104.766382
 23
156.331871
 33
0.0
 14
92.06490999999999
 24
227.831818
 34
0.0
 50
89.999523
100
AcDbRotatedDimension
  0
DIMENSION
  5
7C
330
A
100
AcDbEntity
  8
Hawa1
 62
     0
100
AcDbDimension
  2
*D1
 10
118.0648617141666
 20
172.9333514947117
 30
0.0
 11
167.7471064220115
 21
172.9325242634242
 31
0.0
 70
   160
  1
=>130
 71
     5
 42
70.00013064073775
 52
89.999523
  3
HAWA-Strich
100
AcDbAlignedDimension
 13
188.064999
 23
173.331863
 33
0.0
 14
118.064885
 24
174.331863
 34
0.0
 50
179.999046
100
AcDbRotatedDimension
  0
DIMENSION
  5
7E
330
A
100
AcDbEntity
  8
Hawa1
 62
     0
100
AcDbDimension
  2
*D2
 10
116.0650445321888
 20
187.9121935881846
 30
0.0
 11
105.3004335541446
 21
193.5567566353108
 31
0.0
 70
    32
  1
<>{}{\S+3^ 0;}
 71
     5
 42
4.000020999378918
 52
89.999523
  3
HAWA-Strich
100
AcDbAlignedDimension
 13
120.064924
 23
179.411991
 33
0.0
 14
116.064903
 24
179.411987
 34
0.0
 50
179.999046
100
AcDbRotatedDimension
  0
DIMENSION
  5
80
330
A
100
AcDbEntity
  8
Hawa1
 62
     0
100
AcDbDimension
  2
*D3
 10
118.064885
 20
156.331871
 30
0.0
 11
97.25317228022289
 21
175.7058001427749
 31
0.0
 70
    36
  1
<>{}{\S+0.25^ 0;}
 71
     5
 42
9.000000101749591
  3
HAWA-Strich
100
AcDbRadialDimension
 15
110.391412
 25
161.0348289999999
 35
0.0
 40
0.0
  0
DIMENSION
  5
88
330
A
100
AcDbEntity
  8
Hawa1
 62
     0
100
AcDbDimension
  2
*D7
 10
144.065168342815
 20
235.2293201688609
 30
0.0
 11
118.0653558012535
 21
240.8435329645647
 31
0.0
 70
    32
  1
<>{}{\S+1^ 0;}
 71
     5
 42
51.99999897076772
 52
89.999523
  3
HAWA-Strich
100
AcDbAlignedDimension
 13
92.06492299999998
 23
227.831822
 33
0.0
 14
144.064922
 24
227.831834
 34
0.0
 50
359.998092
100
AcDbRotatedDimension
  0
DIMENSION
  5
8A
330
A
100
AcDbEntity
  8
Hawa1
 62
     0
100
AcDbDimension
  2
*D8
 10
104.6167658115587
 20
202.832133436545
 30
0.0
 11
100.1718784009542
 21
215.3319309868122
 31
0.0
 70
    32
  1
<>{}{%%p0.5}
 71
     5
 42
24.99937306472972
 52
89.999523
  3
HAWA-Strich
100
AcDbAlignedDimension
 13
92.064909
 23
227.83182
 33
0.0
 14
115.564886
 24
202.83186
 34
0.0
 50
269.998569
100
AcDbRotatedDimension
  0
DIMENSION
  5
8C
330
A
100
AcDbEntity
  8
Hawa1
 62
     0
100
AcDbDimension
  2
*D9
 10
118.064929
 20
202.89598
 30
0.0
 11
165.7157267781379
 21
209.2890003926913
 31
0.0
 70
   164
  1
<>{}{\S+0.25^ 0;}
 71
     5
 42
25.99999959548677
  3
HAWA-Strich
100
AcDbRadialDimension
 15
143.8340413040129
 25
206.3532665123507
 35
0.0
 40
0.0
  0
LINE
  5
8D
330
A
100
AcDbEntity
  8
Hawa5
 62
     1
 48
0.225
100
AcDbLine
 10
92.064909
 20
227.83182
 30
0.0
 11
83.06492099999999
 21
227.831828
 31
0.0
  0
LINE
  5
8E
330
A
100
AcDbEntity
  8
Hawa5
 62
     1
 48
0.2
100
AcDbLine
 10
83.06491800000001
 20
226.831755
 30
0.0
 11
91.064924
 21
226.831741
 31
0.0
  0
LINE
  5
8F
330
A
100
AcDbEntity
  8
Hawa5
 62
     1
100
AcDbLine
 10
158.064911
 20
227.831802
 30
0.0
 11
187.064938
 21
227.831802
 31
0.0
  0
LINE
  5
90
330
A
100
AcDbEntity
  8
Hawa5
 62
     1
100
AcDbLine
 10
92.06492299999998
 20
227.831822
 30
0.0
 11
92.064929
 21
202.895974
 31
0.0
  0
LINE
  5
91
330
A
100
AcDbEntity
  8
Hawa5
 62
     1
 48
0.200002
100
AcDbLine
 10
153.06491
 20
226.832001
 30
0.0
 11
145.064842
 21
226.831997
 31
0.0
  0
LINE
  5
92
330
A
100
AcDbEntity
  8
Hawa5
 62
     1
100
AcDbLine
 10
144.064922
 20
227.831834
 30
0.0
 11
144.064927
 21
202.831891
 31
0.0
  0
LINE
  5
93
330
A
100
AcDbEntity
  8
Hawa5
 62
     1
 48
0.296655
100
AcDbLine
 10
120.064925
 20
176.973017
 30
0.0
 11
120.064928
 21
165.106826
 31
0.0
  0
LINE
  5
94
330
A
100
AcDbEntity
  8
Hawa5
 62
     1
 48
0.296655
100
AcDbLine
 10
116.064904
 20
176.97302
 30
0.0
 11
116.064907
 21
165.1068249999999
 31
0.0
  0
LINE
  5
95
330
A
100
AcDbEntity
  8
Hawa5
 62
     1
 48
0.035355
100
AcDbLine
 10
187.064776
 20
227.83162
 30
0.0
 11
188.064775
 21
226.831628
 31
0.0
  0
LINE
  5
96
330
A
100
AcDbEntity
  8
Hawa5
  6
PHANTOM
 62
     1
100
AcDbLine
 10
193.06499
 20
137.831819
 30
0.0
 11
83.064923
 21
137.831827
 31
0.0
  0
LINE
  5
97
330
A
100
AcDbEntity
  8
Hawa5
  6
PHANTOM
 62
     1
 48
0.274995
100
AcDbLine
 10
153.064903
 20
232.831818
 30
0.0
 11
153.064903
 21
221.832016
 31
0.0
  0
LINE
  5
98
330
A
100
AcDbEntity
  8
Hawa5
  6
PHANTOM
 62
     1
 48
0.274995
100
AcDbLine
 10
158.064911
 20
232.831818
 30
0.0
 11
158.064911
 21
221.832016
 31
0.0
  0
LINE
  5
99
330
A
100
AcDbEntity
  8
Hawa5
  6
PHANTOM
 62
     1
100
AcDbLine
 10
83.064926
 20
232.831818
 30
0.0
 11
83.064926
 21
137.831818
 31
0.0
  0
LINE
  5
9A
330
A
100
AcDbEntity
  8
Hawa5
 62
     1
100
AcDbLine
 10
188.064999
 20
226.831985
 30
0.0
 11
188.064999
 21
137.831818
 31
0.0
  0
LINE
  5
9B
330
A
100
AcDbEntity
  8
Hawa5
 62
     1
100
AcDbLine
 10
187.064999
 20
227.831802
 30
0.0
 11
187.064999
 21
137.831818
 31
0.0
  0
LINE
  5
9C
330
A
100
AcDbEntity
  8
Hawa5
 62
     1
100
AcDbLine
 10
188.0650389999999
 20
226.832019
 30
0.0
 11
158.06491
 21
226.832004
 31
0.0
  0
LINE
  5
9D
330
A
100
AcDbEntity
  8
Hawa5
 62
     1
 48
0.225
100
AcDbLine
 10
144.064888
 20
227.831802
 30
0.0
 11
153.064903
 21
227.831802
 31
0.0
  0
LINE
  5
9E
330
A
100
AcDbEntity
  8
Hawa5
  6
DASHDOT
 62
     1
100
AcDbLine
 10
118.064885
 20
185.128448
 30
0.0
 11
118.064885
 21
142.977516
 31
0.0
  0
LINE
  5
9F
330
A
100
AcDbEntity
  8
Hawa5
  6
DASHDOT
 62
     1
 48
0.125
100
AcDbLine
 10
115.564886
 20
202.83186
 30
0.0
 11
120.564885
 21
202.83186
 31
0.0
  0
LINE
  5
A0
330
A
100
AcDbEntity
  8
Hawa5
  6
DASHDOT
 62
     1
 48
0.4227960000000001
100
AcDbLine
 10
103.653053
 20
156.331871
 30
0.0
 11
120.564885
 21
156.331871
 31
0.0
  0
LINE
  5
A1
330
A
100
AcDbEntity
  8
Hawa5
  6
DASHDOT
 62
     1
 48
0.4689550000000001
100
AcDbLine
 10
118.064885
 20
206.711594
 30
0.0
 11
118.064885
 21
187.953407
 31
0.0
  0
ARC
  5
A2
330
A
100
AcDbEntity
  8
Hawa5
 62
     1
100
AcDbCircle
 10
118.064929
 20
202.89598
 30
0.0
 40
26.0
100
AcDbArc
 50
180.000013
 51
265.58822
  0
ARC
  5
A3
330
A
100
AcDbEntity
  8
Hawa5
 62
     1
100
AcDbCircle
 10
118.064885
 20
156.331871
 30
0.0
 40
9.0
100
AcDbArc
 50
102.839638
 51
168.582642
  0
ARC
  5
A4
330
A
100
AcDbEntity
  8
Hawa5
 62
     1
100
AcDbCircle
 10
118.064885
 20
156.331871
 30
0.0
 40
9.0
100
AcDbArc
 50
190.098109
 51
437.160466
  0
ARC
  5
A5
330
A
100
AcDbEntity
  8
Hawa5
 62
     1
100
AcDbCircle
 10
118.064929
 20
202.89598
 30
0.0
 40
26.0
100
AcDbArc
 50
274.411718
 51
359.858766
  0
ARC
  5
A6
330
A
100
AcDbEntity
  8
Hawa5
 62
     1
100
AcDbCircle
 10
118.064929
 20
202.89598
 30
0.0
 40
27.0
100
AcDbArc
 50
180.000013
 51
263.620578
  0
ARC
  5
A7
330
A
100
AcDbEntity
  8
Hawa5
 62
     1
100
AcDbCircle
 10
118.064929
 20
202.89598
 30
0.0
 40
27.0
100
AcDbArc
 50
276.379363
 51
359.858766
  0
ARC
  5
A8
330
A
100
AcDbEntity
  8
Hawa5
 62
     1
100
AcDbCircle
 10
118.064885
 20
156.331871
 30
0.0
 40
10.0
100
AcDbArc
 50
107.457472
 51
432.54214
  0
LINE
  5
A9
330
A
100
AcDbEntity
  8
Hawa5
 62
     1
 48
0.254798
100
AcDbLine
 10
121.064925
 20
176.063164
 30
0.0
 11
121.064928
 21
165.87125
 31
0.0
  0
LINE
  5
AA
330
A
100
AcDbEntity
  8
Hawa5
 62
     1
 48
0.254797
100
AcDbLine
 10
115.064904
 20
176.063167
 30
0.0
 11
115.064907
 21
165.87127
 31
0.0
  0
LINE
  5
AB
330
A
100
AcDbEntity
  8
Hawa5
 62
     1
100
AcDbLine
 10
91.064924
 20
226.831741
 30
0.0
 11
91.06492900000001
 21
202.895974
 31
0.0
  0
LINE
  5
AC
330
A
100
AcDbEntity
  8
Hawa5
 62
     1
100
AcDbLine
 10
145.064842
 20
226.831997
 30
0.0
 11
145.064847
 21
202.831891
 31
0.0
  0
LINE
  5
AD
330
A
100
AcDbEntity
  8
Hawa5
 62
     1
 48
0.035351
100
AcDbLine
 10
144.064922
 20
227.831834
 30
0.0
 11
145.064842
 21
226.831997
 31
0.0
  0
LINE
  5
AE
330
A
100
AcDbEntity
  8
Hawa5
 62
     1
 48
0.035356
100
AcDbLine
 10
92.064909
 20
227.83182
 30
0.0
 11
91.064924
 21
226.831741
 31
0.0
  0
LINE
  5
AF
330
A
100
AcDbEntity
  8
Hawa5
 62
     1
 48
0.033799
100
AcDbLine
 10
116.064904
 20
176.97302
 30
0.0
 11
115.064904
 21
176.063167
 31
0.0
  0
LINE
  5
B0
330
A
100
AcDbEntity
  8
Hawa5
 62
     1
 48
0.033799
100
AcDbLine
 10
120.064925
 20
176.973017
 30
0.0
 11
121.064925
 21
176.063164
 31
0.0
  0
LINE
  5
B1
330
A
100
AcDbEntity
  8
Hawa5
 62
     1
 48
0.031469
100
AcDbLine
 10
121.064928
 20
165.87125
 30
0.0
 11
120.064877
 21
165.106837
 31
0.0
  0
LINE
  5
B2
330
A
100
AcDbEntity
  8
Hawa5
 62
     1
 48
0.031467
100
AcDbLine
 10
115.064907
 20
165.87127
 30
0.0
 11
116.064878
 21
165.106834
 31
0.0
  0
DIMENSION
  5
B4
330
A
100
AcDbEntity
  8
Hawa1
 62
     0
100
AcDbDimension
  2
*D10
 10
100.071613
 20
94.39288299999999
 30
0.0
 11
91.73601786163029
 21
98.81515284532742
 31
0.0
 70
    33
 71
     5
 42
4.0
 52
89.999523
  3
HAWA-Strich
100
AcDbAlignedDimension
 13
104.071613
 23
79.92434899999999
 33
0.0
 14
100.071613
 24
79.92434899999999
 34
0.0
  0
LINE
  5
B5
330
A
100
AcDbEntity
  8
Hawa5
 62
     1
100
AcDbLine
 10
49.261051
 20
70.631455
 30
0.0
 11
99.36450699999999
 21
70.631455
 31
0.0
  0
LINE
  5
B6
330
A
100
AcDbEntity
  8
Hawa5
 62
     1
 48
0.214645
100
AcDbLine
 10
100.071613
 20
71.338562
 30
0.0
 11
100.071613
 21
79.92434899999999
 31
0.0
  0
LINE
  5
B7
330
A
100
AcDbEntity
  8
Hawa5
 62
     1
100
AcDbLine
 10
99.36450699999999
 20
80.631455
 30
0.0
 11
49.261051
 21
80.631455
 31
0.0
  0
LINE
  5
B8
330
A
100
AcDbEntity
  8
Hawa5
 62
     1
 48
0.025
100
AcDbLine
 10
99.36450699999999
 20
80.631455
 30
0.0
 11
100.071613
 21
79.92434899999999
 31
0.0
  0
LINE
  5
B9
330
A
100
AcDbEntity
  8
Hawa5
 62
     1
 48
0.025
100
AcDbLine
 10
99.36450699999999
 20
70.631455
 30
0.0
 11
100.071613
 21
71.338562
 31
0.0
  0
LINE
  5
BA
330
A
100
AcDbEntity
  8
Hawa5
 62
     1
 48
0.025
100
AcDbLine
 10
104.77872
 20
70.631455
 30
0.0
 11
104.071613
 21
71.338562
 31
0.0
  0
LINE
  5
BB
330
A
100
AcDbEntity
  8
Hawa5
 62
     1
 48
0.025
100
AcDbLine
 10
104.77872
 20
80.631455
 30
0.0
 11
104.071613
 21
79.92434899999999
 31
0.0
  0
LINE
  5
BC
330
A
100
AcDbEntity
  8
Hawa5
 62
     1
 48
0.214645
100
AcDbLine
 10
104.071613
 20
71.338562
 30
0.0
 11
104.071613
 21
79.92434899999999
 31
0.0
  0
LINE
  5
BD
330
A
100
AcDbEntity
  8
Hawa5
 62
     1
100
AcDbLine
 10
104.77872
 20
80.631455
 30
0.0
 11
154.071613
 21
80.631455
 31
0.0
  0
LINE
  5
BE
330
A
100
AcDbEntity
  8
Hawa5
 62
     1
100
AcDbLine
 10
154.071613
 20
70.631455
 30
0.0
 11
104.77872
 21
70.631455
 31
0.0
  0
LINE
  5
BF
330
A
100
AcDbEntity
  8
Hawa5
  6
PHANTOM
 62
     1
 48
0.25
100
AcDbLine
 10
49.261051
 20
80.631455
 30
0.0
 11
49.261051
 21
70.631455
 31
0.0
  0
LINE
  5
C0
330
A
100
AcDbEntity
  8
Hawa5
  6
PHANTOM
 62
     1
 48
0.25
100
AcDbLine
 10
154.071613
 20
70.631455
 30
0.0
 11
154.071613
 21
80.631455
 31
0.0
  0
LINE
  5
18C
330
A
100
AcDbEntity
  8
Hawa6
 62
     3
 48
0.07
100
AcDbLine
 10
100.071614
 20
78.431455
 30
0.0
 11
100.071613
 21
75.631455
 31
0.0
  0
LINE
  5
18D
330
A
100
AcDbEntity
  8
Hawa6
 62
     3
 48
0.07
100
AcDbLine
 10
100.071612
 20
72.831455
 30
0.0
 11
100.071613
 21
75.631455
 31
0.0
  0
ARC
  5
18E
330
A
100
AcDbEntity
  8
Hawa6
 62
     3
100
AcDbCircle
 10
100.271612
 20
72.831455
 30
0.0
 40
0.2
100
AcDbArc
 50
179.9999740194561
 51
269.9999739999985
  0
LINE
  5
18F
330
A
100
AcDbEntity
  8
Hawa6
 62
     3
 48
0.02
100
AcDbLine
 10
101.071612
 20
72.631455
 30
0.0
 11
100.271612
 21
72.631455
 31
0.0
  0
ARC
  5
190
330
A
100
AcDbEntity
  8
Hawa6
 62
     3
100
AcDbCircle
 10
101.071613
 20
75.631455
 30
0.0
 40
3.0
100
AcDbArc
 50
269.9999739999999
 51
89.99997399999987
  0
LINE
  5
191
330
A
100
AcDbEntity
  8
Hawa6
 62
     3
 48
0.02
100
AcDbLine
 10
101.071614
 20
78.631455
 30
0.0
 11
100.271614
 21
78.631455
 31
0.0
  0
ARC
  5
192
330
A
100
AcDbEntity
  8
Hawa6
 62
     3
100
AcDbCircle
 10
100.271614
 20
78.431455
 30
0.0
 40
0.2
100
AcDbArc
 50
89.99997399999852
 51
179.9999740194561
  0
LINE
  5
193
330
A
100
AcDbEntity
  8
Hawa6
 62
     3
 48
0.038777
100
AcDbLine
 10
101.271613
 20
76.28145400000001
 30
0.0
 11
100.870167
 21
77.77967499999999
 31
0.0
  0
ARC
  5
194
330
A
100
AcDbEntity
  8
Hawa6
 62
     3
100
AcDbCircle
 10
101.063352
 20
77.831439
 30
0.0
 40
0.2
100
AcDbArc
 50
90.21514199999961
 51
194.9999740000009
  0
ARC
  5
195
330
A
100
AcDbEntity
  8
Hawa6
 62
     3
100
AcDbCircle
 10
101.071613
 20
75.631455
 30
0.0
 40
2.399999999999999
100
AcDbArc
 50
269.784806
 51
90.21514199999995
  0
ARC
  5
196
330
A
100
AcDbEntity
  8
Hawa6
 62
     3
100
AcDbCircle
 10
101.06335
 20
73.43146999999999
 30
0.0
 40
0.2
100
AcDbArc
 50
164.9999740000005
 51
269.7848060000013
  0
LINE
  5
197
330
A
100
AcDbEntity
  8
Hawa6
 62
     3
 48
0.038777
100
AcDbLine
 10
101.271613
 20
74.981454
 30
0.0
 11
100.870165
 21
73.48323399999999
 31
0.0
  0
LINE
  5
198
330
A
100
AcDbEntity
  8
Hawa6
 62
     3
 48
0.01625
100
AcDbLine
 10
101.271613
 20
74.981454
 30
0.0
 11
101.271613
 21
75.631454
 31
0.0
  0
LINE
  5
199
330
A
100
AcDbEntity
  8
Hawa6
 62
     3
 48
0.01625
100
AcDbLine
 10
101.271613
 20
76.28145400000001
 30
0.0
 11
101.271613
 21
75.631454
 31
0.0
  0
LINE
  5
314
330
A
100
AcDbEntity
  8
Hawa1
100
AcDbLine
 10
182.117466
 20
183.8662858406682
 30
0.0
 11
169.451817
 21
183.8662858406682
 31
0.0
  0
MTEXT
  5
317
330
A
100
AcDbEntity
  8
Hawa1
100
AcDbMText
 10
175.7846415
 20
186.6532912976941
 30
0.0
 40
3.5
 41
0.0
 71
     5
 72
     1
  1
\A1;=>95
  7
Beschlag
 73
     1
 44
1.0
1001
ACAD
1000
MTEXTBEGIN
1070
    73
1070
     1
1070
    44
1040
1.0
1070
    74
1070
     0
1000
MTEXTEND
  0
LINE
  5
31C
330
A
100
AcDbEntity
  8
Hawa1
100
AcDbLine
 10
167.5844601616736
 20
160.221375
 30
0.0
 11
155.2729481202711
 21
160.221375
 31
0.0
  0
MTEXT
  5
31F
330
A
100
AcDbEntity
  8
Hawa1
100
AcDbMText
 10
161.4284935
 20
163.0083804570259
 30
0.0
 40
3.5
 41
0.0
 71
     5
 72
     1
  1
\A1;=>155
  7
Beschlag
 73
     1
 44
1.0
1001
ACAD
1000
MTEXTBEGIN
1070
    73
1070
     1
1070
    44
1040
1.0
1070
    74
1070
     0
1000
MTEXTEND
  0
LINE
  5
322
330
A
100
AcDbEntity
  8
Hawa1
100
AcDbLine
 10
162.71645
 20
148.159027
 30
0.0
 11
150.0508
 21
148.159027
 31
0.0
  0
MTEXT
  5
325
330
A
100
AcDbEntity
  8
Hawa1
100
AcDbMText
 10
156.383625
 20
150.9460324570259
 30
0.0
 40
3.5
 41
0.0
 71
     5
 72
     1
  1
\A1;=>190
  7
Beschlag
 73
     1
 44
1.0
1001
ACAD
1000
MTEXTBEGIN
1070
    73
1070
     1
1070
    44
1040
1.0
1070
    74
1070
     0
1000
MTEXTEND
  0
VIEWPORT
  5
C1
102
{ACAD_XDICTIONARY
360
345
102
}
330
B
100
AcDbEntity
 67
     1
  8
0
 62
     0
100
AcDbViewport
 10
0.0
 20
0.0
 30
0.0
 40
1000.0
 41
1000.0
 68
     1
 69
     1
 12
0.0
 22
0.0
 13
0.0
 23
0.0
 14
1.0
 24
1.0
 15
1.0
 25
1.0
 16
0.0
 26
0.0
 36
1.0
 17
0.0
 27
0.0
 37
0.0
 42
50.0
 43
0.0
 44
0.0
 45
1000.0
 50
0.0
 51
0.0
 72
   100
 90
   557216
  1

281
     0
 71
     1
 74
     0
110
0.0
120
0.0
130
0.0
111
1.0
121
0.0
131
0.0
112
0.0
122
1.0
132
0.0
 79
     0
146
0.0
  0
ENDSEC
  0
SECTION
  2
OBJECTS
  0
DICTIONARY
  5
19
330
0
100
AcDbDictionary
281
     1
  3
ACAD_COLOR
350
1BF
  3
ACAD_GROUP
350
1A
  3
ACAD_LAYOUT
350
167
  3
ACAD_MATERIAL
350
1AA
  3
ACAD_MLEADERSTYLE
350
1A1
  3
ACAD_MLINESTYLE
350
1B
  3
ACAD_PLOTSETTINGS
350
1C2
  3
ACAD_PLOTSTYLENAME
350
1A8
  3
ACAD_SCALELIST
350
16A
  3
ACAD_TABLESTYLE
350
1C0
  3
ACAD_VISUALSTYLE
350
1AE
  3
AcDbVariableDictionary
350
19F
  3
DWGPROPS
350
344
  0
DICTIONARY
  5
318
330
A
100
AcDbDictionary
280
     1
281
     1
  3
ACAD_SORTENTS
360
319
  0
DICTIONARY
  5
345
330
C1
100
AcDbDictionary
280
     1
281
     1
  3
ACAD_XREC_ROUNDTRIP
360
346
  0
DICTIONARY
  5
1BF
102
{ACAD_REACTORS
330
19
102
}
330
19
100
AcDbDictionary
281
     1
  0
DICTIONARY
  5
1A
102
{ACAD_REACTORS
330
19
102
}
330
19
100
AcDbDictionary
281
     1
  0
DICTIONARY
  5
167
102
{ACAD_REACTORS
330
19
102
}
330
19
100
AcDbDictionary
281
     1
  3
Layout1
350
169
  3
Model
350
168
  0
DICTIONARY
  5
1AA
102
{ACAD_REACTORS
330
19
102
}
330
19
100
AcDbDictionary
281
     1
  3
ByBlock
350
1AC
  3
ByLayer
350
1AB
  3
Global
350
1AD
  0
DICTIONARY
  5
1A1
102
{ACAD_REACTORS
330
19
102
}
330
19
100
AcDbDictionary
281
     1
  0
DICTIONARY
  5
1B
102
{ACAD_REACTORS
330
19
102
}
330
19
100
AcDbDictionary
281
     1
  3
STANDARD
350
1C
  0
DICTIONARY
  5
1C2
102
{ACAD_REACTORS
330
19
102
}
330
19
100
AcDbDictionary
281
     1
  0
ACDBDICTIONARYWDFLT
  5
1A8
102
{ACAD_REACTORS
330
19
102
}
330
19
100
AcDbDictionary
281
     1
  3
Normal
350
1A9
100
AcDbDictionaryWithDefault
340
1A9
  0
DICTIONARY
  5
16A
102
{ACAD_REACTORS
330
19
102
}
330
19
100
AcDbDictionary
281
     1
  3
A0
350
16B
  3
A1
350
16C
  3
A2
350
16D
  3
A3
350
16E
  3
A4
350
16F
  3
A5
350
170
  3
A6
350
171
  3
A7
350
172
  3
A8
350
173
  3
A9
350
174
  3
B0
350
175
  3
B1
350
176
  3
B2
350
177
  3
B3
350
178
  3
B4
350
179
  3
B5
350
17A
  3
B6
350
17B
  3
B7
350
17C
  3
B8
350
17D
  3
B9
350
17E
  3
C0
350
17F
  3
C1
350
180
  3
C2
350
181
  3
C3
350
182
  3
C4
350
183
  3
C5
350
184
  3
C6
350
185
  3
C7
350
186
  3
C8
350
187
  3
C9
350
188
  3
D0
350
189
  3
D1
350
18A
  3
D2
350
18B
  0
DICTIONARY
  5
1C0
102
{ACAD_REACTORS
330
19
102
}
330
19
100
AcDbDictionary
281
     1
  3
Standard
350
1C1
  0
DICTIONARY
  5
1AE
102
{ACAD_REACTORS
330
19
102
}
330
19
100
AcDbDictionary
281
     1
  3
2dWireframe
350
1B4
  3
3D Hidden
350
1B6
  3
3dWireframe
350
1B5
  3
Basic
350
1B3
  3
Brighten
350
1BA
  3
ColorChange
350
1BE
  3
Conceptual
350
1B7
  3
Dim
350
1B9
  3
Facepattern
350
1BD
  3
Flat
350
1AF
  3
FlatWithEdges
350
1B0
  3
Gouraud
350
1B1
  3
GouraudWithEdges
350
1B2
  3
Linepattern
350
1BC
  3
Realistic
350
1B8
  3
Thicken
350
1BB
  0
DICTIONARY
  5
19F
102
{ACAD_REACTORS
330
19
102
}
330
19
100
AcDbDictionary
281
     1
  3
CANNOSCALE
350
1A2
  3
CTABLESTYLE
350
28F
  3
DIMASSOC
350
292
  3
INDEXCTL
350
291
  3
SORTENTS
350
290
  0
XRECORD
  5
344
102
{ACAD_REACTORS
330
19
102
}
330
19
100
AcDbXrecord
280
     1
  1
DWGPROPS COOKIE
  2

  3

  4

  6

  7

  8
rhu
  9

300
=
301
=
302
=
303
=
304
=
305
=
306
=
307
=
308
=
309
=
 40
0.0479089930555556
 41
2447893.0
 42
2455705.33948154
  1

 90
        0
  0
SORTENTSTABLE
  5
319
102
{ACAD_REACTORS
330
318
102
}
330
318
100
AcDbSortentsTable
330
A
331
A1
  5
B4
331
18D
  5
317
331
BA
  5
197
331
90
  5
A2
331
78
  5
78
331
56
  5
56
331
67
  5
67
331
45
  5
45
331
34
  5
34
331
27
  5
27
331
C0
  5
315
331
B8
  5
195
331
76
  5
76
331
54
  5
54
331
9F
  5
B1
331
65
  5
65
331
43
  5
43
331
32
  5
32
331
25
  5
25
331
317
  5
8D
331
B6
  5
193
331
AE
  5
18C
331
74
  5
74
331
52
  5
52
331
9D
  5
AF
331
63
  5
63
331
41
  5
41
331
30
  5
30
331
23
  5
23
331
B4
  5
191
331
AC
  5
BF
331
72
  5
72
331
50
  5
50
331
9B
  5
AD
331
61
  5
61
331
3F
  5
3F
331
2E
  5
2E
331
B2
  5
190
331
AA
  5
BD
331
70
  5
70
331
4E
  5
4E
331
196
  5
322
331
99
  5
AB
331
5F
  5
5F
331
3D
  5
3D
331
2C
  5
2C
331
B0
  5
18E
331
A8
  5
BB
331
322
  5
98
331
6E
  5
6E
331
4C
  5
4C
331
194
  5
320
331
97
  5
A9
331
5D
  5
5D
331
3B
  5
3B
331
2A
  5
2A
331
A6
  5
B9
331
8E
  5
A0
331
6C
  5
6C
331
4A
  5
4A
331
192
  5
31E
331
BF
  5
314
331
95
  5
A7
331
5B
  5
5B
331
39
  5
39
331
28
  5
28
331
A4
  5
B7
331
8C
  5
9E
331
6A
  5
6A
331
48
  5
48
331
190
  5
31C
331
BD
  5
312
331
93
  5
A5
331
59
  5
59
331
37
  5
37
331
198
  5
324
331
A2
  5
B5
331
8A
  5
9D
331
31C
  5
91
331
68
  5
68
331
18E
  5
31A
331
BB
  5
198
331
91
  5
A3
331
57
  5
57
331
46
  5
46
331
35
  5
35
331
A0
  5
B2
331
88
  5
9C
331
18C
  5
316
331
B9
  5
196
331
77
  5
77
331
55
  5
55
331
66
  5
66
331
44
  5
44
331
33
  5
33
331
26
  5
26
331
B7
  5
194
331
AF
  5
18D
331
75
  5
75
331
53
  5
53
331
9E
  5
B0
331
64
  5
64
331
42
  5
42
331
31
  5
31
331
24
  5
24
331
B5
  5
192
331
AD
  5
C0
331
73
  5
73
331
51
  5
51
331
9C
  5
AE
331
62
  5
62
331
40
  5
40
331
2F
  5
2F
331
22
  5
22
331
314
  5
88
331
AB
  5
BE
331
325
  5
9B
331
71
  5
71
331
4F
  5
4F
331
197
  5
323
331
9A
  5
AC
331
60
  5
60
331
3E
  5
3E
331
2D
  5
2D
331
80
  5
80
331
B1
  5
18F
331
A9
  5
BC
331
6F
  5
6F
331
4D
  5
4D
331
195
  5
321
331
98
  5
AA
331
5E
  5
5E
331
3C
  5
3C
331
2B
  5
2B
331
A7
  5
BA
331
8F
  5
A1
331
6D
  5
6D
331
4B
  5
4B
331
193
  5
31F
331
96
  5
A8
331
7E
  5
7E
331
5C
  5
5C
331
3A
  5
3A
331
29
  5
29
331
A5
  5
B8
331
8D
  5
9F
331
31F
  5
94
331
6B
  5
6B
331
49
  5
49
331
191
  5
31D
331
BE
  5
313
331
94
  5
A6
331
7C
  5
7C
331
5A
  5
5A
331
38
  5
38
331
199
  5
325
331
A3
  5
B6
331
69
  5
69
331
18F
  5
31B
331
BC
  5
199
331
92
  5
A4
331
7A
  5
7A
331
58
  5
58
331
47
  5
47
331
36
  5
36
  0
XRECORD
  5
346
102
{ACAD_REACTORS
330
345
102
}
330
345
100
AcDbXrecord
280
     1
102
SHADEPLOT
 70
     0
  0
LAYOUT
  5
169
102
{ACAD_XDICTIONARY
360
349
102
}
102
{ACAD_REACTORS
330
167
102
}
330
167
100
AcDbPlotSettings
  1

  2
none_device
  4

  6

 40
0.0
 41
0.0
 42
0.0
 43
0.0
 44
0.0
 45
0.0
 46
0.0
 47
0.0
 48
0.0
 49
0.0
140
0.0
141
0.0
142
1.0
143
1.0
 70
   688
 72
     0
 73
     0
 74
     5
  7

 75
    16
147
1.0
148
0.0
149
0.0
100
AcDbLayout
  1
Layout1
 70
     1
 71
     1
 10
0.0
 20
0.0
 11
420.0
 21
297.0
 12
0.0
 22
0.0
 32
0.0
 14
0.0
 24
0.0
 34
0.0
 15
195.5
 25
253.664566
 35
2.0
146
0.0
 13
0.0
 23
0.0
 33
0.0
 16
1.0
 26
0.0
 36
0.0
 17
0.0
 27
1.0
 37
0.0
 76
     0
330
B
331
C1
  0
LAYOUT
  5
168
102
{ACAD_XDICTIONARY
360
347
102
}
102
{ACAD_REACTORS
330
167
102
}
330
167
100
AcDbPlotSettings
  1

  2
none_device
  4

  6

 40
0.0
 41
0.0
 42
0.0
 43
0.0
 44
0.0
 45
0.0
 46
0.0
 47
0.0
 48
0.0
 49
0.0
140
0.0
141
0.0
142
1.0
143
1.0
 70
   688
 72
     0
 73
     0
 74
     5
  7

 75
    16
147
1.0
148
0.0
149
0.0
100
AcDbLayout
  1
Model
 70
     1
 71
     0
 10
0.0
 20
0.0
 11
0.0
 21
0.0
 12
0.0
 22
0.0
 32
0.0
 14
0.0
 24
0.0
 34
0.0
 15
0.0
 25
0.0
 35
0.0
146
0.0
 13
0.0
 23
0.0
 33
0.0
 16
1.0
 26
0.0
 36
0.0
 17
0.0
 27
1.0
 37
0.0
 76
     0
330
A
331
15
  0
MATERIAL
  5
1AC
102
{ACAD_XDICTIONARY
360
34D
102
}
102
{ACAD_REACTORS
330
1AA
102
}
330
1AA
100
AcDbMaterial
  1
ByBlock
  0
MATERIAL
  5
1AB
102
{ACAD_XDICTIONARY
360
34B
102
}
102
{ACAD_REACTORS
330
1AA
102
}
330
1AA
100
AcDbMaterial
  1
ByLayer
  0
MATERIAL
  5
1AD
102
{ACAD_XDICTIONARY
360
34F
102
}
102
{ACAD_REACTORS
330
1AA
102
}
330
1AA
100
AcDbMaterial
  1
Global
  0
MLINESTYLE
  5
1C
102
{ACAD_REACTORS
330
1B
102
}
330
1B
100
AcDbMlineStyle
  2
STANDARD
 70
     0
  3

 62
     0
 51
90.0
 52
90.0
 71
     2
 49
0.5
 62
   256
  6
BYLAYER
 49
-0.5
 62
   256
  6
BYLAYER
  0
ACDBPLACEHOLDER
  5
1A9
102
{ACAD_REACTORS
330
1A8
102
}
330
1A8
  0
SCALE
  5
16B
102
{ACAD_REACTORS
330
16A
102
}
330
16A
100
AcDbScale
 70
     0
300
1:1
140
1.0
141
1.0
290
     1
1001
ACAD
1000
AcRTDxfName
1000
SCALE
  0
SCALE
  5
16C
102
{ACAD_REACTORS
330
16A
102
}
330
16A
100
AcDbScale
 70
     0
300
1:2
140
1.0
141
2.0
290
     0
1001
ACAD
1000
AcRTDxfName
1000
SCALE
  0
SCALE
  5
16D
102
{ACAD_REACTORS
330
16A
102
}
330
16A
100
AcDbScale
 70
     0
300
1:4
140
1.0
141
4.0
290
     0
1001
ACAD
1000
AcRTDxfName
1000
SCALE
  0
SCALE
  5
16E
102
{ACAD_REACTORS
330
16A
102
}
330
16A
100
AcDbScale
 70
     0
300
1:5
140
1.0
141
5.0
290
     0
1001
ACAD
1000
AcRTDxfName
1000
SCALE
  0
SCALE
  5
16F
102
{ACAD_REACTORS
330
16A
102
}
330
16A
100
AcDbScale
 70
     0
300
1:8
140
1.0
141
8.0
290
     0
1001
ACAD
1000
AcRTDxfName
1000
SCALE
  0
SCALE
  5
170
102
{ACAD_REACTORS
330
16A
102
}
330
16A
100
AcDbScale
 70
     0
300
1:10
140
1.0
141
10.0
290
     0
1001
ACAD
1000
AcRTDxfName
1000
SCALE
  0
SCALE
  5
171
102
{ACAD_REACTORS
330
16A
102
}
330
16A
100
AcDbScale
 70
     0
300
1:16
140
1.0
141
16.0
290
     0
1001
ACAD
1000
AcRTDxfName
1000
SCALE
  0
SCALE
  5
172
102
{ACAD_REACTORS
330
16A
102
}
330
16A
100
AcDbScale
 70
     0
300
1:20
140
1.0
141
20.0
290
     0
1001
ACAD
1000
AcRTDxfName
1000
SCALE
  0
SCALE
  5
173
102
{ACAD_REACTORS
330
16A
102
}
330
16A
100
AcDbScale
 70
     0
300
1:30
140
1.0
141
30.0
290
     0
1001
ACAD
1000
AcRTDxfName
1000
SCALE
  0
SCALE
  5
174
102
{ACAD_REACTORS
330
16A
102
}
330
16A
100
AcDbScale
 70
     0
300
1:40
140
1.0
141
40.0
290
     0
1001
ACAD
1000
AcRTDxfName
1000
SCALE
  0
SCALE
  5
175
102
{ACAD_REACTORS
330
16A
102
}
330
16A
100
AcDbScale
 70
     0
300
1:50
140
1.0
141
50.0
290
     0
1001
ACAD
1000
AcRTDxfName
1000
SCALE
  0
SCALE
  5
176
102
{ACAD_REACTORS
330
16A
102
}
330
16A
100
AcDbScale
 70
     0
300
1:100
140
1.0
141
100.0
290
     0
1001
ACAD
1000
AcRTDxfName
1000
SCALE
  0
SCALE
  5
177
102
{ACAD_REACTORS
330
16A
102
}
330
16A
100
AcDbScale
 70
     0
300
2:1
140
2.0
141
1.0
290
     0
1001
ACAD
1000
AcRTDxfName
1000
SCALE
  0
SCALE
  5
178
102
{ACAD_REACTORS
330
16A
102
}
330
16A
100
AcDbScale
 70
     0
300
4:1
140
4.0
141
1.0
290
     0
1001
ACAD
1000
AcRTDxfName
1000
SCALE
  0
SCALE
  5
179
102
{ACAD_REACTORS
330
16A
102
}
330
16A
100
AcDbScale
 70
     0
300
8:1
140
8.0
141
1.0
290
     0
1001
ACAD
1000
AcRTDxfName
1000
SCALE
  0
SCALE
  5
17A
102
{ACAD_REACTORS
330
16A
102
}
330
16A
100
AcDbScale
 70
     0
300
10:1
140
10.0
141
1.0
290
     0
1001
ACAD
1000
AcRTDxfName
1000
SCALE
  0
SCALE
  5
17B
102
{ACAD_REACTORS
330
16A
102
}
330
16A
100
AcDbScale
 70
     0
300
100:1
140
100.0
141
1.0
290
     0
1001
ACAD
1000
AcRTDxfName
1000
SCALE
  0
SCALE
  5
17C
102
{ACAD_REACTORS
330
16A
102
}
330
16A
100
AcDbScale
 70
     0
300
1/128" = 1'-0"
140
0.0078125
141
12.0
290
     0
1001
ACAD
1000
AcRTDxfName
1000
SCALE
  0
SCALE
  5
17D
102
{ACAD_REACTORS
330
16A
102
}
330
16A
100
AcDbScale
 70
     0
300
1/64" = 1'-0"
140
0.015625
141
12.0
290
     0
1001
ACAD
1000
AcRTDxfName
1000
SCALE
  0
SCALE
  5
17E
102
{ACAD_REACTORS
330
16A
102
}
330
16A
100
AcDbScale
 70
     0
300
1/32" = 1'-0"
140
0.03125
141
12.0
290
     0
1001
ACAD
1000
AcRTDxfName
1000
SCALE
  0
SCALE
  5
17F
102
{ACAD_REACTORS
330
16A
102
}
330
16A
100
AcDbScale
 70
     0
300
1/16" = 1'-0"
140
0.0625
141
12.0
290
     0
1001
ACAD
1000
AcRTDxfName
1000
SCALE
  0
SCALE
  5
180
102
{ACAD_REACTORS
330
16A
102
}
330
16A
100
AcDbScale
 70
     0
300
3/32" = 1'-0"
140
0.09375
141
12.0
290
     0
1001
ACAD
1000
AcRTDxfName
1000
SCALE
  0
SCALE
  5
181
102
{ACAD_REACTORS
330
16A
102
}
330
16A
100
AcDbScale
 70
     0
300
1/8" = 1'-0"
140
0.125
141
12.0
290
     0
1001
ACAD
1000
AcRTDxfName
1000
SCALE
  0
SCALE
  5
182
102
{ACAD_REACTORS
330
16A
102
}
330
16A
100
AcDbScale
 70
     0
300
3/16" = 1'-0"
140
0.1875
141
12.0
290
     0
1001
ACAD
1000
AcRTDxfName
1000
SCALE
  0
SCALE
  5
183
102
{ACAD_REACTORS
330
16A
102
}
330
16A
100
AcDbScale
 70
     0
300
1/4" = 1'-0"
140
0.25
141
12.0
290
     0
1001
ACAD
1000
AcRTDxfName
1000
SCALE
  0
SCALE
  5
184
102
{ACAD_REACTORS
330
16A
102
}
330
16A
100
AcDbScale
 70
     0
300
3/8" = 1'-0"
140
0.375
141
12.0
290
     0
1001
ACAD
1000
AcRTDxfName
1000
SCALE
  0
SCALE
  5
185
102
{ACAD_REACTORS
330
16A
102
}
330
16A
100
AcDbScale
 70
     0
300
1/2" = 1'-0"
140
0.5
141
12.0
290
     0
1001
ACAD
1000
AcRTDxfName
1000
SCALE
  0
SCALE
  5
186
102
{ACAD_REACTORS
330
16A
102
}
330
16A
100
AcDbScale
 70
     0
300
3/4" = 1'-0"
140
0.75
141
12.0
290
     0
1001
ACAD
1000
AcRTDxfName
1000
SCALE
  0
SCALE
  5
187
102
{ACAD_REACTORS
330
16A
102
}
330
16A
100
AcDbScale
 70
     0
300
1" = 1'-0"
140
1.0
141
12.0
290
     0
1001
ACAD
1000
AcRTDxfName
1000
SCALE
  0
SCALE
  5
188
102
{ACAD_REACTORS
330
16A
102
}
330
16A
100
AcDbScale
 70
     0
300
1-1/2" = 1'-0"
140
1.5
141
12.0
290
     0
1001
ACAD
1000
AcRTDxfName
1000
SCALE
  0
SCALE
  5
189
102
{ACAD_REACTORS
330
16A
102
}
330
16A
100
AcDbScale
 70
     0
300
3" = 1'-0"
140
3.0
141
12.0
290
     0
1001
ACAD
1000
AcRTDxfName
1000
SCALE
  0
SCALE
  5
18A
102
{ACAD_REACTORS
330
16A
102
}
330
16A
100
AcDbScale
 70
     0
300
6" = 1'-0"
140
6.0
141
12.0
290
     0
1001
ACAD
1000
AcRTDxfName
1000
SCALE
  0
SCALE
  5
18B
102
{ACAD_REACTORS
330
16A
102
}
330
16A
100
AcDbScale
 70
     0
300
1'-0" = 1'-0"
140
12.0
141
12.0
290
     0
1001
ACAD
1000
AcRTDxfName
1000
SCALE
  0
TABLESTYLE
  5
1C1
102
{ACAD_XDICTIONARY
360
351
102
}
102
{ACAD_REACTORS
330
1C0
102
}
330
1C0
100
AcDbTableStyle
  3
Standard
 70
     0
 71
     0
 40
1.5
 41
1.5
280
     0
281
     0
  7
STANDARD
140
4.5
170
     2
 62
     0
 63
     7
283
     0
274
    -2
284
     1
 64
     0
275
    -2
285
     1
 65
     0
276
    -2
286
     1
 66
     0
277
    -2
287
     1
 67
     0
278
    -2
288
     1
 68
     0
279
    -2
289
     1
 69
     0
  7
STANDARD
140
6.0
170
     5
 62
     0
 63
     7
283
     0
274
    -2
284
     1
 64
     0
275
    -2
285
     1
 65
     0
276
    -2
286
     1
 66
     0
277
    -2
287
     1
 67
     0
278
    -2
288
     1
 68
     0
279
    -2
289
     1
 69
     0
  7
STANDARD
140
4.5
170
     5
 62
     0
 63
     7
283
     0
274
    -2
284
     1
 64
     0
275
    -2
285
     1
 65
     0
276
    -2
286
     1
 66
     0
277
    -2
287
     1
 67
     0
278
    -2
288
     1
 68
     0
279
    -2
289
     1
 69
     0
  0
VISUALSTYLE
  5
1B4
102
{ACAD_REACTORS
330
1AE
102
}
330
1AE
100
AcDbVisualStyle
  2
2dWireframe
 70
     4
 71
     0
 72
     2
 73
     0
 90
        0
 40
-0.6
 41
-30.0
 62
     5
 63
     7
 74
     1
 91
        4
 64
     7
 65
   257
 75
     1
175
     1
 42
1.0
 92
        0
 66
   257
 43
1.0
 76
     1
 77
     6
 78
     2
 67
     7
 79
     5
170
     0
171
     0
290
     0
174
     0
 93
        1
 44
0.0
173
     0
291
     0
 45
0.0
1001
ACAD
1000
AcDbSavedByObjectVersion
1070
     0
  0
VISUALSTYLE
  5
1B6
102
{ACAD_REACTORS
330
1AE
102
}
330
1AE
100
AcDbVisualStyle
  2
3D Hidden
 70
     6
 71
     1
 72
     2
 73
     2
 90
        0
 40
-0.6
 41
-30.0
 62
     5
 63
     7
 74
     2
 91
        2
 64
     7
 65
   257
 75
     2
175
     1
 42
40.0
 92
        0
 66
   257
 43
1.0
 76
     1
 77
     6
 78
     2
 67
     7
 79
     3
170
     0
171
     0
290
     0
174
     0
 93
        1
 44
0.0
173
     0
291
     0
 45
0.0
1001
ACAD
1000
AcDbSavedByObjectVersion
1070
     0
  0
VISUALSTYLE
  5
1B5
102
{ACAD_REACTORS
330
1AE
102
}
330
1AE
100
AcDbVisualStyle
  2
3dWireframe
 70
     5
 71
     0
 72
     2
 73
     0
 90
        0
 40
-0.6
 41
-30.0
 62
     5
 63
     7
 74
     1
 91
        4
 64
     7
 65
   257
 75
     1
175
     1
 42
1.0
 92
        0
 66
   257
 43
1.0
 76
     1
 77
     6
 78
     2
 67
     7
 79
     5
170
     0
171
     0
290
     0
174
     0
 93
        1
 44
0.0
173
     0
291
     0
 45
0.0
1001
ACAD
1000
AcDbSavedByObjectVersion
1070
     0
  0
VISUALSTYLE
  5
1B3
102
{ACAD_REACTORS
330
1AE
102
}
330
1AE
100
AcDbVisualStyle
  2
Basic
 70
     7
 71
     1
 72
     0
 73
     1
 90
        0
 40
-0.6
 41
-30.0
 62
     5
 63
     7
 74
     0
 91
        4
 64
     7
 65
   257
 75
     1
175
     1
 42
1.0
 92
        8
 66
     7
 43
1.0
 76
     1
 77
     6
 78
     2
 67
     7
 79
     5
170
     0
171
     0
290
     0
174
     0
 93
        1
 44
0.0
173
     0
291
     1
 45
0.0
1001
ACAD
1000
AcDbSavedByObjectVersion
1070
     0
  0
VISUALSTYLE
  5
1BA
102
{ACAD_REACTORS
330
1AE
102
}
330
1AE
100
AcDbVisualStyle
  2
Brighten
 70
    12
 71
     2
 72
     2
 73
     0
 90
        0
 40
-0.6
 41
-30.0
 62
     5
 63
     7
 74
     1
 91
        4
 64
     7
 65
   257
 75
     1
175
     1
 42
1.0
 92
        8
 66
     7
 43
1.0
 76
     1
 77
     6
 78
     2
 67
     7
 79
     5
170
     0
171
     0
290
     0
174
     0
 93
        1
 44
50.0
173
     0
291
     1
 45
0.0
1001
ACAD
1000
AcDbSavedByObjectVersion
1070
     0
  0
VISUALSTYLE
  5
1BE
102
{ACAD_REACTORS
330
1AE
102
}
330
1AE
100
AcDbVisualStyle
  2
ColorChange
 70
    16
 71
     2
 72
     2
 73
     3
 90
        0
 40
-0.6
 41
-30.0
 62
     5
 63
     8
 74
     1
 91
        4
 64
     7
 65
   257
 75
     1
175
     1
 42
1.0
 92
        8
 66
     8
 43
1.0
 76
     1
 77
     6
 78
     2
 67
     7
 79
     5
170
     0
171
     0
290
     0
174
     0
 93
        1
 44
0.0
173
     0
291
     1
 45
0.0
1001
ACAD
1000
AcDbSavedByObjectVersion
1070
     0
  0
VISUALSTYLE
  5
1B7
102
{ACAD_REACTORS
330
1AE
102
}
330
1AE
100
AcDbVisualStyle
  2
Conceptual
 70
     9
 71
     3
 72
     2
 73
     0
 90
        0
 40
-0.6
 41
-30.0
 62
     5
 63
     7
 74
     2
 91
        2
 64
     7
 65
   257
 75
     1
175
     1
 42
40.0
 92
        8
 66
     7
 43
1.0
 76
     1
 77
     6
 78
     2
 67
     7
 79
     3
170
     0
171
     0
290
     0
174
     0
 93
        1
 44
0.0
173
     0
291
     0
 45
0.0
1001
ACAD
1000
AcDbSavedByObjectVersion
1070
     0
  0
VISUALSTYLE
  5
1B9
102
{ACAD_REACTORS
330
1AE
102
}
330
1AE
100
AcDbVisualStyle
  2
Dim
 70
    11
 71
     2
 72
     2
 73
     0
 90
        0
 40
-0.6
 41
-30.0
 62
     5
 63
     7
 74
     1
 91
        4
 64
     7
 65
   257
 75
     1
175
     1
 42
1.0
 92
        8
 66
     7
 43
1.0
 76
     1
 77
     6
 78
     2
 67
     7
 79
     5
170
     0
171
     0
290
     0
174
     0
 93
        1
 44
-50.0
173
     0
291
     1
 45
0.0
1001
ACAD
1000
AcDbSavedByObjectVersion
1070
     0
  0
VISUALSTYLE
  5
1BD
102
{ACAD_REACTORS
330
1AE
102
}
330
1AE
100
AcDbVisualStyle
  2
Facepattern
 70
    15
 71
     2
 72
     2
 73
     0
 90
        0
 40
-0.6
 41
-30.0
 62
     5
 63
     7
 74
     1
 91
        4
 64
     7
 65
   257
 75
     1
175
     1
 42
1.0
 92
        8
 66
     7
 43
1.0
 76
     1
 77
     6
 78
     2
 67
     7
 79
     5
170
     0
171
     0
290
     0
174
     0
 93
        1
 44
0.0
173
     0
291
     1
 45
0.0
1001
ACAD
1000
AcDbSavedByObjectVersion
1070
     0
  0
VISUALSTYLE
  5
1AF
102
{ACAD_REACTORS
330
1AE
102
}
330
1AE
100
AcDbVisualStyle
  2
Flat
 70
     0
 71
     2
 72
     1
 73
     1
 90
        2
 40
-0.6
 41
30.0
 62
     5
 63
     7
 74
     0
 91
        4
 64
     7
 65
   257
 75
     1
175
     1
 42
1.0
 92
        8
 66
     7
 43
1.0
 76
     1
 77
     6
 78
     2
 67
     7
 79
     5
170
     0
171
     0
290
     0
174
     0
 93
       13
 44
0.0
173
     0
291
     1
 45
0.0
1001
ACAD
1000
AcDbSavedByObjectVersion
1070
     0
  0
VISUALSTYLE
  5
1B0
102
{ACAD_REACTORS
330
1AE
102
}
330
1AE
100
AcDbVisualStyle
  2
FlatWithEdges
 70
     1
 71
     2
 72
     1
 73
     1
 90
        2
 40
-0.6
 41
30.0
 62
     5
 63
     7
 74
     1
 91
        4
 64
     7
 65
   257
 75
     1
175
     1
 42
1.0
 92
        0
 66
   257
 43
1.0
 76
     1
 77
     6
 78
     2
 67
     7
 79
     5
170
     0
171
     0
290
     0
174
     0
 93
       13
 44
0.0
173
     0
291
     1
 45
0.0
1001
ACAD
1000
AcDbSavedByObjectVersion
1070
     0
  0
VISUALSTYLE
  5
1B1
102
{ACAD_REACTORS
330
1AE
102
}
330
1AE
100
AcDbVisualStyle
  2
Gouraud
 70
     2
 71
     2
 72
     2
 73
     1
 90
        2
 40
-0.6
 41
30.0
 62
     5
 63
     7
 74
     0
 91
        4
 64
     7
 65
   257
 75
     1
175
     1
 42
1.0
 92
        0
 66
     7
 43
1.0
 76
     1
 77
     6
 78
     2
 67
     7
 79
     5
170
     0
171
     0
290
     0
174
     0
 93
       13
 44
0.0
173
     0
291
     1
 45
0.0
1001
ACAD
1000
AcDbSavedByObjectVersion
1070
     0
  0
VISUALSTYLE
  5
1B2
102
{ACAD_REACTORS
330
1AE
102
}
330
1AE
100
AcDbVisualStyle
  2
GouraudWithEdges
 70
     3
 71
     2
 72
     2
 73
     1
 90
        2
 40
-0.6
 41
30.0
 62
     5
 63
     7
 74
     1
 91
        4
 64
     7
 65
   257
 75
     1
175
     1
 42
1.0
 92
        0
 66
   257
 43
1.0
 76
     1
 77
     6
 78
     2
 67
     7
 79
     5
170
     0
171
     0
290
     0
174
     0
 93
       13
 44
0.0
173
     0
291
     1
 45
0.0
1001
ACAD
1000
AcDbSavedByObjectVersion
1070
     0
  0
VISUALSTYLE
  5
1BC
102
{ACAD_REACTORS
330
1AE
102
}
330
1AE
100
AcDbVisualStyle
  2
Linepattern
 70
    14
 71
     2
 72
     2
 73
     0
 90
        0
 40
-0.6
 41
-30.0
 62
     5
 63
     7
 74
     1
 91
        4
 64
     7
 65
   257
 75
     7
175
     7
 42
1.0
 92
        8
 66
     7
 43
1.0
 76
     1
 77
     6
 78
     2
 67
     7
 79
     5
170
     0
171
     0
290
     0
174
     0
 93
        1
 44
0.0
173
     0
291
     1
 45
0.0
1001
ACAD
1000
AcDbSavedByObjectVersion
1070
     0
  0
VISUALSTYLE
  5
1B8
102
{ACAD_REACTORS
330
1AE
102
}
330
1AE
100
AcDbVisualStyle
  2
Realistic
 70
     8
 71
     2
 72
     2
 73
     0
 90
        0
 40
-0.6
 41
-30.0
 62
     5
 63
     7
 74
     1
 91
        0
 64
     7
 65
   257
 75
     1
175
     1
 42
1.0
 92
        8
 66
     8
 43
1.0
 76
     1
 77
     6
 78
     2
 67
     7
 79
     5
170
     0
171
     0
290
     0
174
     0
 93
       13
 44
0.0
173
     0
291
     0
 45
0.0
1001
ACAD
1000
AcDbSavedByObjectVersion
1070
     0
  0
VISUALSTYLE
  5
1BB
102
{ACAD_REACTORS
330
1AE
102
}
330
1AE
100
AcDbVisualStyle
  2
Thicken
 70
    13
 71
     2
 72
     2
 73
     0
 90
        0
 40
-0.6
 41
-30.0
 62
     5
 63
     7
 74
     1
 91
        4
 64
     7
 65
   257
 75
     1
175
     1
 42
1.0
 92
       12
 66
     7
 43
1.0
 76
     1
 77
     6
 78
     2
 67
     7
 79
     5
170
     0
171
     0
290
     0
174
     0
 93
        1
 44
0.0
173
     0
291
     1
 45
0.0
1001
ACAD
1000
AcDbSavedByObjectVersion
1070
     0
  0
DICTIONARYVAR
  5
1A2
102
{ACAD_REACTORS
330
19F
102
}
330
19F
100
DictionaryVariables
280
     0
  1
1:1
  0
DICTIONARYVAR
  5
28F
102
{ACAD_REACTORS
330
19F
102
}
330
19F
100
DictionaryVariables
280
     0
  1
STANDARD
  0
DICTIONARYVAR
  5
292
102
{ACAD_REACTORS
330
19F
102
}
330
19F
100
DictionaryVariables
280
     0
  1
1
  0
DICTIONARYVAR
  5
291
102
{ACAD_REACTORS
330
19F
102
}
330
19F
100
DictionaryVariables
280
     0
  1
0
  0
DICTIONARYVAR
  5
290
102
{ACAD_REACTORS
330
19F
102
}
330
19F
100
DictionaryVariables
280
     0
  1
127
  0
DICTIONARY
  5
349
330
169
100
AcDbDictionary
280
     1
281
     1
  3
ACAD_XREC_ROUNDTRIP
360
34A
  0
DICTIONARY
  5
347
330
168
100
AcDbDictionary
280
     1
281
     1
  3
ACAD_XREC_ROUNDTRIP
360
348
  0
DICTIONARY
  5
34D
330
1AC
100
AcDbDictionary
280
     1
281
     1
  3
ACAD_XREC_ROUNDTRIP
360
34E
  0
DICTIONARY
  5
34B
330
1AB
100
AcDbDictionary
280
     1
281
     1
  3
ACAD_XREC_ROUNDTRIP
360
34C
  0
DICTIONARY
  5
34F
330
1AD
100
AcDbDictionary
280
     1
281
     1
  3
ACAD_XREC_ROUNDTRIP
360
350
  0
DICTIONARY
  5
351
330
1C1
100
AcDbDictionary
280
     1
281
     1
  3
ACAD_XREC_ROUNDTRIP
360
352
  0
XRECORD
  5
34A
102
{ACAD_REACTORS
330
349
102
}
330
349
100
AcDbXrecord
280
     1
102
SHADEPLOT
 70
     0
102
SHADEPLOTRESLEVEL
 70
     2
102
SHADEPLOTCUSTOMDPI
 70
   300
  0
XRECORD
  5
348
102
{ACAD_REACTORS
330
347
102
}
330
347
100
AcDbXrecord
280
     1
102
SHADEPLOT
 70
     0
102
SHADEPLOTRESLEVEL
 70
     2
102
SHADEPLOTCUSTOMDPI
 70
   300
  0
XRECORD
  5
34E
102
{ACAD_REACTORS
330
34D
102
}
330
34D
100
AcDbXrecord
280
     1
102
MATERIAL
148
0.0
149
0.0
149
0.0
 93
        0
 94
       63
282
     0
 72
     1
 77
     1
171
     1
175
     1
179
     1
273
     0
  0
XRECORD
  5
34C
102
{ACAD_REACTORS
330
34B
102
}
330
34B
100
AcDbXrecord
280
     1
102
MATERIAL
148
0.0
149
0.0
149
0.0
 93
        0
 94
       63
282
     0
 72
     1
 77
     1
171
     1
175
     1
179
     1
273
     0
  0
XRECORD
  5
350
102
{ACAD_REACTORS
330
34F
102
}
330
34F
100
AcDbXrecord
280
     1
102
MATERIAL
148
0.0
149
0.0
149
0.0
 93
        0
 94
       63
282
     0
 72
     1
 77
     1
171
     1
175
     1
179
     1
273
     0
  0
XRECORD
  5
352
102
{ACAD_REACTORS
330
351
102
}
330
351
100
AcDbXrecord
280
     1
102
ACAD_ROUNDTRIP_PRE2007_TABLESTYLE
 90
      512
 91
        0
  1

 92
      512
 93
        0
  2

 94
      512
 95
        0
  3

  0
ENDSEC
  0
EOF
