  0
SECTION
  2
HEADER
  9
$ACADVER
  1
AC1015
  9
$ACADMAINTVER
 70
    20
  9
$DWGCODEPAGE
  3
ANSI_1252
  9
$INSBASE
 10
0.0
 20
0.0
 30
0.0
  9
$EXTMIN
 10
74.68048202185958
 20
11.81974057603406
 30
-0.0000610304997082
  9
$EXTMAX
 10
161.7105109311064
 20
261.8914222570164
 30
0.000091555062788
  9
$LIMMIN
 10
0.0
 20
0.0
  9
$LIMMAX
 10
420.0
 20
297.0
  9
$ORTHOMODE
 70
     0
  9
$REGENMODE
 70
     1
  9
$FILLMODE
 70
     1
  9
$QTEXTMODE
 70
     0
  9
$MIRRTEXT
 70
     1
  9
$LTSCALE
 40
1.0
  9
$ATTMODE
 70
     1
  9
$TEXTSIZE
 40
2.5
  9
$TRACEWID
 40
1.0
  9
$TEXTSTYLE
  7
STANDARD
  9
$CLAYER
  8
HAWA1
  9
$CELTYPE
  6
BYLAYER
  9
$CECOLOR
 62
   256
  9
$CELTSCALE
 40
1.0
  9
$DISPSILH
 70
     0
  9
$DIMSCALE
 40
1.0
  9
$DIMASZ
 40
2.0
  9
$DIMEXO
 40
2.0
  9
$DIMDLI
 40
0.0
  9
$DIMRND
 40
0.0
  9
$DIMDLE
 40
1.0
  9
$DIMEXE
 40
1.0
  9
$DIMTP
 40
0.0
  9
$DIMTM
 40
0.0
  9
$DIMTXT
 40
3.5
  9
$DIMCEN
 40
0.0
  9
$DIMTSZ
 40
0.0
  9
$DIMTOL
 70
     0
  9
$DIMLIM
 70
     0
  9
$DIMTIH
 70
     0
  9
$DIMTOH
 70
     0
  9
$DIMSE1
 70
     0
  9
$DIMSE2
 70
     0
  9
$DIMTAD
 70
     1
  9
$DIMZIN
 70
     8
  9
$DIMBLK
  1

  9
$DIMASO
 70
     1
  9
$DIMSHO
 70
     1
  9
$DIMPOST
  1

  9
$DIMAPOST
  1

  9
$DIMALT
 70
     1
  9
$DIMALTD
 70
     5
  9
$DIMALTF
 40
0.039370078740157
  9
$DIMLFAC
 40
1.0
  9
$DIMTOFL
 70
     1
  9
$DIMTVP
 40
0.0
  9
$DIMTIX
 70
     0
  9
$DIMSOXD
 70
     0
  9
$DIMSAH
 70
     1
  9
$DIMBLK1
  1
Oblique
  9
$DIMBLK2
  1
Oblique
  9
$DIMSTYLE
  2
HAWA-Strich
  9
$DIMCLRD
 70
   256
  9
$DIMCLRE
 70
   256
  9
$DIMCLRT
 70
   256
  9
$DIMTFAC
 40
0.7114285714285719
  9
$DIMGAP
 40
1.0
  9
$DIMJUST
 70
     0
  9
$DIMSD1
 70
     0
  9
$DIMSD2
 70
     0
  9
$DIMTOLJ
 70
     1
  9
$DIMTZIN
 70
     8
  9
$DIMALTZ
 70
     8
  9
$DIMALTTZ
 70
     8
  9
$DIMUPT
 70
     0
  9
$DIMDEC
 70
     1
  9
$DIMTDEC
 70
     1
  9
$DIMALTU
 70
     4
  9
$DIMALTTD
 70
     5
  9
$DIMTXSTY
  7
Beschlag
  9
$DIMAUNIT
 70
     0
  9
$DIMADEC
 70
     1
  9
$DIMALTRND
 40
0.0
  9
$DIMAZIN
 70
     2
  9
$DIMDSEP
 70
    46
  9
$DIMATFIT
 70
     3
  9
$DIMFRAC
 70
     0
  9
$DIMLDRBLK
  1
Oblique
  9
$DIMLUNIT
 70
     2
  9
$DIMLWD
 70
    -2
  9
$DIMLWE
 70
    -2
  9
$DIMTMOVE
 70
     0
  9
$LUNITS
 70
     2
  9
$LUPREC
 70
     4
  9
$SKETCHINC
 40
1.0
  9
$FILLETRAD
 40
2.5
  9
$AUNITS
 70
     0
  9
$AUPREC
 70
     0
  9
$MENU
  1
.
  9
$ELEVATION
 40
0.0
  9
$PELEVATION
 40
0.0
  9
$THICKNESS
 40
0.0
  9
$LIMCHECK
 70
     0
  9
$CHAMFERA
 40
2.5
  9
$CHAMFERB
 40
2.5
  9
$CHAMFERC
 40
0.0
  9
$CHAMFERD
 40
0.0
  9
$SKPOLY
 70
     0
  9
$TDCREATE
 40
2447893.000000000
  9
$TDUCREATE
 40
2447892.958333333
  9
$TDUPDATE
 40
2455230.385408345
  9
$TDUUPDATE
 40
2455230.343741678
  9
$TDINDWG
 40
0.0005332986
  9
$TDUSRTIMER
 40
0.0005331250
  9
$USRTIMER
 70
     1
  9
$ANGBASE
 50
0.0
  9
$ANGDIR
 70
     0
  9
$PDMODE
 70
     0
  9
$PDSIZE
 40
0.0
  9
$PLINEWID
 40
0.0
  9
$SPLFRAME
 70
     0
  9
$SPLINETYPE
 70
     6
  9
$SPLINESEGS
 70
     8
  9
$HANDSEED
  5
F96
  9
$SURFTAB1
 70
     6
  9
$SURFTAB2
 70
     6
  9
$SURFTYPE
 70
     6
  9
$SURFU
 70
     6
  9
$SURFV
 70
     6
  9
$UCSBASE
  2

  9
$UCSNAME
  2

  9
$UCSORG
 10
0.0
 20
0.0
 30
0.0
  9
$UCSXDIR
 10
1.0
 20
0.0
 30
0.0
  9
$UCSYDIR
 10
0.0
 20
1.0
 30
0.0
  9
$UCSORTHOREF
  2

  9
$UCSORTHOVIEW
 70
     0
  9
$UCSORGTOP
 10
0.0
 20
0.0
 30
0.0
  9
$UCSORGBOTTOM
 10
0.0
 20
0.0
 30
0.0
  9
$UCSORGLEFT
 10
0.0
 20
0.0
 30
0.0
  9
$UCSORGRIGHT
 10
0.0
 20
0.0
 30
0.0
  9
$UCSORGFRONT
 10
0.0
 20
0.0
 30
0.0
  9
$UCSORGBACK
 10
0.0
 20
0.0
 30
0.0
  9
$PUCSBASE
  2

  9
$PUCSNAME
  2

  9
$PUCSORG
 10
0.0
 20
0.0
 30
0.0
  9
$PUCSXDIR
 10
1.0
 20
0.0
 30
0.0
  9
$PUCSYDIR
 10
0.0
 20
1.0
 30
0.0
  9
$PUCSORTHOREF
  2

  9
$PUCSORTHOVIEW
 70
     0
  9
$PUCSORGTOP
 10
0.0
 20
0.0
 30
0.0
  9
$PUCSORGBOTTOM
 10
0.0
 20
0.0
 30
0.0
  9
$PUCSORGLEFT
 10
0.0
 20
0.0
 30
0.0
  9
$PUCSORGRIGHT
 10
0.0
 20
0.0
 30
0.0
  9
$PUCSORGFRONT
 10
0.0
 20
0.0
 30
0.0
  9
$PUCSORGBACK
 10
0.0
 20
0.0
 30
0.0
  9
$USERI1
 70
     0
  9
$USERI2
 70
     0
  9
$USERI3
 70
     0
  9
$USERI4
 70
     0
  9
$USERI5
 70
     0
  9
$USERR1
 40
0.0
  9
$USERR2
 40
0.0
  9
$USERR3
 40
0.0
  9
$USERR4
 40
0.0
  9
$USERR5
 40
0.0
  9
$WORLDVIEW
 70
     1
  9
$SHADEDGE
 70
     3
  9
$SHADEDIF
 70
    70
  9
$TILEMODE
 70
     1
  9
$MAXACTVP
 70
    48
  9
$PINSBASE
 10
0.0
 20
0.0
 30
0.0
  9
$PLIMCHECK
 70
     0
  9
$PEXTMIN
 10
0.0
 20
0.0
 30
0.0
  9
$PEXTMAX
 10
-11.370872
 20
366.596527
 30
2.0
  9
$PLIMMIN
 10
0.0
 20
0.0
  9
$PLIMMAX
 10
420.0
 20
297.0
  9
$UNITMODE
 70
     0
  9
$VISRETAIN
 70
     0
  9
$PLINEGEN
 70
     0
  9
$PSLTSCALE
 70
     1
  9
$TREEDEPTH
 70
  3020
  9
$CMLSTYLE
  2
STANDARD
  9
$CMLJUST
 70
     0
  9
$CMLSCALE
 40
20.0
  9
$PROXYGRAPHICS
 70
     1
  9
$MEASUREMENT
 70
     1
  9
$CELWEIGHT
370
    -1
  9
$ENDCAPS
280
     0
  9
$JOINSTYLE
280
     0
  9
$LWDISPLAY
290
     0
  9
$INSUNITS
 70
     0
  9
$HYPERLINKBASE
  1

  9
$STYLESHEET
  1

  9
$XEDIT
290
     1
  9
$CEPSNTYPE
380
     0
  9
$PSTYLEMODE
290
     1
  9
$FINGERPRINTGUID
  2
{76445213-66C3-4C89-8478-17CC6EC7DF82}
  9
$VERSIONGUID
  2
{9D8E88F4-11E2-42FC-BE15-20EFD2FD73D2}
  9
$EXTNAMES
290
     1
  9
$PSVPSCALE
 40
0.0
  9
$OLESTARTUP
290
     0
  0
ENDSEC
  0
SECTION
  2
CLASSES
  0
CLASS
  1
IMAGE
  2
AcDbRasterImage
  3
ISM
 90
    34943
280
     0
281
     1
  0
CLASS
  1
DICTIONARYVAR
  2
AcDbDictionaryVar
  3
ObjectDBX Classes
 90
        0
280
     0
281
     0
  0
CLASS
  1
RASTERVARIABLES
  2
AcDbRasterVariables
  3
ISM
 90
    32768
280
     0
281
     0
  0
CLASS
  1
IMAGEDEF
  2
AcDbRasterImageDef
  3
ISM
 90
    32768
280
     0
281
     0
  0
CLASS
  1
IMAGEDEF_REACTOR
  2
AcDbRasterImageDefReactor
  3
ISM
 90
    32769
280
     0
281
     0
  0
CLASS
  1
IDBUFFER
  2
AcDbIdBuffer
  3
ObjectDBX Classes
 90
    32768
280
     0
281
     0
  0
CLASS
  1
SPATIAL_FILTER
  2
AcDbSpatialFilter
  3
ObjectDBX Classes
 90
    32768
280
     0
281
     0
  0
CLASS
  1
SORTENTSTABLE
  2
AcDbSortentsTable
  3
ObjectDBX Classes
 90
    32768
280
     0
281
     0
  0
CLASS
  1
LAYER_INDEX
  2
AcDbLayerIndex
  3
ObjectDBX Classes
 90
    32768
280
     0
281
     0
  0
CLASS
  1
SPATIAL_INDEX
  2
AcDbSpatialIndex
  3
ObjectDBX Classes
 90
    32768
280
     0
281
     0
  0
CLASS
  1
OBJECT_PTR
  2
CAseDLPNTableRecord
  3
ASE-LPNTableRecord
 90
    32769
280
     0
281
     0
  0
CLASS
  1
LAYOUT
  2
AcDbLayout
  3
ObjectDBX Classes
 90
        0
280
     0
281
     0
  0
CLASS
  1
PLOTSETTINGS
  2
AcDbPlotSettings
  3
ObjectDBX Classes
 90
    32768
280
     0
281
     0
  0
CLASS
  1
ACDBDICTIONARYWDFLT
  2
AcDbDictionaryWithDefault
  3
ObjectDBX Classes
 90
        0
280
     0
281
     0
  0
CLASS
  1
ACDBPLACEHOLDER
  2
AcDbPlaceHolder
  3
ObjectDBX Classes
 90
        0
280
     0
281
     0
  0
CLASS
  1
VBA_PROJECT
  2
AcDbVbaProject
  3
acad
 90
    32768
280
     0
281
     0
  0
CLASS
  1
WIPEOUT
  2
AcDbWipeout
  3
"WipeOut|Product Desc: Object Enabler for WipeOut entity                        |Company: Autodesk, Inc.                        |WEB Address: www.autodesk.com"
 90
    34943
280
     0
281
     1
  0
CLASS
  1
WIPEOUTVARIABLES
  2
AcDbWipeoutVariables
  3
"WipeOut|Product Desc:     WipeOut Dbx Application|Company:          Autodesk, Inc.|WEB Address:      www.autodesk.com"
 90
    32768
280
     0
281
     0
  0
CLASS
  1
RTEXT
  2
RText
  3
RText|AutoCAD Express Tool|expresstools@autodesk.com
 90
    32768
280
     0
281
     1
  0
CLASS
  1
ARCALIGNEDTEXT
  2
AcDbArcAlignedText
  3
ATEXT|AutoCAD Express Tool|expresstools@autodesk.com
 90
    32768
280
     0
281
     1
  0
CLASS
  1
MATERIAL
  2
AcDbMaterial
  3
ObjectDBX Classes
 90
     1024
280
     0
281
     0
  0
CLASS
  1
VISUALSTYLE
  2
AcDbVisualStyle
  3
ObjectDBX Classes
 90
     4095
280
     0
281
     0
  0
CLASS
  1
TABLESTYLE
  2
AcDbTableStyle
  3
ObjectDBX Classes
 90
     4095
280
     0
281
     0
  0
ENDSEC
  0
SECTION
  2
TABLES
  0
TABLE
  2
VPORT
  5
7
330
0
100
AcDbSymbolTable
 70
     1
  0
VPORT
  5
15
330
7
100
AcDbSymbolTableRecord
100
AcDbViewportTableRecord
  2
*ACTIVE
 70
     0
 10
0.0
 20
0.0
 11
1.0
 21
1.0
 12
118.195496476483
 22
136.8555814165252
 13
0.0
 23
0.0
 14
1.0
 24
1.0
 15
0.0
 25
0.0
 16
0.0
 26
0.0
 36
1.0
 17
0.0
 27
0.0
 37
0.0
 40
251.7079195109561
 41
1.811135371179039
 42
50.0
 43
0.0
 44
0.0
 50
0.0
 51
0.0
 71
     0
 72
   100
 73
     1
 74
     1
 75
     0
 76
     0
 77
     0
 78
     0
281
     0
 65
     1
110
0.0
120
0.0
130
0.0
111
1.0
121
0.0
131
0.0
112
0.0
122
1.0
132
0.0
 79
     0
146
0.0
  0
ENDTAB
  0
TABLE
  2
LTYPE
  5
4
330
0
100
AcDbSymbolTable
 70
     8
  0
LTYPE
  5
11
330
4
100
AcDbSymbolTableRecord
100
AcDbLinetypeTableRecord
  2
BYBLOCK
 70
     0
  3

 72
    65
 73
     0
 40
0.0
  0
LTYPE
  5
12
330
4
100
AcDbSymbolTableRecord
100
AcDbLinetypeTableRecord
  2
BYLAYER
 70
     0
  3

 72
    65
 73
     0
 40
0.0
  0
LTYPE
  5
13
330
4
100
AcDbSymbolTableRecord
100
AcDbLinetypeTableRecord
  2
CONTINUOUS
 70
     0
  3
Solid line
 72
    65
 73
     0
 40
0.0
  0
LTYPE
  5
1E
330
4
100
AcDbSymbolTableRecord
100
AcDbLinetypeTableRecord
  2
DASHDOT
 70
     0
  3
 __ . __ . __ . __ . __ . __ . __ . 
 72
    65
 73
     4
 40
18.5
 49
12.0
 74
     0
 49
-3.0
 74
     0
 49
0.5
 74
     0
 49
-3.0
 74
     0
  0
LTYPE
  5
22
330
4
100
AcDbSymbolTableRecord
100
AcDbLinetypeTableRecord
  2
PHANTOM
 70
     0
  3
____________    ____    ____   _
 72
    65
 73
     6
 40
20.0
 49
10.0
 74
     0
 49
-2.0
 74
     0
 49
2.0
 74
     0
 49
-2.0
 74
     0
 49
2.0
 74
     0
 49
-2.0
 74
     0
  0
ENDTAB
  0
TABLE
  2
LAYER
  5
2
330
0
100
AcDbSymbolTable
 70
     8
  0
LAYER
  5
E57
330
2
100
AcDbSymbolTableRecord
100
AcDbLayerTableRecord
  2
0
 70
     0
 62
     7
  6
CONTINUOUS
370
    -3
390
E59
  0
LAYER
  5
E53
330
2
100
AcDbSymbolTableRecord
100
AcDbLayerTableRecord
  2
Hawa2
 70
     0
 62
     9
  6
CONTINUOUS
370
     0
390
E59
  0
LAYER
  5
E54
330
2
100
AcDbSymbolTableRecord
100
AcDbLayerTableRecord
  2
Hawa4
 70
     0
 62
     4
  6
CONTINUOUS
370
     0
390
E59
  0
LAYER
  5
E55
330
2
100
AcDbSymbolTableRecord
100
AcDbLayerTableRecord
  2
Hawa5
 70
     0
 62
     1
  6
CONTINUOUS
370
    -3
390
E59
  0
LAYER
  5
E56
330
2
100
AcDbSymbolTableRecord
100
AcDbLayerTableRecord
  2
Hawa6
 70
     0
 62
     3
  6
CONTINUOUS
370
    -3
390
E59
  0
LAYER
  5
14
330
2
100
AcDbSymbolTableRecord
100
AcDbLayerTableRecord
  2
HAWA1
 70
     0
 62
     2
  6
CONTINUOUS
370
     0
390
E59
  0
LAYER
  5
E7E
330
2
100
AcDbSymbolTableRecord
100
AcDbLayerTableRecord
  2
Defpoints
 70
     0
 62
     7
  6
CONTINUOUS
290
     0
370
    -3
390
E59
  0
ENDTAB
  0
TABLE
  2
STYLE
  5
3
330
0
100
AcDbSymbolTable
 70
     3
  0
STYLE
  5
17
330
3
100
AcDbSymbolTableRecord
100
AcDbTextStyleTableRecord
  2
STANDARD
 70
     0
 40
0.0
 41
1.0
 50
0.0
 71
     0
 42
2.5
  3
isocp.shx
  4

  0
STYLE
  5
E80
330
3
100
AcDbSymbolTableRecord
100
AcDbTextStyleTableRecord
  2
Beschlag
 70
     0
 40
0.0
 41
0.9
 50
0.0
 71
     0
 42
3.5
  3
ARIAL.TTF
  4

1001
ACAD
1000
Arial
1071
       34
  0
ENDTAB
  0
TABLE
  2
VIEW
  5
5
330
0
100
AcDbSymbolTable
 70
     0
  0
ENDTAB
  0
TABLE
  2
UCS
  5
6
330
0
100
AcDbSymbolTable
 70
     0
  0
ENDTAB
  0
TABLE
  2
APPID
  5
8
330
0
100
AcDbSymbolTable
 70
     2
  0
APPID
  5
16
330
8
100
AcDbSymbolTableRecord
100
AcDbRegAppTableRecord
  2
ACAD
 70
     0
  0
APPID
  5
E82
330
8
100
AcDbSymbolTableRecord
100
AcDbRegAppTableRecord
  2
ACAD_PSEXT
 70
     0
  0
ENDTAB
  0
TABLE
  2
DIMSTYLE
  5
9
330
0
100
AcDbSymbolTable
 70
     2
100
AcDbDimStyleTable
 71
     1
340
E81
  0
DIMSTYLE
105
18
330
9
100
AcDbSymbolTableRecord
100
AcDbDimStyleTableRecord
  2
STANDARD
 70
     0
 41
2.5
 42
0.625
 43
3.75
 44
1.25
 73
     0
 74
     0
 77
     1
 78
     8
140
2.5
141
2.5
143
0.03937
147
0.625
171
     3
172
     1
271
     2
272
     2
274
     3
283
     0
284
     8
289
     0
340
17
  0
DIMSTYLE
105
E81
102
{ACAD_REACTORS
330
49
330
47
330
45
330
43
330
41
330
3F
330
3D
330
2C
330
2A
330
28
330
26
102
}
330
9
100
AcDbSymbolTableRecord
100
AcDbDimStyleTableRecord
  2
HAWA-Strich
 70
     0
 41
2.0
 42
2.0
 43
0.0
 44
1.0
 46
1.0
 73
     0
 74
     0
 77
     1
 78
     8
 79
     2
140
3.5
141
0.0
143
0.039370078740157
146
0.7114285714285719
147
1.0
170
     1
171
     5
172
     1
173
     1
176
   256
177
   256
178
   256
179
     1
271
     1
272
     1
273
     4
274
     5
284
     8
285
     8
286
     8
340
E80
341
E7A
343
E7A
344
E7A
  0
ENDTAB
  0
TABLE
  2
BLOCK_RECORD
  5
1
330
0
100
AcDbSymbolTable
 70
    22
  0
BLOCK_RECORD
  5
A
330
1
100
AcDbSymbolTableRecord
100
AcDbBlockTableRecord
  2
*MODEL_SPACE
340
9A1
  0
BLOCK_RECORD
  5
B
330
1
100
AcDbSymbolTableRecord
100
AcDbBlockTableRecord
  2
*PAPER_SPACE
340
9A2
  0
BLOCK_RECORD
  5
25
330
1
100
AcDbSymbolTableRecord
100
AcDbBlockTableRecord
  2
*D0
340
0
  0
BLOCK_RECORD
  5
27
330
1
100
AcDbSymbolTableRecord
100
AcDbBlockTableRecord
  2
*D1
340
0
  0
BLOCK_RECORD
  5
29
330
1
100
AcDbSymbolTableRecord
100
AcDbBlockTableRecord
  2
*D2
340
0
  0
BLOCK_RECORD
  5
2B
330
1
100
AcDbSymbolTableRecord
100
AcDbBlockTableRecord
  2
*D3
340
0
  0
BLOCK_RECORD
  5
3C
330
1
100
AcDbSymbolTableRecord
100
AcDbBlockTableRecord
  2
*D9
340
0
  0
BLOCK_RECORD
  5
3E
330
1
100
AcDbSymbolTableRecord
100
AcDbBlockTableRecord
  2
*D10
340
0
  0
BLOCK_RECORD
  5
40
330
1
100
AcDbSymbolTableRecord
100
AcDbBlockTableRecord
  2
*D11
340
0
  0
BLOCK_RECORD
  5
42
330
1
100
AcDbSymbolTableRecord
100
AcDbBlockTableRecord
  2
*D12
340
0
  0
BLOCK_RECORD
  5
44
330
1
100
AcDbSymbolTableRecord
100
AcDbBlockTableRecord
  2
*D13
340
0
  0
BLOCK_RECORD
  5
46
330
1
100
AcDbSymbolTableRecord
100
AcDbBlockTableRecord
  2
*D14
340
0
  0
BLOCK_RECORD
  5
48
330
1
100
AcDbSymbolTableRecord
100
AcDbBlockTableRecord
  2
*D15
340
0
  0
BLOCK_RECORD
  5
E7A
330
1
100
AcDbSymbolTableRecord
100
AcDbBlockTableRecord
  2
_Oblique
340
0
102
{BLKREFS
331
EFC
331
EFD
331
F05
331
F06
331
F0E
331
F0F
331
F17
331
F18
331
F20
331
F21
331
F33
331
F34
331
F3C
331
F3D
331
F45
331
F46
331
F4F
331
F50
331
F77
331
F78
331
F81
331
F82
102
}
  0
BLOCK_RECORD
  5
E8E
330
1
100
AcDbSymbolTableRecord
100
AcDbBlockTableRecord
  2
HAWA
340
0
102
{BLKREFS
331
E91
102
}
  0
ENDTAB
  0
ENDSEC
  0
SECTION
  2
BLOCKS
  0
BLOCK
  5
D
330
A
100
AcDbEntity
  8
HAWA1
100
AcDbBlockBegin
  2
*MODEL_SPACE
 70
     0
 10
0.0
 20
0.0
 30
0.0
  3
*MODEL_SPACE
  1

  0
ENDBLK
  5
E
330
A
100
AcDbEntity
  8
HAWA1
100
AcDbBlockEnd
  0
BLOCK
  5
F
330
B
100
AcDbEntity
 67
     1
  8
HAWA1
100
AcDbBlockBegin
  2
*PAPER_SPACE
 70
     0
 10
0.0
 20
0.0
 30
0.0
  3
*PAPER_SPACE
  1

  0
ENDBLK
  5
10
330
B
100
AcDbEntity
 67
     1
  8
HAWA1
100
AcDbBlockEnd
  0
BLOCK
  5
6C
330
25
100
AcDbEntity
  8
HAWA1
100
AcDbBlockBegin
  2
*D0
 70
     1
 10
0.0
 20
0.0
 30
0.0
  3
*D0
  1

  0
LINE
  5
F7D
330
25
100
AcDbEntity
  8
HAWA1
370
    -2
100
AcDbLine
 10
111.249315
 20
76.63014799999999
 30
0.0
 11
111.249315
 21
91.66133859993179
 31
0.0
  0
LINE
  5
F7E
330
25
100
AcDbEntity
  8
HAWA1
370
    -2
100
AcDbLine
 10
121.249315
 20
76.63014799999999
 30
0.0
 11
121.249315
 21
91.66133859993179
 31
0.0
  0
LINE
  5
F7F
330
25
100
AcDbEntity
  8
HAWA1
370
    -2
100
AcDbLine
 10
110.249315
 20
90.66133859993177
 30
0.0
 11
121.249315
 21
90.66133859993177
 31
0.0
  0
LINE
  5
F80
330
25
100
AcDbEntity
  8
HAWA1
370
    -2
100
AcDbLine
 10
121.249315
 20
90.66133859993177
 30
0.0
 11
150.5035206013862
 21
90.66133859993177
 31
0.0
  0
INSERT
  5
F81
330
25
100
AcDbEntity
  8
HAWA1
370
    -2
100
AcDbBlockReference
  2
_Oblique
 10
111.249315
 20
90.66133859993177
 30
0.0
 41
2.0
 42
2.0
 43
2.0
 50
180.0
  0
INSERT
  5
F82
330
25
100
AcDbEntity
  8
HAWA1
370
    -2
100
AcDbBlockReference
  2
_Oblique
 10
121.249315
 20
90.66133859993177
 30
0.0
 41
2.0
 42
2.0
 43
2.0
  0
MTEXT
  5
F83
330
25
100
AcDbEntity
  8
HAWA1
100
AcDbMText
 10
143.1558858995786
 20
95.10653819986357
 30
0.0
 40
3.5
 41
0.0
 71
     5
 72
     1
  1
\A1;10 [{\H0.711429x;\S13/32;}"]
  7
Beschlag
 73
     1
 44
1.0
1001
ACAD
1000
MTEXTBEGIN
1070
    73
1070
     1
1070
    44
1040
1.0
1070
    74
1070
     0
1000
MTEXTEND
  0
POINT
  5
F84
330
25
100
AcDbEntity
  8
Defpoints
 62
     0
100
AcDbPoint
 10
111.249315
 20
74.63014799999999
 30
0.0
  0
POINT
  5
F85
330
25
100
AcDbEntity
  8
Defpoints
 62
     0
100
AcDbPoint
 10
121.249315
 20
74.63014799999999
 30
0.0
  0
POINT
  5
F86
330
25
100
AcDbEntity
  8
Defpoints
 62
     0
100
AcDbPoint
 10
121.249315
 20
90.66133859993177
 30
0.0
  0
ENDBLK
  5
78
330
25
100
AcDbEntity
  8
HAWA1
100
AcDbBlockEnd
  0
BLOCK
  5
79
330
27
100
AcDbEntity
  8
HAWA1
100
AcDbBlockBegin
  2
*D1
 70
     1
 10
0.0
 20
0.0
 30
0.0
  3
*D1
  1

  0
LINE
  5
F4B
330
27
100
AcDbEntity
  8
HAWA1
370
    -2
100
AcDbLine
 10
138.2493149999307
 20
54.63013134955892
 30
0.0
 11
152.262495570856
 21
54.63001468674031
 31
0.0
  0
LINE
  5
F4C
330
27
100
AcDbEntity
  8
HAWA1
370
    -2
100
AcDbLine
 10
120.5082679999306
 20
68.63013134955891
 30
0.0
 11
152.2626121227138
 21
68.62986698764124
 31
0.0
  0
LINE
  5
F4D
330
27
100
AcDbEntity
  8
HAWA1
370
    -2
100
AcDbLine
 10
151.2624872456701
 20
53.6300230119955
 30
0.0
 11
151.2626121227485
 21
68.62987531286177
 31
0.0
  0
LINE
  5
F4E
330
27
100
AcDbEntity
  8
HAWA1
370
    -2
100
AcDbLine
 10
151.2626121227485
 20
68.62987531286177
 30
0.0
 11
151.2627495492069
 21
85.13712072814922
 31
0.0
  0
INSERT
  5
F4F
330
27
100
AcDbEntity
  8
HAWA1
370
    -2
100
AcDbBlockReference
  2
_Oblique
 10
151.2624955708907
 20
54.63002301196084
 30
0.0
 41
2.0
 42
2.0
 43
2.0
 50
269.9995229999999
  0
INSERT
  5
F50
330
27
100
AcDbEntity
  8
HAWA1
370
    -2
100
AcDbBlockReference
  2
_Oblique
 10
151.2626121227485
 20
68.62987531286177
 30
0.0
 41
2.0
 42
2.0
 43
2.0
 50
89.999523
  0
MTEXT
  5
F51
330
27
100
AcDbEntity
  8
HAWA1
100
AcDbMText
 10
146.8191880617616
 20
77.88353501359742
 30
0.0
 40
3.5
 41
0.0
 71
     5
 72
     1
  1
\A1;14 [{\H0.711429x;\S9/16;}"]
  7
Beschlag
 11
0.000008325220532
 21
0.9999999999653454
 31
0.0
 73
     1
 44
1.0
1001
ACAD
1000
MTEXTBEGIN
1070
    73
1070
     1
1070
    44
1040
1.0
1070
    74
1070
     0
1000
MTEXTEND
  0
POINT
  5
F52
330
27
100
AcDbEntity
  8
Defpoints
 62
     0
100
AcDbPoint
 10
136.249315
 20
54.63014799999999
 30
0.0
  0
POINT
  5
F53
330
27
100
AcDbEntity
  8
Defpoints
 62
     0
100
AcDbPoint
 10
118.508268
 20
68.63014799999998
 30
0.0
  0
POINT
  5
F54
330
27
100
AcDbEntity
  8
Defpoints
 62
     0
100
AcDbPoint
 10
151.2626121227485
 20
68.62987531286177
 30
0.0
  0
ENDBLK
  5
85
330
27
100
AcDbEntity
  8
HAWA1
100
AcDbBlockEnd
  0
BLOCK
  5
86
330
29
100
AcDbEntity
  8
HAWA1
100
AcDbBlockBegin
  2
*D2
 70
     1
 10
0.0
 20
0.0
 30
0.0
  3
*D2
  1

  0
LINE
  5
F42
330
29
100
AcDbEntity
  8
HAWA1
370
    -2
100
AcDbLine
 10
94.2493150000693
 20
54.63016465044105
 30
0.0
 11
82.188044365544
 21
54.63026506317899
 31
0.0
  0
LINE
  5
F43
330
29
100
AcDbEntity
  8
HAWA1
370
    -2
100
AcDbLine
 10
109.2493150000692
 20
74.63016465044105
 30
0.0
 11
82.18821087099426
 21
74.63038994010076
 31
0.0
  0
LINE
  5
F44
330
29
100
AcDbEntity
  8
HAWA1
370
    -2
100
AcDbLine
 10
83.18803604028881
 20
53.63025673799311
 30
0.0
 11
83.18821919618015
 21
75.63038161484557
 31
0.0
  0
INSERT
  5
F45
330
29
100
AcDbEntity
  8
HAWA1
370
    -2
100
AcDbBlockReference
  2
_Oblique
 10
83.18804436550934
 20
54.63025673795846
 30
0.0
 41
2.0
 42
2.0
 43
2.0
 50
269.9995229999999
  0
INSERT
  5
F46
330
29
100
AcDbEntity
  8
HAWA1
370
    -2
100
AcDbBlockReference
  2
_Oblique
 10
83.1882108709596
 20
74.63038161488023
 30
0.0
 41
2.0
 42
2.0
 43
2.0
 50
89.999523
  0
MTEXT
  5
F47
330
29
100
AcDbEntity
  8
HAWA1
100
AcDbMText
 10
78.74377726862725
 20
64.63035617661614
 30
0.0
 40
3.5
 41
0.0
 71
     5
 72
     1
  1
\A1;20 [{\H0.711429x;\S25/32;}"]
  7
Beschlag
 11
0.000008325220532
 21
0.9999999999653454
 31
0.0
 73
     1
 44
1.0
1001
ACAD
1000
MTEXTBEGIN
1070
    73
1070
     1
1070
    44
1040
1.0
1070
    74
1070
     0
1000
MTEXTEND
  0
POINT
  5
F48
330
29
100
AcDbEntity
  8
Defpoints
 62
     0
100
AcDbPoint
 10
96.249315
 20
54.63014799999999
 30
0.0
  0
POINT
  5
F49
330
29
100
AcDbEntity
  8
Defpoints
 62
     0
100
AcDbPoint
 10
111.2493149999999
 20
74.63014799999998
 30
0.0
  0
POINT
  5
F4A
330
29
100
AcDbEntity
  8
Defpoints
 62
     0
100
AcDbPoint
 10
83.1882108709596
 20
74.63038161488023
 30
0.0
  0
ENDBLK
  5
92
330
29
100
AcDbEntity
  8
HAWA1
100
AcDbBlockEnd
  0
BLOCK
  5
93
330
2B
100
AcDbEntity
  8
HAWA1
100
AcDbBlockBegin
  2
*D3
 70
     1
 10
0.0
 20
0.0
 30
0.0
  3
*D3
  1

  0
LINE
  5
F39
330
2B
100
AcDbEntity
  8
HAWA1
370
    -2
100
AcDbLine
 10
99.24931499999999
 20
42.63014799999999
 30
0.0
 11
99.24931499999999
 21
11.822175
 31
0.0
  0
LINE
  5
F3A
330
2B
100
AcDbEntity
  8
HAWA1
370
    -2
100
AcDbLine
 10
133.249315
 20
42.63014799999999
 30
0.0
 11
133.249315
 21
11.822175
 31
0.0
  0
LINE
  5
F3B
330
2B
100
AcDbEntity
  8
HAWA1
370
    -2
100
AcDbLine
 10
98.24931499999999
 20
12.822175
 30
0.0
 11
134.249315
 21
12.822175
 31
0.0
  0
INSERT
  5
F3C
330
2B
100
AcDbEntity
  8
HAWA1
370
    -2
100
AcDbBlockReference
  2
_Oblique
 10
99.24931499999999
 20
12.822175
 30
0.0
 41
2.0
 42
2.0
 43
2.0
 50
180.0
  0
INSERT
  5
F3D
330
2B
100
AcDbEntity
  8
HAWA1
370
    -2
100
AcDbBlockReference
  2
_Oblique
 10
133.249315
 20
12.822175
 30
0.0
 41
2.0
 42
2.0
 43
2.0
  0
MTEXT
  5
F3E
330
2B
100
AcDbEntity
  8
HAWA1
100
AcDbMText
 10
116.249315
 20
17.24529409549795
 30
0.0
 40
3.5
 41
0.0
 71
     5
 72
     1
  1
\A1;34 [1{\H0.711429x;\S11/32;}"]
  7
Beschlag
 73
     1
 44
1.0
1001
ACAD
1000
MTEXTBEGIN
1070
    73
1070
     1
1070
    44
1040
1.0
1070
    74
1070
     0
1000
MTEXTEND
  0
POINT
  5
F3F
330
2B
100
AcDbEntity
  8
Defpoints
 62
     0
100
AcDbPoint
 10
99.24931499999999
 20
44.63014799999999
 30
0.0
  0
POINT
  5
F40
330
2B
100
AcDbEntity
  8
Defpoints
 62
     0
100
AcDbPoint
 10
133.249315
 20
44.63014799999999
 30
0.0
  0
POINT
  5
F41
330
2B
100
AcDbEntity
  8
Defpoints
 62
     0
100
AcDbPoint
 10
133.249315
 20
12.822175
 30
0.0
  0
ENDBLK
  5
A0
330
2B
100
AcDbEntity
  8
HAWA1
100
AcDbBlockEnd
  0
BLOCK
  5
4EB
330
3C
100
AcDbEntity
  8
HAWA1
100
AcDbBlockBegin
  2
*D9
 70
     1
 10
0.0
 20
0.0
 30
0.0
  3
*D9
  1

  0
LINE
  5
F30
330
3C
100
AcDbEntity
  8
HAWA1
370
    -2
100
AcDbLine
 10
93.24924839823577
 20
151.4510400011089
 30
0.0
 11
93.24819784496794
 21
119.9037295308239
 31
0.0
  0
LINE
  5
F31
330
3C
100
AcDbEntity
  8
HAWA1
370
    -2
100
AcDbLine
 10
139.2492483982357
 20
151.4510400011089
 30
0.0
 11
139.2481977939563
 21
119.9021976902471
 31
0.0
  0
LINE
  5
F32
330
3C
100
AcDbEntity
  8
HAWA1
370
    -2
100
AcDbLine
 10
92.24823114640454
 20
120.9037628311515
 30
0.0
 11
140.2482310942839
 21
120.9021643888105
 31
0.0
  0
INSERT
  5
F33
330
3C
100
AcDbEntity
  8
HAWA1
370
    -2
100
AcDbBlockReference
  2
_Oblique
 10
93.24823114585006
 20
120.9037295302694
 30
0.0
 41
2.0
 42
2.0
 43
2.0
 50
179.998092
  0
INSERT
  5
F34
330
3C
100
AcDbEntity
  8
HAWA1
370
    -2
100
AcDbBlockReference
  2
_Oblique
 10
139.2482310948384
 20
120.9021976896927
 30
0.0
 41
2.0
 42
2.0
 43
2.0
 50
359.998092
  0
MTEXT
  5
F35
330
3C
100
AcDbEntity
  8
HAWA1
100
AcDbMText
 10
116.2483791211313
 20
125.347313957278
 30
0.0
 40
3.5
 41
0.0
 71
     5
 72
     1
  1
\A1;46 [1{\H0.711429x;\S13/16;}"]
  7
Beschlag
 11
0.9999999994455256
 21
-0.0000333008821221
 31
0.0
 73
     1
 44
1.0
1001
ACAD
1000
MTEXTBEGIN
1070
    73
1070
     1
1070
    44
1040
1.0
1070
    74
1070
     0
1000
MTEXTEND
  0
POINT
  5
F36
330
3C
100
AcDbEntity
  8
Defpoints
 62
     0
100
AcDbPoint
 10
93.24931500000001
 20
153.45104
 30
0.0
  0
POINT
  5
F37
330
3C
100
AcDbEntity
  8
Defpoints
 62
     0
100
AcDbPoint
 10
139.249315
 20
153.45104
 30
0.0
  0
POINT
  5
F38
330
3C
100
AcDbEntity
  8
Defpoints
 62
     0
100
AcDbPoint
 10
139.2482310948384
 20
120.9021976896927
 30
0.0
  0
ENDBLK
  5
4F8
330
3C
100
AcDbEntity
  8
HAWA1
100
AcDbBlockEnd
  0
BLOCK
  5
4F9
330
3E
100
AcDbEntity
  8
HAWA1
100
AcDbBlockBegin
  2
*D10
 70
     1
 10
0.0
 20
0.0
 30
0.0
  3
*D10
  1

  0
LINE
  5
F73
330
3E
100
AcDbEntity
  8
HAWA1
370
    -2
100
AcDbLine
 10
113.599315
 20
223.25104
 30
0.0
 11
113.599315
 21
242.8381708314411
 31
0.0
  0
LINE
  5
F74
330
3E
100
AcDbEntity
  8
HAWA1
370
    -2
100
AcDbLine
 10
118.899315
 20
223.25104
 30
0.0
 11
118.899315
 21
242.8381708314411
 31
0.0
  0
LINE
  5
F75
330
3E
100
AcDbEntity
  8
HAWA1
370
    -2
100
AcDbLine
 10
112.599315
 20
241.8381708314411
 30
0.0
 11
118.899315
 21
241.8381708314411
 31
0.0
  0
LINE
  5
F76
330
3E
100
AcDbEntity
  8
HAWA1
370
    -2
100
AcDbLine
 10
118.899315
 20
241.8381708314411
 30
0.0
 11
152.4490886865797
 21
241.8381708314411
 31
0.0
  0
INSERT
  5
F77
330
3E
100
AcDbEntity
  8
HAWA1
370
    -2
100
AcDbBlockReference
  2
_Oblique
 10
113.599315
 20
241.8381708314411
 30
0.0
 41
2.0
 42
2.0
 43
2.0
 50
180.0
  0
INSERT
  5
F78
330
3E
100
AcDbEntity
  8
HAWA1
370
    -2
100
AcDbBlockReference
  2
_Oblique
 10
118.899315
 20
241.8381708314411
 30
0.0
 41
2.0
 42
2.0
 43
2.0
  0
MTEXT
  5
F79
330
3E
100
AcDbEntity
  8
HAWA1
100
AcDbMText
 10
142.6282957310204
 20
246.2400586726757
 30
0.0
 40
3.5
 41
0.0
 71
     5
 72
     1
  1
\A1;%%c5.3 [{\H0.711429x;\S7/32;}"]
  7
Beschlag
 73
     1
 44
1.0
1001
ACAD
1000
MTEXTBEGIN
1070
    73
1070
     1
1070
    44
1040
1.0
1070
    74
1070
     0
1000
MTEXTEND
  0
POINT
  5
F7A
330
3E
100
AcDbEntity
  8
Defpoints
 62
     0
100
AcDbPoint
 10
113.599315
 20
221.25104
 30
0.0
  0
POINT
  5
F7B
330
3E
100
AcDbEntity
  8
Defpoints
 62
     0
100
AcDbPoint
 10
118.899315
 20
221.25104
 30
0.0
  0
POINT
  5
F7C
330
3E
100
AcDbEntity
  8
Defpoints
 62
     0
100
AcDbPoint
 10
118.899315
 20
241.8381708314411
 30
0.0
  0
ENDBLK
  5
506
330
3E
100
AcDbEntity
  8
HAWA1
100
AcDbBlockEnd
  0
BLOCK
  5
507
330
40
100
AcDbEntity
  8
HAWA1
100
AcDbBlockBegin
  2
*D11
 70
     1
 10
0.0
 20
0.0
 30
0.0
  3
*D11
  1

  0
LINE
  5
F1D
330
40
100
AcDbEntity
  8
HAWA1
370
    -2
100
AcDbLine
 10
133.249315
 20
222.25104
 30
0.0
 11
133.249315
 21
254.415576
 31
0.0
  0
LINE
  5
F1E
330
40
100
AcDbEntity
  8
HAWA1
370
    -2
100
AcDbLine
 10
99.24931499999999
 20
222.25104
 30
0.0
 11
99.24931499999999
 21
254.415576
 31
0.0
  0
LINE
  5
F1F
330
40
100
AcDbEntity
  8
HAWA1
370
    -2
100
AcDbLine
 10
134.249315
 20
253.415576
 30
0.0
 11
98.24931499999999
 21
253.415576
 31
0.0
  0
INSERT
  5
F20
330
40
100
AcDbEntity
  8
HAWA1
370
    -2
100
AcDbBlockReference
  2
_Oblique
 10
133.249315
 20
253.415576
 30
0.0
 41
2.0
 42
2.0
 43
2.0
  0
INSERT
  5
F21
330
40
100
AcDbEntity
  8
HAWA1
370
    -2
100
AcDbBlockReference
  2
_Oblique
 10
99.24931499999999
 20
253.415576
 30
0.0
 41
2.0
 42
2.0
 43
2.0
 50
180.0
  0
MTEXT
  5
F22
330
40
100
AcDbEntity
  8
HAWA1
100
AcDbMText
 10
116.249315
 20
257.8386950954979
 30
0.0
 40
3.5
 41
0.0
 71
     5
 72
     1
  1
\A1;34 [1{\H0.711429x;\S11/32;}"]
  7
Beschlag
 73
     1
 44
1.0
1001
ACAD
1000
MTEXTBEGIN
1070
    73
1070
     1
1070
    44
1040
1.0
1070
    74
1070
     0
1000
MTEXTEND
  0
POINT
  5
F23
330
40
100
AcDbEntity
  8
Defpoints
 62
     0
100
AcDbPoint
 10
133.249315
 20
220.25104
 30
0.0
  0
POINT
  5
F24
330
40
100
AcDbEntity
  8
Defpoints
 62
     0
100
AcDbPoint
 10
99.24931499999999
 20
220.25104
 30
0.0
  0
POINT
  5
F25
330
40
100
AcDbEntity
  8
Defpoints
 62
     0
100
AcDbPoint
 10
99.24931499999999
 20
253.415576
 30
0.0
  0
ENDBLK
  5
515
330
40
100
AcDbEntity
  8
HAWA1
100
AcDbBlockEnd
  0
BLOCK
  5
516
330
42
100
AcDbEntity
  8
HAWA1
100
AcDbBlockBegin
  2
*D12
 70
     1
 10
0.0
 20
0.0
 30
0.0
  3
*D12
  1

  0
LINE
  5
F14
330
42
100
AcDbEntity
  8
HAWA1
370
    -2
100
AcDbLine
 10
134.2493149993762
 20
221.2509900486767
 30
0.0
 11
161.708375642261
 21
221.2503042404702
 31
0.0
  0
LINE
  5
F15
330
42
100
AcDbEntity
  8
HAWA1
370
    -2
100
AcDbLine
 10
138.2493149993762
 20
152.2509900486767
 30
0.0
 11
161.7066523241067
 21
152.2504041861576
 31
0.0
  0
LINE
  5
F16
330
42
100
AcDbEntity
  8
HAWA1
370
    -2
100
AcDbLine
 10
160.7084006182345
 20
222.2503292158199
 30
0.0
 11
160.706627348757
 21
151.2504291621311
 31
0.0
  0
INSERT
  5
F17
330
42
100
AcDbEntity
  8
HAWA1
370
    -2
100
AcDbBlockReference
  2
_Oblique
 10
160.7083756425729
 20
221.2503292161318
 30
0.0
 41
2.0
 42
2.0
 43
2.0
 50
89.99856899999997
  0
INSERT
  5
F18
330
42
100
AcDbEntity
  8
HAWA1
370
    -2
100
AcDbBlockReference
  2
_Oblique
 10
160.7066523244185
 20
152.2504291618192
 30
0.0
 41
2.0
 42
2.0
 43
2.0
 50
269.998569
  0
MTEXT
  5
F19
330
42
100
AcDbEntity
  8
HAWA1
100
AcDbMText
 10
156.2623143849504
 20
186.7504902107765
 30
0.0
 40
3.5
 41
0.0
 71
     5
 72
     1
  1
\A1;69 [2{\H0.711429x;\S23/32;}"]{}{%%p3}
  7
Beschlag
 11
0.0000249756615941
 21
0.9999999996881081
 31
0.0
 73
     1
 44
1.0
1001
ACAD
1000
MTEXTBEGIN
1070
    73
1070
     1
1070
    44
1040
1.0
1070
    74
1070
     0
1000
MTEXTEND
  0
POINT
  5
F1A
330
42
100
AcDbEntity
  8
Defpoints
 62
     0
100
AcDbPoint
 10
132.2493149999999
 20
221.2510399999999
 30
0.0
  0
POINT
  5
F1B
330
42
100
AcDbEntity
  8
Defpoints
 62
     0
100
AcDbPoint
 10
136.249315
 20
152.2510399999999
 30
0.0
  0
POINT
  5
F1C
330
42
100
AcDbEntity
  8
Defpoints
 62
     0
100
AcDbPoint
 10
160.7066523244185
 20
152.2504291618192
 30
0.0
  0
ENDBLK
  5
524
330
42
100
AcDbEntity
  8
HAWA1
100
AcDbBlockEnd
  0
BLOCK
  5
525
330
44
100
AcDbEntity
  8
HAWA1
100
AcDbBlockBegin
  2
*D13
 70
     1
 10
0.0
 20
0.0
 30
0.0
  3
*D13
  1

  0
LINE
  5
F0B
330
44
100
AcDbEntity
  8
HAWA1
370
    -2
100
AcDbLine
 10
134.249315
 20
181.25104
 30
0.0
 11
150.649073
 21
181.25104
 31
0.0
  0
LINE
  5
F0C
330
44
100
AcDbEntity
  8
HAWA1
370
    -2
100
AcDbLine
 10
134.249315
 20
221.25104
 30
0.0
 11
150.649073
 21
221.25104
 31
0.0
  0
LINE
  5
F0D
330
44
100
AcDbEntity
  8
HAWA1
370
    -2
100
AcDbLine
 10
149.649073
 20
180.25104
 30
0.0
 11
149.649073
 21
222.25104
 31
0.0
  0
INSERT
  5
F0E
330
44
100
AcDbEntity
  8
HAWA1
370
    -2
100
AcDbBlockReference
  2
_Oblique
 10
149.649073
 20
181.25104
 30
0.0
 41
2.0
 42
2.0
 43
2.0
 50
270.0
  0
INSERT
  5
F0F
330
44
100
AcDbEntity
  8
HAWA1
370
    -2
100
AcDbBlockReference
  2
_Oblique
 10
149.649073
 20
221.25104
 30
0.0
 41
2.0
 42
2.0
 43
2.0
 50
90.0
  0
MTEXT
  5
F10
330
44
100
AcDbEntity
  8
HAWA1
100
AcDbMText
 10
145.2055719004093
 20
201.25104
 30
0.0
 40
3.5
 41
0.0
 71
     5
 72
     1
  1
\A1;40 [1{\H0.711429x;\S9/16;}"]
  7
Beschlag
 11
0.0000000000000001
 21
1.0
 31
0.0
 73
     1
 44
1.0
1001
ACAD
1000
MTEXTBEGIN
1070
    73
1070
     1
1070
    44
1040
1.0
1070
    74
1070
     0
1000
MTEXTEND
  0
POINT
  5
F11
330
44
100
AcDbEntity
  8
Defpoints
 62
     0
100
AcDbPoint
 10
132.249315
 20
181.25104
 30
0.0
  0
POINT
  5
F12
330
44
100
AcDbEntity
  8
Defpoints
 62
     0
100
AcDbPoint
 10
132.249315
 20
221.25104
 30
0.0
  0
POINT
  5
F13
330
44
100
AcDbEntity
  8
Defpoints
 62
     0
100
AcDbPoint
 10
149.649073
 20
221.25104
 30
0.0
  0
ENDBLK
  5
532
330
44
100
AcDbEntity
  8
HAWA1
100
AcDbBlockEnd
  0
BLOCK
  5
533
330
46
100
AcDbEntity
  8
HAWA1
100
AcDbBlockBegin
  2
*D14
 70
     1
 10
0.0
 20
0.0
 30
0.0
  3
*D14
  1

  0
LINE
  5
F02
330
46
100
AcDbEntity
  8
HAWA1
370
    -2
100
AcDbLine
 10
134.2493149993762
 20
181.2509900486767
 30
0.0
 11
150.6494351359274
 21
181.250580444826
 31
0.0
  0
LINE
  5
F03
330
46
100
AcDbEntity
  8
HAWA1
370
    -2
100
AcDbLine
 10
138.2493149993762
 20
152.2509900486767
 30
0.0
 11
150.6487108442365
 21
152.250680365562
 31
0.0
  0
LINE
  5
F04
330
46
100
AcDbEntity
  8
HAWA1
370
    -2
100
AcDbLine
 10
149.6494601119008
 20
182.2506054201756
 30
0.0
 11
149.6486858688868
 21
151.2507053415355
 31
0.0
  0
INSERT
  5
F05
330
46
100
AcDbEntity
  8
HAWA1
370
    -2
100
AcDbBlockReference
  2
_Oblique
 10
149.6494351362392
 20
181.2506054204876
 30
0.0
 41
2.0
 42
2.0
 43
2.0
 50
89.99856899999997
  0
INSERT
  5
F06
330
46
100
AcDbEntity
  8
HAWA1
370
    -2
100
AcDbBlockReference
  2
_Oblique
 10
149.6487108445484
 20
152.2507053412236
 30
0.0
 41
2.0
 42
2.0
 43
2.0
 50
269.998569
  0
MTEXT
  5
F07
330
46
100
AcDbEntity
  8
HAWA1
100
AcDbMText
 10
145.2268031464457
 20
166.7507658299708
 30
0.0
 40
3.5
 41
0.0
 71
     5
 72
     1
  1
\A1;29 [1{\H0.711429x;\S5/32;}"]
  7
Beschlag
 11
0.0000249756615941
 21
0.9999999996881081
 31
0.0
 73
     1
 44
1.0
1001
ACAD
1000
MTEXTBEGIN
1070
    73
1070
     1
1070
    44
1040
1.0
1070
    74
1070
     0
1000
MTEXTEND
  0
POINT
  5
F08
330
46
100
AcDbEntity
  8
Defpoints
 62
     0
100
AcDbPoint
 10
132.2493149999999
 20
181.2510399999999
 30
0.0
  0
POINT
  5
F09
330
46
100
AcDbEntity
  8
Defpoints
 62
     0
100
AcDbPoint
 10
136.249315
 20
152.2510399999999
 30
0.0
  0
POINT
  5
F0A
330
46
100
AcDbEntity
  8
Defpoints
 62
     0
100
AcDbPoint
 10
149.6487108445484
 20
152.2507053412236
 30
0.0
  0
ENDBLK
  5
540
330
46
100
AcDbEntity
  8
HAWA1
100
AcDbBlockEnd
  0
BLOCK
  5
541
330
48
100
AcDbEntity
  8
HAWA1
100
AcDbBlockBegin
  2
*D15
 70
     1
 10
0.0
 20
0.0
 30
0.0
  3
*D15
  1

  0
LINE
  5
EF9
330
48
100
AcDbEntity
  8
HAWA1
370
    -2
100
AcDbLine
 10
128.749315
 20
150.25104
 30
0.0
 11
128.749315
 21
133.365875
 31
0.0
  0
LINE
  5
EFA
330
48
100
AcDbEntity
  8
HAWA1
370
    -2
100
AcDbLine
 10
103.749315
 20
150.25104
 30
0.0
 11
103.749315
 21
133.365875
 31
0.0
  0
LINE
  5
EFB
330
48
100
AcDbEntity
  8
HAWA1
370
    -2
100
AcDbLine
 10
129.749315
 20
134.365875
 30
0.0
 11
102.749315
 21
134.365875
 31
0.0
  0
INSERT
  5
EFC
330
48
100
AcDbEntity
  8
HAWA1
370
    -2
100
AcDbBlockReference
  2
_Oblique
 10
128.749315
 20
134.365875
 30
0.0
 41
2.0
 42
2.0
 43
2.0
  0
INSERT
  5
EFD
330
48
100
AcDbEntity
  8
HAWA1
370
    -2
100
AcDbBlockReference
  2
_Oblique
 10
103.749315
 20
134.365875
 30
0.0
 41
2.0
 42
2.0
 43
2.0
 50
180.0
  0
MTEXT
  5
EFE
330
48
100
AcDbEntity
  8
HAWA1
100
AcDbMText
 10
116.249315
 20
138.8110745999318
 30
0.0
 40
3.5
 41
0.0
 71
     5
 72
     1
  1
\A1;25 [{\H0.711429x;\S31/32;}"]
  7
Beschlag
 73
     1
 44
1.0
1001
ACAD
1000
MTEXTBEGIN
1070
    73
1070
     1
1070
    44
1040
1.0
1070
    74
1070
     0
1000
MTEXTEND
  0
POINT
  5
EFF
330
48
100
AcDbEntity
  8
Defpoints
 62
     0
100
AcDbPoint
 10
128.749315
 20
152.2510399999999
 30
0.0
  0
POINT
  5
F00
330
48
100
AcDbEntity
  8
Defpoints
 62
     0
100
AcDbPoint
 10
103.749315
 20
152.2510399999999
 30
0.0
  0
POINT
  5
F01
330
48
100
AcDbEntity
  8
Defpoints
 62
     0
100
AcDbPoint
 10
103.749315
 20
134.365875
 30
0.0
  0
ENDBLK
  5
54D
330
48
100
AcDbEntity
  8
HAWA1
100
AcDbBlockEnd
  0
BLOCK
  5
E7B
330
E7A
100
AcDbEntity
  8
0
100
AcDbBlockBegin
  2
_Oblique
 70
     0
 10
0.0
 20
0.0
 30
0.0
  3
_Oblique
  1

  0
LINE
  5
E7C
330
E7A
100
AcDbEntity
  8
0
 62
     0
370
    -2
100
AcDbLine
 10
-0.5
 20
-0.5
 30
0.0
 11
0.5
 21
0.5
 31
0.0
  0
ENDBLK
  5
E7D
330
E7A
100
AcDbEntity
  8
0
100
AcDbBlockEnd
  0
BLOCK
  5
E8F
330
E8E
100
AcDbEntity
  8
0
100
AcDbBlockBegin
  2
HAWA
 70
     0
 10
0.0
 20
0.0
 30
0.0
  3
HAWA
  1

  0
ENDBLK
  5
E90
330
E8E
100
AcDbEntity
  8
0
100
AcDbBlockEnd
  0
ENDSEC
  0
SECTION
  2
ENTITIES
  0
DIMENSION
  5
26
330
A
100
AcDbEntity
  8
HAWA1
 62
     0
100
AcDbDimension
  2
*D0
 10
121.249315
 20
90.66133859993177
 30
0.0
 11
143.1558858995786
 21
90.66133859993177
 31
0.0
 70
   161
 71
     5
 42
10.0
 52
89.999523
  3
HAWA-Strich
100
AcDbAlignedDimension
 13
111.249315
 23
74.63014799999999
 33
0.0
 14
121.249315
 24
74.63014799999999
 34
0.0
  0
DIMENSION
  5
28
330
A
100
AcDbEntity
  8
HAWA1
 62
     0
100
AcDbDimension
  2
*D1
 10
151.2626121227485
 20
68.62987531286177
 30
0.0
 11
146.8191880617616
 21
77.88353501359742
 31
0.0
 70
    32
 71
     5
 42
13.99985230138608
 52
89.999523
  3
HAWA-Strich
100
AcDbAlignedDimension
 13
136.249315
 23
54.63014799999999
 33
0.0
 14
118.508268
 24
68.63014799999999
 34
0.0
 50
89.999523
100
AcDbRotatedDimension
  0
DIMENSION
  5
2A
330
A
100
AcDbEntity
  8
HAWA1
 62
     0
100
AcDbDimension
  2
*D2
 10
83.1882108709596
 20
74.63038161488023
 30
0.0
 11
78.74377726862725
 21
64.63035617661614
 31
0.0
 70
    32
 71
     5
 42
20.00012487761487
 52
89.999523
  3
HAWA-Strich
100
AcDbAlignedDimension
 13
96.249315
 23
54.63014799999999
 33
0.0
 14
111.249315
 24
74.63014799999999
 34
0.0
 50
89.999523
100
AcDbRotatedDimension
  0
DIMENSION
  5
2C
330
A
100
AcDbEntity
  8
HAWA1
 62
     0
100
AcDbDimension
  2
*D3
 10
133.249315
 20
12.822175
 30
0.0
 11
116.249315
 21
17.24529409549795
 31
0.0
 70
    33
 71
     5
 42
34.0
 52
89.999523
  3
HAWA-Strich
100
AcDbAlignedDimension
 13
99.24931499999999
 23
44.63014799999999
 33
0.0
 14
133.249315
 24
44.63014799999999
 34
0.0
  0
LINE
  5
2D
330
A
100
AcDbEntity
  8
Hawa6
  6
DASHDOT
 62
     3
 48
0.090002
100
AcDbLine
 10
104.249314
 20
44.3301
 30
0.0
 11
104.249314
 21
47.930197
 31
0.0
  0
LINE
  5
2E
330
A
100
AcDbEntity
  8
Hawa6
  6
DASHDOT
 62
     3
 48
0.090002
100
AcDbLine
 10
128.249314
 20
44.3301
 30
0.0
 11
128.249314
 21
47.930197
 31
0.0
  0
LINE
  5
2F
330
A
100
AcDbEntity
  8
Hawa5
  6
DASHDOT
 62
     1
 48
0.007715
100
AcDbLine
 10
126.249314
 20
44.347312
 30
0.0
 11
126.249314
 21
44.655905
 31
0.0
  0
LINE
  5
30
330
A
100
AcDbEntity
  8
Hawa5
  6
DASHDOT
 62
     1
 48
0.007715
100
AcDbLine
 10
106.249314
 20
44.347312
 30
0.0
 11
106.249314
 21
44.655905
 31
0.0
  0
LINE
  5
31
330
A
100
AcDbEntity
  8
Hawa6
  6
DASHDOT
 62
     3
 48
0.032782
100
AcDbLine
 10
106.249314
 20
49.829001
 30
0.0
 11
106.249314
 21
48.517722
 31
0.0
  0
LINE
  5
32
330
A
100
AcDbEntity
  8
Hawa5
  6
DASHDOT
 62
     1
100
AcDbLine
 10
126.249314
 20
22.68215
 30
0.0
 11
126.249314
 21
46.058127
 31
0.0
  0
LINE
  5
33
330
A
100
AcDbEntity
  8
Hawa5
  6
DASHDOT
 62
     1
100
AcDbLine
 10
106.249314
 20
22.68215
 30
0.0
 11
106.249314
 21
46.058127
 31
0.0
  0
LINE
  5
34
330
A
100
AcDbEntity
  8
HAWA1
 48
0.090002
100
AcDbLine
 10
104.249314
 20
44.3301
 30
0.0
 11
104.249314
 21
47.930197
 31
0.0
  0
LINE
  5
36
330
A
100
AcDbEntity
  8
Hawa5
  6
DASHDOT
 62
     1
100
AcDbLine
 10
116.249314
 20
94.69533400000001
 30
0.0
 11
116.249314
 21
41.317648
 31
0.0
  0
LINE
  5
37
330
A
100
AcDbEntity
  8
Hawa5
 62
     1
100
AcDbLine
 10
97.249314
 20
54.63014799999999
 30
0.0
 11
97.249314
 21
94.63014799999999
 31
0.0
  0
LINE
  5
38
330
A
100
AcDbEntity
  8
Hawa5
 62
     1
100
AcDbLine
 10
135.249314
 20
54.63014799999999
 30
0.0
 11
135.249314
 21
94.63014799999999
 31
0.0
  0
LINE
  5
39
330
A
100
AcDbEntity
  8
Hawa5
 62
     1
 48
0.375
100
AcDbLine
 10
136.249314
 20
55.630148
 30
0.0
 11
121.249314
 21
55.630148
 31
0.0
  0
LINE
  5
3A
330
A
100
AcDbEntity
  8
Hawa5
 62
     1
 48
0.375
100
AcDbLine
 10
111.2493139999999
 20
55.630148
 30
0.0
 11
96.24931400000001
 21
55.630148
 31
0.0
  0
LINE
  5
3B
330
A
100
AcDbEntity
  8
Hawa5
  6
PHANTOM
 62
     1
100
AcDbLine
 10
96.24931400000001
 20
94.63014799999999
 30
0.0
 11
136.249314
 21
94.63014799999999
 31
0.0
  0
DIMENSION
  5
3D
330
A
100
AcDbEntity
  8
HAWA1
 62
     0
100
AcDbDimension
  2
*D9
 10
139.2482310948384
 20
120.9021976896927
 30
0.0
 11
116.2483791211313
 21
125.347313957278
 31
0.0
 70
    32
 71
     5
 42
45.99999997449418
 52
89.999523
  3
HAWA-Strich
100
AcDbAlignedDimension
 13
93.24931499999999
 23
153.45104
 33
0.0
 14
139.249315
 24
153.45104
 34
0.0
 50
359.998092
100
AcDbRotatedDimension
  0
DIMENSION
  5
3F
330
A
100
AcDbEntity
  8
HAWA1
 62
     0
100
AcDbDimension
  2
*D10
 10
118.899315
 20
241.8381708314411
 30
0.0
 11
142.6282957310204
 21
241.8381708314411
 31
0.0
 70
   161
  1
%%c<>
 71
     5
 42
5.299999999999997
 52
89.999523
  3
HAWA-Strich
100
AcDbAlignedDimension
 13
113.599315
 23
221.25104
 33
0.0
 14
118.899315
 24
221.25104
 34
0.0
  0
DIMENSION
  5
41
330
A
100
AcDbEntity
  8
HAWA1
 62
     0
100
AcDbDimension
  2
*D11
 10
99.24931499999999
 20
253.415576
 30
0.0
 11
116.249315
 21
257.8386950954979
 31
0.0
 70
    33
 71
     5
 42
34.0
 52
89.999523
  3
HAWA-Strich
100
AcDbAlignedDimension
 13
133.249315
 23
220.25104
 33
0.0
 14
99.24931499999999
 24
220.25104
 34
0.0
  0
DIMENSION
  5
43
330
A
100
AcDbEntity
  8
HAWA1
 62
     0
100
AcDbDimension
  2
*D12
 10
160.7066523244185
 20
152.2504291618192
 30
0.0
 11
156.2623143849504
 21
186.7504902107765
 31
0.0
 70
    32
  1
<>{}{%%p3}
 71
     5
 42
68.99990007583309
 52
89.999523
  3
HAWA-Strich
100
AcDbAlignedDimension
 13
132.249315
 23
221.25104
 33
0.0
 14
136.249315
 24
152.2510399999999
 34
0.0
 50
269.998569
100
AcDbRotatedDimension
  0
DIMENSION
  5
45
330
A
100
AcDbEntity
  8
HAWA1
 62
     0
100
AcDbDimension
  2
*D13
 10
149.649073
 20
221.25104
 30
0.0
 11
145.2055719004093
 21
201.25104
 31
0.0
 70
    33
 71
     5
 42
40.0
 52
89.999523
  3
HAWA-Strich
100
AcDbAlignedDimension
 13
132.249315
 23
181.25104
 33
0.0
 14
132.249315
 24
221.25104
 34
0.0
  0
DIMENSION
  5
47
330
A
100
AcDbEntity
  8
HAWA1
 62
     0
100
AcDbDimension
  2
*D14
 10
149.6487108445484
 20
152.2507053412236
 30
0.0
 11
145.2268031464457
 21
166.7507658299708
 31
0.0
 70
    32
 71
     5
 42
28.99990008830878
 52
89.999523
  3
HAWA-Strich
100
AcDbAlignedDimension
 13
132.249315
 23
181.25104
 33
0.0
 14
136.249315
 24
152.2510399999999
 34
0.0
 50
269.998569
100
AcDbRotatedDimension
  0
DIMENSION
  5
49
330
A
100
AcDbEntity
  8
HAWA1
 62
     0
100
AcDbDimension
  2
*D15
 10
103.749315
 20
134.365875
 30
0.0
 11
116.249315
 21
138.8110745999318
 31
0.0
 70
    33
 71
     5
 42
25.0
 52
89.999523
  3
HAWA-Strich
100
AcDbAlignedDimension
 13
128.749315
 23
152.2510399999999
 33
0.0
 14
103.749315
 24
152.2510399999999
 34
0.0
  0
LINE
  5
4A
330
A
100
AcDbEntity
  8
Hawa5
  6
DASHDOT
 62
     1
100
AcDbLine
 10
116.249314
 20
220.172823
 30
0.0
 11
116.249314
 21
147.128726
 31
0.0
  0
LINE
  5
4B
330
A
100
AcDbEntity
  8
Hawa6
  6
DASHDOT
 62
     3
 48
0.120015
100
AcDbLine
 10
116.249314
 20
166.951083
 30
0.0
 11
116.249314
 21
162.150485
 31
0.0
  0
LINE
  5
4C
330
A
100
AcDbEntity
  8
Hawa6
  6
DASHDOT
 62
     3
 48
0.03
100
AcDbLine
 10
97.14931599999999
 20
161.25104
 30
0.0
 11
98.349313
 21
161.25104
 31
0.0
  0
LINE
  5
4D
330
A
100
AcDbEntity
  8
Hawa6
  6
DASHDOT
 62
     3
 48
0.061312
100
AcDbLine
 10
114.549314
 20
217.055422
 30
0.0
 11
114.549314
 21
214.602938
 31
0.0
  0
LINE
  5
4E
330
A
100
AcDbEntity
  8
Hawa6
  6
DASHDOT
 62
     3
 48
0.045015
100
AcDbLine
 10
117.949315
 20
218.501101
 30
0.0
 11
117.949315
 21
216.700503
 31
0.0
  0
LINE
  5
4F
330
A
100
AcDbEntity
  8
Hawa6
  6
DASHDOT
 62
     3
 48
0.012
100
AcDbLine
 10
139.20931
 20
161.25104
 30
0.0
 11
139.689317
 21
161.25104
 31
0.0
  0
LINE
  5
50
330
A
100
AcDbEntity
  8
Hawa6
  6
DASHDOT
 62
     3
 48
0.003427
100
AcDbLine
 10
109.337632
 20
159.351046
 30
0.0
 11
109.474706
 21
159.351046
 31
0.0
  0
LINE
  5
51
330
A
100
AcDbEntity
  8
Hawa6
  6
DASHDOT
 62
     3
 48
0.081389
100
AcDbLine
 10
116.249314
 20
161.035311
 30
0.0
 11
116.249314
 21
157.779757
 31
0.0
  0
LINE
  5
52
330
A
100
AcDbEntity
  8
Hawa6
  6
DASHDOT
 62
     3
 48
0.420015
100
AcDbLine
 10
124.64935
 20
157.051028
 30
0.0
 11
107.848748
 21
157.051028
 31
0.0
  0
LINE
  5
53
330
A
100
AcDbEntity
  8
Hawa6
  6
DASHDOT
 62
     3
 48
0.420015
100
AcDbLine
 10
124.64935
 20
160.651034
 30
0.0
 11
107.848748
 21
160.651034
 31
0.0
  0
LINE
  5
54
330
A
100
AcDbEntity
  8
Hawa6
  6
DASHDOT
 62
     3
 48
0.004762
100
AcDbLine
 10
126.524697
 20
166.551028
 30
0.0
 11
126.715188
 21
166.551028
 31
0.0
  0
LINE
  5
55
330
A
100
AcDbEntity
  8
Hawa6
  6
DASHDOT
 62
     3
 48
0.001193
100
AcDbLine
 10
105.795343
 20
166.551028
 30
0.0
 11
105.843057
 21
166.551028
 31
0.0
  0
LINE
  5
56
330
A
100
AcDbEntity
  8
Hawa6
  6
DASHDOT
 62
     3
 48
0.009171
100
AcDbLine
 10
126.749314
 20
156.02048
 30
0.0
 11
126.749314
 21
156.387332
 31
0.0
  0
LINE
  5
57
330
A
100
AcDbEntity
  8
Hawa6
  6
DASHDOT
 62
     3
 48
0.009171
100
AcDbLine
 10
105.749314
 20
156.02048
 30
0.0
 11
105.749314
 21
156.387332
 31
0.0
  0
LINE
  5
58
330
A
100
AcDbEntity
  8
Hawa6
  6
DASHDOT
 62
     3
 48
0.106278
100
AcDbLine
 10
116.249314
 20
218.705294
 30
0.0
 11
116.249314
 21
214.454165
 31
0.0
  0
LINE
  5
59
330
A
100
AcDbEntity
  8
Hawa5
  6
DASHDOT
 62
     1
100
AcDbLine
 10
100.469316
 20
201.151034
 30
0.0
 11
132.029317
 21
201.151034
 31
0.0
  0
LINE
  5
5A
330
A
100
AcDbEntity
  8
Hawa5
  6
DASHDOT
 62
     1
100
AcDbLine
 10
116.249314
 20
216.521029
 30
0.0
 11
116.249314
 21
238.505251
 31
0.0
  0
LINE
  5
5B
330
A
100
AcDbEntity
  8
Hawa6
  6
DASHDOT
 62
     3
 48
0.147
100
AcDbLine
 10
116.249314
 20
166.061038
 30
0.0
 11
116.249314
 21
171.9410419999999
 31
0.0
  0
LINE
  5
5C
330
A
100
AcDbEntity
  8
Hawa6
  6
DASHDOT
 62
     3
 48
0.003427
100
AcDbLine
 10
123.160997
 20
159.351046
 30
0.0
 11
123.023923
 21
159.351046
 31
0.0
  0
LINE
  5
5D
330
A
100
AcDbEntity
  8
Hawa5
 62
     1
100
AcDbLine
 10
97.249314
 20
152.2510399999999
 30
0.0
 11
97.249314
 21
102.295962
 31
0.0
  0
LINE
  5
5E
330
A
100
AcDbEntity
  8
Hawa5
 62
     1
100
AcDbLine
 10
135.249314
 20
152.2510399999999
 30
0.0
 11
135.249314
 21
102.295962
 31
0.0
  0
LINE
  5
5F
330
A
100
AcDbEntity
  8
Hawa5
 62
     1
100
AcDbLine
 10
136.249314
 20
151.25104
 30
0.0
 11
96.24931400000001
 21
151.25104
 31
0.0
  0
LINE
  5
60
330
A
100
AcDbEntity
  8
Hawa5
 62
     1
 48
0.33375
100
AcDbLine
 10
100.249314
 20
221.25104
 30
0.0
 11
113.599313
 21
221.25104
 31
0.0
  0
LINE
  5
61
330
A
100
AcDbEntity
  8
Hawa5
 62
     1
 48
0.33375
100
AcDbLine
 10
118.899316
 20
221.25104
 30
0.0
 11
132.249314
 21
221.25104
 31
0.0
  0
LINE
  5
9A3
330
A
100
AcDbEntity
  8
Hawa5
 62
     1
100
AcDbLine
 10
111.249315
 20
74.63014799999995
 30
0.0
 11
111.249315
 21
54.63014799999996
 31
0.0
  0
LINE
  5
9A4
330
A
100
AcDbEntity
  8
Hawa5
 62
     1
 48
0.375
100
AcDbLine
 10
121.249315
 20
54.63014799999996
 30
0.0
 11
136.249315
 21
54.63014799999996
 31
0.0
  0
LINE
  5
9A5
330
A
100
AcDbEntity
  8
Hawa5
 62
     1
100
AcDbLine
 10
136.249315
 20
94.63014799999996
 30
0.0
 11
136.249315
 21
54.63014799999996
 31
0.0
  0
LINE
  5
9A6
330
A
100
AcDbEntity
  8
Hawa5
 62
     1
100
AcDbLine
 10
96.249315
 20
94.63014799999996
 30
0.0
 11
96.249315
 21
54.63014799999996
 31
0.0
  0
LINE
  5
9A7
330
A
100
AcDbEntity
  8
Hawa5
 62
     1
 48
0.375
100
AcDbLine
 10
96.249315
 20
54.63014799999996
 30
0.0
 11
111.249315
 21
54.63014799999996
 31
0.0
  0
LINE
  5
9A8
330
A
100
AcDbEntity
  8
Hawa5
 62
     1
 48
0.25
100
AcDbLine
 10
121.249315
 20
74.63014799999995
 30
0.0
 11
111.249315
 21
74.63014799999995
 31
0.0
  0
LINE
  5
9A9
330
A
100
AcDbEntity
  8
Hawa5
 62
     1
100
AcDbLine
 10
121.249315
 20
54.63014799999996
 30
0.0
 11
121.249315
 21
74.63014799999995
 31
0.0
  0
LINE
  5
9AA
330
A
100
AcDbEntity
  8
Hawa5
 62
     1
100
AcDbLine
 10
156.249315
 20
44.63014799999996
 30
0.0
 11
133.249315
 21
44.63014799999996
 31
0.0
  0
LINE
  5
9AB
330
A
100
AcDbEntity
  8
Hawa5
 62
     1
100
AcDbLine
 10
99.24931499999999
 20
44.63014799999996
 30
0.0
 11
76.24931500000002
 21
44.63014799999996
 31
0.0
  0
LINE
  5
9AC
330
A
100
AcDbEntity
  8
Hawa6
 62
     3
 48
0.038896
100
AcDbLine
 10
112.749315
 20
68.63014799999996
 30
0.0
 11
114.305154
 21
68.63014799999996
 31
0.0
  0
LINE
  5
9AD
330
A
100
AcDbEntity
  8
Hawa6
 62
     3
 48
0.000295
100
AcDbLine
 10
116.050138
 20
68.63014799999996
 30
0.0
 11
116.061921
 21
68.63002600000005
 31
0.0
  0
ARC
  5
9AE
330
A
100
AcDbEntity
  8
Hawa6
 62
     3
100
AcDbCircle
 10
112.749315
 20
67.63014799999996
 30
0.0
 40
1.0
100
AcDbArc
 50
90.0000029999993
 51
180.0000049783131
  0
LINE
  5
9AF
330
A
100
AcDbEntity
  8
Hawa6
 62
     3
 48
0.025
100
AcDbLine
 10
112.749315
 20
68.63014799999996
 30
0.0
 11
112.749315
 21
67.63014799999996
 31
0.0
  0
LINE
  5
9B0
330
A
100
AcDbEntity
  8
Hawa6
 62
     3
 48
0.148196
100
AcDbLine
 10
111.749315
 20
55.62990400000011
 30
0.0
 11
111.749315
 21
49.7020480000001
 31
0.0
  0
LINE
  5
9B1
330
A
100
AcDbEntity
  8
Hawa6
 62
     3
 48
0.001581
100
AcDbLine
 10
111.749315
 20
67.63014799999996
 30
0.0
 11
111.749315
 21
67.56691599999999
 31
0.0
  0
LINE
  5
9B2
330
A
100
AcDbEntity
  8
Hawa6
 62
     3
 48
0.030172
100
AcDbLine
 10
113.306184
 20
67.63014799999996
 30
0.0
 11
112.099317
 21
67.63014799999996
 31
0.0
  0
LINE
  5
9B3
330
A
100
AcDbEntity
  8
Hawa6
 62
     3
 48
0.017648
100
AcDbLine
 10
113.305227
 20
67.63014799999996
 30
0.0
 11
112.599317
 21
67.63014799999996
 31
0.0
  0
LINE
  5
9B4
330
A
100
AcDbEntity
  8
Hawa6
 62
     3
 48
0.2625
100
AcDbLine
 10
113.059091
 20
56.13014799999996
 30
0.0
 11
113.059091
 21
66.63014799999996
 31
0.0
  0
LINE
  5
9B5
330
A
100
AcDbEntity
  8
Hawa6
 62
     3
 48
0.006152
100
AcDbLine
 10
113.305189
 20
56.13014799999996
 30
0.0
 11
113.059091
 21
56.13014799999996
 31
0.0
  0
LINE
  5
9B6
330
A
100
AcDbEntity
  8
Hawa6
 62
     3
 48
0.006152
100
AcDbLine
 10
113.305189
 20
66.63014799999996
 30
0.0
 11
113.059091
 21
66.63014799999996
 31
0.0
  0
LINE
  5
9B7
330
A
100
AcDbEntity
  8
Hawa6
 62
     3
 48
0.125
100
AcDbLine
 10
104.249315
 20
44.63014799999996
 30
0.0
 11
99.24931499999999
 21
44.63014799999996
 31
0.0
  0
LINE
  5
9B8
330
A
100
AcDbEntity
  8
Hawa6
 62
     3
100
AcDbLine
 10
104.249315
 20
44.63014799999996
 30
0.0
 11
128.249315
 21
44.63014799999996
 31
0.0
  0
LINE
  5
9B9
330
A
100
AcDbEntity
  8
Hawa6
 62
     3
 48
0.125
100
AcDbLine
 10
133.249315
 20
44.63014799999996
 30
0.0
 11
128.249315
 21
44.63014799999996
 31
0.0
  0
LWPOLYLINE
  5
9BA
330
A
100
AcDbEntity
  8
Hawa6
 62
     3
100
AcDbPolyline
 90
        6
 70
     0
 43
0.0
 10
109.073861
 20
48.63014799999996
 10
109.569574
 20
48.66945499999997
 10
110.174444
 20
48.83522599999992
 10
110.634069
 20
49.07265299999995
 10
111.067773
 20
49.43727699999999
 10
111.284147
 20
49.71962600000007
  0
ARC
  5
9BB
330
A
100
AcDbEntity
  8
Hawa6
 62
     3
100
AcDbCircle
 10
109.196298
 20
51.183127
 30
0.0
 40
2.553014
100
AcDbArc
 50
326.7588319999993
 51
0.0000059764155238
  0
LWPOLYLINE
  5
9BC
330
A
100
AcDbEntity
  8
Hawa6
 62
     3
100
AcDbPolyline
 90
        3
 70
     0
 43
0.0
 10
111.494222
 20
50.188132
 10
111.459585
 20
50.10292600000002
 10
111.331563
 20
49.78371300000002
  0
ARC
  5
9BD
330
A
100
AcDbEntity
  8
Hawa6
 62
     3
100
AcDbCircle
 10
109.248632
 20
50.96449899999993
 30
0.0
 40
2.385971
100
AcDbArc
 50
328.5521509999989
 51
332.8809630000001
  0
LINE
  5
9BE
330
A
100
AcDbEntity
  8
Hawa6
 62
     3
 48
0.157349
100
AcDbLine
 10
112.249315
 20
55.63014799999996
 30
0.0
 11
112.249315
 21
49.33620300000007
 31
0.0
  0
ARC
  5
9BF
330
A
100
AcDbEntity
  8
Hawa6
 62
     3
100
AcDbCircle
 10
113.580335
 20
49.75881000000004
 30
0.0
 40
1.832629999999999
100
AcDbArc
 50
181.7748060000025
 51
202.0670249999968
  0
ARC
  5
9C0
330
A
100
AcDbEntity
  8
Hawa6
 62
     3
100
AcDbCircle
 10
110.677369
 20
49.7020480000001
 30
0.0
 40
1.071944
100
AcDbArc
 50
282.6742670000003
 51
0.0
  0
LWPOLYLINE
  5
9C1
330
A
100
AcDbEntity
  8
Hawa6
 62
     3
100
AcDbPolyline
 90
        6
 70
     0
 43
0.0
 10
111.331563
 20
49.78371300000002
 10
111.105218
 20
49.36610999999993
 10
110.774148
 20
48.98464000000013
 10
110.447419
 20
48.76320499999997
 10
110.045366
 20
48.63979199999993
 10
109.894105
 20
48.63014799999996
  0
ELLIPSE
  5
9C2
330
A
100
AcDbEntity
  8
Hawa6
 62
     3
100
AcDbEllipse
 10
114.019895
 20
66.63014799999996
 30
0.0
 11
0.0000000119248806
 21
-1.0
 31
0.0
210
0.0
220
0.0
230
1.0
 40
0.9608049999999998
 41
3.980301856994628
 42
4.71238899230957
  0
LINE
  5
9C3
330
A
100
AcDbEntity
  8
Hawa6
 62
     3
 48
0.045244
100
AcDbLine
 10
113.059091
 20
66.63014799999996
 30
0.0
 11
111.249322
 21
66.63014799999996
 31
0.0
  0
ELLIPSE
  5
9C4
330
A
100
AcDbEntity
  8
Hawa6
 62
     3
100
AcDbEllipse
 10
113.539495
 20
56.13014799999996
 30
0.0
 11
-0.0000000218556941
 21
0.5
 31
0.0
210
0.0
220
0.0
230
1.0
 40
0.960804
 41
1.570796370506286
 42
2.632240056991576
  0
LINE
  5
9C5
330
A
100
AcDbEntity
  8
Hawa6
 62
     3
 48
0.042654
100
AcDbLine
 10
113.305475
 20
55.63014799999996
 30
0.0
 11
111.599317
 21
55.63014799999996
 31
0.0
  0
LINE
  5
9C6
330
A
100
AcDbEntity
  8
Hawa6
 62
     3
 48
0.045244
100
AcDbLine
 10
113.059091
 20
56.13014799999996
 30
0.0
 11
111.249322
 21
56.13014799999996
 31
0.0
  0
LINE
  5
9C7
330
A
100
AcDbEntity
  8
Hawa6
 62
     3
 48
0.1
100
AcDbLine
 10
132.249315
 20
48.63014799999996
 30
0.0
 11
128.249315
 21
48.63014799999996
 31
0.0
  0
LINE
  5
9C8
330
A
100
AcDbEntity
  8
Hawa6
 62
     3
 48
0.126265
100
AcDbLine
 10
123.198716
 20
48.63014799999996
 30
0.0
 11
128.249315
 21
48.63014799999996
 31
0.0
  0
LINE
  5
9C9
330
A
100
AcDbEntity
  8
Hawa6
 62
     3
 48
0.166614
100
AcDbLine
 10
104.249315
 20
48.63014799999996
 30
0.0
 11
110.913869
 21
48.63014799999996
 31
0.0
  0
LINE
  5
9CA
330
A
100
AcDbEntity
  8
Hawa6
 62
     3
 48
0.1
100
AcDbLine
 10
104.249315
 20
48.63014799999996
 30
0.0
 11
100.249315
 21
48.63014799999996
 31
0.0
  0
LINE
  5
9CB
330
A
100
AcDbEntity
  8
Hawa6
 62
     3
 48
0.075
100
AcDbLine
 10
133.249315
 20
44.63014799999996
 30
0.0
 11
133.249315
 21
47.63014799999996
 31
0.0
  0
LINE
  5
9CC
330
A
100
AcDbEntity
  8
Hawa6
 62
     3
 48
0.075
100
AcDbLine
 10
99.24931499999999
 20
44.63014799999996
 30
0.0
 11
99.24931499999999
 21
47.63014799999996
 31
0.0
  0
LINE
  5
9CD
330
A
100
AcDbEntity
  8
Hawa6
 62
     3
 48
0.075
100
AcDbLine
 10
104.249315
 20
44.63014799999996
 30
0.0
 11
104.249315
 21
47.63014799999996
 31
0.0
  0
LINE
  5
9CE
330
A
100
AcDbEntity
  8
Hawa6
 62
     3
 48
0.125
100
AcDbLine
 10
104.249315
 20
47.63014799999996
 30
0.0
 11
99.24931499999999
 21
47.63014799999996
 31
0.0
  0
LINE
  5
9CF
330
A
100
AcDbEntity
  8
Hawa6
 62
     3
 48
0.052243
100
AcDbLine
 10
116.016641
 20
66.13014799999996
 30
0.0
 11
118.106344
 21
66.13014799999996
 31
0.0
  0
LINE
  5
9D0
330
A
100
AcDbEntity
  8
Hawa6
 62
     3
 48
0.4625
100
AcDbLine
 10
118.106344
 20
47.63014799999996
 30
0.0
 11
118.106344
 21
66.13014799999996
 31
0.0
  0
LINE
  5
9D1
330
A
100
AcDbEntity
  8
Hawa6
 62
     3
 48
0.253574
100
AcDbLine
 10
118.106344
 20
47.63014799999996
 30
0.0
 11
128.249315
 21
47.63014799999996
 31
0.0
  0
LINE
  5
9D2
330
A
100
AcDbEntity
  8
Hawa6
 62
     3
 48
0.075
100
AcDbLine
 10
128.249315
 20
44.63014799999996
 30
0.0
 11
128.249315
 21
47.63014799999996
 31
0.0
  0
LINE
  5
9D3
330
A
100
AcDbEntity
  8
Hawa6
 62
     3
 48
0.2941829999999999
100
AcDbLine
 10
104.249315
 20
47.63014799999996
 30
0.0
 11
116.016641
 21
47.63014799999996
 31
0.0
  0
LINE
  5
9D4
330
A
100
AcDbEntity
  8
Hawa6
 62
     3
 48
0.4625
100
AcDbLine
 10
116.016641
 20
47.63014799999996
 30
0.0
 11
116.016641
 21
66.13014799999996
 31
0.0
  0
LINE
  5
9D5
330
A
100
AcDbEntity
  8
Hawa6
 62
     3
 48
0.125
100
AcDbLine
 10
133.249315
 20
47.63014799999996
 30
0.0
 11
128.249315
 21
47.63014799999996
 31
0.0
  0
ARC
  5
9D6
330
A
100
AcDbEntity
  8
Hawa6
 62
     3
100
AcDbCircle
 10
100.249315
 20
47.63014799999996
 30
0.0
 40
1.0
100
AcDbArc
 50
90.00000300000014
 51
180.0000049783131
  0
LINE
  5
9D7
330
A
100
AcDbEntity
  8
Hawa6
 62
     3
 48
0.025
100
AcDbLine
 10
104.249315
 20
47.63014799999996
 30
0.0
 11
104.249315
 21
48.63014799999996
 31
0.0
  0
LWPOLYLINE
  5
9D8
330
A
100
AcDbEntity
  8
Hawa6
 62
     3
100
AcDbPolyline
 90
        3
 70
     0
 43
0.0
 10
111.269899
 20
48.58962100000008
 10
113.222665
 20
48.19496699999991
 10
116.016641
 20
47.63014799999996
  0
LINE
  5
9D9
330
A
100
AcDbEntity
  8
Hawa6
 62
     3
 48
0.000881
100
AcDbLine
 10
111.235265
 20
48.5960910000001
 30
0.0
 11
111.269899
 21
48.58962100000008
 31
0.0
  0
ARC
  5
9DA
330
A
100
AcDbEntity
  8
Hawa6
 62
     3
100
AcDbCircle
 10
110.913026
 20
47.08986499999992
 30
0.0
 40
1.540324
100
AcDbArc
 50
77.92441300000016
 51
89.96854899999965
  0
ELLIPSE
  5
9DB
330
A
100
AcDbEntity
  8
Hawa6
 62
     3
100
AcDbEllipse
 10
110.401853
 20
51.6711640000001
 30
0.0
 11
-0.0000001329274539
 21
3.041025638580321
 31
0.0
210
0.0
220
0.0
230
1.0
 40
0.9659259999999997
 41
3.519761323928833
 42
4.71238899230957
  0
LWPOLYLINE
  5
9DC
330
A
100
AcDbEntity
  8
Hawa6
 62
     3
100
AcDbPolyline
 90
        4
 70
     0
 43
0.0
 10
113.339258
 20
51.6711640000001
 10
113.828924
 20
52.10634400000003
 10
114.328199
 20
52.41945499999997
 10
114.708894
 20
52.55910300000005
  0
ELLIPSE
  5
9DD
330
A
100
AcDbEntity
  8
Hawa6
 62
     3
100
AcDbEllipse
 10
110.913869
 20
52.55910300000005
 30
0.0
 11
-0.0000001717376392
 21
3.92889904975891
 31
0.0
210
0.0
220
0.0
230
0.9999999999999996
 40
0.9659259999999999
 41
3.141592741012573
 42
4.71238899230957
  0
LWPOLYLINE
  5
9DE
330
A
100
AcDbEntity
  8
Hawa6
 62
     3
100
AcDbPolyline
 90
        4
 70
     0
 43
0.0
 10
110.506456
 20
48.63014799999996
 10
111.071443
 20
48.69155000000001
 10
111.385309
 20
48.79213499999992
 10
111.486398
 20
48.84499200000004
  0
ARC
  5
9DF
330
A
100
AcDbEntity
  8
Hawa6
 62
     3
100
AcDbCircle
 10
111.429883
 20
48.89137899999992
 30
0.0
 40
0.072908
100
AcDbArc
 50
320.6528450000441
 51
342.6861040000674
  0
ARC
  5
9E0
330
A
100
AcDbEntity
  8
Hawa6
 62
     3
100
AcDbCircle
 10
111.49743
 20
48.86965000000009
 30
0.0
 40
0.001957
100
AcDbArc
 50
1.977869996944972
 51
140.9060260021305
  0
ARC
  5
9E1
330
A
100
AcDbEntity
  8
Hawa6
 62
     3
100
AcDbCircle
 10
111.858789
 20
48.38295599999992
 30
0.0
 40
0.6083310000000001
100
AcDbArc
 50
126.6418579999972
 51
135.6949849999933
  0
LWPOLYLINE
  5
9E2
330
A
100
AcDbEntity
  8
Hawa6
 62
     3
100
AcDbPolyline
 90
        6
 70
     0
 43
0.0
 10
123.440198
 20
48.63014799999996
 10
122.940458
 20
48.67006500000002
 10
122.330934
 20
48.83913299999996
 10
121.868173
 20
49.08144199999992
 10
121.431905
 20
49.4546110000001
 10
121.214486
 20
49.74465000000009
  0
LWPOLYLINE
  5
9E3
330
A
100
AcDbEntity
  8
Hawa6
 62
     3
100
AcDbPolyline
 90
        3
 70
     0
 43
0.0
 10
121.006654
 20
50.22756000000004
 10
121.06117
 20
50.09206199999994
 10
121.167066
 20
49.8308320000001
  0
LWPOLYLINE
  5
9E4
330
A
100
AcDbEntity
  8
Hawa6
 62
     3
100
AcDbPolyline
 90
        5
 70
     0
 43
0.0
 10
120.999315
 20
50.23476200000004
 10
120.999341
 20
50.23598300000003
 10
121.000135
 20
50.23720400000001
 10
121.004419
 20
50.23183300000004
 10
121.006654
 20
50.22756000000004
  0
LWPOLYLINE
  5
9E5
330
A
100
AcDbEntity
  8
Hawa6
 62
     3
100
AcDbPolyline
 90
        4
 70
     0
 43
0.0
 10
121.214486
 20
49.74465000000009
 10
121.026529
 20
50.13881500000002
 10
121.000997
 20
50.2232879999999
 10
120.999315
 20
50.23476200000004
  0
ELLIPSE
  5
9E6
330
A
100
AcDbEntity
  8
Hawa6
 62
     3
100
AcDbEllipse
 10
123.198716
 20
52.54897099999993
 30
0.0
 11
-0.000000171298538
 21
3.918853759765625
 31
0.0
210
0.0
220
0.0
230
0.9999999999999998
 40
0.9659259999999999
 41
1.570796370506286
 42
3.141592741012573
  0
LWPOLYLINE
  5
9E7
330
A
100
AcDbEntity
  8
Hawa6
 62
     3
100
AcDbPolyline
 90
        4
 70
     0
 43
0.0
 10
120.408574
 20
51.94264799999996
 10
119.913183
 20
52.32301899999993
 10
119.580446
 20
52.49171999999999
 10
119.413392
 20
52.54897099999993
  0
ARC
  5
9E8
330
A
100
AcDbEntity
  8
Hawa6
 62
     3
100
AcDbCircle
 10
123.789438
 20
51.93398099999989
 30
0.0
 40
3.38043
100
AcDbArc
 50
179.853292999999
 51
220.3731979999994
  0
LINE
  5
9E9
330
A
100
AcDbEntity
  8
Hawa6
 62
     3
 48
0.025
100
AcDbLine
 10
128.249315
 20
47.63014799999996
 30
0.0
 11
128.249315
 21
48.63014799999996
 31
0.0
  0
ARC
  5
9EA
330
A
100
AcDbEntity
  8
Hawa6
 62
     3
100
AcDbCircle
 10
123.199792
 20
47.11989399999993
 30
0.0
 40
1.510271999999999
100
AcDbArc
 50
90.04082699999981
 51
102.1967330000005
  0
LINE
  5
9EB
330
A
100
AcDbEntity
  8
Hawa6
 62
     3
 48
0.000609
100
AcDbLine
 10
122.856763
 20
48.59169599999996
 30
0.0
 11
122.880716
 21
48.5960910000001
 31
0.0
  0
LWPOLYLINE
  5
9EC
330
A
100
AcDbEntity
  8
Hawa6
 62
     3
100
AcDbPolyline
 90
        3
 70
     0
 43
0.0
 10
122.856763
 20
48.59169599999996
 10
121.18342
 20
48.25490400000012
 10
118.106344
 20
47.63014799999996
  0
ARC
  5
9ED
330
A
100
AcDbEntity
  8
Hawa6
 62
     3
100
AcDbCircle
 10
132.249315
 20
47.63014799999996
 30
0.0
 40
1.0
100
AcDbArc
 50
0.0
 51
90.0000029999993
  0
LINE
  5
9EE
330
A
100
AcDbEntity
  8
Hawa6
 62
     3
 48
0.000075
100
AcDbLine
 10
116.016641
 20
66.13014799999996
 30
0.0
 11
116.015058
 21
66.13271200000008
 31
0.0
  0
LINE
  5
9EF
330
A
100
AcDbEntity
  8
Hawa6
 62
     3
 48
0.024109
100
AcDbLine
 10
115.050718
 20
66.13161300000001
 30
0.0
 11
116.015058
 21
66.13271200000008
 31
0.0
  0
LINE
  5
9F0
330
A
100
AcDbEntity
  8
Hawa6
 62
     3
 48
0.343002
100
AcDbLine
 10
115.050718
 20
52.4115200000001
 30
0.0
 11
115.050718
 21
66.13161300000001
 31
0.0
  0
LINE
  5
9F1
330
A
100
AcDbEntity
  8
Hawa6
 62
     3
 48
0.000882
100
AcDbLine
 10
115.057172
 20
52.37685200000011
 30
0.0
 11
115.050718
 21
52.4115200000001
 31
0.0
  0
LWPOLYLINE
  5
9F2
330
A
100
AcDbEntity
  8
Hawa6
 62
     3
100
AcDbPolyline
 90
        3
 70
     0
 43
0.0
 10
115.057172
 20
52.37685200000011
 10
115.451837
 20
50.42409300000008
 10
116.016641
 20
47.63014799999996
  0
LINE
  5
9F3
330
A
100
AcDbEntity
  8
Hawa6
 62
     3
 48
0.343204
100
AcDbLine
 10
119.072271
 20
52.40456199999993
 30
0.0
 11
119.072271
 21
66.13271200000008
 31
0.0
  0
LINE
  5
9F4
330
A
100
AcDbEntity
  8
Hawa6
 62
     3
 48
0.024081
100
AcDbLine
 10
118.109029
 20
66.13442099999997
 30
0.0
 11
119.072271
 21
66.13271200000008
 31
0.0
  0
LINE
  5
9F5
330
A
100
AcDbEntity
  8
Hawa6
 62
     3
 48
0.000126
100
AcDbLine
 10
118.106344
 20
66.13014799999996
 30
0.0
 11
118.109029
 21
66.13442099999997
 31
0.0
  0
LWPOLYLINE
  5
9F6
330
A
100
AcDbEntity
  8
Hawa6
 62
     3
100
AcDbPolyline
 90
        3
 70
     0
 43
0.0
 10
119.067857
 20
52.38051399999996
 10
118.731057
 20
50.707175
 10
118.106344
 20
47.63014799999996
  0
LINE
  5
9F7
330
A
100
AcDbEntity
  8
Hawa6
 62
     3
 48
0.000611
100
AcDbLine
 10
119.067857
 20
52.38051399999996
 30
0.0
 11
119.072271
 21
52.40456199999993
 31
0.0
  0
LWPOLYLINE
  5
9F8
330
A
100
AcDbEntity
  8
Hawa6
 62
     3
100
AcDbPolyline
 90
        8
 70
     0
 43
0.0
 10
118.106344
 20
66.13442099999997
 10
118.155286
 20
67.32570499999997
 10
118.259302
 20
68.09279500000002
 10
118.351678
 20
68.43263799999999
 10
118.419702
 20
68.56874700000003
 10
118.454858
 20
68.60793100000001
 10
118.490419
 20
68.6277070000001
 10
118.508268
 20
68.63014799999996
  0
LINE
  5
9F9
330
A
100
AcDbEntity
  8
Hawa6
 62
     3
 48
0.072339
100
AcDbLine
 10
115.614717
 20
68.63014799999996
 30
0.0
 11
118.508268
 21
68.63014799999996
 31
0.0
  0
ELLIPSE
  5
9FA
330
A
100
AcDbEntity
  8
Hawa6
 62
     3
100
AcDbEllipse
 10
115.614717
 20
66.13014799999996
 30
0.0
 11
-0.0000011622856846
 21
-2.50001072883606
 31
0.0
210
0.0
220
0.0
230
0.9999999999999996
 40
0.160769
 41
1.571802139282226
 42
3.141592979431151
  0
ELLIPSE
  5
9FB
330
A
100
AcDbEntity
  8
Hawa6
 62
     3
100
AcDbEllipse
 10
111.235265
 20
52.4115200000001
 30
0.0
 11
-2.793096780776977
 21
-2.793113708496094
 31
0.0
210
0.0
220
0.0
230
1.0
 40
0.9351130000000001
 41
0.8189139366149902
 42
2.322672843933105
  0
ELLIPSE
  5
9FC
330
A
100
AcDbEntity
  8
Hawa6
 62
     3
100
AcDbEllipse
 10
114.753427
 20
47.81264299999998
 30
0.0
 11
0.0227925460785627
 21
-4.747139453887938
 31
0.0
210
0.0
220
0.0
230
0.9999999999999996
 40
0.269892
 41
2.889672040939331
 42
3.158564090728759
  0
ARC
  5
9FD
330
A
100
AcDbEntity
  8
Hawa6
 62
     3
100
AcDbCircle
 10
113.402486
 20
51.59547999999995
 30
0.0
 40
0.098169
100
AcDbArc
 50
129.884858000004
 51
174.2093020000475
  0
LINE
  5
9FE
330
A
100
AcDbEntity
  8
Hawa6
 62
     3
 48
0.398975
100
AcDbLine
 10
113.339258
 20
51.6711640000001
 30
0.0
 11
113.339258
 21
67.63014799999996
 31
0.0
  0
LINE
  5
9FF
330
A
100
AcDbEntity
  8
Hawa6
 62
     3
 48
0.032738
100
AcDbLine
 10
113.339258
 20
67.63014799999996
 30
0.0
 11
114.648794
 21
67.63014799999996
 31
0.0
  0
LWPOLYLINE
  5
A00
330
A
100
AcDbEntity
  8
Hawa6
 62
     3
100
AcDbPolyline
 90
        6
 70
     0
 43
0.0
 10
114.648794
 20
67.63014799999996
 10
114.70907
 20
67.61318000000007
 10
114.787172
 20
67.53847300000007
 10
114.893258
 20
67.3208219999999
 10
114.999303
 20
66.86415699999997
 10
115.050718
 20
66.13161300000001
  0
LINE
  5
A01
330
A
100
AcDbEntity
  8
Hawa6
 62
     3
 48
0.00375
100
AcDbLine
 10
120.899316
 20
55.63014799999996
 30
0.0
 11
120.749315
 21
55.63014799999996
 31
0.0
  0
LWPOLYLINE
  5
A02
330
A
100
AcDbEntity
  8
Hawa6
 62
     3
100
AcDbPolyline
 90
        4
 70
     0
 43
0.0
 10
120.749315
 20
51.25014299999998
 10
120.71079
 20
51.49635899999998
 10
120.596422
 20
51.72890299999995
 10
120.408571
 20
51.94264799999996
  0
LINE
  5
A03
330
A
100
AcDbEntity
  8
Hawa6
 62
     3
 48
0.4095
100
AcDbLine
 10
120.749315
 20
51.25014299999998
 30
0.0
 11
120.749315
 21
67.63014799999996
 31
0.0
  0
ELLIPSE
  5
A04
330
A
100
AcDbEntity
  8
Hawa6
 62
     3
100
AcDbEllipse
 10
122.880716
 20
52.40456199999993
 30
0.0
 11
2.787974834442138
 21
-2.787978410720825
 31
0.0
210
0.0
220
0.0
230
0.9999999999999998
 40
0.9351129999999999
 41
3.960510015487671
 42
5.464268684387207
  0
ELLIPSE
  5
A05
330
A
100
AcDbEntity
  8
Hawa6
 62
     3
100
AcDbEllipse
 10
119.364374
 20
47.820334
 30
0.0
 11
-0.0244724620133638
 21
-4.729714393615722
 31
0.0
210
0.0
220
0.0
230
1.0
 40
0.2698200000000001
 41
3.122352838516234
 42
3.39166259765625
  0
LWPOLYLINE
  5
A06
330
A
100
AcDbEntity
  8
Hawa6
 62
     3
100
AcDbPolyline
 90
        6
 70
     0
 43
0.0
 10
119.072271
 20
66.13271200000008
 10
119.123758
 20
66.86464500000011
 10
119.229806
 20
67.32106599999998
 10
119.335866
 20
67.53847300000007
 10
119.413938
 20
67.61318000000007
 10
119.474195
 20
67.63014799999996
  0
LINE
  5
A07
330
A
100
AcDbEntity
  8
Hawa6
 62
     3
 48
0.023359
100
AcDbLine
 10
119.474195
 20
67.63014799999996
 30
0.0
 11
120.408574
 21
67.63014799999996
 31
0.0
  0
LINE
  5
A08
330
A
100
AcDbEntity
  8
Hawa6
 62
     3
 48
0.392188
100
AcDbLine
 10
120.408574
 20
51.94264799999996
 30
0.0
 11
120.408574
 21
67.63014799999996
 31
0.0
  0
ELLIPSE
  5
A09
330
A
100
AcDbEntity
  8
Hawa6
 62
     3
100
AcDbEllipse
 10
115.614717
 20
67.63014799999996
 30
0.0
 11
0.0000000119248806
 21
-1.0
 31
0.0
210
0.0
220
0.0
230
1.0
 40
0.9659259999999999
 41
3.141592741012573
 42
4.71238899230957
  0
ELLIPSE
  5
A0A
330
A
100
AcDbEntity
  8
Hawa6
 62
     3
100
AcDbEllipse
 10
118.508268
 20
67.63014799999996
 30
0.0
 11
0.0000000119248806
 21
-1.0
 31
0.0
210
0.0
220
0.0
230
1.0
 40
0.9659259999999999
 41
1.570796370506286
 42
3.141592741012573
  0
LINE
  5
A0B
330
A
100
AcDbEntity
  8
Hawa6
 62
     3
 48
0.032738
100
AcDbLine
 10
114.305185
 20
68.63014799999996
 30
0.0
 11
115.614717
 21
68.63014799999996
 31
0.0
  0
LINE
  5
A0C
330
A
100
AcDbEntity
  8
Hawa6
 62
     3
 48
0.023359
100
AcDbLine
 10
118.508268
 20
68.63014799999996
 30
0.0
 11
119.442647
 21
68.63014799999996
 31
0.0
  0
LINE
  5
A0D
330
A
100
AcDbEntity
  8
Hawa6
 62
     3
 48
0.007667
100
AcDbLine
 10
119.749315
 20
68.63014799999996
 30
0.0
 11
119.442647
 21
68.63014799999996
 31
0.0
  0
LINE
  5
A0E
330
A
100
AcDbEntity
  8
Hawa6
 62
     3
 48
0.000852
100
AcDbLine
 10
113.339258
 20
67.63014799999996
 30
0.0
 11
113.305185
 21
67.63014799999996
 31
0.0
  0
ELLIPSE
  5
A0F
330
A
100
AcDbEntity
  8
Hawa6
 62
     3
100
AcDbEllipse
 10
114.305185
 20
67.63014799999996
 30
0.0
 11
0.0000000119248806
 21
-1.0
 31
0.0
210
0.0
220
0.0
230
1.0
 40
0.9659259999999999
 41
3.141592741012573
 42
4.71238899230957
  0
ELLIPSE
  5
A10
330
A
100
AcDbEntity
  8
Hawa6
 62
     3
100
AcDbEllipse
 10
120.314317
 20
56.13014799999996
 30
0.0
 11
-0.0000000218556941
 21
0.5
 31
0.0
210
0.0
220
0.0
230
1.0
 40
0.9881819999999999
 41
4.218219757080078
 42
4.71238899230957
  0
LINE
  5
A11
330
A
100
AcDbEntity
  8
Hawa6
 62
     3
 48
0.001477
100
AcDbLine
 10
120.808408
 20
56.13014799999996
 30
0.0
 11
120.749315
 21
56.13014799999996
 31
0.0
  0
LINE
  5
A12
330
A
100
AcDbEntity
  8
Hawa6
 62
     3
 48
0.011031
100
AcDbLine
 10
121.249643
 20
56.13014799999996
 30
0.0
 11
120.808408
 21
56.13014799999996
 31
0.0
  0
LINE
  5
A13
330
A
100
AcDbEntity
  8
Hawa6
 62
     3
 48
0.008519
100
AcDbLine
 10
120.749315
 20
67.63014799999996
 30
0.0
 11
120.408574
 21
67.63014799999996
 31
0.0
  0
LINE
  5
A14
330
A
100
AcDbEntity
  8
Hawa6
 62
     3
 48
0.2625
100
AcDbLine
 10
120.808408
 20
56.13014799999996
 30
0.0
 11
120.808408
 21
66.63014799999996
 31
0.0
  0
LINE
  5
A15
330
A
100
AcDbEntity
  8
Hawa6
 62
     3
 48
0.001477
100
AcDbLine
 10
120.808408
 20
66.63014799999996
 30
0.0
 11
120.749315
 21
66.63014799999996
 31
0.0
  0
ARC
  5
A16
330
A
100
AcDbEntity
  8
Hawa6
 62
     3
100
AcDbCircle
 10
119.749315
 20
67.63014799999996
 30
0.0
 40
1.0
100
AcDbArc
 50
0.0
 51
90.0000029999993
  0
ELLIPSE
  5
A17
330
A
100
AcDbEntity
  8
Hawa6
 62
     3
100
AcDbEllipse
 10
119.442647
 20
67.63014799999996
 30
0.0
 11
0.0000000119248806
 21
-1.0
 31
0.0
210
0.0
220
0.0
230
1.0
 40
0.9659259999999999
 41
1.570796370506286
 42
3.141592741012573
  0
LINE
  5
A18
330
A
100
AcDbEntity
  8
Hawa6
 62
     3
 48
0.011031
100
AcDbLine
 10
121.249643
 20
66.63014799999996
 30
0.0
 11
120.808408
 21
66.63014799999996
 31
0.0
  0
ELLIPSE
  5
A19
330
A
100
AcDbEntity
  8
Hawa6
 62
     3
100
AcDbEllipse
 10
119.820226
 20
66.63014799999996
 30
0.0
 11
0.0000000119248806
 21
-1.0
 31
0.0
210
0.0
220
0.0
230
1.0
 40
0.9881819999999999
 41
1.570796370506286
 42
1.918417096137999
  0
LWPOLYLINE
  5
A1A
330
A
100
AcDbEntity
  8
Hawa6
 62
     3
100
AcDbPolyline
 90
        3
 70
     0
 43
0.0
 10
111.494222
 20
50.18825399999992
 10
111.688112
 20
50.70473300000003
 10
111.749311
 20
51.182638
  0
ARC
  5
A1B
330
A
100
AcDbEntity
  8
Hawa6
 62
     3
100
AcDbCircle
 10
112.099317
 20
66.63014799999996
 30
0.0
 40
1.0
100
AcDbArc
 50
90.00001600000047
 51
148.2695420000025
  0
ARC
  5
A1C
330
A
100
AcDbEntity
  8
Hawa6
 62
     3
100
AcDbCircle
 10
111.599317
 20
56.13014799999996
 30
0.0
 40
0.5
100
AcDbArc
 50
225.4850789999941
 51
269.9999159999994
  0
ARC
  5
A1D
330
A
100
AcDbEntity
  8
Hawa6
 62
     3
100
AcDbCircle
 10
110.319944
 20
51.61562200000003
 30
0.0
 40
2.985811999999999
100
AcDbArc
 50
293.1914750000009
 51
359.8040219999997
  0
LWPOLYLINE
  5
A1E
330
A
100
AcDbEntity
  8
Hawa6
 62
     3
100
AcDbPolyline
 90
        3
 70
     0
 43
0.0
 10
121.006654
 20
50.22756000000004
 10
120.812509
 20
50.75087600000006
 10
120.749318
 20
51.24953299999994
  0
LINE
  5
A1F
330
A
100
AcDbEntity
  8
Hawa6
 62
     3
 48
0.40062
100
AcDbLine
 10
113.305185
 20
51.605368
 30
0.0
 11
113.305185
 21
67.63014799999996
 31
0.0
  0
ARC
  5
A20
330
A
100
AcDbEntity
  8
Hawa6
 62
     3
100
AcDbCircle
 10
120.899312
 20
56.13014799999996
 30
0.0
 40
0.5
100
AcDbArc
 50
270.0001479999993
 51
314.3453769999983
  0
ARC
  5
A21
330
A
100
AcDbEntity
  8
Hawa6
 62
     3
100
AcDbCircle
 10
114.305185
 20
67.63014799999996
 30
0.0
 40
1.0
100
AcDbArc
 50
90.0000029999993
 51
180.0000049783131
  0
ARC
  5
A22
330
A
100
AcDbEntity
  8
Hawa6
 62
     3
100
AcDbCircle
 10
120.399316
 20
66.63014799999996
 30
0.0
 40
1.0
100
AcDbArc
 50
31.8460120000035
 51
69.51359399999735
  0
LINE
  5
A28
330
A
100
AcDbEntity
  8
Hawa6
 62
     3
 48
0.00246
100
AcDbLine
 10
121.214486
 20
49.74465000000009
 30
0.0
 11
121.165708
 21
49.83009900000002
 31
0.0
  0
LINE
  5
A29
330
A
100
AcDbEntity
  8
Hawa6
 62
     3
 48
0.000053
100
AcDbLine
 10
118.506158
 20
68.63014799999996
 30
0.0
 11
118.508268
 21
68.63014799999996
 31
0.0
  0
LINE
  5
A2A
330
A
100
AcDbEntity
  8
Hawa6
 62
     3
 48
0.000228
100
AcDbLine
 10
115.614717
 20
68.63014799999996
 30
0.0
 11
115.623819
 21
68.62953799999991
 31
0.0
  0
ELLIPSE
  5
A2B
330
A
100
AcDbEntity
  8
Hawa6
 62
     3
100
AcDbEllipse
 10
118.508268
 20
67.63014799999996
 30
0.0
 11
0.0000000119248806
 21
-1.0
 31
0.0
210
0.0
220
0.0
230
1.0
 40
0.9659259999999999
 41
3.070987939834595
 42
3.141592741012573
  0
ELLIPSE
  5
A2C
330
A
100
AcDbEntity
  8
Hawa6
 62
     3
100
AcDbEllipse
 10
119.442647
 20
67.63014799999996
 30
0.0
 11
0.0000000119248806
 21
-1.0
 31
0.0
210
0.0
220
0.0
230
1.0
 40
0.9659259999999999
 41
3.048957109451293
 42
3.141592741012573
  0
ARC
  5
A2D
330
A
100
AcDbEntity
  8
Hawa6
 62
     3
100
AcDbCircle
 10
112.099317
 20
66.63014799999996
 30
0.0
 40
1.0
100
AcDbArc
 50
110.4654620000014
 51
137.1722599999977
  0
LINE
  5
A30
330
A
100
AcDbEntity
  8
Hawa5
 62
     1
 48
0.066311
100
AcDbLine
 10
125.389757
 20
44.3730680000001
 30
0.0
 11
128.042207
 21
44.3730680000001
 31
0.0
  0
LINE
  5
A31
330
A
100
AcDbEntity
  8
Hawa5
 62
     1
 48
0.023333
100
AcDbLine
 10
125.389757
 20
44.3730680000001
 30
0.0
 11
124.456422
 21
44.3730680000001
 31
0.0
  0
LINE
  5
A32
330
A
100
AcDbEntity
  8
Hawa5
 62
     1
 48
0.055478
100
AcDbLine
 10
125.530176
 20
43.66591500000004
 30
0.0
 11
127.749315
 21
43.66591500000004
 31
0.0
  0
LINE
  5
A33
330
A
100
AcDbEntity
  8
Hawa5
 62
     1
 48
0.019522
100
AcDbLine
 10
125.530176
 20
43.66591500000004
 30
0.0
 11
124.749315
 21
43.66591500000004
 31
0.0
  0
LWPOLYLINE
  5
A34
330
A
100
AcDbEntity
  8
Hawa5
 62
     1
100
AcDbPolyline
 90
        7
 70
     0
 43
0.0
 10
127.749315
 20
43.39931300000011
 10
127.729848
 20
43.33522599999992
 10
127.672315
 20
43.2712610000001
 10
127.450673
 20
43.14394199999992
 10
127.00245
 20
42.98366400000009
 10
125.963003
 20
42.69789700000001
 10
125.530176
 20
42.5754609999999
  0
ARC
  5
A35
330
A
100
AcDbEntity
  8
Hawa5
 62
     1
100
AcDbCircle
 10
126.546026
 20
38.93434700000012
 30
0.0
 40
3.779306999999999
100
AcDbArc
 50
105.5891100000005
 51
114.3829040000004
  0
LWPOLYLINE
  5
A36
330
A
100
AcDbEntity
  8
Hawa5
 62
     1
100
AcDbPolyline
 90
        4
 70
     0
 43
0.0
 10
127.512517
 20
42.34425899999997
 10
127.080533
 20
42.17958700000007
 10
126.12803
 20
41.9137169999999
 10
125.530176
 20
41.74696900000003
  0
LWPOLYLINE
  5
A37
330
A
100
AcDbEntity
  8
Hawa5
 62
     1
100
AcDbPolyline
 90
        6
 70
     0
 43
0.0
 10
125.530176
 20
40.0754609999999
 10
126.632097
 20
40.37709599999994
 10
127.321523
 20
40.59120800000004
 10
127.620843
 20
40.73354199999993
 10
127.725427
 20
40.82826799999997
 10
127.749315
 20
40.89931300000012
  0
ARC
  5
A38
330
A
100
AcDbEntity
  8
Hawa5
 62
     1
100
AcDbCircle
 10
126.546041
 20
36.43446900000004
 30
0.0
 40
3.779199999999999
100
AcDbArc
 50
105.589806
 51
114.3838470000001
  0
LWPOLYLINE
  5
A39
330
A
100
AcDbEntity
  8
Hawa5
 62
     1
100
AcDbPolyline
 90
        5
 70
     0
 43
0.0
 10
125.530176
 20
41.74696900000003
 10
125.046735
 20
41.57582700000012
 10
124.839292
 20
41.45949399999994
 10
124.763208
 20
41.37514299999997
 10
124.749315
 20
41.32094400000005
  0
LWPOLYLINE
  5
A3A
330
A
100
AcDbEntity
  8
Hawa5
 62
     1
100
AcDbPolyline
 90
        7
 70
     0
 43
0.0
 10
125.530176
 20
37.5754609999999
 10
126.605878
 20
37.86989399999993
 10
127.297654
 20
38.08229699999993
 10
127.585645
 20
38.21181300000012
 10
127.709558
 20
38.30751600000008
 10
127.746629
 20
38.37550899999996
 10
127.749315
 20
38.39931300000012
  0
LWPOLYLINE
  5
A3B
330
A
100
AcDbEntity
  8
Hawa5
 62
     1
100
AcDbPolyline
 90
        4
 70
     0
 43
0.0
 10
127.51241
 20
39.84425899999997
 10
127.104001
 20
39.68715500000008
 10
126.160749
 20
39.42238399999997
 10
125.530176
 20
39.24696900000004
  0
ARC
  5
A3C
330
A
100
AcDbEntity
  8
Hawa5
 62
     1
100
AcDbCircle
 10
126.545453
 20
33.93630000000007
 30
0.0
 40
3.777317
100
AcDbArc
 50
105.5885709999998
 51
114.3865720000001
  0
LWPOLYLINE
  5
A3D
330
A
100
AcDbEntity
  8
Hawa5
 62
     1
100
AcDbPolyline
 90
        5
 70
     0
 43
0.0
 10
124.749315
 20
38.82094400000005
 10
124.76325
 20
38.87526500000014
 10
124.839456
 20
38.9596160000001
 10
125.046655
 20
39.07582700000012
 10
125.530176
 20
39.24696900000004
  0
LWPOLYLINE
  5
A3E
330
A
100
AcDbEntity
  8
Hawa5
 62
     1
100
AcDbPolyline
 90
        7
 70
     0
 43
0.0
 10
127.749315
 20
35.89931300000012
 10
127.737794
 20
35.84999700000003
 10
127.677759
 20
35.77602200000001
 10
127.469339
 20
35.65236499999993
 10
126.967912
 20
35.47316599999999
 10
125.875642
 20
35.17421600000011
 10
125.530176
 20
35.0754609999999
  0
LWPOLYLINE
  5
A3F
330
A
100
AcDbEntity
  8
Hawa5
 62
     1
100
AcDbPolyline
 90
        4
 70
     0
 43
0.0
 10
125.530176
 20
36.74696900000004
 10
126.628965
 20
37.04775100000006
 10
127.252866
 20
37.23757000000001
 10
127.51246
 20
37.34425899999997
  0
LWPOLYLINE
  5
A40
330
A
100
AcDbEntity
  8
Hawa5
 62
     1
100
AcDbPolyline
 90
        6
 70
     0
 43
0.0
 10
124.749315
 20
36.32094400000005
 10
124.766439
 20
36.38112500000011
 10
124.817849
 20
36.44167199999993
 10
125.019952
 20
36.56374200000005
 10
125.431272
 20
36.71645200000012
 10
125.530176
 20
36.74696900000004
  0
ARC
  5
A41
330
A
100
AcDbEntity
  8
Hawa5
 62
     1
100
AcDbCircle
 10
126.545171
 20
31.43703299999993
 30
0.0
 40
3.776498999999999
100
AcDbArc
 50
105.5875060000004
 51
114.3882590000005
  0
LWPOLYLINE
  5
A42
330
A
100
AcDbEntity
  8
Hawa5
 62
     1
100
AcDbPolyline
 90
        4
 70
     0
 43
0.0
 10
125.530176
 20
34.24696900000004
 10
126.68424
 20
34.56300899999997
 10
127.334142
 20
34.76759900000002
 10
127.512487
 20
34.84425899999997
  0
LWPOLYLINE
  5
A43
330
A
100
AcDbEntity
  8
Hawa5
 62
     1
100
AcDbPolyline
 90
        7
 70
     0
 43
0.0
 10
127.749315
 20
33.39931300000012
 10
127.737436
 20
33.34926399999995
 10
127.675531
 20
33.27406900000005
 10
127.462934
 20
33.14943500000004
 10
127.013532
 20
32.9870820000001
 10
125.982717
 20
32.70326799999998
 10
125.530176
 20
32.5754609999999
  0
LWPOLYLINE
  5
A44
330
A
100
AcDbEntity
  8
Hawa5
 62
     1
100
AcDbPolyline
 90
        6
 70
     0
 43
0.0
 10
125.530176
 20
34.24696900000004
 10
125.063096
 20
34.08302900000012
 10
124.872094
 20
33.98305299999993
 10
124.793355
 20
33.91762399999993
 10
124.75422
 20
33.85317099999997
 10
124.749315
 20
33.82094400000005
  0
ARC
  5
A45
330
A
100
AcDbEntity
  8
Hawa5
 62
     1
100
AcDbCircle
 10
126.54405
 20
28.93739899999991
 30
0.0
 40
3.775822
100
AcDbArc
 50
105.5724639999997
 51
114.3731909999994
  0
LWPOLYLINE
  5
A46
330
A
100
AcDbEntity
  8
Hawa5
 62
     1
100
AcDbPolyline
 90
        7
 70
     0
 43
0.0
 10
127.749315
 20
30.89931300000012
 10
127.735074
 20
30.844382
 10
127.662702
 20
30.76344900000004
 10
127.430066
 20
30.63466500000004
 10
126.892087
 20
30.45009400000004
 10
125.618394
 20
30.10048499999995
 10
125.530176
 20
30.074118
  0
LWPOLYLINE
  5
A47
330
A
100
AcDbEntity
  8
Hawa5
 62
     1
100
AcDbPolyline
 90
        4
 70
     0
 43
0.0
 10
127.512456
 20
32.34425899999997
 10
127.065107
 20
32.17470400000002
 10
126.105481
 20
31.90773600000011
 10
125.530176
 20
31.74696900000004
  0
LWPOLYLINE
  5
A48
330
A
100
AcDbEntity
  8
Hawa5
 62
     1
100
AcDbPolyline
 90
        5
 70
     0
 43
0.0
 10
125.530176
 20
31.74696900000004
 10
125.058954
 20
31.58119800000009
 10
124.834096
 20
31.45534300000008
 10
124.763383
 20
31.37550899999997
 10
124.749315
 20
31.32094400000005
  0
ARC
  5
A49
330
A
100
AcDbEntity
  8
Hawa5
 62
     1
100
AcDbCircle
 10
126.553399
 20
26.41750200000001
 30
0.0
 40
3.796248
100
AcDbArc
 50
105.6328440000001
 51
114.3410080000002
  0
LWPOLYLINE
  5
A4A
330
A
100
AcDbEntity
  8
Hawa5
 62
     1
100
AcDbPolyline
 90
        5
 70
     0
 43
0.0
 10
127.749315
 20
28.39113399999997
 10
127.736631
 20
28.33913299999995
 10
127.672086
 20
28.26234999999997
 10
127.459123
 20
28.13844900000004
 10
127.132036
 20
28.01491400000009
  0
LWPOLYLINE
  5
A4B
330
A
100
AcDbEntity
  8
Hawa5
 62
     1
100
AcDbPolyline
 90
        3
 70
     0
 43
0.0
 10
127.193895
 20
28.03151500000013
 10
126.425115
 20
27.76003100000004
 10
125.530176
 20
27.46413299999995
  0
LWPOLYLINE
  5
A4C
330
A
100
AcDbEntity
  8
Hawa5
 62
     1
100
AcDbPolyline
 90
        4
 70
     0
 43
0.0
 10
125.530176
 20
29.24574899999993
 10
126.620584
 20
29.54482099999996
 10
127.258771
 20
29.73940100000003
 10
127.512281
 20
29.84401500000013
  0
ARC
  5
A4D
330
A
100
AcDbEntity
  8
Hawa5
 62
     1
100
AcDbCircle
 10
126.956067
 20
23.38820499999997
 30
0.0
 40
4.317821
100
AcDbArc
 50
109.2815169999997
 51
115.4717779999999
  0
LWPOLYLINE
  5
A4E
330
A
100
AcDbEntity
  8
Hawa5
 62
     1
100
AcDbPolyline
 90
        5
 70
     0
 43
0.0
 10
124.749315
 20
28.81825900000013
 10
124.7712
 20
28.88649600000008
 10
124.865915
 20
28.97670599999992
 10
125.1354
 20
29.1112270000001
 10
125.530176
 20
29.24574899999993
  0
LWPOLYLINE
  5
A4F
330
A
100
AcDbEntity
  8
Hawa5
 62
     1
100
AcDbPolyline
 90
        3
 70
     0
 43
0.0
 10
125.530176
 20
26.82277500000009
 10
126.803071
 20
27.10182800000007
 10
127.193578
 20
27.19875200000001
  0
ARC
  5
A50
330
A
100
AcDbEntity
  8
Hawa5
 62
     1
100
AcDbCircle
 10
126.245759
 20
30.02821900000004
 30
0.0
 40
2.976402
100
AcDbArc
 50
287.3212259999997
 51
295.3329779999998
  0
LWPOLYLINE
  5
A51
330
A
100
AcDbEntity
  8
Hawa5
 62
     1
100
AcDbPolyline
 90
        6
 70
     0
 43
0.0
 10
124.749315
 20
26.48744800000009
 10
124.761979
 20
26.52809700000012
 10
124.799455
 20
26.56850299999996
 10
124.943624
 20
26.648459
 10
125.301977
 20
26.76515799999993
 10
125.530176
 20
26.82277500000009
  0
LWPOLYLINE
  5
A52
330
A
100
AcDbEntity
  8
Hawa5
 62
     1
100
AcDbPolyline
 90
        5
 70
     0
 43
0.0
 10
127.718778
 20
27.61012899999992
 10
125.883371
 20
27.29787299999998
 10
124.929849
 20
27.11086100000011
 10
124.467965
 20
26.98097800000005
 10
124.357545
 20
26.93666699999994
  0
LWPOLYLINE
  5
A53
330
A
100
AcDbEntity
  8
Hawa5
 62
     1
100
AcDbPolyline
 90
        7
 70
     0
 43
0.0
 10
124.357545
 20
26.93666699999994
 10
124.229394
 20
26.86110499999995
 10
124.186311
 20
26.8098359999999
 10
124.178808
 20
26.757834
 10
124.188646
 20
26.73158899999999
 10
124.235547
 20
26.67860999999994
 10
124.372701
 20
26.59804400000008
  0
LWPOLYLINE
  5
A54
330
A
100
AcDbEntity
  8
Hawa5
 62
     1
100
AcDbPolyline
 90
        5
 70
     0
 43
0.0
 10
127.459691
 20
25.30434199999991
 10
127.080514
 20
25.14479699999993
 10
126.199499
 20
24.84230600000001
 10
125.750944
 20
24.65785800000003
 10
125.697473
 20
24.63014799999996
  0
LINE
  5
A55
330
A
100
AcDbEntity
  8
Hawa5
 62
     1
 48
0.018093
100
AcDbLine
 10
127.132039
 20
27.1864230000001
 30
0.0
 11
127.718778
 21
27.61012899999992
 31
0.0
  0
LWPOLYLINE
  5
A56
330
A
100
AcDbEntity
  8
Hawa5
 62
     1
100
AcDbPolyline
 90
        7
 70
     0
 43
0.0
 10
128.582975
 20
43.1311250000001
 10
128.707338
 20
43.058127
 10
128.73879
 20
43.02162799999996
 10
128.749315
 20
42.98512899999992
 10
128.738805
 20
42.94863000000009
 10
128.707357
 20
42.91213100000003
 10
128.582956
 20
42.83913299999995
  0
LWPOLYLINE
  5
A57
330
A
100
AcDbEntity
  8
Hawa5
 62
     1
100
AcDbPolyline
 90
        7
 70
     0
 43
0.0
 10
128.582956
 20
42.83913299999995
 10
128.289888
 20
42.7400110000001
 10
127.534711
 20
42.57497200000011
 10
125.938474
 20
42.3105680000001
 10
124.627069
 20
42.07912299999997
 10
124.095861
 20
41.94716500000004
 10
123.9156389999999
 20
41.88112500000011
  0
LWPOLYLINE
  5
A58
330
A
100
AcDbEntity
  8
Hawa5
 62
     1
100
AcDbPolyline
 90
        7
 70
     0
 43
0.0
 10
123.9156389999999
 20
41.88112500000011
 10
123.791307
 20
41.80824899999993
 10
123.759851
 20
41.77175000000011
 10
123.749315
 20
41.73525100000006
 10
123.759805
 20
41.69863000000009
 10
123.79125
 20
41.66213100000003
 10
123.915685
 20
41.58913299999995
  0
LWPOLYLINE
  5
A59
330
A
100
AcDbEntity
  8
Hawa5
 62
     1
100
AcDbPolyline
 90
        7
 70
     0
 43
0.0
 10
128.583009
 20
40.63112500000011
 10
128.707319
 20
40.55824899999993
 10
128.738775
 20
40.52175000000011
 10
128.749318
 20
40.48525100000006
 10
128.738843
 20
40.448752
 10
128.707414
 20
40.41225299999996
 10
128.582948
 20
40.33913299999995
  0
LWPOLYLINE
  5
A5A
330
A
100
AcDbEntity
  8
Hawa5
 62
     1
100
AcDbPolyline
 90
        7
 70
     0
 43
0.0
 10
128.582948
 20
40.33913299999995
 10
128.289663
 20
40.2400110000001
 10
127.534269
 20
40.07497200000011
 10
125.938997
 20
39.81069000000002
 10
124.626928
 20
39.57912299999998
 10
124.095735
 20
39.44716500000004
 10
123.915613
 20
39.38112500000011
  0
LWPOLYLINE
  5
A5B
330
A
100
AcDbEntity
  8
Hawa5
 62
     1
100
AcDbPolyline
 90
        7
 70
     0
 43
0.0
 10
123.915613
 20
39.38112500000011
 10
123.791318
 20
39.30824899999993
 10
123.759862
 20
39.27175000000011
 10
123.749307
 20
39.23525100000006
 10
123.759771
 20
39.19875200000001
 10
123.791185
 20
39.16225299999997
 10
123.91567
 20
39.08913299999996
  0
LWPOLYLINE
  5
A5C
330
A
100
AcDbEntity
  8
Hawa5
 62
     1
100
AcDbPolyline
 90
        7
 70
     0
 43
0.0
 10
128.583021
 20
38.13112500000011
 10
128.707311
 20
38.05824899999993
 10
128.738767
 20
38.02175000000011
 10
128.749326
 20
37.98525100000006
 10
128.738874
 20
37.94875200000001
 10
128.707471
 20
37.91225299999997
 10
128.582975
 20
37.83913299999996
  0
LWPOLYLINE
  5
A5D
330
A
100
AcDbEntity
  8
Hawa5
 62
     1
100
AcDbPolyline
 90
        7
 70
     0
 43
0.0
 10
128.582975
 20
37.83913299999996
 10
128.28951
 20
37.7400110000001
 10
127.533765
 20
37.57484999999997
 10
125.939401
 20
37.31069000000002
 10
124.627065
 20
37.07912299999998
 10
124.095697
 20
36.94704300000012
 10
123.915616
 20
36.88112500000011
  0
LWPOLYLINE
  5
A5E
330
A
100
AcDbEntity
  8
Hawa5
 62
     1
100
AcDbPolyline
 90
        7
 70
     0
 43
0.0
 10
123.915616
 20
36.88112500000011
 10
123.791314
 20
36.80824899999993
 10
123.759862
 20
36.77175000000011
 10
123.749303
 20
36.73525100000006
 10
123.759755
 20
36.69875200000001
 10
123.791154
 20
36.66225299999997
 10
123.915655
 20
36.58913299999996
  0
LWPOLYLINE
  5
A5F
330
A
100
AcDbEntity
  8
Hawa5
 62
     1
100
AcDbPolyline
 90
        7
 70
     0
 43
0.0
 10
128.583005
 20
35.63112500000011
 10
128.707322
 20
35.55812700000001
 10
128.738771
 20
35.52175000000011
 10
128.749322
 20
35.48525100000006
 10
128.73887
 20
35.44875200000001
 10
128.707475
 20
35.41225299999997
 10
128.582979
 20
35.33913299999996
  0
LWPOLYLINE
  5
A60
330
A
100
AcDbEntity
  8
Hawa5
 62
     1
100
AcDbPolyline
 90
        7
 70
     0
 43
0.0
 10
128.582979
 20
35.33913299999996
 10
128.289453
 20
35.2400110000001
 10
127.533277
 20
35.07472800000005
 10
125.939527
 20
34.81069000000002
 10
124.627458
 20
34.57924500000013
 10
124.095746
 20
34.44704300000012
 10
123.9156389999999
 20
34.38112500000011
  0
LWPOLYLINE
  5
A61
330
A
100
AcDbEntity
  8
Hawa5
 62
     1
100
AcDbPolyline
 90
        7
 70
     0
 43
0.0
 10
123.9156389999999
 20
34.38112500000011
 10
123.791295
 20
34.30812700000001
 10
123.759855
 20
34.27175000000011
 10
123.749311
 20
34.23525100000006
 10
123.759771
 20
34.19875200000001
 10
123.791166
 20
34.16225299999997
 10
123.915655
 20
34.08913299999995
  0
LWPOLYLINE
  5
A62
330
A
100
AcDbEntity
  8
Hawa5
 62
     1
100
AcDbPolyline
 90
        7
 70
     0
 43
0.0
 10
128.582982
 20
33.13112500000011
 10
128.707349
 20
33.05812700000001
 10
128.738786
 20
33.02162799999996
 10
128.749315
 20
32.98525100000006
 10
128.738847
 20
32.94875200000001
 10
128.707445
 20
32.91225299999997
 10
128.582975
 20
32.83913299999995
  0
LWPOLYLINE
  5
A63
330
A
100
AcDbEntity
  8
Hawa5
 62
     1
100
AcDbPolyline
 90
        7
 70
     0
 43
0.0
 10
128.582975
 20
32.83913299999995
 10
128.28959
 20
32.7400110000001
 10
127.533021
 20
32.57472800000005
 10
125.939416
 20
32.31069000000002
 10
124.628003
 20
32.07936700000006
 10
124.095868
 20
31.94716500000004
 10
123.915658
 20
31.88112500000011
  0
LWPOLYLINE
  5
A64
330
A
100
AcDbEntity
  8
Hawa5
 62
     1
100
AcDbPolyline
 90
        7
 70
     0
 43
0.0
 10
123.915658
 20
31.88112500000011
 10
123.791261
 20
31.80812700000001
 10
123.759836
 20
31.77162799999996
 10
123.749318
 20
31.73512899999992
 10
123.759801
 20
31.69875200000001
 10
123.791208
 20
31.66225299999996
 10
123.915662
 20
31.58913299999995
  0
LWPOLYLINE
  5
A65
330
A
100
AcDbEntity
  8
Hawa5
 62
     1
100
AcDbPolyline
 90
        7
 70
     0
 43
0.0
 10
128.582963
 20
30.63112500000011
 10
128.70738
 20
30.55812700000001
 10
128.738801
 20
30.52162799999996
 10
128.749311
 20
30.48512899999992
 10
128.738828
 20
30.44875200000001
 10
128.707429
 20
30.41225299999996
 10
128.583051
 20
30.33925500000009
  0
LWPOLYLINE
  5
A66
330
A
100
AcDbEntity
  8
Hawa5
 62
     1
100
AcDbPolyline
 90
        7
 70
     0
 43
0.0
 10
128.583051
 20
30.33925500000009
 10
128.290208
 20
30.24013400000013
 10
127.534246
 20
30.07497200000012
 10
125.94153
 20
29.81105600000001
 10
124.631074
 20
29.5799770000001
 10
124.09805
 20
29.44777500000009
 10
123.917192
 20
29.38173499999994
  0
LWPOLYLINE
  5
A67
330
A
100
AcDbEntity
  8
Hawa5
 62
     1
100
AcDbPolyline
 90
        7
 70
     0
 43
0.0
 10
123.917192
 20
29.38173499999994
 10
123.792096
 20
29.30885899999998
 10
123.760274
 20
29.27235999999994
 10
123.749322
 20
29.23598300000004
 10
123.759324
 20
29.19948399999998
 10
123.790189
 20
29.16310700000007
 10
123.913358
 20
29.0902309999999
  0
LWPOLYLINE
  5
A68
330
A
100
AcDbEntity
  8
Hawa5
 62
     1
100
AcDbPolyline
 90
        3
 70
     0
 43
0.0
 10
128.589162
 20
27.84194000000002
 10
128.238035
 20
27.72609499999999
 10
127.718778
 20
27.61012899999992
  0
LINE
  5
A69
330
A
100
AcDbEntity
  8
Hawa5
 62
     1
 48
0.00909
100
AcDbLine
 10
128.042207
 20
44.3730680000001
 30
0.0
 11
128.299314
 21
44.63014799999996
 31
0.0
  0
LINE
  5
A6A
330
A
100
AcDbEntity
  8
Hawa5
 62
     1
 48
0.00909
100
AcDbLine
 10
124.456422
 20
44.3730680000001
 30
0.0
 11
124.199315
 21
44.63014799999996
 31
0.0
  0
ARC
  5
A6B
330
A
100
AcDbEntity
  8
Hawa5
 62
     1
100
AcDbCircle
 10
128.749315
 20
43.66591500000004
 30
0.0
 40
1.0
100
AcDbArc
 50
135.0000000000035
 51
180.0000049783131
  0
ARC
  5
A6C
330
A
100
AcDbEntity
  8
Hawa5
 62
     1
100
AcDbCircle
 10
123.749315
 20
43.66591500000004
 30
0.0
 40
1.0
100
AcDbArc
 50
0.0
 51
44.99999999999539
  0
LINE
  5
A6D
330
A
100
AcDbEntity
  8
Hawa5
 62
     1
 48
0.006665
100
AcDbLine
 10
127.749315
 20
43.66591500000004
 30
0.0
 11
127.749315
 21
43.39931300000011
 31
0.0
  0
LINE
  5
A6E
330
A
100
AcDbEntity
  8
Hawa5
 62
     1
 48
0.034985
100
AcDbLine
 10
124.749315
 20
43.66591500000004
 30
0.0
 11
124.749315
 21
42.26650100000006
 31
0.0
  0
LINE
  5
A6F
330
A
100
AcDbEntity
  8
Hawa5
 62
     1
 48
0.038858
100
AcDbLine
 10
127.749315
 20
42.45363399999996
 30
0.0
 11
127.749315
 21
40.89931300000012
 31
0.0
  0
LINE
  5
A70
330
A
100
AcDbEntity
  8
Hawa5
 62
     1
 48
0.038861
100
AcDbLine
 10
124.749315
 20
41.32094400000005
 30
0.0
 11
124.749315
 21
39.76650100000006
 31
0.0
  0
LINE
  5
A71
330
A
100
AcDbEntity
  8
Hawa5
 62
     1
 48
0.038858
100
AcDbLine
 10
127.749315
 20
39.95363399999997
 30
0.0
 11
127.749315
 21
38.39931300000012
 31
0.0
  0
LINE
  5
A72
330
A
100
AcDbEntity
  8
Hawa5
 62
     1
 48
0.038861
100
AcDbLine
 10
124.749315
 20
38.82094400000005
 30
0.0
 11
124.749315
 21
37.26650100000006
 31
0.0
  0
LINE
  5
A73
330
A
100
AcDbEntity
  8
Hawa5
 62
     1
 48
0.038858
100
AcDbLine
 10
127.749315
 20
37.45363399999997
 30
0.0
 11
127.749315
 21
35.89931300000012
 31
0.0
  0
LINE
  5
A74
330
A
100
AcDbEntity
  8
Hawa5
 62
     1
 48
0.038861
100
AcDbLine
 10
124.749315
 20
36.32094400000005
 30
0.0
 11
124.749315
 21
34.76650100000006
 31
0.0
  0
LINE
  5
A75
330
A
100
AcDbEntity
  8
Hawa5
 62
     1
 48
0.038861
100
AcDbLine
 10
127.749315
 20
34.953757
 30
0.0
 11
127.749315
 21
33.39931300000012
 31
0.0
  0
LINE
  5
A76
330
A
100
AcDbEntity
  8
Hawa5
 62
     1
 48
0.038861
100
AcDbLine
 10
124.749315
 20
33.82094400000005
 30
0.0
 11
124.749315
 21
32.26650100000006
 31
0.0
  0
LINE
  5
A77
330
A
100
AcDbEntity
  8
Hawa5
 62
     1
 48
0.038861
100
AcDbLine
 10
127.749315
 20
32.453757
 30
0.0
 11
127.749315
 21
30.89931300000012
 31
0.0
  0
LINE
  5
A78
330
A
100
AcDbEntity
  8
Hawa5
 62
     1
 48
0.038895
100
AcDbLine
 10
124.749315
 20
31.32094400000005
 30
0.0
 11
124.749315
 21
29.76515799999993
 31
0.0
  0
LINE
  5
A79
330
A
100
AcDbEntity
  8
Hawa5
 62
     1
 48
0.039059
100
AcDbLine
 10
127.749315
 20
29.95351200000005
 30
0.0
 11
127.749315
 21
28.39113399999997
 31
0.0
  0
LINE
  5
A7A
330
A
100
AcDbEntity
  8
Hawa5
 62
     1
 48
0.042426
100
AcDbLine
 10
124.749315
 20
28.81825900000013
 30
0.0
 11
124.749315
 21
27.12123700000006
 31
0.0
  0
LINE
  5
A7B
330
A
100
AcDbEntity
  8
Hawa5
 62
     1
 48
0.024567
100
AcDbLine
 10
127.749315
 20
27.44667600000002
 30
0.0
 11
127.749315
 21
26.46400999999992
 31
0.0
  0
LINE
  5
A7C
330
A
100
AcDbEntity
  8
Hawa5
 62
     1
 48
0.000586
100
AcDbLine
 10
124.749315
 20
26.48744800000009
 30
0.0
 11
124.749315
 21
26.46400999999992
 31
0.0
  0
ARC
  5
A7D
330
A
100
AcDbEntity
  8
Hawa5
 62
     1
100
AcDbCircle
 10
130.434617
 20
19.47499700000003
 30
0.0
 40
6.544394
100
AcDbArc
 50
117.0364379999999
 51
120.9081580000004
  0
ARC
  5
A7E
330
A
100
AcDbEntity
  8
Hawa5
 62
     1
100
AcDbCircle
 10
140.933072
 20
14.67983099999992
 30
0.0
 40
30.748217
100
AcDbArc
 50
113.681285
 51
115.8865640000001
  0
ARC
  5
A7F
330
A
100
AcDbEntity
  8
Hawa5
 62
     1
100
AcDbCircle
 10
140.929181
 20
12.18862000000013
 30
0.0
 40
30.738579
100
AcDbArc
 50
113.6812520000001
 51
115.8874500000001
  0
ARC
  5
A80
330
A
100
AcDbEntity
  8
Hawa5
 62
     1
100
AcDbCircle
 10
140.995305
 20
9.532979999999954
 30
0.0
 40
30.90761
100
AcDbArc
 50
113.677577
 51
115.871632
  0
ARC
  5
A81
330
A
100
AcDbEntity
  8
Hawa5
 62
     1
100
AcDbCircle
 10
140.929727
 20
7.187032999999928
 30
0.0
 40
30.740236
100
AcDbArc
 50
113.6809310000001
 51
115.8869320000001
  0
ARC
  5
A82
330
A
100
AcDbEntity
  8
Hawa5
 62
     1
100
AcDbCircle
 10
140.861093
 20
4.825094000000036
 30
0.0
 40
30.586178
100
AcDbArc
 50
113.667065
 51
115.8841030000001
  0
ARC
  5
A83
330
A
100
AcDbEntity
  8
Hawa5
 62
     1
100
AcDbCircle
 10
140.892934
 20
2.276755000000094
 30
0.0
 40
30.643379
100
AcDbArc
 50
113.685084
 51
115.898571
  0
ARC
  5
A84
330
A
100
AcDbEntity
  8
Hawa5
 62
     1
100
AcDbCircle
 10
141.232236
 20
-0.4556669999999485
 30
0.0
 40
30.993212
100
AcDbArc
 50
114.074575
 51
116.261403
  0
LINE
  5
A85
330
A
100
AcDbEntity
  8
Hawa5
 62
     1
 48
0.325
100
AcDbLine
 10
130.249315
 20
44.11012899999992
 30
0.0
 11
130.249315
 21
31.11012899999992
 31
0.0
  0
LINE
  5
A86
330
A
100
AcDbEntity
  8
Hawa5
 62
     1
 48
0.323087
100
AcDbLine
 10
129.249315
 20
44.11012899999992
 30
0.0
 11
129.249315
 21
31.18666699999995
 31
0.0
  0
LINE
  5
A87
330
A
100
AcDbEntity
  8
Hawa5
 62
     1
 48
0.165841
100
AcDbLine
 10
129.249315
 20
31.18666699999995
 30
0.0
 11
128.240629
 21
24.63014799999996
 31
0.0
  0
LINE
  5
A88
330
A
100
AcDbEntity
  8
Hawa5
 62
     1
 48
0.163905
100
AcDbLine
 10
130.249315
 20
31.11012899999992
 30
0.0
 11
129.2523929999999
 21
24.63014799999996
 31
0.0
  0
LINE
  5
A89
330
A
100
AcDbEntity
  8
Hawa5
 62
     1
 48
0.325
100
AcDbLine
 10
122.249315
 20
44.11012899999992
 30
0.0
 11
122.249315
 21
31.11012899999992
 31
0.0
  0
LINE
  5
A8A
330
A
100
AcDbEntity
  8
Hawa5
 62
     1
 48
0.025
100
AcDbLine
 10
123.249315
 20
44.11012899999992
 30
0.0
 11
122.249315
 21
44.11012899999992
 31
0.0
  0
LINE
  5
A8B
330
A
100
AcDbEntity
  8
Hawa5
 62
     1
 48
0.025
100
AcDbLine
 10
130.249315
 20
44.11012899999992
 30
0.0
 11
129.249315
 21
44.11012899999992
 31
0.0
  0
LINE
  5
A8C
330
A
100
AcDbEntity
  8
Hawa5
 62
     1
 48
0.323087
100
AcDbLine
 10
123.249315
 20
44.11012899999992
 30
0.0
 11
123.249315
 21
31.18666699999995
 31
0.0
  0
LINE
  5
A8D
330
A
100
AcDbEntity
  8
Hawa5
 62
     1
 48
0.163905
100
AcDbLine
 10
122.249315
 20
31.11012899999992
 30
0.0
 11
123.246236
 21
24.63014799999996
 31
0.0
  0
LINE
  5
A8E
330
A
100
AcDbEntity
  8
Hawa5
 62
     1
 48
0.165841
100
AcDbLine
 10
123.249315
 20
31.18666699999995
 30
0.0
 11
124.258001
 21
24.63014799999996
 31
0.0
  0
LINE
  5
A8F
330
A
100
AcDbEntity
  8
Hawa5
 62
     1
 48
0.066311
100
AcDbLine
 10
105.389757
 20
44.3730680000001
 30
0.0
 11
108.042207
 21
44.3730680000001
 31
0.0
  0
LINE
  5
A90
330
A
100
AcDbEntity
  8
Hawa5
 62
     1
 48
0.023333
100
AcDbLine
 10
105.389757
 20
44.3730680000001
 30
0.0
 11
104.456422
 21
44.3730680000001
 31
0.0
  0
LINE
  5
A91
330
A
100
AcDbEntity
  8
Hawa5
 62
     1
 48
0.055478
100
AcDbLine
 10
105.530176
 20
43.66591500000004
 30
0.0
 11
107.749315
 21
43.66591500000004
 31
0.0
  0
LINE
  5
A92
330
A
100
AcDbEntity
  8
Hawa5
 62
     1
 48
0.019522
100
AcDbLine
 10
105.530176
 20
43.66591500000004
 30
0.0
 11
104.749315
 21
43.66591500000004
 31
0.0
  0
LWPOLYLINE
  5
A93
330
A
100
AcDbEntity
  8
Hawa5
 62
     1
100
AcDbPolyline
 90
        7
 70
     0
 43
0.0
 10
107.749315
 20
43.39931300000011
 10
107.729844
 20
43.33522599999992
 10
107.672319
 20
43.2712610000001
 10
107.45067
 20
43.14394199999992
 10
107.00245
 20
42.98366400000009
 10
105.963006
 20
42.69789700000001
 10
105.530176
 20
42.5754609999999
  0
ARC
  5
A94
330
A
100
AcDbEntity
  8
Hawa5
 62
     1
100
AcDbCircle
 10
106.546029
 20
38.93434700000012
 30
0.0
 40
3.779306999999999
100
AcDbArc
 50
105.5891100000003
 51
114.3829040000004
  0
LWPOLYLINE
  5
A95
330
A
100
AcDbEntity
  8
Hawa5
 62
     1
100
AcDbPolyline
 90
        4
 70
     0
 43
0.0
 10
107.512521
 20
42.34425899999997
 10
107.08053
 20
42.17958700000007
 10
106.12803
 20
41.9137169999999
 10
105.530176
 20
41.74696900000003
  0
LWPOLYLINE
  5
A96
330
A
100
AcDbEntity
  8
Hawa5
 62
     1
100
AcDbPolyline
 90
        6
 70
     0
 43
0.0
 10
105.530176
 20
40.0754609999999
 10
106.632097
 20
40.37709599999994
 10
107.321519
 20
40.59120800000004
 10
107.620843
 20
40.73354199999993
 10
107.725427
 20
40.82826799999997
 10
107.749315
 20
40.89931300000012
  0
ARC
  5
A97
330
A
100
AcDbEntity
  8
Hawa5
 62
     1
100
AcDbCircle
 10
106.546045
 20
36.43446900000004
 30
0.0
 40
3.779199999999999
100
AcDbArc
 50
105.589806
 51
114.3838469999999
  0
LWPOLYLINE
  5
A98
330
A
100
AcDbEntity
  8
Hawa5
 62
     1
100
AcDbPolyline
 90
        5
 70
     0
 43
0.0
 10
105.530176
 20
41.74696900000003
 10
105.046731
 20
41.57582700000012
 10
104.839288
 20
41.45949399999994
 10
104.763208
 20
41.37514299999997
 10
104.749315
 20
41.32094400000005
  0
LWPOLYLINE
  5
A99
330
A
100
AcDbEntity
  8
Hawa5
 62
     1
100
AcDbPolyline
 90
        7
 70
     0
 43
0.0
 10
105.530176
 20
37.5754609999999
 10
106.605874
 20
37.86989399999993
 10
107.297654
 20
38.08229699999993
 10
107.585641
 20
38.21181300000012
 10
107.709558
 20
38.30751600000008
 10
107.746629
 20
38.37550899999996
 10
107.749315
 20
38.39931300000012
  0
LWPOLYLINE
  5
A9A
330
A
100
AcDbEntity
  8
Hawa5
 62
     1
100
AcDbPolyline
 90
        4
 70
     0
 43
0.0
 10
107.512414
 20
39.84425899999997
 10
107.104005
 20
39.68715500000008
 10
106.160745
 20
39.42238399999997
 10
105.530176
 20
39.24696900000004
  0
ARC
  5
A9B
330
A
100
AcDbEntity
  8
Hawa5
 62
     1
100
AcDbCircle
 10
106.545457
 20
33.93630000000007
 30
0.0
 40
3.777317
100
AcDbArc
 50
105.5885709999998
 51
114.3865719999999
  0
LWPOLYLINE
  5
A9C
330
A
100
AcDbEntity
  8
Hawa5
 62
     1
100
AcDbPolyline
 90
        5
 70
     0
 43
0.0
 10
104.749315
 20
38.82094400000005
 10
104.763254
 20
38.87526500000014
 10
104.839456
 20
38.9596160000001
 10
105.046655
 20
39.07582700000012
 10
105.530176
 20
39.24696900000004
  0
LWPOLYLINE
  5
A9D
330
A
100
AcDbEntity
  8
Hawa5
 62
     1
100
AcDbPolyline
 90
        7
 70
     0
 43
0.0
 10
107.749315
 20
35.89931300000012
 10
107.737794
 20
35.84999700000003
 10
107.677759
 20
35.77602200000001
 10
107.469339
 20
35.65236499999993
 10
106.967912
 20
35.47316599999999
 10
105.875642
 20
35.17421600000011
 10
105.530176
 20
35.0754609999999
  0
LWPOLYLINE
  5
A9E
330
A
100
AcDbEntity
  8
Hawa5
 62
     1
100
AcDbPolyline
 90
        4
 70
     0
 43
0.0
 10
105.530176
 20
36.74696900000004
 10
106.628969
 20
37.04775100000006
 10
107.25287
 20
37.23757000000001
 10
107.51246
 20
37.34425899999997
  0
LWPOLYLINE
  5
A9F
330
A
100
AcDbEntity
  8
Hawa5
 62
     1
100
AcDbPolyline
 90
        6
 70
     0
 43
0.0
 10
104.749315
 20
36.32094400000005
 10
104.766443
 20
36.38112500000011
 10
104.817849
 20
36.44167199999993
 10
105.019952
 20
36.56374200000005
 10
105.431268
 20
36.71645200000012
 10
105.530176
 20
36.74696900000004
  0
ARC
  5
AA0
330
A
100
AcDbEntity
  8
Hawa5
 62
     1
100
AcDbCircle
 10
106.545167
 20
31.43703299999993
 30
0.0
 40
3.776498999999999
100
AcDbArc
 50
105.5875060000002
 51
114.3882590000003
  0
LWPOLYLINE
  5
AA1
330
A
100
AcDbEntity
  8
Hawa5
 62
     1
100
AcDbPolyline
 90
        4
 70
     0
 43
0.0
 10
105.530176
 20
34.24696900000004
 10
106.684244
 20
34.56300899999997
 10
107.334146
 20
34.76759900000002
 10
107.512483
 20
34.84425899999997
  0
LWPOLYLINE
  5
AA2
330
A
100
AcDbEntity
  8
Hawa5
 62
     1
100
AcDbPolyline
 90
        7
 70
     0
 43
0.0
 10
107.749315
 20
33.39931300000012
 10
107.737436
 20
33.34926399999995
 10
107.675531
 20
33.27406900000005
 10
107.462938
 20
33.14943500000004
 10
107.013528
 20
32.9870820000001
 10
105.982721
 20
32.70326799999998
 10
105.530176
 20
32.5754609999999
  0
LWPOLYLINE
  5
AA3
330
A
100
AcDbEntity
  8
Hawa5
 62
     1
100
AcDbPolyline
 90
        6
 70
     0
 43
0.0
 10
105.530176
 20
34.24696900000004
 10
105.063096
 20
34.08302900000012
 10
104.872094
 20
33.98305299999993
 10
104.793352
 20
33.91762399999993
 10
104.75422
 20
33.85317099999997
 10
104.749315
 20
33.82094400000005
  0
ARC
  5
AA4
330
A
100
AcDbEntity
  8
Hawa5
 62
     1
100
AcDbCircle
 10
106.544046
 20
28.93739899999991
 30
0.0
 40
3.775822
100
AcDbArc
 50
105.5724639999997
 51
114.3731909999994
  0
LWPOLYLINE
  5
AA5
330
A
100
AcDbEntity
  8
Hawa5
 62
     1
100
AcDbPolyline
 90
        7
 70
     0
 43
0.0
 10
107.749315
 20
30.89931300000012
 10
107.735078
 20
30.844382
 10
107.662698
 20
30.76344900000004
 10
107.430063
 20
30.63466500000004
 10
106.892083
 20
30.45009400000004
 10
105.618394
 20
30.10048499999995
 10
105.530176
 20
30.074118
  0
LWPOLYLINE
  5
AA6
330
A
100
AcDbEntity
  8
Hawa5
 62
     1
100
AcDbPolyline
 90
        4
 70
     0
 43
0.0
 10
107.51246
 20
32.34425899999997
 10
107.065111
 20
32.17470400000002
 10
106.105478
 20
31.90773600000011
 10
105.530176
 20
31.74696900000004
  0
LWPOLYLINE
  5
AA7
330
A
100
AcDbEntity
  8
Hawa5
 62
     1
100
AcDbPolyline
 90
        5
 70
     0
 43
0.0
 10
105.530176
 20
31.74696900000004
 10
105.058954
 20
31.58119800000009
 10
104.8341
 20
31.45534300000008
 10
104.763383
 20
31.37550899999997
 10
104.749315
 20
31.32094400000005
  0
ARC
  5
AA8
330
A
100
AcDbEntity
  8
Hawa5
 62
     1
100
AcDbCircle
 10
106.553399
 20
26.41750200000001
 30
0.0
 40
3.796248
100
AcDbArc
 50
105.6328440000001
 51
114.3410080000002
  0
LWPOLYLINE
  5
AA9
330
A
100
AcDbEntity
  8
Hawa5
 62
     1
100
AcDbPolyline
 90
        5
 70
     0
 43
0.0
 10
107.749315
 20
28.39113399999997
 10
107.736627
 20
28.33913299999995
 10
107.67209
 20
28.26234999999997
 10
107.459123
 20
28.13844900000004
 10
107.132036
 20
28.01491400000009
  0
LWPOLYLINE
  5
AAA
330
A
100
AcDbEntity
  8
Hawa5
 62
     1
100
AcDbPolyline
 90
        3
 70
     0
 43
0.0
 10
107.193895
 20
28.03151500000013
 10
106.425119
 20
27.76003100000004
 10
105.530176
 20
27.46413299999995
  0
LWPOLYLINE
  5
AAB
330
A
100
AcDbEntity
  8
Hawa5
 62
     1
100
AcDbPolyline
 90
        4
 70
     0
 43
0.0
 10
105.530176
 20
29.24574899999993
 10
106.620584
 20
29.54482099999996
 10
107.258767
 20
29.73940100000003
 10
107.512285
 20
29.84401500000013
  0
ARC
  5
AAC
330
A
100
AcDbEntity
  8
Hawa5
 62
     1
100
AcDbCircle
 10
106.956064
 20
23.38820499999997
 30
0.0
 40
4.317821
100
AcDbArc
 50
109.2815169999997
 51
115.4717779999999
  0
LWPOLYLINE
  5
AAD
330
A
100
AcDbEntity
  8
Hawa5
 62
     1
100
AcDbPolyline
 90
        5
 70
     0
 43
0.0
 10
104.749315
 20
28.81825900000013
 10
104.771196
 20
28.88649600000008
 10
104.865915
 20
28.97670599999992
 10
105.1354
 20
29.1112270000001
 10
105.530176
 20
29.24574899999993
  0
LWPOLYLINE
  5
AAE
330
A
100
AcDbEntity
  8
Hawa5
 62
     1
100
AcDbPolyline
 90
        3
 70
     0
 43
0.0
 10
105.530176
 20
26.82277500000009
 10
106.803071
 20
27.10182800000007
 10
107.193574
 20
27.19875200000001
  0
ARC
  5
AAF
330
A
100
AcDbEntity
  8
Hawa5
 62
     1
100
AcDbCircle
 10
106.245759
 20
30.02821900000004
 30
0.0
 40
2.976402
100
AcDbArc
 50
287.3212259999997
 51
295.3329779999998
  0
LWPOLYLINE
  5
AB0
330
A
100
AcDbEntity
  8
Hawa5
 62
     1
100
AcDbPolyline
 90
        6
 70
     0
 43
0.0
 10
104.749315
 20
26.48744800000009
 10
104.761979
 20
26.52809700000012
 10
104.799455
 20
26.56850299999996
 10
104.943628
 20
26.648459
 10
105.30198
 20
26.76515799999993
 10
105.530176
 20
26.82277500000009
  0
LWPOLYLINE
  5
AB1
330
A
100
AcDbEntity
  8
Hawa5
 62
     1
100
AcDbPolyline
 90
        5
 70
     0
 43
0.0
 10
107.718782
 20
27.61012899999992
 10
105.883371
 20
27.29787299999998
 10
104.929849
 20
27.11086100000011
 10
104.467965
 20
26.98097800000005
 10
104.357545
 20
26.93666699999994
  0
LWPOLYLINE
  5
AB2
330
A
100
AcDbEntity
  8
Hawa5
 62
     1
100
AcDbPolyline
 90
        7
 70
     0
 43
0.0
 10
104.357545
 20
26.93666699999994
 10
104.229394
 20
26.86110499999995
 10
104.186311
 20
26.8098359999999
 10
104.178811
 20
26.757834
 10
104.188646
 20
26.73158899999999
 10
104.235544
 20
26.67860999999994
 10
104.372697
 20
26.59804400000008
  0
LWPOLYLINE
  5
AB3
330
A
100
AcDbEntity
  8
Hawa5
 62
     1
100
AcDbPolyline
 90
        5
 70
     0
 43
0.0
 10
107.459695
 20
25.30434199999991
 10
107.080514
 20
25.14479699999993
 10
106.199502
 20
24.84230600000001
 10
105.75094
 20
24.65785800000003
 10
105.697473
 20
24.63014799999996
  0
LINE
  5
AB4
330
A
100
AcDbEntity
  8
Hawa5
 62
     1
 48
0.018093
100
AcDbLine
 10
107.132036
 20
27.1864230000001
 30
0.0
 11
107.718782
 21
27.61012899999992
 31
0.0
  0
LWPOLYLINE
  5
AB5
330
A
100
AcDbEntity
  8
Hawa5
 62
     1
100
AcDbPolyline
 90
        7
 70
     0
 43
0.0
 10
108.582971
 20
43.1311250000001
 10
108.707338
 20
43.058127
 10
108.738794
 20
43.02162799999996
 10
108.749315
 20
42.98512899999992
 10
108.738809
 20
42.94863000000009
 10
108.707353
 20
42.91213100000003
 10
108.582956
 20
42.83913299999995
  0
LWPOLYLINE
  5
AB6
330
A
100
AcDbEntity
  8
Hawa5
 62
     1
100
AcDbPolyline
 90
        7
 70
     0
 43
0.0
 10
108.582956
 20
42.83913299999995
 10
108.289888
 20
42.7400110000001
 10
107.534715
 20
42.57497200000011
 10
105.938478
 20
42.3105680000001
 10
104.627069
 20
42.07912299999997
 10
104.095857
 20
41.94716500000004
 10
103.915635
 20
41.88112500000011
  0
LWPOLYLINE
  5
AB7
330
A
100
AcDbEntity
  8
Hawa5
 62
     1
100
AcDbPolyline
 90
        7
 70
     0
 43
0.0
 10
103.915635
 20
41.88112500000011
 10
103.791307
 20
41.80824899999993
 10
103.759851
 20
41.77175000000011
 10
103.749315
 20
41.73525100000006
 10
103.759805
 20
41.69863000000009
 10
103.791246
 20
41.66213100000003
 10
103.915681
 20
41.58913299999995
  0
LWPOLYLINE
  5
AB8
330
A
100
AcDbEntity
  8
Hawa5
 62
     1
100
AcDbPolyline
 90
        7
 70
     0
 43
0.0
 10
108.583009
 20
40.63112500000011
 10
108.707315
 20
40.55824899999993
 10
108.738771
 20
40.52175000000011
 10
108.749322
 20
40.48525100000006
 10
108.738847
 20
40.448752
 10
108.707414
 20
40.41225299999996
 10
108.582948
 20
40.33913299999995
  0
LWPOLYLINE
  5
AB9
330
A
100
AcDbEntity
  8
Hawa5
 62
     1
100
AcDbPolyline
 90
        7
 70
     0
 43
0.0
 10
108.582948
 20
40.33913299999995
 10
108.289667
 20
40.2400110000001
 10
107.534273
 20
40.07497200000011
 10
105.938997
 20
39.81069000000002
 10
104.626924
 20
39.57912299999998
 10
104.095735
 20
39.44716500000004
 10
103.915613
 20
39.38112500000011
  0
LWPOLYLINE
  5
ABA
330
A
100
AcDbEntity
  8
Hawa5
 62
     1
100
AcDbPolyline
 90
        7
 70
     0
 43
0.0
 10
103.915613
 20
39.38112500000011
 10
103.791314
 20
39.30824899999993
 10
103.759858
 20
39.27175000000011
 10
103.749307
 20
39.23525100000006
 10
103.759767
 20
39.19875200000001
 10
103.791185
 20
39.16225299999997
 10
103.915674
 20
39.08913299999996
  0
LWPOLYLINE
  5
ABB
330
A
100
AcDbEntity
  8
Hawa5
 62
     1
100
AcDbPolyline
 90
        7
 70
     0
 43
0.0
 10
108.583024
 20
38.13112500000011
 10
108.707315
 20
38.05824899999993
 10
108.738771
 20
38.02175000000011
 10
108.749322
 20
37.98525100000006
 10
108.73887
 20
37.94875200000001
 10
108.707467
 20
37.91225299999997
 10
108.582979
 20
37.83913299999996
  0
LWPOLYLINE
  5
ABC
330
A
100
AcDbEntity
  8
Hawa5
 62
     1
100
AcDbPolyline
 90
        7
 70
     0
 43
0.0
 10
108.582979
 20
37.83913299999996
 10
108.2895139999999
 20
37.7400110000001
 10
107.533769
 20
37.57484999999997
 10
105.939401
 20
37.31069000000002
 10
104.627069
 20
37.07912299999998
 10
104.095697
 20
36.94704300000012
 10
103.915613
 20
36.88112500000011
  0
LWPOLYLINE
  5
ABD
330
A
100
AcDbEntity
  8
Hawa5
 62
     1
100
AcDbPolyline
 90
        7
 70
     0
 43
0.0
 10
103.915613
 20
36.88112500000011
 10
103.791314
 20
36.80824899999993
 10
103.759858
 20
36.77175000000011
 10
103.749307
 20
36.73525100000006
 10
103.759752
 20
36.69875200000001
 10
103.791154
 20
36.66225299999997
 10
103.915651
 20
36.58913299999996
  0
LWPOLYLINE
  5
ABE
330
A
100
AcDbEntity
  8
Hawa5
 62
     1
100
AcDbPolyline
 90
        7
 70
     0
 43
0.0
 10
108.583009
 20
35.63112500000011
 10
108.707322
 20
35.55812700000001
 10
108.738771
 20
35.52175000000011
 10
108.749322
 20
35.48525100000006
 10
108.73887
 20
35.44875200000001
 10
108.707475
 20
35.41225299999997
 10
108.582979
 20
35.33913299999996
  0
LWPOLYLINE
  5
ABF
330
A
100
AcDbEntity
  8
Hawa5
 62
     1
100
AcDbPolyline
 90
        7
 70
     0
 43
0.0
 10
108.582979
 20
35.33913299999996
 10
108.289453
 20
35.2400110000001
 10
107.533273
 20
35.07472800000005
 10
105.939523
 20
34.81069000000002
 10
104.627458
 20
34.57924500000013
 10
104.095743
 20
34.44704300000012
 10
103.915635
 20
34.38112500000011
  0
LWPOLYLINE
  5
AC0
330
A
100
AcDbEntity
  8
Hawa5
 62
     1
100
AcDbPolyline
 90
        7
 70
     0
 43
0.0
 10
103.915635
 20
34.38112500000011
 10
103.791299
 20
34.30812700000001
 10
103.759851
 20
34.27175000000011
 10
103.749307
 20
34.23525100000006
 10
103.759767
 20
34.19875200000001
 10
103.791169
 20
34.16225299999997
 10
103.915651
 20
34.08913299999995
  0
LWPOLYLINE
  5
AC1
330
A
100
AcDbEntity
  8
Hawa5
 62
     1
100
AcDbPolyline
 90
        7
 70
     0
 43
0.0
 10
108.582979
 20
33.13112500000011
 10
108.707345
 20
33.05812700000001
 10
108.738786
 20
33.02162799999996
 10
108.749315
 20
32.98525100000006
 10
108.738847
 20
32.94875200000001
 10
108.707445
 20
32.91225299999997
 10
108.582971
 20
32.83913299999995
  0
LWPOLYLINE
  5
AC2
330
A
100
AcDbEntity
  8
Hawa5
 62
     1
100
AcDbPolyline
 90
        7
 70
     0
 43
0.0
 10
108.582971
 20
32.83913299999995
 10
108.28959
 20
32.7400110000001
 10
107.533021
 20
32.57472800000005
 10
105.939416
 20
32.31069000000002
 10
104.628
 20
32.07936700000006
 10
104.095865
 20
31.94716500000004
 10
103.915658
 20
31.88112500000011
  0
LWPOLYLINE
  5
AC3
330
A
100
AcDbEntity
  8
Hawa5
 62
     1
100
AcDbPolyline
 90
        7
 70
     0
 43
0.0
 10
103.915658
 20
31.88112500000011
 10
103.791261
 20
31.80812700000001
 10
103.759836
 20
31.77162799999996
 10
103.749315
 20
31.73512899999992
 10
103.759797
 20
31.69875200000001
 10
103.791208
 20
31.66225299999996
 10
103.915658
 20
31.58913299999995
  0
LWPOLYLINE
  5
AC4
330
A
100
AcDbEntity
  8
Hawa5
 62
     1
100
AcDbPolyline
 90
        7
 70
     0
 43
0.0
 10
108.582963
 20
30.63112500000011
 10
108.707376
 20
30.55812700000001
 10
108.738801
 20
30.52162799999996
 10
108.749315
 20
30.48512899999992
 10
108.738824
 20
30.44875200000001
 10
108.707429
 20
30.41225299999996
 10
108.583047
 20
30.33925500000009
  0
LWPOLYLINE
  5
AC5
330
A
100
AcDbEntity
  8
Hawa5
 62
     1
100
AcDbPolyline
 90
        7
 70
     0
 43
0.0
 10
108.583047
 20
30.33925500000009
 10
108.290208
 20
30.24013400000013
 10
107.534242
 20
30.07497200000012
 10
105.94153
 20
29.81105600000001
 10
104.631074
 20
29.5799770000001
 10
104.098047
 20
29.44777500000009
 10
103.917192
 20
29.38173499999994
  0
LWPOLYLINE
  5
AC6
330
A
100
AcDbEntity
  8
Hawa5
 62
     1
100
AcDbPolyline
 90
        7
 70
     0
 43
0.0
 10
103.917192
 20
29.38173499999994
 10
103.792093
 20
29.30885899999998
 10
103.760278
 20
29.27235999999994
 10
103.749322
 20
29.23598300000004
 10
103.759324
 20
29.19948399999998
 10
103.790185
 20
29.16310700000007
 10
103.913354
 20
29.0902309999999
  0
LWPOLYLINE
  5
AC7
330
A
100
AcDbEntity
  8
Hawa5
 62
     1
100
AcDbPolyline
 90
        3
 70
     0
 43
0.0
 10
108.589166
 20
27.84194000000002
 10
108.238031
 20
27.72609499999999
 10
107.718782
 20
27.61012899999992
  0
LINE
  5
AC8
330
A
100
AcDbEntity
  8
Hawa5
 62
     1
 48
0.00909
100
AcDbLine
 10
108.042207
 20
44.3730680000001
 30
0.0
 11
108.299318
 21
44.63014799999996
 31
0.0
  0
LINE
  5
AC9
330
A
100
AcDbEntity
  8
Hawa5
 62
     1
 48
0.00909
100
AcDbLine
 10
104.456422
 20
44.3730680000001
 30
0.0
 11
104.199319
 21
44.63014799999996
 31
0.0
  0
ARC
  5
ACA
330
A
100
AcDbEntity
  8
Hawa5
 62
     1
100
AcDbCircle
 10
108.749315
 20
43.66591500000004
 30
0.0
 40
1.0
100
AcDbArc
 50
135.0000000000046
 51
180.0000049783131
  0
ARC
  5
ACB
330
A
100
AcDbEntity
  8
Hawa5
 62
     1
100
AcDbCircle
 10
103.749315
 20
43.66591500000004
 30
0.0
 40
1.0
100
AcDbArc
 50
0.0
 51
44.99999999999539
  0
LINE
  5
ACC
330
A
100
AcDbEntity
  8
Hawa5
 62
     1
 48
0.006665
100
AcDbLine
 10
107.749315
 20
43.66591500000004
 30
0.0
 11
107.749315
 21
43.39931300000011
 31
0.0
  0
LINE
  5
ACD
330
A
100
AcDbEntity
  8
Hawa5
 62
     1
 48
0.034985
100
AcDbLine
 10
104.749315
 20
43.66591500000004
 30
0.0
 11
104.749315
 21
42.26650100000006
 31
0.0
  0
LINE
  5
ACE
330
A
100
AcDbEntity
  8
Hawa5
 62
     1
 48
0.038858
100
AcDbLine
 10
107.749315
 20
42.45363399999996
 30
0.0
 11
107.749315
 21
40.89931300000012
 31
0.0
  0
LINE
  5
ACF
330
A
100
AcDbEntity
  8
Hawa5
 62
     1
 48
0.038861
100
AcDbLine
 10
104.749315
 20
41.32094400000005
 30
0.0
 11
104.749315
 21
39.76650100000006
 31
0.0
  0
LINE
  5
AD0
330
A
100
AcDbEntity
  8
Hawa5
 62
     1
 48
0.038858
100
AcDbLine
 10
107.749315
 20
39.95363399999997
 30
0.0
 11
107.749315
 21
38.39931300000012
 31
0.0
  0
LINE
  5
AD1
330
A
100
AcDbEntity
  8
Hawa5
 62
     1
 48
0.038861
100
AcDbLine
 10
104.749315
 20
38.82094400000005
 30
0.0
 11
104.749315
 21
37.26650100000006
 31
0.0
  0
LINE
  5
AD2
330
A
100
AcDbEntity
  8
Hawa5
 62
     1
 48
0.038858
100
AcDbLine
 10
107.749315
 20
37.45363399999997
 30
0.0
 11
107.749315
 21
35.89931300000012
 31
0.0
  0
LINE
  5
AD3
330
A
100
AcDbEntity
  8
Hawa5
 62
     1
 48
0.038861
100
AcDbLine
 10
104.749315
 20
36.32094400000005
 30
0.0
 11
104.749315
 21
34.76650100000006
 31
0.0
  0
LINE
  5
AD4
330
A
100
AcDbEntity
  8
Hawa5
 62
     1
 48
0.038861
100
AcDbLine
 10
107.749315
 20
34.953757
 30
0.0
 11
107.749315
 21
33.39931300000012
 31
0.0
  0
LINE
  5
AD5
330
A
100
AcDbEntity
  8
Hawa5
 62
     1
 48
0.038861
100
AcDbLine
 10
104.749315
 20
33.82094400000005
 30
0.0
 11
104.749315
 21
32.26650100000006
 31
0.0
  0
LINE
  5
AD6
330
A
100
AcDbEntity
  8
Hawa5
 62
     1
 48
0.038861
100
AcDbLine
 10
107.749315
 20
32.453757
 30
0.0
 11
107.749315
 21
30.89931300000012
 31
0.0
  0
LINE
  5
AD7
330
A
100
AcDbEntity
  8
Hawa5
 62
     1
 48
0.038895
100
AcDbLine
 10
104.749315
 20
31.32094400000005
 30
0.0
 11
104.749315
 21
29.76515799999993
 31
0.0
  0
LINE
  5
AD8
330
A
100
AcDbEntity
  8
Hawa5
 62
     1
 48
0.039059
100
AcDbLine
 10
107.749315
 20
29.95351200000005
 30
0.0
 11
107.749315
 21
28.39113399999997
 31
0.0
  0
LINE
  5
AD9
330
A
100
AcDbEntity
  8
Hawa5
 62
     1
 48
0.042426
100
AcDbLine
 10
104.749315
 20
28.81825900000013
 30
0.0
 11
104.749315
 21
27.12123700000006
 31
0.0
  0
LINE
  5
ADA
330
A
100
AcDbEntity
  8
Hawa5
 62
     1
 48
0.024567
100
AcDbLine
 10
107.749315
 20
27.44667600000002
 30
0.0
 11
107.749315
 21
26.46400999999992
 31
0.0
  0
LINE
  5
ADB
330
A
100
AcDbEntity
  8
Hawa5
 62
     1
 48
0.000586
100
AcDbLine
 10
104.749315
 20
26.48744800000009
 30
0.0
 11
104.749315
 21
26.46400999999992
 31
0.0
  0
ARC
  5
ADC
330
A
100
AcDbEntity
  8
Hawa5
 62
     1
100
AcDbCircle
 10
110.434617
 20
19.47499700000003
 30
0.0
 40
6.544394
100
AcDbArc
 50
117.0364379999999
 51
120.9081580000004
  0
ARC
  5
ADD
330
A
100
AcDbEntity
  8
Hawa5
 62
     1
100
AcDbCircle
 10
120.933072
 20
14.67983099999992
 30
0.0
 40
30.748217
100
AcDbArc
 50
113.681285
 51
115.8865640000001
  0
ARC
  5
ADE
330
A
100
AcDbEntity
  8
Hawa5
 62
     1
100
AcDbCircle
 10
120.929181
 20
12.18862000000013
 30
0.0
 40
30.738579
100
AcDbArc
 50
113.681252
 51
115.8874500000001
  0
ARC
  5
ADF
330
A
100
AcDbEntity
  8
Hawa5
 62
     1
100
AcDbCircle
 10
120.995305
 20
9.532979999999954
 30
0.0
 40
30.90761
100
AcDbArc
 50
113.6775769999999
 51
115.871632
  0
ARC
  5
AE0
330
A
100
AcDbEntity
  8
Hawa5
 62
     1
100
AcDbCircle
 10
120.929727
 20
7.187032999999928
 30
0.0
 40
30.740236
100
AcDbArc
 50
113.6809310000001
 51
115.886932
  0
ARC
  5
AE1
330
A
100
AcDbEntity
  8
Hawa5
 62
     1
100
AcDbCircle
 10
120.861093
 20
4.825094000000036
 30
0.0
 40
30.586178
100
AcDbArc
 50
113.667065
 51
115.8841030000001
  0
ARC
  5
AE2
330
A
100
AcDbEntity
  8
Hawa5
 62
     1
100
AcDbCircle
 10
120.892934
 20
2.276755000000094
 30
0.0
 40
30.643379
100
AcDbArc
 50
113.685084
 51
115.898571
  0
ARC
  5
AE3
330
A
100
AcDbEntity
  8
Hawa5
 62
     1
100
AcDbCircle
 10
121.232236
 20
-0.4556669999999485
 30
0.0
 40
30.993212
100
AcDbArc
 50
114.074575
 51
116.261403
  0
LINE
  5
AE4
330
A
100
AcDbEntity
  8
Hawa5
 62
     1
 48
0.325
100
AcDbLine
 10
110.249315
 20
44.11012899999992
 30
0.0
 11
110.249315
 21
31.11012899999992
 31
0.0
  0
LINE
  5
AE5
330
A
100
AcDbEntity
  8
Hawa5
 62
     1
 48
0.323087
100
AcDbLine
 10
109.249315
 20
44.11012899999992
 30
0.0
 11
109.249315
 21
31.18666699999995
 31
0.0
  0
LINE
  5
AE6
330
A
100
AcDbEntity
  8
Hawa5
 62
     1
 48
0.165841
100
AcDbLine
 10
109.249315
 20
31.18666699999995
 30
0.0
 11
108.240632
 21
24.63014799999996
 31
0.0
  0
LINE
  5
AE7
330
A
100
AcDbEntity
  8
Hawa5
 62
     1
 48
0.163905
100
AcDbLine
 10
110.249315
 20
31.11012899999992
 30
0.0
 11
109.252393
 21
24.63014799999996
 31
0.0
  0
LINE
  5
AE8
330
A
100
AcDbEntity
  8
Hawa5
 62
     1
 48
0.325
100
AcDbLine
 10
102.249315
 20
44.11012899999992
 30
0.0
 11
102.249315
 21
31.11012899999992
 31
0.0
  0
LINE
  5
AE9
330
A
100
AcDbEntity
  8
Hawa5
 62
     1
 48
0.025
100
AcDbLine
 10
103.249315
 20
44.11012899999992
 30
0.0
 11
102.249315
 21
44.11012899999992
 31
0.0
  0
LINE
  5
AEA
330
A
100
AcDbEntity
  8
Hawa5
 62
     1
 48
0.025
100
AcDbLine
 10
110.249315
 20
44.11012899999992
 30
0.0
 11
109.249315
 21
44.11012899999992
 31
0.0
  0
LINE
  5
AEB
330
A
100
AcDbEntity
  8
Hawa5
 62
     1
 48
0.323087
100
AcDbLine
 10
103.249315
 20
44.11012899999992
 30
0.0
 11
103.249315
 21
31.18666699999995
 31
0.0
  0
LINE
  5
AEC
330
A
100
AcDbEntity
  8
Hawa5
 62
     1
 48
0.163905
100
AcDbLine
 10
102.249315
 20
31.11012899999992
 30
0.0
 11
103.24624
 21
24.63014799999996
 31
0.0
  0
LINE
  5
AED
330
A
100
AcDbEntity
  8
Hawa5
 62
     1
 48
0.165841
100
AcDbLine
 10
103.249315
 20
31.18666699999995
 30
0.0
 11
104.258005
 21
24.63014799999996
 31
0.0
  0
LINE
  5
AEE
330
A
100
AcDbEntity
  8
Hawa5
 62
     1
 48
0.032055
100
AcDbLine
 10
128.469671
 20
26.11891800000012
 30
0.0
 11
129.580064
 21
26.76003100000003
 31
0.0
  0
LINE
  5
AEF
330
A
100
AcDbEntity
  8
Hawa5
 62
     1
 48
0.028868
100
AcDbLine
 10
129.249315
 20
32.34255000000008
 30
0.0
 11
130.249315
 21
32.9199430000001
 31
0.0
  0
LINE
  5
AF0
330
A
100
AcDbEntity
  8
Hawa5
 62
     1
 48
0.028867
100
AcDbLine
 10
129.249315
 20
38.11610999999994
 30
0.0
 11
130.249315
 21
38.69338100000004
 31
0.0
  0
LINE
  5
AF1
330
A
100
AcDbEntity
  8
Hawa5
 62
     1
 48
0.011029
100
AcDbLine
 10
129.249315
 20
43.8895480000001
 30
0.0
 11
129.631387
 21
44.11012899999992
 31
0.0
  0
LINE
  5
AF2
330
A
100
AcDbEntity
  8
Hawa5
 62
     1
 48
0.026825
100
AcDbLine
 10
122.646222
 20
28.53029500000002
 30
0.0
 11
123.575448
 21
29.06679400000007
 31
0.0
  0
LINE
  5
AF3
330
A
100
AcDbEntity
  8
Hawa5
 62
     1
 48
0.028868
100
AcDbLine
 10
122.249315
 20
34.0746059999999
 30
0.0
 11
123.249315
 21
34.65199899999993
 31
0.0
  0
LINE
  5
AF4
330
A
100
AcDbEntity
  8
Hawa5
 62
     1
 48
0.028867
100
AcDbLine
 10
122.249315
 20
39.84816599999999
 30
0.0
 11
123.249315
 21
40.42543599999999
 31
0.0
  0
LINE
  5
AF5
330
A
100
AcDbEntity
  8
Hawa5
 62
     1
 48
0.028868
100
AcDbLine
 10
110.249315
 20
42.03017300000009
 30
0.0
 11
109.249315
 21
42.60756500000002
 31
0.0
  0
LINE
  5
AF6
330
A
100
AcDbEntity
  8
Hawa5
 62
     1
 48
0.028867
100
AcDbLine
 10
110.249315
 20
36.25673499999994
 30
0.0
 11
109.249315
 21
36.83400600000004
 31
0.0
  0
LINE
  5
AF7
330
A
100
AcDbEntity
  8
Hawa5
 62
     1
 48
0.026825
100
AcDbLine
 10
110.160726
 20
30.53432300000009
 30
0.0
 11
109.2315
 21
31.07082199999991
 31
0.0
  0
LINE
  5
AF8
330
A
100
AcDbEntity
  8
Hawa5
 62
     1
 48
0.026825
100
AcDbLine
 10
109.344957
 20
25.23183300000005
 30
0.0
 11
108.415727
 21
25.7683320000001
 31
0.0
  0
LINE
  5
AF9
330
A
100
AcDbEntity
  8
Hawa5
 62
     1
 48
0.028868
100
AcDbLine
 10
103.249315
 20
40.29811700000005
 30
0.0
 11
102.249315
 21
40.87550899999996
 31
0.0
  0
LINE
  5
AFA
330
A
100
AcDbEntity
  8
Hawa5
 62
     1
 48
0.028867
100
AcDbLine
 10
103.249315
 20
34.52467900000011
 30
0.0
 11
102.249315
 21
35.10194999999999
 31
0.0
  0
LINE
  5
AFB
330
A
100
AcDbEntity
  8
Hawa5
 62
     1
 48
0.032055
100
AcDbLine
 10
103.660531
 20
28.5136930000001
 30
0.0
 11
102.550142
 21
29.15480600000001
 31
0.0
  0
LINE
  5
AFC
330
A
100
AcDbEntity
  8
Hawa6
  6
DASHDOT
 62
     3
 48
0.00975
100
AcDbLine
 10
116.444314
 20
166.551028
 30
0.0
 11
116.054315
 21
166.551028
 31
0.0
  0
LINE
  5
AFD
330
A
100
AcDbEntity
  8
Hawa6
  6
DASHDOT
 62
     3
 48
0.00975
100
AcDbLine
 10
116.249315
 20
166.746035
 30
0.0
 11
116.249315
 21
166.356051
 31
0.0
  0
LINE
  5
AFE
330
A
100
AcDbEntity
  8
Hawa2
 62
     9
 48
0.07213
100
AcDbLine
 10
107.709192
 20
181.25104
 30
0.0
 11
109.749334
 21
183.291171
 31
0.0
  0
LINE
  5
AFF
330
A
100
AcDbEntity
  8
Hawa2
 62
     9
 48
0.106066
100
AcDbLine
 10
104.880769
 20
181.25104
 30
0.0
 11
107.880769
 21
184.25104
 31
0.0
  0
LINE
  5
B00
330
A
100
AcDbEntity
  8
Hawa2
 62
     9
 48
0.13778
100
AcDbLine
 10
102.052339
 20
181.25104
 30
0.0
 11
105.949334
 21
185.148043
 31
0.0
  0
LINE
  5
B01
330
A
100
AcDbEntity
  8
Hawa2
 62
     9
 48
0.16595
100
AcDbLine
 10
99.53013699999999
 20
181.557284
 30
0.0
 11
104.223909
 21
186.25104
 31
0.0
  0
LINE
  5
B02
330
A
100
AcDbEntity
  8
Hawa2
 62
     9
 48
0.11177
100
AcDbLine
 10
99.24933000000001
 20
184.1048909999999
 30
0.0
 11
102.410676
 21
187.266238
 31
0.0
  0
LINE
  5
B03
330
A
100
AcDbEntity
  8
Hawa2
 62
     9
 48
0.10253
100
AcDbLine
 10
99.24933000000001
 20
186.933322
 30
0.0
 11
102.149331
 21
189.833316
 31
0.0
  0
LINE
  5
B04
330
A
100
AcDbEntity
  8
Hawa2
 62
     9
 48
0.10253
100
AcDbLine
 10
99.24933000000001
 20
189.761752
 30
0.0
 11
102.149331
 21
192.661746
 31
0.0
  0
LINE
  5
B05
330
A
100
AcDbEntity
  8
Hawa2
 62
     9
 48
0.102531
100
AcDbLine
 10
99.24933000000001
 20
192.590151
 30
0.0
 11
102.149324
 21
195.490176
 31
0.0
  0
LINE
  5
B06
330
A
100
AcDbEntity
  8
Hawa2
 62
     9
 48
0.102531
100
AcDbLine
 10
99.24933000000001
 20
195.418582
 30
0.0
 11
102.149324
 21
198.318606
 31
0.0
  0
LINE
  5
B07
330
A
100
AcDbEntity
  8
Hawa2
 62
     9
 48
0.10253
100
AcDbLine
 10
99.249322
 20
198.247012
 30
0.0
 11
102.149324
 21
201.147006
 31
0.0
  0
LINE
  5
B08
330
A
100
AcDbEntity
  8
Hawa2
 62
     9
 48
0.10253
100
AcDbLine
 10
99.249322
 20
201.075442
 30
0.0
 11
102.149324
 21
203.975436
 31
0.0
  0
LINE
  5
B09
330
A
100
AcDbEntity
  8
Hawa2
 62
     9
 48
0.10253
100
AcDbLine
 10
99.249322
 20
203.903872
 30
0.0
 11
102.149324
 21
206.803866
 31
0.0
  0
LINE
  5
B0A
330
A
100
AcDbEntity
  8
Hawa2
 62
     9
 48
0.10253
100
AcDbLine
 10
99.249322
 20
206.732302
 30
0.0
 11
102.149324
 21
209.632296
 31
0.0
  0
LINE
  5
B0B
330
A
100
AcDbEntity
  8
Hawa2
 62
     9
 48
0.096564
100
AcDbLine
 10
110.86807
 20
218.351046
 30
0.0
 11
113.599317
 21
221.082278
 31
0.0
  0
LINE
  5
B0C
330
A
100
AcDbEntity
  8
Hawa2
 62
     9
 48
0.10253
100
AcDbLine
 10
99.249322
 20
209.560733
 30
0.0
 11
102.149316
 21
212.460726
 31
0.0
  0
LINE
  5
B0D
330
A
100
AcDbEntity
  8
Hawa2
 62
     9
 48
0.10253
100
AcDbLine
 10
108.039644
 20
218.351046
 30
0.0
 11
110.939645
 21
221.25104
 31
0.0
  0
LINE
  5
B0E
330
A
100
AcDbEntity
  8
Hawa2
 62
     9
 48
0.102531
100
AcDbLine
 10
99.249322
 20
212.389132
 30
0.0
 11
102.149316
 21
215.289157
 31
0.0
  0
LINE
  5
B0F
330
A
100
AcDbEntity
  8
Hawa2
 62
     9
 48
0.10253
100
AcDbLine
 10
105.211213
 20
218.351046
 30
0.0
 11
108.111215
 21
221.25104
 31
0.0
  0
LINE
  5
B10
330
A
100
AcDbEntity
  8
Hawa2
 62
     9
 48
0.213316
100
AcDbLine
 10
99.24931499999999
 20
215.217562
 30
0.0
 11
105.282785
 21
221.25104
 31
0.0
  0
LINE
  5
B11
330
A
100
AcDbEntity
  8
Hawa2
 62
     9
 48
0.113316
100
AcDbLine
 10
99.24931499999999
 20
218.045993
 30
0.0
 11
102.454362
 21
221.25104
 31
0.0
  0
LINE
  5
B12
330
A
100
AcDbEntity
  8
Hawa2
 62
     9
 48
0.102979
100
AcDbLine
 10
130.33661
 20
181.25104
 30
0.0
 11
133.249299
 21
184.163729
 31
0.0
  0
LINE
  5
B13
330
A
100
AcDbEntity
  8
Hawa2
 62
     9
 48
0.202979
100
AcDbLine
 10
127.508184
 20
181.25104
 30
0.0
 11
133.249299
 21
186.99216
 31
0.0
  0
LINE
  5
B14
330
A
100
AcDbEntity
  8
Hawa2
 62
     9
 48
0.302979
100
AcDbLine
 10
124.679757
 20
181.25104
 30
0.0
 11
133.249303
 21
189.8205899999999
 31
0.0
  0
LINE
  5
B15
330
A
100
AcDbEntity
  8
Hawa2
 62
     9
 48
0.074162
100
AcDbLine
 10
122.753713
 20
182.153414
 30
0.0
 11
124.851331
 21
184.25104
 31
0.0
  0
LINE
  5
B16
330
A
100
AcDbEntity
  8
Hawa2
 62
     9
 48
0.10253
100
AcDbLine
 10
130.349302
 20
189.749026
 30
0.0
 11
133.249303
 21
192.64902
 31
0.0
  0
LINE
  5
B17
330
A
100
AcDbEntity
  8
Hawa2
 62
     9
 48
0.10253
100
AcDbLine
 10
130.349302
 20
192.577456
 30
0.0
 11
133.249303
 21
195.47745
 31
0.0
  0
LINE
  5
B18
330
A
100
AcDbEntity
  8
Hawa2
 62
     9
 48
0.10253
100
AcDbLine
 10
130.349305
 20
195.405886
 30
0.0
 11
133.249307
 21
198.30588
 31
0.0
  0
LINE
  5
B19
330
A
100
AcDbEntity
  8
Hawa2
 62
     9
 48
0.102531
100
AcDbLine
 10
130.349305
 20
198.234286
 30
0.0
 11
133.249307
 21
201.13431
 31
0.0
  0
LINE
  5
B1A
330
A
100
AcDbEntity
  8
Hawa2
 62
     9
 48
0.102531
100
AcDbLine
 10
130.349305
 20
201.062716
 30
0.0
 11
133.249307
 21
203.962741
 31
0.0
  0
LINE
  5
B1B
330
A
100
AcDbEntity
  8
Hawa2
 62
     9
 48
0.102531
100
AcDbLine
 10
130.349309
 20
203.891146
 30
0.0
 11
133.249311
 21
206.791171
 31
0.0
  0
LINE
  5
B1C
330
A
100
AcDbEntity
  8
Hawa2
 62
     9
 48
0.102531
100
AcDbLine
 10
130.349309
 20
206.719577
 30
0.0
 11
133.249311
 21
209.619601
 31
0.0
  0
LINE
  5
B1D
330
A
100
AcDbEntity
  8
Hawa2
 62
     9
 48
0.10253
100
AcDbLine
 10
130.349309
 20
209.548007
 30
0.0
 11
133.249311
 21
212.448001
 31
0.0
  0
LINE
  5
B1E
330
A
100
AcDbEntity
  8
Hawa2
 62
     9
 48
0.10253
100
AcDbLine
 10
130.349313
 20
212.376437
 30
0.0
 11
133.249315
 21
215.276431
 31
0.0
  0
LINE
  5
B1F
330
A
100
AcDbEntity
  8
Hawa2
 62
     9
 48
0.10253
100
AcDbLine
 10
130.349313
 20
215.204867
 30
0.0
 11
133.249315
 21
218.104861
 31
0.0
  0
LINE
  5
B20
330
A
100
AcDbEntity
  8
Hawa2
 62
     9
 48
0.112567
100
AcDbLine
 10
129.912584
 20
217.59656
 30
0.0
 11
133.096464
 21
220.780459
 31
0.0
  0
LINE
  5
B21
330
A
100
AcDbEntity
  8
Hawa2
 62
     9
 48
0.10253
100
AcDbLine
 10
127.838632
 20
218.351046
 30
0.0
 11
130.73863
 21
221.25104
 31
0.0
  0
LINE
  5
B22
330
A
100
AcDbEntity
  8
Hawa2
 62
     9
 48
0.10253
100
AcDbLine
 10
125.010206
 20
218.351046
 30
0.0
 11
127.910203
 21
221.25104
 31
0.0
  0
LINE
  5
B23
330
A
100
AcDbEntity
  8
Hawa2
 62
     9
 48
0.10253
100
AcDbLine
 10
122.181779
 20
218.351046
 30
0.0
 11
125.081777
 21
221.25104
 31
0.0
  0
LINE
  5
B24
330
A
100
AcDbEntity
  8
Hawa2
 62
     9
 48
0.065479
100
AcDbLine
 10
120.401334
 20
219.39902
 30
0.0
 11
122.253351
 21
221.25104
 31
0.0
  0
LINE
  5
B25
330
A
100
AcDbEntity
  8
Hawa2
 62
     9
 48
0.015479
100
AcDbLine
 10
118.987123
 20
220.813235
 30
0.0
 11
119.424928
 21
221.25104
 31
0.0
  0
LINE
  5
B26
330
A
100
AcDbEntity
  8
Hawa5
  6
PHANTOM
 62
     1
100
AcDbLine
 10
136.249315
 20
102.251055
 30
0.0
 11
96.249315
 21
102.251055
 31
0.0
  0
LINE
  5
B27
330
A
100
AcDbEntity
  8
Hawa5
 62
     1
100
AcDbLine
 10
96.249315
 20
152.2510399999999
 30
0.0
 11
96.249315
 21
102.251055
 31
0.0
  0
LINE
  5
B28
330
A
100
AcDbEntity
  8
Hawa5
 62
     1
 48
0.187501
100
AcDbLine
 10
136.249315
 20
152.2510399999999
 30
0.0
 11
128.749284
 21
152.2510399999999
 31
0.0
  0
LINE
  5
B29
330
A
100
AcDbEntity
  8
Hawa5
 62
     1
 48
0.187499
100
AcDbLine
 10
103.749284
 20
152.2510399999999
 30
0.0
 11
96.249315
 21
152.2510399999999
 31
0.0
  0
LINE
  5
B2A
330
A
100
AcDbEntity
  8
Hawa5
 62
     1
100
AcDbLine
 10
136.249315
 20
152.2510399999999
 30
0.0
 11
136.249315
 21
102.251055
 31
0.0
  0
LINE
  5
B2B
330
A
100
AcDbEntity
  8
Hawa5
 62
     1
100
AcDbLine
 10
76.24931500000002
 20
221.25104
 30
0.0
 11
156.249315
 21
221.25104
 31
0.0
  0
LINE
  5
B2C
330
A
100
AcDbEntity
  8
HAWA1
 48
0.00375
100
AcDbLine
 10
119.749315
 20
166.398989
 30
0.0
 11
119.749315
 21
166.248995
 31
0.0
  0
LINE
  5
B2D
330
A
100
AcDbEntity
  8
HAWA1
 48
0.377501
100
AcDbLine
 10
121.249315
 20
190.14902
 30
0.0
 11
121.249315
 21
175.048983
 31
0.0
  0
LINE
  5
B2E
330
A
100
AcDbEntity
  8
HAWA1
 48
0.000594
100
AcDbLine
 10
123.749315
 20
173.651034
 30
0.0
 11
123.748964
 21
173.674807
 31
0.0
  0
LINE
  5
B2F
330
A
100
AcDbEntity
  8
HAWA1
 48
0.0375
100
AcDbLine
 10
126.749315
 20
166.551028
 30
0.0
 11
126.749315
 21
168.051028
 31
0.0
  0
LINE
  5
B30
330
A
100
AcDbEntity
  8
HAWA1
 48
0.113358
100
AcDbLine
 10
123.749315
 20
171.451052
 30
0.0
 11
126.749315
 21
168.051028
 31
0.0
  0
ARC
  5
B31
330
A
100
AcDbEntity
  8
HAWA1
 62
     7
100
AcDbCircle
 10
108.989175
 20
173.650851
 30
0.0
 40
1.400187999999999
100
AcDbArc
 50
90.00455799999986
 51
99.86352599999987
  0
ARC
  5
B32
330
A
100
AcDbEntity
  8
HAWA1
 62
     7
100
AcDbCircle
 10
123.509458
 20
173.650851
 30
0.0
 40
1.400187999999999
100
AcDbArc
 50
80.13647199999963
 51
89.99544699999935
  0
LINE
  5
B34
330
A
100
AcDbEntity
  8
HAWA1
 48
0.3775
100
AcDbLine
 10
121.249315
 20
190.149386
 30
0.0
 11
121.249315
 21
175.04938
 31
0.0
  0
LINE
  5
B35
330
A
100
AcDbEntity
  8
HAWA1
 48
0.001252
100
AcDbLine
 10
123.749315
 20
173.651034
 30
0.0
 11
123.747766
 21
173.701083
 31
0.0
  0
LINE
  5
B3A
330
A
100
AcDbEntity
  8
HAWA1
 48
0.003749
100
AcDbLine
 10
119.749315
 20
166.400637
 30
0.0
 11
119.749315
 21
166.250674
 31
0.0
  0
ARC
  5
B40
330
A
100
AcDbEntity
  8
HAWA1
 62
     7
100
AcDbCircle
 10
123.509458
 20
173.650851
 30
0.0
 40
1.400187999999999
100
AcDbArc
 50
80.13647199999963
 51
89.99544699999935
  0
LINE
  5
B41
330
A
100
AcDbEntity
  8
Hawa6
 62
     3
 48
0.003881
100
AcDbLine
 10
123.123243
 20
160.448031
 30
0.0
 11
123.149316
 21
160.601046
 31
0.0
  0
ARC
  5
B42
330
A
100
AcDbEntity
  8
Hawa6
 62
     3
100
AcDbCircle
 10
129.92484
 20
159.351626
 30
0.0
 40
6.889492999999998
100
AcDbArc
 50
169.5519600000003
 51
189.1667199999998
  0
LINE
  5
B43
330
A
100
AcDbEntity
  8
Hawa6
 62
     3
 48
0.003881
100
AcDbLine
 10
123.149316
 20
158.101046
 30
0.0
 11
123.123243
 21
158.254061
 31
0.0
  0
ARC
  5
B44
330
A
100
AcDbEntity
  8
Hawa6
 62
     3
100
AcDbCircle
 10
129.92484
 20
159.3504659999999
 30
0.0
 40
6.889492999999998
100
AcDbArc
 50
170.8332900000001
 51
190.4480359999999
  0
LWPOLYLINE
  5
B45
330
A
100
AcDbEntity
  8
Hawa6
 62
     3
100
AcDbPolyline
 90
        9
 70
     0
 43
0.0
 10
119.034181
 20
160.354953
 10
118.392896
 20
160.426333
 10
117.414632
 20
160.616427
 10
116.751951
 20
160.730593
 10
116.081418
 20
160.75986
 10
115.414098
 20
160.679599
 10
114.429876
 20
160.483981
 10
113.783674
 20
160.38132
 10
113.464448
 20
160.354953
  0
ARC
  5
B46
330
A
100
AcDbEntity
  8
Hawa6
 62
     3
100
AcDbCircle
 10
112.797883
 20
159.009097
 30
0.0
 40
0.9080549999999998
100
AcDbArc
 50
236.2487059999984
 51
270.0845549999994
  0
LWPOLYLINE
  5
B47
330
A
100
AcDbEntity
  8
Hawa6
 62
     3
100
AcDbPolyline
 90
       10
 70
     0
 43
0.0
 10
112.799222
 20
158.101046
 10
113.118776
 20
158.155001
 10
113.418603
 20
158.311953
 10
113.669996
 20
158.557894
 10
113.847905
 20
158.872164
 10
113.933153
 20
159.228396
 10
113.91583
 20
159.595462
 10
113.798005
 20
159.940951
 10
113.593088
 20
160.235049
 10
113.464448
 20
160.354953
  0
LWPOLYLINE
  5
B48
330
A
100
AcDbEntity
  8
Hawa6
 62
     3
100
AcDbPolyline
 90
        7
 70
     0
 43
0.0
 10
112.293359
 20
158.254061
 10
112.056566
 20
158.474337
 10
111.860414
 20
158.835604
 10
111.776372
 20
159.261141
 10
111.811998
 20
159.698123
 10
111.964044
 20
160.091403
 10
112.170236
 20
160.351046
  0
LINE
  5
B49
330
A
100
AcDbEntity
  8
Hawa6
 62
     3
 48
0.053982
100
AcDbLine
 10
110.010961
 20
160.351046
 30
0.0
 11
112.170236
 21
160.351046
 31
0.0
  0
ARC
  5
B4A
330
A
100
AcDbEntity
  8
Hawa6
 62
     3
100
AcDbCircle
 10
110.021585
 20
161.102297
 30
0.0
 40
0.752088
100
AcDbArc
 50
206.7300899999987
 51
269.1896299999997
  0
LINE
  5
B4B
330
A
100
AcDbEntity
  8
Hawa6
 62
     3
 48
0.004067
100
AcDbLine
 10
109.349317
 20
160.763735
 30
0.0
 11
109.349317
 21
160.601046
 31
0.0
  0
LINE
  5
B4C
330
A
100
AcDbEntity
  8
Hawa6
 62
     3
 48
0.003881
100
AcDbLine
 10
109.37539
 20
160.448031
 30
0.0
 11
109.349317
 21
160.601046
 31
0.0
  0
ARC
  5
B4D
330
A
100
AcDbEntity
  8
Hawa6
 62
     3
100
AcDbCircle
 10
102.573716
 20
159.3504659999999
 30
0.0
 40
6.889566
100
AcDbArc
 50
349.5520729999999
 51
9.166617999999942
  0
LINE
  5
B4E
330
A
100
AcDbEntity
  8
Hawa6
 62
     3
 48
0.00125
100
AcDbLine
 10
109.349317
 20
158.101046
 30
0.0
 11
109.349317
 21
158.051028
 31
0.0
  0
LINE
  5
B4F
330
A
100
AcDbEntity
  8
Hawa6
 62
     3
 48
0.345
100
AcDbLine
 10
109.349317
 20
158.051028
 30
0.0
 11
123.149316
 21
158.051028
 31
0.0
  0
LINE
  5
B50
330
A
100
AcDbEntity
  8
Hawa6
 62
     3
 48
0.00125
100
AcDbLine
 10
123.149316
 20
158.101046
 30
0.0
 11
123.149316
 21
158.051028
 31
0.0
  0
LINE
  5
B51
330
A
100
AcDbEntity
  8
Hawa6
 62
     3
 48
0.004067
100
AcDbLine
 10
123.149316
 20
160.763735
 30
0.0
 11
123.149316
 21
160.601046
 31
0.0
  0
ARC
  5
B52
330
A
100
AcDbEntity
  8
Hawa6
 62
     3
100
AcDbCircle
 10
122.476911
 20
161.10242
 30
0.0
 40
0.7522630000000001
100
AcDbArc
 50
270.820460000001
 51
333.2658810000002
  0
LINE
  5
B53
330
A
100
AcDbEntity
  8
Hawa6
 62
     3
 48
0.053982
100
AcDbLine
 10
120.328393
 20
160.351046
 30
0.0
 11
122.487672
 21
160.351046
 31
0.0
  0
ARC
  5
B54
330
A
100
AcDbEntity
  8
Hawa6
 62
     3
100
AcDbCircle
 10
119.710477
 20
159.1370879999999
 30
0.0
 40
1.036421999999999
100
AcDbArc
 50
238.4026059999993
 51
269.3775209999998
  0
LWPOLYLINE
  5
B55
330
A
100
AcDbEntity
  8
Hawa6
 62
     3
100
AcDbPolyline
 90
        9
 70
     0
 43
0.0
 10
119.69922
 20
158.101046
 10
120.017518
 20
158.158084
 10
120.297468
 20
158.323611
 10
120.517431
 20
158.582125
 10
120.662511
 20
158.910708
 10
120.724588
 20
159.374911
 10
120.64874
 20
159.8356649999999
 10
120.493612
 20
160.156893
 10
120.328393
 20
160.351046
  0
LWPOLYLINE
  5
B56
330
A
100
AcDbEntity
  8
Hawa6
 62
     3
100
AcDbPolyline
 90
        7
 70
     0
 43
0.0
 10
119.167283
 20
158.254061
 10
118.851545
 20
158.528964
 10
118.638086
 20
158.905551
 10
118.559762
 20
159.338198
 10
118.629617
 20
159.772463
 10
118.835969
 20
160.153628
 10
119.034185
 20
160.354953
  0
LINE
  5
B57
330
A
100
AcDbEntity
  8
Hawa6
 62
     3
 48
0.003881
100
AcDbLine
 10
109.349317
 20
158.101046
 30
0.0
 11
109.37539
 21
158.254061
 31
0.0
  0
ARC
  5
B58
330
A
100
AcDbEntity
  8
Hawa6
 62
     3
100
AcDbCircle
 10
112.845266
 20
159.579257
 30
0.0
 40
0.992557
100
AcDbArc
 50
51.40224500000144
 51
61.07353099999944
  0
LINE
  5
B59
330
A
100
AcDbEntity
  8
Hawa6
 62
     3
 48
0.000894
100
AcDbLine
 10
113.293863
 20
160.464968
 30
0.0
 11
113.325372
 21
160.448031
 31
0.0
  0
ELLIPSE
  5
B5A
330
A
100
AcDbEntity
  8
Hawa6
 62
     3
100
AcDbEllipse
 10
113.130021
 20
160.351046
 30
0.0
 11
-0.000000017484556
 21
0.4000000059604646
 31
0.0
210
0.0
220
0.0
230
1.0
 40
0.4273010000000001
 41
5.001188278198242
 42
6.283185482025146
  0
LWPOLYLINE
  5
B5B
330
A
100
AcDbEntity
  8
Hawa6
 62
     3
100
AcDbPolyline
 90
        6
 70
     0
 43
0.0
 10
119.368608
 20
160.75104
 10
118.496793
 20
160.790255
 10
117.159593
 20
160.913058
 10
115.338956
 20
160.913058
 10
114.001756
 20
160.790255
 10
113.130021
 20
160.75104
  0
ELLIPSE
  5
B5C
330
A
100
AcDbEntity
  8
Hawa6
 62
     3
100
AcDbEllipse
 10
119.368608
 20
160.351046
 30
0.0
 11
0.0000000047699489
 21
-0.3999997377395629
 31
0.0
210
0.0
220
0.0
230
0.9999999999999996
 40
0.4273010000000001
 41
3.141592741012573
 42
4.423591613769531
  0
ARC
  5
B5D
330
A
100
AcDbEntity
  8
Hawa6
 62
     3
100
AcDbCircle
 10
119.66866
 20
159.557131
 30
0.0
 40
1.019425
100
AcDbArc
 50
117.0665050000005
 51
128.4937399999993
  0
LWPOLYLINE
  5
B5E
330
A
100
AcDbEntity
  8
Hawa6
 62
     3
100
AcDbPolyline
 90
        4
 70
     0
 43
0.0
 10
109.649316
 20
160.75104
 10
109.848543
 20
160.684878
 10
109.981859
 20
160.508242
 10
110.010961
 20
160.351046
  0
ARC
  5
B5F
330
A
100
AcDbEntity
  8
Hawa6
 62
     3
100
AcDbCircle
 10
112.734765
 20
159.391085
 30
0.0
 40
1.210493
100
AcDbArc
 50
62.49676299999982
 51
89.02111400000022
  0
LWPOLYLINE
  5
B60
330
A
100
AcDbEntity
  8
Hawa6
 62
     3
100
AcDbPolyline
 90
        3
 70
     0
 43
0.0
 10
112.755441
 20
160.601046
 10
112.438951
 20
160.536563
 10
112.170236
 20
160.351046
  0
ARC
  5
B61
330
A
100
AcDbEntity
  8
Hawa6
 62
     3
100
AcDbCircle
 10
108.949319
 20
160.763735
 30
0.0
 40
0.4
100
AcDbArc
 50
0.0
 51
28.95502400000341
  0
ARC
  5
B62
330
A
100
AcDbEntity
  8
Hawa6
 62
     3
100
AcDbCircle
 10
122.749315
 20
158.051028
 30
0.0
 40
0.4
100
AcDbArc
 50
270.000001000001
 51
0.0000099566261208
  0
ARC
  5
B63
330
A
100
AcDbEntity
  8
Hawa6
 62
     3
100
AcDbCircle
 10
109.749315
 20
158.051028
 30
0.0
 40
0.4
100
AcDbArc
 50
180.0000049783131
 51
270.000001000001
  0
LINE
  5
B64
330
A
100
AcDbEntity
  8
Hawa6
 62
     3
 48
0.325
100
AcDbLine
 10
109.749315
 20
157.651034
 30
0.0
 11
122.749315
 21
157.651034
 31
0.0
  0
ELLIPSE
  5
B65
330
A
100
AcDbEntity
  8
Hawa6
 62
     3
100
AcDbEllipse
 10
122.849317
 20
160.351046
 30
0.0
 11
-0.000000017484556
 21
0.4000000059604646
 31
0.0
210
0.0
220
0.0
230
1.0
 40
0.9041100000000003
 41
6.283185482025146
 42
7.853981494903563
  0
ARC
  5
B66
330
A
100
AcDbEntity
  8
Hawa6
 62
     3
100
AcDbCircle
 10
123.549314
 20
160.763735
 30
0.0
 40
0.4
100
AcDbArc
 50
151.0449750000009
 51
180.0000049783131
  0
ARC
  5
B67
330
A
100
AcDbEntity
  8
Hawa6
 62
     3
100
AcDbCircle
 10
119.457662
 20
159.419802
 30
0.0
 40
1.274856999999999
100
AcDbArc
 50
46.9231649999996
 51
53.76158700000013
  0
ARC
  5
B68
330
A
100
AcDbEntity
  8
Hawa6
 62
     3
100
AcDbCircle
 10
119.764112
 20
159.390475
 30
0.0
 40
1.211149999999999
100
AcDbArc
 50
90.99009300000036
 51
117.5000320000008
  0
ARC
  5
B69
330
A
100
AcDbEntity
  8
Hawa6
 62
     3
100
AcDbCircle
 10
119.75327
 20
159.840182
 30
0.0
 40
0.7607530000000001
100
AcDbArc
 50
53.00217800000082
 51
90.75915100000106
  0
LINE
  5
B6A
330
A
100
AcDbEntity
  8
Hawa6
 62
     3
 48
0.084518
100
AcDbLine
 10
119.368608
 20
160.75104
 30
0.0
 11
122.749315
 21
160.75104
 31
0.0
  0
LINE
  5
B6B
330
A
100
AcDbEntity
  8
Hawa6
 62
     3
 48
0.01
100
AcDbLine
 10
122.749315
 20
160.75104
 30
0.0
 11
122.749315
 21
161.151034
 31
0.0
  0
LINE
  5
B6C
330
A
100
AcDbEntity
  8
Hawa6
 62
     3
 48
0.325
100
AcDbLine
 10
109.749315
 20
161.151034
 30
0.0
 11
122.749315
 21
161.151034
 31
0.0
  0
LINE
  5
B6D
330
A
100
AcDbEntity
  8
Hawa6
 62
     3
 48
0.01
100
AcDbLine
 10
109.749315
 20
160.75104
 30
0.0
 11
109.749315
 21
161.151034
 31
0.0
  0
LINE
  5
B6E
330
A
100
AcDbEntity
  8
Hawa6
 62
     3
 48
0.084518
100
AcDbLine
 10
109.749315
 20
160.75104
 30
0.0
 11
113.130021
 21
160.75104
 31
0.0
  0
LINE
  5
B6F
330
A
100
AcDbEntity
  8
Hawa6
 62
     3
 48
0.0025
100
AcDbLine
 10
109.649316
 20
160.75104
 30
0.0
 11
109.749315
 21
160.75104
 31
0.0
  0
ARC
  5
B70
330
A
100
AcDbEntity
  8
Hawa6
 62
     3
100
AcDbCircle
 10
109.649316
 20
161.151034
 30
0.0
 40
0.4
100
AcDbArc
 50
180.0000049783131
 51
270.000001000001
  0
ARC
  5
B71
330
A
100
AcDbEntity
  8
Hawa6
 62
     3
100
AcDbCircle
 10
122.849317
 20
161.151034
 30
0.0
 40
0.4
100
AcDbArc
 50
270.000000999999
 51
0.0000099566261208
  0
LINE
  5
B72
330
A
100
AcDbEntity
  8
Hawa6
 62
     3
 48
0.0025
100
AcDbLine
 10
122.749315
 20
160.75104
 30
0.0
 11
122.849317
 21
160.75104
 31
0.0
  0
LINE
  5
B73
330
A
100
AcDbEntity
  8
Hawa6
 62
     3
 48
0.0125
100
AcDbLine
 10
122.749315
 20
161.151034
 30
0.0
 11
123.249315
 21
161.151034
 31
0.0
  0
LINE
  5
B74
330
A
100
AcDbEntity
  8
Hawa6
 62
     3
 48
0.0125
100
AcDbLine
 10
122.749315
 20
161.651034
 30
0.0
 11
122.749315
 21
161.151034
 31
0.0
  0
LINE
  5
B75
330
A
100
AcDbEntity
  8
Hawa6
 62
     3
 48
0.18
100
AcDbLine
 10
112.649312
 20
162.25104
 30
0.0
 11
119.849313
 21
162.25104
 31
0.0
  0
LINE
  5
B76
330
A
100
AcDbEntity
  8
Hawa6
 62
     3
 48
0.0125
100
AcDbLine
 10
109.749315
 20
161.651034
 30
0.0
 11
109.749315
 21
161.151034
 31
0.0
  0
LINE
  5
B77
330
A
100
AcDbEntity
  8
Hawa6
 62
     3
 48
0.0125
100
AcDbLine
 10
109.249315
 20
161.151034
 30
0.0
 11
109.749315
 21
161.151034
 31
0.0
  0
ARC
  5
B78
330
A
100
AcDbEntity
  8
Hawa6
 62
     3
100
AcDbCircle
 10
112.449315
 20
162.551028
 30
0.0
 40
0.3
100
AcDbArc
 50
311.8081349999968
 51
0.0000099931643211
  0
LINE
  5
B79
330
A
100
AcDbEntity
  8
Hawa6
 62
     3
 48
0.175
100
AcDbLine
 10
112.749315
 20
162.551028
 30
0.0
 11
119.749315
 21
162.551028
 31
0.0
  0
ARC
  5
B7A
330
A
100
AcDbEntity
  8
Hawa6
 62
     3
100
AcDbCircle
 10
120.049314
 20
162.551028
 30
0.0
 40
0.3
100
AcDbArc
 50
180.0000049045562
 51
228.1875090000027
  0
LINE
  5
B7B
330
A
100
AcDbEntity
  8
Hawa6
 62
     3
 48
0.09625
100
AcDbLine
 10
119.749315
 20
166.401034
 30
0.0
 11
119.749315
 21
162.551028
 31
0.0
  0
LINE
  5
B7C
330
A
100
AcDbEntity
  8
Hawa6
 62
     3
 48
0.09625
100
AcDbLine
 10
112.749315
 20
166.401034
 30
0.0
 11
112.749315
 21
162.551028
 31
0.0
  0
LINE
  5
B7D
330
A
100
AcDbEntity
  8
Hawa6
 62
     3
 48
0.464999
100
AcDbLine
 10
111.249315
 20
193.651004
 30
0.0
 11
111.249315
 21
175.051028
 31
0.0
  0
LINE
  5
B7E
330
A
100
AcDbEntity
  8
Hawa6
 62
     3
 48
0.464999
100
AcDbLine
 10
121.249315
 20
193.651004
 30
0.0
 11
121.249315
 21
175.051028
 31
0.0
  0
LINE
  5
B7F
330
A
100
AcDbEntity
  8
Hawa6
 62
     3
 48
0.464999
100
AcDbLine
 10
112.061315
 20
175.051028
 30
0.0
 11
112.061315
 21
193.651004
 31
0.0
  0
LINE
  5
B80
330
A
100
AcDbEntity
  8
Hawa6
 62
     3
 48
0.464999
100
AcDbLine
 10
120.437314
 20
175.051028
 30
0.0
 11
120.437314
 21
193.651004
 31
0.0
  0
LINE
  5
B81
330
A
100
AcDbEntity
  8
Hawa6
 62
     3
 48
0.095
100
AcDbLine
 10
128.749315
 20
152.2510399999999
 30
0.0
 11
128.749315
 21
156.051028
 31
0.0
  0
LINE
  5
B82
330
A
100
AcDbEntity
  8
Hawa6
 62
     3
 48
0.2425
100
AcDbLine
 10
128.749315
 20
156.051028
 30
0.0
 11
128.749315
 21
165.75104
 31
0.0
  0
LINE
  5
B83
330
A
100
AcDbEntity
  8
Hawa6
 62
     3
 48
0.05
100
AcDbLine
 10
126.749315
 20
152.2510399999999
 30
0.0
 11
128.749315
 21
152.2510399999999
 31
0.0
  0
LINE
  5
B84
330
A
100
AcDbEntity
  8
Hawa6
 62
     3
100
AcDbLine
 10
126.749315
 20
152.2510399999999
 30
0.0
 11
105.749315
 21
152.2510399999999
 31
0.0
  0
LINE
  5
B85
330
A
100
AcDbEntity
  8
Hawa6
 62
     3
 48
0.05
100
AcDbLine
 10
103.749315
 20
152.2510399999999
 30
0.0
 11
105.749315
 21
152.2510399999999
 31
0.0
  0
LINE
  5
B86
330
A
100
AcDbEntity
  8
Hawa6
 62
     3
 48
0.045
100
AcDbLine
 10
126.749315
 20
152.2510399999999
 30
0.0
 11
126.749315
 21
154.051028
 31
0.0
  0
LINE
  5
B87
330
A
100
AcDbEntity
  8
Hawa6
 62
     3
 48
0.070711
100
AcDbLine
 10
126.749315
 20
154.051028
 30
0.0
 11
128.749315
 21
156.051028
 31
0.0
  0
LINE
  5
B88
330
A
100
AcDbEntity
  8
Hawa6
 62
     3
 48
0.045
100
AcDbLine
 10
105.749315
 20
152.2510399999999
 30
0.0
 11
105.749315
 21
154.051028
 31
0.0
  0
LINE
  5
B89
330
A
100
AcDbEntity
  8
Hawa6
 62
     3
100
AcDbLine
 10
126.749315
 20
154.051028
 30
0.0
 11
105.749315
 21
154.051028
 31
0.0
  0
LINE
  5
B8A
330
A
100
AcDbEntity
  8
Hawa6
 62
     3
 48
0.095
100
AcDbLine
 10
103.749315
 20
152.2510399999999
 30
0.0
 11
103.749315
 21
156.051028
 31
0.0
  0
LINE
  5
B8B
330
A
100
AcDbEntity
  8
Hawa6
 62
     3
 48
0.070711
100
AcDbLine
 10
105.749315
 20
154.051028
 30
0.0
 11
103.749315
 21
156.051028
 31
0.0
  0
LINE
  5
B8C
330
A
100
AcDbEntity
  8
Hawa6
 62
     3
 48
0.007644
100
AcDbLine
 10
125.749315
 20
156.356784
 30
0.0
 11
125.749315
 21
156.051028
 31
0.0
  0
ELLIPSE
  5
B8D
330
A
100
AcDbEntity
  8
Hawa6
 62
     3
100
AcDbEllipse
 10
126.749322
 20
156.356784
 30
0.0
 11
1.000008344650268
 21
0.0000021872126581
 31
0.0
210
0.0
220
0.0
230
1.0
 40
0.30573
 41
3.141592502593993
 42
4.712379455566406
  0
LINE
  5
B8E
330
A
100
AcDbEntity
  8
Hawa6
 62
     3
 48
0.185776
100
AcDbLine
 10
125.749315
 20
156.356784
 30
0.0
 11
125.749315
 21
163.787814
 31
0.0
  0
ELLIPSE
  5
B8F
330
A
100
AcDbEntity
  8
Hawa6
 62
     3
100
AcDbEllipse
 10
121.74904
 20
163.787783
 30
0.0
 11
4.000273704528809
 21
0.0000164791381394
 31
0.0
210
0.0
220
0.0
230
1.0
 40
0.30572
 41
6.283183574676513
 42
7.068553924560547
  0
LINE
  5
B90
330
A
100
AcDbEntity
  8
Hawa6
 62
     3
 48
0.215038
100
AcDbLine
 10
124.577741
 20
164.65256
 30
0.0
 11
124.577741
 21
156.051028
 31
0.0
  0
LWPOLYLINE
  5
B91
330
A
100
AcDbEntity
  8
Hawa6
 62
     3
100
AcDbPolyline
 90
        5
 70
     0
 43
0.0
 10
122.749315
 20
162.706546
 10
122.963476
 20
162.733218
 10
123.14298
 20
162.645785
 10
123.239652
 20
162.457034
 10
123.249315
 20
162.356448
  0
LINE
  5
B92
330
A
100
AcDbEntity
  8
Hawa6
 62
     3
 48
0.017635
100
AcDbLine
 10
123.249315
 20
161.651034
 30
0.0
 11
123.249315
 21
162.356448
 31
0.0
  0
LINE
  5
B93
330
A
100
AcDbEntity
  8
Hawa6
 62
     3
 48
0.1275
100
AcDbLine
 10
123.249315
 20
156.551028
 30
0.0
 11
123.249315
 21
161.651034
 31
0.0
  0
ARC
  5
B94
330
A
100
AcDbEntity
  8
Hawa6
 62
     3
100
AcDbCircle
 10
122.749315
 20
156.551028
 30
0.0
 40
0.5
100
AcDbArc
 50
269.9999970000007
 51
0.0
  0
LINE
  5
B95
330
A
100
AcDbEntity
  8
Hawa6
 62
     3
 48
0.123612
100
AcDbLine
 10
124.577741
 20
164.65256
 30
0.0
 11
119.849317
 21
166.098178
 31
0.0
  0
LINE
  5
B96
330
A
100
AcDbEntity
  8
Hawa6
 62
     3
 48
0.111179
100
AcDbLine
 10
119.849317
 20
166.098178
 30
0.0
 11
119.849317
 21
161.651034
 31
0.0
  0
LINE
  5
B97
330
A
100
AcDbEntity
  8
Hawa6
 62
     3
 48
0.077153
100
AcDbLine
 10
122.749315
 20
162.706546
 30
0.0
 11
119.849317
 21
161.651034
 31
0.0
  0
LINE
  5
B98
330
A
100
AcDbEntity
  8
Hawa6
 62
     3
 48
0.35
100
AcDbLine
 10
109.249299
 20
157.051028
 30
0.0
 11
123.249299
 21
157.051028
 31
0.0
  0
ARC
  5
B99
330
A
100
AcDbEntity
  8
Hawa6
 62
     3
100
AcDbCircle
 10
109.749315
 20
156.551028
 30
0.0
 40
0.5
100
AcDbArc
 50
180.0000049783131
 51
270.0000010000014
  0
LWPOLYLINE
  5
B9A
330
A
100
AcDbEntity
  8
Hawa6
 62
     3
100
AcDbPolyline
 90
        5
 70
     0
 43
0.0
 10
109.749315
 20
162.706546
 10
109.535154
 20
162.733218
 10
109.355649
 20
162.645785
 10
109.258977
 20
162.457034
 10
109.249315
 20
162.356448
  0
LINE
  5
B9B
330
A
100
AcDbEntity
  8
Hawa6
 62
     3
 48
0.077153
100
AcDbLine
 10
109.749315
 20
162.706546
 30
0.0
 11
112.649316
 21
161.651034
 31
0.0
  0
LINE
  5
B9C
330
A
100
AcDbEntity
  8
Hawa6
 62
     3
 48
0.111179
100
AcDbLine
 10
112.649316
 20
166.098178
 30
0.0
 11
112.649316
 21
161.651034
 31
0.0
  0
LINE
  5
B9D
330
A
100
AcDbEntity
  8
Hawa6
 62
     3
 48
0.123612
100
AcDbLine
 10
112.649316
 20
166.098178
 30
0.0
 11
107.920892
 21
164.65256
 31
0.0
  0
LINE
  5
B9E
330
A
100
AcDbEntity
  8
Hawa6
 62
     3
 48
0.215038
100
AcDbLine
 10
107.920892
 20
164.65256
 30
0.0
 11
107.920892
 21
156.051028
 31
0.0
  0
LINE
  5
B9F
330
A
100
AcDbEntity
  8
Hawa6
 62
     3
 48
0.1275
100
AcDbLine
 10
109.249315
 20
156.551028
 30
0.0
 11
109.249315
 21
161.651034
 31
0.0
  0
LINE
  5
BA0
330
A
100
AcDbEntity
  8
Hawa6
 62
     3
 48
0.017635
100
AcDbLine
 10
109.249315
 20
161.651034
 30
0.0
 11
109.249315
 21
162.356448
 31
0.0
  0
ELLIPSE
  5
BA1
330
A
100
AcDbEntity
  8
Hawa6
 62
     3
100
AcDbEllipse
 10
110.749589
 20
163.787783
 30
0.0
 11
4.000273704528809
 21
-0.000016467882233
 31
0.0
210
0.0
220
0.0
230
1.0
 40
0.3057199999999999
 41
2.356224298477173
 42
3.141594648361206
  0
LINE
  5
BA2
330
A
100
AcDbEntity
  8
Hawa6
 62
     3
 48
0.007644
100
AcDbLine
 10
106.749315
 20
156.356784
 30
0.0
 11
106.749315
 21
156.051028
 31
0.0
  0
LINE
  5
BA3
330
A
100
AcDbEntity
  8
Hawa6
 62
     3
 48
0.185776
100
AcDbLine
 10
106.749315
 20
163.787814
 30
0.0
 11
106.749315
 21
156.356784
 31
0.0
  0
ELLIPSE
  5
BA4
330
A
100
AcDbEntity
  8
Hawa6
 62
     3
100
AcDbEllipse
 10
105.749307
 20
156.356784
 30
0.0
 11
1.000008344650268
 21
-0.0000022093586267
 31
0.0
210
0.0
220
0.0
230
1.0
 40
0.30573
 41
4.712398052215576
 42
6.283185482025146
  0
LINE
  5
BA5
330
A
100
AcDbEntity
  8
Hawa6
 62
     3
100
AcDbLine
 10
128.749315
 20
156.051028
 30
0.0
 11
103.749315
 21
156.051028
 31
0.0
  0
LINE
  5
BA6
330
A
100
AcDbEntity
  8
Hawa6
 62
     3
 48
0.0725
100
AcDbLine
 10
119.849317
 20
161.651034
 30
0.0
 11
122.749315
 21
161.651034
 31
0.0
  0
LINE
  5
BA7
330
A
100
AcDbEntity
  8
Hawa6
 62
     3
 48
0.0025
100
AcDbLine
 10
109.249299
 20
160.651034
 30
0.0
 11
109.349309
 21
160.651034
 31
0.0
  0
LINE
  5
BA8
330
A
100
AcDbEntity
  8
Hawa6
 62
     3
 48
0.0025
100
AcDbLine
 10
123.149309
 20
160.651034
 30
0.0
 11
123.249299
 21
160.651034
 31
0.0
  0
LINE
  5
BA9
330
A
100
AcDbEntity
  8
Hawa6
 62
     3
 48
0.0725
100
AcDbLine
 10
112.649316
 20
161.651034
 30
0.0
 11
109.749315
 21
161.651034
 31
0.0
  0
LINE
  5
BAA
330
A
100
AcDbEntity
  8
Hawa6
 62
     3
 48
0.003822
100
AcDbLine
 10
119.849317
 20
166.25104
 30
0.0
 11
119.849317
 21
166.098178
 31
0.0
  0
ARC
  5
BAB
330
A
100
AcDbEntity
  8
Hawa6
 62
     3
100
AcDbCircle
 10
122.749315
 20
161.151034
 30
0.0
 40
0.5
100
AcDbArc
 50
0.0
 51
90.0000029999993
  0
LINE
  5
BAC
330
A
100
AcDbEntity
  8
Hawa6
 62
     3
 48
0.026388
100
AcDbLine
 10
122.749315
 20
162.706546
 30
0.0
 11
122.749315
 21
161.651034
 31
0.0
  0
LINE
  5
BAD
330
A
100
AcDbEntity
  8
Hawa6
 62
     3
 48
0.026388
100
AcDbLine
 10
109.749315
 20
162.706546
 30
0.0
 11
109.749315
 21
161.651034
 31
0.0
  0
ARC
  5
BAE
330
A
100
AcDbEntity
  8
Hawa6
 62
     3
100
AcDbCircle
 10
109.749315
 20
161.151034
 30
0.0
 40
0.5
100
AcDbArc
 50
90.0000029999993
 51
180.0000049783131
  0
LINE
  5
BAF
330
A
100
AcDbEntity
  8
Hawa6
 62
     3
 48
0.003822
100
AcDbLine
 10
112.649316
 20
166.25104
 30
0.0
 11
112.649316
 21
166.098178
 31
0.0
  0
LINE
  5
BB0
330
A
100
AcDbEntity
  8
Hawa6
 62
     3
 48
0.0025
100
AcDbLine
 10
119.849305
 20
166.25104
 30
0.0
 11
119.749315
 21
166.25104
 31
0.0
  0
LINE
  5
BB1
330
A
100
AcDbEntity
  8
Hawa6
 62
     3
 48
0.0025
100
AcDbLine
 10
112.749315
 20
166.25104
 30
0.0
 11
112.649312
 21
166.25104
 31
0.0
  0
LINE
  5
BB2
330
A
100
AcDbEntity
  8
Hawa6
 62
     3
 48
0.21
100
AcDbLine
 10
112.649316
 20
166.25104
 30
0.0
 11
104.249315
 21
166.25104
 31
0.0
  0
LINE
  5
BB3
330
A
100
AcDbEntity
  8
Hawa6
 62
     3
 48
0.255
100
AcDbLine
 10
104.249315
 20
156.051028
 30
0.0
 11
104.249315
 21
166.25104
 31
0.0
  0
ARC
  5
BB4
330
A
100
AcDbEntity
  8
Hawa6
 62
     3
100
AcDbCircle
 10
104.249315
 20
165.75104
 30
0.0
 40
0.5
100
AcDbArc
 50
90.0000029999993
 51
180.0000049783131
  0
LINE
  5
BB5
330
A
100
AcDbEntity
  8
Hawa6
 62
     3
 48
0.2425
100
AcDbLine
 10
103.749315
 20
156.051028
 30
0.0
 11
103.749315
 21
165.75104
 31
0.0
  0
LINE
  5
BB6
330
A
100
AcDbEntity
  8
Hawa6
 62
     3
 48
0.21
100
AcDbLine
 10
128.249315
 20
166.25104
 30
0.0
 11
119.849317
 21
166.25104
 31
0.0
  0
LINE
  5
BB7
330
A
100
AcDbEntity
  8
Hawa6
 62
     3
 48
0.255
100
AcDbLine
 10
128.249315
 20
156.051028
 30
0.0
 11
128.249315
 21
166.25104
 31
0.0
  0
ARC
  5
BB8
330
A
100
AcDbEntity
  8
Hawa6
 62
     3
100
AcDbCircle
 10
128.249315
 20
165.75104
 30
0.0
 40
0.5
100
AcDbArc
 50
0.0
 51
90.00000300000095
  0
LINE
  5
BB9
330
A
100
AcDbEntity
  8
Hawa6
 62
     3
 48
0.001171
100
AcDbLine
 10
128.749315
 20
154.471743
 30
0.0
 11
128.749315
 21
154.518588
 31
0.0
  0
LINE
  5
BBA
330
A
100
AcDbEntity
  8
Hawa6
 62
     3
 48
0.00099
100
AcDbLine
 10
128.749315
 20
154.518588
 30
0.0
 11
128.749315
 21
154.5582
 31
0.0
  0
LINE
  5
BBB
330
A
100
AcDbEntity
  8
Hawa6
 62
     3
 48
0.00009
100
AcDbLine
 10
128.749315
 20
154.447848
 30
0.0
 11
128.749315
 21
154.451449
 31
0.0
  0
LINE
  5
BBC
330
A
100
AcDbEntity
  8
Hawa6
 62
     3
 48
0.04755
100
AcDbLine
 10
128.749315
 20
154.5582
 30
0.0
 11
128.749315
 21
156.460208
 31
0.0
  0
LINE
  5
BBD
330
A
100
AcDbEntity
  8
Hawa6
 62
     3
 48
0.00045
100
AcDbLine
 10
128.749315
 20
158.770632
 30
0.0
 11
128.749315
 21
158.788638
 31
0.0
  0
LINE
  5
BBE
330
A
100
AcDbEntity
  8
Hawa6
 62
     3
 48
0.001441
100
AcDbLine
 10
128.749315
 20
158.788638
 30
0.0
 11
128.749315
 21
158.846286
 31
0.0
  0
LINE
  5
BBF
330
A
100
AcDbEntity
  8
Hawa6
 62
     3
 48
0.002522
100
AcDbLine
 10
128.749315
 20
158.846286
 30
0.0
 11
128.749315
 21
158.947146
 31
0.0
  0
LINE
  5
BC0
330
A
100
AcDbEntity
  8
Hawa6
 62
     3
 48
0.003512
100
AcDbLine
 10
128.749315
 20
158.947146
 30
0.0
 11
128.749315
 21
159.087619
 31
0.0
  0
LINE
  5
BC1
330
A
100
AcDbEntity
  8
Hawa6
 62
     3
 48
0.003152
100
AcDbLine
 10
128.749315
 20
159.087619
 30
0.0
 11
128.749315
 21
159.213717
 31
0.0
  0
LINE
  5
BC2
330
A
100
AcDbEntity
  8
Hawa6
 62
     3
 48
0.002251
100
AcDbLine
 10
128.749315
 20
159.213717
 30
0.0
 11
128.749315
 21
159.303775
 31
0.0
  0
LINE
  5
BC3
330
A
100
AcDbEntity
  8
Hawa6
 62
     3
 48
0.002522
100
AcDbLine
 10
128.749315
 20
159.303775
 30
0.0
 11
128.749315
 21
159.404635
 31
0.0
  0
LINE
  5
BC4
330
A
100
AcDbEntity
  8
Hawa6
 62
     3
 48
0.00108
100
AcDbLine
 10
128.749315
 20
159.404635
 30
0.0
 11
128.749315
 21
159.447848
 31
0.0
  0
LINE
  5
BC5
330
A
100
AcDbEntity
  8
Hawa6
 62
     3
 48
0.002161
100
AcDbLine
 10
128.749315
 20
159.447848
 30
0.0
 11
128.749315
 21
159.534304
 31
0.0
  0
LINE
  5
BC6
330
A
100
AcDbEntity
  8
Hawa6
 62
     3
 48
0.000451
100
AcDbLine
 10
128.749315
 20
154.451449
 30
0.0
 11
128.749315
 21
154.469485
 31
0.0
  0
ARC
  5
BC7
330
A
100
AcDbEntity
  8
Hawa6
 62
     3
100
AcDbCircle
 10
115.872213
 20
166.550936
 30
0.0
 40
0.149922
100
AcDbArc
 50
270.1003329999988
 51
0.0413210000012958
  0
ARC
  5
BC8
330
A
100
AcDbEntity
  8
Hawa6
 62
     3
100
AcDbCircle
 10
116.62642
 20
166.550936
 30
0.0
 40
0.149924
100
AcDbArc
 50
179.9594339999877
 51
269.8821119999993
  0
LINE
  5
BC9
330
A
100
AcDbEntity
  8
Hawa6
 62
     3
 48
0.492865
100
AcDbLine
 10
126.749315
 20
166.551028
 30
0.0
 11
107.0347
 21
166.551028
 31
0.0
  0
LINE
  5
BCA
330
A
100
AcDbEntity
  8
Hawa6
 62
     3
 48
0.032135
100
AcDbLine
 10
107.0347
 20
166.551028
 30
0.0
 11
105.749315
 21
166.551028
 31
0.0
  0
LINE
  5
BCB
330
A
100
AcDbEntity
  8
Hawa6
 62
     3
 48
0.00375
100
AcDbLine
 10
105.799318
 20
166.551028
 30
0.0
 11
105.799318
 21
166.401034
 31
0.0
  0
ELLIPSE
  5
BCC
330
A
100
AcDbEntity
  8
Hawa6
 62
     3
100
AcDbEllipse
 10
105.839082
 20
166.551028
 30
0.0
 11
-0.000000006556709
 21
0.1500000059604645
 31
0.0
210
0.0
220
0.0
230
0.9999999999999998
 40
0.087156
 41
1.570796370506286
 42
3.141592741012573
  0
ELLIPSE
  5
BCD
330
A
100
AcDbEntity
  8
Hawa6
 62
     3
100
AcDbEllipse
 10
105.839082
 20
166.551028
 30
0.0
 11
-0.000000006556709
 21
0.1500000059604645
 31
0.0
210
0.0
220
0.0
230
0.9999999999999998
 40
0.087156
 41
3.141592741012573
 42
4.71238899230957
  0
ELLIPSE
  5
BCE
330
A
100
AcDbEntity
  8
Hawa6
 62
     3
100
AcDbEllipse
 10
105.958078
 20
166.551028
 30
0.0
 11
-0.000000006556709
 21
0.1500000059604645
 31
0.0
210
0.0
220
0.0
230
0.9999999999999998
 40
0.173648
 41
1.570796370506286
 42
3.141592741012573
  0
ELLIPSE
  5
BCF
330
A
100
AcDbEntity
  8
Hawa6
 62
     3
100
AcDbEllipse
 10
105.958078
 20
166.551028
 30
0.0
 11
-0.000000006556709
 21
0.1500000059604645
 31
0.0
210
0.0
220
0.0
230
0.9999999999999998
 40
0.173648
 41
3.141592741012573
 42
4.71238899230957
  0
ELLIPSE
  5
BD0
330
A
100
AcDbEntity
  8
Hawa6
 62
     3
100
AcDbEllipse
 10
106.155389
 20
166.551028
 30
0.0
 11
-0.000000006556709
 21
0.1500000059604645
 31
0.0
210
0.0
220
0.0
230
0.9999999999999998
 40
0.258819
 41
1.570796370506286
 42
3.141592741012573
  0
ELLIPSE
  5
BD1
330
A
100
AcDbEntity
  8
Hawa6
 62
     3
100
AcDbEllipse
 10
106.155389
 20
166.551028
 30
0.0
 11
-0.000000006556709
 21
0.1500000059604645
 31
0.0
210
0.0
220
0.0
230
0.9999999999999998
 40
0.258819
 41
3.141592741012573
 42
4.71238899230957
  0
ELLIPSE
  5
BD2
330
A
100
AcDbEntity
  8
Hawa6
 62
     3
100
AcDbEllipse
 10
106.429529
 20
166.551028
 30
0.0
 11
-0.000000006556709
 21
0.1500000059604645
 31
0.0
210
0.0
220
0.0
230
0.9999999999999998
 40
0.34202
 41
1.570796370506286
 42
3.141592741012573
  0
ELLIPSE
  5
BD3
330
A
100
AcDbEntity
  8
Hawa6
 62
     3
100
AcDbEllipse
 10
106.429529
 20
166.551028
 30
0.0
 11
-0.000000006556709
 21
0.1500000059604645
 31
0.0
210
0.0
220
0.0
230
0.9999999999999998
 40
0.34202
 41
3.141592741012573
 42
4.71238899230957
  0
ELLIPSE
  5
BD4
330
A
100
AcDbEntity
  8
Hawa6
 62
     3
100
AcDbEllipse
 10
106.778398
 20
166.551028
 30
0.0
 11
-0.000000006556709
 21
0.1500000059604645
 31
0.0
210
0.0
220
0.0
230
0.9999999999999998
 40
0.4226179999999999
 41
1.570796370506286
 42
3.141592741012573
  0
ELLIPSE
  5
BD5
330
A
100
AcDbEntity
  8
Hawa6
 62
     3
100
AcDbEllipse
 10
106.778398
 20
166.551028
 30
0.0
 11
-0.000000006556709
 21
0.1500000059604645
 31
0.0
210
0.0
220
0.0
230
0.9999999999999998
 40
0.4226179999999999
 41
3.141592741012573
 42
4.71238899230957
  0
ELLIPSE
  5
BD6
330
A
100
AcDbEntity
  8
Hawa6
 62
     3
100
AcDbEllipse
 10
107.19935
 20
166.551028
 30
0.0
 11
-0.000000006556709
 21
0.1500000059604645
 31
0.0
210
0.0
220
0.0
230
0.9999999999999998
 40
0.5
 41
1.570796370506286
 42
3.141592741012573
  0
ELLIPSE
  5
BD7
330
A
100
AcDbEntity
  8
Hawa6
 62
     3
100
AcDbEllipse
 10
107.19935
 20
166.551028
 30
0.0
 11
-0.000000006556709
 21
0.1500000059604645
 31
0.0
210
0.0
220
0.0
230
0.9999999999999998
 40
0.5
 41
3.141592741012573
 42
4.71238899230957
  0
ELLIPSE
  5
BD8
330
A
100
AcDbEntity
  8
Hawa6
 62
     3
100
AcDbEllipse
 10
107.68918
 20
166.551028
 30
0.0
 11
-0.000000006556709
 21
0.1500000059604645
 31
0.0
210
0.0
220
0.0
230
0.9999999999999998
 40
0.573576
 41
1.570796370506286
 42
3.141592741012573
  0
ELLIPSE
  5
BD9
330
A
100
AcDbEntity
  8
Hawa6
 62
     3
100
AcDbEllipse
 10
107.68918
 20
166.551028
 30
0.0
 11
-0.000000006556709
 21
0.1500000059604645
 31
0.0
210
0.0
220
0.0
230
0.9999999999999998
 40
0.573576
 41
3.141592741012573
 42
4.71238899230957
  0
ELLIPSE
  5
BDA
330
A
100
AcDbEntity
  8
Hawa6
 62
     3
100
AcDbEllipse
 10
108.24415
 20
166.551028
 30
0.0
 11
-0.000000006556709
 21
0.1500000059604645
 31
0.0
210
0.0
220
0.0
230
0.9999999999999998
 40
0.642788
 41
1.570796370506286
 42
3.141592741012573
  0
ELLIPSE
  5
BDB
330
A
100
AcDbEntity
  8
Hawa6
 62
     3
100
AcDbEllipse
 10
108.24415
 20
166.551028
 30
0.0
 11
-0.000000006556709
 21
0.1500000059604645
 31
0.0
210
0.0
220
0.0
230
0.9999999999999998
 40
0.642788
 41
3.141592741012573
 42
4.71238899230957
  0
ELLIPSE
  5
BDC
330
A
100
AcDbEntity
  8
Hawa6
 62
     3
100
AcDbEllipse
 10
108.860048
 20
166.551028
 30
0.0
 11
-0.000000006556709
 21
0.1500000059604645
 31
0.0
210
0.0
220
0.0
230
0.9999999999999998
 40
0.7071069999999999
 41
1.570796370506286
 42
3.141592741012573
  0
ELLIPSE
  5
BDD
330
A
100
AcDbEntity
  8
Hawa6
 62
     3
100
AcDbEllipse
 10
108.860048
 20
166.551028
 30
0.0
 11
-0.000000006556709
 21
0.1500000059604645
 31
0.0
210
0.0
220
0.0
230
0.9999999999999998
 40
0.7071069999999999
 41
3.141592741012573
 42
4.71238899230957
  0
ELLIPSE
  5
BDE
330
A
100
AcDbEntity
  8
Hawa6
 62
     3
100
AcDbEllipse
 10
109.532186
 20
166.551028
 30
0.0
 11
-0.000000006556709
 21
0.1500000059604645
 31
0.0
210
0.0
220
0.0
230
0.9999999999999998
 40
0.766044
 41
1.570796370506286
 42
3.141592741012573
  0
ELLIPSE
  5
BDF
330
A
100
AcDbEntity
  8
Hawa6
 62
     3
100
AcDbEllipse
 10
109.532186
 20
166.551028
 30
0.0
 11
-0.000000006556709
 21
0.1500000059604645
 31
0.0
210
0.0
220
0.0
230
0.9999999999999998
 40
0.766044
 41
3.141592741012573
 42
4.71238899230957
  0
ELLIPSE
  5
BE0
330
A
100
AcDbEntity
  8
Hawa6
 62
     3
100
AcDbEllipse
 10
110.255441
 20
166.551028
 30
0.0
 11
-0.000000006556709
 21
0.1500000059604645
 31
0.0
210
0.0
220
0.0
230
0.9999999999999998
 40
0.8191519999999998
 41
1.570796370506286
 42
3.141592741012573
  0
ELLIPSE
  5
BE1
330
A
100
AcDbEntity
  8
Hawa6
 62
     3
100
AcDbEllipse
 10
110.255441
 20
166.551028
 30
0.0
 11
-0.000000006556709
 21
0.1500000059604645
 31
0.0
210
0.0
220
0.0
230
0.9999999999999998
 40
0.8191519999999998
 41
3.141592741012573
 42
4.71238899230957
  0
ELLIPSE
  5
BE2
330
A
100
AcDbEntity
  8
Hawa6
 62
     3
100
AcDbEllipse
 10
111.024316
 20
166.551028
 30
0.0
 11
-0.000000006556709
 21
0.1500000059604645
 31
0.0
210
0.0
220
0.0
230
0.9999999999999998
 40
0.8660249999999999
 41
1.570796370506286
 42
3.141592741012573
  0
ELLIPSE
  5
BE3
330
A
100
AcDbEntity
  8
Hawa6
 62
     3
100
AcDbEllipse
 10
111.024316
 20
166.551028
 30
0.0
 11
-0.000000006556709
 21
0.1500000059604645
 31
0.0
210
0.0
220
0.0
230
0.9999999999999998
 40
0.8660249999999999
 41
3.141592741012573
 42
4.71238899230957
  0
ELLIPSE
  5
BE4
330
A
100
AcDbEntity
  8
Hawa6
 62
     3
100
AcDbEllipse
 10
111.832956
 20
166.551028
 30
0.0
 11
-0.000000006556709
 21
0.1500000059604645
 31
0.0
210
0.0
220
0.0
230
0.9999999999999998
 40
0.9063079999999999
 41
1.570796370506286
 42
3.141592741012573
  0
ELLIPSE
  5
BE5
330
A
100
AcDbEntity
  8
Hawa6
 62
     3
100
AcDbEllipse
 10
111.832956
 20
166.551028
 30
0.0
 11
-0.000000006556709
 21
0.1500000059604645
 31
0.0
210
0.0
220
0.0
230
0.9999999999999998
 40
0.9063079999999999
 41
3.141592741012573
 42
4.71238899230957
  0
ELLIPSE
  5
BE6
330
A
100
AcDbEntity
  8
Hawa6
 62
     3
100
AcDbEllipse
 10
112.675207
 20
166.551028
 30
0.0
 11
-0.000000006556709
 21
0.1500000059604645
 31
0.0
210
0.0
220
0.0
230
0.9999999999999998
 40
0.9396929999999999
 41
1.570796370506286
 42
3.141592741012573
  0
ELLIPSE
  5
BE7
330
A
100
AcDbEntity
  8
Hawa6
 62
     3
100
AcDbEllipse
 10
112.675207
 20
166.551028
 30
0.0
 11
-0.000000006556709
 21
0.1500000059604645
 31
0.0
210
0.0
220
0.0
230
0.9999999999999998
 40
0.9396929999999999
 41
3.141592741012573
 42
4.71238899230957
  0
ELLIPSE
  5
BE8
330
A
100
AcDbEntity
  8
Hawa6
 62
     3
100
AcDbEllipse
 10
113.544656
 20
166.551028
 30
0.0
 11
-0.000000006556709
 21
0.1500000059604645
 31
0.0
210
0.0
220
0.0
230
0.9999999999999998
 40
0.9659260000000001
 41
1.570796370506286
 42
3.141592741012573
  0
ELLIPSE
  5
BE9
330
A
100
AcDbEntity
  8
Hawa6
 62
     3
100
AcDbEllipse
 10
113.544656
 20
166.551028
 30
0.0
 11
-0.000000006556709
 21
0.1500000059604645
 31
0.0
210
0.0
220
0.0
230
0.9999999999999998
 40
0.9659260000000001
 41
3.141592741012573
 42
4.71238899230957
  0
ELLIPSE
  5
BEA
330
A
100
AcDbEntity
  8
Hawa6
 62
     3
100
AcDbEllipse
 10
114.434694
 20
166.551028
 30
0.0
 11
-0.000000006556709
 21
0.1500000059604645
 31
0.0
210
0.0
220
0.0
230
0.9999999999999998
 40
0.9848079999999999
 41
1.570796370506286
 42
3.141592741012573
  0
ELLIPSE
  5
BEB
330
A
100
AcDbEntity
  8
Hawa6
 62
     3
100
AcDbEllipse
 10
114.434694
 20
166.551028
 30
0.0
 11
-0.000000006556709
 21
0.1500000059604645
 31
0.0
210
0.0
220
0.0
230
0.9999999999999998
 40
0.9848079999999999
 41
3.141592741012573
 42
4.71238899230957
  0
ELLIPSE
  5
BEC
330
A
100
AcDbEntity
  8
Hawa6
 62
     3
100
AcDbEllipse
 10
115.338537
 20
166.551028
 30
0.0
 11
-0.000000006556709
 21
0.1500000059604645
 31
0.0
210
0.0
220
0.0
230
0.9999999999999998
 40
0.9961949999999999
 41
1.570796370506286
 42
3.141592741012573
  0
ELLIPSE
  5
BED
330
A
100
AcDbEntity
  8
Hawa6
 62
     3
100
AcDbEllipse
 10
115.338537
 20
166.551028
 30
0.0
 11
-0.000000006556709
 21
0.1500000059604645
 31
0.0
210
0.0
220
0.0
230
0.9999999999999998
 40
0.9961949999999999
 41
3.141592741012573
 42
4.71238899230957
  0
ARC
  5
BEE
330
A
100
AcDbEntity
  8
Hawa6
 62
     3
100
AcDbCircle
 10
116.249315
 20
166.551028
 30
0.0
 40
0.15
100
AcDbArc
 50
180.0000049045562
 51
0.0000099931643211
  0
ELLIPSE
  5
BEF
330
A
100
AcDbEntity
  8
Hawa6
 62
     3
100
AcDbEllipse
 10
117.160093
 20
166.551028
 30
0.0
 11
0.0000000017887322
 21
-0.1500000059604645
 31
0.0
210
0.0
220
0.0
230
1.0
 40
0.9961949999999999
 41
4.71238899230957
 42
6.283185482025146
  0
ELLIPSE
  5
BF0
330
A
100
AcDbEntity
  8
Hawa6
 62
     3
100
AcDbEllipse
 10
117.160093
 20
166.551028
 30
0.0
 11
0.0000000017887322
 21
-0.1500000059604645
 31
0.0
210
0.0
220
0.0
230
1.0
 40
0.9961949999999999
 41
0.0
 42
1.570796370506286
  0
ELLIPSE
  5
BF1
330
A
100
AcDbEntity
  8
Hawa6
 62
     3
100
AcDbEllipse
 10
118.063939
 20
166.551028
 30
0.0
 11
0.0000000017887322
 21
-0.1500000059604645
 31
0.0
210
0.0
220
0.0
230
1.0
 40
0.9848079999999999
 41
4.71238899230957
 42
6.283185482025146
  0
ELLIPSE
  5
BF2
330
A
100
AcDbEntity
  8
Hawa6
 62
     3
100
AcDbEllipse
 10
118.063939
 20
166.551028
 30
0.0
 11
0.0000000017887322
 21
-0.1500000059604645
 31
0.0
210
0.0
220
0.0
230
1.0
 40
0.9848079999999999
 41
0.0
 42
1.570796370506286
  0
ELLIPSE
  5
BF3
330
A
100
AcDbEntity
  8
Hawa6
 62
     3
100
AcDbEllipse
 10
118.953973
 20
166.551028
 30
0.0
 11
0.0000000017887322
 21
-0.1500000059604645
 31
0.0
210
0.0
220
0.0
230
1.0
 40
0.9659259999999999
 41
4.71238899230957
 42
6.283185482025146
  0
ELLIPSE
  5
BF4
330
A
100
AcDbEntity
  8
Hawa6
 62
     3
100
AcDbEllipse
 10
118.953973
 20
166.551028
 30
0.0
 11
0.0000000017887322
 21
-0.1500000059604645
 31
0.0
210
0.0
220
0.0
230
1.0
 40
0.9659259999999999
 41
0.0
 42
1.570796370506286
  0
ELLIPSE
  5
BF5
330
A
100
AcDbEntity
  8
Hawa6
 62
     3
100
AcDbEllipse
 10
119.823427
 20
166.551028
 30
0.0
 11
0.0000000017887322
 21
-0.1500000059604645
 31
0.0
210
0.0
220
0.0
230
1.0
 40
0.9396929999999999
 41
4.71238899230957
 42
6.283185482025146
  0
ELLIPSE
  5
BF6
330
A
100
AcDbEntity
  8
Hawa6
 62
     3
100
AcDbEllipse
 10
119.823427
 20
166.551028
 30
0.0
 11
0.0000000017887322
 21
-0.1500000059604645
 31
0.0
210
0.0
220
0.0
230
1.0
 40
0.9396929999999999
 41
0.0
 42
1.570796370506286
  0
ELLIPSE
  5
BF7
330
A
100
AcDbEntity
  8
Hawa6
 62
     3
100
AcDbEllipse
 10
120.665677
 20
166.551028
 30
0.0
 11
0.0000000017887322
 21
-0.1500000059604645
 31
0.0
210
0.0
220
0.0
230
1.0
 40
0.9063079999999999
 41
4.71238899230957
 42
6.283185482025146
  0
ELLIPSE
  5
BF8
330
A
100
AcDbEntity
  8
Hawa6
 62
     3
100
AcDbEllipse
 10
120.665677
 20
166.551028
 30
0.0
 11
0.0000000017887322
 21
-0.1500000059604645
 31
0.0
210
0.0
220
0.0
230
1.0
 40
0.9063079999999999
 41
0.0
 42
1.570796370506286
  0
ELLIPSE
  5
BF9
330
A
100
AcDbEntity
  8
Hawa6
 62
     3
100
AcDbEllipse
 10
121.474317
 20
166.551028
 30
0.0
 11
0.0000000017887322
 21
-0.1500000059604645
 31
0.0
210
0.0
220
0.0
230
1.0
 40
0.8660250000000001
 41
4.71238899230957
 42
6.283185482025146
  0
ELLIPSE
  5
BFA
330
A
100
AcDbEntity
  8
Hawa6
 62
     3
100
AcDbEllipse
 10
121.474317
 20
166.551028
 30
0.0
 11
0.0000000017887322
 21
-0.1500000059604645
 31
0.0
210
0.0
220
0.0
230
1.0
 40
0.8660250000000001
 41
0.0
 42
1.570796370506286
  0
LINE
  5
BFB
330
A
100
AcDbEntity
  8
Hawa6
 62
     3
 48
0.268525
100
AcDbLine
 10
119.730066
 20
175.051028
 30
0.0
 11
108.989061
 21
175.051028
 31
0.0
  0
LINE
  5
BFC
330
A
100
AcDbEntity
  8
Hawa6
 62
     3
 48
0.094488
100
AcDbLine
 10
123.509569
 20
175.051028
 30
0.0
 11
119.730066
 21
175.051028
 31
0.0
  0
LINE
  5
BFD
330
A
100
AcDbEntity
  8
Hawa6
 62
     3
 48
0.492865
100
AcDbLine
 10
126.749315
 20
168.051028
 30
0.0
 11
107.0347
 21
168.051028
 31
0.0
  0
LINE
  5
BFE
330
A
100
AcDbEntity
  8
Hawa6
 62
     3
 48
0.032135
100
AcDbLine
 10
107.0347
 20
168.051028
 30
0.0
 11
105.749315
 21
168.051028
 31
0.0
  0
LINE
  5
BFF
330
A
100
AcDbEntity
  8
Hawa6
 62
     3
 48
0.00375
100
AcDbLine
 10
126.699315
 20
166.401034
 30
0.0
 11
126.699315
 21
166.551028
 31
0.0
  0
ELLIPSE
  5
C00
330
A
100
AcDbEntity
  8
Hawa6
 62
     3
100
AcDbEllipse
 10
126.659551
 20
166.551028
 30
0.0
 11
0.0000000017887322
 21
-0.1500000059604645
 31
0.0
210
0.0
220
0.0
230
1.0
 40
0.087156
 41
4.71238899230957
 42
6.283185482025146
  0
ELLIPSE
  5
C01
330
A
100
AcDbEntity
  8
Hawa6
 62
     3
100
AcDbEllipse
 10
126.659551
 20
166.551028
 30
0.0
 11
0.0000000017887322
 21
-0.1500000059604645
 31
0.0
210
0.0
220
0.0
230
1.0
 40
0.087156
 41
0.0
 42
1.570796370506286
  0
ELLIPSE
  5
C02
330
A
100
AcDbEntity
  8
Hawa6
 62
     3
100
AcDbEllipse
 10
126.540555
 20
166.551028
 30
0.0
 11
0.0000000017887322
 21
-0.1500000059604645
 31
0.0
210
0.0
220
0.0
230
1.0
 40
0.173648
 41
4.71238899230957
 42
6.283185482025146
  0
ELLIPSE
  5
C03
330
A
100
AcDbEntity
  8
Hawa6
 62
     3
100
AcDbEllipse
 10
126.540555
 20
166.551028
 30
0.0
 11
0.0000000017887322
 21
-0.1500000059604645
 31
0.0
210
0.0
220
0.0
230
1.0
 40
0.173648
 41
0.0
 42
1.570796370506286
  0
ELLIPSE
  5
C04
330
A
100
AcDbEntity
  8
Hawa6
 62
     3
100
AcDbEllipse
 10
126.34324
 20
166.551028
 30
0.0
 11
0.0000000017887322
 21
-0.1500000059604645
 31
0.0
210
0.0
220
0.0
230
1.0
 40
0.258819
 41
4.71238899230957
 42
6.283185482025146
  0
ELLIPSE
  5
C05
330
A
100
AcDbEntity
  8
Hawa6
 62
     3
100
AcDbEllipse
 10
126.34324
 20
166.551028
 30
0.0
 11
0.0000000017887322
 21
-0.1500000059604645
 31
0.0
210
0.0
220
0.0
230
1.0
 40
0.258819
 41
0.0
 42
1.570796370506286
  0
ELLIPSE
  5
C06
330
A
100
AcDbEntity
  8
Hawa6
 62
     3
100
AcDbEllipse
 10
126.069105
 20
166.551028
 30
0.0
 11
0.0000000017887322
 21
-0.1500000059604645
 31
0.0
210
0.0
220
0.0
230
1.0
 40
0.34202
 41
4.71238899230957
 42
6.283185482025146
  0
ELLIPSE
  5
C07
330
A
100
AcDbEntity
  8
Hawa6
 62
     3
100
AcDbEllipse
 10
126.069105
 20
166.551028
 30
0.0
 11
0.0000000017887322
 21
-0.1500000059604645
 31
0.0
210
0.0
220
0.0
230
1.0
 40
0.34202
 41
0.0
 42
1.570796370506286
  0
ELLIPSE
  5
C08
330
A
100
AcDbEntity
  8
Hawa6
 62
     3
100
AcDbEllipse
 10
125.720231
 20
166.551028
 30
0.0
 11
0.0000000017887322
 21
-0.1500000059604645
 31
0.0
210
0.0
220
0.0
230
1.0
 40
0.4226180000000002
 41
4.71238899230957
 42
6.283185482025146
  0
ELLIPSE
  5
C09
330
A
100
AcDbEntity
  8
Hawa6
 62
     3
100
AcDbEllipse
 10
125.720231
 20
166.551028
 30
0.0
 11
0.0000000017887322
 21
-0.1500000059604645
 31
0.0
210
0.0
220
0.0
230
1.0
 40
0.4226180000000002
 41
0.0
 42
1.570796370506286
  0
ELLIPSE
  5
C0A
330
A
100
AcDbEntity
  8
Hawa6
 62
     3
100
AcDbEllipse
 10
125.29928
 20
166.551028
 30
0.0
 11
0.0000000017887322
 21
-0.1500000059604645
 31
0.0
210
0.0
220
0.0
230
1.0
 40
0.5
 41
4.71238899230957
 42
6.283185482025146
  0
ELLIPSE
  5
C0B
330
A
100
AcDbEntity
  8
Hawa6
 62
     3
100
AcDbEllipse
 10
125.29928
 20
166.551028
 30
0.0
 11
0.0000000017887322
 21
-0.1500000059604645
 31
0.0
210
0.0
220
0.0
230
1.0
 40
0.5
 41
0.0
 42
1.570796370506286
  0
ELLIPSE
  5
C0C
330
A
100
AcDbEntity
  8
Hawa6
 62
     3
100
AcDbEllipse
 10
124.809453
 20
166.551028
 30
0.0
 11
0.0000000017887322
 21
-0.1500000059604645
 31
0.0
210
0.0
220
0.0
230
1.0
 40
0.573576
 41
4.71238899230957
 42
6.283185482025146
  0
ELLIPSE
  5
C0D
330
A
100
AcDbEntity
  8
Hawa6
 62
     3
100
AcDbEllipse
 10
124.809453
 20
166.551028
 30
0.0
 11
0.0000000017887322
 21
-0.1500000059604645
 31
0.0
210
0.0
220
0.0
230
1.0
 40
0.573576
 41
0.0
 42
1.570796370506286
  0
ELLIPSE
  5
C0E
330
A
100
AcDbEntity
  8
Hawa6
 62
     3
100
AcDbEllipse
 10
124.25448
 20
166.551028
 30
0.0
 11
0.0000000017887322
 21
-0.1500000059604645
 31
0.0
210
0.0
220
0.0
230
1.0
 40
0.642788
 41
4.71238899230957
 42
6.283185482025146
  0
ELLIPSE
  5
C0F
330
A
100
AcDbEntity
  8
Hawa6
 62
     3
100
AcDbEllipse
 10
124.25448
 20
166.551028
 30
0.0
 11
0.0000000017887322
 21
-0.1500000059604645
 31
0.0
210
0.0
220
0.0
230
1.0
 40
0.642788
 41
0.0
 42
1.570796370506286
  0
ELLIPSE
  5
C10
330
A
100
AcDbEntity
  8
Hawa6
 62
     3
100
AcDbEllipse
 10
123.638582
 20
166.551028
 30
0.0
 11
0.0000000017887322
 21
-0.1500000059604645
 31
0.0
210
0.0
220
0.0
230
1.0
 40
0.7071069999999999
 41
4.71238899230957
 42
6.283185482025146
  0
ELLIPSE
  5
C11
330
A
100
AcDbEntity
  8
Hawa6
 62
     3
100
AcDbEllipse
 10
123.638582
 20
166.551028
 30
0.0
 11
0.0000000017887322
 21
-0.1500000059604645
 31
0.0
210
0.0
220
0.0
230
1.0
 40
0.7071069999999999
 41
0.0
 42
1.570796370506286
  0
ELLIPSE
  5
C12
330
A
100
AcDbEntity
  8
Hawa6
 62
     3
100
AcDbEllipse
 10
122.966447
 20
166.551028
 30
0.0
 11
0.0000000017887322
 21
-0.1500000059604645
 31
0.0
210
0.0
220
0.0
230
1.0
 40
0.766044
 41
4.71238899230957
 42
6.283185482025146
  0
ELLIPSE
  5
C13
330
A
100
AcDbEntity
  8
Hawa6
 62
     3
100
AcDbEllipse
 10
122.966447
 20
166.551028
 30
0.0
 11
0.0000000017887322
 21
-0.1500000059604645
 31
0.0
210
0.0
220
0.0
230
1.0
 40
0.766044
 41
0.0
 42
1.570796370506286
  0
ELLIPSE
  5
C14
330
A
100
AcDbEntity
  8
Hawa6
 62
     3
100
AcDbEllipse
 10
122.243188
 20
166.551028
 30
0.0
 11
0.0000000017887322
 21
-0.1500000059604645
 31
0.0
210
0.0
220
0.0
230
1.0
 40
0.819152
 41
4.71238899230957
 42
6.283185482025146
  0
ELLIPSE
  5
C15
330
A
100
AcDbEntity
  8
Hawa6
 62
     3
100
AcDbEllipse
 10
122.243188
 20
166.551028
 30
0.0
 11
0.0000000017887322
 21
-0.1500000059604645
 31
0.0
210
0.0
220
0.0
230
1.0
 40
0.819152
 41
0.0
 42
1.570796370506286
  0
LWPOLYLINE
  5
C16
330
A
100
AcDbEntity
  8
Hawa6
 62
     3
100
AcDbPolyline
 90
       11
 70
     0
 43
0.0
 10
116.249315
 20
170.13608
 10
115.350919
 20
170.667941
 10
114.53378
 20
171.043826
 10
113.770143
 20
171.289859
 10
113.038492
 20
171.421817
 10
112.320001
 20
171.447787
 10
111.597005
 20
171.369418
 10
110.851957
 20
171.181918
 10
110.064752
 20
170.873568
 10
109.210752
 20
170.423648
 10
108.749315
 20
170.13608
  0
LWPOLYLINE
  5
C17
330
A
100
AcDbEntity
  8
Hawa6
 62
     3
100
AcDbPolyline
 90
       11
 70
     0
 43
0.0
 10
116.249315
 20
170.13608
 10
117.14771
 20
170.667941
 10
117.964849
 20
171.043826
 10
118.728486
 20
171.289859
 10
119.460142
 20
171.421817
 10
120.178628
 20
171.447787
 10
120.901628
 20
171.369418
 10
121.646673
 20
171.181918
 10
122.433877
 20
170.873568
 10
123.287877
 20
170.423648
 10
123.749315
 20
170.13608
  0
LINE
  5
C18
330
A
100
AcDbEntity
  8
Hawa6
 62
     3
 48
0.087874
100
AcDbLine
 10
123.749315
 20
170.13608
 30
0.0
 11
123.749315
 21
173.651034
 31
0.0
  0
LINE
  5
C19
330
A
100
AcDbEntity
  8
Hawa6
 62
     3
 48
0.034483
100
AcDbLine
 10
123.749315
 20
173.651034
 30
0.0
 11
123.749315
 21
175.030368
 31
0.0
  0
LINE
  5
C1A
330
A
100
AcDbEntity
  8
Hawa6
 62
     3
 48
0.087874
100
AcDbLine
 10
116.249315
 20
170.13608
 30
0.0
 11
116.249315
 21
173.651034
 31
0.0
  0
LWPOLYLINE
  5
C1B
330
A
100
AcDbEntity
  8
Hawa6
 62
     3
100
AcDbPolyline
 90
        9
 70
     0
 43
0.0
 10
123.749315
 20
173.651034
 10
123.689046
 20
173.960299
 10
123.530397
 20
174.226168
 10
123.31207
 20
174.436465
 10
122.929651
 20
174.662753
 10
122.37877
 20
174.847384
 10
121.673417
 20
174.9643889999999
 10
120.687307
 20
175.022402
 10
119.84601
 20
175.030001
  0
LWPOLYLINE
  5
C1C
330
A
100
AcDbEntity
  8
Hawa6
 62
     3
100
AcDbPolyline
 90
        9
 70
     0
 43
0.0
 10
116.249315
 20
173.651034
 10
116.301645
 20
173.939578
 10
116.4414
 20
174.192019
 10
116.636983
 20
174.396426
 10
116.984651
 20
174.622378
 10
117.49159
 20
174.814059
 10
118.145639
 20
174.943026
 10
119.063466
 20
175.01462
 10
119.84601
 20
175.030001
  0
LINE
  5
C1D
330
A
100
AcDbEntity
  8
Hawa6
 62
     3
 48
0.087874
100
AcDbLine
 10
108.749315
 20
170.13608
 30
0.0
 11
108.749315
 21
173.651034
 31
0.0
  0
LWPOLYLINE
  5
C1E
330
A
100
AcDbEntity
  8
Hawa6
 62
     3
100
AcDbPolyline
 90
       16
 70
     0
 43
0.0
 10
108.749315
 20
173.651034
 10
108.820108
 20
173.9856899999999
 10
109.003099
 20
174.266909
 10
109.249906
 20
174.483065
 10
109.675119
 20
174.70801
 10
110.279626
 20
174.882693
 10
111.047609
 20
174.985049
 10
112.270532
 20
175.029544
 10
113.6438
 20
175.005221
 10
114.565267
 20
174.911166
 10
115.174314
 20
174.762789
 10
115.611707
 20
174.569796
 10
115.877408
 20
174.382907
 10
116.09778
 20
174.134555
 10
116.231
 20
173.822604
 10
116.249315
 20
173.651034
  0
LINE
  5
C1F
330
A
100
AcDbEntity
  8
Hawa6
 62
     3
 48
0.034483
100
AcDbLine
 10
108.749315
 20
173.651034
 30
0.0
 11
108.749315
 21
175.030368
 31
0.0
  0
LINE
  5
C20
330
A
100
AcDbEntity
  8
Hawa6
 62
     3
 48
0.000994
100
AcDbLine
 10
105.799318
 20
166.401034
 30
0.0
 11
105.839082
 21
166.401034
 31
0.0
  0
LINE
  5
C21
330
A
100
AcDbEntity
  8
Hawa6
 62
     3
 48
0.002974
100
AcDbLine
 10
105.95804
 20
166.401034
 30
0.0
 11
105.839082
 21
166.401034
 31
0.0
  0
LINE
  5
C22
330
A
100
AcDbEntity
  8
Hawa6
 62
     3
 48
0.004931
100
AcDbLine
 10
106.155305
 20
166.401034
 30
0.0
 11
105.958078
 21
166.401034
 31
0.0
  0
LINE
  5
C23
330
A
100
AcDbEntity
  8
Hawa6
 62
     3
 48
0.00685
100
AcDbLine
 10
106.429399
 20
166.401034
 30
0.0
 11
106.155389
 21
166.401034
 31
0.0
  0
LINE
  5
C24
330
A
100
AcDbEntity
  8
Hawa6
 62
     3
 48
0.008717
100
AcDbLine
 10
106.778222
 20
166.401034
 30
0.0
 11
106.429529
 21
166.401034
 31
0.0
  0
LINE
  5
C25
330
A
100
AcDbEntity
  8
Hawa6
 62
     3
 48
0.010518
100
AcDbLine
 10
107.199128
 20
166.401034
 30
0.0
 11
106.778398
 21
166.401034
 31
0.0
  0
LINE
  5
C26
330
A
100
AcDbEntity
  8
Hawa6
 62
     3
 48
0.012239
100
AcDbLine
 10
107.688913
 20
166.401034
 30
0.0
 11
107.19935
 21
166.401034
 31
0.0
  0
LINE
  5
C27
330
A
100
AcDbEntity
  8
Hawa6
 62
     3
 48
0.013867
100
AcDbLine
 10
108.243844
 20
166.401034
 30
0.0
 11
107.68918
 21
166.401034
 31
0.0
  0
LINE
  5
C28
330
A
100
AcDbEntity
  8
Hawa6
 62
     3
 48
0.015389
100
AcDbLine
 10
108.859697
 20
166.401034
 30
0.0
 11
108.24415
 21
166.401034
 31
0.0
  0
LINE
  5
C29
330
A
100
AcDbEntity
  8
Hawa6
 62
     3
 48
0.016793
100
AcDbLine
 10
109.531782
 20
166.401034
 30
0.0
 11
108.860048
 21
166.401034
 31
0.0
  0
LINE
  5
C2A
330
A
100
AcDbEntity
  8
Hawa6
 62
     3
 48
0.01807
100
AcDbLine
 10
110.254987
 20
166.401034
 30
0.0
 11
109.532186
 21
166.401034
 31
0.0
  0
LINE
  5
C2B
330
A
100
AcDbEntity
  8
Hawa6
 62
     3
 48
0.019209
100
AcDbLine
 10
111.023805
 20
166.401034
 30
0.0
 11
110.255441
 21
166.401034
 31
0.0
  0
LINE
  5
C2C
330
A
100
AcDbEntity
  8
Hawa6
 62
     3
 48
0.020202
100
AcDbLine
 10
111.832383
 20
166.401034
 30
0.0
 11
111.024316
 21
166.401034
 31
0.0
  0
LINE
  5
C2D
330
A
100
AcDbEntity
  8
Hawa6
 62
     3
 48
0.02104
100
AcDbLine
 10
112.674558
 20
166.401034
 30
0.0
 11
111.832956
 21
166.401034
 31
0.0
  0
LINE
  5
C2E
330
A
100
AcDbEntity
  8
Hawa6
 62
     3
 48
0.021718
100
AcDbLine
 10
113.543916
 20
166.401034
 30
0.0
 11
112.675207
 21
166.401034
 31
0.0
  0
LINE
  5
C2F
330
A
100
AcDbEntity
  8
Hawa6
 62
     3
 48
0.022229
100
AcDbLine
 10
114.433824
 20
166.401034
 30
0.0
 11
113.544656
 21
166.401034
 31
0.0
  0
LINE
  5
C30
330
A
100
AcDbEntity
  8
Hawa6
 62
     3
 48
0.022569
100
AcDbLine
 10
115.337465
 20
166.401034
 30
0.0
 11
114.434694
 21
166.401034
 31
0.0
  0
LINE
  5
C31
330
A
100
AcDbEntity
  8
Hawa6
 62
     3
 48
0.013348
100
AcDbLine
 10
115.872476
 20
166.401034
 30
0.0
 11
115.338537
 21
166.401034
 31
0.0
  0
LINE
  5
C32
330
A
100
AcDbEntity
  8
Hawa6
 62
     3
 48
0.01335
100
AcDbLine
 10
116.626111
 20
166.401034
 30
0.0
 11
117.160093
 21
166.401034
 31
0.0
  0
LINE
  5
C33
330
A
100
AcDbEntity
  8
Hawa6
 62
     3
 48
0.02257
100
AcDbLine
 10
117.161157
 20
166.401034
 30
0.0
 11
118.063939
 21
166.401034
 31
0.0
  0
LINE
  5
C34
330
A
100
AcDbEntity
  8
Hawa6
 62
     3
 48
0.039641
100
AcDbLine
 10
117.368341
 20
166.401034
 30
0.0
 11
118.953973
 21
166.401034
 31
0.0
  0
LINE
  5
C35
330
A
100
AcDbEntity
  8
Hawa6
 62
     3
 48
0.052385
100
AcDbLine
 10
117.728017
 20
166.401034
 30
0.0
 11
119.823427
 21
166.401034
 31
0.0
  0
LINE
  5
C36
330
A
100
AcDbEntity
  8
Hawa6
 62
     3
 48
0.06473
100
AcDbLine
 10
118.076486
 20
166.401034
 30
0.0
 11
120.665677
 21
166.401034
 31
0.0
  0
LINE
  5
C37
330
A
100
AcDbEntity
  8
Hawa6
 62
     3
 48
0.062982
100
AcDbLine
 10
118.955018
 20
166.401034
 30
0.0
 11
121.474317
 21
166.401034
 31
0.0
  0
LINE
  5
C38
330
A
100
AcDbEntity
  8
Hawa6
 62
     3
 48
0.0375
100
AcDbLine
 10
126.749315
 20
166.551028
 30
0.0
 11
126.749315
 21
168.051028
 31
0.0
  0
LINE
  5
C39
330
A
100
AcDbEntity
  8
Hawa6
 62
     3
 48
0.0375
100
AcDbLine
 10
105.749315
 20
166.551028
 30
0.0
 11
105.749315
 21
168.051028
 31
0.0
  0
LINE
  5
C3A
330
A
100
AcDbEntity
  8
Hawa6
 62
     3
 48
0.003969
100
AcDbLine
 10
126.540571
 20
166.401034
 30
0.0
 11
126.699315
 21
166.401034
 31
0.0
  0
LINE
  5
C3B
330
A
100
AcDbEntity
  8
Hawa6
 62
     3
 48
0.007907
100
AcDbLine
 10
126.343282
 20
166.401034
 30
0.0
 11
126.659551
 21
166.401034
 31
0.0
  0
LINE
  5
C3C
330
A
100
AcDbEntity
  8
Hawa6
 62
     3
 48
0.020503
100
AcDbLine
 10
125.720422
 20
166.401034
 30
0.0
 11
126.540555
 21
166.401034
 31
0.0
  0
LINE
  5
C3D
330
A
100
AcDbEntity
  8
Hawa6
 62
     3
 48
0.038334
100
AcDbLine
 10
124.809869
 20
166.401034
 30
0.0
 11
126.34324
 21
166.401034
 31
0.0
  0
LINE
  5
C3E
330
A
100
AcDbEntity
  8
Hawa6
 62
     3
 48
0.060747
100
AcDbLine
 10
123.63923
 20
166.401034
 30
0.0
 11
126.069105
 21
166.401034
 31
0.0
  0
LINE
  5
C3F
330
A
100
AcDbEntity
  8
Hawa6
 62
     3
 48
0.068826
100
AcDbLine
 10
122.967183
 20
166.401034
 30
0.0
 11
125.720231
 21
166.401034
 31
0.0
  0
LINE
  5
C40
330
A
100
AcDbEntity
  8
Hawa6
 62
     3
 48
0.0956
100
AcDbLine
 10
121.475282
 20
166.401034
 30
0.0
 11
125.29928
 21
166.401034
 31
0.0
  0
LINE
  5
C41
330
A
100
AcDbEntity
  8
Hawa6
 62
     3
 48
0.083356
100
AcDbLine
 10
121.475229
 20
166.401034
 30
0.0
 11
124.809453
 21
166.401034
 31
0.0
  0
LINE
  5
C42
330
A
100
AcDbEntity
  8
Hawa6
 62
     3
 48
0.089695
100
AcDbLine
 10
120.666673
 20
166.401034
 30
0.0
 11
124.25448
 21
166.401034
 31
0.0
  0
LINE
  5
C43
330
A
100
AcDbEntity
  8
Hawa6
 62
     3
 48
0.095352
100
AcDbLine
 10
119.82451
 20
166.401034
 30
0.0
 11
123.638582
 21
166.401034
 31
0.0
  0
LINE
  5
C44
330
A
100
AcDbEntity
  8
Hawa6
 62
     3
 48
0.07855
100
AcDbLine
 10
119.824449
 20
166.401034
 30
0.0
 11
122.966447
 21
166.401034
 31
0.0
  0
LINE
  5
C45
330
A
100
AcDbEntity
  8
Hawa6
 62
     3
 48
0.082202
100
AcDbLine
 10
118.955095
 20
166.401034
 30
0.0
 11
122.243188
 21
166.401034
 31
0.0
  0
LINE
  5
C46
330
A
100
AcDbEntity
  8
Hawa6
 62
     3
 48
0.113358
100
AcDbLine
 10
123.749315
 20
171.451052
 30
0.0
 11
126.749315
 21
168.051028
 31
0.0
  0
LINE
  5
C47
330
A
100
AcDbEntity
  8
Hawa6
 62
     3
 48
0.113358
100
AcDbLine
 10
108.749315
 20
171.451052
 30
0.0
 11
105.749315
 21
168.051028
 31
0.0
  0
ARC
  5
C48
330
A
100
AcDbEntity
  8
Hawa6
 62
     3
100
AcDbCircle
 10
108.989175
 20
173.650851
 30
0.0
 40
1.400187999999999
100
AcDbArc
 50
90.00455799999986
 51
99.86352599999987
  0
ARC
  5
C49
330
A
100
AcDbEntity
  8
Hawa6
 62
     3
100
AcDbCircle
 10
123.509458
 20
173.650851
 30
0.0
 40
1.400187999999999
100
AcDbArc
 50
80.13647199999963
 51
89.99544699999935
  0
LINE
  5
C4A
330
A
100
AcDbEntity
  8
Hawa4
 62
     4
 48
0.33375
100
AcDbLine
 10
113.599317
 20
221.25104
 30
0.0
 11
100.249315
 21
221.25104
 31
0.0
  0
LINE
  5
C4B
330
A
100
AcDbEntity
  8
Hawa4
 62
     4
 48
0.33375
100
AcDbLine
 10
132.249315
 20
221.25104
 30
0.0
 11
118.899316
 21
221.25104
 31
0.0
  0
ARC
  5
C4C
330
A
100
AcDbEntity
  8
Hawa4
 62
     4
100
AcDbCircle
 10
100.249315
 20
220.25104
 30
0.0
 40
1.0
100
AcDbArc
 50
90.00000300000014
 51
180.0000049783131
  0
LINE
  5
C4D
330
A
100
AcDbEntity
  8
Hawa4
 62
     4
 48
0.005093
100
AcDbLine
 10
113.745569
 20
221.25104
 30
0.0
 11
113.745569
 21
221.047305
 31
0.0
  0
LINE
  5
C4E
330
A
100
AcDbEntity
  8
Hawa4
 62
     4
 48
0.00875
100
AcDbLine
 10
113.599317
 20
220.901034
 30
0.0
 11
113.599317
 21
221.25104
 31
0.0
  0
LINE
  5
C4F
330
A
100
AcDbEntity
  8
Hawa4
 62
     4
 48
0.050683
100
AcDbLine
 10
113.756303
 20
218.351046
 30
0.0
 11
115.783632
 21
218.351046
 31
0.0
  0
LINE
  5
C50
330
A
100
AcDbEntity
  8
Hawa4
 62
     4
 48
0.067675
100
AcDbLine
 10
111.049314
 20
218.351046
 30
0.0
 11
113.756303
 21
218.351046
 31
0.0
  0
LINE
  5
C51
330
A
100
AcDbEntity
  8
Hawa4
 62
     4
 48
0.1725
100
AcDbLine
 10
111.049314
 20
218.351046
 30
0.0
 11
104.149316
 21
218.351046
 31
0.0
  0
LINE
  5
C52
330
A
100
AcDbEntity
  8
Hawa4
 62
     4
 48
0.005093
100
AcDbLine
 10
118.753061
 20
221.25104
 30
0.0
 11
118.753061
 21
221.047305
 31
0.0
  0
LINE
  5
C53
330
A
100
AcDbEntity
  8
Hawa4
 62
     4
 48
0.00875
100
AcDbLine
 10
118.899316
 20
220.901034
 30
0.0
 11
118.899316
 21
221.25104
 31
0.0
  0
ARC
  5
C54
330
A
100
AcDbEntity
  8
Hawa4
 62
     4
100
AcDbCircle
 10
132.249315
 20
220.25104
 30
0.0
 40
1.0
100
AcDbArc
 50
0.0
 51
90.0000029999993
  0
LINE
  5
C55
330
A
100
AcDbEntity
  8
Hawa4
 62
     4
 48
0.118358
100
AcDbLine
 10
116.715001
 20
218.351046
 30
0.0
 11
121.449315
 21
218.351046
 31
0.0
  0
LINE
  5
C56
330
A
100
AcDbEntity
  8
Hawa4
 62
     4
 48
0.1725
100
AcDbLine
 10
128.349317
 20
218.351046
 30
0.0
 11
121.449315
 21
218.351046
 31
0.0
  0
LINE
  5
C57
330
A
100
AcDbEntity
  8
Hawa4
 62
     4
100
AcDbLine
 10
99.24931499999999
 20
182.25104
 30
0.0
 11
99.24931499999999
 21
220.25104
 31
0.0
  0
ARC
  5
C58
330
A
100
AcDbEntity
  8
Hawa4
 62
     4
100
AcDbCircle
 10
108.749315
 20
182.25104
 30
0.0
 40
1.0
100
AcDbArc
 50
270.0000009999998
 51
0.0000099566261208
  0
LINE
  5
C59
330
A
100
AcDbEntity
  8
Hawa4
 62
     4
 48
0.045
100
AcDbLine
 10
109.749315
 20
184.051028
 30
0.0
 11
109.749315
 21
182.25104
 31
0.0
  0
ARC
  5
C5A
330
A
100
AcDbEntity
  8
Hawa4
 62
     4
100
AcDbCircle
 10
109.549314
 20
184.051028
 30
0.0
 40
0.2
100
AcDbArc
 50
0.0
 51
90.00000300000095
  0
LINE
  5
C5B
330
A
100
AcDbEntity
  8
Hawa4
 62
     4
 48
0.0775
100
AcDbLine
 10
106.449319
 20
184.25104
 30
0.0
 11
109.549314
 21
184.25104
 31
0.0
  0
ARC
  5
C5C
330
A
100
AcDbEntity
  8
Hawa4
 62
     4
100
AcDbCircle
 10
106.449319
 20
184.75104
 30
0.0
 40
0.5
100
AcDbArc
 50
180.0000049783131
 51
270.0000009999998
  0
LINE
  5
C5D
330
A
100
AcDbEntity
  8
Hawa4
 62
     4
 48
0.0125
100
AcDbLine
 10
105.949319
 20
185.25104
 30
0.0
 11
105.949319
 21
184.75104
 31
0.0
  0
ARC
  5
C5E
330
A
100
AcDbEntity
  8
Hawa4
 62
     4
100
AcDbCircle
 10
104.949319
 20
185.25104
 30
0.0
 40
1.0
100
AcDbArc
 50
0.0
 51
90.00000300000014
  0
LINE
  5
C5F
330
A
100
AcDbEntity
  8
Hawa4
 62
     4
 48
0.02
100
AcDbLine
 10
104.149316
 20
186.25104
 30
0.0
 11
104.949319
 21
186.25104
 31
0.0
  0
ARC
  5
C60
330
A
100
AcDbEntity
  8
Hawa4
 62
     4
100
AcDbCircle
 10
104.149316
 20
188.25104
 30
0.0
 40
2.0
100
AcDbArc
 50
180.0000049783131
 51
270.0000009999998
  0
LINE
  5
C61
330
A
100
AcDbEntity
  8
Hawa4
 62
     4
100
AcDbLine
 10
102.149316
 20
216.351046
 30
0.0
 11
102.149316
 21
188.25104
 31
0.0
  0
ARC
  5
C62
330
A
100
AcDbEntity
  8
Hawa4
 62
     4
100
AcDbCircle
 10
104.149316
 20
216.351046
 30
0.0
 40
2.0
100
AcDbArc
 50
90.00000300000014
 51
180.0000049783131
  0
ARC
  5
C63
330
A
100
AcDbEntity
  8
Hawa4
 62
     4
100
AcDbCircle
 10
128.349317
 20
216.351046
 30
0.0
 40
2.0
100
AcDbArc
 50
0.0
 51
90.00000300000014
  0
LINE
  5
C64
330
A
100
AcDbEntity
  8
Hawa4
 62
     4
100
AcDbLine
 10
130.349317
 20
216.351046
 30
0.0
 11
130.349317
 21
188.25104
 31
0.0
  0
ARC
  5
C65
330
A
100
AcDbEntity
  8
Hawa4
 62
     4
100
AcDbCircle
 10
128.349317
 20
188.25104
 30
0.0
 40
2.0
100
AcDbArc
 50
270.0000009999998
 51
0.0000099566261208
  0
LINE
  5
C66
330
A
100
AcDbEntity
  8
Hawa4
 62
     4
 48
0.02
100
AcDbLine
 10
127.549314
 20
186.25104
 30
0.0
 11
128.349317
 21
186.25104
 31
0.0
  0
ARC
  5
C67
330
A
100
AcDbEntity
  8
Hawa4
 62
     4
100
AcDbCircle
 10
127.549314
 20
185.25104
 30
0.0
 40
1.0
100
AcDbArc
 50
90.00000300000095
 51
180.0000049783131
  0
LINE
  5
C68
330
A
100
AcDbEntity
  8
Hawa4
 62
     4
 48
0.0125
100
AcDbLine
 10
126.549314
 20
185.25104
 30
0.0
 11
126.549314
 21
184.75104
 31
0.0
  0
ARC
  5
C69
330
A
100
AcDbEntity
  8
Hawa4
 62
     4
100
AcDbCircle
 10
126.049314
 20
184.75104
 30
0.0
 40
0.5
100
AcDbArc
 50
270.0000009999981
 51
0.0000099566261208
  0
LINE
  5
C6A
330
A
100
AcDbEntity
  8
Hawa4
 62
     4
 48
0.0775
100
AcDbLine
 10
122.949315
 20
184.25104
 30
0.0
 11
126.049314
 21
184.25104
 31
0.0
  0
ARC
  5
C6B
330
A
100
AcDbEntity
  8
Hawa4
 62
     4
100
AcDbCircle
 10
122.949315
 20
184.051028
 30
0.0
 40
0.2
100
AcDbArc
 50
90.00000300000095
 51
180.0000049783131
  0
LINE
  5
C6C
330
A
100
AcDbEntity
  8
Hawa4
 62
     4
 48
0.045
100
AcDbLine
 10
122.749315
 20
184.051028
 30
0.0
 11
122.749315
 21
182.25104
 31
0.0
  0
ARC
  5
C6D
330
A
100
AcDbEntity
  8
Hawa4
 62
     4
100
AcDbCircle
 10
123.749315
 20
182.25104
 30
0.0
 40
1.0
100
AcDbArc
 50
180.0000049783131
 51
270.0000009999998
  0
LINE
  5
C6E
330
A
100
AcDbEntity
  8
Hawa4
 62
     4
 48
0.2125
100
AcDbLine
 10
123.749315
 20
181.25104
 30
0.0
 11
132.249315
 21
181.25104
 31
0.0
  0
ARC
  5
C6F
330
A
100
AcDbEntity
  8
Hawa4
 62
     4
100
AcDbCircle
 10
132.249315
 20
182.25104
 30
0.0
 40
1.0
100
AcDbArc
 50
270.0000009999998
 51
0.0000099566261208
  0
LINE
  5
C70
330
A
100
AcDbEntity
  8
Hawa4
 62
     4
100
AcDbLine
 10
133.249315
 20
182.25104
 30
0.0
 11
133.249315
 21
220.25104
 31
0.0
  0
ARC
  5
C71
330
A
100
AcDbEntity
  8
Hawa4
 62
     4
100
AcDbCircle
 10
100.249315
 20
182.25104
 30
0.0
 40
1.0
100
AcDbArc
 50
180.0000049783131
 51
270.0000009999998
  0
LINE
  5
C72
330
A
100
AcDbEntity
  8
Hawa4
 62
     4
 48
0.2125
100
AcDbLine
 10
100.249315
 20
181.25104
 30
0.0
 11
108.749315
 21
181.25104
 31
0.0
  0
ARC
  5
C73
330
A
100
AcDbEntity
  8
Hawa4
 62
     4
100
AcDbCircle
 10
115.783632
 20
218.551028
 30
0.0
 40
0.2
100
AcDbArc
 50
269.999996999999
 51
315.0000000000028
  0
LINE
  5
C74
330
A
100
AcDbEntity
  8
Hawa4
 62
     4
 48
0.003939
100
AcDbLine
 10
115.92505
 20
218.409609
 30
0.0
 11
116.036474
 21
218.521029
 31
0.0
  0
LINE
  5
C75
330
A
100
AcDbEntity
  8
Hawa4
 62
     4
 48
0.003939
100
AcDbLine
 10
116.462159
 20
218.521029
 30
0.0
 11
116.573579
 21
218.409609
 31
0.0
  0
ARC
  5
C76
330
A
100
AcDbEntity
  8
Hawa4
 62
     4
100
AcDbCircle
 10
116.715001
 20
218.551028
 30
0.0
 40
0.2
100
AcDbArc
 50
224.9999999999971
 51
269.999996999999
  0
LINE
  5
C77
330
A
100
AcDbEntity
  8
Hawa4
 62
     4
 48
0.090156
100
AcDbLine
 10
118.899316
 20
220.901034
 30
0.0
 11
121.449315
 21
218.351046
 31
0.0
  0
LINE
  5
C78
330
A
100
AcDbEntity
  8
Hawa4
 62
     4
 48
0.090156
100
AcDbLine
 10
113.599317
 20
220.901034
 30
0.0
 11
111.049314
 21
218.351046
 31
0.0
  0
LINE
  5
C79
330
A
100
AcDbEntity
  8
HAWA1
 48
0.003798
100
AcDbLine
 10
129.399316
 20
203.146029
 30
0.0
 11
129.247396
 21
203.146029
 31
0.0
  0
LINE
  5
C7A
330
A
100
AcDbEntity
  8
HAWA1
 48
0.003702
100
AcDbLine
 10
103.247392
 20
203.146029
 30
0.0
 11
103.099313
 21
203.146029
 31
0.0
  0
LWPOLYLINE
  5
C7B
330
A
100
AcDbEntity
  8
HAWA1
 62
     7
100
AcDbPolyline
 90
        4
 70
     0
 43
0.0
 10
106.449319
 20
218.051028
 10
106.356004
 20
218.02518
 10
106.260599
 20
217.908969
 10
106.249849
 20
217.8595
  0
LINE
  5
C7C
330
A
100
AcDbEntity
  8
HAWA1
 48
0.227464
100
AcDbLine
 10
126.249315
 20
208.75101
 30
0.0
 11
126.249311
 21
217.849581
 31
0.0
  0
LINE
  5
C7D
330
A
100
AcDbEntity
  8
HAWA1
 48
0.0825
100
AcDbLine
 10
109.749315
 20
218.051028
 30
0.0
 11
106.449319
 21
218.051028
 31
0.0
  0
LINE
  5
C7E
330
A
100
AcDbEntity
  8
HAWA1
 48
0.0825
100
AcDbLine
 10
126.049314
 20
218.051028
 30
0.0
 11
122.749315
 21
218.051028
 31
0.0
  0
LINE
  5
C7F
330
A
100
AcDbEntity
  8
HAWA1
 48
0.136543
100
AcDbLine
 10
110.210519
 20
189.6932699999999
 30
0.0
 11
109.749315
 21
184.25104
 31
0.0
  0
LINE
  5
C80
330
A
100
AcDbEntity
  8
HAWA1
 48
0.109699
100
AcDbLine
 10
110.119848
 20
213.678744
 30
0.0
 11
109.749315
 21
218.051028
 31
0.0
  0
ARC
  5
C81
330
A
100
AcDbEntity
  8
HAWA1
 62
     7
100
AcDbCircle
 10
110.708742
 20
189.651034
 30
0.0
 40
0.500005
100
AcDbArc
 50
137.237119999999
 51
175.1556249999969
  0
LINE
  5
C82
330
A
100
AcDbEntity
  8
HAWA1
 48
0.003749
100
AcDbLine
 10
103.099313
 20
203.146029
 30
0.0
 11
103.249276
 21
203.146029
 31
0.0
  0
LINE
  5
C83
330
A
100
AcDbEntity
  8
HAWA1
 48
0.003751
100
AcDbLine
 10
129.24928
 20
203.146029
 30
0.0
 11
129.399316
 21
203.146029
 31
0.0
  0
ARC
  5
C84
330
A
100
AcDbEntity
  8
HAWA1
 62
     7
100
AcDbCircle
 10
126.049314
 20
217.851046
 30
0.0
 40
0.2
100
AcDbArc
 50
0.0
 51
90.00000300000095
  0
LWPOLYLINE
  5
C85
330
A
100
AcDbEntity
  8
HAWA1
 62
     7
100
AcDbPolyline
 90
        4
 70
     0
 43
0.0
 10
106.249338
 20
217.851046
 10
106.279931
 20
217.948489
 10
106.353868
 20
218.023013
 10
106.449319
 20
218.051028
  0
LINE
  5
C8D
330
A
100
AcDbEntity
  8
HAWA1
 48
0.000039
100
AcDbLine
 10
110.210519
 20
189.6932699999999
 30
0.0
 11
110.210519
 21
189.694827
 31
0.0
  0
ARC
  5
C8F
330
A
100
AcDbEntity
  8
HAWA1
 62
     7
100
AcDbCircle
 10
106.454362
 20
217.85773
 30
0.0
 40
0.193802
100
AcDbArc
 50
91.49545200000035
 51
140.8009879999981
  0
LINE
  5
C95
330
A
100
AcDbEntity
  8
HAWA1
 48
0.00003
100
AcDbLine
 10
129.399316
 20
199.156039
 30
0.0
 11
129.398118
 21
199.156039
 31
0.0
  0
LINE
  5
C96
330
A
100
AcDbEntity
  8
HAWA1
 48
0.003789
100
AcDbLine
 10
129.399316
 20
203.146029
 30
0.0
 11
129.247751
 21
203.146029
 31
0.0
  0
LINE
  5
C97
330
A
100
AcDbEntity
  8
HAWA1
 48
0.003711
100
AcDbLine
 10
103.247751
 20
203.146029
 30
0.0
 11
103.099313
 21
203.146029
 31
0.0
  0
LWPOLYLINE
  5
C99
330
A
100
AcDbEntity
  8
HAWA1
 62
     7
100
AcDbPolyline
 90
        4
 70
     0
 43
0.0
 10
126.249315
 20
208.859835
 10
126.249315
 20
217.752322
 10
126.249311
 20
217.833926
 10
126.24632
 20
217.879489
  0
ARC
  5
C9A
330
A
100
AcDbEntity
  8
HAWA1
 62
     7
100
AcDbCircle
 10
126.052743
 20
217.893557
 30
0.0
 40
0.157551
100
AcDbArc
 50
68.66866600000033
 51
91.24685999999861
  0
LWPOLYLINE
  5
CA2
330
A
100
AcDbEntity
  8
HAWA1
 62
     7
100
AcDbPolyline
 90
        7
 70
     0
 43
0.0
 10
126.049314
 20
218.051028
 10
126.126638
 20
218.034274
 10
126.190179
 20
217.986636
 10
126.249315
 20
217.838595
 10
126.249315
 20
217.733554
 10
126.249315
 20
215.744418
 10
126.249315
 20
208.651034
  0
LWPOLYLINE
  5
CA3
330
A
100
AcDbEntity
  8
HAWA1
 62
     7
100
AcDbPolyline
 90
        4
 70
     0
 43
0.0
 10
106.449319
 20
218.051028
 10
106.32319
 20
217.999911
 10
106.277276
 20
217.944125
 10
106.249391
 20
217.800845
  0
LINE
  5
CA7
330
A
100
AcDbEntity
  8
HAWA1
 48
0.136543
100
AcDbLine
 10
110.210519
 20
212.608828
 30
0.0
 11
109.749315
 21
218.051028
 31
0.0
  0
ARC
  5
CA8
330
A
100
AcDbEntity
  8
HAWA1
 62
     7
100
AcDbCircle
 10
121.789895
 20
212.651034
 30
0.0
 40
0.5
100
AcDbArc
 50
269.9999970000007
 51
355.1560060000023
  0
ARC
  5
CA9
330
A
100
AcDbEntity
  8
HAWA1
 62
     7
100
AcDbCircle
 10
110.708734
 20
212.651034
 30
0.0
 40
0.5
100
AcDbArc
 50
184.8439919999971
 51
270.0000040000007
  0
LINE
  5
CAA
330
A
100
AcDbEntity
  8
HAWA1
 48
0.277029
100
AcDbLine
 10
110.708734
 20
212.151034
 30
0.0
 11
121.789895
 21
212.151034
 31
0.0
  0
LINE
  5
CAB
330
A
100
AcDbEntity
  8
HAWA1
 48
0.003759
100
AcDbLine
 10
129.399316
 20
203.146029
 30
0.0
 11
129.248948
 21
203.146029
 31
0.0
  0
LINE
  5
CAC
330
A
100
AcDbEntity
  8
HAWA1
 48
0.003741
100
AcDbLine
 10
103.248948
 20
203.146029
 30
0.0
 11
103.099313
 21
203.146029
 31
0.0
  0
LWPOLYLINE
  5
CAE
330
A
100
AcDbEntity
  8
HAWA1
 62
     7
100
AcDbPolyline
 90
        4
 70
     0
 43
0.0
 10
106.449319
 20
184.25104
 10
106.355775
 20
184.277041
 10
106.26037
 20
184.393771
 10
106.249788
 20
184.443392
  0
LINE
  5
CAF
330
A
100
AcDbEntity
  8
HAWA1
 48
0.230128
100
AcDbLine
 10
126.249128
 20
184.445925
 30
0.0
 11
126.249315
 21
193.651065
 31
0.0
  0
LINE
  5
CB8
330
A
100
AcDbEntity
  8
Hawa6
 62
     3
 48
0.025
100
AcDbLine
 10
104.249315
 20
208.651034
 30
0.0
 11
103.249315
 21
208.651034
 31
0.0
  0
LINE
  5
CB9
330
A
100
AcDbEntity
  8
Hawa6
 62
     3
100
AcDbLine
 10
104.249315
 20
208.651034
 30
0.0
 11
128.249315
 21
208.651034
 31
0.0
  0
LINE
  5
CBA
330
A
100
AcDbEntity
  8
Hawa6
 62
     3
 48
0.025
100
AcDbLine
 10
129.249315
 20
208.651034
 30
0.0
 11
128.249315
 21
208.651034
 31
0.0
  0
LINE
  5
CBB
330
A
100
AcDbEntity
  8
Hawa6
 62
     3
 48
0.375
100
AcDbLine
 10
103.249315
 20
193.651034
 30
0.0
 11
103.249315
 21
208.651034
 31
0.0
  0
LINE
  5
CBC
330
A
100
AcDbEntity
  8
Hawa6
 62
     3
 48
0.025
100
AcDbLine
 10
104.249315
 20
193.651034
 30
0.0
 11
103.249315
 21
193.651034
 31
0.0
  0
LINE
  5
CBD
330
A
100
AcDbEntity
  8
Hawa6
 62
     3
 48
0.375
100
AcDbLine
 10
104.249315
 20
193.651034
 30
0.0
 11
104.249315
 21
208.651034
 31
0.0
  0
LINE
  5
CBE
330
A
100
AcDbEntity
  8
Hawa6
 62
     3
100
AcDbLine
 10
104.249315
 20
193.651034
 30
0.0
 11
128.249315
 21
193.651034
 31
0.0
  0
LINE
  5
CBF
330
A
100
AcDbEntity
  8
Hawa6
 62
     3
 48
0.375
100
AcDbLine
 10
128.249315
 20
193.651034
 30
0.0
 11
128.249315
 21
208.651034
 31
0.0
  0
LINE
  5
CC0
330
A
100
AcDbEntity
  8
Hawa6
 62
     3
 48
0.025
100
AcDbLine
 10
129.249315
 20
193.651034
 30
0.0
 11
128.249315
 21
193.651034
 31
0.0
  0
LINE
  5
CC1
330
A
100
AcDbEntity
  8
Hawa6
 62
     3
 48
0.375
100
AcDbLine
 10
129.249315
 20
193.651034
 30
0.0
 11
129.249315
 21
208.651034
 31
0.0
  0
LINE
  5
CC2
330
A
100
AcDbEntity
  8
Hawa6
 62
     3
 48
0.23
100
AcDbLine
 10
126.249315
 20
193.651065
 30
0.0
 11
126.249315
 21
184.451052
 31
0.0
  0
LINE
  5
CC3
330
A
100
AcDbEntity
  8
Hawa6
 62
     3
 48
0.229117
100
AcDbLine
 10
126.249315
 20
217.851046
 30
0.0
 11
126.249315
 21
208.686373
 31
0.0
  0
LINE
  5
CC4
330
A
100
AcDbEntity
  8
Hawa6
 62
     3
 48
0.235001
100
AcDbLine
 10
106.449319
 20
193.651065
 30
0.0
 11
106.449319
 21
184.25104
 31
0.0
  0
LINE
  5
CC5
330
A
100
AcDbEntity
  8
Hawa6
 62
     3
 48
0.235
100
AcDbLine
 10
106.449319
 20
218.051028
 30
0.0
 11
106.449319
 21
208.651034
 31
0.0
  0
LINE
  5
CC6
330
A
100
AcDbEntity
  8
Hawa6
 62
     3
 48
0.235
100
AcDbLine
 10
126.049314
 20
218.051028
 30
0.0
 11
126.049314
 21
208.651034
 31
0.0
  0
LINE
  5
CC7
330
A
100
AcDbEntity
  8
Hawa6
 62
     3
 48
0.235001
100
AcDbLine
 10
126.049314
 20
193.651065
 30
0.0
 11
126.049314
 21
184.25104
 31
0.0
  0
LINE
  5
CC8
330
A
100
AcDbEntity
  8
Hawa6
 62
     3
 48
0.051721
100
AcDbLine
 10
109.749315
 20
186.319888
 30
0.0
 11
109.749315
 21
184.25104
 31
0.0
  0
LINE
  5
CC9
330
A
100
AcDbEntity
  8
Hawa6
 62
     3
 48
0.183279
100
AcDbLine
 10
109.749315
 20
193.651034
 30
0.0
 11
109.749315
 21
186.319888
 31
0.0
  0
LINE
  5
CCA
330
A
100
AcDbEntity
  8
Hawa6
 62
     3
 48
0.234618
100
AcDbLine
 10
109.749315
 20
218.051028
 30
0.0
 11
109.749315
 21
208.666323
 31
0.0
  0
LINE
  5
CCB
330
A
100
AcDbEntity
  8
Hawa6
 62
     3
 48
0.235
100
AcDbLine
 10
122.749315
 20
218.051028
 30
0.0
 11
122.749315
 21
208.651034
 31
0.0
  0
LINE
  5
CCC
330
A
100
AcDbEntity
  8
Hawa6
 62
     3
 48
0.183279
100
AcDbLine
 10
122.749315
 20
193.651034
 30
0.0
 11
122.749315
 21
186.319888
 31
0.0
  0
LINE
  5
CCD
330
A
100
AcDbEntity
  8
Hawa6
 62
     3
 48
0.051721
100
AcDbLine
 10
122.749315
 20
186.319888
 30
0.0
 11
122.749315
 21
184.25104
 31
0.0
  0
LINE
  5
CCE
330
A
100
AcDbEntity
  8
Hawa6
 62
     3
 48
0.035065
100
AcDbLine
 10
110.210519
 20
191.095889
 30
0.0
 11
110.210519
 21
189.6932699999999
 31
0.0
  0
LINE
  5
CCF
330
A
100
AcDbEntity
  8
Hawa6
 62
     3
 48
0.098945
100
AcDbLine
 10
110.210519
 20
212.608828
 30
0.0
 11
110.210519
 21
208.651034
 31
0.0
  0
LINE
  5
CD0
330
A
100
AcDbEntity
  8
Hawa6
 62
     3
 48
0.063879
100
AcDbLine
 10
110.210519
 20
193.651065
 30
0.0
 11
110.210519
 21
191.095889
 31
0.0
  0
LINE
  5
CD1
330
A
100
AcDbEntity
  8
Hawa6
 62
     3
 48
0.035065
100
AcDbLine
 10
122.28811
 20
191.095889
 30
0.0
 11
122.28811
 21
189.6932699999999
 31
0.0
  0
LINE
  5
CD2
330
A
100
AcDbEntity
  8
Hawa6
 62
     3
 48
0.098945
100
AcDbLine
 10
122.28811
 20
212.608828
 30
0.0
 11
122.28811
 21
208.651034
 31
0.0
  0
LINE
  5
CD3
330
A
100
AcDbEntity
  8
Hawa6
 62
     3
 48
0.063879
100
AcDbLine
 10
122.28811
 20
193.651065
 30
0.0
 11
122.28811
 21
191.095889
 31
0.0
  0
LINE
  5
CD4
330
A
100
AcDbEntity
  8
Hawa6
 62
     3
 48
0.033665
100
AcDbLine
 10
110.708734
 20
191.497622
 30
0.0
 11
110.708734
 21
190.151034
 31
0.0
  0
LINE
  5
CD5
330
A
100
AcDbEntity
  8
Hawa6
 62
     3
 48
0.087502
100
AcDbLine
 10
110.708734
 20
212.151034
 30
0.0
 11
110.708734
 21
208.650973
 31
0.0
  0
LINE
  5
CD6
330
A
100
AcDbEntity
  8
Hawa6
 62
     3
 48
0.053838
100
AcDbLine
 10
110.708734
 20
193.651126
 30
0.0
 11
110.708734
 21
191.497622
 31
0.0
  0
LINE
  5
CD7
330
A
100
AcDbEntity
  8
Hawa6
 62
     3
 48
0.033665
100
AcDbLine
 10
121.789895
 20
191.497622
 30
0.0
 11
121.789895
 21
190.151034
 31
0.0
  0
LINE
  5
CD8
330
A
100
AcDbEntity
  8
Hawa6
 62
     3
 48
0.087502
100
AcDbLine
 10
121.789895
 20
212.151034
 30
0.0
 11
121.789895
 21
208.650973
 31
0.0
  0
LINE
  5
CD9
330
A
100
AcDbEntity
  8
Hawa6
 62
     3
 48
0.053838
100
AcDbLine
 10
121.789895
 20
193.651126
 30
0.0
 11
121.789895
 21
191.497622
 31
0.0
  0
LWPOLYLINE
  5
CDA
330
A
100
AcDbEntity
  8
Hawa6
 62
     3
100
AcDbPolyline
 90
        7
 70
     0
 43
0.0
 10
106.449319
 20
184.25104
 10
106.371995
 20
184.2677939999999
 10
106.30845
 20
184.315432
 10
106.249315
 20
184.463473
 10
106.249315
 20
184.568545
 10
106.249315
 20
186.55765
 10
106.249315
 20
193.651034
  0
LWPOLYLINE
  5
CDB
330
A
100
AcDbEntity
  8
Hawa6
 62
     3
100
AcDbPolyline
 90
        7
 70
     0
 43
0.0
 10
106.449319
 20
218.051028
 10
106.371995
 20
218.034274
 10
106.30845
 20
217.986636
 10
106.249315
 20
217.838595
 10
106.249315
 20
217.733554
 10
106.249315
 20
215.744418
 10
106.249315
 20
208.651034
  0
LWPOLYLINE
  5
CDC
330
A
100
AcDbEntity
  8
Hawa6
 62
     3
100
AcDbPolyline
 90
        6
 70
     0
 43
0.0
 10
126.249315
 20
208.651034
 10
126.249315
 20
217.635256
 10
126.249315
 20
217.835238
 10
126.188455
 20
217.987368
 10
126.10095
 20
218.043887
 10
126.049314
 20
218.051028
  0
ARC
  5
CDD
330
A
100
AcDbEntity
  8
Hawa6
 62
     3
100
AcDbCircle
 10
126.049314
 20
184.451052
 30
0.0
 40
0.2
100
AcDbArc
 50
269.999996999999
 51
0.0
  0
LINE
  5
CDE
330
A
100
AcDbEntity
  8
Hawa6
 62
     3
 48
0.0825
100
AcDbLine
 10
109.749315
 20
184.25104
 30
0.0
 11
106.449319
 21
184.25104
 31
0.0
  0
LINE
  5
CDF
330
A
100
AcDbEntity
  8
Hawa6
 62
     3
 48
0.0825
100
AcDbLine
 10
109.749315
 20
218.051028
 30
0.0
 11
106.449319
 21
218.051028
 31
0.0
  0
LINE
  5
CE0
330
A
100
AcDbEntity
  8
Hawa6
 62
     3
 48
0.0825
100
AcDbLine
 10
126.049314
 20
218.051028
 30
0.0
 11
122.749315
 21
218.051028
 31
0.0
  0
LINE
  5
CE1
330
A
100
AcDbEntity
  8
Hawa6
 62
     3
 48
0.0825
100
AcDbLine
 10
126.049314
 20
184.25104
 30
0.0
 11
122.749315
 21
184.25104
 31
0.0
  0
LINE
  5
CE2
330
A
100
AcDbEntity
  8
Hawa6
 62
     3
 48
0.136543
100
AcDbLine
 10
110.210519
 20
189.6932699999999
 30
0.0
 11
109.749315
 21
184.25104
 31
0.0
  0
LINE
  5
CE3
330
A
100
AcDbEntity
  8
Hawa6
 62
     3
 48
0.136543
100
AcDbLine
 10
110.210519
 20
212.608828
 30
0.0
 11
109.749315
 21
218.051028
 31
0.0
  0
LINE
  5
CE4
330
A
100
AcDbEntity
  8
Hawa6
 62
     3
 48
0.136543
100
AcDbLine
 10
122.28811
 20
189.6932699999999
 30
0.0
 11
122.749315
 21
184.25104
 31
0.0
  0
LINE
  5
CE5
330
A
100
AcDbEntity
  8
Hawa6
 62
     3
 48
0.136543
100
AcDbLine
 10
122.28811
 20
212.608828
 30
0.0
 11
122.749315
 21
218.051028
 31
0.0
  0
ARC
  5
CE6
330
A
100
AcDbEntity
  8
Hawa6
 62
     3
100
AcDbCircle
 10
110.708734
 20
189.651034
 30
0.0
 40
0.5
100
AcDbArc
 50
89.99999599999926
 51
175.1560080000029
  0
ARC
  5
CE7
330
A
100
AcDbEntity
  8
Hawa6
 62
     3
100
AcDbCircle
 10
110.708734
 20
212.651034
 30
0.0
 40
0.5
100
AcDbArc
 50
184.8439919999971
 51
270.0000040000007
  0
ARC
  5
CE8
330
A
100
AcDbEntity
  8
Hawa6
 62
     3
100
AcDbCircle
 10
121.789895
 20
189.651034
 30
0.0
 40
0.5
100
AcDbArc
 50
4.843993000000616
 51
90.0000029999993
  0
ARC
  5
CE9
330
A
100
AcDbEntity
  8
Hawa6
 62
     3
100
AcDbCircle
 10
121.789895
 20
212.651034
 30
0.0
 40
0.5
100
AcDbArc
 50
269.9999970000007
 51
355.1560069999994
  0
LINE
  5
CEA
330
A
100
AcDbEntity
  8
Hawa6
 62
     3
 48
0.013515
100
AcDbLine
 10
121.789895
 20
190.151034
 30
0.0
 11
121.249299
 21
190.151034
 31
0.0
  0
LINE
  5
CEB
330
A
100
AcDbEntity
  8
Hawa6
 62
     3
 48
0.013514
100
AcDbLine
 10
111.249299
 20
190.151034
 30
0.0
 11
110.708734
 21
190.151034
 31
0.0
  0
LINE
  5
CEC
330
A
100
AcDbEntity
  8
Hawa6
 62
     3
 48
0.277029
100
AcDbLine
 10
121.789895
 20
212.151034
 30
0.0
 11
110.708734
 21
212.151034
 31
0.0
  0
LINE
  5
CED
330
A
100
AcDbEntity
  8
Hawa6
 62
     3
 48
0.025964
100
AcDbLine
 10
129.399316
 20
199.156039
 30
0.0
 11
129.399316
 21
200.194583
 31
0.0
  0
LINE
  5
CEE
330
A
100
AcDbEntity
  8
Hawa6
 62
     3
 48
0.025964
100
AcDbLine
 10
103.099313
 20
199.156039
 30
0.0
 11
103.099313
 21
200.194583
 31
0.0
  0
LINE
  5
CEF
330
A
100
AcDbEntity
  8
Hawa6
 62
     3
 48
0.073786
100
AcDbLine
 10
129.399316
 20
200.194583
 30
0.0
 11
129.399316
 21
203.146029
 31
0.0
  0
LINE
  5
CF0
330
A
100
AcDbEntity
  8
Hawa6
 62
     3
 48
0.073786
100
AcDbLine
 10
103.099313
 20
200.194583
 30
0.0
 11
103.099313
 21
203.146029
 31
0.0
  0
LINE
  5
CF1
330
A
100
AcDbEntity
  8
Hawa6
 62
     3
 48
0.003749
100
AcDbLine
 10
103.099313
 20
199.156039
 30
0.0
 11
103.249276
 21
199.156039
 31
0.0
  0
LINE
  5
CF2
330
A
100
AcDbEntity
  8
Hawa6
 62
     3
 48
0.003751
100
AcDbLine
 10
129.24928
 20
199.156039
 30
0.0
 11
129.399316
 21
199.156039
 31
0.0
  0
LINE
  5
CF3
330
A
100
AcDbEntity
  8
Hawa6
 62
     3
 48
0.003749
100
AcDbLine
 10
103.099313
 20
203.146029
 30
0.0
 11
103.249276
 21
203.146029
 31
0.0
  0
LINE
  5
CF4
330
A
100
AcDbEntity
  8
Hawa6
 62
     3
 48
0.003751
100
AcDbLine
 10
129.24928
 20
203.146029
 30
0.0
 11
129.399316
 21
203.146029
 31
0.0
  0
LINE
  5
CF5
330
A
100
AcDbEntity
  8
Hawa6
 62
     3
 48
0.001033
100
AcDbLine
 10
102.249322
 20
175.851046
 30
0.0
 11
102.207994
 21
175.851046
 31
0.0
  0
LINE
  5
CF6
330
A
100
AcDbEntity
  8
Hawa6
 62
     3
 48
0.04248
100
AcDbLine
 10
131.948442
 20
175.851046
 30
0.0
 11
130.249254
 21
175.851046
 31
0.0
  0
LINE
  5
CF7
330
A
100
AcDbEntity
  8
Hawa6
 62
     3
 48
0.041446
100
AcDbLine
 10
102.207994
 20
175.851046
 30
0.0
 11
100.550157
 21
175.851046
 31
0.0
  0
LINE
  5
CF8
330
A
100
AcDbEntity
  8
Hawa6
 62
     3
 48
0.021335
100
AcDbLine
 10
131.602109
 20
165.25104
 30
0.0
 11
130.748727
 21
165.25104
 31
0.0
  0
LINE
  5
CF9
330
A
100
AcDbEntity
  8
Hawa6
 62
     3
 48
0.0425
100
AcDbLine
 10
102.249345
 20
176.026004
 30
0.0
 11
100.549333
 21
176.026004
 31
0.0
  0
LINE
  5
CFA
330
A
100
AcDbEntity
  8
Hawa6
 62
     3
 48
0.042493
100
AcDbLine
 10
131.949212
 20
176.026004
 30
0.0
 11
130.249498
 21
176.026004
 31
0.0
  0
LINE
  5
CFB
330
A
100
AcDbEntity
  8
Hawa6
 62
     3
 48
0.002595
100
AcDbLine
 10
98.36881400000001
 20
165.076052
 30
0.0
 11
98.265024
 21
165.076052
 31
0.0
  0
LINE
  5
CFC
330
A
100
AcDbEntity
  8
Hawa6
 62
     3
 48
0.002604
100
AcDbLine
 10
134.233167
 20
165.076052
 30
0.0
 11
134.129007
 21
165.076052
 31
0.0
  0
LINE
  5
CFD
330
A
100
AcDbEntity
  8
Hawa6
 62
     3
 48
0.055088
100
AcDbLine
 10
100.452829
 20
177.75104
 30
0.0
 11
98.24931499999999
 21
177.75104
 31
0.0
  0
LINE
  5
CFE
330
A
100
AcDbEntity
  8
Hawa6
 62
     3
 48
0.094914
100
AcDbLine
 10
104.249391
 20
177.75104
 30
0.0
 11
100.452829
 21
177.75104
 31
0.0
  0
LINE
  5
CFF
330
A
100
AcDbEntity
  8
Hawa6
 62
     3
 48
0.150001
100
AcDbLine
 10
134.249315
 20
177.75104
 30
0.0
 11
128.249273
 21
177.75104
 31
0.0
  0
LINE
  5
D00
330
A
100
AcDbEntity
  8
Hawa6
 62
     3
 48
0.054476
100
AcDbLine
 10
100.628343
 20
177.951052
 30
0.0
 11
98.44931899999998
 21
177.951052
 31
0.0
  0
LINE
  5
D01
330
A
100
AcDbEntity
  8
Hawa6
 62
     3
 48
0.090527
100
AcDbLine
 10
104.249414
 20
177.951052
 30
0.0
 11
100.628343
 21
177.951052
 31
0.0
  0
LINE
  5
D02
330
A
100
AcDbEntity
  8
Hawa6
 62
     3
 48
0.145002
100
AcDbLine
 10
134.0493139999999
 20
177.951052
 30
0.0
 11
128.24925
 21
177.951052
 31
0.0
  0
LINE
  5
D03
330
A
100
AcDbEntity
  8
Hawa6
 62
     3
 48
0.005
100
AcDbLine
 10
128.331094
 20
177.951052
 30
0.0
 11
128.331094
 21
178.151034
 31
0.0
  0
LINE
  5
D04
330
A
100
AcDbEntity
  8
Hawa6
 62
     3
 48
0.005
100
AcDbLine
 10
130.372903
 20
177.951052
 30
0.0
 11
130.372903
 21
178.151034
 31
0.0
  0
LINE
  5
D05
330
A
100
AcDbEntity
  8
Hawa6
 62
     3
 48
0.005
100
AcDbLine
 10
130.038865
 20
177.951052
 30
0.0
 11
130.038865
 21
178.151034
 31
0.0
  0
LINE
  5
D06
330
A
100
AcDbEntity
  8
Hawa6
 62
     3
 48
0.008351
100
AcDbLine
 10
130.372903
 20
178.151034
 30
0.0
 11
130.038865
 21
178.151034
 31
0.0
  0
LINE
  5
D07
330
A
100
AcDbEntity
  8
Hawa6
 62
     3
 48
0.005
100
AcDbLine
 10
128.660959
 20
177.951052
 30
0.0
 11
128.660959
 21
178.151034
 31
0.0
  0
LINE
  5
D08
330
A
100
AcDbEntity
  8
Hawa6
 62
     3
 48
0.008247
100
AcDbLine
 10
128.660959
 20
178.151034
 30
0.0
 11
128.331094
 21
178.151034
 31
0.0
  0
LINE
  5
D09
330
A
100
AcDbEntity
  8
Hawa6
 62
     3
 48
0.005
100
AcDbLine
 10
129.765809
 20
177.951052
 30
0.0
 11
129.765809
 21
178.151034
 31
0.0
  0
LINE
  5
D0A
330
A
100
AcDbEntity
  8
Hawa6
 62
     3
 48
0.006826
100
AcDbLine
 10
130.038865
 20
178.151034
 30
0.0
 11
129.765809
 21
178.151034
 31
0.0
  0
LINE
  5
D0B
330
A
100
AcDbEntity
  8
Hawa6
 62
     3
 48
0.027621
100
AcDbLine
 10
129.765809
 20
178.151034
 30
0.0
 11
128.660959
 21
178.151034
 31
0.0
  0
LINE
  5
D0C
330
A
100
AcDbEntity
  8
Hawa6
 62
     3
 48
0.005
100
AcDbLine
 10
132.362027
 20
177.951052
 30
0.0
 11
132.362027
 21
178.151034
 31
0.0
  0
LINE
  5
D0D
330
A
100
AcDbEntity
  8
Hawa6
 62
     3
 48
0.005
100
AcDbLine
 10
132.258275
 20
177.951052
 30
0.0
 11
132.258275
 21
178.151034
 31
0.0
  0
LINE
  5
D0E
330
A
100
AcDbEntity
  8
Hawa6
 62
     3
 48
0.002594
100
AcDbLine
 10
132.258275
 20
178.151034
 30
0.0
 11
132.362027
 21
178.151034
 31
0.0
  0
LINE
  5
D0F
330
A
100
AcDbEntity
  8
Hawa6
 62
     3
 48
0.005
100
AcDbLine
 10
131.951364
 20
177.951052
 30
0.0
 11
131.951364
 21
178.151034
 31
0.0
  0
LINE
  5
D10
330
A
100
AcDbEntity
  8
Hawa6
 62
     3
 48
0.007673
100
AcDbLine
 10
131.951364
 20
178.151034
 30
0.0
 11
132.258275
 21
178.151034
 31
0.0
  0
LINE
  5
D11
330
A
100
AcDbEntity
  8
Hawa6
 62
     3
 48
0.0049
100
AcDbLine
 10
131.755376
 20
178.151034
 30
0.0
 11
131.951364
 21
178.151034
 31
0.0
  0
LINE
  5
D12
330
A
100
AcDbEntity
  8
Hawa6
 62
     3
 48
0.001727
100
AcDbLine
 10
131.686315
 20
178.151034
 30
0.0
 11
131.755376
 21
178.151034
 31
0.0
  0
LINE
  5
D13
330
A
100
AcDbEntity
  8
Hawa6
 62
     3
 48
0.032835
100
AcDbLine
 10
130.372899
 20
178.151034
 30
0.0
 11
131.686315
 21
178.151034
 31
0.0
  0
LINE
  5
D14
330
A
100
AcDbEntity
  8
Hawa6
 62
     3
 48
0.005
100
AcDbLine
 10
131.755376
 20
177.951052
 30
0.0
 11
131.755376
 21
178.151034
 31
0.0
  0
LINE
  5
D15
330
A
100
AcDbEntity
  8
Hawa6
 62
     3
 48
0.005
100
AcDbLine
 10
131.686315
 20
177.951052
 30
0.0
 11
131.686315
 21
178.151034
 31
0.0
  0
LINE
  5
D16
330
A
100
AcDbEntity
  8
Hawa6
 62
     3
 48
0.005
100
AcDbLine
 10
100.388673
 20
177.951052
 30
0.0
 11
100.388673
 21
178.151034
 31
0.0
  0
LINE
  5
D17
330
A
100
AcDbEntity
  8
Hawa6
 62
     3
 48
0.003111
100
AcDbLine
 10
100.388673
 20
178.151034
 30
0.0
 11
100.513124
 21
178.151034
 31
0.0
  0
LINE
  5
D18
330
A
100
AcDbEntity
  8
Hawa6
 62
     3
 48
0.005
100
AcDbLine
 10
100.289247
 20
177.951052
 30
0.0
 11
100.289247
 21
178.151034
 31
0.0
  0
LINE
  5
D19
330
A
100
AcDbEntity
  8
Hawa6
 62
     3
 48
0.002486
100
AcDbLine
 10
100.289247
 20
178.151034
 30
0.0
 11
100.388673
 21
178.151034
 31
0.0
  0
LINE
  5
D1A
330
A
100
AcDbEntity
  8
Hawa6
 62
     3
 48
0.005
100
AcDbLine
 10
100.689111
 20
177.951052
 30
0.0
 11
100.689111
 21
178.151034
 31
0.0
  0
LINE
  5
D1B
330
A
100
AcDbEntity
  8
Hawa6
 62
     3
 48
0.005
100
AcDbLine
 10
101.039148
 20
177.951052
 30
0.0
 11
101.039148
 21
178.151034
 31
0.0
  0
LINE
  5
D1C
330
A
100
AcDbEntity
  8
Hawa6
 62
     3
 48
0.008751
100
AcDbLine
 10
100.689111
 20
178.151034
 30
0.0
 11
101.039148
 21
178.151034
 31
0.0
  0
LINE
  5
D1D
330
A
100
AcDbEntity
  8
Hawa6
 62
     3
 48
0.005
100
AcDbLine
 10
100.513131
 20
177.951052
 30
0.0
 11
100.513131
 21
178.151034
 31
0.0
  0
LINE
  5
D1E
330
A
100
AcDbEntity
  8
Hawa6
 62
     3
 48
0.004399
100
AcDbLine
 10
100.513131
 20
178.151034
 30
0.0
 11
100.689111
 21
178.151034
 31
0.0
  0
LINE
  5
D1F
330
A
100
AcDbEntity
  8
Hawa6
 62
     3
 48
0.00039
100
AcDbLine
 10
103.558389
 20
178.151034
 30
0.0
 11
103.573984
 21
178.151034
 31
0.0
  0
LINE
  5
D20
330
A
100
AcDbEntity
  8
Hawa6
 62
     3
 48
0.00583
100
AcDbLine
 10
103.325204
 20
178.151034
 30
0.0
 11
103.558389
 21
178.151034
 31
0.0
  0
LINE
  5
D21
330
A
100
AcDbEntity
  8
Hawa6
 62
     3
 48
0.012802
100
AcDbLine
 10
101.039148
 20
178.151034
 30
0.0
 11
101.551217
 21
178.151034
 31
0.0
  0
LINE
  5
D22
330
A
100
AcDbEntity
  8
Hawa6
 62
     3
 48
0.016428
100
AcDbLine
 10
102.226587
 20
178.151034
 30
0.0
 11
102.883691
 21
178.151034
 31
0.0
  0
LINE
  5
D23
330
A
100
AcDbEntity
  8
Hawa6
 62
     3
 48
0.011038
100
AcDbLine
 10
102.883691
 20
178.151034
 30
0.0
 11
103.325204
 21
178.151034
 31
0.0
  0
LINE
  5
D24
330
A
100
AcDbEntity
  8
Hawa6
 62
     3
 48
0.016884
100
AcDbLine
 10
101.551217
 20
178.151034
 30
0.0
 11
102.226587
 21
178.151034
 31
0.0
  0
LINE
  5
D25
330
A
100
AcDbEntity
  8
Hawa6
 62
     3
 48
0.005
100
AcDbLine
 10
103.679956
 20
177.951052
 30
0.0
 11
103.679956
 21
178.151034
 31
0.0
  0
LINE
  5
D26
330
A
100
AcDbEntity
  8
Hawa6
 62
     3
 48
0.005
100
AcDbLine
 10
104.065538
 20
177.951052
 30
0.0
 11
104.065538
 21
178.151034
 31
0.0
  0
LINE
  5
D27
330
A
100
AcDbEntity
  8
Hawa6
 62
     3
 48
0.00964
100
AcDbLine
 10
103.679956
 20
178.151034
 30
0.0
 11
104.065538
 21
178.151034
 31
0.0
  0
LINE
  5
D28
330
A
100
AcDbEntity
  8
Hawa6
 62
     3
 48
0.005
100
AcDbLine
 10
103.309854
 20
177.951052
 30
0.0
 11
103.309854
 21
178.151034
 31
0.0
  0
LINE
  5
D29
330
A
100
AcDbEntity
  8
Hawa6
 62
     3
 48
0.009253
100
AcDbLine
 10
103.309854
 20
178.151034
 30
0.0
 11
103.679956
 21
178.151034
 31
0.0
  0
LINE
  5
D2A
330
A
100
AcDbEntity
  8
Hawa6
 62
     3
 48
0.005
100
AcDbLine
 10
102.91311
 20
177.951052
 30
0.0
 11
102.91311
 21
178.151034
 31
0.0
  0
LINE
  5
D2B
330
A
100
AcDbEntity
  8
Hawa6
 62
     3
 48
0.009919
100
AcDbLine
 10
102.91311
 20
178.151034
 30
0.0
 11
103.309854
 21
178.151034
 31
0.0
  0
LINE
  5
D2C
330
A
100
AcDbEntity
  8
Hawa6
 62
     3
 48
0.005
100
AcDbLine
 10
102.695894
 20
177.951052
 30
0.0
 11
102.695894
 21
178.151034
 31
0.0
  0
LINE
  5
D2D
330
A
100
AcDbEntity
  8
Hawa6
 62
     3
 48
0.00543
100
AcDbLine
 10
102.695894
 20
178.151034
 30
0.0
 11
102.91311
 21
178.151034
 31
0.0
  0
LINE
  5
D2E
330
A
100
AcDbEntity
  8
Hawa6
 62
     3
 48
0.000702
100
AcDbLine
 10
102.667817
 20
178.151034
 30
0.0
 11
102.695894
 21
178.151034
 31
0.0
  0
LINE
  5
D2F
330
A
100
AcDbEntity
  8
Hawa6
 62
     3
 48
0.005
100
AcDbLine
 10
102.667817
 20
177.951052
 30
0.0
 11
102.667817
 21
178.151034
 31
0.0
  0
LINE
  5
D30
330
A
100
AcDbEntity
  8
Hawa6
 62
     3
 48
0.005
100
AcDbLine
 10
102.61094
 20
177.951052
 30
0.0
 11
102.61094
 21
178.151034
 31
0.0
  0
LINE
  5
D31
330
A
100
AcDbEntity
  8
Hawa6
 62
     3
 48
0.001422
100
AcDbLine
 10
102.61094
 20
178.151034
 30
0.0
 11
102.667817
 21
178.151034
 31
0.0
  0
LINE
  5
D32
330
A
100
AcDbEntity
  8
Hawa6
 62
     3
 48
0.005
100
AcDbLine
 10
102.185151
 20
177.951052
 30
0.0
 11
102.185151
 21
178.151034
 31
0.0
  0
LINE
  5
D33
330
A
100
AcDbEntity
  8
Hawa6
 62
     3
 48
0.010645
100
AcDbLine
 10
102.185151
 20
178.151034
 30
0.0
 11
102.61094
 21
178.151034
 31
0.0
  0
LINE
  5
D34
330
A
100
AcDbEntity
  8
Hawa6
 62
     3
 48
0.005
100
AcDbLine
 10
101.811006
 20
177.951052
 30
0.0
 11
101.811006
 21
178.151034
 31
0.0
  0
LINE
  5
D35
330
A
100
AcDbEntity
  8
Hawa6
 62
     3
 48
0.009354
100
AcDbLine
 10
101.811006
 20
178.151034
 30
0.0
 11
102.185151
 21
178.151034
 31
0.0
  0
LINE
  5
D36
330
A
100
AcDbEntity
  8
Hawa6
 62
     3
 48
0.005
100
AcDbLine
 10
101.512155
 20
177.951052
 30
0.0
 11
101.512155
 21
178.151034
 31
0.0
  0
LINE
  5
D37
330
A
100
AcDbEntity
  8
Hawa6
 62
     3
 48
0.007471
100
AcDbLine
 10
101.512155
 20
178.151034
 30
0.0
 11
101.811006
 21
178.151034
 31
0.0
  0
LINE
  5
D38
330
A
100
AcDbEntity
  8
Hawa6
 62
     3
 48
0.005
100
AcDbLine
 10
101.301164
 20
177.951052
 30
0.0
 11
101.301164
 21
178.151034
 31
0.0
  0
LINE
  5
D39
330
A
100
AcDbEntity
  8
Hawa6
 62
     3
 48
0.005275
100
AcDbLine
 10
101.301164
 20
178.151034
 30
0.0
 11
101.512155
 21
178.151034
 31
0.0
  0
LINE
  5
D3A
330
A
100
AcDbEntity
  8
Hawa6
 62
     3
 48
0.005
100
AcDbLine
 10
101.224603
 20
177.951052
 30
0.0
 11
101.224603
 21
178.151034
 31
0.0
  0
LINE
  5
D3B
330
A
100
AcDbEntity
  8
Hawa6
 62
     3
 48
0.001914
100
AcDbLine
 10
101.224603
 20
178.151034
 30
0.0
 11
101.301164
 21
178.151034
 31
0.0
  0
LINE
  5
D3C
330
A
100
AcDbEntity
  8
Hawa6
 62
     3
 48
0.004594
100
AcDbLine
 10
104.065538
 20
178.151034
 30
0.0
 11
104.249299
 21
178.151034
 31
0.0
  0
LINE
  5
D3D
330
A
100
AcDbEntity
  8
Hawa6
 62
     3
 48
0.012574
100
AcDbLine
 10
130.249315
 20
165.74808
 30
0.0
 11
130.249315
 21
166.25104
 31
0.0
  0
LINE
  5
D3E
330
A
100
AcDbEntity
  8
Hawa6
 62
     3
 48
0.015
100
AcDbLine
 10
130.249315
 20
175.25104
 30
0.0
 11
130.249315
 21
175.851046
 31
0.0
  0
LINE
  5
D3F
330
A
100
AcDbEntity
  8
Hawa6
 62
     3
 48
0.000077
100
AcDbLine
 10
100.249315
 20
165.25104
 30
0.0
 11
100.246263
 21
165.250765
 31
0.0
  0
LINE
  5
D40
330
A
100
AcDbEntity
  8
Hawa6
 62
     3
 48
0.002861
100
AcDbLine
 10
98.37940299999999
 20
165.087435
 30
0.0
 11
98.26539699999999
 21
165.077456
 31
0.0
  0
LINE
  5
D41
330
A
100
AcDbEntity
  8
Hawa6
 62
     3
 48
0.000566
100
AcDbLine
 10
132.249315
 20
165.25104
 30
0.0
 11
132.271879
 21
165.249057
 31
0.0
  0
LINE
  5
D42
330
A
100
AcDbEntity
  8
Hawa6
 62
     3
 48
0.002827
100
AcDbLine
 10
134.118039
 20
165.087557
 30
0.0
 11
134.230695
 21
165.0777
 31
0.0
  0
LINE
  5
D43
330
A
100
AcDbEntity
  8
Hawa6
 62
     3
 48
0.007507
100
AcDbLine
 10
98.24931499999999
 20
177.450778
 30
0.0
 11
98.24931499999999
 21
177.75104
 31
0.0
  0
LINE
  5
D44
330
A
100
AcDbEntity
  8
Hawa6
 62
     3
 48
0.007549
100
AcDbLine
 10
134.249315
 20
177.449099
 30
0.0
 11
134.249315
 21
177.75104
 31
0.0
  0
LINE
  5
D45
330
A
100
AcDbEntity
  8
Hawa6
 62
     3
 48
0.004987
100
AcDbLine
 10
98.24931499999999
 20
164.766513
 30
0.0
 11
98.24931499999999
 21
164.965975
 31
0.0
  0
LINE
  5
D46
330
A
100
AcDbEntity
  8
Hawa6
 62
     3
 48
0.007071
100
AcDbLine
 10
98.44931899999998
 20
177.951052
 30
0.0
 11
98.24931499999999
 21
177.75104
 31
0.0
  0
LINE
  5
D47
330
A
100
AcDbEntity
  8
Hawa6
 62
     3
 48
0.007071
100
AcDbLine
 10
134.0493139999999
 20
177.951052
 30
0.0
 11
134.249315
 21
177.75104
 31
0.0
  0
ARC
  5
D48
330
A
100
AcDbEntity
  8
Hawa6
 62
     3
100
AcDbCircle
 10
122.050134
 20
181.051181
 30
0.0
 40
0.8008179999999999
100
AcDbArc
 50
180.0099669999993
 51
202.0130939999995
  0
ARC
  5
D49
330
A
100
AcDbEntity
  8
Hawa6
 62
     3
100
AcDbCircle
 10
110.448495
 20
181.051181
 30
0.0
 40
0.8008179999999999
100
AcDbArc
 50
337.9869100000004
 51
359.9900310000152
  0
LINE
  5
D4A
330
A
100
AcDbEntity
  8
Hawa6
 62
     3
 48
0.08
100
AcDbLine
 10
121.249315
 20
184.25101
 30
0.0
 11
121.249315
 21
181.051028
 31
0.0
  0
LINE
  5
D4B
330
A
100
AcDbEntity
  8
Hawa6
 62
     3
 48
0.082506
100
AcDbLine
 10
95.74931499999999
 20
180.75104
 30
0.0
 11
95.74931499999999
 21
177.450808
 31
0.0
  0
LINE
  5
D4C
330
A
100
AcDbEntity
  8
Hawa6
 62
     3
 48
0.0375
100
AcDbLine
 10
94.24931499999999
 20
180.75104
 30
0.0
 11
95.74931499999999
 21
180.75104
 31
0.0
  0
LINE
  5
D4D
330
A
100
AcDbEntity
  8
Hawa6
 62
     3
 48
0.082506
100
AcDbLine
 10
94.24931499999999
 20
180.75104
 30
0.0
 11
94.24931499999999
 21
177.450808
 31
0.0
  0
LINE
  5
D4E
330
A
100
AcDbEntity
  8
Hawa6
 62
     3
 48
0.025
100
AcDbLine
 10
93.24931499999999
 20
180.75104
 30
0.0
 11
94.24931499999999
 21
180.75104
 31
0.0
  0
LINE
  5
D4F
330
A
100
AcDbEntity
  8
Hawa6
 62
     3
 48
0.386041
100
AcDbLine
 10
111.190942
 20
180.75104
 30
0.0
 11
95.74931499999999
 21
180.75104
 31
0.0
  0
LINE
  5
D50
330
A
100
AcDbEntity
  8
Hawa6
 62
     3
 48
0.082506
100
AcDbLine
 10
93.24931499999999
 20
177.450808
 30
0.0
 11
93.24931499999999
 21
180.75104
 31
0.0
  0
LINE
  5
D51
330
A
100
AcDbEntity
  8
Hawa6
 62
     3
 48
0.386041
100
AcDbLine
 10
136.749315
 20
180.75104
 30
0.0
 11
121.307691
 21
180.75104
 31
0.0
  0
LINE
  5
D52
330
A
100
AcDbEntity
  8
Hawa6
 62
     3
 48
0.0375
100
AcDbLine
 10
136.749315
 20
180.75104
 30
0.0
 11
138.249315
 21
180.75104
 31
0.0
  0
LINE
  5
D53
330
A
100
AcDbEntity
  8
Hawa6
 62
     3
 48
0.025
100
AcDbLine
 10
138.249315
 20
180.75104
 30
0.0
 11
139.249315
 21
180.75104
 31
0.0
  0
LINE
  5
D54
330
A
100
AcDbEntity
  8
Hawa6
 62
     3
 48
0.075
100
AcDbLine
 10
107.249315
 20
180.75104
 30
0.0
 11
104.249315
 21
180.75104
 31
0.0
  0
LINE
  5
D55
330
A
100
AcDbEntity
  8
Hawa6
 62
     3
 48
0.087506
100
AcDbLine
 10
104.249315
 20
177.250796
 30
0.0
 11
104.249315
 21
180.75104
 31
0.0
  0
LINE
  5
D56
330
A
100
AcDbEntity
  8
Hawa6
 62
     3
 48
0.00375
100
AcDbLine
 10
107.249315
 20
166.250979
 30
0.0
 11
107.249315
 21
166.400973
 31
0.0
  0
LINE
  5
D57
330
A
100
AcDbEntity
  8
Hawa6
 62
     3
 48
0.274997
100
AcDbLine
 10
107.249315
 20
169.751162
 30
0.0
 11
107.249315
 21
180.75104
 31
0.0
  0
LINE
  5
D58
330
A
100
AcDbEntity
  8
Hawa6
 62
     3
 48
0.087549
100
AcDbLine
 10
128.249315
 20
177.249087
 30
0.0
 11
128.249315
 21
180.75104
 31
0.0
  0
LINE
  5
D59
330
A
100
AcDbEntity
  8
Hawa6
 62
     3
 48
0.082549
100
AcDbLine
 10
136.749315
 20
180.75104
 30
0.0
 11
136.749315
 21
177.449099
 31
0.0
  0
LINE
  5
D5A
330
A
100
AcDbEntity
  8
Hawa6
 62
     3
 48
0.075
100
AcDbLine
 10
128.249315
 20
180.75104
 30
0.0
 11
125.249315
 21
180.75104
 31
0.0
  0
LINE
  5
D5B
330
A
100
AcDbEntity
  8
Hawa6
 62
     3
 48
0.00375
100
AcDbLine
 10
125.249315
 20
166.250979
 30
0.0
 11
125.249315
 21
166.400973
 31
0.0
  0
LINE
  5
D5C
330
A
100
AcDbEntity
  8
Hawa6
 62
     3
 48
0.275003
100
AcDbLine
 10
125.249315
 20
169.750918
 30
0.0
 11
125.249315
 21
180.75104
 31
0.0
  0
LINE
  5
D5D
330
A
100
AcDbEntity
  8
Hawa6
 62
     3
 48
0.082549
100
AcDbLine
 10
138.249315
 20
180.75104
 30
0.0
 11
138.249315
 21
177.449099
 31
0.0
  0
LINE
  5
D5E
330
A
100
AcDbEntity
  8
Hawa6
 62
     3
 48
0.082549
100
AcDbLine
 10
139.249315
 20
177.449099
 30
0.0
 11
139.249315
 21
180.75104
 31
0.0
  0
LINE
  5
D5F
330
A
100
AcDbEntity
  8
Hawa6
 62
     3
 48
0.100001
100
AcDbLine
 10
121.249257
 20
180.75104
 30
0.0
 11
125.249315
 21
180.75104
 31
0.0
  0
LINE
  5
D60
330
A
100
AcDbEntity
  8
Hawa6
 62
     3
 48
0.099999
100
AcDbLine
 10
107.249315
 20
180.75104
 30
0.0
 11
111.249257
 21
180.75104
 31
0.0
  0
LINE
  5
D61
330
A
100
AcDbEntity
  8
Hawa6
 62
     3
 48
0.037496
100
AcDbLine
 10
122.747217
 20
184.25104
 30
0.0
 11
121.247373
 21
184.25104
 31
0.0
  0
LINE
  5
D62
330
A
100
AcDbEntity
  8
Hawa6
 62
     3
 48
0.037495
100
AcDbLine
 10
111.247373
 20
184.25104
 30
0.0
 11
109.747568
 21
184.25104
 31
0.0
  0
LINE
  5
D63
330
A
100
AcDbEntity
  8
Hawa6
 62
     3
 48
0.001323
100
AcDbLine
 10
116.632943
 20
218.351046
 30
0.0
 11
116.685853
 21
218.351046
 31
0.0
  0
LINE
  5
D64
330
A
100
AcDbEntity
  8
Hawa6
 62
     3
 48
0.005967
100
AcDbLine
 10
116.449315
 20
218.351046
 30
0.0
 11
116.687997
 21
218.351046
 31
0.0
  0
LINE
  5
D65
330
A
100
AcDbEntity
  8
Hawa6
 62
     3
 48
0.0425
100
AcDbLine
 10
120.949315
 20
216.851046
 30
0.0
 11
119.249315
 21
216.851046
 31
0.0
  0
LINE
  5
D66
330
A
100
AcDbEntity
  8
Hawa6
 62
     3
 48
0.053033
100
AcDbLine
 10
119.449315
 20
218.351046
 30
0.0
 11
120.949315
 21
216.851046
 31
0.0
  0
LINE
  5
D67
330
A
100
AcDbEntity
  8
Hawa6
 62
     3
 48
0.05108
100
AcDbLine
 10
120.949315
 20
216.851046
 30
0.0
 11
120.949315
 21
214.807833
 31
0.0
  0
LINE
  5
D68
330
A
100
AcDbEntity
  8
Hawa6
 62
     3
 48
0.051051
100
AcDbLine
 10
120.407815
 20
214.808993
 30
0.0
 11
120.407815
 21
216.851046
 31
0.0
  0
LINE
  5
D69
330
A
100
AcDbEntity
  8
Hawa6
 62
     3
 48
0.006441
100
AcDbLine
 10
115.791658
 20
218.351046
 30
0.0
 11
116.049314
 21
218.351046
 31
0.0
  0
LINE
  5
D6A
330
A
100
AcDbEntity
  8
Hawa6
 62
     3
 48
0.042277
100
AcDbLine
 10
113.240407
 20
216.851046
 30
0.0
 11
111.549314
 21
216.851046
 31
0.0
  0
LINE
  5
D6B
330
A
100
AcDbEntity
  8
Hawa6
 62
     3
 48
0.05108
100
AcDbLine
 10
111.549314
 20
214.807833
 30
0.0
 11
111.549314
 21
216.851046
 31
0.0
  0
LINE
  5
D6C
330
A
100
AcDbEntity
  8
Hawa6
 62
     3
 48
0.053033
100
AcDbLine
 10
113.049314
 20
218.351046
 30
0.0
 11
111.549314
 21
216.851046
 31
0.0
  0
LINE
  5
D6D
330
A
100
AcDbEntity
  8
Hawa6
 62
     3
 48
0.051051
100
AcDbLine
 10
112.090814
 20
214.808993
 30
0.0
 11
112.090814
 21
216.851046
 31
0.0
  0
LINE
  5
D6E
330
A
100
AcDbEntity
  8
Hawa6
 62
     3
 48
0.042487
100
AcDbLine
 10
130.249315
 20
175.25104
 30
0.0
 11
131.948812
 21
175.25104
 31
0.0
  0
LINE
  5
D6F
330
A
100
AcDbEntity
  8
Hawa6
 62
     3
 48
0.095
100
AcDbLine
 10
98.44931899999998
 20
175.25104
 30
0.0
 11
102.249315
 21
175.25104
 31
0.0
  0
LINE
  5
D70
330
A
100
AcDbEntity
  8
Hawa6
 62
     3
 48
0.095
100
AcDbLine
 10
98.44931899999998
 20
166.25104
 30
0.0
 11
102.249315
 21
166.25104
 31
0.0
  0
LINE
  5
D71
330
A
100
AcDbEntity
  8
Hawa6
 62
     3
 48
0.225
100
AcDbLine
 10
102.249315
 20
175.25104
 30
0.0
 11
102.249315
 21
166.25104
 31
0.0
  0
LINE
  5
D72
330
A
100
AcDbEntity
  8
Hawa6
 62
     3
 48
0.225
100
AcDbLine
 10
98.44931899999998
 20
175.25104
 30
0.0
 11
98.44931899999998
 21
166.25104
 31
0.0
  0
LINE
  5
D73
330
A
100
AcDbEntity
  8
Hawa6
 62
     3
 48
0.095
100
AcDbLine
 10
130.249315
 20
175.25104
 30
0.0
 11
134.0493139999999
 21
175.25104
 31
0.0
  0
LINE
  5
D74
330
A
100
AcDbEntity
  8
Hawa6
 62
     3
 48
0.225
100
AcDbLine
 10
130.249315
 20
175.25104
 30
0.0
 11
130.249315
 21
166.25104
 31
0.0
  0
LINE
  5
D75
330
A
100
AcDbEntity
  8
Hawa6
 62
     3
 48
0.095
100
AcDbLine
 10
130.249315
 20
166.25104
 30
0.0
 11
134.0493139999999
 21
166.25104
 31
0.0
  0
LINE
  5
D76
330
A
100
AcDbEntity
  8
Hawa6
 62
     3
 48
0.225
100
AcDbLine
 10
134.0493139999999
 20
175.25104
 30
0.0
 11
134.0493139999999
 21
166.25104
 31
0.0
  0
LINE
  5
D77
330
A
100
AcDbEntity
  8
Hawa6
 62
     3
 48
0.012504
100
AcDbLine
 10
129.249315
 20
155.25104
 30
0.0
 11
128.749135
 21
155.25104
 31
0.0
  0
ARC
  5
D78
330
A
100
AcDbEntity
  8
Hawa6
 62
     3
100
AcDbCircle
 10
129.249315
 20
154.75104
 30
0.0
 40
0.5
100
AcDbArc
 50
0.0
 51
90.00000300000095
  0
LINE
  5
D79
330
A
100
AcDbEntity
  8
Hawa6
 62
     3
 48
0.025
100
AcDbLine
 10
129.749315
 20
153.75104
 30
0.0
 11
129.749315
 21
154.75104
 31
0.0
  0
ARC
  5
D7A
330
A
100
AcDbEntity
  8
Hawa6
 62
     3
100
AcDbCircle
 10
129.249315
 20
153.75104
 30
0.0
 40
0.5
100
AcDbArc
 50
270.0000010000014
 51
0.0000099566261208
  0
LINE
  5
D7B
330
A
100
AcDbEntity
  8
Hawa6
 62
     3
 48
0.012504
100
AcDbLine
 10
129.249315
 20
153.25104
 30
0.0
 11
128.749135
 21
153.25104
 31
0.0
  0
ARC
  5
D7C
330
A
100
AcDbEntity
  8
HAWA1
 62
     7
100
AcDbCircle
 10
139.649316
 20
164.551028
 30
0.0
 40
0.2
100
AcDbArc
 50
0.0
 51
90.00000300000095
  0
LINE
  5
D7D
330
A
100
AcDbEntity
  8
HAWA1
 48
0.01
100
AcDbLine
 10
139.249311
 20
164.7510399999999
 30
0.0
 11
139.649316
 21
164.7510399999999
 31
0.0
  0
LINE
  5
D7E
330
A
100
AcDbEntity
  8
Hawa6
 62
     3
 48
0.0625
100
AcDbLine
 10
139.249315
 20
175.146975
 30
0.0
 11
139.249315
 21
172.646975
 31
0.0
  0
LINE
  5
D7F
330
A
100
AcDbEntity
  8
Hawa6
 62
     3
 48
0.00045
100
AcDbLine
 10
139.249315
 20
172.646975
 30
0.0
 11
139.249315
 21
172.62897
 31
0.0
  0
LINE
  5
D80
330
A
100
AcDbEntity
  8
Hawa6
 62
     3
 48
0.00099
100
AcDbLine
 10
139.249315
 20
172.62897
 30
0.0
 11
139.249315
 21
172.589358
 31
0.0
  0
LINE
  5
D81
330
A
100
AcDbEntity
  8
Hawa6
 62
     3
 48
0.009546
100
AcDbLine
 10
139.249315
 20
169.152743
 30
0.0
 11
139.249315
 21
168.770907
 31
0.0
  0
LINE
  5
D82
330
A
100
AcDbEntity
  8
Hawa6
 62
     3
 48
0.007024
100
AcDbLine
 10
139.249315
 20
168.770907
 30
0.0
 11
139.249315
 21
168.489932
 31
0.0
  0
LINE
  5
D83
330
A
100
AcDbEntity
  8
Hawa6
 62
     3
 48
0.004233
100
AcDbLine
 10
139.249315
 20
168.489932
 30
0.0
 11
139.249315
 21
168.32062
 31
0.0
  0
LINE
  5
D84
330
A
100
AcDbEntity
  8
Hawa6
 62
     3
 48
0.001531
100
AcDbLine
 10
139.249315
 20
168.32062
 30
0.0
 11
139.249315
 21
168.259371
 31
0.0
  0
LINE
  5
D85
330
A
100
AcDbEntity
  8
Hawa6
 62
     3
 48
0.001351
100
AcDbLine
 10
139.249315
 20
170.892672
 30
0.0
 11
139.249315
 21
170.838626
 31
0.0
  0
LINE
  5
D86
330
A
100
AcDbEntity
  8
Hawa6
 62
     3
 48
0.003782
100
AcDbLine
 10
139.249315
 20
170.838626
 30
0.0
 11
139.249315
 21
170.68735
 31
0.0
  0
LINE
  5
D87
330
A
100
AcDbEntity
  8
Hawa6
 62
     3
 48
0.005854
100
AcDbLine
 10
139.249315
 20
170.68735
 30
0.0
 11
139.249315
 21
170.453189
 31
0.0
  0
LINE
  5
D88
330
A
100
AcDbEntity
  8
Hawa6
 62
     3
 48
0.007565
100
AcDbLine
 10
139.249315
 20
170.453189
 30
0.0
 11
139.249315
 21
170.150607
 31
0.0
  0
LINE
  5
D89
330
A
100
AcDbEntity
  8
Hawa6
 62
     3
 48
0.006754
100
AcDbLine
 10
139.249315
 20
170.150607
 30
0.0
 11
139.249315
 21
169.880435
 31
0.0
  0
LINE
  5
D8A
330
A
100
AcDbEntity
  8
Hawa6
 62
     3
 48
0.004594
100
AcDbLine
 10
139.249315
 20
169.880435
 30
0.0
 11
139.249315
 21
169.696688
 31
0.0
  0
LINE
  5
D8B
330
A
100
AcDbEntity
  8
Hawa6
 62
     3
 48
0.003062
100
AcDbLine
 10
139.249315
 20
169.696688
 30
0.0
 11
139.249315
 21
169.574221
 31
0.0
  0
LINE
  5
D8C
330
A
100
AcDbEntity
  8
Hawa6
 62
     3
 48
0.002341
100
AcDbLine
 10
139.249315
 20
169.574221
 30
0.0
 11
139.249315
 21
169.480563
 31
0.0
  0
LINE
  5
D8D
330
A
100
AcDbEntity
  8
Hawa6
 62
     3
 48
0.002071
100
AcDbLine
 10
139.249315
 20
169.480563
 30
0.0
 11
139.249315
 21
169.397708
 31
0.0
  0
LINE
  5
D8E
330
A
100
AcDbEntity
  8
Hawa6
 62
     3
 48
0.001981
100
AcDbLine
 10
139.249315
 20
169.397708
 30
0.0
 11
139.249315
 21
169.318453
 31
0.0
  0
LINE
  5
D8F
330
A
100
AcDbEntity
  8
Hawa6
 62
     3
 48
0.002882
100
AcDbLine
 10
139.249315
 20
169.318453
 30
0.0
 11
139.249315
 21
169.2031889999999
 31
0.0
  0
LINE
  5
D90
330
A
100
AcDbEntity
  8
Hawa6
 62
     3
 48
0.001261
100
AcDbLine
 10
139.249315
 20
169.2031889999999
 30
0.0
 11
139.249315
 21
169.152743
 31
0.0
  0
LINE
  5
D91
330
A
100
AcDbEntity
  8
Hawa6
 62
     3
 48
0.00054
100
AcDbLine
 10
139.249315
 20
170.914279
 30
0.0
 11
139.249315
 21
170.892672
 31
0.0
  0
LINE
  5
D92
330
A
100
AcDbEntity
  8
Hawa6
 62
     3
100
AcDbLine
 10
139.249315
 20
177.451052
 30
0.0
 11
139.249315
 21
153.451052
 31
0.0
  0
LINE
  5
D93
330
A
100
AcDbEntity
  8
Hawa6
 62
     3
 48
0.225
100
AcDbLine
 10
139.249315
 20
153.451052
 30
0.0
 11
130.249315
 21
153.451052
 31
0.0
  0
LINE
  5
D94
330
A
100
AcDbEntity
  8
Hawa6
 62
     3
 48
0.035355
100
AcDbLine
 10
138.249315
 20
176.451052
 30
0.0
 11
139.249315
 21
177.451052
 31
0.0
  0
LINE
  5
D95
330
A
100
AcDbEntity
  8
Hawa6
 62
     3
100
AcDbLine
 10
138.249315
 20
176.451052
 30
0.0
 11
138.249315
 21
154.451052
 31
0.0
  0
LINE
  5
D96
330
A
100
AcDbEntity
  8
Hawa6
 62
     3
 48
0.035355
100
AcDbLine
 10
138.249315
 20
154.451052
 30
0.0
 11
139.249315
 21
153.451052
 31
0.0
  0
LINE
  5
D97
330
A
100
AcDbEntity
  8
Hawa6
 62
     3
 48
0.0075
100
AcDbLine
 10
131.949315
 20
177.451052
 30
0.0
 11
132.249315
 21
177.451052
 31
0.0
  0
LINE
  5
D98
330
A
100
AcDbEntity
  8
Hawa6
 62
     3
 48
0.0275
100
AcDbLine
 10
133.349317
 20
177.451052
 30
0.0
 11
132.249315
 21
177.451052
 31
0.0
  0
LINE
  5
D99
330
A
100
AcDbEntity
  8
Hawa6
 62
     3
 48
0.015
100
AcDbLine
 10
133.349317
 20
177.451052
 30
0.0
 11
133.949315
 21
177.451052
 31
0.0
  0
LINE
  5
D9A
330
A
100
AcDbEntity
  8
Hawa6
 62
     3
 48
0.1325
100
AcDbLine
 10
133.949315
 20
177.451052
 30
0.0
 11
139.249315
 21
177.451052
 31
0.0
  0
LINE
  5
D9B
330
A
100
AcDbEntity
  8
Hawa6
 62
     3
 48
0.025
100
AcDbLine
 10
130.249315
 20
154.451052
 30
0.0
 11
130.249315
 21
153.451052
 31
0.0
  0
LINE
  5
D9C
330
A
100
AcDbEntity
  8
Hawa6
 62
     3
 48
0.014999
100
AcDbLine
 10
130.249315
 20
155.051028
 30
0.0
 11
130.249315
 21
154.451052
 31
0.0
  0
LINE
  5
D9D
330
A
100
AcDbEntity
  8
Hawa6
 62
     3
 48
0.2
100
AcDbLine
 10
138.249315
 20
154.451052
 30
0.0
 11
130.249315
 21
154.451052
 31
0.0
  0
LINE
  5
D9E
330
A
100
AcDbEntity
  8
Hawa6
 62
     3
 48
0.025
100
AcDbLine
 10
133.949315
 20
177.451052
 30
0.0
 11
133.949315
 21
176.451052
 31
0.0
  0
LINE
  5
D9F
330
A
100
AcDbEntity
  8
Hawa6
 62
     3
 48
0.1075
100
AcDbLine
 10
133.949315
 20
176.451052
 30
0.0
 11
138.249315
 21
176.451052
 31
0.0
  0
ARC
  5
DA0
330
A
100
AcDbEntity
  8
Hawa6
 62
     3
100
AcDbCircle
 10
133.749315
 20
155.551028
 30
0.0
 40
0.5
100
AcDbArc
 50
270.0000010000014
 51
0.0000099566261208
  0
LINE
  5
DA1
330
A
100
AcDbEntity
  8
Hawa6
 62
     3
 48
0.0875
100
AcDbLine
 10
133.749315
 20
155.051028
 30
0.0
 11
130.249315
 21
155.051028
 31
0.0
  0
LINE
  5
DA2
330
A
100
AcDbEntity
  8
Hawa6
 62
     3
 48
0.030004
100
AcDbLine
 10
133.949315
 20
176.451052
 30
0.0
 11
133.949315
 21
175.2508879999999
 31
0.0
  0
LINE
  5
DA3
330
A
100
AcDbEntity
  8
Hawa6
 62
     3
 48
0.019996
100
AcDbLine
 10
133.949315
 20
166.250888
 30
0.0
 11
133.949315
 21
165.451052
 31
0.0
  0
LINE
  5
DA4
330
A
100
AcDbEntity
  8
Hawa6
 62
     3
 48
0.001044
100
AcDbLine
 10
133.949315
 20
165.409304
 30
0.0
 11
133.949315
 21
165.451052
 31
0.0
  0
ARC
  5
DA5
330
A
100
AcDbEntity
  8
Hawa6
 62
     3
100
AcDbCircle
 10
133.749315
 20
164.951052
 30
0.0
 40
0.5
100
AcDbArc
 50
0.0
 51
66.42182099999793
  0
LINE
  5
DA6
330
A
100
AcDbEntity
  8
Hawa6
 62
     3
 48
0.235001
100
AcDbLine
 10
134.249315
 20
155.551028
 30
0.0
 11
134.249315
 21
164.951052
 31
0.0
  0
LINE
  5
DA7
330
A
100
AcDbEntity
  8
Hawa6
 62
     3
 48
0.055004
100
AcDbLine
 10
131.949315
 20
177.451052
 30
0.0
 11
131.949315
 21
175.2508879999999
 31
0.0
  0
LINE
  5
DA8
330
A
100
AcDbEntity
  8
Hawa6
 62
     3
 48
0.019996
100
AcDbLine
 10
131.949315
 20
166.250888
 30
0.0
 11
131.949315
 21
165.451052
 31
0.0
  0
ARC
  5
DA9
330
A
100
AcDbEntity
  8
Hawa6
 62
     3
100
AcDbCircle
 10
133.749315
 20
164.951052
 30
0.0
 40
0.5
100
AcDbArc
 50
66.42184200000146
 51
90.00000300000095
  0
LINE
  5
DAA
330
A
100
AcDbEntity
  8
Hawa6
 62
     3
 48
0.01
100
AcDbLine
 10
133.749315
 20
165.451052
 30
0.0
 11
133.349317
 21
165.451052
 31
0.0
  0
LINE
  5
DAB
330
A
100
AcDbEntity
  8
Hawa6
 62
     3
 48
0.019996
100
AcDbLine
 10
133.349317
 20
166.250888
 30
0.0
 11
133.349317
 21
165.451052
 31
0.0
  0
LINE
  5
DAC
330
A
100
AcDbEntity
  8
Hawa6
 62
     3
 48
0.055004
100
AcDbLine
 10
133.349317
 20
177.451052
 30
0.0
 11
133.349317
 21
175.2508879999999
 31
0.0
  0
LINE
  5
DAD
330
A
100
AcDbEntity
  8
Hawa6
 62
     3
 48
0.0275
100
AcDbLine
 10
133.349317
 20
165.451052
 30
0.0
 11
132.249315
 21
165.451052
 31
0.0
  0
LINE
  5
DAE
330
A
100
AcDbEntity
  8
Hawa6
 62
     3
 48
0.055004
100
AcDbLine
 10
132.249315
 20
177.451052
 30
0.0
 11
132.249315
 21
175.2508879999999
 31
0.0
  0
LINE
  5
DAF
330
A
100
AcDbEntity
  8
Hawa6
 62
     3
 48
0.019996
100
AcDbLine
 10
132.249315
 20
166.250888
 30
0.0
 11
132.249315
 21
165.451052
 31
0.0
  0
LINE
  5
DB0
330
A
100
AcDbEntity
  8
Hawa6
 62
     3
 48
0.0075
100
AcDbLine
 10
132.249315
 20
165.451052
 30
0.0
 11
131.949315
 21
165.451052
 31
0.0
  0
LINE
  5
DB1
330
A
100
AcDbEntity
  8
Hawa6
 62
     3
 48
0.164999
100
AcDbLine
 10
139.849317
 20
157.951052
 30
0.0
 11
139.849317
 21
164.551028
 31
0.0
  0
ARC
  5
DB2
330
A
100
AcDbEntity
  8
Hawa6
 62
     3
100
AcDbCircle
 10
139.649316
 20
164.551028
 30
0.0
 40
0.2
100
AcDbArc
 50
0.0
 51
90.00000300000095
  0
LINE
  5
DB3
330
A
100
AcDbEntity
  8
Hawa6
 62
     3
 48
0.175
100
AcDbLine
 10
139.649316
 20
157.75104
 30
0.0
 11
139.649316
 21
164.7510399999999
 31
0.0
  0
ARC
  5
DB4
330
A
100
AcDbEntity
  8
Hawa6
 62
     3
100
AcDbCircle
 10
139.649316
 20
157.951052
 30
0.0
 40
0.2
100
AcDbArc
 50
270.000001000003
 51
0.0000099566261208
  0
LINE
  5
DB5
330
A
100
AcDbEntity
  8
Hawa6
 62
     3
 48
0.01
100
AcDbLine
 10
139.249311
 20
164.7510399999999
 30
0.0
 11
139.649316
 21
164.7510399999999
 31
0.0
  0
LINE
  5
DB6
330
A
100
AcDbEntity
  8
Hawa6
 62
     3
 48
0.01
100
AcDbLine
 10
139.249311
 20
157.75104
 30
0.0
 11
139.649316
 21
157.75104
 31
0.0
  0
LINE
  5
DB7
330
A
100
AcDbEntity
  8
Hawa6
 62
     3
 48
0.225
100
AcDbLine
 10
134.249315
 20
164.7510399999999
 30
0.0
 11
134.249315
 21
155.75104
 31
0.0
  0
LINE
  5
DB8
330
A
100
AcDbEntity
  8
Hawa6
 62
     3
 48
0.275004
100
AcDbLine
 10
127.249315
 20
166.250888
 30
0.0
 11
127.249315
 21
177.2510399999999
 31
0.0
  0
ARC
  5
DB9
330
A
100
AcDbEntity
  8
Hawa6
 62
     3
100
AcDbCircle
 10
133.749315
 20
155.75104
 30
0.0
 40
0.5
100
AcDbArc
 50
270.0000010000014
 51
0.0000099566261208
  0
LINE
  5
DBA
330
A
100
AcDbEntity
  8
Hawa6
 62
     3
 48
0.125004
100
AcDbLine
 10
133.749315
 20
155.25104
 30
0.0
 11
128.749135
 21
155.25104
 31
0.0
  0
LINE
  5
DBB
330
A
100
AcDbEntity
  8
Hawa6
 62
     3
 48
0.075
100
AcDbLine
 10
127.249315
 20
177.2510399999999
 30
0.0
 11
130.249315
 21
177.2510399999999
 31
0.0
  0
LINE
  5
DBC
330
A
100
AcDbEntity
  8
Hawa6
 62
     3
 48
0.050004
100
AcDbLine
 10
130.249315
 20
177.2510399999999
 30
0.0
 11
130.249315
 21
175.2508879999999
 31
0.0
  0
LINE
  5
DBD
330
A
100
AcDbEntity
  8
Hawa6
 62
     3
 48
0.012496
100
AcDbLine
 10
130.249315
 20
166.250888
 30
0.0
 11
130.249315
 21
165.75104
 31
0.0
  0
ARC
  5
DBE
330
A
100
AcDbEntity
  8
Hawa6
 62
     3
100
AcDbCircle
 10
130.749315
 20
165.75104
 30
0.0
 40
0.5
100
AcDbArc
 50
180.0000049783131
 51
270.0000010000014
  0
LINE
  5
DBF
330
A
100
AcDbEntity
  8
Hawa6
 62
     3
 48
0.075
100
AcDbLine
 10
130.749315
 20
165.25104
 30
0.0
 11
133.749315
 21
165.25104
 31
0.0
  0
ARC
  5
DC0
330
A
100
AcDbEntity
  8
Hawa6
 62
     3
100
AcDbCircle
 10
133.749315
 20
164.7510399999999
 30
0.0
 40
0.5
100
AcDbArc
 50
0.0
 51
90.00000300000095
  0
LINE
  5
DC1
330
A
100
AcDbEntity
  8
Hawa6
 62
     3
 48
0.012456
100
AcDbLine
 10
103.249315
 20
155.25104
 30
0.0
 11
103.747552
 21
155.25104
 31
0.0
  0
ARC
  5
DC2
330
A
100
AcDbEntity
  8
Hawa6
 62
     3
100
AcDbCircle
 10
103.249315
 20
154.75104
 30
0.0
 40
0.5
100
AcDbArc
 50
90.0000029999993
 51
180.0000049783131
  0
LINE
  5
DC3
330
A
100
AcDbEntity
  8
Hawa6
 62
     3
 48
0.025
100
AcDbLine
 10
102.749315
 20
153.75104
 30
0.0
 11
102.749315
 21
154.75104
 31
0.0
  0
ARC
  5
DC4
330
A
100
AcDbEntity
  8
Hawa6
 62
     3
100
AcDbCircle
 10
103.249315
 20
153.75104
 30
0.0
 40
0.5
100
AcDbArc
 50
180.0000049783131
 51
270.0000009999998
  0
LINE
  5
DC5
330
A
100
AcDbEntity
  8
Hawa6
 62
     3
 48
0.012495
100
AcDbLine
 10
103.249315
 20
153.25104
 30
0.0
 11
103.749101
 21
153.25104
 31
0.0
  0
LINE
  5
DC6
330
A
100
AcDbEntity
  8
Hawa6
 62
     3
 48
0.1325
100
AcDbLine
 10
98.54931800000001
 20
177.451052
 30
0.0
 11
93.24931499999999
 21
177.451052
 31
0.0
  0
LINE
  5
DC7
330
A
100
AcDbEntity
  8
Hawa6
 62
     3
 48
0.015
100
AcDbLine
 10
98.54931800000001
 20
177.451052
 30
0.0
 11
99.149316
 21
177.451052
 31
0.0
  0
LINE
  5
DC8
330
A
100
AcDbEntity
  8
Hawa6
 62
     3
 48
0.0275
100
AcDbLine
 10
100.249315
 20
177.451052
 30
0.0
 11
99.149316
 21
177.451052
 31
0.0
  0
LINE
  5
DC9
330
A
100
AcDbEntity
  8
Hawa6
 62
     3
 48
0.0075
100
AcDbLine
 10
100.249315
 20
177.451052
 30
0.0
 11
100.549318
 21
177.451052
 31
0.0
  0
LINE
  5
DCA
330
A
100
AcDbEntity
  8
Hawa6
 62
     3
 48
0.035355
100
AcDbLine
 10
94.24931499999999
 20
176.451052
 30
0.0
 11
93.24931499999999
 21
177.451052
 31
0.0
  0
LINE
  5
DCB
330
A
100
AcDbEntity
  8
Hawa6
 62
     3
100
AcDbLine
 10
93.24931499999999
 20
177.451052
 30
0.0
 11
93.24931499999999
 21
153.451052
 31
0.0
  0
LINE
  5
DCC
330
A
100
AcDbEntity
  8
Hawa6
 62
     3
 48
0.035355
100
AcDbLine
 10
93.24931499999999
 20
153.451052
 30
0.0
 11
94.24931499999999
 21
154.451052
 31
0.0
  0
LINE
  5
DCD
330
A
100
AcDbEntity
  8
Hawa6
 62
     3
100
AcDbLine
 10
94.24931499999999
 20
176.451052
 30
0.0
 11
94.24931499999999
 21
154.451052
 31
0.0
  0
LINE
  5
DCE
330
A
100
AcDbEntity
  8
Hawa6
 62
     3
 48
0.055048
100
AcDbLine
 10
100.549318
 20
177.451052
 30
0.0
 11
100.549318
 21
175.249148
 31
0.0
  0
LINE
  5
DCF
330
A
100
AcDbEntity
  8
Hawa6
 62
     3
 48
0.019952
100
AcDbLine
 10
100.549318
 20
166.249148
 30
0.0
 11
100.549318
 21
165.451052
 31
0.0
  0
ARC
  5
DD0
330
A
100
AcDbEntity
  8
Hawa6
 62
     3
100
AcDbCircle
 10
98.749315
 20
164.951052
 30
0.0
 40
0.5
100
AcDbArc
 50
90.0000029999993
 51
113.5781570000001
  0
LINE
  5
DD1
330
A
100
AcDbEntity
  8
Hawa6
 62
     3
 48
0.019952
100
AcDbLine
 10
99.149316
 20
166.249148
 30
0.0
 11
99.149316
 21
165.451052
 31
0.0
  0
LINE
  5
DD2
330
A
100
AcDbEntity
  8
Hawa6
 62
     3
 48
0.055048
100
AcDbLine
 10
99.149316
 20
177.451052
 30
0.0
 11
99.149316
 21
175.249148
 31
0.0
  0
LINE
  5
DD3
330
A
100
AcDbEntity
  8
Hawa6
 62
     3
 48
0.01
100
AcDbLine
 10
99.149316
 20
165.451052
 30
0.0
 11
98.749315
 21
165.451052
 31
0.0
  0
LINE
  5
DD4
330
A
100
AcDbEntity
  8
Hawa6
 62
     3
 48
0.1075
100
AcDbLine
 10
98.54931800000001
 20
176.451052
 30
0.0
 11
94.24931499999999
 21
176.451052
 31
0.0
  0
LINE
  5
DD5
330
A
100
AcDbEntity
  8
Hawa6
 62
     3
 48
0.025
100
AcDbLine
 10
98.54931800000001
 20
176.451052
 30
0.0
 11
98.54931800000001
 21
177.451052
 31
0.0
  0
LINE
  5
DD6
330
A
100
AcDbEntity
  8
Hawa6
 62
     3
 48
0.225
100
AcDbLine
 10
93.24931499999999
 20
153.451052
 30
0.0
 11
102.249315
 21
153.451052
 31
0.0
  0
LINE
  5
DD7
330
A
100
AcDbEntity
  8
Hawa6
 62
     3
 48
0.025
100
AcDbLine
 10
102.249315
 20
153.451052
 30
0.0
 11
102.249315
 21
154.451052
 31
0.0
  0
LINE
  5
DD8
330
A
100
AcDbEntity
  8
Hawa6
 62
     3
 48
0.2
100
AcDbLine
 10
94.24931499999999
 20
154.451052
 30
0.0
 11
102.249315
 21
154.451052
 31
0.0
  0
ARC
  5
DD9
330
A
100
AcDbEntity
  8
Hawa6
 62
     3
100
AcDbCircle
 10
98.749315
 20
155.551028
 30
0.0
 40
0.5
100
AcDbArc
 50
180.0000049783131
 51
270.0000009999998
  0
LINE
  5
DDA
330
A
100
AcDbEntity
  8
Hawa6
 62
     3
 48
0.0875
100
AcDbLine
 10
98.749315
 20
155.051028
 30
0.0
 11
102.249315
 21
155.051028
 31
0.0
  0
LINE
  5
DDB
330
A
100
AcDbEntity
  8
Hawa6
 62
     3
 48
0.014999
100
AcDbLine
 10
102.249315
 20
155.051028
 30
0.0
 11
102.249315
 21
154.451052
 31
0.0
  0
LINE
  5
DDC
330
A
100
AcDbEntity
  8
Hawa6
 62
     3
 48
0.030048
100
AcDbLine
 10
98.54931800000001
 20
176.451052
 30
0.0
 11
98.54931800000001
 21
175.249148
 31
0.0
  0
LINE
  5
DDD
330
A
100
AcDbEntity
  8
Hawa6
 62
     3
 48
0.019952
100
AcDbLine
 10
98.54931800000001
 20
166.249148
 30
0.0
 11
98.54931800000001
 21
165.451052
 31
0.0
  0
LINE
  5
DDE
330
A
100
AcDbEntity
  8
Hawa6
 62
     3
 48
0.001044
100
AcDbLine
 10
98.54931800000001
 20
165.409304
 30
0.0
 11
98.54931800000001
 21
165.451052
 31
0.0
  0
ARC
  5
DDF
330
A
100
AcDbEntity
  8
Hawa6
 62
     3
100
AcDbCircle
 10
98.749315
 20
164.951052
 30
0.0
 40
0.5
100
AcDbArc
 50
113.5781760000011
 51
180.0000049783131
  0
LINE
  5
DE0
330
A
100
AcDbEntity
  8
Hawa6
 62
     3
 48
0.004897
100
AcDbLine
 10
98.24931499999999
 20
164.755191
 30
0.0
 11
98.24931499999999
 21
164.951052
 31
0.0
  0
LINE
  5
DE1
330
A
100
AcDbEntity
  8
Hawa6
 62
     3
 48
0.004895
100
AcDbLine
 10
98.24931499999999
 20
155.551028
 30
0.0
 11
98.24931499999999
 21
155.746829
 31
0.0
  0
LINE
  5
DE2
330
A
100
AcDbEntity
  8
Hawa6
 62
     3
 48
0.0075
100
AcDbLine
 10
100.549318
 20
165.451052
 30
0.0
 11
100.249315
 21
165.451052
 31
0.0
  0
LINE
  5
DE3
330
A
100
AcDbEntity
  8
Hawa6
 62
     3
 48
0.0275
100
AcDbLine
 10
100.249315
 20
165.451052
 30
0.0
 11
99.149316
 21
165.451052
 31
0.0
  0
LINE
  5
DE4
330
A
100
AcDbEntity
  8
Hawa6
 62
     3
 48
0.055048
100
AcDbLine
 10
100.249315
 20
177.451052
 30
0.0
 11
100.249315
 21
175.249148
 31
0.0
  0
LINE
  5
DE5
330
A
100
AcDbEntity
  8
Hawa6
 62
     3
 48
0.019952
100
AcDbLine
 10
100.249315
 20
166.249148
 30
0.0
 11
100.249315
 21
165.451052
 31
0.0
  0
LINE
  5
DE6
330
A
100
AcDbEntity
  8
Hawa6
 62
     3
 48
0.066713
100
AcDbLine
 10
97.249315
 20
160.082522
 30
0.0
 11
97.249315
 21
162.75104
 31
0.0
  0
LINE
  5
DE7
330
A
100
AcDbEntity
  8
Hawa6
 62
     3
 48
0.008287
100
AcDbLine
 10
97.249315
 20
159.75104
 30
0.0
 11
97.249315
 21
160.082522
 31
0.0
  0
LINE
  5
DE8
330
A
100
AcDbEntity
  8
Hawa6
 62
     3
 48
0.088951
100
AcDbLine
 10
97.749315
 20
159.692996
 30
0.0
 11
97.749315
 21
163.25104
 31
0.0
  0
LINE
  5
DE9
330
A
100
AcDbEntity
  8
Hawa6
 62
     3
 48
0.011049
100
AcDbLine
 10
97.749315
 20
159.25104
 30
0.0
 11
97.749315
 21
159.692996
 31
0.0
  0
LINE
  5
DEA
330
A
100
AcDbEntity
  8
Hawa6
 62
     3
 48
0.0125
100
AcDbLine
 10
97.749315
 20
163.25104
 30
0.0
 11
98.24931499999999
 21
163.25104
 31
0.0
  0
LINE
  5
DEB
330
A
100
AcDbEntity
  8
Hawa6
 62
     3
 48
0.0125
100
AcDbLine
 10
97.749315
 20
159.25104
 30
0.0
 11
98.24931499999999
 21
159.25104
 31
0.0
  0
LINE
  5
DEC
330
A
100
AcDbEntity
  8
Hawa6
 62
     3
 48
0.017678
100
AcDbLine
 10
97.249315
 20
159.75104
 30
0.0
 11
97.749315
 21
159.25104
 31
0.0
  0
LINE
  5
DED
330
A
100
AcDbEntity
  8
Hawa6
 62
     3
 48
0.017678
100
AcDbLine
 10
97.249315
 20
162.75104
 30
0.0
 11
97.749315
 21
163.25104
 31
0.0
  0
LINE
  5
DEE
330
A
100
AcDbEntity
  8
Hawa6
 62
     3
 48
0.0125
100
AcDbLine
 10
97.749315
 20
159.630038
 30
0.0
 11
98.24931499999999
 21
159.630038
 31
0.0
  0
LINE
  5
DEF
330
A
100
AcDbEntity
  8
Hawa6
 62
     3
 48
0.0125
100
AcDbLine
 10
97.749315
 20
162.872042
 30
0.0
 11
98.24931499999999
 21
162.872042
 31
0.0
  0
LINE
  5
DF0
330
A
100
AcDbEntity
  8
Hawa6
 62
     3
 48
0.225
100
AcDbLine
 10
98.24931499999999
 20
164.7510399999999
 30
0.0
 11
98.24931499999999
 21
155.75104
 31
0.0
  0
LINE
  5
DF1
330
A
100
AcDbEntity
  8
Hawa6
 62
     3
 48
0.174993
100
AcDbLine
 10
105.249315
 20
173.25104
 30
0.0
 11
105.249315
 21
166.251315
 31
0.0
  0
LINE
  5
DF2
330
A
100
AcDbEntity
  8
Hawa6
 62
     3
 48
0.1
100
AcDbLine
 10
105.249315
 20
177.2510399999999
 30
0.0
 11
105.249315
 21
173.25104
 31
0.0
  0
ARC
  5
DF3
330
A
100
AcDbEntity
  8
Hawa6
 62
     3
100
AcDbCircle
 10
98.749315
 20
164.7510399999999
 30
0.0
 40
0.5
100
AcDbArc
 50
90.0000029999993
 51
180.0000049783131
  0
LINE
  5
DF4
330
A
100
AcDbEntity
  8
Hawa6
 62
     3
 48
0.049996
100
AcDbLine
 10
101.749315
 20
165.25104
 30
0.0
 11
103.749139
 21
165.25104
 31
0.0
  0
LINE
  5
DF5
330
A
100
AcDbEntity
  8
Hawa6
 62
     3
 48
0.075
100
AcDbLine
 10
101.749315
 20
165.25104
 30
0.0
 11
98.749315
 21
165.25104
 31
0.0
  0
LINE
  5
DF6
330
A
100
AcDbEntity
  8
Hawa6
 62
     3
 48
0.075
100
AcDbLine
 10
102.249315
 20
173.25104
 30
0.0
 11
105.249315
 21
173.25104
 31
0.0
  0
LINE
  5
DF7
330
A
100
AcDbEntity
  8
Hawa6
 62
     3
 48
0.1875
100
AcDbLine
 10
102.249315
 20
165.75104
 30
0.0
 11
102.249315
 21
173.25104
 31
0.0
  0
ARC
  5
DF8
330
A
100
AcDbEntity
  8
Hawa6
 62
     3
100
AcDbCircle
 10
101.749315
 20
165.75104
 30
0.0
 40
0.5
100
AcDbArc
 50
269.9999970000007
 51
0.0
  0
LINE
  5
DF9
330
A
100
AcDbEntity
  8
Hawa6
 62
     3
 48
0.1
100
AcDbLine
 10
102.249315
 20
177.2510399999999
 30
0.0
 11
102.249315
 21
173.25104
 31
0.0
  0
LINE
  5
DFA
330
A
100
AcDbEntity
  8
Hawa6
 62
     3
 48
0.075
100
AcDbLine
 10
102.249315
 20
177.2510399999999
 30
0.0
 11
105.249315
 21
177.2510399999999
 31
0.0
  0
LINE
  5
DFB
330
A
100
AcDbEntity
  8
Hawa6
 62
     3
 48
0.124956
100
AcDbLine
 10
98.749315
 20
155.25104
 30
0.0
 11
103.74756
 21
155.25104
 31
0.0
  0
ARC
  5
DFC
330
A
100
AcDbEntity
  8
Hawa6
 62
     3
100
AcDbCircle
 10
98.749315
 20
155.75104
 30
0.0
 40
0.5
100
AcDbArc
 50
180.0000049783131
 51
270.0000009999998
  0
LINE
  5
DFD
330
A
100
AcDbEntity
  8
Hawa6
 62
     3
 48
0.001485
100
AcDbLine
 10
106.247766
 20
208.74808
 30
0.0
 11
106.248269
 21
208.807467
 31
0.0
  0
LINE
  5
DFE
330
A
100
AcDbEntity
  8
Hawa6
 62
     3
 48
0.003925
100
AcDbLine
 10
106.247766
 20
184.450076
 30
0.0
 11
106.247766
 21
184.293063
 31
0.0
  0
ELLIPSE
  5
DFF
330
A
100
AcDbEntity
  8
Hawa6
 62
     3
100
AcDbEllipse
 10
51.24931500000001
 20
217.25928
 30
0.0
 11
-60.0
 21
-0.0000052453669923
 31
0.0
210
0.0
220
0.0
230
0.9999999999999996
 40
0.309017
 41
2.947298765182495
 42
2.971663236618041
  0
ELLIPSE
  5
E00
330
A
100
AcDbEntity
  8
Hawa6
 62
     3
100
AcDbEllipse
 10
181.249316
 20
217.25928
 30
0.0
 11
-60.0
 21
-0.0000052453669923
 31
0.0
210
0.0
220
0.0
230
0.9999999999999996
 40
0.309017
 41
0.1699293106794357
 42
0.1943304389715195
  0
LINE
  5
E01
330
A
100
AcDbEntity
  8
Hawa6
 62
     3
 48
0.002911
100
AcDbLine
 10
126.250863
 20
208.74808
 30
0.0
 11
126.248926
 21
208.864505
 31
0.0
  0
LINE
  5
E02
330
A
100
AcDbEntity
  8
Hawa6
 62
     3
 48
0.04635
100
AcDbLine
 10
122.113511
 20
214.123782
 30
0.0
 11
122.113511
 21
212.269778
 31
0.0
  0
LINE
  5
E03
330
A
100
AcDbEntity
  8
Hawa6
 62
     3
 48
0.006182
100
AcDbLine
 10
122.046499
 20
212.221652
 30
0.0
 11
121.799222
 21
212.221652
 31
0.0
  0
LINE
  5
E04
330
A
100
AcDbEntity
  8
Hawa6
 62
     3
 48
0.013748
100
AcDbLine
 10
121.799222
 20
212.221652
 30
0.0
 11
121.249296
 21
212.221652
 31
0.0
  0
LINE
  5
E05
330
A
100
AcDbEntity
  8
Hawa6
 62
     3
 48
0.013747
100
AcDbLine
 10
111.249296
 20
212.221652
 30
0.0
 11
110.699407
 21
212.221652
 31
0.0
  0
LINE
  5
E06
330
A
100
AcDbEntity
  8
Hawa6
 62
     3
 48
0.006233
100
AcDbLine
 10
110.699407
 20
212.221652
 30
0.0
 11
110.450097
 21
212.221652
 31
0.0
  0
LINE
  5
E07
330
A
100
AcDbEntity
  8
Hawa6
 62
     3
 48
0.000488
100
AcDbLine
 10
126.060171
 20
184.25104
 30
0.0
 11
126.079706
 21
184.25104
 31
0.0
  0
LINE
  5
E08
330
A
100
AcDbEntity
  8
Hawa6
 62
     3
 48
0.003905
100
AcDbLine
 10
126.250863
 20
184.293856
 30
0.0
 11
126.250863
 21
184.450076
 31
0.0
  0
LINE
  5
E09
330
A
100
AcDbEntity
  8
Hawa6
 62
     3
 48
0.000052
100
AcDbLine
 10
126.250863
 20
190.0451379999999
 30
0.0
 11
126.248784
 21
190.0451379999999
 31
0.0
  0
LWPOLYLINE
  5
E0A
330
A
100
AcDbEntity
  8
Hawa6
 62
     3
100
AcDbPolyline
 90
        5
 70
     0
 43
0.0
 10
110.404779
 20
212.254092
 10
110.651548
 20
212.607485
 10
110.808835
 20
212.758364
 10
110.900422
 20
212.803347
 10
110.942228
 20
212.808993
  0
LWPOLYLINE
  5
E0B
330
A
100
AcDbEntity
  8
Hawa6
 62
     3
100
AcDbPolyline
 90
        5
 70
     0
 43
0.0
 10
121.556402
 20
212.808993
 10
121.642667
 20
212.786471
 10
121.791982
 20
212.668826
 10
122.028154
 20
212.358493
 10
122.093801
 20
212.254153
  0
LINE
  5
E0C
330
A
100
AcDbEntity
  8
Hawa6
 62
     3
 48
0.007677
100
AcDbLine
 10
110.942228
 20
214.808993
 30
0.0
 11
111.249315
 21
214.808993
 31
0.0
  0
LINE
  5
E0D
330
A
100
AcDbEntity
  8
Hawa6
 62
     3
 48
0.007677
100
AcDbLine
 10
121.249315
 20
214.808993
 30
0.0
 11
121.556402
 21
214.808993
 31
0.0
  0
LINE
  5
E0E
330
A
100
AcDbEntity
  8
Hawa6
 62
     3
 48
0.061663
100
AcDbLine
 10
111.249315
 20
214.808993
 30
0.0
 11
113.715818
 21
214.808993
 31
0.0
  0
LINE
  5
E0F
330
A
100
AcDbEntity
  8
Hawa6
 62
     3
 48
0.061703
100
AcDbLine
 10
118.781213
 20
214.808993
 30
0.0
 11
121.249315
 21
214.808993
 31
0.0
  0
LINE
  5
E10
330
A
100
AcDbEntity
  8
Hawa6
 62
     3
 48
0.01713
100
AcDbLine
 10
111.249315
 20
214.808993
 30
0.0
 11
111.249315
 21
214.123782
 31
0.0
  0
LINE
  5
E11
330
A
100
AcDbEntity
  8
Hawa6
 62
     3
 48
0.01713
100
AcDbLine
 10
121.249315
 20
214.123782
 30
0.0
 11
121.249315
 21
214.808993
 31
0.0
  0
LINE
  5
E12
330
A
100
AcDbEntity
  8
Hawa6
 62
     3
 48
0.028357
100
AcDbLine
 10
111.249315
 20
214.123782
 30
0.0
 11
112.383603
 21
214.123782
 31
0.0
  0
LINE
  5
E13
330
A
100
AcDbEntity
  8
Hawa6
 62
     3
 48
0.028357
100
AcDbLine
 10
120.11503
 20
214.123782
 30
0.0
 11
121.249315
 21
214.123782
 31
0.0
  0
LINE
  5
E14
330
A
100
AcDbEntity
  8
Hawa6
 62
     3
 48
0.039414
100
AcDbLine
 10
111.249315
 20
212.547213
 30
0.0
 11
111.249315
 21
214.123782
 31
0.0
  0
LINE
  5
E15
330
A
100
AcDbEntity
  8
Hawa6
 62
     3
 48
0.039414
100
AcDbLine
 10
121.249315
 20
214.123782
 30
0.0
 11
121.249315
 21
212.547213
 31
0.0
  0
LINE
  5
E16
330
A
100
AcDbEntity
  8
Hawa6
 62
     3
 48
0.000081
100
AcDbLine
 10
111.249315
 20
212.547213
 30
0.0
 11
111.252561
 21
212.547213
 31
0.0
  0
LWPOLYLINE
  5
E17
330
A
100
AcDbEntity
  8
Hawa6
 62
     3
100
AcDbPolyline
 90
        3
 70
     0
 43
0.0
 10
111.362523
 20
212.852053
 10
111.259538
 20
212.582644
 10
111.249315
 20
212.509829
  0
LINE
  5
E18
330
A
100
AcDbEntity
  8
Hawa6
 62
     3
 48
0.00093
100
AcDbLine
 10
111.249315
 20
212.510012
 30
0.0
 11
111.249315
 21
212.547213
 31
0.0
  0
LINE
  5
E19
330
A
100
AcDbEntity
  8
Hawa6
 62
     3
 48
0.002448
100
AcDbLine
 10
121.249315
 20
212.449313
 30
0.0
 11
121.249315
 21
212.547213
 31
0.0
  0
LWPOLYLINE
  5
E1A
330
A
100
AcDbEntity
  8
Hawa6
 62
     3
100
AcDbPolyline
 90
        3
 70
     0
 43
0.0
 10
121.249315
 20
212.509829
 10
121.231145
 20
212.612948
 10
121.136106
 20
212.852053
  0
ELLIPSE
  5
E1B
330
A
100
AcDbEntity
  8
Hawa6
 62
     3
100
AcDbEllipse
 10
116.249315
 20
212.215365
 30
0.0
 11
-4.999999999999999
 21
-0.0000004371138971
 31
0.0
210
0.0
220
0.0
230
0.9999999999999996
 40
0.6018150000000002
 41
3.354795694351196
 42
6.069982051849365
  0
ELLIPSE
  5
E1C
330
A
100
AcDbEntity
  8
Hawa6
 62
     3
100
AcDbEllipse
 10
116.249315
 20
210.618075
 30
0.0
 11
-4.999999999999999
 21
-0.0000004371138971
 31
0.0
210
0.0
220
0.0
230
0.9999999999999996
 40
0.6018150000000002
 41
3.676014423370361
 42
5.750837326049804
  0
LINE
  5
E1D
330
A
100
AcDbEntity
  8
Hawa6
 62
     3
 48
0.017548
100
AcDbLine
 10
111.362523
 20
212.852053
 30
0.0
 11
111.362523
 21
212.150119
 31
0.0
  0
LINE
  5
E1E
330
A
100
AcDbEntity
  8
Hawa6
 62
     3
 48
0.017548
100
AcDbLine
 10
121.136106
 20
212.852053
 30
0.0
 11
121.136106
 21
212.150119
 31
0.0
  0
LINE
  5
E1F
330
A
100
AcDbEntity
  8
Hawa6
 62
     3
 48
0.008993
100
AcDbLine
 10
121.249315
 20
212.150119
 30
0.0
 11
121.249315
 21
212.509829
 31
0.0
  0
LINE
  5
E20
330
A
100
AcDbEntity
  8
Hawa6
 62
     3
 48
0.008993
100
AcDbLine
 10
111.249315
 20
212.150119
 30
0.0
 11
111.249315
 21
212.509829
 31
0.0
  0
LINE
  5
E21
330
A
100
AcDbEntity
  8
Hawa6
 62
     3
 48
0.007677
100
AcDbLine
 10
121.249315
 20
212.808993
 30
0.0
 11
121.556402
 21
212.808993
 31
0.0
  0
LINE
  5
E22
330
A
100
AcDbEntity
  8
Hawa6
 62
     3
 48
0.007677
100
AcDbLine
 10
110.942228
 20
212.808993
 30
0.0
 11
111.249315
 21
212.808993
 31
0.0
  0
LINE
  5
E23
330
A
100
AcDbEntity
  8
Hawa6
 62
     3
 48
0.000043
100
AcDbLine
 10
106.249467
 20
208.75104
 30
0.0
 11
106.247766
 21
208.75104
 31
0.0
  0
LWPOLYLINE
  5
E24
330
A
100
AcDbEntity
  8
Hawa6
 62
     3
100
AcDbPolyline
 90
        5
 70
     0
 43
0.0
 10
110.385118
 20
214.123782
 10
110.62016
 20
214.529177
 10
110.772127
 20
214.717196
 10
110.861829
 20
214.785983
 10
110.942228
 20
214.808993
  0
LINE
  5
E25
330
A
100
AcDbEntity
  8
Hawa6
 62
     3
 48
0.046372
100
AcDbLine
 10
110.385118
 20
214.123782
 30
0.0
 11
110.385118
 21
212.268893
 31
0.0
  0
LWPOLYLINE
  5
E26
330
A
100
AcDbEntity
  8
Hawa6
 62
     3
100
AcDbPolyline
 90
        5
 70
     0
 43
0.0
 10
121.556402
 20
214.808993
 10
121.6368
 20
214.785983
 10
121.774839
 20
214.665744
 10
121.991365
 20
214.348208
 10
122.113511
 20
214.123782
  0
LINE
  5
E27
330
A
100
AcDbEntity
  8
HAWA1
 48
0.011615
100
AcDbLine
 10
116.249315
 20
218.351046
 30
0.0
 11
116.71391
 21
218.351046
 31
0.0
  0
LINE
  5
E28
330
A
100
AcDbEntity
  8
HAWA1
 48
0.011236
100
AcDbLine
 10
115.799871
 20
218.351046
 30
0.0
 11
116.249315
 21
218.351046
 31
0.0
  0
LINE
  5
E29
330
A
100
AcDbEntity
  8
HAWA1
 48
0.010938
100
AcDbLine
 10
115.811807
 20
218.351046
 30
0.0
 11
116.249315
 21
218.351046
 31
0.0
  0
LINE
  5
E2A
330
A
100
AcDbEntity
  8
HAWA1
 48
0.011193
100
AcDbLine
 10
116.249315
 20
218.351046
 30
0.0
 11
116.69703
 21
218.351046
 31
0.0
  0
LINE
  5
E2B
330
A
100
AcDbEntity
  8
HAWA1
 48
0.053033
100
AcDbLine
 10
114.749315
 20
218.351046
 30
0.0
 11
113.249315
 21
216.851046
 31
0.0
  0
LINE
  5
E2C
330
A
100
AcDbEntity
  8
HAWA1
 48
0.053033
100
AcDbLine
 10
117.749315
 20
218.351046
 30
0.0
 11
119.249315
 21
216.851046
 31
0.0
  0
LINE
  5
E2D
330
A
100
AcDbEntity
  8
HAWA1
 48
0.051053
100
AcDbLine
 10
119.249315
 20
216.851046
 30
0.0
 11
119.249315
 21
214.808932
 31
0.0
  0
LINE
  5
E2E
330
A
100
AcDbEntity
  8
HAWA1
 48
0.011635
100
AcDbLine
 10
116.249315
 20
218.351046
 30
0.0
 11
116.714696
 21
218.351046
 31
0.0
  0
LINE
  5
E2F
330
A
100
AcDbEntity
  8
HAWA1
 48
0.011239
100
AcDbLine
 10
115.799753
 20
218.351046
 30
0.0
 11
116.249315
 21
218.351046
 31
0.0
  0
LINE
  5
E30
330
A
100
AcDbEntity
  8
HAWA1
 48
0.010941
100
AcDbLine
 10
115.81167
 20
218.351046
 30
0.0
 11
116.249315
 21
218.351046
 31
0.0
  0
LINE
  5
E31
330
A
100
AcDbEntity
  8
HAWA1
 48
0.011196
100
AcDbLine
 10
116.249315
 20
218.351046
 30
0.0
 11
116.697168
 21
218.351046
 31
0.0
  0
LINE
  5
E35
330
A
100
AcDbEntity
  8
Hawa6
 62
     3
 48
0.011662
100
AcDbLine
 10
116.249315
 20
218.351046
 30
0.0
 11
116.715787
 21
218.351046
 31
0.0
  0
LINE
  5
E36
330
A
100
AcDbEntity
  8
Hawa6
 62
     3
 48
0.011242
100
AcDbLine
 10
115.79963
 20
218.351046
 30
0.0
 11
116.249315
 21
218.351046
 31
0.0
  0
LINE
  5
E37
330
A
100
AcDbEntity
  8
Hawa6
 62
     3
 48
0.010945
100
AcDbLine
 10
115.811521
 20
218.351046
 30
0.0
 11
116.249315
 21
218.351046
 31
0.0
  0
LINE
  5
E38
330
A
100
AcDbEntity
  8
Hawa6
 62
     3
 48
0.0112
100
AcDbLine
 10
116.249315
 20
218.351046
 30
0.0
 11
116.697317
 21
218.351046
 31
0.0
  0
LINE
  5
E39
330
A
100
AcDbEntity
  8
Hawa6
 62
     3
 48
0.075
100
AcDbLine
 10
113.249315
 20
216.851046
 30
0.0
 11
116.249315
 21
216.851046
 31
0.0
  0
LINE
  5
E3A
330
A
100
AcDbEntity
  8
Hawa6
 62
     3
 48
0.075
100
AcDbLine
 10
116.249315
 20
216.851046
 30
0.0
 11
119.249315
 21
216.851046
 31
0.0
  0
LINE
  5
E3B
330
A
100
AcDbEntity
  8
Hawa6
 62
     3
 48
0.053033
100
AcDbLine
 10
114.749315
 20
218.351046
 30
0.0
 11
113.249315
 21
216.851046
 31
0.0
  0
LINE
  5
E3C
330
A
100
AcDbEntity
  8
Hawa6
 62
     3
 48
0.053033
100
AcDbLine
 10
117.749315
 20
218.351046
 30
0.0
 11
119.249315
 21
216.851046
 31
0.0
  0
LINE
  5
E3D
330
A
100
AcDbEntity
  8
Hawa6
 62
     3
 48
0.051052
100
AcDbLine
 10
113.249315
 20
216.851046
 30
0.0
 11
113.249315
 21
214.808963
 31
0.0
  0
LINE
  5
E3E
330
A
100
AcDbEntity
  8
Hawa6
 62
     3
 48
0.051052
100
AcDbLine
 10
119.249315
 20
216.851046
 30
0.0
 11
119.249315
 21
214.808963
 31
0.0
  0
LINE
  5
E3F
330
A
100
AcDbEntity
  8
Hawa6
 62
     3
 48
0.050388
100
AcDbLine
 10
113.790815
 20
214.835543
 30
0.0
 11
113.790815
 21
216.851046
 31
0.0
  0
LINE
  5
E40
330
A
100
AcDbEntity
  8
Hawa6
 62
     3
 48
0.050388
100
AcDbLine
 10
118.707815
 20
214.835543
 30
0.0
 11
118.707815
 21
216.851046
 31
0.0
  0
LINE
  5
E41
330
A
100
AcDbEntity
  8
Hawa5
 62
     1
 48
0.087795
100
AcDbLine
 10
117.699315
 20
221.821047
 30
0.0
 11
118.900419
 21
218.521029
 31
0.0
  0
LINE
  5
E42
330
A
100
AcDbEntity
  8
Hawa5
 62
     1
 48
0.0725
100
AcDbLine
 10
114.799314
 20
221.821047
 30
0.0
 11
117.699315
 21
221.821047
 31
0.0
  0
LINE
  5
E43
330
A
100
AcDbEntity
  8
Hawa5
 62
     1
 48
0.087795
100
AcDbLine
 10
114.799314
 20
221.821047
 30
0.0
 11
113.598214
 21
218.521029
 31
0.0
  0
LINE
  5
E44
330
A
100
AcDbEntity
  8
Hawa5
 62
     1
 48
0.052472
100
AcDbLine
 10
111.499315
 20
218.521029
 30
0.0
 11
113.598214
 21
218.521029
 31
0.0
  0
LINE
  5
E45
330
A
100
AcDbEntity
  8
Hawa5
 62
     1
 48
0.007
100
AcDbLine
 10
111.499315
 20
218.521029
 30
0.0
 11
111.499315
 21
218.801028
 31
0.0
  0
LINE
  5
E46
330
A
100
AcDbEntity
  8
Hawa5
 62
     1
 48
0.104298
100
AcDbLine
 10
114.449315
 20
221.75104
 30
0.0
 11
111.499315
 21
218.801028
 31
0.0
  0
LINE
  5
E47
330
A
100
AcDbEntity
  8
Hawa5
 62
     1
 48
0.41925
100
AcDbLine
 10
114.449315
 20
221.75104
 30
0.0
 11
114.449315
 21
238.521029
 31
0.0
  0
LINE
  5
E48
330
A
100
AcDbEntity
  8
Hawa5
 62
     1
 48
0.41925
100
AcDbLine
 10
118.049314
 20
221.75104
 30
0.0
 11
118.049314
 21
238.521029
 31
0.0
  0
LINE
  5
E49
330
A
100
AcDbEntity
  8
Hawa5
 62
     1
 48
0.104298
100
AcDbLine
 10
118.049314
 20
221.75104
 30
0.0
 11
120.999315
 21
218.801028
 31
0.0
  0
LINE
  5
E4A
330
A
100
AcDbEntity
  8
Hawa5
 62
     1
 48
0.007
100
AcDbLine
 10
120.999315
 20
218.521029
 30
0.0
 11
120.999315
 21
218.801028
 31
0.0
  0
LINE
  5
E4B
330
A
100
AcDbEntity
  8
Hawa5
 62
     1
 48
0.052472
100
AcDbLine
 10
118.900419
 20
218.521029
 30
0.0
 11
120.999315
 21
218.521029
 31
0.0
  0
LINE
  5
E4C
330
A
100
AcDbEntity
  8
Hawa5
 62
     1
 48
0.06825
100
AcDbLine
 10
115.649316
 20
218.521029
 30
0.0
 11
115.649316
 21
221.25104
 31
0.0
  0
LINE
  5
E4D
330
A
100
AcDbEntity
  8
Hawa5
 62
     1
 48
0.030027
100
AcDbLine
 10
113.598214
 20
218.521029
 30
0.0
 11
114.799314
 21
218.521029
 31
0.0
  0
LINE
  5
E4E
330
A
100
AcDbEntity
  8
Hawa5
 62
     1
 48
0.02125
100
AcDbLine
 10
114.799314
 20
218.521029
 30
0.0
 11
115.649316
 21
218.521029
 31
0.0
  0
LINE
  5
E4F
330
A
100
AcDbEntity
  8
Hawa5
 62
     1
 48
0.03
100
AcDbLine
 10
115.649316
 20
218.521029
 30
0.0
 11
116.849317
 21
218.521029
 31
0.0
  0
LINE
  5
E50
330
A
100
AcDbEntity
  8
Hawa5
 62
     1
 48
0.02125
100
AcDbLine
 10
117.699315
 20
218.521029
 30
0.0
 11
116.849317
 21
218.521029
 31
0.0
  0
LINE
  5
E51
330
A
100
AcDbEntity
  8
Hawa5
 62
     1
 48
0.030028
100
AcDbLine
 10
117.699315
 20
218.521029
 30
0.0
 11
118.900419
 21
218.521029
 31
0.0
  0
LINE
  5
E52
330
A
100
AcDbEntity
  8
Hawa5
 62
     1
 48
0.06825
100
AcDbLine
 10
116.849317
 20
218.521029
 30
0.0
 11
116.849317
 21
221.25104
 31
0.0
  0
INSERT
  5
E91
330
A
100
AcDbEntity
  8
HAWA1
100
AcDbBlockReference
  2
HAWA
 10
0.0
 20
0.0
 30
0.0
  0
VIEWPORT
  5
62
102
{ACAD_XDICTIONARY
360
F88
102
}
330
B
100
AcDbEntity
 67
     1
  8
HAWA1
 62
     0
100
AcDbViewport
 10
0.0
 20
0.0
 30
0.0
 40
1000.0
 41
1000.0
 68
     1
 69
     1
 12
0.0
 22
0.0
 13
0.0
 23
0.0
 14
1.0
 24
1.0
 15
1.0
 25
1.0
 16
0.0
 26
0.0
 36
1.0
 17
0.0
 27
0.0
 37
0.0
 42
50.0
 43
0.0
 44
0.0
 45
1000.0
 50
0.0
 51
0.0
 72
   100
 90
   557216
  1

281
     0
 71
     1
 74
     0
110
0.0
120
0.0
130
0.0
111
1.0
121
0.0
131
0.0
112
0.0
122
1.0
132
0.0
 79
     0
146
0.0
  0
ENDSEC
  0
SECTION
  2
OBJECTS
  0
DICTIONARY
  5
19
330
0
100
AcDbDictionary
281
     1
  3
ACAD_COLOR
350
E74
  3
ACAD_GROUP
350
1A
  3
ACAD_LAYOUT
350
9A0
  3
ACAD_MATERIAL
350
E5F
  3
ACAD_MLINESTYLE
350
1B
  3
ACAD_PLOTSETTINGS
350
E77
  3
ACAD_PLOTSTYLENAME
350
E58
  3
ACAD_TABLESTYLE
350
E75
  3
ACAD_VISUALSTYLE
350
E63
  3
AcDbVariableDictionary
350
F5F
  3
DWGPROPS
350
F87
  0
DICTIONARY
  5
F88
330
62
100
AcDbDictionary
280
     1
281
     1
  3
ACAD_XREC_ROUNDTRIP
360
F89
  0
DICTIONARY
  5
E74
102
{ACAD_REACTORS
330
19
102
}
330
19
100
AcDbDictionary
281
     1
  0
DICTIONARY
  5
1A
102
{ACAD_REACTORS
330
19
102
}
330
19
100
AcDbDictionary
281
     1
  3
*A1
350
E83
  3
*A10
350
E8C
  3
*A11
350
E8D
  3
*A2
350
E84
  3
*A3
350
E85
  3
*A4
350
E86
  3
*A5
350
E87
  3
*A6
350
E88
  3
*A7
350
E89
  3
*A8
350
E8A
  3
*A9
350
E8B
  0
DICTIONARY
  5
9A0
102
{ACAD_REACTORS
330
19
102
}
330
19
100
AcDbDictionary
281
     1
  3
Layout1
350
9A2
  3
Model
350
9A1
  0
DICTIONARY
  5
E5F
102
{ACAD_REACTORS
330
19
102
}
330
19
100
AcDbDictionary
281
     1
  3
ByBlock
350
E61
  3
ByLayer
350
E60
  3
Global
350
E62
  0
DICTIONARY
  5
1B
102
{ACAD_REACTORS
330
19
102
}
330
19
100
AcDbDictionary
281
     1
  3
STANDARD
350
1C
  0
DICTIONARY
  5
E77
102
{ACAD_REACTORS
330
19
102
}
330
19
100
AcDbDictionary
281
     1
  0
ACDBDICTIONARYWDFLT
  5
E58
102
{ACAD_REACTORS
330
19
102
}
330
19
100
AcDbDictionary
281
     1
  3
Normal
350
E59
100
AcDbDictionaryWithDefault
340
E59
  0
DICTIONARY
  5
E75
102
{ACAD_REACTORS
330
19
102
}
330
19
100
AcDbDictionary
281
     1
  3
Standard
350
E76
  0
DICTIONARY
  5
E63
102
{ACAD_REACTORS
330
19
102
}
330
19
100
AcDbDictionary
281
     1
  3
2dWireframe
350
E69
  3
3D Hidden
350
E6B
  3
3dWireframe
350
E6A
  3
Basic
350
E68
  3
Brighten
350
E6F
  3
ColorChange
350
E73
  3
Conceptual
350
E6C
  3
Dim
350
E6E
  3
Facepattern
350
E72
  3
Flat
350
E64
  3
FlatWithEdges
350
E65
  3
Gouraud
350
E66
  3
GouraudWithEdges
350
E67
  3
Linepattern
350
E71
  3
Realistic
350
E6D
  3
Thicken
350
E70
  0
DICTIONARY
  5
F5F
102
{ACAD_REACTORS
330
19
102
}
330
19
100
AcDbDictionary
281
     1
  3
CTABLESTYLE
350
F60
  3
DIMASSOC
350
F63
  3
INDEXCTL
350
F62
  3
SORTENTS
350
F61
  0
XRECORD
  5
F87
102
{ACAD_REACTORS
330
19
102
}
330
19
100
AcDbXrecord
280
     1
  1
DWGPROPS COOKIE
  2

  3

  4

  6

  7

  8
rhu
  9

300
=
301
=
302
=
303
=
304
=
305
=
306
=
307
=
308
=
309
=
 40
0.0005332986111111
 41
2447893.0
 42
2455230.385408345
  1

 90
        0
  0
XRECORD
  5
F89
102
{ACAD_REACTORS
330
F88
102
}
330
F88
100
AcDbXrecord
280
     1
102
SHADEPLOT
 70
     0
  0
GROUP
  5
E83
102
{ACAD_REACTORS
330
1A
102
}
330
1A
100
AcDbGroup
300

 70
     1
 71
     1
  0
GROUP
  5
E8C
102
{ACAD_REACTORS
330
1A
102
}
330
1A
100
AcDbGroup
300

 70
     1
 71
     1
  0
GROUP
  5
E8D
102
{ACAD_REACTORS
330
1A
102
}
330
1A
100
AcDbGroup
300

 70
     1
 71
     1
  0
GROUP
  5
E84
102
{ACAD_REACTORS
330
1A
102
}
330
1A
100
AcDbGroup
300

 70
     1
 71
     1
  0
GROUP
  5
E85
102
{ACAD_REACTORS
330
1A
102
}
330
1A
100
AcDbGroup
300

 70
     1
 71
     1
  0
GROUP
  5
E86
102
{ACAD_REACTORS
330
1A
102
}
330
1A
100
AcDbGroup
300

 70
     1
 71
     1
  0
GROUP
  5
E87
102
{ACAD_REACTORS
330
1A
102
}
330
1A
100
AcDbGroup
300

 70
     1
 71
     1
  0
GROUP
  5
E88
102
{ACAD_REACTORS
330
1A
102
}
330
1A
100
AcDbGroup
300

 70
     1
 71
     1
  0
GROUP
  5
E89
102
{ACAD_REACTORS
330
1A
102
}
330
1A
100
AcDbGroup
300

 70
     1
 71
     1
  0
GROUP
  5
E8A
102
{ACAD_REACTORS
330
1A
102
}
330
1A
100
AcDbGroup
300

 70
     1
 71
     1
  0
GROUP
  5
E8B
102
{ACAD_REACTORS
330
1A
102
}
330
1A
100
AcDbGroup
300

 70
     1
 71
     1
  0
LAYOUT
  5
9A2
102
{ACAD_XDICTIONARY
360
F8C
102
}
102
{ACAD_REACTORS
330
9A0
102
}
330
9A0
100
AcDbPlotSettings
  1

  2
none_device
  4

  6

 40
0.0
 41
0.0
 42
0.0
 43
0.0
 44
0.0
 45
0.0
 46
0.0
 47
0.0
 48
0.0
 49
0.0
140
0.0
141
0.0
142
1.0
143
1.0
 70
   688
 72
     0
 73
     0
 74
     5
  7

 75
    16
147
1.0
148
0.0
149
0.0
100
AcDbLayout
  1
Layout1
 70
     1
 71
     1
 10
0.0
 20
0.0
 11
420.0
 21
297.0
 12
0.0
 22
0.0
 32
0.0
 14
0.0
 24
0.0
 34
0.0
 15
-11.370872
 25
366.596527
 35
2.0
146
0.0
 13
0.0
 23
0.0
 33
0.0
 16
1.0
 26
0.0
 36
0.0
 17
0.0
 27
1.0
 37
0.0
 76
     0
330
B
331
62
  0
LAYOUT
  5
9A1
102
{ACAD_XDICTIONARY
360
F8A
102
}
102
{ACAD_REACTORS
330
9A0
102
}
330
9A0
100
AcDbPlotSettings
  1

  2
none_device
  4

  6

 40
0.0
 41
0.0
 42
0.0
 43
0.0
 44
0.0
 45
0.0
 46
0.0
 47
0.0
 48
0.0
 49
0.0
140
0.0
141
0.0
142
1.0
143
1.0
 70
   688
 72
     0
 73
     0
 74
     5
  7

 75
    16
147
1.0
148
0.0
149
0.0
100
AcDbLayout
  1
Model
 70
     1
 71
     0
 10
0.0
 20
0.0
 11
0.0
 21
0.0
 12
0.0
 22
0.0
 32
0.0
 14
0.0
 24
0.0
 34
0.0
 15
0.0
 25
0.0
 35
0.0
146
0.0
 13
0.0
 23
0.0
 33
0.0
 16
1.0
 26
0.0
 36
0.0
 17
0.0
 27
1.0
 37
0.0
 76
     0
330
A
331
15
  0
MATERIAL
  5
E61
102
{ACAD_XDICTIONARY
360
F90
102
}
102
{ACAD_REACTORS
330
E5F
102
}
330
E5F
100
AcDbMaterial
  1
ByBlock
  0
MATERIAL
  5
E60
102
{ACAD_XDICTIONARY
360
F8E
102
}
102
{ACAD_REACTORS
330
E5F
102
}
330
E5F
100
AcDbMaterial
  1
ByLayer
  0
MATERIAL
  5
E62
102
{ACAD_XDICTIONARY
360
F92
102
}
102
{ACAD_REACTORS
330
E5F
102
}
330
E5F
100
AcDbMaterial
  1
Global
  0
MLINESTYLE
  5
1C
102
{ACAD_REACTORS
330
1B
102
}
330
1B
100
AcDbMlineStyle
  2
STANDARD
 70
     0
  3

 62
     0
 51
90.0
 52
90.0
 71
     2
 49
0.5
 62
   256
  6
BYLAYER
 49
-0.5
 62
   256
  6
BYLAYER
  0
ACDBPLACEHOLDER
  5
E59
102
{ACAD_REACTORS
330
E58
102
}
330
E58
  0
TABLESTYLE
  5
E76
102
{ACAD_XDICTIONARY
360
F94
102
}
102
{ACAD_REACTORS
330
E75
102
}
330
E75
100
AcDbTableStyle
  3
Standard
 70
     0
 71
     0
 40
1.5
 41
1.5
280
     0
281
     0
  7
STANDARD
140
4.5
170
     2
 62
     0
 63
     7
283
     0
274
    -2
284
     1
 64
     0
275
    -2
285
     1
 65
     0
276
    -2
286
     1
 66
     0
277
    -2
287
     1
 67
     0
278
    -2
288
     1
 68
     0
279
    -2
289
     1
 69
     0
  7
STANDARD
140
6.0
170
     5
 62
     0
 63
     7
283
     0
274
    -2
284
     1
 64
     0
275
    -2
285
     1
 65
     0
276
    -2
286
     1
 66
     0
277
    -2
287
     1
 67
     0
278
    -2
288
     1
 68
     0
279
    -2
289
     1
 69
     0
  7
STANDARD
140
4.5
170
     5
 62
     0
 63
     7
283
     0
274
    -2
284
     1
 64
     0
275
    -2
285
     1
 65
     0
276
    -2
286
     1
 66
     0
277
    -2
287
     1
 67
     0
278
    -2
288
     1
 68
     0
279
    -2
289
     1
 69
     0
  0
VISUALSTYLE
  5
E69
102
{ACAD_REACTORS
330
E63
102
}
330
E63
100
AcDbVisualStyle
  2
2dWireframe
 70
     4
 71
     0
 72
     2
 73
     0
 90
        0
 40
-0.6
 41
-30.0
 62
     5
 63
     7
 74
     1
 91
        4
 64
     7
 65
   257
 75
     1
175
     1
 42
1.0
 92
        0
 66
   257
 43
1.0
 76
     1
 77
     6
 78
     2
 67
     7
 79
     5
170
     0
171
     0
290
     0
174
     0
 93
        1
 44
0.0
173
     0
291
     0
 45
0.0
1001
ACAD
1000
AcDbSavedByObjectVersion
1070
     0
  0
VISUALSTYLE
  5
E6B
102
{ACAD_REACTORS
330
E63
102
}
330
E63
100
AcDbVisualStyle
  2
3D Hidden
 70
     6
 71
     1
 72
     2
 73
     2
 90
        0
 40
-0.6
 41
-30.0
 62
     5
 63
     7
 74
     2
 91
        2
 64
     7
 65
   257
 75
     2
175
     1
 42
40.0
 92
        0
 66
   257
 43
1.0
 76
     1
 77
     6
 78
     2
 67
     7
 79
     3
170
     0
171
     0
290
     0
174
     0
 93
        1
 44
0.0
173
     0
291
     0
 45
0.0
1001
ACAD
1000
AcDbSavedByObjectVersion
1070
     0
  0
VISUALSTYLE
  5
E6A
102
{ACAD_REACTORS
330
E63
102
}
330
E63
100
AcDbVisualStyle
  2
3dWireframe
 70
     5
 71
     0
 72
     2
 73
     0
 90
        0
 40
-0.6
 41
-30.0
 62
     5
 63
     7
 74
     1
 91
        4
 64
     7
 65
   257
 75
     1
175
     1
 42
1.0
 92
        0
 66
   257
 43
1.0
 76
     1
 77
     6
 78
     2
 67
     7
 79
     5
170
     0
171
     0
290
     0
174
     0
 93
        1
 44
0.0
173
     0
291
     0
 45
0.0
1001
ACAD
1000
AcDbSavedByObjectVersion
1070
     0
  0
VISUALSTYLE
  5
E68
102
{ACAD_REACTORS
330
E63
102
}
330
E63
100
AcDbVisualStyle
  2
Basic
 70
     7
 71
     1
 72
     0
 73
     1
 90
        0
 40
-0.6
 41
-30.0
 62
     5
 63
     7
 74
     0
 91
        4
 64
     7
 65
   257
 75
     1
175
     1
 42
1.0
 92
        8
 66
     7
 43
1.0
 76
     1
 77
     6
 78
     2
 67
     7
 79
     5
170
     0
171
     0
290
     0
174
     0
 93
        1
 44
0.0
173
     0
291
     1
 45
0.0
1001
ACAD
1000
AcDbSavedByObjectVersion
1070
     0
  0
VISUALSTYLE
  5
E6F
102
{ACAD_REACTORS
330
E63
102
}
330
E63
100
AcDbVisualStyle
  2
Brighten
 70
    12
 71
     2
 72
     2
 73
     0
 90
        0
 40
-0.6
 41
-30.0
 62
     5
 63
     7
 74
     1
 91
        4
 64
     7
 65
   257
 75
     1
175
     1
 42
1.0
 92
        8
 66
     7
 43
1.0
 76
     1
 77
     6
 78
     2
 67
     7
 79
     5
170
     0
171
     0
290
     0
174
     0
 93
        1
 44
50.0
173
     0
291
     1
 45
0.0
1001
ACAD
1000
AcDbSavedByObjectVersion
1070
     0
  0
VISUALSTYLE
  5
E73
102
{ACAD_REACTORS
330
E63
102
}
330
E63
100
AcDbVisualStyle
  2
ColorChange
 70
    16
 71
     2
 72
     2
 73
     3
 90
        0
 40
-0.6
 41
-30.0
 62
     5
 63
     8
 74
     1
 91
        4
 64
     7
 65
   257
 75
     1
175
     1
 42
1.0
 92
        8
 66
     8
 43
1.0
 76
     1
 77
     6
 78
     2
 67
     7
 79
     5
170
     0
171
     0
290
     0
174
     0
 93
        1
 44
0.0
173
     0
291
     1
 45
0.0
1001
ACAD
1000
AcDbSavedByObjectVersion
1070
     0
  0
VISUALSTYLE
  5
E6C
102
{ACAD_REACTORS
330
E63
102
}
330
E63
100
AcDbVisualStyle
  2
Conceptual
 70
     9
 71
     3
 72
     2
 73
     0
 90
        0
 40
-0.6
 41
-30.0
 62
     5
 63
     7
 74
     2
 91
        2
 64
     7
 65
   257
 75
     1
175
     1
 42
40.0
 92
        8
 66
     7
 43
1.0
 76
     1
 77
     6
 78
     2
 67
     7
 79
     3
170
     0
171
     0
290
     0
174
     0
 93
        1
 44
0.0
173
     0
291
     0
 45
0.0
1001
ACAD
1000
AcDbSavedByObjectVersion
1070
     0
  0
VISUALSTYLE
  5
E6E
102
{ACAD_REACTORS
330
E63
102
}
330
E63
100
AcDbVisualStyle
  2
Dim
 70
    11
 71
     2
 72
     2
 73
     0
 90
        0
 40
-0.6
 41
-30.0
 62
     5
 63
     7
 74
     1
 91
        4
 64
     7
 65
   257
 75
     1
175
     1
 42
1.0
 92
        8
 66
     7
 43
1.0
 76
     1
 77
     6
 78
     2
 67
     7
 79
     5
170
     0
171
     0
290
     0
174
     0
 93
        1
 44
-50.0
173
     0
291
     1
 45
0.0
1001
ACAD
1000
AcDbSavedByObjectVersion
1070
     0
  0
VISUALSTYLE
  5
E72
102
{ACAD_REACTORS
330
E63
102
}
330
E63
100
AcDbVisualStyle
  2
Facepattern
 70
    15
 71
     2
 72
     2
 73
     0
 90
        0
 40
-0.6
 41
-30.0
 62
     5
 63
     7
 74
     1
 91
        4
 64
     7
 65
   257
 75
     1
175
     1
 42
1.0
 92
        8
 66
     7
 43
1.0
 76
     1
 77
     6
 78
     2
 67
     7
 79
     5
170
     0
171
     0
290
     0
174
     0
 93
        1
 44
0.0
173
     0
291
     1
 45
0.0
1001
ACAD
1000
AcDbSavedByObjectVersion
1070
     0
  0
VISUALSTYLE
  5
E64
102
{ACAD_REACTORS
330
E63
102
}
330
E63
100
AcDbVisualStyle
  2
Flat
 70
     0
 71
     2
 72
     1
 73
     1
 90
        2
 40
-0.6
 41
30.0
 62
     5
 63
     7
 74
     0
 91
        4
 64
     7
 65
   257
 75
     1
175
     1
 42
1.0
 92
        8
 66
     7
 43
1.0
 76
     1
 77
     6
 78
     2
 67
     7
 79
     5
170
     0
171
     0
290
     0
174
     0
 93
       13
 44
0.0
173
     0
291
     1
 45
0.0
1001
ACAD
1000
AcDbSavedByObjectVersion
1070
     0
  0
VISUALSTYLE
  5
E65
102
{ACAD_REACTORS
330
E63
102
}
330
E63
100
AcDbVisualStyle
  2
FlatWithEdges
 70
     1
 71
     2
 72
     1
 73
     1
 90
        2
 40
-0.6
 41
30.0
 62
     5
 63
     7
 74
     1
 91
        4
 64
     7
 65
   257
 75
     1
175
     1
 42
1.0
 92
        0
 66
   257
 43
1.0
 76
     1
 77
     6
 78
     2
 67
     7
 79
     5
170
     0
171
     0
290
     0
174
     0
 93
       13
 44
0.0
173
     0
291
     1
 45
0.0
1001
ACAD
1000
AcDbSavedByObjectVersion
1070
     0
  0
VISUALSTYLE
  5
E66
102
{ACAD_REACTORS
330
E63
102
}
330
E63
100
AcDbVisualStyle
  2
Gouraud
 70
     2
 71
     2
 72
     2
 73
     1
 90
        2
 40
-0.6
 41
30.0
 62
     5
 63
     7
 74
     0
 91
        4
 64
     7
 65
   257
 75
     1
175
     1
 42
1.0
 92
        0
 66
     7
 43
1.0
 76
     1
 77
     6
 78
     2
 67
     7
 79
     5
170
     0
171
     0
290
     0
174
     0
 93
       13
 44
0.0
173
     0
291
     1
 45
0.0
1001
ACAD
1000
AcDbSavedByObjectVersion
1070
     0
  0
VISUALSTYLE
  5
E67
102
{ACAD_REACTORS
330
E63
102
}
330
E63
100
AcDbVisualStyle
  2
GouraudWithEdges
 70
     3
 71
     2
 72
     2
 73
     1
 90
        2
 40
-0.6
 41
30.0
 62
     5
 63
     7
 74
     1
 91
        4
 64
     7
 65
   257
 75
     1
175
     1
 42
1.0
 92
        0
 66
   257
 43
1.0
 76
     1
 77
     6
 78
     2
 67
     7
 79
     5
170
     0
171
     0
290
     0
174
     0
 93
       13
 44
0.0
173
     0
291
     1
 45
0.0
1001
ACAD
1000
AcDbSavedByObjectVersion
1070
     0
  0
VISUALSTYLE
  5
E71
102
{ACAD_REACTORS
330
E63
102
}
330
E63
100
AcDbVisualStyle
  2
Linepattern
 70
    14
 71
     2
 72
     2
 73
     0
 90
        0
 40
-0.6
 41
-30.0
 62
     5
 63
     7
 74
     1
 91
        4
 64
     7
 65
   257
 75
     7
175
     7
 42
1.0
 92
        8
 66
     7
 43
1.0
 76
     1
 77
     6
 78
     2
 67
     7
 79
     5
170
     0
171
     0
290
     0
174
     0
 93
        1
 44
0.0
173
     0
291
     1
 45
0.0
1001
ACAD
1000
AcDbSavedByObjectVersion
1070
     0
  0
VISUALSTYLE
  5
E6D
102
{ACAD_REACTORS
330
E63
102
}
330
E63
100
AcDbVisualStyle
  2
Realistic
 70
     8
 71
     2
 72
     2
 73
     0
 90
        0
 40
-0.6
 41
-30.0
 62
     5
 63
     7
 74
     1
 91
        0
 64
     7
 65
   257
 75
     1
175
     1
 42
1.0
 92
        8
 66
     8
 43
1.0
 76
     1
 77
     6
 78
     2
 67
     7
 79
     5
170
     0
171
     0
290
     0
174
     0
 93
       13
 44
0.0
173
     0
291
     0
 45
0.0
1001
ACAD
1000
AcDbSavedByObjectVersion
1070
     0
  0
VISUALSTYLE
  5
E70
102
{ACAD_REACTORS
330
E63
102
}
330
E63
100
AcDbVisualStyle
  2
Thicken
 70
    13
 71
     2
 72
     2
 73
     0
 90
        0
 40
-0.6
 41
-30.0
 62
     5
 63
     7
 74
     1
 91
        4
 64
     7
 65
   257
 75
     1
175
     1
 42
1.0
 92
       12
 66
     7
 43
1.0
 76
     1
 77
     6
 78
     2
 67
     7
 79
     5
170
     0
171
     0
290
     0
174
     0
 93
        1
 44
0.0
173
     0
291
     1
 45
0.0
1001
ACAD
1000
AcDbSavedByObjectVersion
1070
     0
  0
DICTIONARYVAR
  5
F60
102
{ACAD_REACTORS
330
F5F
102
}
330
F5F
100
DictionaryVariables
280
     0
  1
STANDARD
  0
DICTIONARYVAR
  5
F63
102
{ACAD_REACTORS
330
F5F
102
}
330
F5F
100
DictionaryVariables
280
     0
  1
1
  0
DICTIONARYVAR
  5
F62
102
{ACAD_REACTORS
330
F5F
102
}
330
F5F
100
DictionaryVariables
280
     0
  1
0
  0
DICTIONARYVAR
  5
F61
102
{ACAD_REACTORS
330
F5F
102
}
330
F5F
100
DictionaryVariables
280
     0
  1
127
  0
DICTIONARY
  5
F8C
330
9A2
100
AcDbDictionary
280
     1
281
     1
  3
ACAD_XREC_ROUNDTRIP
360
F8D
  0
DICTIONARY
  5
F8A
330
9A1
100
AcDbDictionary
280
     1
281
     1
  3
ACAD_XREC_ROUNDTRIP
360
F8B
  0
DICTIONARY
  5
F90
330
E61
100
AcDbDictionary
280
     1
281
     1
  3
ACAD_XREC_ROUNDTRIP
360
F91
  0
DICTIONARY
  5
F8E
330
E60
100
AcDbDictionary
280
     1
281
     1
  3
ACAD_XREC_ROUNDTRIP
360
F8F
  0
DICTIONARY
  5
F92
330
E62
100
AcDbDictionary
280
     1
281
     1
  3
ACAD_XREC_ROUNDTRIP
360
F93
  0
DICTIONARY
  5
F94
330
E76
100
AcDbDictionary
280
     1
281
     1
  3
ACAD_XREC_ROUNDTRIP
360
F95
  0
XRECORD
  5
F8D
102
{ACAD_REACTORS
330
F8C
102
}
330
F8C
100
AcDbXrecord
280
     1
102
SHADEPLOT
 70
     0
102
SHADEPLOTRESLEVEL
 70
     2
102
SHADEPLOTCUSTOMDPI
 70
   300
  0
XRECORD
  5
F8B
102
{ACAD_REACTORS
330
F8A
102
}
330
F8A
100
AcDbXrecord
280
     1
102
SHADEPLOT
 70
     0
102
SHADEPLOTRESLEVEL
 70
     2
102
SHADEPLOTCUSTOMDPI
 70
   300
  0
XRECORD
  5
F91
102
{ACAD_REACTORS
330
F90
102
}
330
F90
100
AcDbXrecord
280
     1
102
MATERIAL
148
0.0
149
0.0
149
0.0
 93
        0
 94
       63
282
     0
 72
     1
 77
     1
171
     1
175
     1
179
     1
273
     0
  0
XRECORD
  5
F8F
102
{ACAD_REACTORS
330
F8E
102
}
330
F8E
100
AcDbXrecord
280
     1
102
MATERIAL
148
0.0
149
0.0
149
0.0
 93
        0
 94
       63
282
     0
 72
     1
 77
     1
171
     1
175
     1
179
     1
273
     0
  0
XRECORD
  5
F93
102
{ACAD_REACTORS
330
F92
102
}
330
F92
100
AcDbXrecord
280
     1
102
MATERIAL
148
0.0
149
0.0
149
0.0
 93
        0
 94
       63
282
     0
 72
     1
 77
     1
171
     1
175
     1
179
     1
273
     0
  0
XRECORD
  5
F95
102
{ACAD_REACTORS
330
F94
102
}
330
F94
100
AcDbXrecord
280
     1
102
ACAD_ROUNDTRIP_PRE2007_TABLESTYLE
 90
      512
 91
        0
  1

 92
      512
 93
        0
  2

 94
      512
 95
        0
  3

  0
ENDSEC
  0
EOF
