  0
SECTION
  2
HEADER
  9
$ACADVER
  1
AC1015
  9
$ACADMAINTVER
 70
    20
  9
$DWGCODEPAGE
  3
ANSI_1252
  9
$INSBASE
 10
0.0
 20
0.0
 30
0.0
  9
$EXTMIN
 10
58.5871165
 20
90.72317099999999
 30
0.0
  9
$EXTMAX
 10
140.561417
 20
171.5549164999999
 30
0.0
  9
$LIMMIN
 10
0.0
 20
0.0
  9
$LIMMAX
 10
420.0
 20
297.0
  9
$ORTHOMODE
 70
     0
  9
$REGENMODE
 70
     1
  9
$FILLMODE
 70
     1
  9
$QTEXTMODE
 70
     0
  9
$MIRRTEXT
 70
     1
  9
$LTSCALE
 40
1.0
  9
$ATTMODE
 70
     1
  9
$TEXTSIZE
 40
2.5
  9
$TRACEWID
 40
1.0
  9
$TEXTSTYLE
  7
STANDARD
  9
$CLAYER
  8
0
  9
$CELTYPE
  6
BYLAYER
  9
$CECOLOR
 62
   256
  9
$CELTSCALE
 40
1.0
  9
$DISPSILH
 70
     0
  9
$DIMSCALE
 40
1.0
  9
$DIMASZ
 40
2.5
  9
$DIMEXO
 40
0.625
  9
$DIMDLI
 40
3.75
  9
$DIMRND
 40
0.0
  9
$DIMDLE
 40
0.0
  9
$DIMEXE
 40
1.25
  9
$DIMTP
 40
0.0
  9
$DIMTM
 40
0.0
  9
$DIMTXT
 40
2.5
  9
$DIMCEN
 40
2.5
  9
$DIMTSZ
 40
0.0
  9
$DIMTOL
 70
     0
  9
$DIMLIM
 70
     0
  9
$DIMTIH
 70
     0
  9
$DIMTOH
 70
     0
  9
$DIMSE1
 70
     0
  9
$DIMSE2
 70
     0
  9
$DIMTAD
 70
     1
  9
$DIMZIN
 70
     8
  9
$DIMBLK
  1

  9
$DIMASO
 70
     1
  9
$DIMSHO
 70
     1
  9
$DIMPOST
  1

  9
$DIMAPOST
  1

  9
$DIMALT
 70
     0
  9
$DIMALTD
 70
     3
  9
$DIMALTF
 40
0.03937
  9
$DIMLFAC
 40
1.0
  9
$DIMTOFL
 70
     1
  9
$DIMTVP
 40
0.0
  9
$DIMTIX
 70
     0
  9
$DIMSOXD
 70
     0
  9
$DIMSAH
 70
     0
  9
$DIMBLK1
  1

  9
$DIMBLK2
  1

  9
$DIMSTYLE
  2
STANDARD
  9
$DIMCLRD
 70
     0
  9
$DIMCLRE
 70
     0
  9
$DIMCLRT
 70
     0
  9
$DIMTFAC
 40
1.0
  9
$DIMGAP
 40
0.625
  9
$DIMJUST
 70
     0
  9
$DIMSD1
 70
     0
  9
$DIMSD2
 70
     0
  9
$DIMTOLJ
 70
     0
  9
$DIMTZIN
 70
     8
  9
$DIMALTZ
 70
     0
  9
$DIMALTTZ
 70
     0
  9
$DIMUPT
 70
     0
  9
$DIMDEC
 70
     2
  9
$DIMTDEC
 70
     2
  9
$DIMALTU
 70
     2
  9
$DIMALTTD
 70
     3
  9
$DIMTXSTY
  7
STANDARD
  9
$DIMAUNIT
 70
     0
  9
$DIMADEC
 70
     0
  9
$DIMALTRND
 40
0.0
  9
$DIMAZIN
 70
     0
  9
$DIMDSEP
 70
    46
  9
$DIMATFIT
 70
     0
  9
$DIMFRAC
 70
     0
  9
$DIMLDRBLK
  1

  9
$DIMLUNIT
 70
     2
  9
$DIMLWD
 70
    -2
  9
$DIMLWE
 70
    -2
  9
$DIMTMOVE
 70
     0
  9
$LUNITS
 70
     2
  9
$LUPREC
 70
     4
  9
$SKETCHINC
 40
1.0
  9
$FILLETRAD
 40
2.5
  9
$AUNITS
 70
     0
  9
$AUPREC
 70
     0
  9
$MENU
  1
.
  9
$ELEVATION
 40
0.0
  9
$PELEVATION
 40
0.0
  9
$THICKNESS
 40
0.0
  9
$LIMCHECK
 70
     0
  9
$CHAMFERA
 40
2.5
  9
$CHAMFERB
 40
2.5
  9
$CHAMFERC
 40
0.0
  9
$CHAMFERD
 40
0.0
  9
$SKPOLY
 70
     0
  9
$TDCREATE
 40
2447893.000000000
  9
$TDUCREATE
 40
2447892.916666666
  9
$TDUPDATE
 40
2454272.406804896
  9
$TDUUPDATE
 40
2454272.323471563
  9
$TDINDWG
 40
0.0026500810
  9
$TDUSRTIMER
 40
0.0026498958
  9
$USRTIMER
 70
     1
  9
$ANGBASE
 50
0.0
  9
$ANGDIR
 70
     0
  9
$PDMODE
 70
     0
  9
$PDSIZE
 40
0.0
  9
$PLINEWID
 40
0.0
  9
$SPLFRAME
 70
     0
  9
$SPLINETYPE
 70
     6
  9
$SPLINESEGS
 70
     8
  9
$HANDSEED
  5
23A
  9
$SURFTAB1
 70
     6
  9
$SURFTAB2
 70
     6
  9
$SURFTYPE
 70
     6
  9
$SURFU
 70
     6
  9
$SURFV
 70
     6
  9
$UCSBASE
  2

  9
$UCSNAME
  2

  9
$UCSORG
 10
0.0
 20
0.0
 30
0.0
  9
$UCSXDIR
 10
1.0
 20
0.0
 30
0.0
  9
$UCSYDIR
 10
0.0
 20
1.0
 30
0.0
  9
$UCSORTHOREF
  2

  9
$UCSORTHOVIEW
 70
     0
  9
$UCSORGTOP
 10
0.0
 20
0.0
 30
0.0
  9
$UCSORGBOTTOM
 10
0.0
 20
0.0
 30
0.0
  9
$UCSORGLEFT
 10
0.0
 20
0.0
 30
0.0
  9
$UCSORGRIGHT
 10
0.0
 20
0.0
 30
0.0
  9
$UCSORGFRONT
 10
0.0
 20
0.0
 30
0.0
  9
$UCSORGBACK
 10
0.0
 20
0.0
 30
0.0
  9
$PUCSBASE
  2

  9
$PUCSNAME
  2

  9
$PUCSORG
 10
0.0
 20
0.0
 30
0.0
  9
$PUCSXDIR
 10
1.0
 20
0.0
 30
0.0
  9
$PUCSYDIR
 10
0.0
 20
1.0
 30
0.0
  9
$PUCSORTHOREF
  2

  9
$PUCSORTHOVIEW
 70
     0
  9
$PUCSORGTOP
 10
0.0
 20
0.0
 30
0.0
  9
$PUCSORGBOTTOM
 10
0.0
 20
0.0
 30
0.0
  9
$PUCSORGLEFT
 10
0.0
 20
0.0
 30
0.0
  9
$PUCSORGRIGHT
 10
0.0
 20
0.0
 30
0.0
  9
$PUCSORGFRONT
 10
0.0
 20
0.0
 30
0.0
  9
$PUCSORGBACK
 10
0.0
 20
0.0
 30
0.0
  9
$USERI1
 70
     0
  9
$USERI2
 70
     0
  9
$USERI3
 70
     0
  9
$USERI4
 70
     0
  9
$USERI5
 70
     0
  9
$USERR1
 40
0.0
  9
$USERR2
 40
0.0
  9
$USERR3
 40
0.0
  9
$USERR4
 40
0.0
  9
$USERR5
 40
0.0
  9
$WORLDVIEW
 70
     1
  9
$SHADEDGE
 70
     3
  9
$SHADEDIF
 70
    70
  9
$TILEMODE
 70
     1
  9
$MAXACTVP
 70
    48
  9
$PINSBASE
 10
0.0
 20
0.0
 30
0.0
  9
$PLIMCHECK
 70
     0
  9
$PEXTMIN
 10
0.0
 20
0.0
 30
0.0
  9
$PEXTMAX
 10
35.561417
 20
23.11314
 30
2.0
  9
$PLIMMIN
 10
0.0
 20
0.0
  9
$PLIMMAX
 10
420.0
 20
297.0
  9
$UNITMODE
 70
     0
  9
$VISRETAIN
 70
     0
  9
$PLINEGEN
 70
     0
  9
$PSLTSCALE
 70
     1
  9
$TREEDEPTH
 70
  3020
  9
$CMLSTYLE
  2
STANDARD
  9
$CMLJUST
 70
     0
  9
$CMLSCALE
 40
20.0
  9
$PROXYGRAPHICS
 70
     1
  9
$MEASUREMENT
 70
     1
  9
$CELWEIGHT
370
    -1
  9
$ENDCAPS
280
     0
  9
$JOINSTYLE
280
     0
  9
$LWDISPLAY
290
     0
  9
$INSUNITS
 70
     0
  9
$HYPERLINKBASE
  1

  9
$STYLESHEET
  1

  9
$XEDIT
290
     1
  9
$CEPSNTYPE
380
     0
  9
$PSTYLEMODE
290
     1
  9
$FINGERPRINTGUID
  2
{DC4CA07F-84B6-448A-8979-BDB3A3505A2A}
  9
$VERSIONGUID
  2
{7F156242-6D1C-4836-A446-66BF1C98BA8D}
  9
$EXTNAMES
290
     1
  9
$PSVPSCALE
 40
0.0
  9
$OLESTARTUP
290
     0
  0
ENDSEC
  0
SECTION
  2
CLASSES
  0
CLASS
  1
IMAGE
  2
AcDbRasterImage
  3
ISM
 90
    34943
280
     0
281
     1
  0
CLASS
  1
DICTIONARYVAR
  2
AcDbDictionaryVar
  3
ObjectDBX Classes
 90
        0
280
     0
281
     0
  0
CLASS
  1
RASTERVARIABLES
  2
AcDbRasterVariables
  3
ISM
 90
    32768
280
     0
281
     0
  0
CLASS
  1
IMAGEDEF
  2
AcDbRasterImageDef
  3
ISM
 90
    32768
280
     0
281
     0
  0
CLASS
  1
IMAGEDEF_REACTOR
  2
AcDbRasterImageDefReactor
  3
ISM
 90
    32769
280
     0
281
     0
  0
CLASS
  1
IDBUFFER
  2
AcDbIdBuffer
  3
ObjectDBX Classes
 90
    32768
280
     0
281
     0
  0
CLASS
  1
SPATIAL_FILTER
  2
AcDbSpatialFilter
  3
ObjectDBX Classes
 90
    32768
280
     0
281
     0
  0
CLASS
  1
SORTENTSTABLE
  2
AcDbSortentsTable
  3
ObjectDBX Classes
 90
    32768
280
     0
281
     0
  0
CLASS
  1
LAYER_INDEX
  2
AcDbLayerIndex
  3
ObjectDBX Classes
 90
    32768
280
     0
281
     0
  0
CLASS
  1
SPATIAL_INDEX
  2
AcDbSpatialIndex
  3
ObjectDBX Classes
 90
    32768
280
     0
281
     0
  0
CLASS
  1
OBJECT_PTR
  2
CAseDLPNTableRecord
  3
ASE-LPNTableRecord
 90
    32769
280
     0
281
     0
  0
CLASS
  1
LAYOUT
  2
AcDbLayout
  3
ObjectDBX Classes
 90
        0
280
     0
281
     0
  0
CLASS
  1
PLOTSETTINGS
  2
AcDbPlotSettings
  3
ObjectDBX Classes
 90
    32768
280
     0
281
     0
  0
CLASS
  1
ACDBDICTIONARYWDFLT
  2
AcDbDictionaryWithDefault
  3
ObjectDBX Classes
 90
        0
280
     0
281
     0
  0
CLASS
  1
ACDBPLACEHOLDER
  2
AcDbPlaceHolder
  3
ObjectDBX Classes
 90
        0
280
     0
281
     0
  0
CLASS
  1
VBA_PROJECT
  2
AcDbVbaProject
  3
acad
 90
    32768
280
     0
281
     0
  0
CLASS
  1
WIPEOUT
  2
AcDbWipeout
  3
"WipeOut|Product Desc: Object Enabler for WipeOut entity                        |Company: Autodesk, Inc.                        |WEB Address: www.autodesk.com"
 90
    34943
280
     0
281
     1
  0
CLASS
  1
WIPEOUTVARIABLES
  2
AcDbWipeoutVariables
  3
"WipeOut|Product Desc:     WipeOut Dbx Application|Company:          Autodesk, Inc.|WEB Address:      www.autodesk.com"
 90
    32768
280
     0
281
     0
  0
CLASS
  1
RTEXT
  2
RText
  3
RText|AutoCAD Express Tool|expresstools@autodesk.com
 90
    32768
280
     0
281
     1
  0
CLASS
  1
ARCALIGNEDTEXT
  2
AcDbArcAlignedText
  3
ATEXT|AutoCAD Express Tool|expresstools@autodesk.com
 90
    32768
280
     0
281
     1
  0
CLASS
  1
MATERIAL
  2
AcDbMaterial
  3
ObjectDBX Classes
 90
     1024
280
     0
281
     0
  0
CLASS
  1
VISUALSTYLE
  2
AcDbVisualStyle
  3
ObjectDBX Classes
 90
     4095
280
     0
281
     0
  0
CLASS
  1
TABLESTYLE
  2
AcDbTableStyle
  3
ObjectDBX Classes
 90
     4095
280
     0
281
     0
  0
ENDSEC
  0
SECTION
  2
TABLES
  0
TABLE
  2
VPORT
  5
7
330
0
100
AcDbSymbolTable
 70
     1
  0
VPORT
  5
15
330
7
100
AcDbSymbolTableRecord
100
AcDbViewportTableRecord
  2
*ACTIVE
 70
     0
 10
0.0
 20
0.0
 11
1.0
 21
1.0
 12
99.57426675
 22
131.13904375
 13
0.0
 23
0.0
 14
1.0
 24
1.0
 15
0.0
 25
0.0
 16
0.0
 26
0.0
 36
1.0
 17
0.0
 27
0.0
 37
0.0
 40
81.46989085921051
 41
1.434782608695652
 42
50.0
 43
0.0
 44
0.0
 50
0.0
 51
0.0
 71
     0
 72
   100
 73
     1
 74
     1
 75
     0
 76
     0
 77
     0
 78
     0
281
     0
 65
     1
110
0.0
120
0.0
130
0.0
111
1.0
121
0.0
131
0.0
112
0.0
122
1.0
132
0.0
 79
     0
146
0.0
  0
ENDTAB
  0
TABLE
  2
LTYPE
  5
4
330
0
100
AcDbSymbolTable
 70
     8
  0
LTYPE
  5
11
330
4
100
AcDbSymbolTableRecord
100
AcDbLinetypeTableRecord
  2
BYBLOCK
 70
     0
  3

 72
    65
 73
     0
 40
0.0
  0
LTYPE
  5
12
330
4
100
AcDbSymbolTableRecord
100
AcDbLinetypeTableRecord
  2
BYLAYER
 70
     0
  3

 72
    65
 73
     0
 40
0.0
  0
LTYPE
  5
13
330
4
100
AcDbSymbolTableRecord
100
AcDbLinetypeTableRecord
  2
CONTINUOUS
 70
     0
  3
Solid line
 72
    65
 73
     0
 40
0.0
  0
LTYPE
  5
1D
330
4
100
AcDbSymbolTableRecord
100
AcDbLinetypeTableRecord
  2
DASHED
 70
     0
  3
__ __ __ __ __ __ __ __ __ __ __ __ __ __ __ __
 72
    65
 73
     2
 40
15.0
 49
12.0
 74
     0
 49
-3.0
 74
     0
  0
LTYPE
  5
1E
330
4
100
AcDbSymbolTableRecord
100
AcDbLinetypeTableRecord
  2
DASHDOT
 70
     0
  3
 __ . __ . __ . __ . __ . __ . __ . 
 72
    65
 73
     4
 40
18.5
 49
12.0
 74
     0
 49
-3.0
 74
     0
 49
0.5
 74
     0
 49
-3.0
 74
     0
  0
LTYPE
  5
1F
330
4
100
AcDbSymbolTableRecord
100
AcDbLinetypeTableRecord
  2
DOT
 70
     0
  3
 . . . . . . . . . . . . . . . .
 72
    65
 73
     2
 40
3.5
 49
0.5
 74
     0
 49
-3.0
 74
     0
  0
LTYPE
  5
20
330
4
100
AcDbSymbolTableRecord
100
AcDbLinetypeTableRecord
  2
DASHSPACE
 70
     0
  3
__    __    __    __    __   
 72
    65
 73
     2
 40
30.0
 49
12.0
 74
     0
 49
-18.0
 74
     0
  0
LTYPE
  5
21
330
4
100
AcDbSymbolTableRecord
100
AcDbLinetypeTableRecord
  2
DASHDOT2
 70
     0
  3
__ . . __ . . __ . . __ 
 72
    65
 73
     6
 40
22.0
 49
12.0
 74
     0
 49
-3.0
 74
     0
 49
0.5
 74
     0
 49
-3.0
 74
     0
 49
0.5
 74
     0
 49
-3.0
 74
     0
  0
LTYPE
  5
22
330
4
100
AcDbSymbolTableRecord
100
AcDbLinetypeTableRecord
  2
PHANTOM
 70
     0
  3
____________    ____    ____   _
 72
    65
 73
     6
 40
20.0
 49
10.0
 74
     0
 49
-2.0
 74
     0
 49
2.0
 74
     0
 49
-2.0
 74
     0
 49
2.0
 74
     0
 49
-2.0
 74
     0
  0
LTYPE
  5
23
330
4
100
AcDbSymbolTableRecord
100
AcDbLinetypeTableRecord
  2
AXES
 70
     0
  3
________  __  ________  __  _____
 72
    65
 73
     4
 40
24.0
 49
15.0
 74
     0
 49
-3.0
 74
     0
 49
3.0
 74
     0
 49
-3.0
 74
     0
  0
ENDTAB
  0
TABLE
  2
LAYER
  5
2
330
0
100
AcDbSymbolTable
 70
     6
  0
LAYER
  5
14
330
2
100
AcDbSymbolTableRecord
100
AcDbLayerTableRecord
  2
0
 70
     0
 62
     7
  6
CONTINUOUS
370
    -3
390
20A
  0
LAYER
  5
1FF
330
2
100
AcDbSymbolTableRecord
100
AcDbLayerTableRecord
  2
Hawa1
 70
     0
 62
     2
  6
CONTINUOUS
370
    -3
390
20A
  0
LAYER
  5
200
330
2
100
AcDbSymbolTableRecord
100
AcDbLayerTableRecord
  2
Hawa2
 70
     0
 62
     9
  6
CONTINUOUS
370
    -3
390
20A
  0
LAYER
  5
201
330
2
100
AcDbSymbolTableRecord
100
AcDbLayerTableRecord
  2
Hawa4
 70
     0
 62
     4
  6
CONTINUOUS
370
    -3
390
20A
  0
LAYER
  5
202
330
2
100
AcDbSymbolTableRecord
100
AcDbLayerTableRecord
  2
Hawa5
 70
     0
 62
     1
  6
CONTINUOUS
370
    -3
390
20A
  0
LAYER
  5
203
330
2
100
AcDbSymbolTableRecord
100
AcDbLayerTableRecord
  2
Hawa6
 70
     0
 62
     3
  6
CONTINUOUS
370
    -3
390
20A
  0
ENDTAB
  0
TABLE
  2
STYLE
  5
3
330
0
100
AcDbSymbolTable
 70
     2
  0
STYLE
  5
17
330
3
100
AcDbSymbolTableRecord
100
AcDbTextStyleTableRecord
  2
STANDARD
 70
     0
 40
0.0
 41
1.0
 50
0.0
 71
     0
 42
2.5
  3
isocp.shx
  4

  0
STYLE
  5
24
330
3
100
AcDbSymbolTableRecord
100
AcDbTextStyleTableRecord
  2
GDT
 70
     0
 40
0.0
 41
1.0
 50
0.0
 71
     0
 42
2.5
  3
amgdt.shx
  4

  0
ENDTAB
  0
TABLE
  2
VIEW
  5
5
330
0
100
AcDbSymbolTable
 70
     0
  0
ENDTAB
  0
TABLE
  2
UCS
  5
6
330
0
100
AcDbSymbolTable
 70
     0
  0
ENDTAB
  0
TABLE
  2
APPID
  5
8
330
0
100
AcDbSymbolTable
 70
     1
  0
APPID
  5
16
330
8
100
AcDbSymbolTableRecord
100
AcDbRegAppTableRecord
  2
ACAD
 70
     0
  0
ENDTAB
  0
TABLE
  2
DIMSTYLE
  5
9
330
0
100
AcDbSymbolTable
 70
     1
100
AcDbDimStyleTable
 71
     0
  0
DIMSTYLE
105
18
102
{ACAD_REACTORS
330
26
330
28
330
2A
330
2C
330
2E
102
}
330
9
100
AcDbSymbolTableRecord
100
AcDbDimStyleTableRecord
  2
STANDARD
 70
     0
 41
2.5
 42
0.625
 43
3.75
 44
1.25
 73
     0
 74
     0
 77
     1
 78
     8
140
2.5
141
2.5
143
0.03937
147
0.625
171
     3
172
     1
271
     2
272
     2
274
     3
283
     0
284
     8
289
     0
340
17
  0
ENDTAB
  0
TABLE
  2
BLOCK_RECORD
  5
1
330
0
100
AcDbSymbolTable
 70
     8
  0
BLOCK_RECORD
  5
A
330
1
100
AcDbSymbolTableRecord
100
AcDbBlockTableRecord
  2
*MODEL_SPACE
340
1BA
  0
BLOCK_RECORD
  5
B
330
1
100
AcDbSymbolTableRecord
100
AcDbBlockTableRecord
  2
*PAPER_SPACE
340
1BB
  0
BLOCK_RECORD
  5
25
330
1
100
AcDbSymbolTableRecord
100
AcDbBlockTableRecord
  2
*D0
340
0
  0
BLOCK_RECORD
  5
27
330
1
100
AcDbSymbolTableRecord
100
AcDbBlockTableRecord
  2
*D1
340
0
  0
BLOCK_RECORD
  5
29
330
1
100
AcDbSymbolTableRecord
100
AcDbBlockTableRecord
  2
*D2
340
0
  0
BLOCK_RECORD
  5
2B
330
1
100
AcDbSymbolTableRecord
100
AcDbBlockTableRecord
  2
*D3
340
0
  0
BLOCK_RECORD
  5
2D
330
1
100
AcDbSymbolTableRecord
100
AcDbBlockTableRecord
  2
*D4
340
0
  0
BLOCK_RECORD
  5
124
330
1
100
AcDbSymbolTableRecord
100
AcDbBlockTableRecord
  2
BLOCK0
340
0
  0
BLOCK_RECORD
  5
125
330
1
100
AcDbSymbolTableRecord
100
AcDbBlockTableRecord
  2
BLOCK1
340
0
  0
BLOCK_RECORD
  5
126
330
1
100
AcDbSymbolTableRecord
100
AcDbBlockTableRecord
  2
BLOCK2
340
0
  0
ENDTAB
  0
ENDSEC
  0
SECTION
  2
BLOCKS
  0
BLOCK
  5
D
330
A
100
AcDbEntity
  8
0
100
AcDbBlockBegin
  2
*MODEL_SPACE
 70
     0
 10
0.0
 20
0.0
 30
0.0
  3
*MODEL_SPACE
  1

  0
ENDBLK
  5
E
330
A
100
AcDbEntity
  8
0
100
AcDbBlockEnd
  0
BLOCK
  5
F
330
B
100
AcDbEntity
 67
     1
  8
0
100
AcDbBlockBegin
  2
*PAPER_SPACE
 70
     0
 10
0.0
 20
0.0
 30
0.0
  3
*PAPER_SPACE
  1

  0
ENDBLK
  5
10
330
B
100
AcDbEntity
 67
     1
  8
0
100
AcDbBlockEnd
  0
BLOCK
  5
127
330
25
100
AcDbEntity
  8
Hawa2
 62
     9
100
AcDbBlockBegin
  2
*D0
 70
     1
 10
0.0
 20
0.0
 30
0.0
  3
*D0
  1

  0
TEXT
  5
128
330
25
100
AcDbEntity
  8
Hawa1
 62
     2
100
AcDbText
 10
62.903896
 20
128.374313
 30
0.0
 40
3.5
  1
37
 50
90.0
 41
1.381697142857137
 72
     5
 11
62.903896
 21
134.4192379999999
 31
0.0
100
AcDbText
  0
TEXT
  5
129
330
25
100
AcDbEntity
  8
Hawa1
 62
     2
100
AcDbText
 10
61.653896
 20
135.4192379999999
 30
0.0
 40
1.0
  1
/
 50
90.0
 41
1.818181818181818
 72
     5
 11
61.653896
 21
136.4192379999999
 31
0.0
100
AcDbText
  0
TEXT
  5
12A
330
25
100
AcDbEntity
  8
Hawa1
 62
     2
100
AcDbText
 10
62.903896
 20
137.4192379999999
 30
0.0
 40
3.5
  1
1
 50
90.0
 41
2.181602448979609
 72
     5
 11
62.903896
 21
140.091701
 31
0.0
100
AcDbText
  0
TEXT
  5
12B
330
25
100
AcDbEntity
  8
Hawa1
 62
     2
100
AcDbText
 10
60.80389399999999
 20
142.7167
 30
0.0
 40
2.33345
  1
15
 50
90.0
 41
1.582451365366418
 72
     5
 11
60.80389399999999
 21
146.746851
 31
0.0
100
AcDbText
  0
TEXT
  5
12C
330
25
100
AcDbEntity
  8
Hawa1
 62
     2
100
AcDbText
 10
63.83734499999999
 20
142.7167
 30
0.0
 40
2.33345
  1
32
 50
90.0
 41
1.318353709796759
 72
     5
 11
63.83734499999999
 21
146.746851
 31
0.0
100
AcDbText
  0
TEXT
  5
12D
330
25
100
AcDbEntity
  8
Hawa1
 62
     2
100
AcDbText
 10
62.02889599999999
 20
146.746851
 30
0.0
 40
3.5
  1
"
 50
90.0
 41
1.629629206349205
 72
     5
 11
62.02889599999999
 21
149.313517
 31
0.0
100
AcDbText
  0
LINE
  5
12E
330
25
100
AcDbEntity
  8
Hawa1
 62
     2
 48
0.100754
100
AcDbLine
 10
61.153896
 20
142.7167
 30
0.0
 11
61.153896
 21
146.746851
 31
0.0
  0
LINE
  5
12F
330
25
100
AcDbEntity
  8
Hawa1
 62
     2
 48
0.273351
100
AcDbLine
 10
98.50075699999999
 20
119.5
 30
0.0
 11
87.566704
 21
119.5
 31
0.0
  0
LINE
  5
130
330
25
100
AcDbEntity
  8
Hawa1
 62
     2
 48
0.387352
100
AcDbLine
 10
79.33142899999999
 20
119.5
 30
0.0
 11
63.83734499999999
 21
119.5
 31
0.0
  0
LINE
  5
131
330
25
100
AcDbEntity
  8
Hawa1
 62
     2
100
AcDbLine
 10
98.50075699999999
 20
156.499801
 30
0.0
 11
63.83734499999999
 21
156.499801
 31
0.0
  0
LINE
  5
132
330
25
100
AcDbEntity
  8
Hawa1
 62
     2
 48
0.075
100
AcDbLine
 10
63.776684
 20
120.560659
 30
0.0
 11
65.89800600000001
 21
118.439341
 31
0.0
  0
LINE
  5
133
330
25
100
AcDbEntity
  8
Hawa1
 62
     2
 48
0.075
100
AcDbLine
 10
65.89800600000001
 20
155.43914
 30
0.0
 11
63.776684
 21
157.560461
 31
0.0
  0
LINE
  5
134
330
25
100
AcDbEntity
  8
Hawa1
 62
     2
100
AcDbLine
 10
64.837345
 20
119.5
 30
0.0
 11
64.837345
 21
156.499801
 31
0.0
  0
ENDBLK
  5
135
330
25
100
AcDbEntity
  8
Hawa2
 62
     9
100
AcDbBlockEnd
  0
BLOCK
  5
136
330
27
100
AcDbEntity
  8
Hawa2
 62
     9
100
AcDbBlockBegin
  2
*D1
 70
     1
 10
0.0
 20
0.0
 30
0.0
  3
*D1
  1

  0
TEXT
  5
137
330
27
100
AcDbEntity
  8
Hawa1
 62
     2
100
AcDbText
 10
82.53217300000001
 20
104.896072
 30
0.0
 40
3.5
  1
14
 41
1.501843975155279
 72
     5
 11
88.577095
 21
104.896072
 31
0.0
100
AcDbText
  0
TEXT
  5
138
330
27
100
AcDbEntity
  8
Hawa1
 62
     2
100
AcDbText
 10
92.701305
 20
106.996075
 30
0.0
 40
2.33345
  1
9
 41
1.228392587362938
 72
     5
 11
94.483036
 21
106.996075
 31
0.0
100
AcDbText
  0
TEXT
  5
139
330
27
100
AcDbEntity
  8
Hawa1
 62
     2
100
AcDbText
 10
91.57709500000001
 20
103.962624
 30
0.0
 40
2.33345
  1
16
 41
1.570672354827857
 72
     5
 11
95.60724599999998
 21
103.962624
 31
0.0
100
AcDbText
  0
TEXT
  5
13A
330
27
100
AcDbEntity
  8
Hawa1
 62
     2
100
AcDbText
 10
95.60724599999998
 20
105.771072
 30
0.0
 40
3.5
  1
"
 41
1.629629841269847
 72
     5
 11
98.173913
 21
105.771072
 31
0.0
100
AcDbText
  0
TEXT
  5
13B
330
27
100
AcDbEntity
  8
Hawa1
 62
     2
100
AcDbText
 10
89.57709599999999
 20
106.146072
 30
0.0
 40
1.0
  1
/
 41
1.818181818181818
 72
     5
 11
90.577096
 21
106.146072
 31
0.0
100
AcDbText
  0
LINE
  5
13C
330
27
100
AcDbEntity
  8
Hawa1
 62
     2
 48
0.100754
100
AcDbLine
 10
91.577096
 20
106.646072
 30
0.0
 11
95.60724599999998
 21
106.646072
 31
0.0
  0
LINE
  5
13D
330
27
100
AcDbEntity
  8
Hawa1
 62
     2
 48
0.184275
100
AcDbLine
 10
98.50075699999999
 20
109.333633
 30
0.0
 11
98.50075699999999
 21
101.962624
 31
0.0
  0
LINE
  5
13E
330
27
100
AcDbEntity
  8
Hawa1
 62
     2
 48
0.413436
100
AcDbLine
 10
112.500739
 20
118.500057
 30
0.0
 11
112.500739
 21
101.962624
 31
0.0
  0
LINE
  5
13F
330
27
100
AcDbEntity
  8
Hawa1
 62
     2
 48
0.075
100
AcDbLine
 10
99.56141700000001
 20
104.023285
 30
0.0
 11
97.440096
 21
101.901962
 31
0.0
  0
LINE
  5
140
330
27
100
AcDbEntity
  8
Hawa1
 62
     2
 48
0.075
100
AcDbLine
 10
111.440078
 20
101.901962
 30
0.0
 11
113.561399
 21
104.023285
 31
0.0
  0
LINE
  5
141
330
27
100
AcDbEntity
  8
Hawa1
 62
     2
100
AcDbLine
 10
82.53217099999998
 20
102.962624
 30
0.0
 11
112.500739
 21
102.962624
 31
0.0
  0
ENDBLK
  5
142
330
27
100
AcDbEntity
  8
Hawa2
 62
     9
100
AcDbBlockEnd
  0
BLOCK
  5
143
330
29
100
AcDbEntity
  8
Hawa2
 62
     9
100
AcDbBlockBegin
  2
*D2
 70
     1
 10
0.0
 20
0.0
 30
0.0
  3
*D2
  1

  0
TEXT
  5
144
330
29
100
AcDbEntity
  8
Hawa1
 62
     2
100
AcDbText
 10
102.031114
 20
93.717281
 30
0.0
 40
3.5
  1
28
 41
1.381696685714288
 72
     5
 11
108.076037
 21
93.717281
 31
0.0
100
AcDbText
  0
TEXT
  5
145
330
29
100
AcDbEntity
  8
Hawa1
 62
     2
100
AcDbText
 10
109.076037
 20
94.967281
 30
0.0
 40
1.0
  1
/
 41
1.818181818181818
 72
     5
 11
110.076037
 21
94.967281
 31
0.0
100
AcDbText
  0
TEXT
  5
146
330
29
100
AcDbEntity
  8
Hawa1
 62
     2
100
AcDbText
 10
111.076037
 20
93.717281
 30
0.0
 40
3.5
  1
1
 41
2.181601632653046
 72
     5
 11
113.748499
 21
93.717281
 31
0.0
100
AcDbText
  0
TEXT
  5
147
330
29
100
AcDbEntity
  8
Hawa1
 62
     2
100
AcDbText
 10
117.497709
 20
95.81728400000001
 30
0.0
 40
2.33345
  1
3
 41
1.291060618467947
 72
     5
 11
119.27944
 21
95.81728400000001
 31
0.0
100
AcDbText
  0
TEXT
  5
148
330
29
100
AcDbEntity
  8
Hawa1
 62
     2
100
AcDbText
 10
116.373499
 20
92.78383299999999
 30
0.0
 40
2.33345
  1
32
 41
1.318353709796764
 72
     5
 11
120.40365
 21
92.78383299999999
 31
0.0
100
AcDbText
  0
TEXT
  5
149
330
29
100
AcDbEntity
  8
Hawa1
 62
     2
100
AcDbText
 10
120.40365
 20
94.592281
 30
0.0
 40
3.5
  1
"
 41
1.629629206349205
 72
     5
 11
122.970316
 21
94.592281
 31
0.0
100
AcDbText
  0
LINE
  5
14A
330
29
100
AcDbEntity
  8
Hawa1
 62
     2
 48
0.100754
100
AcDbLine
 10
116.373499
 20
95.46728100000001
 30
0.0
 11
120.40365
 21
95.46728100000001
 31
0.0
  0
LINE
  5
14B
330
29
100
AcDbEntity
  8
Hawa1
 62
     2
 48
0.230344
100
AcDbLine
 10
98.50075699999999
 20
99.99760100000001
 30
0.0
 11
98.50075699999999
 21
90.783833
 31
0.0
  0
LINE
  5
14C
330
29
100
AcDbEntity
  8
Hawa1
 62
     2
 48
0.230344
100
AcDbLine
 10
126.500673
 20
99.99760100000001
 30
0.0
 11
126.500673
 21
90.783833
 31
0.0
  0
LINE
  5
14D
330
29
100
AcDbEntity
  8
Hawa1
 62
     2
 48
0.075
100
AcDbLine
 10
99.56141700000001
 20
92.84449399999999
 30
0.0
 11
97.440096
 21
90.72317099999999
 31
0.0
  0
LINE
  5
14E
330
29
100
AcDbEntity
  8
Hawa1
 62
     2
 48
0.075
100
AcDbLine
 10
125.440014
 20
90.72317099999999
 30
0.0
 11
127.561333
 21
92.84449399999999
 31
0.0
  0
LINE
  5
14F
330
29
100
AcDbEntity
  8
Hawa1
 62
     2
100
AcDbLine
 10
98.50075699999999
 20
91.783833
 30
0.0
 11
126.500673
 21
91.783833
 31
0.0
  0
ENDBLK
  5
150
330
29
100
AcDbEntity
  8
Hawa2
 62
     9
100
AcDbBlockEnd
  0
BLOCK
  5
151
330
2B
100
AcDbEntity
  8
Hawa2
 62
     9
100
AcDbBlockBegin
  2
*D3
 70
     1
 10
0.0
 20
0.0
 30
0.0
  3
*D3
  1

  0
TEXT
  5
152
330
2B
100
AcDbEntity
  8
Hawa1
 62
     2
100
AcDbText
 10
109.655365
 20
167.23814
 30
0.0
 40
3.5
  1
41
 41
1.501844472049687
 72
     5
 11
115.700289
 21
167.23814
 31
0.0
100
AcDbText
  0
TEXT
  5
153
330
2B
100
AcDbEntity
  8
Hawa1
 62
     2
100
AcDbText
 10
116.700289
 20
168.48814
 30
0.0
 40
1.0
  1
/
 41
1.818181818181818
 72
     5
 11
117.700289
 21
168.48814
 31
0.0
100
AcDbText
  0
TEXT
  5
154
330
2B
100
AcDbEntity
  8
Hawa1
 62
     2
100
AcDbText
 10
118.700288
 20
167.23814
 30
0.0
 40
3.5
  1
1
 41
2.18160081632654
 72
     5
 11
121.372749
 21
167.23814
 31
0.0
100
AcDbText
  0
TEXT
  5
155
330
2B
100
AcDbEntity
  8
Hawa1
 62
     2
100
AcDbText
 10
123.997749
 20
169.338139
 30
0.0
 40
2.33345
  1
5
 41
1.291060618467968
 72
     5
 11
125.77948
 21
169.338139
 31
0.0
100
AcDbText
  0
TEXT
  5
156
330
2B
100
AcDbEntity
  8
Hawa1
 62
     2
100
AcDbText
 10
123.997749
 20
166.304689
 30
0.0
 40
2.33345
  1
8
 41
1.388292403561645
 72
     5
 11
125.77948
 21
166.304689
 31
0.0
100
AcDbText
  0
TEXT
  5
157
330
2B
100
AcDbEntity
  8
Hawa1
 62
     2
100
AcDbText
 10
125.779482
 20
168.11314
 30
0.0
 40
3.5
  1
"
 41
1.629629206349205
 72
     5
 11
128.346148
 21
168.11314
 31
0.0
100
AcDbText
  0
LINE
  5
158
330
2B
100
AcDbEntity
  8
Hawa1
 62
     2
 48
0.044543
100
AcDbLine
 10
123.997751
 20
168.98814
 30
0.0
 11
125.77948
 21
168.98814
 31
0.0
  0
LINE
  5
159
330
2B
100
AcDbEntity
  8
Hawa1
 62
     2
 48
0.118378
100
AcDbLine
 10
98.50075699999999
 20
169.039824
 30
0.0
 11
98.50075699999999
 21
164.304689
 31
0.0
  0
LINE
  5
15A
330
2B
100
AcDbEntity
  8
Hawa1
 62
     2
 48
0.4076170000000001
100
AcDbLine
 10
139.500755
 20
150.0
 30
0.0
 11
139.500755
 21
166.304689
 31
0.0
  0
LINE
  5
15B
330
2B
100
AcDbEntity
  8
Hawa1
 62
     2
 48
0.075
100
AcDbLine
 10
99.56141700000001
 20
166.365349
 30
0.0
 11
97.440096
 21
164.244029
 31
0.0
  0
LINE
  5
15C
330
2B
100
AcDbEntity
  8
Hawa1
 62
     2
 48
0.075
100
AcDbLine
 10
138.440094
 20
164.244029
 30
0.0
 11
140.561417
 21
166.365349
 31
0.0
  0
LINE
  5
15D
330
2B
100
AcDbEntity
  8
Hawa1
 62
     2
100
AcDbLine
 10
98.50075699999999
 20
165.304689
 30
0.0
 11
139.500755
 21
165.304689
 31
0.0
  0
ENDBLK
  5
15E
330
2B
100
AcDbEntity
  8
Hawa2
 62
     9
100
AcDbBlockEnd
  0
BLOCK
  5
15F
330
2D
100
AcDbEntity
  8
Hawa2
 62
     9
100
AcDbBlockBegin
  2
*D4
 70
     1
 10
0.0
 20
0.0
 30
0.0
  3
*D4
  1

  0
TEXT
  5
160
330
2D
100
AcDbEntity
  8
Hawa1
 62
     2
100
AcDbText
 10
83.274384
 20
118.499874
 30
0.0
 40
3.5
  1
6.2
 50
90.0
 41
1.433615560217067
 72
     5
 11
83.274384
 21
126.578594
 31
0.0
100
AcDbText
  0
TEXT
  5
161
330
2D
100
AcDbEntity
  8
Hawa1
 62
     2
100
AcDbText
 10
83.274384
 20
113.999874
 30
0.0
 40
3.5
  1
%%c
 50
90.0
 41
1.333333333333332
 72
     5
 11
83.274384
 21
117.499874
 31
0.0
100
AcDbText
  0
TEXT
  5
162
330
2D
100
AcDbEntity
  8
Hawa1
 62
     2
100
AcDbText
 10
81.17438299999999
 20
129.578594
 30
0.0
 40
2.33345
  1
1
 50
90.0
 41
2.181602348454014
 72
     5
 11
81.17438299999999
 21
131.360325
 31
0.0
100
AcDbText
  0
TEXT
  5
163
330
2D
100
AcDbEntity
  8
Hawa1
 62
     2
100
AcDbText
 10
84.20783399999999
 20
129.578594
 30
0.0
 40
2.33345
  1
4
 50
90.0
 41
1.174708956859854
 72
     5
 11
84.20783399999999
 21
131.360325
 31
0.0
100
AcDbText
  0
TEXT
  5
164
330
2D
100
AcDbEntity
  8
Hawa1
 62
     2
100
AcDbText
 10
82.39938399999999
 20
131.360325
 30
0.0
 40
3.5
  1
"
 50
90.0
 41
1.629629206349205
 72
     5
 11
82.39938399999999
 21
133.926991
 31
0.0
100
AcDbText
  0
TEXT
  5
165
330
2D
100
AcDbEntity
  8
Hawa1
 62
     2
100
AcDbText
 10
82.024384
 20
127.578594
 30
0.0
 40
1.0
  1
/
 50
90.0
 41
1.818181818181792
 72
     5
 11
82.024384
 21
128.578594
 31
0.0
100
AcDbText
  0
LINE
  5
166
330
2D
100
AcDbEntity
  8
Hawa1
 62
     2
 48
0.044543
100
AcDbLine
 10
81.52438399999999
 20
129.578594
 30
0.0
 11
81.52438399999999
 21
131.360325
 31
0.0
  0
LINE
  5
167
330
2D
100
AcDbEntity
  8
Hawa1
 62
     2
 48
0.357304
100
AcDbLine
 10
98.50000000000001
 20
133.4
 30
0.0
 11
84.20783399999999
 21
133.4
 31
0.0
  0
LINE
  5
168
330
2D
100
AcDbEntity
  8
Hawa1
 62
     2
 48
0.357304
100
AcDbLine
 10
98.50000000000001
 20
139.6
 30
0.0
 11
84.20783399999999
 21
139.6
 31
0.0
  0
LINE
  5
169
330
2D
100
AcDbEntity
  8
Hawa1
 62
     2
 48
0.075
100
AcDbLine
 10
84.14717299999999
 20
140.66066
 30
0.0
 11
86.26849399999999
 21
138.53934
 31
0.0
  0
LINE
  5
16A
330
2D
100
AcDbEntity
  8
Hawa1
 62
     2
 48
0.075
100
AcDbLine
 10
86.26849399999999
 20
132.33934
 30
0.0
 11
84.14717299999999
 21
134.46066
 31
0.0
  0
LINE
  5
16B
330
2D
100
AcDbEntity
  8
Hawa1
 62
     2
100
AcDbLine
 10
85.20783399999999
 20
113.999874
 30
0.0
 11
85.20783399999999
 21
139.6
 31
0.0
  0
ENDBLK
  5
16C
330
2D
100
AcDbEntity
  8
Hawa2
 62
     9
100
AcDbBlockEnd
  0
BLOCK
  5
16D
330
124
100
AcDbEntity
  8
Hawa2
 62
     9
100
AcDbBlockBegin
  2
BLOCK0
 70
     0
 10
0.0
 20
0.0
 30
0.0
  3
BLOCK0
  1

  0
LINE
  5
16E
330
124
100
AcDbEntity
  8
Hawa2
 62
     9
 48
0.0158
100
AcDbLine
 10
35.05386400000001
 20
-29.99995800000001
 30
0.0
 11
35.500748
 21
-29.553074
 31
0.0
  0
LINE
  5
16F
330
124
100
AcDbEntity
  8
Hawa2
 62
     9
 48
0.1158
100
AcDbLine
 10
32.225441
 20
-29.999956
 30
0.0
 11
35.500748
 21
-26.724648
 31
0.0
  0
LINE
  5
170
330
124
100
AcDbEntity
  8
Hawa2
 62
     9
 48
0.2158
100
AcDbLine
 10
29.397015
 20
-29.999956
 30
0.0
 11
35.500748
 21
-23.896221
 31
0.0
  0
LINE
  5
171
330
124
100
AcDbEntity
  8
Hawa2
 62
     9
 48
0.07071
100
AcDbLine
 10
26.568588
 20
-29.999954
 30
0.0
 11
28.568573
 21
-27.999969
 31
0.0
  0
LINE
  5
172
330
124
100
AcDbEntity
  8
Hawa2
 62
     9
 48
0.027029
100
AcDbLine
 10
29.802393
 20
-26.76615
 30
0.0
 11
30.566893
 21
-26.00165
 31
0.0
  0
LINE
  5
173
330
124
100
AcDbEntity
  8
Hawa2
 62
     9
 48
0.105206
100
AcDbLine
 10
32.525074
 20
-24.043468
 30
0.0
 11
35.500748
 21
-21.067793
 31
0.0
  0
LINE
  5
174
330
124
100
AcDbEntity
  8
Hawa2
 62
     9
 48
0.070711
100
AcDbLine
 10
33.500751
 20
-20.239365
 30
0.0
 11
35.500748
 21
-18.239367
 31
0.0
  0
LINE
  5
175
330
124
100
AcDbEntity
  8
Hawa2
 62
     9
 48
0.070711
100
AcDbLine
 10
33.500751
 20
-17.410938
 30
0.0
 11
35.500748
 21
-15.410939
 31
0.0
  0
LINE
  5
176
330
124
100
AcDbEntity
  8
Hawa2
 62
     9
 48
0.070711
100
AcDbLine
 10
33.500751
 20
-14.582511
 30
0.0
 11
35.500748
 21
-12.582512
 31
0.0
  0
LINE
  5
177
330
124
100
AcDbEntity
  8
Hawa2
 62
     9
 48
0.044048
100
AcDbLine
 10
15.254887
 20
-29.999949
 30
0.0
 11
16.500744
 21
-28.754089
 31
0.0
  0
LINE
  5
178
330
124
100
AcDbEntity
  8
Hawa2
 62
     9
 48
0.070711
100
AcDbLine
 10
33.500751
 20
-11.754085
 30
0.0
 11
35.500748
 21
-9.754084999999999
 31
0.0
  0
LINE
  5
179
330
124
100
AcDbEntity
  8
Hawa2
 62
     9
 48
0.070707
100
AcDbLine
 10
12.42646
 20
-29.999947
 30
0.0
 11
14.426346
 21
-28.000061
 31
0.0
  0
LINE
  5
17A
330
124
100
AcDbEntity
  8
Hawa2
 62
     9
 48
0.070711
100
AcDbLine
 10
33.500748
 20
-8.925657000000001
 30
0.0
 11
35.500748
 21
-6.925658
 31
0.0
  0
LINE
  5
17B
330
124
100
AcDbEntity
  8
Hawa2
 62
     9
 48
0.124815
100
AcDbLine
 10
9.598035000000001
 20
-29.999945
 30
0.0
 11
13.128335
 21
-26.469645
 31
0.0
  0
LINE
  5
17C
330
124
100
AcDbEntity
  8
Hawa2
 62
     9
 48
0.070711
100
AcDbLine
 10
33.500748
 20
-6.09723
 30
0.0
 11
35.500748
 21
-4.09723
 31
0.0
  0
LINE
  5
17D
330
124
100
AcDbEntity
  8
Hawa2
 62
     9
 48
0.122006
100
AcDbLine
 10
7.500757000000001
 20
-29.268795
 30
0.0
 11
10.951617
 21
-25.817936
 31
0.0
  0
LINE
  5
17E
330
124
100
AcDbEntity
  8
Hawa2
 62
     9
 48
0.089473
100
AcDbLine
 10
32.970074
 20
-3.799477999999999
 30
0.0
 11
35.500748
 21
-1.268803
 31
0.0
  0
LINE
  5
17F
330
124
100
AcDbEntity
  8
Hawa2
 62
     9
 48
0.100873
100
AcDbLine
 10
7.500757000000001
 20
-26.440369
 30
0.0
 11
10.353878
 21
-23.587248
 31
0.0
  0
LINE
  5
180
330
124
100
AcDbEntity
  8
Hawa2
 62
     9
 48
0.092533
100
AcDbLine
 10
31.323895
 20
-2.617229999999999
 30
0.0
 11
33.941124
 21
0.0
 31
0.0
  0
LINE
  5
181
330
124
100
AcDbEntity
  8
Hawa2
 62
     9
 48
0.07974
100
AcDbLine
 10
7.500757000000001
 20
-23.611942
 30
0.0
 11
9.756138999999999
 21
-21.35656
 31
0.0
  0
LINE
  5
182
330
124
100
AcDbEntity
  8
Hawa2
 62
     9
 48
0.088387
100
AcDbLine
 10
28.612728
 20
-2.499970999999999
 30
0.0
 11
31.112698
 21
0.0
 31
0.0
  0
LINE
  5
183
330
124
100
AcDbEntity
  8
Hawa2
 62
     9
 48
0.07071
100
AcDbLine
 10
7.500757000000001
 20
-20.783514
 30
0.0
 11
9.500742
 21
-18.783529
 31
0.0
  0
LINE
  5
184
330
124
100
AcDbEntity
  8
Hawa2
 62
     9
 48
0.088386
100
AcDbLine
 10
25.784344
 20
-2.499927
 30
0.0
 11
28.284271
 21
0.0
 31
0.0
  0
LINE
  5
185
330
124
100
AcDbEntity
  8
Hawa2
 62
     9
 48
0.07071
100
AcDbLine
 10
7.500757000000001
 20
-17.955088
 30
0.0
 11
9.500742
 21
-15.955102
 31
0.0
  0
LINE
  5
186
330
124
100
AcDbEntity
  8
Hawa2
 62
     9
 48
0.065588
100
AcDbLine
 10
23.600731
 20
-1.855111999999999
 30
0.0
 11
25.455845
 21
0.0
 31
0.0
  0
LINE
  5
187
330
124
100
AcDbEntity
  8
Hawa2
 62
     9
 48
0.07071
100
AcDbLine
 10
7.500757000000001
 20
-15.12666
 30
0.0
 11
9.500742
 21
-13.126676
 31
0.0
  0
LINE
  5
188
330
124
100
AcDbEntity
  8
Hawa2
 62
     9
 48
0.07071
100
AcDbLine
 10
7.500757000000001
 20
-12.298233
 30
0.0
 11
9.500742
 21
-10.298248
 31
0.0
  0
LINE
  5
189
330
124
100
AcDbEntity
  8
Hawa2
 62
     9
 48
0.074304
100
AcDbLine
 10
17.299086
 20
-2.499902999999999
 30
0.0
 11
19.400732
 21
-0.398258
 31
0.0
  0
LINE
  5
18A
330
124
100
AcDbEntity
  8
Hawa2
 62
     9
 48
0.07071
100
AcDbLine
 10
7.500757000000001
 20
-9.469806
 30
0.0
 11
9.500742
 21
-7.469821
 31
0.0
  0
LINE
  5
18B
330
124
100
AcDbEntity
  8
Hawa2
 62
     9
 48
0.088385
100
AcDbLine
 10
14.470654
 20
-2.499908
 30
0.0
 11
16.970562
 21
0.0
 31
0.0
  0
LINE
  5
18C
330
124
100
AcDbEntity
  8
Hawa2
 62
     9
 48
0.077576
100
AcDbLine
 10
7.500757000000001
 20
-6.641378999999999
 30
0.0
 11
9.694933999999999
 21
-4.447201999999999
 31
0.0
  0
LINE
  5
18D
330
124
100
AcDbEntity
  8
Hawa2
 62
     9
 48
0.095261
100
AcDbLine
 10
11.447757
 20
-2.694379
 30
0.0
 11
14.142136
 21
0.0
 31
0.0
  0
LINE
  5
18E
330
124
100
AcDbEntity
  8
Hawa2
 62
     9
 48
0.134808
100
AcDbLine
 10
7.500757000000001
 20
-3.812951999999999
 30
0.0
 11
11.313708
 21
0.0
 31
0.0
  0
LINE
  5
18F
330
124
100
AcDbEntity
  8
Hawa2
 62
     9
 48
0.034808
100
AcDbLine
 10
7.500757000000001
 20
-0.984524
 30
0.0
 11
8.485281
 21
0.0
 31
0.0
  0
ENDBLK
  5
190
330
124
100
AcDbEntity
  8
Hawa2
 62
     9
100
AcDbBlockEnd
  0
BLOCK
  5
191
330
125
100
AcDbEntity
  8
Hawa2
 62
     9
100
AcDbBlockBegin
  2
BLOCK1
 70
     0
 10
0.0
 20
0.0
 30
0.0
  3
BLOCK1
  1

  0
LINE
  5
192
330
125
100
AcDbEntity
  8
Hawa2
 62
     9
 48
0.090497
100
AcDbLine
 10
4.941125
 20
-29.0
 30
0.0
 11
7.500757000000001
 21
-26.440369
 31
0.0
  0
LINE
  5
193
330
125
100
AcDbEntity
  8
Hawa2
 62
     9
 48
0.106066
100
AcDbLine
 10
2.112697999999999
 20
-29.0
 30
0.0
 11
5.112699
 21
-26.0
 31
0.0
  0
LINE
  5
194
330
125
100
AcDbEntity
  8
Hawa2
 62
     9
 48
0.106066
100
AcDbLine
 10
-0.715729
 20
-29.0
 30
0.0
 11
2.284270999999999
 21
-26.0
 31
0.0
  0
LINE
  5
195
330
125
100
AcDbEntity
  8
Hawa2
 62
     9
 48
0.110011
100
AcDbLine
 10
-3.544155999999999
 20
-29.0
 30
0.0
 11
-0.4325630000000001
 21
-25.888407
 31
0.0
  0
LINE
  5
196
330
125
100
AcDbEntity
  8
Hawa2
 62
     9
 48
0.207654
100
AcDbLine
 10
-6.372583
 20
-29.0
 30
0.0
 11
-0.4992430000000001
 21
-23.126659
 31
0.0
  0
LINE
  5
197
330
125
100
AcDbEntity
  8
Hawa2
 62
     9
 48
0.022954
100
AcDbLine
 10
-6.499375999999999
 20
-26.29836500000001
 30
0.0
 11
-5.850126999999999
 21
-25.649117
 31
0.0
  0
LINE
  5
198
330
125
100
AcDbEntity
  8
Hawa2
 62
     9
 48
0.139404
100
AcDbLine
 10
-4.499242999999999
 20
-24.298233
 30
0.0
 11
-0.5563010000000001
 21
-20.355291
 31
0.0
  0
LINE
  5
199
330
125
100
AcDbEntity
  8
Hawa2
 62
     9
 48
0.120208
100
AcDbLine
 10
-5.16434
 20
-22.134903
 30
0.0
 11
-1.76434
 21
-18.734903
 31
0.0
  0
LINE
  5
19A
330
125
100
AcDbEntity
  8
Hawa2
 62
     9
 48
0.141421
100
AcDbLine
 10
-6.499242999999999
 20
-20.641378
 30
0.0
 11
-2.499242999999999
 21
-16.641378
 31
0.0
  0
LINE
  5
19B
330
125
100
AcDbEntity
  8
Hawa2
 62
     9
 48
0.095917
100
AcDbLine
 10
-6.499242999999999
 20
-17.812952
 30
0.0
 11
-3.786291999999999
 21
-15.1
 31
0.0
  0
ENDBLK
  5
19C
330
125
100
AcDbEntity
  8
Hawa2
 62
     9
100
AcDbBlockEnd
  0
BLOCK
  5
19D
330
126
100
AcDbEntity
  8
Hawa2
 62
     9
100
AcDbBlockBegin
  2
BLOCK2
 70
     0
 10
0.0
 20
0.0
 30
0.0
  3
BLOCK2
  1

  0
LINE
  5
19E
330
126
100
AcDbEntity
  8
Hawa2
 62
     9
 48
0.019786
100
AcDbLine
 10
33.941124
 20
0.0
 30
0.0
 11
34.500755
 21
0.559631
 31
0.0
  0
LINE
  5
19F
330
126
100
AcDbEntity
  8
Hawa2
 62
     9
 48
0.101973
100
AcDbLine
 10
31.112698
 20
0.0
 30
0.0
 11
33.996937
 21
2.884236999999999
 31
0.0
  0
LINE
  5
1A0
330
126
100
AcDbEntity
  8
Hawa2
 62
     9
 48
0.175289
100
AcDbLine
 10
28.284271
 20
0.0
 30
0.0
 11
33.24218
 21
4.95791
 31
0.0
  0
LINE
  5
1A1
330
126
100
AcDbEntity
  8
Hawa2
 62
     9
 48
0.078168
100
AcDbLine
 10
30.250757
 20
4.794912999999999
 30
0.0
 11
32.461693
 21
7.005849
 31
0.0
  0
LINE
  5
1A2
330
126
100
AcDbEntity
  8
Hawa2
 62
     9
 48
0.070711
100
AcDbLine
 10
28.627417
 20
6.0
 30
0.0
 11
30.627417
 21
8.0
 31
0.0
  0
LINE
  5
1A3
330
126
100
AcDbEntity
  8
Hawa2
 62
     9
 48
0.070711
100
AcDbLine
 10
25.79899
 20
6.0
 30
0.0
 11
27.798986
 21
7.999997999999999
 31
0.0
  0
LINE
  5
1A4
330
126
100
AcDbEntity
  8
Hawa2
 62
     9
 48
0.070711
100
AcDbLine
 10
22.970562
 20
6.0
 30
0.0
 11
24.970558
 21
7.999994999999999
 31
0.0
  0
LINE
  5
1A5
330
126
100
AcDbEntity
  8
Hawa2
 62
     9
 48
0.06729
100
AcDbLine
 10
14.142136
 20
0.0
 30
0.0
 11
16.045382
 21
1.903246
 31
0.0
  0
LINE
  5
1A6
330
126
100
AcDbEntity
  8
Hawa2
 62
     9
 48
0.07071
100
AcDbLine
 10
20.142136
 20
6.0
 30
0.0
 11
22.142128
 21
7.999991999999999
 31
0.0
  0
LINE
  5
1A7
330
126
100
AcDbEntity
  8
Hawa2
 62
     9
 48
0.070711
100
AcDbLine
 10
11.313708
 20
0.0
 30
0.0
 11
13.313708
 21
2.0
 31
0.0
  0
LINE
  5
1A8
330
126
100
AcDbEntity
  8
Hawa2
 62
     9
 48
0.07071
100
AcDbLine
 10
17.313709
 20
6.0
 30
0.0
 11
19.313698
 21
7.999989999999999
 31
0.0
  0
LINE
  5
1A9
330
126
100
AcDbEntity
  8
Hawa2
 62
     9
 48
0.062145
100
AcDbLine
 10
5.485280999999999
 20
-3.0
 30
0.0
 11
7.243019
 21
-1.242261999999999
 31
0.0
  0
LINE
  5
1AA
330
126
100
AcDbEntity
  8
Hawa2
 62
     9
 48
0.141695
100
AcDbLine
 10
8.743019
 20
0.257738
 30
0.0
 11
12.750757
 21
4.265476
 31
0.0
  0
LINE
  5
1AB
330
126
100
AcDbEntity
  8
Hawa2
 62
     9
 48
0.07071
100
AcDbLine
 10
14.485281
 20
6.0
 30
0.0
 11
16.485268
 21
7.999986999999999
 31
0.0
  0
LINE
  5
1AC
330
126
100
AcDbEntity
  8
Hawa2
 62
     9
 48
0.026301
100
AcDbLine
 10
-3.243145999999999
 20
-8.9
 30
0.0
 11
-2.499242999999999
 21
-8.156097
 31
0.0
  0
LINE
  5
1AD
330
126
100
AcDbEntity
  8
Hawa2
 62
     9
 48
0.388908
100
AcDbLine
 10
2.656854
 20
-3.0
 30
0.0
 11
13.656838
 21
7.999983999999999
 31
0.0
  0
LINE
  5
1AE
330
126
100
AcDbEntity
  8
Hawa2
 62
     9
100
AcDbLine
 10
-6.071572999999999
 20
-8.9
 30
0.0
 11
10.828408
 21
7.999981
 31
0.0
  0
LINE
  5
1AF
330
126
100
AcDbEntity
  8
Hawa2
 62
     9
100
AcDbLine
 10
-6.499242999999999
 20
-6.499242999999999
 30
0.0
 11
7.999978999999999
 21
7.999978999999999
 31
0.0
  0
LINE
  5
1B0
330
126
100
AcDbEntity
  8
Hawa2
 62
     9
 48
0.274301
100
AcDbLine
 10
-6.499242999999999
 20
-3.670816
 30
0.0
 11
1.259157
 21
4.087583999999999
 31
0.0
  0
LINE
  5
1B1
330
126
100
AcDbEntity
  8
Hawa2
 62
     9
 48
0.218444
100
AcDbLine
 10
-6.499242999999999
 20
-0.842389
 30
0.0
 11
-0.320706
 21
5.336148999999999
 31
0.0
  0
LINE
  5
1B2
330
126
100
AcDbEntity
  8
Hawa2
 62
     9
 48
0.097734
100
AcDbLine
 10
-4.499242999999999
 20
3.986037999999999
 30
0.0
 11
-1.734918999999999
 21
6.750361999999999
 31
0.0
  0
LINE
  5
1B3
330
126
100
AcDbEntity
  8
Hawa2
 62
     9
 48
0.110808
100
AcDbLine
 10
-6.499242999999999
 20
4.814466
 30
0.0
 11
-3.365116999999999
 21
7.948591999999999
 31
0.0
  0
LINE
  5
1B4
330
126
100
AcDbEntity
  8
Hawa2
 62
     9
 48
0.012624
100
AcDbLine
 10
-6.499242999999999
 20
7.642891999999999
 30
0.0
 11
-6.14217
 21
7.999966
 31
0.0
  0
ENDBLK
  5
1B5
330
126
100
AcDbEntity
  8
Hawa2
 62
     9
100
AcDbBlockEnd
  0
ENDSEC
  0
SECTION
  2
ENTITIES
  0
DIMENSION
  5
26
330
A
100
AcDbEntity
  8
Hawa2
 62
     9
100
AcDbDimension
  2
*D0
 10
64.837345
 20
119.5
 30
0.0
 11
64.837345
 21
138.843916
 31
0.0
 70
   161
 71
     5
 42
-1.0
 52
89.999523
  3
STANDARD
100
AcDbAlignedDimension
 13
98.50075699999999
 23
156.499801
 33
0.0
 14
98.50075699999999
 24
119.5
 34
0.0
  0
DIMENSION
  5
28
330
A
100
AcDbEntity
  8
Hawa2
 62
     9
100
AcDbDimension
  2
*D1
 10
98.50075699999999
 20
102.962624
 30
0.0
 11
90.35304299999999
 21
102.962624
 31
0.0
 70
   160
 71
     5
 42
-1.0
 52
89.999523
  3
STANDARD
100
AcDbAlignedDimension
 13
112.500739
 23
118.500057
 33
0.0
 14
98.50075699999999
 24
109.333633
 34
0.0
 50
179.999046
100
AcDbRotatedDimension
  0
DIMENSION
  5
2A
330
A
100
AcDbEntity
  8
Hawa2
 62
     9
100
AcDbDimension
  2
*D2
 10
98.50075699999999
 20
91.783833
 30
0.0
 11
112.500715
 21
91.783833
 31
0.0
 70
   161
 71
     5
 42
-1.0
 52
89.999523
  3
STANDARD
100
AcDbAlignedDimension
 13
126.500673
 23
99.99760100000001
 33
0.0
 14
98.50075699999999
 24
99.99760100000001
 34
0.0
  0
DIMENSION
  5
2C
330
A
100
AcDbEntity
  8
Hawa2
 62
     9
100
AcDbDimension
  2
*D3
 10
98.50075699999999
 20
165.304689
 30
0.0
 11
119.000756
 21
165.304689
 31
0.0
 70
   160
 71
     5
 42
-1.0
 52
89.999523
  3
STANDARD
100
AcDbAlignedDimension
 13
139.500755
 23
150.0
 33
0.0
 14
98.50075699999999
 24
169.039824
 34
0.0
 50
179.999046
100
AcDbRotatedDimension
  0
DIMENSION
  5
2E
330
A
100
AcDbEntity
  8
Hawa2
 62
     9
100
AcDbDimension
  2
*D4
 10
85.20783399999999
 20
139.6
 30
0.0
 11
85.20783399999999
 21
123.963432
 31
0.0
 70
   161
  1
%%c<>
 71
     5
 42
-1.0
 52
89.999523
  3
STANDARD
100
AcDbAlignedDimension
 13
98.50000000000001
 23
133.4
 33
0.0
 14
98.50000000000001
 24
139.6
 34
0.0
  0
LINE
  5
2F
330
A
100
AcDbEntity
  8
Hawa5
 62
     1
 48
0.100019
100
AcDbLine
 10
102.500757
 20
139.6
 30
0.0
 11
98.50000000000001
 21
139.6
 31
0.0
  0
LINE
  5
30
330
A
100
AcDbEntity
  8
Hawa5
 62
     1
 48
0.100019
100
AcDbLine
 10
102.500757
 20
133.4
 30
0.0
 11
98.50000000000001
 21
133.4
 31
0.0
  0
LINE
  5
31
330
A
100
AcDbEntity
  8
Hawa4
 62
     4
 48
0.003107
100
AcDbLine
 10
98.587868
 20
127.612131
 30
0.0
 11
98.50000000000001
 21
127.700001
 31
0.0
  0
LINE
  5
32
330
A
100
AcDbEntity
  8
Hawa6
 62
     3
 48
0.149998
100
AcDbLine
 10
131.500742
 20
126.499969
 30
0.0
 11
131.500742
 21
120.500031
 31
0.0
  0
LINE
  5
33
330
A
100
AcDbEntity
  8
Hawa6
 62
     3
 48
0.150001
100
AcDbLine
 10
121.500734
 20
126.499969
 30
0.0
 11
121.500734
 21
120.499939
 31
0.0
  0
LINE
  5
34
330
A
100
AcDbEntity
  8
Hawa6
 62
     3
 48
0.150001
100
AcDbLine
 10
118.500742
 20
139.5
 30
0.0
 11
118.500742
 21
145.500031
 31
0.0
  0
LINE
  5
35
330
A
100
AcDbEntity
  8
Hawa6
  6
DASHED
 62
     3
 48
0.375
100
AcDbLine
 10
123.300745
 20
139.500078
 30
0.0
 11
123.300745
 21
124.500061
 31
0.0
  0
LINE
  5
36
330
A
100
AcDbEntity
  8
Hawa6
  6
DASHED
 62
     3
 48
0.2
100
AcDbLine
 10
122.500742
 20
138.699982
 30
0.0
 11
130.500742
 21
138.699982
 31
0.0
  0
LINE
  5
37
330
A
100
AcDbEntity
  8
Hawa6
  6
DASHED
 62
     3
 48
0.375001
100
AcDbLine
 10
130.500742
 20
124.500061
 30
0.0
 11
130.500742
 21
139.500089
 31
0.0
  0
LINE
  5
38
330
A
100
AcDbEntity
  8
Hawa6
  6
DASHED
 62
     3
 48
0.375001
100
AcDbLine
 10
129.700762
 20
124.500061
 30
0.0
 11
129.700762
 21
139.500092
 31
0.0
  0
LINE
  5
39
330
A
100
AcDbEntity
  8
Hawa6
  6
DASHED
 62
     3
 48
0.375
100
AcDbLine
 10
122.500742
 20
124.500061
 30
0.0
 11
122.500742
 21
139.500077
 31
0.0
  0
LINE
  5
3A
330
A
100
AcDbEntity
  8
Hawa6
 62
     3
 48
0.028287
100
AcDbLine
 10
122.500727
 20
138.699894
 30
0.0
 11
123.300739
 21
139.500022
 31
0.0
  0
LINE
  5
3B
330
A
100
AcDbEntity
  8
Hawa6
 62
     3
 48
0.028286
100
AcDbLine
 10
130.500698
 20
138.699529
 30
0.0
 11
129.700718
 21
139.499643
 31
0.0
  0
LINE
  5
3C
330
A
100
AcDbEntity
  8
Hawa4
 62
     4
 48
0.225
100
AcDbLine
 10
140.500748
 20
118.500031
 30
0.0
 11
131.500742
 21
118.500031
 31
0.0
  0
LINE
  5
3D
330
A
100
AcDbEntity
  8
Hawa4
 62
     4
 48
0.45
100
AcDbLine
 10
135.500788
 20
146.000119
 30
0.0
 11
117.500796
 21
146.0000879999999
 31
0.0
  0
LINE
  5
3E
330
A
100
AcDbEntity
  8
Hawa4
 62
     4
 48
0.035
100
AcDbLine
 10
137.000748
 20
122.500061
 30
0.0
 11
135.600733
 21
122.500061
 31
0.0
  0
LINE
  5
3F
330
A
100
AcDbEntity
  8
Hawa4
 62
     4
100
AcDbLine
 10
140.500748
 20
148.5
 30
0.0
 11
140.500748
 21
118.500031
 31
0.0
  0
LINE
  5
40
330
A
100
AcDbEntity
  8
Hawa4
 62
     4
 48
0.0825
100
AcDbLine
 10
134.80073
 20
120.500031
 30
0.0
 11
131.500742
 21
120.500031
 31
0.0
  0
LINE
  5
41
330
A
100
AcDbEntity
  8
Hawa4
 62
     4
100
AcDbLine
 10
112.500757
 20
148.5
 30
0.0
 11
112.500757
 21
118.500031
 31
0.0
  0
LINE
  5
42
330
A
100
AcDbEntity
  8
Hawa4
 62
     4
 48
0.372548
100
AcDbLine
 10
114.500742
 20
143.0
 30
0.0
 11
114.500742
 21
128.098083
 31
0.0
  0
LINE
  5
43
330
A
100
AcDbEntity
  8
Hawa6
 62
     3
 48
0.150001
100
AcDbLine
 10
131.500742
 20
145.500031
 30
0.0
 11
131.500742
 21
139.5
 31
0.0
  0
LINE
  5
44
330
A
100
AcDbEntity
  8
Hawa4
 62
     4
 48
0.372548
100
AcDbLine
 10
138.500748
 20
143.0
 30
0.0
 11
138.500748
 21
128.098083
 31
0.0
  0
LINE
  5
45
330
A
100
AcDbEntity
  8
Hawa6
 62
     3
 48
0.150001
100
AcDbLine
 10
121.500734
 20
145.500031
 30
0.0
 11
121.500734
 21
139.5
 31
0.0
  0
LINE
  5
46
330
A
100
AcDbEntity
  8
Hawa4
 62
     4
 48
0.030002
100
AcDbLine
 10
118.200769
 20
121.700012
 30
0.0
 11
118.200769
 21
120.499939
 31
0.0
  0
LINE
  5
47
330
A
100
AcDbEntity
  8
Hawa4
 62
     4
 48
0.224999
100
AcDbLine
 10
121.500734
 20
118.500031
 30
0.0
 11
112.500757
 21
118.500031
 31
0.0
  0
LINE
  5
48
330
A
100
AcDbEntity
  8
Hawa4
 62
     4
 48
0.03
100
AcDbLine
 10
134.80073
 20
121.700012
 30
0.0
 11
134.80073
 21
120.500031
 31
0.0
  0
LINE
  5
49
330
A
100
AcDbEntity
  8
Hawa4
 62
     4
 48
0.082499
100
AcDbLine
 10
121.500734
 20
120.499939
 30
0.0
 11
118.200769
 21
120.499939
 31
0.0
  0
LINE
  5
4A
330
A
100
AcDbEntity
  8
Hawa4
 62
     4
 48
0.144888
100
AcDbLine
 10
116.000572
 20
122.499371
 30
0.0
 11
114.500518
 21
128.097383
 31
0.0
  0
LINE
  5
4B
330
A
100
AcDbEntity
  8
Hawa4
 62
     4
 48
0.144889
100
AcDbLine
 10
138.50087
 20
128.098322
 30
0.0
 11
137.000893
 21
122.500219
 31
0.0
  0
LINE
  5
4C
330
A
100
AcDbEntity
  8
Hawa4
 62
     4
 48
0.034999
100
AcDbLine
 10
117.400698
 20
122.499969
 30
0.0
 11
116.00075
 21
122.499969
 31
0.0
  0
LINE
  5
4D
330
A
100
AcDbEntity
  8
Hawa6
 62
     3
 48
0.150001
100
AcDbLine
 10
118.500742
 20
120.499939
 30
0.0
 11
118.500742
 21
126.499969
 31
0.0
  0
LINE
  5
4E
330
A
100
AcDbEntity
  8
Hawa6
 62
     3
 48
0.075
100
AcDbLine
 10
134.500742
 20
145.500031
 30
0.0
 11
131.500742
 21
145.500031
 31
0.0
  0
LINE
  5
4F
330
A
100
AcDbEntity
  8
Hawa6
 62
     3
100
AcDbLine
 10
137.250732
 20
139.500098
 30
0.0
 11
115.75073
 21
139.500068
 31
0.0
  0
LINE
  5
50
330
A
100
AcDbEntity
  8
Hawa6
 62
     3
 48
0.325001
100
AcDbLine
 10
137.250748
 20
126.499969
 30
0.0
 11
137.250748
 21
139.5
 31
0.0
  0
LINE
  5
51
330
A
100
AcDbEntity
  8
Hawa6
 62
     3
 48
0.150001
100
AcDbLine
 10
134.500742
 20
139.5
 30
0.0
 11
134.500742
 21
145.500031
 31
0.0
  0
LINE
  5
52
330
A
100
AcDbEntity
  8
Hawa4
 62
     4
 48
0.2975
100
AcDbLine
 10
140.500748
 20
148.5
 30
0.0
 11
128.600731
 21
148.5
 31
0.0
  0
LINE
  5
53
330
A
100
AcDbEntity
  8
Hawa6
 62
     3
 48
0.325001
100
AcDbLine
 10
115.750742
 20
126.499969
 30
0.0
 11
115.750742
 21
139.5
 31
0.0
  0
LINE
  5
54
330
A
100
AcDbEntity
  8
Hawa6
 62
     3
 48
0.075
100
AcDbLine
 10
121.500734
 20
145.500031
 30
0.0
 11
118.500742
 21
145.500031
 31
0.0
  0
LINE
  5
55
330
A
100
AcDbEntity
  8
Hawa6
 62
     3
 48
0.149998
100
AcDbLine
 10
134.500742
 20
120.500031
 30
0.0
 11
134.500742
 21
126.499969
 31
0.0
  0
LINE
  5
56
330
A
100
AcDbEntity
  8
Hawa5
  6
DASHDOT
 62
     1
100
AcDbLine
 10
137.950119
 20
133.00003
 30
0.0
 11
115.099785
 21
132.999999
 31
0.0
  0
LINE
  5
57
330
A
100
AcDbEntity
  8
Hawa6
 62
     3
 48
0.25
100
AcDbLine
 10
131.500742
 20
141.500031
 30
0.0
 11
121.500734
 21
141.500031
 31
0.0
  0
LINE
  5
58
330
A
100
AcDbEntity
  8
Hawa6
 62
     3
100
AcDbLine
 10
137.250721
 20
126.500086
 30
0.0
 11
115.75071
 21
126.500055
 31
0.0
  0
LINE
  5
59
330
A
100
AcDbEntity
  8
Hawa6
 62
     3
 48
0.25
100
AcDbLine
 10
131.500742
 20
124.500061
 30
0.0
 11
121.500734
 21
124.500061
 31
0.0
  0
LINE
  5
5A
330
A
100
AcDbEntity
  8
Hawa6
 62
     3
 48
0.05
100
AcDbLine
 10
135.000742
 20
153.0
 30
0.0
 11
135.000742
 21
151.0
 31
0.0
  0
LINE
  5
5B
330
A
100
AcDbEntity
  8
Hawa4
 62
     4
 48
0.12875
100
AcDbLine
 10
123.400742
 20
150.5
 30
0.0
 11
118.250757
 21
150.5
 31
0.0
  0
LINE
  5
5C
330
A
100
AcDbEntity
  8
Hawa6
  6
DASHED
 62
     3
 48
0.155
100
AcDbLine
 10
129.600742
 20
150.5
 30
0.0
 11
123.400742
 21
150.5
 31
0.0
  0
LINE
  5
5D
330
A
100
AcDbEntity
  8
Hawa6
  6
DASHED
 62
     3
 48
0.12
100
AcDbLine
 10
128.500742
 20
148.7
 30
0.0
 11
128.500742
 21
153.5
 31
0.0
  0
LINE
  5
5E
330
A
100
AcDbEntity
  8
Hawa6
  6
DASHED
 62
     3
 48
0.12
100
AcDbLine
 10
124.500742
 20
148.7
 30
0.0
 11
124.500742
 21
153.5
 31
0.0
  0
LINE
  5
5F
330
A
100
AcDbEntity
  8
Hawa6
  6
DASHED
 62
     3
 48
0.12
100
AcDbLine
 10
128.071241
 20
153.5
 30
0.0
 11
128.071241
 21
148.7
 31
0.0
  0
LINE
  5
60
330
A
100
AcDbEntity
  8
Hawa6
 62
     3
 48
0.0325
100
AcDbLine
 10
123.900742
 20
150.0
 30
0.0
 11
123.900742
 21
148.7
 31
0.0
  0
LINE
  5
61
330
A
100
AcDbEntity
  8
Hawa6
  6
DASHED
 62
     3
 48
0.12
100
AcDbLine
 10
124.930243
 20
153.5
 30
0.0
 11
124.930243
 21
148.7
 31
0.0
  0
LINE
  5
62
330
A
100
AcDbEntity
  8
Hawa4
 62
     4
 48
0.12875
100
AcDbLine
 10
134.750757
 20
150.5
 30
0.0
 11
129.600742
 21
150.5
 31
0.0
  0
LINE
  5
63
330
A
100
AcDbEntity
  8
Hawa6
 62
     3
 48
0.4
100
AcDbLine
 10
134.500742
 20
153.5
 30
0.0
 11
118.500742
 21
153.5
 31
0.0
  0
LINE
  5
64
330
A
100
AcDbEntity
  8
Hawa6
 62
     3
 48
0.05
100
AcDbLine
 10
118.000742
 20
153.0
 30
0.0
 11
118.000742
 21
151.0
 31
0.0
  0
LINE
  5
65
330
A
100
AcDbEntity
  8
Hawa6
 62
     3
 48
0.13
100
AcDbLine
 10
129.100742
 20
148.7
 30
0.0
 11
123.900742
 21
148.7
 31
0.0
  0
LINE
  5
66
330
A
100
AcDbEntity
  8
Hawa6
 62
     3
 48
0.0325
100
AcDbLine
 10
129.100742
 20
150.0
 30
0.0
 11
129.100742
 21
148.7
 31
0.0
  0
LINE
  5
67
330
A
100
AcDbEntity
  8
Hawa6
  6
DASHED
 62
     3
 48
0.007852
100
AcDbLine
 10
126.343691
 20
146.000104
 30
0.0
 11
126.343691
 21
146.314204
 31
0.0
  0
LINE
  5
68
330
A
100
AcDbEntity
  8
Hawa6
  6
DASHED
 62
     3
 48
0.007852
100
AcDbLine
 10
126.657791
 20
146.314204
 30
0.0
 11
126.657791
 21
146.000104
 31
0.0
  0
LINE
  5
69
330
A
100
AcDbEntity
  8
Hawa6
 62
     3
 48
0.013151
100
AcDbLine
 10
124.500742
 20
153.696401
 30
0.0
 11
124.930243
 21
154.000103
 31
0.0
  0
LINE
  5
6A
330
A
100
AcDbEntity
  8
Hawa6
 62
     3
 48
0.013151
100
AcDbLine
 10
128.071241
 20
154.000103
 30
0.0
 11
128.500742
 21
153.696401
 31
0.0
  0
LINE
  5
6B
330
A
100
AcDbEntity
  8
Hawa6
 62
     3
 48
0.014997
100
AcDbLine
 10
124.500742
 20
148.100104
 30
0.0
 11
124.500742
 21
148.7
 31
0.0
  0
LINE
  5
6C
330
A
100
AcDbEntity
  8
Hawa6
 62
     3
 48
0.00491
100
AcDbLine
 10
128.500742
 20
153.696401
 30
0.0
 11
128.500742
 21
153.5
 31
0.0
  0
LINE
  5
6D
330
A
100
AcDbEntity
  8
Hawa6
 62
     3
 48
0.026826
100
AcDbLine
 10
124.721979
 20
147.050104
 30
0.0
 11
124.500742
 21
148.100104
 31
0.0
  0
LINE
  5
6E
330
A
100
AcDbEntity
  8
Hawa6
 62
     3
 48
0.026826
100
AcDbLine
 10
128.500742
 20
148.100104
 30
0.0
 11
128.279503
 21
147.050104
 31
0.0
  0
LINE
  5
6F
330
A
100
AcDbEntity
  8
Hawa6
 62
     3
 48
0.020604
100
AcDbLine
 10
124.47662
 20
146.263296
 30
0.0
 11
124.721979
 21
147.050104
 31
0.0
  0
LINE
  5
70
330
A
100
AcDbEntity
  8
Hawa6
 62
     3
 48
0.020604
100
AcDbLine
 10
128.279503
 20
147.050104
 30
0.0
 11
128.524864
 21
146.263296
 31
0.0
  0
LINE
  5
71
330
A
100
AcDbEntity
  8
Hawa6
 62
     3
 48
0.050705
100
AcDbLine
 10
122.500742
 20
143.9719
 30
0.0
 11
122.500742
 21
146.000104
 31
0.0
  0
LINE
  5
72
330
A
100
AcDbEntity
  8
Hawa6
 62
     3
 48
0.050705
100
AcDbLine
 10
130.500742
 20
146.000104
 30
0.0
 11
130.500742
 21
143.9719
 31
0.0
  0
LINE
  5
73
330
A
100
AcDbEntity
  8
Hawa6
  6
DASHED
 62
     3
 48
0.007853
100
AcDbLine
 10
126.343691
 20
146.314204
 30
0.0
 11
126.657791
 21
146.314204
 31
0.0
  0
LINE
  5
74
330
A
100
AcDbEntity
  8
Hawa6
 62
     3
 48
0.078525
100
AcDbLine
 10
128.071241
 20
154.000103
 30
0.0
 11
124.930243
 21
154.000103
 31
0.0
  0
LINE
  5
75
330
A
100
AcDbEntity
  8
Hawa6
 62
     3
 48
0.1
100
AcDbLine
 10
128.500742
 20
153.696401
 30
0.0
 11
124.500742
 21
153.696401
 31
0.0
  0
LINE
  5
76
330
A
100
AcDbEntity
  8
Hawa6
 62
     3
 48
0.1
100
AcDbLine
 10
128.500742
 20
148.100104
 30
0.0
 11
124.500742
 21
148.100104
 31
0.0
  0
LINE
  5
77
330
A
100
AcDbEntity
  8
Hawa6
 62
     3
 48
0.088938
100
AcDbLine
 10
128.279503
 20
147.050104
 30
0.0
 11
124.721979
 21
147.050104
 31
0.0
  0
LINE
  5
78
330
A
100
AcDbEntity
  8
Hawa6
 62
     3
 48
0.101206
100
AcDbLine
 10
128.524864
 20
146.263296
 30
0.0
 11
124.47662
 21
146.263296
 31
0.0
  0
LINE
  5
79
330
A
100
AcDbEntity
  8
Hawa6
  6
DASHED
 62
     3
 48
0.029766
100
AcDbLine
 10
124.200741
 20
144.450104
 30
0.0
 11
124.200741
 21
143.259464
 31
0.0
  0
LINE
  5
7A
330
A
100
AcDbEntity
  8
Hawa6
  6
DASHED
 62
     3
 48
0.054423
100
AcDbLine
 10
125.925741
 20
145.778009
 30
0.0
 11
124.200741
 21
144.450104
 31
0.0
  0
LINE
  5
7B
330
A
100
AcDbEntity
  8
Hawa6
  6
DASHED
 62
     3
 48
0.02875
100
AcDbLine
 10
127.075741
 20
145.778009
 30
0.0
 11
125.925741
 21
145.778009
 31
0.0
  0
LINE
  5
7C
330
A
100
AcDbEntity
  8
Hawa6
  6
DASHED
 62
     3
 48
0.054423
100
AcDbLine
 10
128.800741
 20
144.450104
 30
0.0
 11
127.075741
 21
145.778009
 31
0.0
  0
LINE
  5
7D
330
A
100
AcDbEntity
  8
Hawa6
  6
DASHED
 62
     3
 48
0.029766
100
AcDbLine
 10
128.800741
 20
143.259464
 30
0.0
 11
128.800741
 21
144.450104
 31
0.0
  0
LINE
  5
7E
330
A
100
AcDbEntity
  8
Hawa6
 62
     3
 48
0.00054
100
AcDbLine
 10
124.200741
 20
143.259464
 30
0.0
 11
124.200741
 21
143.237858
 31
0.0
  0
LINE
  5
7F
330
A
100
AcDbEntity
  8
Hawa6
 62
     3
 48
0.00054
100
AcDbLine
 10
128.800741
 20
143.237858
 30
0.0
 11
128.800741
 21
143.259464
 31
0.0
  0
LINE
  5
80
330
A
100
AcDbEntity
  8
Hawa6
 62
     3
 48
0.2
100
AcDbLine
 10
130.500742
 20
143.9719
 30
0.0
 11
122.500742
 21
143.9719
 31
0.0
  0
LINE
  5
81
330
A
100
AcDbEntity
  8
Hawa6
  6
DASHED
 62
     3
 48
0.029766
100
AcDbLine
 10
125.925741
 20
144.450104
 30
0.0
 11
125.925741
 21
143.259464
 31
0.0
  0
LINE
  5
82
330
A
100
AcDbEntity
  8
Hawa6
  6
DASHED
 62
     3
 48
0.02875
100
AcDbLine
 10
125.925741
 20
144.450104
 30
0.0
 11
127.075741
 21
144.450104
 31
0.0
  0
LINE
  5
83
330
A
100
AcDbEntity
  8
Hawa6
  6
DASHED
 62
     3
 48
0.02875
100
AcDbLine
 10
125.925741
 20
145.678009
 30
0.0
 11
127.075741
 21
145.678009
 31
0.0
  0
LINE
  5
84
330
A
100
AcDbEntity
  8
Hawa6
  6
DASHED
 62
     3
 48
0.060464
100
AcDbLine
 10
127.075741
 20
143.259464
 30
0.0
 11
127.075741
 21
145.678009
 31
0.0
  0
LINE
  5
85
330
A
100
AcDbEntity
  8
Hawa6
 62
     3
 48
0.007948
100
AcDbLine
 10
127.075741
 20
142.9415389999999
 30
0.0
 11
127.075741
 21
143.259464
 31
0.0
  0
LINE
  5
86
330
A
100
AcDbEntity
  8
Hawa6
  6
DASHED
 62
     3
 48
0.029766
100
AcDbLine
 10
127.075741
 20
144.450104
 30
0.0
 11
127.075741
 21
143.259464
 31
0.0
  0
LINE
  5
87
330
A
100
AcDbEntity
  8
Hawa6
  6
DASHED
 62
     3
 48
0.030698
100
AcDbLine
 10
127.075741
 20
145.678009
 30
0.0
 11
127.075741
 21
144.450104
 31
0.0
  0
LINE
  5
88
330
A
100
AcDbEntity
  8
Hawa6
  6
DASHED
 62
     3
 48
0.030698
100
AcDbLine
 10
125.925741
 20
145.678009
 30
0.0
 11
125.925741
 21
144.450104
 31
0.0
  0
LINE
  5
8A
330
A
100
AcDbEntity
  8
Hawa6
 62
     3
 48
0.007948
100
AcDbLine
 10
125.925741
 20
143.259464
 30
0.0
 11
125.925741
 21
142.9415389999999
 31
0.0
  0
LINE
  5
8B
330
A
100
AcDbEntity
  8
Hawa6
 62
     3
 48
0.012503
100
AcDbLine
 10
128.071241
 20
154.000103
 30
0.0
 11
128.071241
 21
153.5
 31
0.0
  0
LINE
  5
8C
330
A
100
AcDbEntity
  8
Hawa6
 62
     3
 48
0.026761
100
AcDbLine
 10
128.279503
 20
147.050104
 30
0.0
 11
128.071241
 21
148.100104
 31
0.0
  0
LINE
  5
8D
330
A
100
AcDbEntity
  8
Hawa6
 62
     3
 48
0.012503
100
AcDbLine
 10
124.930243
 20
154.000103
 30
0.0
 11
124.930243
 21
153.5
 31
0.0
  0
LINE
  5
8E
330
A
100
AcDbEntity
  8
Hawa6
 62
     3
 48
0.026761
100
AcDbLine
 10
124.721979
 20
147.050104
 30
0.0
 11
124.930243
 21
148.100104
 31
0.0
  0
LINE
  5
8F
330
A
100
AcDbEntity
  8
Hawa6
  6
DASHDOT
 62
     3
 48
0.007852
100
AcDbLine
 10
126.500742
 20
146.000104
 30
0.0
 11
126.500742
 21
146.314204
 31
0.0
  0
LINE
  5
90
330
A
100
AcDbEntity
  8
Hawa6
 62
     3
 48
0.2
100
AcDbLine
 10
122.500685
 20
113.500023
 30
0.0
 11
130.500689
 21
113.500019
 31
0.0
  0
LINE
  5
91
330
A
100
AcDbEntity
  8
Hawa6
 62
     3
 48
0.072732
100
AcDbLine
 10
129.500748
 20
118.499998
 30
0.0
 11
130.500732
 21
115.767971
 31
0.0
  0
LINE
  5
92
330
A
100
AcDbEntity
  8
Hawa6
 62
     3
 48
0.2
100
AcDbLine
 10
130.500782
 20
118.500031
 30
0.0
 11
122.50079
 21
118.500031
 31
0.0
  0
LINE
  5
93
330
A
100
AcDbEntity
  8
Hawa6
 62
     3
 48
0.072733
100
AcDbLine
 10
122.500538
 20
115.767937
 30
0.0
 11
123.500542
 21
118.499994
 31
0.0
  0
LINE
  5
94
330
A
100
AcDbEntity
  8
Hawa6
 62
     3
 48
0.150001
100
AcDbLine
 10
123.500692
 20
118.50001
 30
0.0
 11
123.500694
 21
124.500038
 31
0.0
  0
LINE
  5
95
330
A
100
AcDbEntity
  8
Hawa6
 62
     3
 48
0.37553
100
AcDbLine
 10
122.500681
 20
109.478844
 30
0.0
 11
122.50069
 21
124.500042
 31
0.0
  0
LINE
  5
96
330
A
100
AcDbEntity
  8
Hawa6
 62
     3
 48
0.15
100
AcDbLine
 10
129.500696
 20
118.500029
 30
0.0
 11
129.500698
 21
124.500042
 31
0.0
  0
LINE
  5
97
330
A
100
AcDbEntity
  8
Hawa6
 62
     3
 48
0.37553
100
AcDbLine
 10
130.500687
 20
109.478836
 30
0.0
 11
130.500696
 21
124.500048
 31
0.0
  0
LINE
  5
98
330
A
100
AcDbEntity
  8
Hawa6
 62
     3
 48
0.00491
100
AcDbLine
 10
124.500742
 20
153.5
 30
0.0
 11
124.500742
 21
153.696401
 31
0.0
  0
LINE
  5
99
330
A
100
AcDbEntity
  8
Hawa6
 62
     3
 48
0.014997
100
AcDbLine
 10
124.930243
 20
148.7
 30
0.0
 11
124.930243
 21
148.100104
 31
0.0
  0
LINE
  5
9A
330
A
100
AcDbEntity
  8
Hawa6
 62
     3
 48
0.014997
100
AcDbLine
 10
128.071241
 20
148.7
 30
0.0
 11
128.071241
 21
148.100104
 31
0.0
  0
LINE
  5
9B
330
A
100
AcDbEntity
  8
Hawa6
 62
     3
 48
0.014997
100
AcDbLine
 10
128.500742
 20
148.7
 30
0.0
 11
128.500742
 21
148.100104
 31
0.0
  0
LINE
  5
9C
330
A
100
AcDbEntity
  8
Hawa4
 62
     4
 48
0.059112
100
AcDbLine
 10
128.600733
 20
146.13554
 30
0.0
 11
128.600731
 21
148.5
 31
0.0
  0
LINE
  5
9D
330
A
100
AcDbEntity
  8
Hawa4
 62
     4
 48
0.059112
100
AcDbLine
 10
124.400732
 20
146.135518
 30
0.0
 11
124.400732
 21
148.5
 31
0.0
  0
LINE
  5
9E
330
A
100
AcDbEntity
  8
Hawa5
 62
     1
100
AcDbLine
 10
98.50075699999999
 20
169.039824
 30
0.0
 11
98.50075699999999
 21
92.060577
 31
0.0
  0
LINE
  5
9F
330
A
100
AcDbEntity
  8
Hawa5
  6
DASHDOT
 62
     1
100
AcDbLine
 10
106.14753
 20
136.5
 30
0.0
 11
84.556471
 21
136.5
 31
0.0
  0
LINE
  5
A0
330
A
100
AcDbEntity
  8
Hawa5
 62
     1
 48
0.109938
100
AcDbLine
 10
98.50075699999999
 20
139.559809
 30
0.0
 11
94.10324399999998
 21
139.559809
 31
0.0
  0
LINE
  5
A1
330
A
100
AcDbEntity
  8
Hawa5
 62
     1
 48
0.15751
100
AcDbLine
 10
88.645992
 20
139.560078
 30
0.0
 11
94.10225
 21
142.710383
 31
0.0
  0
LINE
  5
A2
330
A
100
AcDbEntity
  8
Hawa5
 62
     1
 48
0.157512
100
AcDbLine
 10
88.646442
 20
133.500011
 30
0.0
 11
94.10285599999999
 21
130.349833
 31
0.0
  0
LINE
  5
A3
330
A
100
AcDbEntity
  8
Hawa5
 62
     1
 48
0.026645
100
AcDbLine
 10
94.10324399999998
 20
142.71005
 30
0.0
 11
94.10324399999998
 21
141.644235
 31
0.0
  0
LINE
  5
A4
330
A
100
AcDbEntity
  8
Hawa5
 62
     1
 48
0.150375
100
AcDbLine
 10
88.89434599999999
 20
134.423169
 30
0.0
 11
94.103539
 21
131.415724
 31
0.0
  0
LINE
  5
A5
330
A
100
AcDbEntity
  8
Hawa5
 62
     1
 48
0.144184
100
AcDbLine
 10
89.108909
 20
138.760111
 30
0.0
 11
94.103551
 21
141.643836
 31
0.0
  0
LINE
  5
A6
330
A
100
AcDbEntity
  8
Hawa5
 62
     1
 48
0.026648
100
AcDbLine
 10
94.10324399999998
 20
131.415659
 30
0.0
 11
94.10324399999998
 21
130.349758
 31
0.0
  0
LINE
  5
A7
330
A
100
AcDbEntity
  8
Hawa5
 62
     1
 48
0.092308
100
AcDbLine
 10
88.64695899999999
 20
139.559809
 30
0.0
 11
84.95463199999999
 21
139.559809
 31
0.0
  0
LINE
  5
A8
330
A
100
AcDbEntity
  8
Hawa5
 62
     1
 48
0.092308
100
AcDbLine
 10
88.64695899999999
 20
133.5
 30
0.0
 11
84.95463199999999
 21
133.5
 31
0.0
  0
LINE
  5
A9
330
A
100
AcDbEntity
  8
Hawa5
 62
     1
 48
0.109938
100
AcDbLine
 10
98.50075699999999
 20
133.5
 30
0.0
 11
94.10324399999998
 21
133.5
 31
0.0
  0
LINE
  5
AA
330
A
100
AcDbEntity
  8
Hawa5
 62
     1
 48
0.023078
100
AcDbLine
 10
94.10324399999998
 20
139.559809
 30
0.0
 11
94.10324399999998
 21
138.636705
 31
0.0
  0
LINE
  5
AB
330
A
100
AcDbEntity
  8
Hawa5
 62
     1
 48
0.023078
100
AcDbLine
 10
94.10324399999998
 20
134.423103
 30
0.0
 11
94.10324399999998
 21
133.5
 31
0.0
  0
LINE
  5
AC
330
A
100
AcDbEntity
  8
Hawa5
 62
     1
 48
0.130224
100
AcDbLine
 10
94.10324399999998
 20
138.636705
 30
0.0
 11
88.894295
 21
138.636705
 31
0.0
  0
LINE
  5
AD
330
A
100
AcDbEntity
  8
Hawa5
 62
     1
 48
0.130224
100
AcDbLine
 10
94.10324399999998
 20
134.423103
 30
0.0
 11
88.894295
 21
134.423103
 31
0.0
  0
LINE
  5
AE
330
A
100
AcDbEntity
  8
Hawa5
 62
     1
 48
0.099997
100
AcDbLine
 10
102.500623
 20
137.792585
 30
0.0
 11
98.50075699999999
 21
137.792178
 31
0.0
  0
LINE
  5
AF
330
A
100
AcDbEntity
  8
Hawa5
 62
     1
 48
0.100003
100
AcDbLine
 10
102.500886
 20
135.206726
 30
0.0
 11
98.50075699999999
 21
135.206319
 31
0.0
  0
LINE
  5
B0
330
A
100
AcDbEntity
  8
Hawa5
 62
     1
 48
0.1125
100
AcDbLine
 10
105.763485
 20
134.249784
 30
0.0
 11
105.763027
 21
138.749784
 31
0.0
  0
LINE
  5
B1
330
A
100
AcDbEntity
  8
Hawa5
 62
     1
 48
0.025313
100
AcDbLine
 10
103.512802
 20
140.999569
 30
0.0
 11
102.500285
 21
140.999466
 31
0.0
  0
LINE
  5
B2
330
A
100
AcDbEntity
  8
Hawa5
 62
     1
 48
0.025312
100
AcDbLine
 10
103.513723
 20
131.999458
 30
0.0
 11
102.501235
 21
131.999355
 31
0.0
  0
LINE
  5
B3
330
A
100
AcDbEntity
  8
Hawa5
 62
     1
 48
0.015
100
AcDbLine
 10
102.500787
 20
136.1999689999999
 30
0.0
 11
102.500726
 21
136.79997
 31
0.0
  0
LINE
  5
B4
330
A
100
AcDbEntity
  8
Hawa5
  6
DASHDOT
 62
     1
100
AcDbLine
 10
126.500673
 20
93.060562
 30
0.0
 11
126.500713
 21
154.333597
 31
0.0
  0
LINE
  5
B5
330
A
100
AcDbEntity
  8
Hawa4
 62
     4
 48
0.297499
100
AcDbLine
 10
124.400732
 20
148.5
 30
0.0
 11
112.500757
 21
148.5
 31
0.0
  0
LINE
  5
B6
330
A
100
AcDbEntity
  8
Hawa4
 62
     4
 48
0.139393
100
AcDbLine
 10
102.500757
 20
142.375736
 30
0.0
 11
102.500757
 21
136.8
 31
0.0
  0
LINE
  5
B7
330
A
100
AcDbEntity
  8
Hawa4
 62
     4
 48
0.137918
100
AcDbLine
 10
139.500755
 20
150.0
 30
0.0
 11
137.613922
 21
155.184041
 31
0.0
  0
LINE
  5
B8
330
A
100
AcDbEntity
  8
Hawa4
 62
     4
 48
0.0375
100
AcDbLine
 10
139.500755
 20
150.0
 30
0.0
 11
139.500755
 21
148.5
 31
0.0
  0
LINE
  5
B9
330
A
100
AcDbEntity
  8
Hawa4
 62
     4
 48
0.026893
100
AcDbLine
 10
112.000757
 20
148.7
 30
0.0
 11
112.000757
 21
147.624264
 31
0.0
  0
LINE
  5
BA
330
A
100
AcDbEntity
  8
Hawa4
 62
     4
 48
0.034497
100
AcDbLine
 10
99.98862500000001
 20
153.987833
 30
0.0
 11
99.012889
 21
153.012097
 31
0.0
  0
LINE
  5
BB
330
A
100
AcDbEntity
  8
Hawa4
 62
     4
 48
0.064497
100
AcDbLine
 10
100.412889
 20
150.212097
 30
0.0
 11
98.588625
 21
148.387833
 31
0.0
  0
LINE
  5
BC
330
A
100
AcDbEntity
  8
Hawa4
 62
     4
 48
0.075
100
AcDbLine
 10
135.250757
 20
154.0
 30
0.0
 11
135.250757
 21
151.0
 31
0.0
  0
LINE
  5
BD
330
A
100
AcDbEntity
  8
Hawa4
 62
     4
 48
0.4125
100
AcDbLine
 10
134.750757
 20
154.5
 30
0.0
 11
118.250757
 21
154.5
 31
0.0
  0
LINE
  5
BE
330
A
100
AcDbEntity
  8
Hawa4
 62
     4
 48
0.075
100
AcDbLine
 10
117.750757
 20
154.0
 30
0.0
 11
117.750757
 21
151.0
 31
0.0
  0
LINE
  5
BF
330
A
100
AcDbEntity
  8
Hawa4
 62
     4
 48
0.0375
100
AcDbLine
 10
132.250757
 20
150.0
 30
0.0
 11
132.250757
 21
148.5
 31
0.0
  0
LINE
  5
C0
330
A
100
AcDbEntity
  8
Hawa4
 62
     4
 48
0.0375
100
AcDbLine
 10
121.250757
 20
150.0
 30
0.0
 11
121.250757
 21
148.5
 31
0.0
  0
LINE
  5
C1
330
A
100
AcDbEntity
  8
Hawa4
 62
     4
 48
0.064497
100
AcDbLine
 10
100.412889
 20
125.787868
 30
0.0
 11
98.588625
 21
127.612131
 31
0.0
  0
LINE
  5
C2
330
A
100
AcDbEntity
  8
Hawa4
 62
     4
 48
0.034497
100
AcDbLine
 10
99.98862500000001
 20
122.012133
 30
0.0
 11
99.012889
 21
122.987867
 31
0.0
  0
LINE
  5
C3
330
A
100
AcDbEntity
  8
Hawa4
 62
     4
 48
0.083787
100
AcDbLine
 10
100.500757
 20
125.575735
 30
0.0
 11
100.500757
 21
122.224264
 31
0.0
  0
LINE
  5
C4
330
A
100
AcDbEntity
  8
Hawa4
 62
     4
 48
0.083787
100
AcDbLine
 10
100.500757
 20
150.424229
 30
0.0
 11
100.500757
 21
153.775701
 31
0.0
  0
LINE
  5
C5
330
A
100
AcDbEntity
  8
Hawa1
 62
     2
 48
0.000002
100
AcDbLine
 10
119.000757
 20
161.900017
 30
0.0
 11
119.000757
 21
161.899952
 31
0.0
  0
LINE
  5
C6
330
A
100
AcDbEntity
  8
Hawa4
 62
     4
 48
0.026893
100
AcDbLine
 10
113.376493
 20
149.0
 30
0.0
 11
112.300757
 21
149.0
 31
0.0
  0
LINE
  5
C7
330
A
100
AcDbEntity
  8
Hawa5
 62
     1
 48
0.010607
100
AcDbLine
 10
102.200757
 20
136.5
 30
0.0
 11
102.500757
 21
136.8
 31
0.0
  0
LINE
  5
C8
330
A
100
AcDbEntity
  8
Hawa5
 62
     1
 48
0.010607
100
AcDbLine
 10
102.200757
 20
136.5
 30
0.0
 11
102.500757
 21
136.2
 31
0.0
  0
LINE
  5
C9
330
A
100
AcDbEntity
  8
Hawa5
 62
     1
 48
0.139393
100
AcDbLine
 10
102.500757
 20
136.2
 30
0.0
 11
102.500757
 21
130.624264
 31
0.0
  0
LINE
  5
CA
330
A
100
AcDbEntity
  8
Hawa4
 62
     4
 48
0.011464
100
AcDbLine
 10
113.912889
 20
148.587868
 30
0.0
 11
113.588625
 21
148.912132
 31
0.0
  0
LINE
  5
CB
330
A
100
AcDbEntity
  8
Hawa4
 62
     4
 48
0.011464
100
AcDbLine
 10
112.412889
 20
147.087868
 30
0.0
 11
112.088625
 21
147.412132
 31
0.0
  0
LINE
  5
CC
330
A
100
AcDbEntity
  8
Hawa4
 62
     4
 48
0.010607
100
AcDbLine
 10
110.800757
 20
122.5
 30
0.0
 11
110.500757
 21
122.200001
 31
0.0
  0
LINE
  5
CD
330
A
100
AcDbEntity
  8
Hawa4
 62
     4
 48
0.121789
100
AcDbLine
 10
104.500757
 20
127.671574
 30
0.0
 11
104.500757
 21
122.799999
 31
0.0
  0
LINE
  5
CE
330
A
100
AcDbEntity
  8
Hawa4
 62
     4
 48
0.135
100
AcDbLine
 10
110.200757
 20
122.5
 30
0.0
 11
104.800757
 21
122.5
 31
0.0
  0
LINE
  5
CF
330
A
100
AcDbEntity
  8
Hawa4
 62
     4
 48
0.010607
100
AcDbLine
 10
110.200757
 20
122.5
 30
0.0
 11
110.500757
 21
122.200001
 31
0.0
  0
LINE
  5
D0
330
A
100
AcDbEntity
  8
Hawa4
 62
     4
 48
0.1
100
AcDbLine
 10
105.429684
 20
153.08576
 30
0.0
 11
102.601262
 21
155.914181
 31
0.0
  0
LINE
  5
D1
330
A
100
AcDbEntity
  8
Hawa4
 62
     4
 48
0.146789
100
AcDbLine
 10
112.200757
 20
145.5
 30
0.0
 11
106.329184
 21
145.5
 31
0.0
  0
LINE
  5
D2
330
A
100
AcDbEntity
  8
Hawa4
 62
     4
 48
0.1
100
AcDbLine
 10
111.086544
 20
155.914192
 30
0.0
 11
108.258111
 21
153.08576
 31
0.0
  0
LINE
  5
D3
330
A
100
AcDbEntity
  8
Hawa4
 62
     4
 48
0.067157
100
AcDbLine
 10
101.187047
 20
156.499968
 30
0.0
 11
98.50075699999999
 21
156.499965
 31
0.0
  0
LINE
  5
D4
330
A
100
AcDbEntity
  8
Hawa4
 62
     4
 48
0.035
100
AcDbLine
 10
112.200757
 20
122.5
 30
0.0
 11
110.800757
 21
122.5
 31
0.0
  0
LINE
  5
D5
330
A
100
AcDbEntity
  8
Hawa4
 62
     4
100
AcDbLine
 10
135.734533
 20
156.5
 30
0.0
 11
112.500757
 21
156.499979
 31
0.0
  0
LINE
  5
D6
330
A
100
AcDbEntity
  8
Hawa4
 62
     4
 48
0.3425
100
AcDbLine
 10
112.200757
 20
119.5
 30
0.0
 11
98.50075699999999
 21
119.5
 31
0.0
  0
LINE
  5
D7
330
A
100
AcDbEntity
  8
Hawa4
 62
     4
 48
0.046893
100
AcDbLine
 10
103.914971
 20
129.085787
 30
0.0
 11
102.588625
 21
130.412132
 31
0.0
  0
LINE
  5
D8
330
A
100
AcDbEntity
  8
Hawa4
 62
     4
 48
0.082249
100
AcDbLine
 10
104.914971
 20
144.914214
 30
0.0
 11
102.588625
 21
142.587868
 31
0.0
  0
ARC
  5
D9
330
A
100
AcDbEntity
  8
Hawa4
 62
     4
100
AcDbCircle
 10
98.8
 20
148.175701
 30
0.0
 40
0.3
100
AcDbArc
 50
135.0
 51
180.000005
  0
ARC
  5
DA
330
A
100
AcDbEntity
  8
Hawa4
 62
     4
100
AcDbCircle
 10
98.8
 20
127.824265
 30
0.0
 40
0.3
100
AcDbArc
 50
180.000005
 51
224.999995
  0
ARC
  5
DB
330
A
100
AcDbEntity
  8
Hawa4
 62
     4
100
AcDbCircle
 10
135.600733
 20
121.700012
 30
0.0
 40
0.8
100
AcDbArc
 50
90.00003000000001
 51
180.000032
  0
ARC
  5
DC
330
A
100
AcDbEntity
  8
Hawa4
 62
     4
100
AcDbCircle
 10
135.500742
 20
143.0
 30
0.0
 40
3.0
100
AcDbArc
 50
0.00005
 51
90.00003000000001
  0
ARC
  5
DD
330
A
100
AcDbEntity
  8
Hawa4
 62
     4
100
AcDbCircle
 10
117.500734
 20
143.0
 30
0.0
 40
3.0
100
AcDbArc
 50
90.00003000000001
 51
180.000032
  0
ARC
  5
DE
330
A
100
AcDbEntity
  8
Hawa4
 62
     4
100
AcDbCircle
 10
117.400698
 20
121.700012
 30
0.0
 40
0.8
100
AcDbArc
 50
0.00005
 51
90.00003000000001
  0
ARC
  5
DF
330
A
100
AcDbEntity
  8
Hawa6
 62
     3
100
AcDbCircle
 10
118.500742
 20
153.0
 30
0.0
 40
0.5
100
AcDbArc
 50
90.00000300000001
 51
180.000005
  0
ARC
  5
E0
330
A
100
AcDbEntity
  8
Hawa6
 62
     3
100
AcDbCircle
 10
129.600742
 20
150.0
 30
0.0
 40
0.5
100
AcDbArc
 50
90.00000300000001
 51
180.000005
  0
ARC
  5
E1
330
A
100
AcDbEntity
  8
Hawa6
 62
     3
100
AcDbCircle
 10
123.400742
 20
150.0
 30
0.0
 40
0.5
100
AcDbArc
 50
0.0
 51
90.00000300000001
  0
ARC
  5
E2
330
A
100
AcDbEntity
  8
Hawa6
 62
     3
100
AcDbCircle
 10
118.500742
 20
151.0
 30
0.0
 40
0.5
100
AcDbArc
 50
179.999991
 51
270.000001
  0
ARC
  5
E3
330
A
100
AcDbEntity
  8
Hawa6
 62
     3
100
AcDbCircle
 10
134.500742
 20
151.0
 30
0.0
 40
0.5
100
AcDbArc
 50
270.000001
 51
0.0
  0
ARC
  5
E4
330
A
100
AcDbEntity
  8
Hawa6
 62
     3
100
AcDbCircle
 10
134.500742
 20
153.0
 30
0.0
 40
0.5
100
AcDbArc
 50
0.0
 51
90.00000300000001
  0
ARC
  5
E5
330
A
100
AcDbEntity
  8
Hawa6
 62
     3
100
AcDbCircle
 10
128.900742
 20
146.400104
 30
0.0
 40
0.4
100
AcDbArc
 50
199.999919
 51
270.000001
  0
ARC
  5
E6
330
A
100
AcDbEntity
  8
Hawa6
 62
     3
100
AcDbCircle
 10
124.100742
 20
146.400104
 30
0.0
 40
0.4
100
AcDbArc
 50
270.000001
 51
340.000068
  0
ARC
  5
E7
330
A
100
AcDbEntity
  8
Hawa6
 62
     3
100
AcDbCircle
 10
126.500742
 20
150.900104
 30
0.0
 40
8.0
100
AcDbArc
 50
286.708338
 51
299.999994
  0
ARC
  5
E8
330
A
100
AcDbEntity
  8
Hawa6
 62
     3
100
AcDbCircle
 10
126.500742
 20
150.900104
 30
0.0
 40
8.0
100
AcDbArc
 50
240.000006
 51
253.291664
  0
ARC
  5
E9
330
A
100
AcDbEntity
  8
Hawa6
 62
     3
100
AcDbCircle
 10
126.500742
 20
150.900104
 30
0.0
 40
7.979308999999999
100
AcDbArc
 50
253.2470490000001
 51
265.867599
  0
ARC
  5
EA
330
A
100
AcDbEntity
  8
Hawa6
 62
     3
100
AcDbCircle
 10
126.500742
 20
150.900104
 30
0.0
 40
7.979308999999999
100
AcDbArc
 50
274.132402
 51
286.752953
  0
ARC
  5
EB
330
A
100
AcDbEntity
  8
Hawa6
 62
     3
100
AcDbCircle
 10
126.500742
 20
150.900104
 30
0.0
 40
7.662244999999999
100
AcDbArc
 50
265.696298
 51
274.303703
  0
ARC
  5
EC
330
A
100
AcDbEntity
  8
Hawa5
 62
     1
100
AcDbCircle
 10
103.513488
 20
134.24953
 30
0.0
 40
2.25
100
AcDbArc
 50
270.005847
 51
0.005828
  0
ARC
  5
ED
330
A
100
AcDbEntity
  8
Hawa5
 62
     1
100
AcDbCircle
 10
103.513036
 20
138.7495
 30
0.0
 40
2.25
100
AcDbArc
 50
0.005828
 51
90.00587600000001
  0
ARC
  5
EE
330
A
100
AcDbEntity
  8
Hawa4
 62
     4
100
AcDbCircle
 10
106.843897
 20
154.499973
 30
0.0
 40
2.0
100
AcDbArc
 50
224.999995
 51
314.99999
  0
ARC
  5
EF
330
A
100
AcDbEntity
  8
Hawa4
 62
     4
100
AcDbCircle
 10
100.200757
 20
150.424229
 30
0.0
 40
0.3
100
AcDbArc
 50
314.99999
 51
0.0
  0
ARC
  5
F0
330
A
100
AcDbEntity
  8
Hawa6
 62
     3
100
AcDbCircle
 10
132.750757
 20
150.0
 30
0.0
 40
0.5
100
AcDbArc
 50
90.00000300000001
 51
180.000005
  0
ARC
  5
F1
330
A
100
AcDbEntity
  8
Hawa4
 62
     4
100
AcDbCircle
 10
100.200757
 20
153.775701
 30
0.0
 40
0.3
100
AcDbArc
 50
0.0
 51
135.0
  0
ARC
  5
F2
330
A
100
AcDbEntity
  8
Hawa4
 62
     4
100
AcDbCircle
 10
98.80075699999999
 20
153.224229
 30
0.0
 40
0.3
100
AcDbArc
 50
180.000005
 51
314.99999
  0
ARC
  5
F3
330
A
100
AcDbEntity
  8
Hawa6
 62
     3
100
AcDbCircle
 10
118.250757
 20
151.0
 30
0.0
 40
0.5
100
AcDbArc
 50
179.999991
 51
270.000001
  0
ARC
  5
F4
330
A
100
AcDbEntity
  8
Hawa4
 62
     4
100
AcDbCircle
 10
98.80075699999999
 20
148.175701
 30
0.0
 40
0.3
100
AcDbArc
 50
135.0
 51
180.000005
  0
ARC
  5
F5
330
A
100
AcDbEntity
  8
Hawa6
 62
     3
100
AcDbCircle
 10
120.750757
 20
150.0
 30
0.0
 40
0.5
100
AcDbArc
 50
0.0
 51
90.00000300000001
  0
ARC
  5
F6
330
A
100
AcDbEntity
  8
Hawa6
 62
     3
100
AcDbCircle
 10
134.750757
 20
154.0
 30
0.0
 40
0.5
100
AcDbArc
 50
0.0
 51
90.00000300000001
  0
ARC
  5
F7
330
A
100
AcDbEntity
  8
Hawa6
 62
     3
100
AcDbCircle
 10
134.750757
 20
151.0
 30
0.0
 40
0.5
100
AcDbArc
 50
270.000001
 51
0.0
  0
ARC
  5
F8
330
A
100
AcDbEntity
  8
Hawa6
 62
     3
100
AcDbCircle
 10
118.250757
 20
154.0
 30
0.0
 40
0.5
100
AcDbArc
 50
90.00000300000001
 51
180.000005
  0
ARC
  5
F9
330
A
100
AcDbEntity
  8
Hawa4
 62
     4
100
AcDbCircle
 10
98.80075699999999
 20
127.824265
 30
0.0
 40
0.3
100
AcDbArc
 50
180.000005
 51
224.999995
  0
ARC
  5
FA
330
A
100
AcDbEntity
  8
Hawa4
 62
     4
100
AcDbCircle
 10
100.200757
 20
122.224264
 30
0.0
 40
0.3
100
AcDbArc
 50
224.999995
 51
360.0
  0
ARC
  5
FB
330
A
100
AcDbEntity
  8
Hawa4
 62
     4
100
AcDbCircle
 10
100.200757
 20
125.575735
 30
0.0
 40
0.3
100
AcDbArc
 50
0.0
 51
45.0
  0
ARC
  5
FC
330
A
100
AcDbEntity
  8
Hawa4
 62
     4
100
AcDbCircle
 10
98.80075699999999
 20
122.775736
 30
0.0
 40
0.3
100
AcDbArc
 50
45.0
 51
180.000005
  0
ARC
  5
FD
330
A
100
AcDbEntity
  8
Hawa4
 62
     4
100
AcDbCircle
 10
135.734535
 20
154.5
 30
0.0
 40
2.0
100
AcDbArc
 50
19.999999
 51
90.00007100000003
  0
ARC
  5
FE
330
A
100
AcDbEntity
  8
Hawa4
 62
     4
100
AcDbCircle
 10
112.200757
 20
146.875736
 30
0.0
 40
0.3
100
AcDbArc
 50
0.0
 51
45.0
  0
ARC
  5
FF
330
A
100
AcDbEntity
  8
Hawa4
 62
     4
100
AcDbCircle
 10
113.376493
 20
148.7
 30
0.0
 40
0.3
100
AcDbArc
 50
45.0
 51
90.00000300000001
  0
ARC
  5
100
330
A
100
AcDbEntity
  8
Hawa4
 62
     4
100
AcDbCircle
 10
112.300757
 20
148.7
 30
0.0
 40
0.3
100
AcDbArc
 50
90.00000300000001
 51
180.000005
  0
ARC
  5
101
330
A
100
AcDbEntity
  8
Hawa4
 62
     4
100
AcDbCircle
 10
114.125021
 20
148.8
 30
0.0
 40
0.3
100
AcDbArc
 50
224.999995
 51
270.000001
  0
ARC
  5
102
330
A
100
AcDbEntity
  8
Hawa4
 62
     4
100
AcDbCircle
 10
112.300757
 20
147.624264
 30
0.0
 40
0.3
100
AcDbArc
 50
179.999991
 51
224.999995
  0
ARC
  5
103
330
A
100
AcDbEntity
  8
Hawa4
 62
     4
100
AcDbCircle
 10
104.800757
 20
122.799999
 30
0.0
 40
0.3
100
AcDbArc
 50
180.000005
 51
270.000001
  0
ARC
  5
104
330
A
100
AcDbEntity
  8
Hawa4
 62
     4
100
AcDbCircle
 10
112.500757
 20
154.499979
 30
0.0
 40
2.0
100
AcDbArc
 50
90.00000300000001
 51
135.0
  0
ARC
  5
10E
330
A
100
AcDbEntity
  8
Hawa4
 62
     4
100
AcDbCircle
 10
120.750757
 20
150.0
 30
0.0
 40
0.5
100
AcDbArc
 50
0.0
 51
90.00000300000001
  0
ARC
  5
110
330
A
100
AcDbEntity
  8
Hawa4
 62
     4
100
AcDbCircle
 10
118.250757
 20
154.0
 30
0.0
 40
0.5
100
AcDbArc
 50
90.00000300000001
 51
180.000005
  0
ARC
  5
111
330
A
100
AcDbEntity
  8
Hawa4
 62
     4
100
AcDbCircle
 10
134.750757
 20
151.0
 30
0.0
 40
0.5
100
AcDbArc
 50
270.000001
 51
0.0
  0
ARC
  5
112
330
A
100
AcDbEntity
  8
Hawa4
 62
     4
100
AcDbCircle
 10
134.750757
 20
154.0
 30
0.0
 40
0.5
100
AcDbArc
 50
0.0
 51
90.00000300000001
  0
ARC
  5
114
330
A
100
AcDbEntity
  8
Hawa4
 62
     4
100
AcDbCircle
 10
118.250757
 20
151.0
 30
0.0
 40
0.5
100
AcDbArc
 50
179.999991
 51
270.000001
  0
ARC
  5
116
330
A
100
AcDbEntity
  8
Hawa4
 62
     4
100
AcDbCircle
 10
102.500757
 20
127.671574
 30
0.0
 40
2.0
100
AcDbArc
 50
0.0
 51
45.0
  0
ARC
  5
118
330
A
100
AcDbEntity
  8
Hawa4
 62
     4
100
AcDbCircle
 10
132.750757
 20
150.0
 30
0.0
 40
0.5
100
AcDbArc
 50
90.00000300000001
 51
180.000005
  0
ARC
  5
11A
330
A
100
AcDbEntity
  8
Hawa4
 62
     4
100
AcDbCircle
 10
112.200757
 20
145.8
 30
0.0
 40
0.3
100
AcDbArc
 50
270.000001
 51
0.0
  0
ARC
  5
11B
330
A
100
AcDbEntity
  8
Hawa4
 62
     4
100
AcDbCircle
 10
112.200757
 20
119.799999
 30
0.0
 40
0.3
100
AcDbArc
 50
270.000001
 51
360.0
  0
ARC
  5
11C
330
A
100
AcDbEntity
  8
Hawa4
 62
     4
100
AcDbCircle
 10
112.200757
 20
122.200001
 30
0.0
 40
0.3
100
AcDbArc
 50
0.0
 51
90.00000300000001
  0
ARC
  5
11D
330
A
100
AcDbEntity
  8
Hawa4
 62
     4
100
AcDbCircle
 10
101.187048
 20
154.499968
 30
0.0
 40
2.0
100
AcDbArc
 50
45.0
 51
90.000057
  0
ARC
  5
11E
330
A
100
AcDbEntity
  8
Hawa5
 62
     1
100
AcDbCircle
 10
102.800757
 20
142.375736
 30
0.0
 40
0.3
100
AcDbArc
 50
135.0
 51
180.000005
  0
ARC
  5
11F
330
A
100
AcDbEntity
  8
Hawa5
 62
     1
100
AcDbCircle
 10
102.800757
 20
130.624264
 30
0.0
 40
0.3
100
AcDbArc
 50
180.000005
 51
224.999995
  0
ARC
  5
120
330
A
100
AcDbEntity
  8
Hawa4
 62
     4
100
AcDbCircle
 10
106.329184
 20
143.5
 30
0.0
 40
2.0
100
AcDbArc
 50
90.00000300000001
 51
135.0
  0
LINE
  5
121
330
A
100
AcDbEntity
  8
Hawa4
 62
     4
 48
0.049998
100
AcDbLine
 10
121.500734
 20
120.499939
 30
0.0
 11
121.500734
 21
118.500031
 31
0.0
  0
LINE
  5
122
330
A
100
AcDbEntity
  8
Hawa4
 62
     4
 48
0.05
100
AcDbLine
 10
131.500742
 20
120.500031
 30
0.0
 11
131.500742
 21
118.500031
 31
0.0
  0
LINE
  5
1BC
330
A
100
AcDbEntity
  8
Hawa2
 62
     9
 48
0.0158
100
AcDbLine
 10
140.0538639999999
 20
118.500042
 30
0.0
 11
140.500748
 21
118.946926
 31
0.0
  0
LINE
  5
1BD
330
A
100
AcDbEntity
  8
Hawa2
 62
     9
 48
0.1158
100
AcDbLine
 10
137.225441
 20
118.500044
 30
0.0
 11
140.500748
 21
121.775352
 31
0.0
  0
LINE
  5
1BE
330
A
100
AcDbEntity
  8
Hawa2
 62
     9
 48
0.2158
100
AcDbLine
 10
134.397015
 20
118.500044
 30
0.0
 11
140.500748
 21
124.603779
 31
0.0
  0
LINE
  5
1BF
330
A
100
AcDbEntity
  8
Hawa2
 62
     9
 48
0.07071
100
AcDbLine
 10
131.5685879999999
 20
118.500046
 30
0.0
 11
133.568573
 21
120.500031
 31
0.0
  0
LINE
  5
1C0
330
A
100
AcDbEntity
  8
Hawa2
 62
     9
 48
0.027029
100
AcDbLine
 10
134.802393
 20
121.73385
 30
0.0
 11
135.566893
 21
122.49835
 31
0.0
  0
LINE
  5
1C1
330
A
100
AcDbEntity
  8
Hawa2
 62
     9
 48
0.105206
100
AcDbLine
 10
137.525074
 20
124.456532
 30
0.0
 11
140.500748
 21
127.432207
 31
0.0
  0
LINE
  5
1C2
330
A
100
AcDbEntity
  8
Hawa2
 62
     9
 48
0.070711
100
AcDbLine
 10
138.500751
 20
128.260635
 30
0.0
 11
140.500748
 21
130.260633
 31
0.0
  0
LINE
  5
1C3
330
A
100
AcDbEntity
  8
Hawa2
 62
     9
 48
0.070711
100
AcDbLine
 10
138.500751
 20
131.089062
 30
0.0
 11
140.500748
 21
133.089061
 31
0.0
  0
LINE
  5
1C4
330
A
100
AcDbEntity
  8
Hawa2
 62
     9
 48
0.070711
100
AcDbLine
 10
138.500751
 20
133.917489
 30
0.0
 11
140.500748
 21
135.917488
 31
0.0
  0
LINE
  5
1C5
330
A
100
AcDbEntity
  8
Hawa2
 62
     9
 48
0.044048
100
AcDbLine
 10
120.254887
 20
118.500051
 30
0.0
 11
121.500744
 21
119.745911
 31
0.0
  0
LINE
  5
1C6
330
A
100
AcDbEntity
  8
Hawa2
 62
     9
 48
0.070711
100
AcDbLine
 10
138.500751
 20
136.745915
 30
0.0
 11
140.500748
 21
138.745915
 31
0.0
  0
LINE
  5
1C7
330
A
100
AcDbEntity
  8
Hawa2
 62
     9
 48
0.070707
100
AcDbLine
 10
117.42646
 20
118.500053
 30
0.0
 11
119.426346
 21
120.499939
 31
0.0
  0
LINE
  5
1C8
330
A
100
AcDbEntity
  8
Hawa2
 62
     9
 48
0.070711
100
AcDbLine
 10
138.500748
 20
139.574343
 30
0.0
 11
140.500748
 21
141.574342
 31
0.0
  0
LINE
  5
1C9
330
A
100
AcDbEntity
  8
Hawa2
 62
     9
 48
0.124815
100
AcDbLine
 10
114.598035
 20
118.500055
 30
0.0
 11
118.128335
 21
122.030355
 31
0.0
  0
LINE
  5
1CA
330
A
100
AcDbEntity
  8
Hawa2
 62
     9
 48
0.070711
100
AcDbLine
 10
138.500748
 20
142.40277
 30
0.0
 11
140.500748
 21
144.40277
 31
0.0
  0
LINE
  5
1CB
330
A
100
AcDbEntity
  8
Hawa2
 62
     9
 48
0.122006
100
AcDbLine
 10
112.500757
 20
119.231205
 30
0.0
 11
115.951617
 21
122.682064
 31
0.0
  0
LINE
  5
1CC
330
A
100
AcDbEntity
  8
Hawa2
 62
     9
 48
0.089473
100
AcDbLine
 10
137.970074
 20
144.700522
 30
0.0
 11
140.500748
 21
147.231197
 31
0.0
  0
LINE
  5
1CD
330
A
100
AcDbEntity
  8
Hawa2
 62
     9
 48
0.100873
100
AcDbLine
 10
112.500757
 20
122.059631
 30
0.0
 11
115.353878
 21
124.912752
 31
0.0
  0
LINE
  5
1CE
330
A
100
AcDbEntity
  8
Hawa2
 62
     9
 48
0.092533
100
AcDbLine
 10
136.323895
 20
145.88277
 30
0.0
 11
138.941124
 21
148.5
 31
0.0
  0
LINE
  5
1CF
330
A
100
AcDbEntity
  8
Hawa2
 62
     9
 48
0.07974
100
AcDbLine
 10
112.500757
 20
124.888058
 30
0.0
 11
114.756139
 21
127.14344
 31
0.0
  0
LINE
  5
1D0
330
A
100
AcDbEntity
  8
Hawa2
 62
     9
 48
0.088387
100
AcDbLine
 10
133.612728
 20
146.000029
 30
0.0
 11
136.112698
 21
148.5
 31
0.0
  0
LINE
  5
1D1
330
A
100
AcDbEntity
  8
Hawa2
 62
     9
 48
0.07071
100
AcDbLine
 10
112.500757
 20
127.716486
 30
0.0
 11
114.500742
 21
129.716471
 31
0.0
  0
LINE
  5
1D2
330
A
100
AcDbEntity
  8
Hawa2
 62
     9
 48
0.088386
100
AcDbLine
 10
130.784344
 20
146.000073
 30
0.0
 11
133.284271
 21
148.5
 31
0.0
  0
LINE
  5
1D3
330
A
100
AcDbEntity
  8
Hawa2
 62
     9
 48
0.07071
100
AcDbLine
 10
112.500757
 20
130.544912
 30
0.0
 11
114.500742
 21
132.544898
 31
0.0
  0
LINE
  5
1D4
330
A
100
AcDbEntity
  8
Hawa2
 62
     9
 48
0.065588
100
AcDbLine
 10
128.600731
 20
146.6448879999999
 30
0.0
 11
130.455845
 21
148.5
 31
0.0
  0
LINE
  5
1D5
330
A
100
AcDbEntity
  8
Hawa2
 62
     9
 48
0.07071
100
AcDbLine
 10
112.500757
 20
133.37334
 30
0.0
 11
114.500742
 21
135.373324
 31
0.0
  0
LINE
  5
1D6
330
A
100
AcDbEntity
  8
Hawa2
 62
     9
 48
0.07071
100
AcDbLine
 10
112.500757
 20
136.201767
 30
0.0
 11
114.500742
 21
138.201752
 31
0.0
  0
LINE
  5
1D7
330
A
100
AcDbEntity
  8
Hawa2
 62
     9
 48
0.074304
100
AcDbLine
 10
122.299086
 20
146.000097
 30
0.0
 11
124.400732
 21
148.101742
 31
0.0
  0
LINE
  5
1D8
330
A
100
AcDbEntity
  8
Hawa2
 62
     9
 48
0.07071
100
AcDbLine
 10
112.500757
 20
139.030194
 30
0.0
 11
114.500742
 21
141.030179
 31
0.0
  0
LINE
  5
1D9
330
A
100
AcDbEntity
  8
Hawa2
 62
     9
 48
0.088385
100
AcDbLine
 10
119.470654
 20
146.000092
 30
0.0
 11
121.970562
 21
148.5
 31
0.0
  0
LINE
  5
1DA
330
A
100
AcDbEntity
  8
Hawa2
 62
     9
 48
0.077576
100
AcDbLine
 10
112.500757
 20
141.858621
 30
0.0
 11
114.694934
 21
144.052798
 31
0.0
  0
LINE
  5
1DB
330
A
100
AcDbEntity
  8
Hawa2
 62
     9
 48
0.095261
100
AcDbLine
 10
116.447757
 20
145.805621
 30
0.0
 11
119.142136
 21
148.5
 31
0.0
  0
LINE
  5
1DC
330
A
100
AcDbEntity
  8
Hawa2
 62
     9
 48
0.134808
100
AcDbLine
 10
112.500757
 20
144.687048
 30
0.0
 11
116.313708
 21
148.5
 31
0.0
  0
LINE
  5
1DD
330
A
100
AcDbEntity
  8
Hawa2
 62
     9
 48
0.034808
100
AcDbLine
 10
112.500757
 20
147.515476
 30
0.0
 11
113.485281
 21
148.5
 31
0.0
  0
LINE
  5
1DE
330
A
100
AcDbEntity
  8
Hawa2
 62
     9
 48
0.090497
100
AcDbLine
 10
109.941125
 20
119.5
 30
0.0
 11
112.500757
 21
122.059631
 31
0.0
  0
LINE
  5
1DF
330
A
100
AcDbEntity
  8
Hawa2
 62
     9
 48
0.106066
100
AcDbLine
 10
107.112698
 20
119.5
 30
0.0
 11
110.112699
 21
122.5
 31
0.0
  0
LINE
  5
1E0
330
A
100
AcDbEntity
  8
Hawa2
 62
     9
 48
0.106066
100
AcDbLine
 10
104.284271
 20
119.5
 30
0.0
 11
107.284271
 21
122.5
 31
0.0
  0
LINE
  5
1E1
330
A
100
AcDbEntity
  8
Hawa2
 62
     9
 48
0.110011
100
AcDbLine
 10
101.455844
 20
119.5
 30
0.0
 11
104.567437
 21
122.611593
 31
0.0
  0
LINE
  5
1E2
330
A
100
AcDbEntity
  8
Hawa2
 62
     9
 48
0.207654
100
AcDbLine
 10
98.627417
 20
119.5
 30
0.0
 11
104.500757
 21
125.373341
 31
0.0
  0
LINE
  5
1E3
330
A
100
AcDbEntity
  8
Hawa2
 62
     9
 48
0.022954
100
AcDbLine
 10
98.500624
 20
122.201635
 30
0.0
 11
99.14987299999999
 21
122.850883
 31
0.0
  0
LINE
  5
1E4
330
A
100
AcDbEntity
  8
Hawa2
 62
     9
 48
0.139404
100
AcDbLine
 10
100.500757
 20
124.201767
 30
0.0
 11
104.443699
 21
128.144709
 31
0.0
  0
LINE
  5
1E5
330
A
100
AcDbEntity
  8
Hawa2
 62
     9
 48
0.120208
100
AcDbLine
 10
99.83566000000001
 20
126.365097
 30
0.0
 11
103.23566
 21
129.765097
 31
0.0
  0
LINE
  5
1E6
330
A
100
AcDbEntity
  8
Hawa2
 62
     9
 48
0.141421
100
AcDbLine
 10
98.50075699999999
 20
127.858622
 30
0.0
 11
102.500757
 21
131.858622
 31
0.0
  0
LINE
  5
1E7
330
A
100
AcDbEntity
  8
Hawa2
 62
     9
 48
0.095917
100
AcDbLine
 10
98.50075699999999
 20
130.687048
 30
0.0
 11
101.213708
 21
133.4
 31
0.0
  0
LINE
  5
1E8
330
A
100
AcDbEntity
  8
Hawa2
 62
     9
 48
0.019786
100
AcDbLine
 10
138.941124
 20
148.5
 30
0.0
 11
139.500755
 21
149.059631
 31
0.0
  0
LINE
  5
1E9
330
A
100
AcDbEntity
  8
Hawa2
 62
     9
 48
0.101973
100
AcDbLine
 10
136.112698
 20
148.5
 30
0.0
 11
138.996937
 21
151.384237
 31
0.0
  0
LINE
  5
1EA
330
A
100
AcDbEntity
  8
Hawa2
 62
     9
 48
0.175289
100
AcDbLine
 10
133.284271
 20
148.5
 30
0.0
 11
138.24218
 21
153.45791
 31
0.0
  0
LINE
  5
1EB
330
A
100
AcDbEntity
  8
Hawa2
 62
     9
 48
0.078168
100
AcDbLine
 10
135.250757
 20
153.2949129999999
 30
0.0
 11
137.461693
 21
155.505849
 31
0.0
  0
LINE
  5
1EC
330
A
100
AcDbEntity
  8
Hawa2
 62
     9
 48
0.070711
100
AcDbLine
 10
133.627417
 20
154.5
 30
0.0
 11
135.627417
 21
156.5
 31
0.0
  0
LINE
  5
1ED
330
A
100
AcDbEntity
  8
Hawa2
 62
     9
 48
0.070711
100
AcDbLine
 10
130.79899
 20
154.5
 30
0.0
 11
132.798986
 21
156.499998
 31
0.0
  0
LINE
  5
1EE
330
A
100
AcDbEntity
  8
Hawa2
 62
     9
 48
0.070711
100
AcDbLine
 10
127.970562
 20
154.5
 30
0.0
 11
129.970558
 21
156.4999949999999
 31
0.0
  0
LINE
  5
1EF
330
A
100
AcDbEntity
  8
Hawa2
 62
     9
 48
0.06729
100
AcDbLine
 10
119.142136
 20
148.5
 30
0.0
 11
121.045382
 21
150.403246
 31
0.0
  0
LINE
  5
1F0
330
A
100
AcDbEntity
  8
Hawa2
 62
     9
 48
0.07071
100
AcDbLine
 10
125.142136
 20
154.5
 30
0.0
 11
127.142128
 21
156.499992
 31
0.0
  0
LINE
  5
1F1
330
A
100
AcDbEntity
  8
Hawa2
 62
     9
 48
0.070711
100
AcDbLine
 10
116.313708
 20
148.5
 30
0.0
 11
118.313708
 21
150.5
 31
0.0
  0
LINE
  5
1F2
330
A
100
AcDbEntity
  8
Hawa2
 62
     9
 48
0.07071
100
AcDbLine
 10
122.313709
 20
154.5
 30
0.0
 11
124.313698
 21
156.49999
 31
0.0
  0
LINE
  5
1F3
330
A
100
AcDbEntity
  8
Hawa2
 62
     9
 48
0.062145
100
AcDbLine
 10
110.485281
 20
145.5
 30
0.0
 11
112.243019
 21
147.257738
 31
0.0
  0
LINE
  5
1F4
330
A
100
AcDbEntity
  8
Hawa2
 62
     9
 48
0.141695
100
AcDbLine
 10
113.743019
 20
148.757738
 30
0.0
 11
117.750757
 21
152.765476
 31
0.0
  0
LINE
  5
1F5
330
A
100
AcDbEntity
  8
Hawa2
 62
     9
 48
0.07071
100
AcDbLine
 10
119.485281
 20
154.5
 30
0.0
 11
121.485268
 21
156.499987
 31
0.0
  0
LINE
  5
1F6
330
A
100
AcDbEntity
  8
Hawa2
 62
     9
 48
0.026301
100
AcDbLine
 10
101.756854
 20
139.6
 30
0.0
 11
102.500757
 21
140.343903
 31
0.0
  0
LINE
  5
1F7
330
A
100
AcDbEntity
  8
Hawa2
 62
     9
 48
0.388908
100
AcDbLine
 10
107.656854
 20
145.5
 30
0.0
 11
118.656838
 21
156.499984
 31
0.0
  0
LINE
  5
1F8
330
A
100
AcDbEntity
  8
Hawa2
 62
     9
100
AcDbLine
 10
98.928427
 20
139.6
 30
0.0
 11
115.828408
 21
156.499981
 31
0.0
  0
LINE
  5
1F9
330
A
100
AcDbEntity
  8
Hawa2
 62
     9
100
AcDbLine
 10
98.50075699999999
 20
142.000757
 30
0.0
 11
112.999979
 21
156.499979
 31
0.0
  0
LINE
  5
1FA
330
A
100
AcDbEntity
  8
Hawa2
 62
     9
 48
0.274301
100
AcDbLine
 10
98.50075699999999
 20
144.829184
 30
0.0
 11
106.259157
 21
152.587584
 31
0.0
  0
LINE
  5
1FB
330
A
100
AcDbEntity
  8
Hawa2
 62
     9
 48
0.218444
100
AcDbLine
 10
98.50075699999999
 20
147.657611
 30
0.0
 11
104.679294
 21
153.836149
 31
0.0
  0
LINE
  5
1FC
330
A
100
AcDbEntity
  8
Hawa2
 62
     9
 48
0.097734
100
AcDbLine
 10
100.500757
 20
152.4860379999999
 30
0.0
 11
103.265081
 21
155.250362
 31
0.0
  0
LINE
  5
1FD
330
A
100
AcDbEntity
  8
Hawa2
 62
     9
 48
0.110808
100
AcDbLine
 10
98.50075699999999
 20
153.314466
 30
0.0
 11
101.634883
 21
156.448592
 31
0.0
  0
LINE
  5
1FE
330
A
100
AcDbEntity
  8
Hawa2
 62
     9
 48
0.012624
100
AcDbLine
 10
98.50075699999999
 20
156.142892
 30
0.0
 11
98.85783000000001
 21
156.499966
 31
0.0
  0
VIEWPORT
  5
123
102
{ACAD_XDICTIONARY
360
22C
102
}
330
B
100
AcDbEntity
 67
     1
  8
0
 62
     9
100
AcDbViewport
 10
0.0
 20
0.0
 30
0.0
 40
1000.0
 41
1000.0
 68
     1
 69
     1
 12
0.0
 22
0.0
 13
0.0
 23
0.0
 14
1.0
 24
1.0
 15
1.0
 25
1.0
 16
0.0
 26
0.0
 36
1.0
 17
0.0
 27
0.0
 37
0.0
 42
50.0
 43
0.0
 44
0.0
 45
1000.0
 50
0.0
 51
0.0
 72
   100
 90
   557216
  1

281
     0
 71
     1
 74
     0
110
0.0
120
0.0
130
0.0
111
1.0
121
0.0
131
0.0
112
0.0
122
1.0
132
0.0
 79
     0
146
0.0
  0
ENDSEC
  0
SECTION
  2
OBJECTS
  0
DICTIONARY
  5
19
330
0
100
AcDbDictionary
281
     1
  3
ACAD_COLOR
350
220
  3
ACAD_GROUP
350
1A
  3
ACAD_LAYOUT
350
1B9
  3
ACAD_MATERIAL
350
20B
  3
ACAD_MLINESTYLE
350
1B
  3
ACAD_PLOTSETTINGS
350
223
  3
ACAD_PLOTSTYLENAME
350
209
  3
ACAD_TABLESTYLE
350
221
  3
ACAD_VISUALSTYLE
350
20F
  3
AcDbVariableDictionary
350
226
  3
DWGPROPS
350
22B
  0
DICTIONARY
  5
22C
330
123
100
AcDbDictionary
280
     1
281
     1
  3
ACAD_XREC_ROUNDTRIP
360
22D
  0
DICTIONARY
  5
220
102
{ACAD_REACTORS
330
19
102
}
330
19
100
AcDbDictionary
281
     1
  0
DICTIONARY
  5
1A
102
{ACAD_REACTORS
330
19
102
}
330
19
100
AcDbDictionary
281
     1
  0
DICTIONARY
  5
1B9
102
{ACAD_REACTORS
330
19
102
}
330
19
100
AcDbDictionary
281
     1
  3
Layout1
350
1BB
  3
Model
350
1BA
  0
DICTIONARY
  5
20B
102
{ACAD_REACTORS
330
19
102
}
330
19
100
AcDbDictionary
281
     1
  3
ByBlock
350
20D
  3
ByLayer
350
20C
  3
Global
350
20E
  0
DICTIONARY
  5
1B
102
{ACAD_REACTORS
330
19
102
}
330
19
100
AcDbDictionary
281
     1
  3
STANDARD
350
1C
  0
DICTIONARY
  5
223
102
{ACAD_REACTORS
330
19
102
}
330
19
100
AcDbDictionary
281
     1
  0
ACDBDICTIONARYWDFLT
  5
209
102
{ACAD_REACTORS
330
19
102
}
330
19
100
AcDbDictionary
281
     1
  3
Normal
350
20A
100
AcDbDictionaryWithDefault
340
20A
  0
DICTIONARY
  5
221
102
{ACAD_REACTORS
330
19
102
}
330
19
100
AcDbDictionary
281
     1
  3
Standard
350
222
  0
DICTIONARY
  5
20F
102
{ACAD_REACTORS
330
19
102
}
330
19
100
AcDbDictionary
281
     1
  3
2dWireframe
350
215
  3
3D Hidden
350
217
  3
3dWireframe
350
216
  3
Basic
350
214
  3
Brighten
350
21B
  3
ColorChange
350
21F
  3
Conceptual
350
218
  3
Dim
350
21A
  3
Facepattern
350
21E
  3
Flat
350
210
  3
FlatWithEdges
350
211
  3
Gouraud
350
212
  3
GouraudWithEdges
350
213
  3
Linepattern
350
21D
  3
Realistic
350
219
  3
Thicken
350
21C
  0
DICTIONARY
  5
226
102
{ACAD_REACTORS
330
19
102
}
330
19
100
AcDbDictionary
281
     1
  3
CTABLESTYLE
350
227
  3
DIMASSOC
350
22A
  3
INDEXCTL
350
229
  3
SORTENTS
350
228
  0
XRECORD
  5
22B
102
{ACAD_REACTORS
330
19
102
}
330
19
100
AcDbXrecord
280
     1
  1
DWGPROPS COOKIE
  2

  3

  4

  6

  7

  8
rhu
  9

300
=
301
=
302
=
303
=
304
=
305
=
306
=
307
=
308
=
309
=
 40
0.0026500810185185
 41
2447893.0
 42
2454272.406804896
  1

 90
        0
  0
XRECORD
  5
22D
102
{ACAD_REACTORS
330
22C
102
}
330
22C
100
AcDbXrecord
280
     1
102
SHADEPLOT
 70
     0
  0
LAYOUT
  5
1BB
102
{ACAD_XDICTIONARY
360
230
102
}
102
{ACAD_REACTORS
330
1B9
102
}
330
1B9
100
AcDbPlotSettings
  1

  2
none_device
  4

  6

 40
0.0
 41
0.0
 42
0.0
 43
0.0
 44
0.0
 45
0.0
 46
0.0
 47
0.0
 48
0.0
 49
0.0
140
0.0
141
0.0
142
1.0
143
1.0
 70
   688
 72
     0
 73
     0
 74
     5
  7

 75
    16
147
1.0
148
0.0
149
0.0
100
AcDbLayout
  1
Layout1
 70
     1
 71
     1
 10
0.0
 20
0.0
 11
420.0
 21
297.0
 12
0.0
 22
0.0
 32
0.0
 14
0.0
 24
0.0
 34
0.0
 15
35.561417
 25
23.11314
 35
2.0
146
0.0
 13
0.0
 23
0.0
 33
0.0
 16
1.0
 26
0.0
 36
0.0
 17
0.0
 27
1.0
 37
0.0
 76
     0
330
B
331
123
  0
LAYOUT
  5
1BA
102
{ACAD_XDICTIONARY
360
22E
102
}
102
{ACAD_REACTORS
330
1B9
102
}
330
1B9
100
AcDbPlotSettings
  1

  2
none_device
  4

  6

 40
0.0
 41
0.0
 42
0.0
 43
0.0
 44
0.0
 45
0.0
 46
0.0
 47
0.0
 48
0.0
 49
0.0
140
0.0
141
0.0
142
1.0
143
1.0
 70
   688
 72
     0
 73
     0
 74
     5
  7

 75
    16
147
1.0
148
0.0
149
0.0
100
AcDbLayout
  1
Model
 70
     1
 71
     0
 10
0.0
 20
0.0
 11
0.0
 21
0.0
 12
0.0
 22
0.0
 32
0.0
 14
0.0
 24
0.0
 34
0.0
 15
0.0
 25
0.0
 35
0.0
146
0.0
 13
0.0
 23
0.0
 33
0.0
 16
1.0
 26
0.0
 36
0.0
 17
0.0
 27
1.0
 37
0.0
 76
     0
330
A
331
15
  0
MATERIAL
  5
20D
102
{ACAD_XDICTIONARY
360
234
102
}
102
{ACAD_REACTORS
330
20B
102
}
330
20B
100
AcDbMaterial
  1
ByBlock
  0
MATERIAL
  5
20C
102
{ACAD_XDICTIONARY
360
232
102
}
102
{ACAD_REACTORS
330
20B
102
}
330
20B
100
AcDbMaterial
  1
ByLayer
  0
MATERIAL
  5
20E
102
{ACAD_XDICTIONARY
360
236
102
}
102
{ACAD_REACTORS
330
20B
102
}
330
20B
100
AcDbMaterial
  1
Global
  0
MLINESTYLE
  5
1C
102
{ACAD_REACTORS
330
1B
102
}
330
1B
100
AcDbMlineStyle
  2
STANDARD
 70
     0
  3

 62
     0
 51
90.0
 52
90.0
 71
     2
 49
0.5
 62
   256
  6
BYLAYER
 49
-0.5
 62
   256
  6
BYLAYER
  0
ACDBPLACEHOLDER
  5
20A
102
{ACAD_REACTORS
330
209
102
}
330
209
  0
TABLESTYLE
  5
222
102
{ACAD_XDICTIONARY
360
238
102
}
102
{ACAD_REACTORS
330
221
102
}
330
221
100
AcDbTableStyle
  3
Standard
 70
     0
 71
     0
 40
1.5
 41
1.5
280
     0
281
     0
  7
STANDARD
140
4.5
170
     2
 62
     0
 63
     7
283
     0
274
    -2
284
     1
 64
     0
275
    -2
285
     1
 65
     0
276
    -2
286
     1
 66
     0
277
    -2
287
     1
 67
     0
278
    -2
288
     1
 68
     0
279
    -2
289
     1
 69
     0
  7
STANDARD
140
6.0
170
     5
 62
     0
 63
     7
283
     0
274
    -2
284
     1
 64
     0
275
    -2
285
     1
 65
     0
276
    -2
286
     1
 66
     0
277
    -2
287
     1
 67
     0
278
    -2
288
     1
 68
     0
279
    -2
289
     1
 69
     0
  7
STANDARD
140
4.5
170
     5
 62
     0
 63
     7
283
     0
274
    -2
284
     1
 64
     0
275
    -2
285
     1
 65
     0
276
    -2
286
     1
 66
     0
277
    -2
287
     1
 67
     0
278
    -2
288
     1
 68
     0
279
    -2
289
     1
 69
     0
  0
VISUALSTYLE
  5
215
102
{ACAD_REACTORS
330
20F
102
}
330
20F
100
AcDbVisualStyle
  2
2dWireframe
 70
     4
 71
     0
 72
     2
 73
     0
 90
        0
 40
-0.6
 41
-30.0
 62
     5
 63
     7
 74
     1
 91
        4
 64
     7
 65
   257
 75
     1
175
     1
 42
1.0
 92
        0
 66
   257
 43
1.0
 76
     1
 77
     6
 78
     2
 67
     7
 79
     5
170
     0
171
     0
290
     0
174
     0
 93
        1
 44
0.0
173
     0
291
     0
 45
0.0
1001
ACAD
1000
AcDbSavedByObjectVersion
1070
     0
  0
VISUALSTYLE
  5
217
102
{ACAD_REACTORS
330
20F
102
}
330
20F
100
AcDbVisualStyle
  2
3D Hidden
 70
     6
 71
     1
 72
     2
 73
     2
 90
        0
 40
-0.6
 41
-30.0
 62
     5
 63
     7
 74
     2
 91
        2
 64
     7
 65
   257
 75
     2
175
     1
 42
40.0
 92
        0
 66
   257
 43
1.0
 76
     1
 77
     6
 78
     2
 67
     7
 79
     3
170
     0
171
     0
290
     0
174
     0
 93
        1
 44
0.0
173
     0
291
     0
 45
0.0
1001
ACAD
1000
AcDbSavedByObjectVersion
1070
     0
  0
VISUALSTYLE
  5
216
102
{ACAD_REACTORS
330
20F
102
}
330
20F
100
AcDbVisualStyle
  2
3dWireframe
 70
     5
 71
     0
 72
     2
 73
     0
 90
        0
 40
-0.6
 41
-30.0
 62
     5
 63
     7
 74
     1
 91
        4
 64
     7
 65
   257
 75
     1
175
     1
 42
1.0
 92
        0
 66
   257
 43
1.0
 76
     1
 77
     6
 78
     2
 67
     7
 79
     5
170
     0
171
     0
290
     0
174
     0
 93
        1
 44
0.0
173
     0
291
     0
 45
0.0
1001
ACAD
1000
AcDbSavedByObjectVersion
1070
     0
  0
VISUALSTYLE
  5
214
102
{ACAD_REACTORS
330
20F
102
}
330
20F
100
AcDbVisualStyle
  2
Basic
 70
     7
 71
     1
 72
     0
 73
     1
 90
        0
 40
-0.6
 41
-30.0
 62
     5
 63
     7
 74
     0
 91
        4
 64
     7
 65
   257
 75
     1
175
     1
 42
1.0
 92
        8
 66
     7
 43
1.0
 76
     1
 77
     6
 78
     2
 67
     7
 79
     5
170
     0
171
     0
290
     0
174
     0
 93
        1
 44
0.0
173
     0
291
     1
 45
0.0
1001
ACAD
1000
AcDbSavedByObjectVersion
1070
     0
  0
VISUALSTYLE
  5
21B
102
{ACAD_REACTORS
330
20F
102
}
330
20F
100
AcDbVisualStyle
  2
Brighten
 70
    12
 71
     2
 72
     2
 73
     0
 90
        0
 40
-0.6
 41
-30.0
 62
     5
 63
     7
 74
     1
 91
        4
 64
     7
 65
   257
 75
     1
175
     1
 42
1.0
 92
        8
 66
     7
 43
1.0
 76
     1
 77
     6
 78
     2
 67
     7
 79
     5
170
     0
171
     0
290
     0
174
     0
 93
        1
 44
50.0
173
     0
291
     1
 45
0.0
1001
ACAD
1000
AcDbSavedByObjectVersion
1070
     0
  0
VISUALSTYLE
  5
21F
102
{ACAD_REACTORS
330
20F
102
}
330
20F
100
AcDbVisualStyle
  2
ColorChange
 70
    16
 71
     2
 72
     2
 73
     3
 90
        0
 40
-0.6
 41
-30.0
 62
     5
 63
     8
 74
     1
 91
        4
 64
     7
 65
   257
 75
     1
175
     1
 42
1.0
 92
        8
 66
     8
 43
1.0
 76
     1
 77
     6
 78
     2
 67
     7
 79
     5
170
     0
171
     0
290
     0
174
     0
 93
        1
 44
0.0
173
     0
291
     1
 45
0.0
1001
ACAD
1000
AcDbSavedByObjectVersion
1070
     0
  0
VISUALSTYLE
  5
218
102
{ACAD_REACTORS
330
20F
102
}
330
20F
100
AcDbVisualStyle
  2
Conceptual
 70
     9
 71
     3
 72
     2
 73
     0
 90
        0
 40
-0.6
 41
-30.0
 62
     5
 63
     7
 74
     2
 91
        2
 64
     7
 65
   257
 75
     1
175
     1
 42
40.0
 92
        8
 66
     7
 43
1.0
 76
     1
 77
     6
 78
     2
 67
     7
 79
     3
170
     0
171
     0
290
     0
174
     0
 93
        1
 44
0.0
173
     0
291
     0
 45
0.0
1001
ACAD
1000
AcDbSavedByObjectVersion
1070
     0
  0
VISUALSTYLE
  5
21A
102
{ACAD_REACTORS
330
20F
102
}
330
20F
100
AcDbVisualStyle
  2
Dim
 70
    11
 71
     2
 72
     2
 73
     0
 90
        0
 40
-0.6
 41
-30.0
 62
     5
 63
     7
 74
     1
 91
        4
 64
     7
 65
   257
 75
     1
175
     1
 42
1.0
 92
        8
 66
     7
 43
1.0
 76
     1
 77
     6
 78
     2
 67
     7
 79
     5
170
     0
171
     0
290
     0
174
     0
 93
        1
 44
-50.0
173
     0
291
     1
 45
0.0
1001
ACAD
1000
AcDbSavedByObjectVersion
1070
     0
  0
VISUALSTYLE
  5
21E
102
{ACAD_REACTORS
330
20F
102
}
330
20F
100
AcDbVisualStyle
  2
Facepattern
 70
    15
 71
     2
 72
     2
 73
     0
 90
        0
 40
-0.6
 41
-30.0
 62
     5
 63
     7
 74
     1
 91
        4
 64
     7
 65
   257
 75
     1
175
     1
 42
1.0
 92
        8
 66
     7
 43
1.0
 76
     1
 77
     6
 78
     2
 67
     7
 79
     5
170
     0
171
     0
290
     0
174
     0
 93
        1
 44
0.0
173
     0
291
     1
 45
0.0
1001
ACAD
1000
AcDbSavedByObjectVersion
1070
     0
  0
VISUALSTYLE
  5
210
102
{ACAD_REACTORS
330
20F
102
}
330
20F
100
AcDbVisualStyle
  2
Flat
 70
     0
 71
     2
 72
     1
 73
     1
 90
        2
 40
-0.6
 41
30.0
 62
     5
 63
     7
 74
     0
 91
        4
 64
     7
 65
   257
 75
     1
175
     1
 42
1.0
 92
        8
 66
     7
 43
1.0
 76
     1
 77
     6
 78
     2
 67
     7
 79
     5
170
     0
171
     0
290
     0
174
     0
 93
       13
 44
0.0
173
     0
291
     1
 45
0.0
1001
ACAD
1000
AcDbSavedByObjectVersion
1070
     0
  0
VISUALSTYLE
  5
211
102
{ACAD_REACTORS
330
20F
102
}
330
20F
100
AcDbVisualStyle
  2
FlatWithEdges
 70
     1
 71
     2
 72
     1
 73
     1
 90
        2
 40
-0.6
 41
30.0
 62
     5
 63
     7
 74
     1
 91
        4
 64
     7
 65
   257
 75
     1
175
     1
 42
1.0
 92
        0
 66
   257
 43
1.0
 76
     1
 77
     6
 78
     2
 67
     7
 79
     5
170
     0
171
     0
290
     0
174
     0
 93
       13
 44
0.0
173
     0
291
     1
 45
0.0
1001
ACAD
1000
AcDbSavedByObjectVersion
1070
     0
  0
VISUALSTYLE
  5
212
102
{ACAD_REACTORS
330
20F
102
}
330
20F
100
AcDbVisualStyle
  2
Gouraud
 70
     2
 71
     2
 72
     2
 73
     1
 90
        2
 40
-0.6
 41
30.0
 62
     5
 63
     7
 74
     0
 91
        4
 64
     7
 65
   257
 75
     1
175
     1
 42
1.0
 92
        0
 66
     7
 43
1.0
 76
     1
 77
     6
 78
     2
 67
     7
 79
     5
170
     0
171
     0
290
     0
174
     0
 93
       13
 44
0.0
173
     0
291
     1
 45
0.0
1001
ACAD
1000
AcDbSavedByObjectVersion
1070
     0
  0
VISUALSTYLE
  5
213
102
{ACAD_REACTORS
330
20F
102
}
330
20F
100
AcDbVisualStyle
  2
GouraudWithEdges
 70
     3
 71
     2
 72
     2
 73
     1
 90
        2
 40
-0.6
 41
30.0
 62
     5
 63
     7
 74
     1
 91
        4
 64
     7
 65
   257
 75
     1
175
     1
 42
1.0
 92
        0
 66
   257
 43
1.0
 76
     1
 77
     6
 78
     2
 67
     7
 79
     5
170
     0
171
     0
290
     0
174
     0
 93
       13
 44
0.0
173
     0
291
     1
 45
0.0
1001
ACAD
1000
AcDbSavedByObjectVersion
1070
     0
  0
VISUALSTYLE
  5
21D
102
{ACAD_REACTORS
330
20F
102
}
330
20F
100
AcDbVisualStyle
  2
Linepattern
 70
    14
 71
     2
 72
     2
 73
     0
 90
        0
 40
-0.6
 41
-30.0
 62
     5
 63
     7
 74
     1
 91
        4
 64
     7
 65
   257
 75
     7
175
     7
 42
1.0
 92
        8
 66
     7
 43
1.0
 76
     1
 77
     6
 78
     2
 67
     7
 79
     5
170
     0
171
     0
290
     0
174
     0
 93
        1
 44
0.0
173
     0
291
     1
 45
0.0
1001
ACAD
1000
AcDbSavedByObjectVersion
1070
     0
  0
VISUALSTYLE
  5
219
102
{ACAD_REACTORS
330
20F
102
}
330
20F
100
AcDbVisualStyle
  2
Realistic
 70
     8
 71
     2
 72
     2
 73
     0
 90
        0
 40
-0.6
 41
-30.0
 62
     5
 63
     7
 74
     1
 91
        0
 64
     7
 65
   257
 75
     1
175
     1
 42
1.0
 92
        8
 66
     8
 43
1.0
 76
     1
 77
     6
 78
     2
 67
     7
 79
     5
170
     0
171
     0
290
     0
174
     0
 93
       13
 44
0.0
173
     0
291
     0
 45
0.0
1001
ACAD
1000
AcDbSavedByObjectVersion
1070
     0
  0
VISUALSTYLE
  5
21C
102
{ACAD_REACTORS
330
20F
102
}
330
20F
100
AcDbVisualStyle
  2
Thicken
 70
    13
 71
     2
 72
     2
 73
     0
 90
        0
 40
-0.6
 41
-30.0
 62
     5
 63
     7
 74
     1
 91
        4
 64
     7
 65
   257
 75
     1
175
     1
 42
1.0
 92
       12
 66
     7
 43
1.0
 76
     1
 77
     6
 78
     2
 67
     7
 79
     5
170
     0
171
     0
290
     0
174
     0
 93
        1
 44
0.0
173
     0
291
     1
 45
0.0
1001
ACAD
1000
AcDbSavedByObjectVersion
1070
     0
  0
DICTIONARYVAR
  5
227
102
{ACAD_REACTORS
330
226
102
}
330
226
100
DictionaryVariables
280
     0
  1
STANDARD
  0
DICTIONARYVAR
  5
22A
102
{ACAD_REACTORS
330
226
102
}
330
226
100
DictionaryVariables
280
     0
  1
1
  0
DICTIONARYVAR
  5
229
102
{ACAD_REACTORS
330
226
102
}
330
226
100
DictionaryVariables
280
     0
  1
0
  0
DICTIONARYVAR
  5
228
102
{ACAD_REACTORS
330
226
102
}
330
226
100
DictionaryVariables
280
     0
  1
127
  0
DICTIONARY
  5
230
330
1BB
100
AcDbDictionary
280
     1
281
     1
  3
ACAD_XREC_ROUNDTRIP
360
231
  0
DICTIONARY
  5
22E
330
1BA
100
AcDbDictionary
280
     1
281
     1
  3
ACAD_XREC_ROUNDTRIP
360
22F
  0
DICTIONARY
  5
234
330
20D
100
AcDbDictionary
280
     1
281
     1
  3
ACAD_XREC_ROUNDTRIP
360
235
  0
DICTIONARY
  5
232
330
20C
100
AcDbDictionary
280
     1
281
     1
  3
ACAD_XREC_ROUNDTRIP
360
233
  0
DICTIONARY
  5
236
330
20E
100
AcDbDictionary
280
     1
281
     1
  3
ACAD_XREC_ROUNDTRIP
360
237
  0
DICTIONARY
  5
238
330
222
100
AcDbDictionary
280
     1
281
     1
  3
ACAD_XREC_ROUNDTRIP
360
239
  0
XRECORD
  5
231
102
{ACAD_REACTORS
330
230
102
}
330
230
100
AcDbXrecord
280
     1
102
SHADEPLOT
 70
     0
102
SHADEPLOTRESLEVEL
 70
     2
102
SHADEPLOTCUSTOMDPI
 70
   300
  0
XRECORD
  5
22F
102
{ACAD_REACTORS
330
22E
102
}
330
22E
100
AcDbXrecord
280
     1
102
SHADEPLOT
 70
     0
102
SHADEPLOTRESLEVEL
 70
     2
102
SHADEPLOTCUSTOMDPI
 70
   300
  0
XRECORD
  5
235
102
{ACAD_REACTORS
330
234
102
}
330
234
100
AcDbXrecord
280
     1
102
MATERIAL
148
0.0
149
0.0
149
0.0
 93
        0
 94
       63
282
     0
 72
     1
 77
     1
171
     1
175
     1
179
     1
273
     0
  0
XRECORD
  5
233
102
{ACAD_REACTORS
330
232
102
}
330
232
100
AcDbXrecord
280
     1
102
MATERIAL
148
0.0
149
0.0
149
0.0
 93
        0
 94
       63
282
     0
 72
     1
 77
     1
171
     1
175
     1
179
     1
273
     0
  0
XRECORD
  5
237
102
{ACAD_REACTORS
330
236
102
}
330
236
100
AcDbXrecord
280
     1
102
MATERIAL
148
0.0
149
0.0
149
0.0
 93
        0
 94
       63
282
     0
 72
     1
 77
     1
171
     1
175
     1
179
     1
273
     0
  0
XRECORD
  5
239
102
{ACAD_REACTORS
330
238
102
}
330
238
100
AcDbXrecord
280
     1
102
ACAD_ROUNDTRIP_PRE2007_TABLESTYLE
 90
      512
 91
        0
  1

 92
      512
 93
        0
  2

 94
      512
 95
        0
  3

  0
ENDSEC
  0
EOF
