  0
SECTION
  2
HEADER
  9
$ACADVER
  1
AC1009
  9
$INSBASE
 10
0
 20
0
  9
$EXTMIN
 10
-117.6230353798338
 20
-99.84291168764449
  9
$EXTMAX
 10
175.715626206163
 20
143.65676119803
  9
$LIMMIN
 10
-117.6230353798338
 20
-99.84291168764449
  9
$LIMMAX
 10
175.715626206163
 20
143.65676119803
  9
$VIEWCTR
 10
10
 20
10
  9
$VIEWSIZE
 40
10
  9
$SNAPMODE
 70
0
  9
$SNAPUNIT
 10
1
 20
1
  9
$SNAPBASE
 10
0
 20
0
  9
$SNAPANG
 50
0
  9
$SNAPSTYLE
 70
0
  9
$SNAPISOPAIR
 70
0
  9
$GRIDMODE
 70
0
  9
$GRIDUNIT
 10
0
 20
0
  9
$ORTHOMODE
 70
0
  9
$REGENMODE
 70
1
  9
$FILLMODE
 70
1
  9
$QTEXTMODE
 70
0
  9
$DRAGMODE
 70
2
  9
$LTSCALE
 40
1
  9
$OSMODE
 70
0
  9
$ATTMODE
 70
1
  9
$TEXTSIZE
 40
3.5
  9
$TRACEWID
 40
0.5
  9
$TEXTSTYLE
  7
STANDARD
  9
$CLAYER
  8
0
  9
$CELTYPE
  6
BYLAYER
  9
$CECOLOR
 62
256
  9
$DIMSCALE
 40
1
  9
$DIMASZ
 40
0.18
  9
$DIMEXO
 40
0.0625
  9
$DIMDLI
 40
0.38
  9
$DIMRND
 40
0
  9
$DIMDLE
 40
0
  9
$DIMEXE
 40
0.18
  9
$DIMTP
 40
0
  9
$DIMTM
 40
0
  9
$DIMTXT
 40
0.18
  9
$DIMCEN
 40
0.09
  9
$DIMTSZ
 40
0
  9
$DIMTOL
 70
0
  9
$DIMLIM
 70
0
  9
$DIMTIH
 70
1
  9
$DIMTOH
 70
1
  9
$DIMSE1
 70
0
  9
$DIMSE2
 70
0
  9
$DIMTAD
 70
0
  9
$DIMZIN
 70
0
  9
$DIMBLK
  1

  9
$DIMASO
 70
1
  9
$DIMSHO
 70
1
  9
$DIMPOST
  1

  9
$DIMAPOST
  1

  9
$DIMALT
 70
0
  9
$DIMALTD
 70
2
  9
$DIMALTF
 40
25.4
  9
$DIMLFAC
 40
1
  9
$DIMTOFL
 70
0
  9
$DIMTVP
 40
0
  9
$DIMTIX
 70
0
  9
$DIMSOXD
 70
0
  9
$DIMSAH
 70
0
  9
$DIMBLK1
  1

  9
$DIMBLK2
  1

  9
$DIMSTYLE
  2
*UNNAMED
  9
$DIMCLRD
 70
0
  9
$DIMCLRE
 70
0
  9
$DIMCLRT
 70
0
  9
$DIMTFAC
 40
1
  9
$DIMGAP
 40
0.09
  9
$LUNITS
 70
2
  9
$LUPREC
 70
4
  9
$AXISMODE
 70
0
  9
$AXISUNIT
 10
0
 20
0
  9
$SKETCHINC
 40
0.1
  9
$FILLETRAD
 40
2
  9
$AUNITS
 70
0
  9
$AUPREC
 70
0
  9
$MENU
  1
ACAD
  9
$ELEVATION
 40
0
  9
$THICKNESS
 40
0
  9
$VIEWDIR
 10
0
 20
0
 30
1
  9
$LIMCHECK
 70
0
  9
$BLIPMODE
 70
1
  9
$CHAMFERA
 40
0
  9
$CHAMFERB
 40
0
  9
$FASTZOOM
 70
1
  9
$SKPOLY
 70
0
  9
$ANGBASE
 50
0
  9
$ANGDIR
 70
0
  9
$PDMODE
 70
0
  9
$PDSIZE
 40
0
  9
$PLINEWID
 40
0
  9
$COORDS
 70
2
  0
ENDSEC
  0
SECTION
  2
TABLES
  0
TABLE
  2
DIMSTYLE
 70
2
  0
DIMSTYLE
  2
DMST_1
 70
0
  3

  4

  5

  6

  7

 40
1
 41
5
 42
0
 43
7
 44
1.5
 45
0
 46
0
 47
0
 48
0
140
5
141
0
142
0
143
25.4
144
1
145
0
146
1
147
0.09
 71
0
 72
0
 73
0
 74
0
 75
0
 76
0
 77
1
 78
9
170
0
171
2
172
0
173
0
174
0
175
0
176
1
177
1
178
7
  0
DIMSTYLE
  2
DMST_2
 70
0
  3

  4

  5

  6

  7

 40
1
 41
5
 42
0
 43
7
 44
2
 45
0
 46
0
 47
0
 48
0
140
5
141
0
142
0
143
25.4
144
1
145
0
146
1
147
0.09
 71
0
 72
0
 73
0
 74
0
 75
0
 76
0
 77
1
 78
9
170
0
171
2
172
0
173
0
174
0
175
0
176
1
177
1
178
7
  0
ENDTAB
  0
TABLE
  2
LTYPE
 70
9
  0
LTYPE
  2
CONTINUOUS
 70
64
  3
Solid line
 72
65
 73
0
 40
0
  0
LTYPE
  2
BORDER
 70
64
  3
__ __ . __ __ .
 72
65
 73
6
 40
13.50901730988143
 49
3.859719231394694
 49
-1.929859615697347
 49
3.859719231394694
 49
-1.929859615697347
 49
0
 49
-1.929859615697347
  0
LTYPE
  2
CENTER
 70
64
  3
____ _ ____ _
 72
65
 73
4
 40
15.43887692557878
 49
9.649298078486735
 49
-1.929859615697347
 49
1.929859615697347
 49
-1.929859615697347
  0
LTYPE
  2
DASHDOT
 70
64
  3
__ . __ . __ .
 72
65
 73
4
 40
7.719438462789388
 49
3.859719231394694
 49
-1.929859615697347
 49
0
 49
-1.929859615697347
  0
LTYPE
  2
DASHED
 70
64
  3
__ __ __ __ __
 72
65
 73
2
 40
5.789578847092042
 49
3.859719231394694
 49
-1.929859615697347
  0
LTYPE
  2
DIVIDE
 70
64
  3
__ . . __ . . 
 72
65
 73
6
 40
9.649298078486735
 49
3.859719231394694
 49
-1.929859615697347
 49
0
 49
-1.929859615697347
 49
0
 49
-1.929859615697347
  0
LTYPE
  2
DOT
 70
64
  3
..............
 72
65
 73
4
 40
3.859719231394694
 49
0
 49
-1.929859615697347
 49
0
 49
-1.929859615697347
  0
LTYPE
  2
HIDDEN
 70
64
  3
_ _ _ _ _ _ _
 72
65
 73
2
 40
2.894789423546021
 49
1.929859615697347
 49
-0.9649298078486735
  0
LTYPE
  2
PHANTOM
 70
64
  3
_____ _ _ _____ _ _ 
 72
65
 73
6
 40
19.29859615697347
 49
9.649298078486735
 49
-1.929859615697347
 49
1.929859615697347
 49
-1.929859615697347
 49
1.929859615697347
 49
-1.929859615697347
  0
ENDTAB
  0
TABLE
  2
LAYER
 70
3
  0
LAYER
  2
1
 70
0
 62
7
  6
CONTINUOUS
  0
LAYER
  2
0
 70
0
 62
7
  6
CONTINUOUS
  0
ENDTAB
  0
TABLE
  2
STYLE
 70
4
  0
STYLE
  2
STANDARD
 70
0
 40
0
 41
1
 50
0
 71
0
 42
3.5
  3
txt
  4

  0
STYLE
  2
SIMPLEX
 70
0
 40
0
 41
1
 50
0
 71
0
 42
3.5
  3
simplex
  4

  0
STYLE
  2
COMPLEX
 70
0
 40
0
 41
1
 50
0
 71
0
 42
3.5
  3
complex
  4

  0
STYLE
  2
ITALIC
 70
0
 40
0
 41
1
 50
0
 71
0
 42
3.5
  3
italic
  4

  0
ENDTAB
  0
TABLE
  2
VIEW
 70
0
  0
ENDTAB
  0
ENDSEC
  0
SECTION
  2
BLOCKS
  0
BLOCK
  8
1
  2
*D0
 70
1
 10
0
 20
0
 30
0
  0
LINE
  8
1
 62
1
 10
-0.9139850013980038
 20
-95.34323880196999
 30
0
 11
-0.9139850013980038
 21
-43.34323880197
 31
0
  0
LINE
  8
1
 62
1
 10
-58.23977128419402
 20
-43.34323880197
 30
0
 11
0.5860149986019962
 21
-43.34323880197
 31
0
  0
LINE
  8
1
 62
1
 10
24.36022871580589
 20
-95.34323880196999
 30
0
 11
-2.413985001398004
 21
-95.34323880196999
 31
0
  0
SOLID
  8
1
 62
1
 10
-0.9139850013980038
 20
-95.34323880196999
 30
0
 11
-1.563985001398005
 21
-90.34323880196999
 31
0
 12
-0.2639850013980062
 22
-90.34323880196999
 32
0
 13
-0.2639850013980062
 23
-90.34323880196999
 33
0
  0
SOLID
  8
1
 62
1
 10
-0.9139850013980038
 20
-43.34323880197
 30
0
 11
-0.2639850013980051
 21
-48.34323880197
 31
0
 12
-1.563985001398004
 22
-48.34323880197
 32
0
 13
-1.563985001398004
 23
-48.34323880197
 33
0
  0
TEXT
  8
1
 62
7
 10
-2.913985001398004
 20
-73.09323880197
 30
0
 40
5
  1
52
 50
90
 41
0.9
  0
ENDBLK
  8
0
  0
BLOCK
  8
1
  2
*D1
 70
1
 10
0
 20
0
 30
0
  0
LINE
  8
1
 62
1
 10
65.886105242358
 20
-43.34323880197
 30
0
 11
65.886105242358
 21
-18.34323880197
 31
0
  0
LINE
  8
1
 62
1
 10
83.76022871580601
 20
-18.34323880197
 30
0
 11
64.386105242358
 21
-18.34323880197
 31
0
  0
LINE
  8
1
 62
1
 10
84.76022871580601
 20
-43.34323880197
 30
0
 11
64.386105242358
 21
-43.34323880197
 31
0
  0
SOLID
  8
1
 62
1
 10
65.886105242358
 20
-43.34323880197
 30
0
 11
65.23610524235799
 21
-38.34323880197
 31
0
 12
66.53610524235799
 22
-38.34323880197
 32
0
 13
66.53610524235799
 23
-38.34323880197
 33
0
  0
SOLID
  8
1
 62
1
 10
65.886105242358
 20
-18.34323880197
 30
0
 11
66.536105242358
 21
-23.34323880197
 31
0
 12
65.23610524235799
 22
-23.34323880197
 32
0
 13
65.23610524235799
 23
-23.34323880197
 33
0
  0
TEXT
  8
1
 62
7
 10
63.886105242358
 20
-34.59323880197
 30
0
 40
5
  1
25
 50
90
 41
0.9
  0
ENDBLK
  8
0
  0
BLOCK
  8
1
  2
*D2
 70
1
 10
0
 20
0
 30
0
  0
LINE
  8
1
 62
1
 10
-32.53503549323369
 20
-58.34323880197
 30
0
 11
-32.53503549323369
 21
-18.34323880197
 31
0
  0
LINE
  8
1
 62
1
 10
-59.23977128419402
 20
-18.34323880197
 30
0
 11
-31.03503549323369
 21
-18.34323880197
 31
0
  0
LINE
  8
1
 62
1
 10
-58.23977128419402
 20
-58.34323880197
 30
0
 11
-31.03503549323369
 21
-58.34323880197
 31
0
  0
SOLID
  8
1
 62
1
 10
-32.53503549323369
 20
-58.34323880197
 30
0
 11
-33.18503549323369
 21
-53.34323880197
 31
0
 12
-31.88503549323369
 22
-53.34323880197
 32
0
 13
-31.88503549323369
 23
-53.34323880197
 33
0
  0
SOLID
  8
1
 62
1
 10
-32.53503549323369
 20
-18.34323880197
 30
0
 11
-31.88503549323369
 21
-23.34323880197
 31
0
 12
-33.18503549323369
 22
-23.34323880197
 32
0
 13
-33.18503549323369
 23
-23.34323880197
 33
0
  0
TEXT
  8
1
 62
7
 10
-34.8199098219889
 20
-38.8760712521707
 30
0
 40
5
  1
40
 50
90
 41
0.9
  0
ENDBLK
  8
0
  0
BLOCK
  8
1
  2
*D3
 70
1
 10
0
 20
0
 30
0
  0
LINE
  8
1
 62
1
 10
-94.6376391618838
 20
-18.34323880197
 30
0
 11
-94.6376391618838
 21
-8.272255992951102
 31
0
  0
LINE
  8
1
 62
1
 10
-94.6376391618838
 20
-20.34323880197
 30
0
 11
-94.6376391618838
 21
-18.34323880197
 31
0
  0
LINE
  8
1
 62
1
 10
-94.6376391618838
 20
-30.34323880197
 30
0
 11
-94.6376391618838
 21
-20.34323880197
 31
0
  0
LINE
  8
1
 62
1
 10
-59.23977128419402
 20
-18.34323880197
 30
0
 11
-96.1376391618838
 21
-18.34323880197
 31
0
  0
LINE
  8
1
 62
1
 10
-79.23977128419402
 20
-20.34323880197
 30
0
 11
-96.1376391618838
 21
-20.34323880197
 31
0
  0
SOLID
  8
1
 62
1
 10
-94.6376391618838
 20
-18.34323880197
 30
0
 11
-95.2876391618838
 21
-13.34323880197
 31
0
 12
-93.98763916188381
 22
-13.34323880197
 32
0
 13
-93.98763916188381
 23
-13.34323880197
 33
0
  0
SOLID
  8
1
 62
1
 10
-94.6376391618838
 20
-20.34323880197
 30
0
 11
-93.98763916188379
 21
-25.34323880197
 31
0
 12
-95.2876391618838
 22
-25.34323880197
 32
0
 13
-95.2876391618838
 23
-25.34323880197
 33
0
  0
TEXT
  8
1
 62
7
 10
-96.6376391618838
 20
-11.2722559929511
 30
0
 40
5
  1
2
 50
90
 41
0.9
  0
ENDBLK
  8
0
  0
BLOCK
  8
1
  2
*D4
 70
1
 10
0
 20
0
 30
0
  0
LINE
  8
1
 62
1
 10
-94.6376391618838
 20
-40.34323880197
 30
0
 11
-94.6376391618838
 21
-20.34323880197
 31
0
  0
LINE
  8
1
 62
1
 10
-79.23977128419402
 20
-20.34323880197
 30
0
 11
-96.1376391618838
 21
-20.34323880197
 31
0
  0
LINE
  8
1
 62
1
 10
-63.85327236292262
 20
-40.34323880197
 30
0
 11
-96.1376391618838
 21
-40.34323880197
 31
0
  0
SOLID
  8
1
 62
1
 10
-94.6376391618838
 20
-40.34323880197
 30
0
 11
-95.2876391618838
 21
-35.34323880197
 31
0
 12
-93.98763916188381
 22
-35.34323880197
 32
0
 13
-93.98763916188381
 23
-35.34323880197
 33
0
  0
SOLID
  8
1
 62
1
 10
-94.6376391618838
 20
-20.34323880197
 30
0
 11
-93.98763916188379
 21
-25.34323880197
 31
0
 12
-95.2876391618838
 22
-25.34323880197
 32
0
 13
-95.2876391618838
 23
-25.34323880197
 33
0
  0
TEXT
  8
1
 62
7
 10
-96.6376391618838
 20
-33.1785846770652
 30
0
 40
5
  1
20
 50
90
 41
0.9
  0
ENDBLK
  8
0
  0
BLOCK
  8
1
  2
*D5
 70
1
 10
0
 20
0
 30
0
  0
LINE
  8
1
 62
1
 10
-94.6376391618838
 20
-43.34323880197
 30
0
 11
-94.6376391618838
 21
-53.34323880197
 31
0
  0
LINE
  8
1
 62
1
 10
-94.6376391618838
 20
-43.34323880197
 30
0
 11
-94.6376391618838
 21
-40.34323880197
 31
0
  0
LINE
  8
1
 62
1
 10
-94.6376391618838
 20
-30.34323880197
 30
0
 11
-94.6376391618838
 21
-40.34323880197
 31
0
  0
LINE
  8
1
 62
1
 10
-63.85327236292262
 20
-40.34323880197
 30
0
 11
-96.1376391618838
 21
-40.34323880197
 31
0
  0
LINE
  8
1
 62
1
 10
-58.23977128419402
 20
-43.34323880197
 30
0
 11
-96.1376391618838
 21
-43.34323880197
 31
0
  0
SOLID
  8
1
 62
1
 10
-94.6376391618838
 20
-40.34323880197
 30
0
 11
-95.2876391618838
 21
-35.34323880197
 31
0
 12
-93.98763916188381
 22
-35.34323880197
 32
0
 13
-93.98763916188381
 23
-35.34323880197
 33
0
  0
SOLID
  8
1
 62
1
 10
-94.6376391618838
 20
-43.34323880197
 30
0
 11
-93.98763916188379
 21
-48.34323880197
 31
0
 12
-95.2876391618838
 22
-48.34323880197
 32
0
 13
-95.2876391618838
 23
-48.34323880197
 33
0
  0
TEXT
  8
1
 62
7
 10
-96.6376391618838
 20
-52.0092850049556
 30
0
 40
5
  1
3
 50
90
 41
0.9
  0
ENDBLK
  8
0
  0
BLOCK
  8
1
  2
*D6
 70
1
 10
0
 20
0
 30
0
  0
LINE
  8
1
 62
1
 10
9.876365162547003
 20
43.65676119803001
 30
0
 11
9.876365162547003
 21
68.65676119802961
 31
0
  0
LINE
  8
1
 62
1
 10
18.76022871580549
 20
68.65676119802961
 30
0
 11
8.376365162547003
 21
68.65676119802961
 31
0
  0
LINE
  8
1
 62
1
 10
-61.23977128419402
 20
43.65676119803001
 30
0
 11
11.376365162547
 21
43.65676119803001
 31
0
  0
SOLID
  8
1
 62
1
 10
9.876365162547003
 20
43.65676119803001
 30
0
 11
9.226365162547001
 21
48.65676119803001
 31
0
 12
10.526365162547
 22
48.65676119803001
 32
0
 13
10.526365162547
 23
48.65676119803001
 33
0
  0
SOLID
  8
1
 62
1
 10
9.876365162547003
 20
68.65676119802961
 30
0
 11
10.526365162547
 21
63.65676119802961
 31
0
 12
9.226365162547003
 22
63.65676119802961
 32
0
 13
9.226365162547003
 23
63.65676119802961
 33
0
  0
TEXT
  8
1
 62
7
 10
7.876365162547003
 20
52.78783788435271
 30
0
 40
5
  1
25
 50
90
 41
0.9
  0
ENDBLK
  8
0
  0
BLOCK
  8
1
  2
*D7
 70
1
 10
0
 20
0
 30
0
  0
LINE
  8
1
 62
1
 10
9.876365162546577
 20
68.65676119802963
 30
0
 11
9.876365162546577
 21
143.65676119803
 31
0
  0
LINE
  8
1
 62
1
 10
84.76022871580601
 20
143.65676119803
 30
0
 11
8.376365162546577
 21
143.65676119803
 31
0
  0
LINE
  8
1
 62
1
 10
18.7602287158055
 20
68.65676119802963
 30
0
 11
8.376365162546577
 21
68.65676119802963
 31
0
  0
SOLID
  8
1
 62
1
 10
9.876365162546577
 20
68.65676119802963
 30
0
 11
9.226365162546575
 21
73.65676119802963
 31
0
 12
10.52636516254657
 22
73.65676119802963
 32
0
 13
10.52636516254657
 23
73.65676119802963
 33
0
  0
SOLID
  8
1
 62
1
 10
9.876365162546577
 20
143.65676119803
 30
0
 11
10.52636516254658
 21
138.65676119803
 31
0
 12
9.226365162546577
 22
138.65676119803
 32
0
 13
9.226365162546577
 23
138.65676119803
 33
0
  0
TEXT
  8
1
 62
7
 10
7.341490833791596
 20
101.6316495100237
 30
0
 40
5
  1
75
 50
90
 41
0.9
  0
ENDBLK
  8
0
  0
BLOCK
  8
1
  2
*D8
 70
1
 10
0
 20
0
 30
0
  0
LINE
  8
1
 62
1
 10
-110.6230353798338
 20
43.65676119803001
 30
0
 11
-110.6230353798338
 21
143.65676119803
 31
0
  0
LINE
  8
1
 62
1
 10
-61.23977128419404
 20
143.65676119803
 30
0
 11
-112.1230353798338
 21
143.65676119803
 31
0
  0
LINE
  8
1
 62
1
 10
-61.23977128419404
 20
43.65676119803001
 30
0
 11
-112.1230353798338
 21
43.65676119803001
 31
0
  0
SOLID
  8
1
 62
1
 10
-110.6230353798338
 20
43.65676119803001
 30
0
 11
-111.2730353798338
 21
48.65676119803001
 31
0
 12
-109.9730353798338
 22
48.65676119803001
 32
0
 13
-109.9730353798338
 23
48.65676119803001
 33
0
  0
SOLID
  8
1
 62
1
 10
-110.6230353798338
 20
143.65676119803
 30
0
 11
-109.9730353798338
 21
138.65676119803
 31
0
 12
-111.2730353798338
 22
138.65676119803
 32
0
 13
-111.2730353798338
 23
138.65676119803
 33
0
  0
TEXT
  8
1
 62
7
 10
-112.6230353798338
 20
88.40676119803001
 30
0
 40
5
  1
100
 50
90
 41
0.9
  0
ENDBLK
  8
0
  0
BLOCK
  8
1
  2
*D9
 70
1
 10
0
 20
0
 30
0
  0
LINE
  8
1
 62
1
 10
-95.6725134906391
 20
43.65676119803001
 30
0
 11
-95.6725134906391
 21
83.65676119803001
 31
0
  0
LINE
  8
1
 62
1
 10
-80.23977128419402
 20
83.65676119803001
 30
0
 11
-97.1725134906391
 21
83.65676119803001
 31
0
  0
LINE
  8
1
 62
1
 10
-61.23977128419403
 20
43.65676119803001
 30
0
 11
-97.1725134906391
 21
43.65676119803001
 31
0
  0
SOLID
  8
1
 62
1
 10
-95.6725134906391
 20
43.65676119803001
 30
0
 11
-96.32251349063911
 21
48.65676119803001
 31
0
 12
-95.02251349063911
 22
48.65676119803001
 32
0
 13
-95.02251349063911
 23
48.65676119803001
 33
0
  0
SOLID
  8
1
 62
1
 10
-95.6725134906391
 20
83.65676119803001
 30
0
 11
-95.0225134906391
 21
78.65676119803001
 31
0
 12
-96.32251349063911
 22
78.65676119803001
 32
0
 13
-96.32251349063911
 23
78.65676119803001
 33
0
  0
TEXT
  8
1
 62
7
 10
-97.6725134906391
 20
59.90676119803001
 30
0
 40
5
  1
40
 50
90
 41
0.9
  0
ENDBLK
  8
0
  0
BLOCK
  8
1
  2
*D10
 70
1
 10
0
 20
0
 30
0
  0
LINE
  8
1
 62
1
 10
-95.6376391618838
 20
83.65676119803001
 30
0
 11
-95.6376391618838
 21
103.65676119803
 31
0
  0
LINE
  8
1
 62
1
 10
-80.23977128419402
 20
103.65676119803
 30
0
 11
-97.1376391618838
 21
103.65676119803
 31
0
  0
LINE
  8
1
 62
1
 10
-80.23977128419402
 20
83.65676119803001
 30
0
 11
-97.1376391618838
 21
83.65676119803001
 31
0
  0
SOLID
  8
1
 62
1
 10
-95.6376391618838
 20
83.65676119803001
 30
0
 11
-96.2876391618838
 21
88.65676119803001
 31
0
 12
-94.98763916188381
 22
88.65676119803001
 32
0
 13
-94.98763916188381
 23
88.65676119803001
 33
0
  0
SOLID
  8
1
 62
1
 10
-95.6376391618838
 20
103.65676119803
 30
0
 11
-94.98763916188379
 21
98.65676119803001
 31
0
 12
-96.2876391618838
 22
98.65676119803001
 32
0
 13
-96.2876391618838
 23
98.65676119803001
 33
0
  0
TEXT
  8
1
 62
7
 10
-97.6376391618838
 20
89.90676119803001
 30
0
 40
5
  1
20
 50
90
 41
0.9
  0
ENDBLK
  8
0
  0
BLOCK
  8
1
  2
*D11
 70
1
 10
0
 20
0
 30
0
  0
LINE
  8
1
 62
1
 10
-95.6725134906391
 20
103.65676119803
 30
0
 11
-95.6725134906391
 21
143.65676119803
 31
0
  0
LINE
  8
1
 62
1
 10
-61.23977128419403
 20
143.65676119803
 30
0
 11
-97.1725134906391
 21
143.65676119803
 31
0
  0
LINE
  8
1
 62
1
 10
-80.23977128419402
 20
103.65676119803
 30
0
 11
-97.1725134906391
 21
103.65676119803
 31
0
  0
SOLID
  8
1
 62
1
 10
-95.6725134906391
 20
103.65676119803
 30
0
 11
-96.32251349063911
 21
108.65676119803
 31
0
 12
-95.02251349063911
 22
108.65676119803
 32
0
 13
-95.02251349063911
 23
108.65676119803
 33
0
  0
SOLID
  8
1
 62
1
 10
-95.6725134906391
 20
143.65676119803
 30
0
 11
-95.0225134906391
 21
138.65676119803
 31
0
 12
-96.32251349063911
 22
138.65676119803
 32
0
 13
-96.32251349063911
 23
138.65676119803
 33
0
  0
TEXT
  8
1
 62
7
 10
-97.6725134906391
 20
119.90676119803
 30
0
 40
5
  1
40
 50
90
 41
0.9
  0
ENDBLK
  8
0
  0
BLOCK
  8
1
  2
*D12
 70
1
 10
0
 20
0
 30
0
  0
LINE
  8
1
 62
1
 10
-80.23977128419402
 20
68.69085036067801
 30
0
 11
-61.23977128419402
 21
68.69085036067801
 31
0
  0
LINE
  8
1
 62
1
 10
-61.23977128419402
 20
43.65676119803001
 30
0
 11
-61.23977128419402
 21
70.19085036067801
 31
0
  0
LINE
  8
1
 62
1
 10
-80.23977128419402
 20
83.65676119803001
 30
0
 11
-80.23977128419402
 21
67.19085036067801
 31
0
  0
SOLID
  8
1
 62
1
 10
-80.23977128419402
 20
68.69085036067801
 30
0
 11
-75.23977128419402
 21
69.34085036067802
 31
0
 12
-75.23977128419402
 22
68.04085036067801
 32
0
 13
-75.23977128419402
 23
68.04085036067801
 33
0
  0
SOLID
  8
1
 62
1
 10
-61.23977128419402
 20
68.69085036067801
 30
0
 11
-66.23977128419402
 21
68.04085036067801
 31
0
 12
-66.23977128419402
 22
69.34085036067802
 32
0
 13
-66.23977128419402
 23
69.34085036067802
 33
0
  0
TEXT
  8
1
 62
7
 10
-73.73977128419402
 20
70.69085036067801
 30
0
 40
5
  1
19
 41
0.9
  0
ENDBLK
  8
0
  0
BLOCK
  8
1
  2
*D13
 70
1
 10
0
 20
0
 30
0
  0
LINE
  8
1
 62
1
 10
-61.23977128419402
 20
24.4886125608856
 30
0
 11
29.7602287158055
 21
24.4886125608856
 31
0
  0
LINE
  8
1
 62
1
 10
29.7602287158055
 20
46.3567611980296
 30
0
 11
29.7602287158055
 21
22.9886125608856
 31
0
  0
LINE
  8
1
 62
1
 10
-61.23977128419402
 20
43.65676119803001
 30
0
 11
-61.23977128419402
 21
22.9886125608856
 31
0
  0
SOLID
  8
1
 62
1
 10
29.7602287158055
 20
24.4886125608856
 30
0
 11
24.7602287158055
 21
23.8386125608856
 31
0
 12
24.7602287158055
 22
25.1386125608856
 32
0
 13
24.7602287158055
 23
25.1386125608856
 33
0
  0
SOLID
  8
1
 62
1
 10
-61.23977128419402
 20
24.4886125608856
 30
0
 11
-56.23977128419402
 21
25.1386125608856
 31
0
 12
-56.23977128419402
 22
23.8386125608856
 32
0
 13
-56.23977128419402
 23
23.8386125608856
 33
0
  0
TEXT
  8
1
 62
7
 10
-19.4897712841943
 20
26.4886125608856
 30
0
 40
5
  1
90
 41
0.9
  0
ENDBLK
  8
0
  0
BLOCK
  8
1
  2
*D14
 70
1
 10
0
 20
0
 30
0
  0
LINE
  8
1
 62
1
 10
-61.23977128419402
 20
10.83749055097699
 30
0
 11
84.76022871580601
 21
10.83749055097699
 31
0
  0
LINE
  8
1
 62
1
 10
84.76022871580601
 20
43.65676119803001
 30
0
 11
84.76022871580601
 21
8.837490550976989
 31
0
  0
LINE
  8
1
 62
1
 10
-61.23977128419402
 20
43.65676119803001
 30
0
 11
-61.23977128419402
 21
8.837490550976989
 31
0
  0
SOLID
  8
1
 62
1
 10
-61.23977128419402
 20
10.83749055097699
 30
0
 11
-56.23977128419402
 21
11.48749055097699
 31
0
 12
-56.23977128419402
 22
10.18749055097699
 32
0
 13
-56.23977128419402
 23
10.18749055097699
 33
0
  0
SOLID
  8
1
 62
1
 10
84.76022871580601
 20
10.83749055097699
 30
0
 11
79.76022871580601
 21
10.18749055097699
 31
0
 12
79.76022871580601
 22
11.48749055097699
 32
0
 13
79.76022871580601
 23
11.48749055097699
 33
0
  0
TEXT
  8
1
 62
7
 10
6.51022871580601
 20
11.83749055097699
 30
0
 40
5
  1
146
 41
0.9
  0
ENDBLK
  8
0
  0
ENDSEC
  0
SECTION
  2
ENTITIES
  0
LINE
  8
1
 62
7
 10
22.76022871580589
 20
-95.34323880196999
 30
0
 11
22.76022871580589
 21
-46.34323880197005
 31
0
  0
LINE
  8
1
 62
7
 10
19.76022871580589
 20
-46.34323880197005
 30
0
 11
19.76022871580589
 21
-43.34323880197
 31
0
  0
LINE
  8
1
 62
7
 10
36.76022871580589
 20
-95.34323880196999
 30
0
 11
22.76022871580589
 21
-95.34323880196999
 31
0
  0
LINE
  8
1
 62
7
 10
63.68865584055202
 20
65.4780815415896
 30
0
 11
58.7389083722462
 21
60.52833407328379
 31
0
  0
LINE
  8
1
 62
7
 10
62.98154905936549
 20
66.18518832277621
 30
0
 11
58.03180159105959
 21
61.2354408544704
 31
0
  0
LINE
  8
1
 62
7
 10
1.688655840552002
 20
126.0780815415896
 30
0
 11
-3.2610916277538
 21
121.1283340732838
 31
0
  0
LINE
  8
1
 62
7
 10
0.9815490593655056
 20
126.7851883227762
 30
0
 11
-3.968198408940395
 21
121.8354408544704
 31
0
  0
LINE
  8
1
 62
2
  6
DIVIDE
 10
29.7602287158055
 20
79.65676119802961
 30
0
 11
29.7602287158055
 21
46.3567611980296
 31
0
  0
LINE
  8
1
 62
2
  6
DIVIDE
 10
40.7602287158055
 20
68.65676119802961
 30
0
 11
18.7602287158055
 21
68.65676119802961
 31
0
  0
LINE
  8
1
 62
7
 10
28.7550390205535
 20
56.6530802781617
 30
0
 11
28.7550390205535
 21
53.15968677791099
 31
0
  0
LINE
  8
1
 62
7
 10
34.56022871580599
 20
-95.34323880196999
 30
0
 11
24.36022871580589
 21
-95.34323880196999
 31
0
  0
LINE
  8
1
 62
2
  6
PHANTOM
 10
29.76022871580589
 20
-32.6605857239721
 30
0
 11
29.76022871580589
 21
-99.84291168764449
 31
0
  0
LINE
  8
1
 62
7
 10
39.76022871580589
 20
-43.34323880197
 30
0
 11
39.76022871580589
 21
-46.34323880197005
 31
0
  0
LINE
  8
1
 62
7
 10
36.76022871580589
 20
-95.34323880196999
 30
0
 11
34.56022871580599
 21
-95.34323880196999
 31
0
  0
LINE
  8
1
 62
7
 10
36.76022871580589
 20
-46.34323880197005
 30
0
 11
36.76022871580589
 21
-95.34323880196999
 31
0
  0
LINE
  8
1
 62
7
 10
39.76022871580589
 20
-46.34323880197005
 30
0
 11
19.76022871580589
 21
-46.34323880197005
 31
0
  0
LINE
  8
1
 62
2
  6
PHANTOM
 10
75.35888619610681
 20
126.5552986809127
 30
0
 11
75.35888619610681
 21
135.3582237151473
 31
0
  0
LINE
  8
1
 62
2
  6
PHANTOM
 10
70.95742367898951
 20
130.95676119803
 30
0
 11
79.76034871322419
 21
130.95676119803
 31
0
  0
LINE
  8
1
 62
2
  6
PHANTOM
 10
75.35888619610681
 20
51.9552986809127
 30
0
 11
75.35888619610681
 21
60.7582237151473
 31
0
  0
LINE
  8
1
 62
2
  6
PHANTOM
 10
70.95742367898951
 20
56.35676119803
 30
0
 11
79.76034871322419
 21
56.35676119803
 31
0
  0
LINE
  8
1
 62
2
  6
PHANTOM
 10
-15.6397712841941
 20
51.56337087925061
 30
0
 11
-15.6397712841941
 21
61.15015151680939
 31
0
  0
LINE
  8
1
 62
2
  6
PHANTOM
 10
-20.4331616029735
 20
56.35676119803
 30
0
 11
-10.8463809654148
 21
56.35676119803
 31
0
  0
LINE
  8
1
 62
2
  6
PHANTOM
 10
-15.6397712841941
 20
126.2836985415065
 30
0
 11
-15.6397712841941
 21
135.6298238545535
 31
0
  0
LINE
  8
1
 62
2
  6
PHANTOM
 10
-20.3128339407176
 20
130.95676119803
 30
0
 11
-10.9667086276706
 21
130.95676119803
 31
0
  0
LINE
  8
1
 62
7
 10
34.21444020606991
 20
63.25676119803001
 30
0
 11
38.1768788808062
 21
63.25676119803001
 31
0
  0
LINE
  8
1
 62
7
 10
21.3435785508055
 20
63.25676119803001
 30
0
 11
25.30601722554191
 21
63.25676119803001
 31
0
  0
LINE
  8
1
 62
7
 10
31.89330161657601
 20
64.35676119803
 30
0
 11
34.21444020606991
 21
63.25676119803001
 31
0
  0
LINE
  8
1
 62
7
 10
27.62715581503569
 20
64.35676119803
 30
0
 11
25.30601722554191
 21
63.25676119803001
 31
0
  0
LINE
  8
1
 62
7
 10
32.2501165765227
 20
61.90098896674101
 30
0
 11
33.9540331767091
 21
57.2195165830953
 31
0
  0
LINE
  8
1
 62
7
 10
25.5525810783039
 20
60.66061634240609
 30
0
 11
28.0525810783039
 21
60.66061634240609
 31
0
  0
LINE
  8
1
 62
7
 10
25.5525810783039
 20
49.5745399723549
 30
0
 11
25.5525810783039
 21
60.66061634240609
 31
0
  0
LINE
  8
1
 62
7
 10
33.9540331767091
 20
57.19951658309529
 30
0
 11
28.7550390205535
 21
56.6530802781617
 31
0
  0
LINE
  8
1
 62
7
 10
33.9540331767091
 20
52.61325047297751
 30
0
 11
28.7550390205535
 21
53.15968677791099
 31
0
  0
LINE
  8
1
 62
7
 10
33.9540331767091
 20
49.5646884594849
 30
0
 11
33.9540331767091
 21
52.5932504729775
 31
0
  0
LINE
  8
1
 62
7
 10
28.0525810783039
 20
60.66061634240609
 30
0
 11
27.69565778908769
 21
61.75911327366109
 31
0
  0
LINE
  8
1
 62
7
 10
-22.6397712841941
 20
97.10676119803
 30
0
 11
-22.6397712841941
 21
141.20676119803
 31
0
  0
LINE
  8
1
 62
7
 10
-24.33977128419413
 20
97.10676119803
 30
0
 11
-22.6397712841941
 21
97.10676119803
 31
0
  0
LINE
  8
1
 62
7
 10
-24.33977128419413
 20
89.80676119802999
 30
0
 11
-24.33977128419413
 21
97.10676119803
 31
0
  0
LINE
  8
1
 62
7
 10
-22.6397712841941
 20
89.80676119802999
 30
0
 11
-24.33977128419413
 21
89.80676119802999
 31
0
  0
LINE
  8
1
 62
7
 10
-22.6397712841941
 20
46.10676119803
 30
0
 11
-22.6397712841941
 21
89.80676119802999
 31
0
  0
LINE
  8
1
 62
7
 10
84.76022871580601
 20
89.80676119802999
 30
0
 11
82.76022871580601
 21
89.80676119802999
 31
0
  0
LINE
  8
1
 62
7
 10
82.76022871580601
 20
97.10676119803
 30
0
 11
84.76022871580601
 21
97.10676119803
 31
0
  0
LINE
  8
1
 62
2
  6
PHANTOM
 10
-5.450642062975504
 20
123.95676119803
 30
0
 11
3.171099494587196
 21
123.95676119803
 31
0
  0
LINE
  8
1
 62
2
  6
PHANTOM
 10
-1.139771284194197
 20
119.6458904192487
 30
0
 11
-1.139771284194197
 21
128.2676319768113
 31
0
  0
LINE
  8
1
 62
2
  6
PHANTOM
 10
57.02576418221089
 20
63.35676119803
 30
0
 11
64.69469324940091
 21
63.35676119803
 31
0
  0
LINE
  8
1
 62
2
  6
PHANTOM
 10
60.8602287158058
 20
59.42229666443501
 30
0
 11
60.8602287158058
 21
67.091225731625
 31
0
  0
LINE
  8
1
 62
7
 10
84.76022871580601
 20
-24.4283933477261
 30
0
 11
84.76022871580601
 21
-19.34323880197
 31
0
  0
LINE
  8
1
 62
7
 10
84.76022871580601
 20
141.25676119803
 30
0
 11
-59.23977128419403
 21
141.25676119803
 31
0
  0
LINE
  8
1
 62
7
 10
-61.23977128419402
 20
143.65676119803
 30
0
 11
84.76022871580601
 21
143.65676119803
 31
0
  0
LINE
  8
1
 62
7
 10
84.76022871580601
 20
143.65676119803
 30
0
 11
84.76022871580601
 21
43.65676119803001
 31
0
  0
LINE
  8
1
 62
7
 10
-61.23977128419402
 20
43.65676119803001
 30
0
 11
84.76022871580601
 21
43.65676119803001
 31
0
  0
LINE
  8
1
 62
7
 10
84.76022871580601
 20
46.05676119802999
 30
0
 11
-59.23977128419403
 21
46.05676119802999
 31
0
  0
LINE
  8
1
 62
7
 10
-61.23977128419402
 20
43.65676119803001
 30
0
 11
-61.23977128419402
 21
143.65676119803
 31
0
  0
LINE
  8
1
 62
7
 10
82.76022871580601
 20
46.15676119803001
 30
0
 11
82.76022871580601
 21
141.35676119803
 31
0
  0
LINE
  8
1
 62
7
 10
-59.23977128419402
 20
43.65676119803001
 30
0
 11
-59.23977128419402
 21
143.65676119803
 31
0
  0
LINE
  8
1
 62
7
 10
84.76022871580601
 20
-19.34323880197
 30
0
 11
84.76022871580601
 21
-43.34323880197
 31
0
  0
LINE
  8
1
 62
7
 10
-59.23977128419402
 20
-18.34323880197
 30
0
 11
83.76022871580601
 21
-18.34323880197
 31
0
  0
LINE
  8
1
 62
7
 10
-60.23977128419402
 20
-58.34323880197
 30
0
 11
-60.23977128419402
 21
-19.34323880197
 31
0
  0
LINE
  8
1
 62
7
 10
-58.23977128419402
 20
-58.34323880197
 30
0
 11
-60.23977128419402
 21
-58.34323880197
 31
0
  0
LINE
  8
1
 62
7
 10
-58.23977128419402
 20
-18.34323880197
 30
0
 11
-58.23977128419402
 21
-58.34323880197
 31
0
  0
LINE
  8
1
 62
7
 10
84.76022871580601
 20
-43.34323880197
 30
0
 11
-58.23977128419402
 21
-43.34323880197
 31
0
  0
LINE
  8
1
 62
7
 10
-80.23977128419402
 20
83.65676119803001
 30
0
 11
-80.23977128419402
 21
103.65676119803
 31
0
  0
LINE
  8
1
 62
7
 10
-80.23977128419402
 20
103.65676119803
 30
0
 11
-61.23977128419402
 21
103.65676119803
 31
0
  0
LINE
  8
1
 62
7
 10
-80.23977128419402
 20
83.65676119803001
 30
0
 11
-61.23977128419402
 21
83.65676119803001
 31
0
  0
LINE
  8
1
 62
7
 10
-59.23977128419402
 20
103.65676119803
 30
0
 11
-53.23977128419402
 21
103.65676119803
 31
0
  0
LINE
  8
1
 62
7
 10
-59.23977128419402
 20
83.65676119803001
 30
0
 11
-53.23977128419402
 21
83.65676119803001
 31
0
  0
LINE
  8
1
 62
7
 10
-64.85327236292264
 20
83.65676119803001
 30
0
 11
-64.85327236292264
 21
103.65676119803
 31
0
  0
LINE
  8
1
 62
7
 10
-53.23977128419402
 20
83.65676119803001
 30
0
 11
-53.23977128419402
 21
103.65676119803
 31
0
  0
LINE
  8
1
 62
7
 10
-50.73977128419402
 20
97.40676119803001
 30
0
 11
-22.6397712841941
 21
97.40676119803001
 31
0
  0
LINE
  8
1
 62
7
 10
-50.73977128419402
 20
89.90676119803001
 30
0
 11
-22.6397712841941
 21
89.90676119803001
 31
0
  0
LINE
  8
1
 62
7
 10
-60.23977128419402
 20
-20.34323880197
 30
0
 11
-79.23977128419402
 21
-20.34323880197
 31
0
  0
LINE
  8
1
 62
7
 10
-79.23977128419402
 20
-20.34323880197
 30
0
 11
-79.23977128419402
 21
-23.84323880197
 31
0
  0
LINE
  8
1
 62
7
 10
-79.23977128419402
 20
-23.84323880197
 30
0
 11
-63.85327236292263
 21
-40.34323880197
 31
0
  0
LINE
  8
1
 62
7
 10
-60.23977128419402
 20
-40.34323880197
 30
0
 11
-63.85327236292263
 21
-40.34323880197
 31
0
  0
LINE
  8
1
 62
7
 10
84.76022871580601
 20
100.65676119803
 30
0
 11
88.76022871580601
 21
100.65676119803
 31
0
  0
LINE
  8
1
 62
7
 10
84.76022871580601
 20
86.65676119803001
 30
0
 11
88.76022871580601
 21
86.65676119803001
 31
0
  0
LINE
  8
1
 62
7
 10
88.76022871580601
 20
99.75676119803001
 30
0
 11
88.76022871580601
 21
100.65676119803
 31
0
  0
LINE
  8
1
 62
7
 10
91.26022871580601
 20
97.25676119803001
 30
0
 11
112.260228715806
 21
97.25676119803001
 31
0
  0
LINE
  8
1
 62
7
 10
91.26022871580601
 20
90.05676119802999
 30
0
 11
112.260228715806
 21
90.05676119802999
 31
0
  0
LINE
  8
1
 62
7
 10
112.260228715806
 20
90.05676119802999
 30
0
 11
112.260228715806
 21
97.25676119803001
 31
0
  0
LINE
  8
1
 62
7
 10
88.76022871580601
 20
86.65676119803001
 30
0
 11
88.76022871580601
 21
87.55676119802999
 31
0
  0
LINE
  8
1
 62
7
 10
88.76022871580601
 20
99.75676119803001
 30
0
 11
88.76022871580601
 21
87.55676119802999
 31
0
  0
LINE
  8
1
 62
7
 10
84.76022871580601
 20
-23.34323880197
 30
0
 11
88.76022871580601
 21
-23.34323880197
 31
0
  0
LINE
  8
1
 62
7
 10
84.76022871580601
 20
-37.34323880197
 30
0
 11
88.76022871580601
 21
-37.34323880197
 31
0
  0
LINE
  8
1
 62
7
 10
88.76022871580601
 20
-37.34323880197
 30
0
 11
88.76022871580601
 21
-23.34323880197
 31
0
  0
LINE
  8
1
 62
7
 10
146.990841033318
 20
-30.39323880196999
 30
0
 11
146.990841033318
 21
-30.29323880196999
 31
0
  0
LINE
  8
1
 62
7
 10
98.99084103331809
 20
-30.29323880196999
 30
0
 11
98.99084103331809
 21
-30.39323880196999
 31
0
  0
LINE
  8
1
 62
7
 10
101.9408410333181
 20
-27.34323880196999
 30
0
 11
144.040841033318
 21
-27.34323880196999
 31
0
  0
LINE
  8
1
 62
7
 10
101.9408410333181
 20
-33.34323880196999
 30
0
 11
144.040841033318
 21
-33.34323880196999
 31
0
  0
LINE
  8
1
 62
2
  6
DIVIDE
 10
149.390841033318
 20
93.65676119803001
 30
0
 11
73.522663088881
 21
93.65676119803001
 31
0
  0
LINE
  8
1
 62
2
  6
DIVIDE
 10
122.990841033318
 20
120.05676119803
 30
0
 11
122.990841033318
 21
67.25676119803001
 31
0
  0
LINE
  8
1
 62
2
  6
DIVIDE
 10
76.17104693778602
 20
-30.34323880196999
 30
0
 11
152.679913683948
 21
-30.34323880196999
 31
0
  0
ARC
  8
1
 62
7
 10
29.76022871580589
 20
68.65676119803001
 30
0
 40
9.999999999999984
 50
327.316361153742
 51
212.6836388462577
  0
ARC
  8
1
 62
7
 10
29.76022871580589
 20
68.65676119803001
 30
0
 40
6.999999999999999
 50
309.5176527971728
 51
230.4823472028275
  0
ARC
  8
1
 62
7
 10
29.76022871580589
 20
68.65676119803001
 30
0
 40
4.799999999999994
 50
296.3843297494076
 51
243.6156702505916
  0
ARC
  8
1
 62
7
 10
29.75833069434312
 20
53.85375378893951
 30
0
 40
6.000000060071888
 50
225.4960638305384
 51
314.3695665762152
  0
ARC
  8
1
 62
7
 10
29.76022871580589
 20
68.65676119803001
 30
0
 40
7.200000000000092
 50
228.5903778907283
 51
253.3367585672207
  0
ARC
  8
1
 62
7
 10
-15.6397712841941
 20
130.95676119803
 30
0
 40
3.499650000000088
 50
270
 51
0
  0
ARC
  8
1
 62
7
 10
-15.6397712841941
 20
130.95676119803
 30
0
 40
3.499650000000011
 50
0
 51
270
  0
ARC
  8
1
 62
7
 10
75.35888619610681
 20
130.95676119803
 30
0
 40
3.499649999999988
 50
270
 51
0
  0
ARC
  8
1
 62
7
 10
75.35888619610681
 20
56.35676119803
 30
0
 40
3.496499999999997
 50
270
 51
0
  0
ARC
  8
1
 62
7
 10
75.35888619610681
 20
56.35676119803
 30
0
 40
3.496500000000083
 50
0
 51
270
  0
ARC
  8
1
 62
7
 10
75.35888619610681
 20
56.35676119803
 30
0
 40
3.496499999999997
 50
270
 51
0
  0
ARC
  8
1
 62
7
 10
-15.6397712841941
 20
56.35676119803
 30
0
 40
3.465000000000089
 50
270
 51
0
  0
ARC
  8
1
 62
7
 10
-15.6397712841941
 20
56.35676119803
 30
0
 40
3.465000000000011
 50
0
 51
270
  0
ARC
  8
1
 62
7
 10
29.76022871580589
 20
68.65676119803001
 30
0
 40
7.200000000000034
 50
290.231722768284
 51
311.4096221092712
  0
ARC
  8
1
 62
7
 10
122.990841033318
 20
93.65676119803001
 30
0
 40
23.99999999999999
 50
0
 51
171.3730734413214
  0
ARC
  8
1
 62
7
 10
122.990841033318
 20
93.65676119803001
 30
0
 40
23.99999999999999
 50
188.6269265586787
 51
0
  0
ARC
  8
1
 62
7
 10
122.990841033318
 20
93.65676119803001
 30
0
 40
17.99999999999999
 50
0
 51
168.4630409671845
  0
ARC
  8
1
 62
7
 10
122.990841033318
 20
93.65676119803001
 30
0
 40
18.00000000000003
 50
191.5369590328156
 51
0
  0
ARC
  8
1
 62
7
 10
91.3381673451983
 20
-20.54515154777357
 30
0
 40
3.804610342597614
 50
227.3449558868627
 51
316.7675310996287
  0
ARC
  8
1
 62
7
 10
101.760228715806
 20
-30.34323880196999
 30
0
 40
10.50000000000014
 50
16.60154959902
 51
136.7675310996286
  0
ARC
  8
1
 62
7
 10
91.3381673451983
 20
-40.14132605616641
 30
0
 40
3.804610342597849
 50
43.23246890037131
 51
132.6550441131373
  0
ARC
  8
1
 62
7
 10
101.760228715806
 20
-30.34323880196999
 30
0
 40
4.750000000000038
 50
39.16671071611979
 51
320.8332892838802
  0
ARC
  8
1
 62
7
 10
101.760228715806
 20
-30.34323880196999
 30
0
 40
10.50000000000008
 50
223.2324689003714
 51
343.3984504009799
  0
CIRCLE
  8
1
 62
7
 10
-1.139771284194197
 20
123.95676119803
 30
0
 40
3.5
  0
CIRCLE
  8
1
 62
7
 10
60.8602287158058
 20
63.35676119803
 30
0
 40
3.5
  0
CIRCLE
  8
1
 62
7
 10
75.35888619610681
 20
130.95676119803
 30
0
 40
3.499650000000088
  0
ARC
  8
1
 62
7
 10
83.76022871580601
 20
-19.34323880197
 30
0
 40
1
 50
0
 51
90
  0
ARC
  8
1
 62
7
 10
-59.23977128419402
 20
-19.34323880197
 30
0
 40
1
 50
90
 51
180
  0
ARC
  8
1
 62
7
 10
-50.73977128419402
 20
99.90676119803001
 30
0
 40
2.5
 50
180
 51
270
  0
ARC
  8
1
 62
7
 10
-50.73977128419402
 20
87.40676119803001
 30
0
 40
2.5
 50
90
 51
180
  0
ARC
  8
1
 62
7
 10
91.26022871580601
 20
99.75676119803001
 30
0
 40
2.5
 50
180
 51
270
  0
ARC
  8
1
 62
7
 10
91.26022871580601
 20
87.55676119802999
 30
0
 40
2.5
 50
90
 51
180
  0
ARC
  8
1
 62
7
 10
144.040841033318
 20
-30.39323880196999
 30
0
 40
2.949999999999999
 50
270
 51
0
  0
ARC
  8
1
 62
7
 10
144.040841033318
 20
-30.29323880196999
 30
0
 40
2.949999999999989
 50
0
 51
90
  0
ARC
  8
1
 62
7
 10
101.9408410333181
 20
-30.39323880196999
 30
0
 40
2.950000000000003
 50
180
 51
270
  0
ARC
  8
1
 62
7
 10
101.9408410333181
 20
-30.29323880196999
 30
0
 40
2.950000000000003
 50
90
 51
180
  0
TEXT
  8
1
 62
7
 10
112.365626206163
 20
-85.379378813502
 30
0
 40
7
  1
2304.190.000
 41
0.9
 73
2
 11
112.365626206163
 21
-81.879378813502
 31
0
  0
DIMENSION
  8
1
  6
CONTINUOUS
 62
1
  2
*D0
  3
DMST_1
 10
-0.9139850013980038
 20
-95.34323880196999
 30
0
 11
-5.413985001398004
 21
-69.34323880197
 31
0
 12
0
 22
0
 32
0
 70
0
 13
-58.23977128419402
 23
-43.34323880197
 33
0
 14
24.36022871580589
 24
-95.34323880196999
 34
0
 50
90
 53
0
  0
DIMENSION
  8
1
  6
CONTINUOUS
 62
1
  2
*D1
  3
DMST_1
 10
65.886105242358
 20
-18.34323880197
 30
0
 11
61.386105242358
 21
-30.84323880197
 31
0
 12
0
 22
0
 32
0
 70
0
 13
84.76022871580601
 23
-43.34323880197
 33
0
 14
83.76022871580601
 24
-18.34323880197
 34
0
 50
90
 53
0
  0
DIMENSION
  8
1
  6
CONTINUOUS
 62
1
  2
*D2
  3
DMST_1
 10
-32.53503549323369
 20
-18.34323880197
 30
0
 11
-37.3199098219889
 21
-35.1260712521707
 31
0
 12
0
 22
0
 32
0
 70
0
 13
-58.23977128419402
 23
-58.34323880197
 33
0
 14
-59.23977128419402
 24
-18.34323880197
 34
0
 50
90
 53
0
  0
DIMENSION
  8
1
  6
CONTINUOUS
 62
1
  2
*D3
  3
DMST_1
 10
-94.6376391618838
 20
-18.34323880197
 30
0
 11
-99.1376391618838
 21
-9.772255992951102
 31
0
 12
0
 22
0
 32
0
 70
0
 13
-79.23977128419402
 23
-20.34323880197
 33
0
 14
-59.23977128419402
 24
-18.34323880197
 34
0
 50
90
 53
0
  0
DIMENSION
  8
1
  6
CONTINUOUS
 62
1
  2
*D4
  3
DMST_1
 10
-94.6376391618838
 20
-20.34323880197
 30
0
 11
-99.1376391618838
 21
-29.4285846770652
 31
0
 12
0
 22
0
 32
0
 70
0
 13
-63.85327236292263
 23
-40.34323880197
 33
0
 14
-79.23977128419402
 24
-20.34323880197
 34
0
 50
90
 53
0
  0
DIMENSION
  8
1
  6
CONTINUOUS
 62
1
  2
*D5
  3
DMST_1
 10
-94.6376391618838
 20
-43.34323880197
 30
0
 11
-99.1376391618838
 21
-50.5092850049556
 31
0
 12
0
 22
0
 32
0
 70
0
 13
-63.85327236292263
 23
-40.34323880197
 33
0
 14
-58.23977128419402
 24
-43.34323880197
 34
0
 50
90
 53
0
  0
DIMENSION
  8
1
  6
CONTINUOUS
 62
1
  2
*D6
  3
DMST_1
 10
9.876365162547003
 20
68.65676119802961
 30
0
 11
5.376365162547003
 21
56.53783788435271
 31
0
 12
0
 22
0
 32
0
 70
0
 13
-61.23977128419402
 23
43.65676119803001
 33
0
 14
18.7602287158055
 24
68.65676119802961
 34
0
 50
90
 53
0
  0
DIMENSION
  8
1
  6
CONTINUOUS
 62
1
  2
*D7
  3
DMST_1
 10
9.876365162546577
 20
68.65676119802963
 30
0
 11
4.841490833791596
 21
105.3816495100237
 31
0
 12
0
 22
0
 32
0
 70
0
 13
84.76022871580601
 23
143.65676119803
 33
0
 14
18.7602287158055
 24
68.65676119802961
 34
0
 50
90
 53
0
  0
DIMENSION
  8
1
  6
CONTINUOUS
 62
1
  2
*D8
  3
DMST_1
 10
-110.6230353798338
 20
143.65676119803
 30
0
 11
-115.1230353798338
 21
93.65676119803001
 31
0
 12
0
 22
0
 32
0
 70
0
 13
-61.23977128419402
 23
43.65676119803001
 33
0
 14
-61.23977128419402
 24
143.65676119803
 34
0
 50
90
 53
0
  0
DIMENSION
  8
1
  6
CONTINUOUS
 62
1
  2
*D9
  3
DMST_1
 10
-95.6725134906391
 20
83.65676119803001
 30
0
 11
-100.1725134906391
 21
63.65676119803001
 31
0
 12
0
 22
0
 32
0
 70
0
 13
-61.23977128419402
 23
43.65676119803001
 33
0
 14
-80.23977128419402
 24
83.65676119803001
 34
0
 50
90
 53
0
  0
DIMENSION
  8
1
  6
CONTINUOUS
 62
1
  2
*D10
  3
DMST_1
 10
-95.6376391618838
 20
103.65676119803
 30
0
 11
-100.1376391618838
 21
93.65676119803001
 31
0
 12
0
 22
0
 32
0
 70
0
 13
-80.23977128419402
 23
83.65676119803001
 33
0
 14
-80.23977128419402
 24
103.65676119803
 34
0
 50
90
 53
0
  0
DIMENSION
  8
1
  6
CONTINUOUS
 62
1
  2
*D11
  3
DMST_1
 10
-95.6725134906391
 20
143.65676119803
 30
0
 11
-100.1725134906391
 21
123.65676119803
 31
0
 12
0
 22
0
 32
0
 70
0
 13
-80.23977128419402
 23
103.65676119803
 33
0
 14
-61.23977128419402
 24
143.65676119803
 34
0
 50
90
 53
0
  0
DIMENSION
  8
1
  6
CONTINUOUS
 62
1
  2
*D12
  3
DMST_1
 10
-61.23977128419402
 20
68.69085036067801
 30
0
 11
-70.73977128419402
 21
73.19085036067801
 31
0
 12
0
 22
0
 32
0
 70
0
 13
-80.23977128419402
 23
83.65676119803001
 33
0
 14
-61.23977128419402
 24
43.65676119803001
 34
0
 53
0
  0
DIMENSION
  8
1
  6
CONTINUOUS
 62
1
  2
*D13
  3
DMST_1
 10
-61.23977128419402
 20
24.4886125608856
 30
0
 11
-15.7397712841943
 21
28.9886125608856
 31
0
 12
0
 22
0
 32
0
 70
0
  1
90
 13
29.7602287158055
 23
46.3567611980296
 33
0
 14
-61.23977128419402
 24
43.65676119803001
 34
0
 53
0
  0
DIMENSION
  8
1
  6
CONTINUOUS
 62
1
  2
*D14
  3
DMST_2
 10
84.76022871580601
 20
10.83749055097699
 30
0
 11
11.76022871580601
 21
14.33749055097699
 31
0
 12
0
 22
0
 32
0
 70
0
 13
-61.23977128419402
 23
43.65676119803001
 33
0
 14
84.76022871580601
 24
43.65676119803001
 34
0
 53
0
  0
ENDSEC
  0
EOF
