999
dxflib 2.1.2.0
  0
SECTION
  2
HEADER
  9
$ACADVER
  1
AC1015
  9
$HANDSEED
  5
FFFF
  9
$SPLINESEGS
 70
8
  9
$DIMEXE
 40
1.25
  9
$PSVPSCALE
 40
1.0
  9
$DIMLUNIT
 70
2
  9
$GRIDMODE
 70
1
  9
$INSUNITS
 70
4
  9
$DIMADEC
 70
2
  9
$DIMASZ
 40
3.5
  9
$DIMGAP
 40
2.0
  9
$DIMTXT
 40
5.0
  9
$GRIDUNIT
 10
0.0
 20
0.0
  9
$DIMEXO
 40
0.625
  9
$LUPREC
 70
4
  9
$PINSBASE
 10
104.99999999999999
 20
148.50000000000003
 30
0.0
  9
$CLAYER
  8
0
  9
$DIMAUNIT
 70
0
  9
$AUPREC
 70
2
  9
$PLIMMIN
 10
0.0
 20
0.0
  9
$LUNITS
 70
2
  9
$PLIMMAX
 10
210.0
 20
297.0
  9
$DIMSTYLE
  2
Standard
  9
$AUNITS
 70
0
  9
$CLAYER
  8
0
  0
ENDSEC
  0
SECTION
  2
TABLES
  0
TABLE
  2
VPORT
  5
8
100
AcDbSymbolTable
 70
1
  0
VPORT
  5
30
100
AcDbSymbolTableRecord
100
AcDbViewportTableRecord
  2
*Active
 70
0
 10
0.0
 20
0.0
 11
1.0
 21
1.0
 12
286.30555555555549
 22
148.5
 13
0.0
 23
0.0
 14
10.0
 24
10.0
 15
10.0
 25
10.0
 16
0.0
 26
0.0
 36
1.0
 17
0.0
 27
0.0
 37
0.0
 40
297.0
 41
1.92798353909465
 42
50.0
 43
0.0
 44
0.0
 50
0.0
 51
0.0
 71
0
 72
100
 73
1
 74
3
 75
1
 76
1
 77
0
 78
0
281
0
 65
1
110
0.0
120
0.0
130
0.0
111
1.0
121
0.0
131
0.0
112
0.0
122
1.0
132
0.0
 79
0
146
0.0
  0
ENDTAB
  0
TABLE
  2
LTYPE
  5
5
100
AcDbSymbolTable
 70
21
  0
LTYPE
  5
14
100
AcDbSymbolTableRecord
100
AcDbLinetypeTableRecord
  2
ByBlock
 70
0
  3

 72
65
 73
0
 40
0.0
  0
LTYPE
  5
15
100
AcDbSymbolTableRecord
100
AcDbLinetypeTableRecord
  2
ByLayer
 70
0
  3

 72
65
 73
0
 40
0.0
  0
LTYPE
  5
16
100
AcDbSymbolTableRecord
100
AcDbLinetypeTableRecord
  2
CONTINUOUS
 70
0
  3
Solid line
 72
65
 73
0
 40
0.0
  0
LTYPE
  5
31
100
AcDbSymbolTableRecord
100
AcDbLinetypeTableRecord
  2
DOT
 70
0
  3
Dot . . . . . . . . . . . . . . . . . . . . . .
 72
65
 73
2
 40
6.3499999999999996
 49
0.0
 74
0
 49
-6.3499999999999996
 74
0
  0
LTYPE
  5
32
100
AcDbSymbolTableRecord
100
AcDbLinetypeTableRecord
  2
DOT2
 70
0
  3
Dot (.5x) .....................................
 72
65
 73
2
 40
3.1749999999999998
 49
0.0
 74
0
 49
-3.1749999999999998
 74
0
  0
LTYPE
  5
33
100
AcDbSymbolTableRecord
100
AcDbLinetypeTableRecord
  2
DOTX2
 70
0
  3
Dot (2x) .  .  .  .  .  .  .  .  .  .  .  .  .
 72
65
 73
2
 40
12.699999999999999
 49
0.0
 74
0
 49
-12.699999999999999
 74
0
  0
LTYPE
  5
34
100
AcDbSymbolTableRecord
100
AcDbLinetypeTableRecord
  2
DASHED
 70
0
  3
Dashed __ __ __ __ __ __ __ __ __ __ __ __ __ _
 72
65
 73
2
 40
19.050000000000001
 49
12.699999999999999
 74
0
 49
-6.3499999999999996
 74
0
  0
LTYPE
  5
35
100
AcDbSymbolTableRecord
100
AcDbLinetypeTableRecord
  2
DASHED2
 70
0
  3
Dashed (.5x) _ _ _ _ _ _ _ _ _ _ _ _ _ _ _ _ _
 72
65
 73
2
 40
9.5250000000000004
 49
6.3499999999999996
 74
0
 49
-3.1749999999999998
 74
0
  0
LTYPE
  5
36
100
AcDbSymbolTableRecord
100
AcDbLinetypeTableRecord
  2
DASHEDX2
 70
0
  3
Dashed (2x) ____  ____  ____  ____  ____  ___
 72
65
 73
2
 40
38.100000000000001
 49
25.399999999999999
 74
0
 49
-12.699999999999999
 74
0
  0
LTYPE
  5
37
100
AcDbSymbolTableRecord
100
AcDbLinetypeTableRecord
  2
DASHDOT
 70
0
  3
Dash dot __ . __ . __ . __ . __ . __ . __ . __
 72
65
 73
4
 40
25.399999999999999
 49
12.699999999999999
 74
0
 49
-6.3499999999999996
 74
0
 49
0.0
 74
0
 49
-6.3499999999999996
 74
0
  0
LTYPE
  5
38
100
AcDbSymbolTableRecord
100
AcDbLinetypeTableRecord
  2
DASHDOT2
 70
0
  3
Dash dot (.5x) _._._._._._._._._._._._._._._.
 72
65
 73
4
 40
12.699999999999999
 49
6.3499999999999996
 74
0
 49
-3.1749999999999998
 74
0
 49
0.0
 74
0
 49
-3.1749999999999998
 74
0
  0
LTYPE
  5
39
100
AcDbSymbolTableRecord
100
AcDbLinetypeTableRecord
  2
DASHDOTX2
 70
0
  3
Dash dot (2x) ____  .  ____  .  ____  .  ___
 72
65
 73
4
 40
50.799999999999997
 49
25.399999999999999
 74
0
 49
-12.699999999999999
 74
0
 49
0.0
 74
0
 49
-12.699999999999999
 74
0
  0
LTYPE
  5
3A
100
AcDbSymbolTableRecord
100
AcDbLinetypeTableRecord
  2
DIVIDE
 70
0
  3
Divide ____ . . ____ . . ____ . . ____ . . ____
 72
65
 73
6
 40
31.75
 49
12.699999999999999
 74
0
 49
-6.3499999999999996
 74
0
 49
0.0
 74
0
 49
-6.3499999999999996
 74
0
 49
0.0
 74
0
 49
-6.3499999999999996
 74
0
  0
LTYPE
  5
3B
100
AcDbSymbolTableRecord
100
AcDbLinetypeTableRecord
  2
DIVIDE2
 70
0
  3
Divide (.5x) __..__..__..__..__..__..__..__.._
 72
65
 73
6
 40
15.875
 49
6.3499999999999996
 74
0
 49
-3.1749999999999998
 74
0
 49
0.0
 74
0
 49
-3.1749999999999998
 74
0
 49
0.0
 74
0
 49
-3.1749999999999998
 74
0
  0
LTYPE
  5
3C
100
AcDbSymbolTableRecord
100
AcDbLinetypeTableRecord
  2
DIVIDEX2
 70
0
  3
Divide (2x) ________  .  .  ________  .  .  _
 72
65
 73
6
 40
63.5
 49
25.399999999999999
 74
0
 49
-12.699999999999999
 74
0
 49
0.0
 74
0
 49
-12.699999999999999
 74
0
 49
0.0
 74
0
 49
-12.699999999999999
 74
0
  0
LTYPE
  5
3D
100
AcDbSymbolTableRecord
100
AcDbLinetypeTableRecord
  2
CENTER
 70
0
  3
Center ____ _ ____ _ ____ _ ____ _ ____ _ ____
 72
65
 73
4
 40
50.799999999999997
 49
31.75
 74
0
 49
-6.3499999999999996
 74
0
 49
6.3499999999999996
 74
0
 49
-6.3499999999999996
 74
0
  0
LTYPE
  5
3E
100
AcDbSymbolTableRecord
100
AcDbLinetypeTableRecord
  2
CENTER2
 70
0
  3
Center (.5x) ___ _ ___ _ ___ _ ___ _ ___ _ ___
 72
65
 73
4
 40
28.574999999999999
 49
19.050000000000001
 74
0
 49
-3.1749999999999998
 74
0
 49
3.1749999999999998
 74
0
 49
-3.1749999999999998
 74
0
  0
LTYPE
  5
3F
100
AcDbSymbolTableRecord
100
AcDbLinetypeTableRecord
  2
CENTERX2
 70
0
  3
Center (2x) ________  __  ________  __  _____
 72
65
 73
4
 40
101.59999999999999
 49
63.5
 74
0
 49
-12.699999999999999
 74
0
 49
12.699999999999999
 74
0
 49
-12.699999999999999
 74
0
  0
LTYPE
  5
40
100
AcDbSymbolTableRecord
100
AcDbLinetypeTableRecord
  2
BORDER
 70
0
  3
Border __ __ . __ __ . __ __ . __ __ . __ __ .
 72
65
 73
6
 40
44.450000000000003
 49
12.699999999999999
 74
0
 49
-6.3499999999999996
 74
0
 49
12.699999999999999
 74
0
 49
-6.3499999999999996
 74
0
 49
0.0
 74
0
 49
-6.3499999999999996
 74
0
  0
LTYPE
  5
41
100
AcDbSymbolTableRecord
100
AcDbLinetypeTableRecord
  2
BORDER2
 70
0
  3
Border (.5x) __.__.__.__.__.__.__.__.__.__.__.
 72
65
 73
6
 40
22.225000000000001
 49
6.3499999999999996
 74
0
 49
-3.1749999999999998
 74
0
 49
6.3499999999999996
 74
0
 49
-3.1749999999999998
 74
0
 49
0.0
 74
0
 49
-3.1749999999999998
 74
0
  0
LTYPE
  5
42
100
AcDbSymbolTableRecord
100
AcDbLinetypeTableRecord
  2
BORDERX2
 70
0
  3
Border (2x) ____  ____  .  ____  ____  .  ___
 72
65
 73
6
 40
88.900000000000006
 49
25.399999999999999
 74
0
 49
-12.699999999999999
 74
0
 49
25.399999999999999
 74
0
 49
-12.699999999999999
 74
0
 49
0.0
 74
0
 49
-12.699999999999999
 74
0
  0
ENDTAB
  0
TABLE
  2
LAYER
  5
2
100
AcDbSymbolTable
 70
1
  0
LAYER
  5
10
100
AcDbSymbolTableRecord
100
AcDbLayerTableRecord
  2
0
 70
0
 62
7
  6
CONTINUOUS
370
35
390
F
  0
ENDTAB
  0
TABLE
  2
STYLE
  5
3
100
AcDbSymbolTable
 70
1
  0
STYLE
  5
11
100
AcDbSymbolTableRecord
100
AcDbTextStyleTableRecord
  2
Standard
 70
0
 40
0.0
 41
0.75
 50
0.0
 71
0
 42
2.5
  3
txt
  4

  0
ENDTAB
  0
TABLE
  2
VIEW
  5
6
100
AcDbSymbolTable
 70
0
  0
ENDTAB
  0
TABLE
  2
UCS
  5
7
100
AcDbSymbolTable
 70
0
  0
ENDTAB
  0
TABLE
  2
APPID
  5
9
100
AcDbSymbolTable
 70
1
  0
APPID
  5
12
100
AcDbSymbolTableRecord
100
AcDbRegAppTableRecord
  2
ACAD
 70
0
  0
ENDTAB
  0
TABLE
  2
DIMSTYLE
  5
A
100
AcDbSymbolTable
 70
1
100
AcDbDimStyleTable
 71
0
  0
DIMSTYLE
105
27
100
AcDbSymbolTableRecord
100
AcDbDimStyleTableRecord
  2
Standard
 41
3.5
 42
0.625
 43
3.75
 44
1.25
 70
0
 73
0
 74
0
 77
1
 78
8
140
5.0
141
2.5
143
0.03937007874016
147
2.0
171
3
172
1
271
2
272
2
274
3
278
44
283
0
284
8
340
11
  0
ENDTAB
  0
TABLE
  2
BLOCK_RECORD
  5
1
100
AcDbSymbolTable
 70
1
  0
BLOCK_RECORD
  5
1F
100
AcDbSymbolTableRecord
100
AcDbBlockTableRecord
  2
*Model_Space
340
22
  0
BLOCK_RECORD
  5
1B
100
AcDbSymbolTableRecord
100
AcDbBlockTableRecord
  2
*Paper_Space
340
1E
  0
BLOCK_RECORD
  5
23
100
AcDbSymbolTableRecord
100
AcDbBlockTableRecord
  2
*Paper_Space0
340
26
  0
ENDTAB
  0
ENDSEC
  0
SECTION
  2
BLOCKS
  0
BLOCK
  5
20
100
AcDbEntity
  8
0
100
AcDbBlockBegin
  2
*Model_Space
 70
0
 10
0.0
 20
0.0
 30
0.0
  3
*Model_Space
  1

  0
ENDBLK
  5
21
100
AcDbEntity
  8
0
100
AcDbBlockEnd
  0
BLOCK
  5
1C
100
AcDbEntity
 67
1
  8
0
100
AcDbBlockBegin
  2
*Paper_Space
 70
0
 10
0.0
 20
0.0
 30
0.0
  3
*Paper_Space
  1

  0
ENDBLK
  5
1D
100
AcDbEntity
 67
1
  8
0
100
AcDbBlockEnd
  0
BLOCK
  5
24
100
AcDbEntity
  8
0
100
AcDbBlockBegin
  2
*Paper_Space0
 70
0
 10
0.0
 20
0.0
 30
0.0
  3
*Paper_Space0
  1

  0
ENDBLK
  5
25
100
AcDbEntity
  8
0
100
AcDbBlockEnd
  0
ENDSEC
  0
SECTION
  2
ENTITIES
  0
LINE
  5
43
100
AcDbEntity
100
AcDbLine
  8
0
 62
256
370
35
  6
CONTINUOUS
 10
97.999999999999986
 20
-140.5
 30
0.0
 11
98.0
 21
140.5
 31
0.0
  0
LINE
  5
44
100
AcDbEntity
100
AcDbLine
  8
0
 62
256
370
35
  6
CONTINUOUS
 10
-98.0
 20
140.5
 30
0.0
 11
98.000000000000028
 21
140.5
 31
0.0
  0
LINE
  5
45
100
AcDbEntity
100
AcDbLine
  8
0
 62
256
370
35
  6
CONTINUOUS
 10
-98.000000000000014
 20
-130.5
 30
0.0
 11
97.999999999999986
 21
-130.5
 31
0.0
  0
LINE
  5
46
100
AcDbEntity
100
AcDbLine
  8
0
 62
256
370
35
  6
CONTINUOUS
 10
-98.000000000000014
 20
-100.5
 30
0.0
 11
97.999999999999986
 21
-100.5
 31
0.0
  0
LINE
  5
47
100
AcDbEntity
100
AcDbLine
  8
0
 62
256
370
35
  6
CONTINUOUS
 10
-58.0
 20
-140.5
 30
0.0
 11
-58.0
 21
-130.5
 31
0.0
  0
LINE
  5
48
100
AcDbEntity
100
AcDbLine
  8
0
 62
256
370
35
  6
CONTINUOUS
 10
-18.0
 20
-140.5
 30
0.0
 11
-18.0
 21
-130.5
 31
0.0
  0
LINE
  5
49
100
AcDbEntity
100
AcDbLine
  8
0
 62
256
370
35
  6
CONTINUOUS
 10
42.0
 20
-140.50000000000003
 30
0.0
 11
42.0
 21
-130.5
 31
0.0
  0
LINE
  5
4A
100
AcDbEntity
100
AcDbLine
  8
0
 62
256
370
35
  6
CONTINUOUS
 10
78.0
 20
-140.50000000000003
 30
0.0
 11
78.0
 21
-115.5
 31
0.0
  0
POINT
  5
4B
100
AcDbEntity
100
AcDbPoint
  8
0
 62
256
370
35
  6
CONTINUOUS
 10
-98.0
 20
-140.5
 30
0.0
  0
POINT
  5
4C
100
AcDbEntity
100
AcDbPoint
  8
0
 62
256
370
35
  6
CONTINUOUS
 10
-58.0
 20
-140.5
 30
0.0
  0
POINT
  5
4D
100
AcDbEntity
100
AcDbPoint
  8
0
 62
256
370
35
  6
CONTINUOUS
 10
-98.0
 20
-140.5
 30
0.0
  0
POINT
  5
4E
100
AcDbEntity
100
AcDbPoint
  8
0
 62
256
370
35
  6
CONTINUOUS
 10
-98.0
 20
-140.5
 30
0.0
  0
POINT
  5
4F
100
AcDbEntity
100
AcDbPoint
  8
0
 62
256
370
35
  6
CONTINUOUS
 10
-58.0
 20
-140.5
 30
0.0
  0
POINT
  5
50
100
AcDbEntity
100
AcDbPoint
  8
0
 62
256
370
35
  6
CONTINUOUS
 10
-58.0
 20
-140.5
 30
0.0
  0
POINT
  5
51
100
AcDbEntity
100
AcDbPoint
  8
0
 62
256
370
35
  6
CONTINUOUS
 10
-58.0
 20
-140.5
 30
0.0
  0
POINT
  5
52
100
AcDbEntity
100
AcDbPoint
  8
0
 62
256
370
35
  6
CONTINUOUS
 10
-58.0
 20
-140.5
 30
0.0
  0
LINE
  5
53
100
AcDbEntity
100
AcDbLine
  8
0
 62
256
370
35
  6
CONTINUOUS
 10
12.0
 20
-130.5
 30
0.0
 11
12.0
 21
-115.5
 31
0.0
  0
LINE
  5
54
100
AcDbEntity
100
AcDbLine
  8
0
 62
256
370
35
  6
CONTINUOUS
 10
-58.0
 20
-140.5
 30
0.0
 11
-58.0
 21
-140.5
 31
0.0
  0
LINE
  5
55
100
AcDbEntity
100
AcDbLine
  8
0
 62
256
370
35
  6
CONTINUOUS
 10
-58.0
 20
-140.5
 30
0.0
 11
-58.0
 21
-140.5
 31
0.0
  0
LINE
  5
56
100
AcDbEntity
100
AcDbLine
  8
0
 62
256
370
35
  6
CONTINUOUS
 10
-58.0
 20
-140.5
 30
0.0
 11
-58.0
 21
-140.5
 31
0.0
  0
LINE
  5
57
100
AcDbEntity
100
AcDbLine
  8
0
 62
256
370
35
  6
CONTINUOUS
 10
-53.000000000000007
 20
-100.5
 30
0.0
 11
-53.000000000000007
 21
-115.5
 31
0.0
  0
LINE
  5
58
100
AcDbEntity
100
AcDbLine
  8
0
 62
256
370
35
  6
CONTINUOUS
 10
-98.0
 20
-115.5
 30
0.0
 11
98.0
 21
-115.5
 31
0.0
  0
LINE
  5
59
100
AcDbEntity
100
AcDbLine
  8
0
 62
256
370
35
  6
CONTINUOUS
 10
-98.0
 20
-140.5
 30
0.0
 11
-98.0
 21
140.5
 31
0.0
  0
LINE
  5
5A
100
AcDbEntity
100
AcDbLine
  8
0
 62
256
370
35
  6
CONTINUOUS
 10
-98.000000000000014
 20
-95.5
 30
0.0
 11
97.999999999999986
 21
-95.5
 31
0.0
  0
LINE
  5
5B
100
AcDbEntity
100
AcDbLine
  8
0
 62
256
370
35
  6
CONTINUOUS
 10
-98.000000000000014
 20
-90.5
 30
0.0
 11
97.999999999999986
 21
-90.5
 31
0.0
  0
LINE
  5
5C
100
AcDbEntity
100
AcDbLine
  8
0
 62
256
370
35
  6
CONTINUOUS
 10
-70.5
 20
-100.5
 30
0.0
 11
-70.5
 21
-90.5
 31
0.0
  0
LINE
  5
5D
100
AcDbEntity
100
AcDbLine
  8
0
 62
256
370
35
  6
CONTINUOUS
 10
-43.0
 20
-100.5
 30
0.0
 11
-43.0
 21
-90.5
 31
0.0
  0
LINE
  5
5E
100
AcDbEntity
100
AcDbLine
  8
0
 62
256
370
35
  6
CONTINUOUS
 10
-53.000000000000007
 20
-108.0
 30
0.0
 11
-53.000000000000007
 21
-100.5
 31
0.0
  0
POINT
  5
5F
100
AcDbEntity
100
AcDbPoint
  8
0
 62
256
370
35
  6
CONTINUOUS
 10
44.999999999999993
 20
-108.0
 30
0.0
  0
MTEXT
  5
60
100
AcDbEntity
100
AcDbMText
  8
0
 62
256
370
35
  6
CONTINUOUS
 10
-38.0
 20
-135.5
 30
0.0
 40
4.0
 41
100.0
 71
5
 72
2
  1
Ech.\~:\~1/1
  7
standard
 50
0.0
 73
1
 44
1.0
  0
MTEXT
  5
61
100
AcDbEntity
100
AcDbMText
  8
0
 62
256
370
35
  6
CONTINUOUS
 10
88.0
 20
-135.5
 30
0.0
 40
5.0
 41
100.0
 71
5
 72
2
  1
A4
  7
standard
 50
0.0
 73
1
 44
1.0
  0
MTEXT
  5
62
100
AcDbEntity
100
AcDbMText
  8
0
 62
256
370
35
  6
CONTINUOUS
 10
88.0
 20
-125.5
 30
0.0
 40
6.0
 41
100.0
 71
5
 72
2
  1
.+
  7
standard
 50
0.0
 73
1
 44
1.0
  0
MTEXT
  5
63
100
AcDbEntity
100
AcDbMText
  8
0
 62
256
370
35
  6
CONTINUOUS
 10
-30.500000000000004
 20
-104.25
 30
0.0
 40
3.0
 41
100.0
 71
5
 72
2
  1
Tol.\~g\U+00e9n.\~(mm)
  7
standard
 50
0.0
 73
1
 44
1.0
  0
MTEXT
  5
64
100
AcDbEntity
100
AcDbMText
  8
0
 62
256
370
35
  6
CONTINUOUS
 10
-75.5
 20
-104.25
 30
0.0
 40
3.0
 41
100.0
 71
5
 72
2
  1
Mati\U+00e8re
  7
standard
 50
0.0
 73
1
 44
1.0
  0
LINE
  5
65
100
AcDbEntity
100
AcDbLine
  8
0
 62
7
370
35
  6
CONTINUOUS
 10
-98.0
 20
-140.5
 30
0.0
 11
98.0
 21
-140.5
 31
0.0
  0
IMAGE
  5
66
  8
0
 62
256
370
35
  6
ByLayer
100
AcDbEntity
100
AcDbRasterImage
 90
0
 10
-6.6768000000000001
 20
-115.5
 30
0.0
 11
0.1104
 21
0.0
 31
0.0
 12
0.0
 22
0.1104
 32
0.0
 13
767.0
 23
135.0
340
67
 70
15
280
0
281
50
282
50
283
0
  0
LINE
  5
68
100
AcDbEntity
100
AcDbLine
  8
0
 62
256
370
35
  6
ByLayer
 10
78.0
 20
-115.5
 30
0.0
 11
78.0
 21
-100.596
 31
0.0
  0
LINE
  5
69
100
AcDbEntity
100
AcDbLine
  8
0
 62
256
370
35
  6
CONTINUOUS
 10
-6.6768000000000001
 20
-115.5
 30
0.0
 11
-6.6768000000000001
 21
-100.5
 31
0.0
  0
MTEXT
  5
6A
100
AcDbEntity
100
AcDbMText
  8
0
 62
256
370
35
  6
ByLayer
 10
87.935587761674711
 20
-104.27415458937197
 30
0.0
 40
3.0
 41
100.0
 71
5
 72
2
  1
Page
  7
standard
 50
0.0
 73
0
 44
1.0
  0
MTEXT
  5
6B
100
AcDbEntity
100
AcDbMText
  8
0
 62
256
370
35
  6
ByLayer
 10
88.0
 20
-111.75
 30
0.0
 40
3.0
 41
100.0
 71
5
 72
2
  1
1/1
  7
standard
 50
0.0
 73
0
 44
1.0
  0
LINE
  5
6C
100
AcDbEntity
100
AcDbLine
  8
0
 62
256
370
25
  6
CONTINUOUS
 10
78.000000000000014
 20
-120.5
 30
0.0
 11
97.999999999999986
 21
-120.5
 31
0.0
  0
MTEXT
  5
6D
100
AcDbEntity
100
AcDbMText
  8
0
 62
256
370
25
  6
CONTINUOUS
 10
88.0
 20
-118.0
 30
0.0
 40
2.5
 41
100.0
 71
5
 72
2
  1
Indice
  7
standard
 50
0.0
 73
1
 44
1.0
  0
MTEXT
  5
6E
100
AcDbEntity
100
AcDbMText
  8
0
 62
256
370
25
  6
CONTINUOUS
 10
-35.0
 20
-98.0
 30
0.0
 40
2.0
 41
100.0
 71
4
 72
2
  1
Modifications
  7
standard
 50
0.0
 73
1
 44
1.0
  0
MTEXT
  5
6F
100
AcDbEntity
100
AcDbMText
  8
0
 62
256
370
25
  6
CONTINUOUS
 10
-56.75
 20
-98.0
 30
0.0
 40
2.0
 41
100.0
 71
5
 72
2
  1
Date
  7
standard
 50
0.0
 73
1
 44
1.0
  0
MTEXT
  5
70
100
AcDbEntity
100
AcDbMText
  8
0
 62
256
370
25
  6
CONTINUOUS
 10
-84.25
 20
-98.0
 30
0.0
 40
2.0
 41
100.0
 71
5
 72
2
  1
Indice
  7
standard
 50
0.0
 73
1
 44
1.0
  0
POINT
  5
71
100
AcDbEntity
100
AcDbPoint
  8
0
 62
256
370
25
  6
CONTINUOUS
 10
-84.25
 20
-93.0
 30
0.0
  0
POINT
  5
72
100
AcDbEntity
100
AcDbPoint
  8
0
 62
256
370
25
  6
CONTINUOUS
 10
-56.75
 20
-93.0
 30
0.0
  0
POINT
  5
73
100
AcDbEntity
100
AcDbPoint
  8
0
 62
256
370
25
  6
CONTINUOUS
 10
-35.0
 20
-93.0
 30
0.0
  0
MTEXT
  5
74
100
AcDbEntity
100
AcDbMText
  8
0
 62
256
370
25
  6
CONTINUOUS
 10
11.999999999999961
 20
-135.5
 30
0.0
 40
3.0
 41
100.0
 71
5
 72
2
  1
Dessin\U+00e9\~par\~P.\~Jaccard
  7
standard
 50
0.0
 73
1
 44
1.0
  0
LINE
  5
75
100
AcDbEntity
100
AcDbLine
  8
0
 62
256
370
25
  6
ByLayer
 10
-98.0
 20
-108.0
 30
0.0
 11
-6.6768000000000001
 21
-108.0
 31
0.0
  0
LINE
  5
76
100
AcDbEntity
100
AcDbLine
  8
0
 62
256
370
25
  6
ByLayer
 10
78.0
 20
-108.0
 30
0.0
 11
98.0
 21
-108.0
 31
0.0
  0
POINT
  5
77
100
AcDbEntity
100
AcDbPoint
  8
0
 62
256
370
25
  6
CONTINUOUS
 10
-78.0
 20
-135.5
 30
0.0
  0
LINE
  5
78
100
AcDbEntity
100
AcDbLine
  8
0
 62
256
370
25
  6
DASHDOT2
 10
-86.0
 20
-135.5
 30
0.0
 11
-69.0
 21
-135.5
 31
0.0
  0
LINE
  5
79
100
AcDbEntity
100
AcDbLine
  8
0
 62
256
370
25
  6
DASHDOT2
 10
-73.0
 20
-131.5
 30
0.0
 11
-73.0
 21
-139.5
 31
0.0
  0
CIRCLE
  5
7A
100
AcDbEntity
100
AcDbCircle
  8
0
 62
256
370
25
  6
ByLayer
 10
-73.0
 20
-135.5
 30
0.0
 40
1.25
  0
CIRCLE
  5
7B
100
AcDbEntity
100
AcDbCircle
  8
0
 62
256
370
25
  6
ByLayer
 10
-73.0
 20
-135.5
 30
0.0
 40
2.5
  0
LINE
  5
7C
100
AcDbEntity
100
AcDbLine
  8
0
 62
256
370
25
  6
ByLayer
 10
-78.0
 20
-133.0
 30
0.0
 11
-78.0
 21
-138.0
 31
0.0
  0
LINE
  5
7D
100
AcDbEntity
100
AcDbLine
  8
0
 62
256
370
25
  6
ByLayer
 10
-84.0
 20
-134.0
 30
0.0
 11
-84.0
 21
-137.0
 31
0.0
  0
LINE
  5
7E
100
AcDbEntity
100
AcDbLine
  8
0
 62
256
370
25
  6
ByLayer
 10
-84.0
 20
-134.0
 30
0.0
 11
-78.0
 21
-133.0
 31
0.0
  0
LINE
  5
7F
100
AcDbEntity
100
AcDbLine
  8
0
 62
256
370
25
  6
ByLayer
 10
-84.0
 20
-137.0
 30
0.0
 11
-78.0
 21
-138.0
 31
0.0
  0
MTEXT
  5
80
100
AcDbEntity
100
AcDbMText
  8
0
 62
256
370
35
  6
CONTINUOUS
 10
-43.000000000000007
 20
-123.0
 30
0.0
 40
4.0
 41
100.0
 71
5
 72
2
  1
Poign\U+00e9e\~de\~porte
  7
standard
 50
0.0
 73
1
 44
1.0
  0
MTEXT
  5
81
100
AcDbEntity
100
AcDbMText
  8
0
 62
256
370
35
  6
ByLayer
 10
-30.500000000000007
 20
-111.75
 30
0.0
 40
3.0
 41
100.0
 71
5
 72
2
  1
.
  7
standard
 50
0.0
 73
1
 44
1.0
  0
MTEXT
  5
82
100
AcDbEntity
100
AcDbMText
  8
0
 62
256
370
-1
  6
ByLayer
 10
-75.5
 20
-111.75
 30
0.0
 40
3.0
 41
100.0
 71
5
 72
0
  1
Acier\~inoxydable
  7
standard
 50
0.0
 73
1
 44
1.0
  0
MTEXT
  5
83
100
AcDbEntity
100
AcDbMText
  8
0
 62
256
370
25
  6
CONTINUOUS
 10
60.0
 20
-135.5
 30
0.0
 40
3.0
 41
100.0
 71
5
 72
2
  1
Le\~25.03.2008
  7
standard
 50
0.0
 73
1
 44
1.0
  0
LINE
  5
84
100
AcDbEntity
100
AcDbLine
  8
0
 62
256
370
-1
  6
ByLayer
 10
67.5
 20
-20.000000000000004
 30
0.0
 11
67.5
 21
0.0
 31
0.0
  0
DIMENSION
  5
85
100
AcDbEntity
  8
0
 62
256
370
25
  6
ByLayer
100
AcDbDimension
 10
90.0
 20
-20.000000000000007
 30
0.0
 11
85.5
 21
-10.000000000000002
 31
0.0
 70
0
 71
5
 72
1
 41
1.0
 42
0.0
  1
%%c20
  3
Standard
100
AcDbAlignedDimension
 13
67.5
 23
0.0
 33
0.0
 14
67.5
 24
-20.000000000000004
 34
0.0
 50
90.0
100
AcDbRotatedDimension
  0
LINE
  5
86
100
AcDbEntity
100
AcDbLine
  8
0
 62
256
370
-1
  6
ByLayer
 10
-67.5
 20
-20.0
 30
0.0
 11
67.5
 21
-20.000000000000004
 31
0.0
  0
LINE
  5
87
100
AcDbEntity
100
AcDbLine
  8
0
 62
256
370
-1
  6
ByLayer
 10
-47.5
 20
0.0
 30
0.0
 11
67.5
 21
0.0
 31
0.0
  0
LINE
  5
88
100
AcDbEntity
100
AcDbLine
  8
0
 62
256
370
-1
  6
ByLayer
 10
-67.5
 20
35.5
 30
0.0
 11
-47.5
 21
35.5
 31
0.0
  0
LINE
  5
89
100
AcDbEntity
100
AcDbLine
  8
0
 62
256
370
-1
  6
ByLayer
 10
-65.5
 20
35.5
 30
0.0
 11
-65.5
 21
47.5
 31
0.0
  0
LINE
  5
8A
100
AcDbEntity
100
AcDbLine
  8
0
 62
256
370
-1
  6
ByLayer
 10
-49.5
 20
35.5
 30
0.0
 11
-49.5
 21
47.5
 31
0.0
  0
LINE
  5
8B
100
AcDbEntity
100
AcDbLine
  8
0
 62
256
370
-1
  6
ByLayer
 10
-65.5
 20
47.5
 30
0.0
 11
-49.5
 21
47.5
 31
0.0
  0
LINE
  5
8C
100
AcDbEntity
100
AcDbLine
  8
0
 62
256
370
-1
  6
ByLayer
 10
-67.5
 20
-20.0
 30
0.0
 11
-67.5
 21
35.5
 31
0.0
  0
LINE
  5
8D
100
AcDbEntity
100
AcDbLine
  8
0
 62
256
370
-1
  6
ByLayer
 10
-47.5
 20
0.0
 30
0.0
 11
-47.5
 21
35.5
 31
0.0
  0
LINE
  5
8E
100
AcDbEntity
100
AcDbLine
  8
0
 62
256
370
-1
  6
ByLayer
 10
-47.5
 20
0.0
 30
0.0
 11
-67.5
 21
-20.0
 31
0.0
  0
DIMENSION
  5
8F
100
AcDbEntity
  8
0
 62
256
370
25
  6
ByLayer
100
AcDbDimension
 10
-80.0
 20
-20.0
 30
0.0
 11
-84.5
 21
7.7500000000000009
 31
0.0
 70
0
 71
5
 72
1
 41
1.0
 42
0.0
  1

  3
Standard
100
AcDbAlignedDimension
 13
-67.5
 23
35.5
 33
0.0
 14
-67.5
 24
-20.0
 34
0.0
 50
90.0
100
AcDbRotatedDimension
  0
MTEXT
  5
90
100
AcDbEntity
100
AcDbMText
  8
0
 62
256
370
35
  6
CONTINUOUS
 10
45.0
 20
-123.0
 30
0.0
 40
5.0
 41
100.0
 71
5
 72
2
  1
Art.\~5171.08
  7
standard
 50
0.0
 73
1
 44
1.0
  0
DIMENSION
  5
91
100
AcDbEntity
  8
0
 62
256
370
25
  6
ByLayer
100
AcDbDimension
 10
70.0
 20
90.0
 30
0.0
 11
0.0000000000000003
 21
94.5
 31
0.0
 70
0
 71
5
 72
1
 41
1.0
 42
0.0
  1

  3
Standard
100
AcDbAlignedDimension
 13
-67.5
 23
35.5
 33
0.0
 14
67.5
 24
0.0
 34
0.0
 50
0.0
100
AcDbRotatedDimension
  0
DIMENSION
  5
92
100
AcDbEntity
  8
0
 62
256
370
25
  6
ByLayer
100
AcDbDimension
 10
-49.5
 20
64.6875
 30
0.0
 11
-57.5
 21
69.1875
 31
0.0
 70
0
 71
5
 72
1
 41
1.0
 42
0.0
  1
%%c16
  3
Standard
100
AcDbAlignedDimension
 13
-65.5
 23
47.5
 33
0.0
 14
-49.5
 24
47.5
 34
0.0
 50
0.0
100
AcDbRotatedDimension
  0
ENDSEC
  0
SECTION
  2
OBJECTS
  0
DICTIONARY
  5
C
100
AcDbDictionary
280
0
281
1
  3
ACAD_GROUP
350
D
  3
ACAD_LAYOUT
350
1A
  3
ACAD_MLINESTYLE
350
17
  3
ACAD_PLOTSETTINGS
350
19
  3
ACAD_PLOTSTYLENAME
350
E
  3
AcDbVariableDictionary
350
93
  0
DICTIONARY
  5
D
100
AcDbDictionary
280
0
281
1
  0
ACDBDICTIONARYWDFLT
  5
E
100
AcDbDictionary
281
1
  3
Normal
350
F
100
AcDbDictionaryWithDefault
340
F
  0
ACDBPLACEHOLDER
  5
F
  0
DICTIONARY
  5
17
100
AcDbDictionary
280
0
281
1
  3
Standard
350
18
  0
MLINESTYLE
  5
18
100
AcDbMlineStyle
  2
STANDARD
 70
0
  3

 62
256
 51
90.0
 52
90.0
 71
2
 49
0.5
 62
256
  6
BYLAYER
 49
-0.5
 62
256
  6
BYLAYER
  0
DICTIONARY
  5
19
100
AcDbDictionary
280
0
281
1
  0
DICTIONARY
  5
1A
100
AcDbDictionary
281
1
  3
Layout1
350
1E
  3
Layout2
350
26
  3
Model
350
22
  0
LAYOUT
  5
1E
100
AcDbPlotSettings
  1

  2
C:\Program Files\AutoCAD 2002\plotters\DWF ePlot (optimized for plotting).pc3
  4

  6

 40
0.0
 41
0.0
 42
0.0
 43
0.0
 44
0.0
 45
0.0
 46
0.0
 47
0.0
 48
0.0
 49
0.0
140
0.0
141
0.0
142
1.0
143
1.0
 70
688
 72
0
 73
0
 74
5
  7

 75
16
147
1.0
148
0.0
149
0.0
100
AcDbLayout
  1
Layout1
 70
1
 71
1
 10
0.0
 20
0.0
 11
420.0
 21
297.0
 12
0.0
 22
0.0
 32
0.0
 14
100000000000000000000.0
 24
100000000000000000000.0
 34
100000000000000000000.0
 15
-100000000000000000000.0
 25
-100000000000000000000.0
 35
-100000000000000000000.0
146
0.0
 13
0.0
 23
0.0
 33
0.0
 16
1.0
 26
0.0
 36
0.0
 17
0.0
 27
1.0
 37
0.0
 76
0
330
1B
  0
LAYOUT
  5
22
100
AcDbPlotSettings
  1

  2
C:\Program Files\AutoCAD 2002\plotters\DWF ePlot (optimized for plotting).pc3
  4

  6

 40
0.0
 41
0.0
 42
0.0
 43
0.0
 44
0.0
 45
0.0
 46
0.0
 47
0.0
 48
0.0
 49
0.0
140
0.0
141
0.0
142
1.0
143
1.0
 70
1712
 72
0
 73
0
 74
0
  7

 75
0
147
1.0
148
0.0
149
0.0
100
AcDbLayout
  1
Model
 70
1
 71
0
 10
0.0
 20
0.0
 11
12.0
 21
9.0
 12
0.0
 22
0.0
 32
0.0
 14
0.0
 24
0.0
 34
0.0
 15
0.0
 25
0.0
 35
0.0
146
0.0
 13
0.0
 23
0.0
 33
0.0
 16
1.0
 26
0.0
 36
0.0
 17
0.0
 27
1.0
 37
0.0
 76
0
330
1F
  0
LAYOUT
  5
26
100
AcDbPlotSettings
  1

  2
C:\Program Files\AutoCAD 2002\plotters\DWF ePlot (optimized for plotting).pc3
  4

  6

 40
0.0
 41
0.0
 42
0.0
 43
0.0
 44
0.0
 45
0.0
 46
0.0
 47
0.0
 48
0.0
 49
0.0
140
0.0
141
0.0
142
1.0
143
1.0
 70
688
 72
0
 73
0
 74
5
  7

 75
16
147
1.0
148
0.0
149
0.0
100
AcDbLayout
  1
Layout2
 70
1
 71
2
 10
0.0
 20
0.0
 11
12.0
 21
9.0
 12
0.0
 22
0.0
 32
0.0
 14
0.0
 24
0.0
 34
0.0
 15
0.0
 25
0.0
 35
0.0
146
0.0
 13
0.0
 23
0.0
 33
0.0
 16
1.0
 26
0.0
 36
0.0
 17
0.0
 27
1.0
 37
0.0
 76
0
330
23
  0
DICTIONARY
  5
93
100
AcDbDictionary
281
1
  3
DIMASSOC
350
95
  3
HIDETEXT
350
94
  0
DICTIONARYVAR
  5
94
100
DictionaryVariables
280
0
  1
2
  0
DICTIONARYVAR
  5
95
100
DictionaryVariables
280
0
  1
1
  0
IMAGEDEF
  5
67
100
AcDbRasterImageDef
 90
0
  1
C:/Documents and Settings/patrick jaccard/Mes documents/Mes images/Logo Nickal/NICKAL.BMP
 10
767.0
 20
135.0
 11
1.0
 21
1.0
280
1
281
0
  0
ENDSEC
  0
EOF
