  0
SECTION
  2
HEADER
  9
$ACADVER
  1
AC1009
  9
$DWGCODEPAGE
  3
ansi_1252
  9
$INSBASE
 10
0.0
 20
0.0
 30
0.0
  9
$EXTMIN
 10
0.0
 20
0.0
 30
0.0
  9
$EXTMAX
 10
420.0
 20
297.0
 30
0.0
  9
$LIMMIN
 10
0.0
 20
0.0
  9
$LIMMAX
 10
420.0
 20
297.0
  9
$ORTHOMODE
 70
     0
  9
$REGENMODE
 70
     1
  9
$FILLMODE
 70
     1
  9
$QTEXTMODE
 70
     0
  9
$MIRRTEXT
 70
     1
  9
$DRAGMODE
 70
     2
  9
$LTSCALE
 40
1.0
  9
$OSMODE
 70
    37
  9
$ATTMODE
 70
     1
  9
$TEXTSIZE
 40
3.5277777778
  9
$TRACEWID
 40
1.0
  9
$TEXTSTYLE
  7
STANDARD
  9
$CLAYER
  8
0
  9
$CELTYPE
  6
BYLAYER
  9
$CECOLOR
 62
   256
  9
$DIMSCALE
 40
1.0
  9
$DIMASZ
 40
3.302
  9
$DIMEXO
 40
1.0
  9
$DIMDLI
 40
3.75
  9
$DIMRND
 40
0.0
  9
$DIMDLE
 40
0.0
  9
$DIMEXE
 40
1.0
  9
$DIMTP
 40
0.0
  9
$DIMTM
 40
0.0
  9
$DIMTXT
 40
3.5277777778
  9
$DIMCEN
 40
2.5
  9
$DIMTSZ
 40
0.0
  9
$DIMTOL
 70
     0
  9
$DIMLIM
 70
     0
  9
$DIMTIH
 70
     1
  9
$DIMTOH
 70
     1
  9
$DIMSE1
 70
     0
  9
$DIMSE2
 70
     0
  9
$DIMTAD
 70
     1
  9
$DIMZIN
 70
     0
  9
$DIMBLK
  1

  9
$DIMASO
 70
     1
  9
$DIMSHO
 70
     1
  9
$DIMPOST
  1

  9
$DIMAPOST
  1

  9
$DIMALT
 70
     0
  9
$DIMALTD
 70
     3
  9
$DIMALTF
 40
0.0393700787
  9
$DIMLFAC
 40
1.0
  9
$DIMTOFL
 70
     1
  9
$DIMTVP
 40
0.0
  9
$DIMTIX
 70
     0
  9
$DIMSOXD
 70
     0
  9
$DIMSAH
 70
     0
  9
$DIMBLK1
  1

  9
$DIMBLK2
  1

  9
$DIMSTYLE
  2
ISO-25
  9
$DIMCLRD
 70
     0
  9
$DIMCLRE
 70
     0
  9
$DIMCLRT
 70
     0
  9
$DIMTFAC
 40
1.0
  9
$DIMGAP
 40
1.524
  9
$LUNITS
 70
     2
  9
$LUPREC
 70
     2
  9
$SKETCHINC
 40
1.0
  9
$FILLETRAD
 40
10.0
  9
$AUNITS
 70
     0
  9
$AUPREC
 70
     2
  9
$MENU
  1
.
  9
$ELEVATION
 40
0.0
  9
$PELEVATION
 40
0.0
  9
$THICKNESS
 40
0.0
  9
$LIMCHECK
 70
     0
  9
$CHAMFERA
 40
10.0
  9
$CHAMFERB
 40
10.0
  9
$SKPOLY
 70
     0
  9
$TDCREATE
 40
2456049.595681053
  9
$TDUPDATE
 40
2456049.595681065
  9
$TDINDWG
 40
0.0000000116
  9
$TDUSRTIMER
 40
0.0000000116
  9
$USRTIMER
 70
     1
  9
$ANGBASE
 50
0.0
  9
$ANGDIR
 70
     0
  9
$PDMODE
 70
     0
  9
$PDSIZE
 40
-1.0
  9
$PLINEWID
 40
0.0
  9
$COORDS
 70
     1
  9
$SPLFRAME
 70
     0
  9
$SPLINETYPE
 70
     6
  9
$SPLINESEGS
 70
     8
  9
$ATTDIA
 70
     0
  9
$ATTREQ
 70
     1
  9
$HANDLING
 70
     1
  9
$HANDSEED
  5
3AB
  9
$SURFTAB1
 70
     6
  9
$SURFTAB2
 70
     6
  9
$SURFTYPE
 70
     6
  9
$SURFU
 70
     6
  9
$SURFV
 70
     6
  9
$UCSNAME
  2

  9
$UCSORG
 10
0.0
 20
0.0
 30
0.0
  9
$UCSXDIR
 10
1.0
 20
0.0
 30
0.0
  9
$UCSYDIR
 10
0.0
 20
1.0
 30
0.0
  9
$PUCSNAME
  2

  9
$PUCSORG
 10
0.0
 20
0.0
 30
0.0
  9
$PUCSXDIR
 10
1.0
 20
0.0
 30
0.0
  9
$PUCSYDIR
 10
0.0
 20
1.0
 30
0.0
  9
$USERI1
 70
     0
  9
$USERI2
 70
     0
  9
$USERI3
 70
     0
  9
$USERI4
 70
     0
  9
$USERI5
 70
     0
  9
$USERR1
 40
0.0
  9
$USERR2
 40
0.0
  9
$USERR3
 40
0.0
  9
$USERR4
 40
0.0
  9
$USERR5
 40
0.0
  9
$WORLDVIEW
 70
     1
  9
$SHADEDGE
 70
     3
  9
$SHADEDIF
 70
    70
  9
$TILEMODE
 70
     1
  9
$MAXACTVP
 70
    64
  9
$PLIMCHECK
 70
     0
  9
$PEXTMIN
 10
1.0000000000E+20
 20
1.0000000000E+20
 30
1.0000000000E+20
  9
$PEXTMAX
 10
-1.0000000000E+20
 20
-1.0000000000E+20
 30
-1.0000000000E+20
  9
$PLIMMIN
 10
0.0
 20
0.0
  9
$PLIMMAX
 10
420.0
 20
297.0
  9
$UNITMODE
 70
     0
  9
$VISRETAIN
 70
     1
  9
$PLINEGEN
 70
     0
  9
$PSLTSCALE
 70
     1
  0
ENDSEC
  0
SECTION
  2
TABLES
  0
TABLE
  2
VPORT
 70
     1
  0
VPORT
  2
*ACTIVE
 70
     0
 10
0.0
 20
0.0
 11
1.0
 21
1.0
 12
210.0
 22
148.5
 13
0.0
 23
0.0
 14
10.0
 24
10.0
 15
10.0
 25
10.0
 16
0.0
 26
0.0
 36
1.0
 17
0.0
 27
0.0
 37
0.0
 40
297.0
 41
1.4141414141
 42
50.0
 43
0.0
 44
0.0
 50
0.0
 51
0.0
 71
     0
 72
  2000
 73
     1
 74
     3
 75
     0
 76
     0
 77
     0
 78
     0
  0
ENDTAB
  0
TABLE
  2
LTYPE
 70
     6
  0
LTYPE
  2
CONTINUOUS
 70
     0
  3
Solid line
 72
    65
 73
     0
 40
0.0
  0
LTYPE
  2
HIDDEN
 70
     0
  3
Hidden __ __ __ __ __ __ __ __ __ __ __ __ __ __
 72
    65
 73
     2
 40
1.905
 49
1.27
 49
-0.635
  0
LTYPE
  2
PHANTOM
 70
     0
  3
Phantom ______  __  __  ______  __  __  ______
 72
    65
 73
     6
 40
12.7
 49
6.35
 49
-1.27
 49
1.27
 49
-1.27
 49
1.27
 49
-1.27
  0
LTYPE
  2
CENTER
 70
     0
  3
Center ____ _ ____ _ ____ _ ____ _ ____ _ ____
 72
    65
 73
     4
 40
10.16
 49
6.35
 49
-1.27
 49
1.27
 49
-1.27
  0
LTYPE
  2
CENTERX2
 70
     0
  3
Center (2x) ________  __  ________  __  _____
 72
    65
 73
     4
 40
20.32
 49
12.7
 49
-2.54
 49
2.54
 49
-2.54
  0
LTYPE
  2
DOT2
 70
     0
  3
Dot (.5x) ........................................
 72
    65
 73
     2
 40
0.635
 49
0.0
 49
-0.635
  0
ENDTAB
  0
TABLE
  2
LAYER
 70
     4
  0
LAYER
  2
0
 70
     0
 62
     7
  6
CONTINUOUS
  0
LAYER
  2
HIDDEN
 70
     0
 62
    -1
  6
CONTINUOUS
  0
LAYER
  2
BLOCK
 70
     0
 62
     7
  6
CONTINUOUS
  0
LAYER
  2
BLOCK_0_4MM
 70
     0
 62
     7
  6
CONTINUOUS
  0
ENDTAB
  0
TABLE
  2
STYLE
 70
     1
  0
STYLE
  2
STANDARD
 70
     0
 40
0.0
 41
1.0
 50
0.0
 71
     0
 42
2.5
  3
txt
  4

  0
ENDTAB
  0
TABLE
  2
VIEW
 70
     0
  0
ENDTAB
  0
TABLE
  2
UCS
 70
     0
  0
ENDTAB
  0
TABLE
  2
APPID
 70
     1
  0
APPID
  2
ACAD
 70
     0
  0
ENDTAB
  0
TABLE
  2
DIMSTYLE
 70
     4
  0
DIMSTYLE
  2
ISO-25
 70
     0
  3

  4

  5

  6

  7

 40
1.0
 41
2.5
 42
0.625
 43
3.75
 44
1.25
 45
0.0
 46
0.0
 47
0.0
 48
0.0
140
2.5
141
2.5
142
0.0
143
0.0393700787
144
1.0
145
0.0
146
1.0
147
0.625
 71
     0
 72
     0
 73
     0
 74
     0
 75
     0
 76
     0
 77
     1
 78
     8
170
     0
171
     3
172
     1
173
     0
174
     0
175
     0
176
     0
177
     0
178
     0
  0
DIMSTYLE
  2
SLDDIMSTYLE0
 70
     0
  3

  4

  5

  6

  7

 40
1.0
 41
3.302
 42
0.0625
 43
0.38
 44
0.0
 45
0.000000001
 46
0.0
 47
0.0
 48
0.0
140
2.6458333333
141
0.09
142
0.0
143
25.4
144
1.0
145
0.0
146
1.0
147
0.6614583333
 71
     0
 72
     0
 73
     0
 74
     0
 75
     0
 76
     0
 77
     1
 78
    12
170
     0
171
     2
172
     0
173
     1
174
     0
175
     0
176
     0
177
     0
178
     0
  0
DIMSTYLE
  2
SLDDIMSTYLE1
 70
     0
  3
<>
  4

  5

  6
NONE
  7

 40
1.0
 41
3.302
 42
0.0625
 43
0.38
 44
0.0
 45
0.000000001
 46
0.0
 47
0.0
 48
0.0
140
2.6458333333
141
0.0
142
0.0
143
25.4
144
1.0
145
0.0
146
1.0
147
0.6614583333
 71
     0
 72
     0
 73
     1
 74
     1
 75
     0
 76
     0
 77
     0
 78
    12
170
     0
171
     2
172
     1
173
     1
174
     0
175
     0
176
     0
177
     0
178
     0
  0
DIMSTYLE
  2
SLDDIMSTYLE2
 70
     0
  3

  4

  5

  6

  7

 40
1.0
 41
3.302
 42
0.0625
 43
0.38
 44
0.0
 45
0.000000001
 46
0.0
 47
0.0
 48
0.0
140
2.6458333333
141
0.09
142
0.0
143
25.4
144
1.0
145
0.0
146
1.0
147
0.6614583333
 71
     0
 72
     0
 73
     0
 74
     0
 75
     0
 76
     0
 77
     1
 78
    12
170
     0
171
     2
172
     1
173
     1
174
     0
175
     0
176
     0
177
     0
178
     0
  0
ENDTAB
  0
ENDSEC
  0
SECTION
  2
BLOCKS
  0
BLOCK
  8
0
  2
$MODEL_SPACE
 70
     0
 10
0.0
 20
0.0
 30
0.0
  3
$MODEL_SPACE
  1

  0
ENDBLK
  5
21
  8
0
  0
BLOCK
 67
     1
  8
0
  2
$PAPER_SPACE
 70
     0
 10
0.0
 20
0.0
 30
0.0
  3
$PAPER_SPACE
  1

  0
ENDBLK
  5
1D
 67
     1
  8
0
  0
BLOCK
  8
0
  2
TEMPLATE_BLOCK_23-08-2011
 70
     2
 10
0.0
 20
0.0
 30
0.0
  3
TEMPLATE_BLOCK_23-08-2011
  1

  0
ARC
  5
4A
  8
0
  6
CONTINUOUS
 62
     7
 10
191.4522115405
 20
175.5813166711
 30
0.0
 40
3.0
 50
90.0
 51
270.0
  0
ARC
  5
4B
  8
0
  6
CONTINUOUS
 62
     7
 10
191.4522115405
 20
175.5813166711
 30
0.0
 40
1.249999999999972
 50
270.0
 51
90.0
  0
ARC
  5
4C
  8
0
  6
CONTINUOUS
 62
     7
 10
191.4522115405
 20
175.5813166711
 30
0.0
 40
3.0
 50
270.0
 51
90.0
  0
ARC
  5
4D
  8
0
  6
CONTINUOUS
 62
     7
 10
191.4522115405
 20
175.5813166711
 30
0.0
 40
1.249999999999972
 50
90.0
 51
270.0
  0
LINE
  5
4E
  8
0
  6
CONTINUOUS
 62
     7
 10
62.5356831742
 20
156.4442864895
 30
0.0
 11
87.2023498409
 21
156.4442864895
 31
0.0
  0
LINE
  5
4F
  8
0
  6
CONTINUOUS
 62
     7
 10
62.5356831742
 20
161.4442864895
 30
0.0
 11
210.5356831742
 21
161.4442864895
 31
0.0
  0
LINE
  5
50
  8
0
  6
CONTINUOUS
 62
     7
 10
62.5356831742
 20
166.4442864895
 30
0.0
 11
161.2023498409
 21
166.4442864895
 31
0.0
  0
LINE
  5
51
  8
0
  6
CONTINUOUS
 62
     7
 10
62.5356831742
 20
171.4442864895
 30
0.0
 11
210.5356831742
 21
171.4442864895
 31
0.0
  0
LINE
  5
52
  8
0
  6
CONTINUOUS
 62
     7
 10
62.8245470911
 20
179.4442864895
 30
0.0
 11
210.2468192573
 21
179.4442864895
 31
0.0
  0
LINE
  5
53
  8
0
  6
CONTINUOUS
 62
     7
 10
87.2023498409
 20
156.4442864895
 30
0.0
 11
111.8690165075
 21
156.4442864895
 31
0.0
  0
LINE
  5
54
  8
0
  6
CONTINUOUS
 62
     7
 10
111.8690165075
 20
156.4442864895
 30
0.0
 11
136.5356831742
 21
156.4442864895
 31
0.0
  0
LINE
  5
55
  8
0
  6
CONTINUOUS
 62
     7
 10
136.5356831742
 20
156.4442864895
 30
0.0
 11
161.2023498409
 21
156.4442864895
 31
0.0
  0
LINE
  5
56
  8
0
  6
CONTINUOUS
 62
     7
 10
161.2023498409
 20
156.4442864895
 30
0.0
 11
185.8690165075
 21
156.4442864895
 31
0.0
  0
LINE
  5
57
  8
0
  6
CONTINUOUS
 62
     7
 10
185.8690165075
 20
156.4442864895
 30
0.0
 11
210.5356831742
 21
156.4442864895
 31
0.0
  0
LINE
  5
58
  8
0
  6
CONTINUOUS
 62
     7
 10
87.2023498409
 20
156.4442864895
 30
0.0
 11
87.2023498409
 21
161.4442864895
 31
0.0
  0
LINE
  5
59
  8
0
  6
CONTINUOUS
 62
     7
 10
111.8690165075
 20
156.4442864895
 30
0.0
 11
111.8690165075
 21
161.4442864895
 31
0.0
  0
LINE
  5
5A
  8
0
  6
CONTINUOUS
 62
     7
 10
136.5356831742
 20
156.4442864895
 30
0.0
 11
136.5356831742
 21
161.4442864895
 31
0.0
  0
LINE
  5
5B
  8
0
  6
CONTINUOUS
 62
     7
 10
161.2023498409
 20
156.4442864895
 30
0.0
 11
161.2023498409
 21
161.4442864895
 31
0.0
  0
LINE
  5
5C
  8
0
  6
CONTINUOUS
 62
     7
 10
185.8690165075
 20
156.4442864895
 30
0.0
 11
185.8690165075
 21
161.4442864895
 31
0.0
  0
LINE
  5
5D
  8
0
  6
CONTINUOUS
 62
     7
 10
136.5356831742
 20
161.4442864895
 30
0.0
 11
136.5356831742
 21
179.4442864895
 31
0.0
  0
LINE
  5
5E
  8
0
  6
CONTINUOUS
 62
     7
 10
161.2023498409
 20
161.4442864895
 30
0.0
 11
161.2023498409
 21
179.4442864895
 31
0.0
  0
LINE
  5
5F
  8
0
  6
CENTERX2
 62
     7
 10
191.4522115405
 20
179.0813166711
 30
0.0
 11
191.4522115405
 21
172.0813166711
 31
0.0
  0
LINE
  5
60
  8
0
  6
CENTERX2
 62
     7
 10
187.9522115405
 20
175.5813166711
 30
0.0
 11
194.9522115405
 21
175.5813166711
 31
0.0
  0
LINE
  5
61
  8
0
  6
CONTINUOUS
 62
     7
 10
198.9688251586
 20
176.8313166711
 30
0.0
 11
198.9688251586
 21
174.3313166711
 31
0.0
  0
LINE
  5
62
  8
0
  6
CONTINUOUS
 62
     7
 10
198.9688251586
 20
176.8313166711
 30
0.0
 11
204.9688251586
 21
178.5813166711
 31
0.0
  0
LINE
  5
63
  8
0
  6
CONTINUOUS
 62
     7
 10
204.9688251586
 20
178.5813166711
 30
0.0
 11
204.9688251586
 21
172.5813166711
 31
0.0
  0
LINE
  5
64
  8
0
  6
CONTINUOUS
 62
     7
 10
204.9688251586
 20
172.5813166711
 30
0.0
 11
198.9688251586
 21
174.3313166711
 31
0.0
  0
LINE
  5
65
  8
0
  6
CENTERX2
 62
     7
 10
205.941683749
 20
175.5813166711
 30
0.0
 11
197.8813151032
 21
175.5813166711
 31
0.0
  0
LINE
  5
66
  8
0
  6
CONTINUOUS
 62
     7
 10
161.2023498409
 20
156.4442864895
 30
0.0
 11
161.2023498409
 21
151.4442864895
 31
0.0
  0
LINE
  5
67
  8
0
  6
CONTINUOUS
 62
     7
 10
185.8690165075
 20
156.4442864895
 30
0.0
 11
185.8690165075
 21
151.4442864895
 31
0.0
  0
TEXT
  5
68
  8
BLOCK
 62
     7
 10
63.5576398697
 20
184.8123399363
 30
0.0
 40
1.8520833333
  1
Description
 41
0.7
 11
63.5576398697
 21
184.1580728633
 31
0.0
 73
     1
  0
TEXT
  5
69
  8
BLOCK
 62
     7
 10
63.5514716817
 20
176.8843686002
 30
0.0
 40
1.8520833333
  1
Article nr.
 41
0.7
 11
63.5514716817
 21
176.2301015272
 31
0.0
 73
     1
  0
TEXT
  5
6A
  8
BLOCK
 62
     7
 10
63.5514716817
 20
169.1161588169
 30
0.0
 40
1.8520833333
  1
Material
 41
0.7
 11
63.5514716817
 21
168.4618917439
 31
0.0
 73
     1
  0
TEXT
  5
6B
  8
BLOCK
 62
     7
 10
63.5514716817
 20
164.2307913525
 30
0.0
 40
1.8520833333
  1
Finish
 41
0.7
 11
63.5514716817
 21
163.5765242795
 31
0.0
 73
     1
  0
TEXT
  5
6C
  8
BLOCK
 62
     7
 10
63.5514716817
 20
159.1927191589
 30
0.0
 40
1.8520833333
  1
Drawn by
 41
0.7
 11
63.5514716817
 21
158.5384520858
 31
0.0
 73
     1
  0
TEXT
  5
6D
  8
BLOCK
 62
     7
 10
88.0113040812
 20
159.1927191589
 30
0.0
 40
1.8520833333
  1
Date
 41
0.7
 11
88.0113040812
 21
158.5384520858
 31
0.0
 73
     1
  0
TEXT
  5
6E
  8
BLOCK
 62
     7
 10
112.9654021834
 20
159.3254934295
 30
0.0
 40
1.8520833333
  1
Mod. by
 41
0.7
 11
112.9654021834
 21
158.6712263564
 31
0.0
 73
     1
  0
TEXT
  5
6F
  8
BLOCK
 62
     7
 10
137.4252345829
 20
159.3254934295
 30
0.0
 40
1.8520833333
  1
Date
 41
0.7
 11
137.4252345829
 21
158.6712263564
 31
0.0
 73
     1
  0
TEXT
  5
70
  8
BLOCK
 62
     7
 10
186.4741557862
 20
159.3254934295
 30
0.0
 40
1.8520833333
  1
Date
 41
0.7
 11
186.4741557862
 21
158.6712263564
 31
0.0
 73
     1
  0
TEXT
  5
71
  8
BLOCK
 62
     7
 10
161.8645267427
 20
159.3254934295
 30
0.0
 40
1.8520833333
  1
Rel. by
 41
0.7
 11
161.8645267427
 21
158.6712263564
 31
0.0
 73
     1
  0
TEXT
  5
72
  8
BLOCK
 62
     7
 10
63.5514716817
 20
154.2077359849
 30
0.0
 40
1.8520833333
  1
Remarks
 41
0.7
 11
63.5514716817
 21
153.5534689119
 31
0.0
 73
     1
  0
TEXT
  5
73
  8
BLOCK
 62
     7
 10
137.4252345829
 20
177.0027654141
 30
0.0
 40
1.8520833333
  1
Revision
 41
0.7
 11
137.4252345829
 21
176.3484983411
 31
0.0
 73
     1
  0
TEXT
  5
74
  8
BLOCK
 62
     7
 10
137.4252345829
 20
169.236973898
 30
0.0
 40
1.8520833333
  1
Weight
 41
0.7
 11
137.4252345829
 21
168.582706825
 31
0.0
 73
     1
  0
TEXT
  5
75
  8
BLOCK
 62
     7
 10
137.4252345829
 20
164.2997508115
 30
0.0
 40
1.8520833333
  1
Scale
 41
0.7
 11
137.4252345829
 21
163.6454837385
 31
0.0
 73
     1
  0
TEXT
  5
76
  8
BLOCK
 62
     7
 10
161.8645267427
 20
177.0027654141
 30
0.0
 40
1.8520833333
  1
Projection
 41
0.7
 11
161.8645267427
 21
176.3484983411
 31
0.0
 73
     1
  0
TEXT
  5
77
  8
BLOCK
 62
     7
 10
161.8645267427
 20
154.2153377848
 30
0.0
 40
1.8520833333
  1
Page
 41
0.7
 11
161.8645267427
 21
153.5610707118
 31
0.0
 73
     1
  0
TEXT
  5
78
  8
BLOCK
 62
     7
 10
186.4741557862
 20
154.2153377848
 30
0.0
 40
1.8520833333
  1
Size
 41
0.7
 11
186.4741557862
 21
153.5610707118
 31
0.0
 73
     1
  0
TEXT
  5
79
  8
BLOCK
 62
     7
 10
161.8645267427
 20
169.236973898
 30
0.0
 40
1.8520833333
  1
Tolerances unless otherwise specified
 41
0.6716216216
 11
161.8645267427
 21
168.582706825
 31
0.0
 73
     1
  0
ATTDEF
  5
7A
  8
BLOCK
 62
     7
 10
124.3379506665
 20
182.3528182885
 30
0.0
 40
3.7041666667
  1
Description
 41
0.7
 11
124.3379506665
 21
181.0442841425
 31
0.0
 73
     1
  3

  2
DESCRIPTION
 70
     0
 74
     1
  0
ATTDEF
  5
7B
  8
BLOCK
 62
     7
 10
78.7253407769
 20
174.4128986916
 30
0.0
 40
3.7041666667
  1
Article Nr.
 41
0.7
 11
78.7253407769
 21
173.1043645456
 31
0.0
 73
     1
  3

  2
ARTICLENR.
 70
     0
 74
     1
  0
ATTDEF
  5
7C
  8
BLOCK
 62
     7
 10
149.8774862028
 20
174.4128986916
 30
0.0
 40
3.7041666667
  1
Rev
 41
0.7
 11
149.8774862028
 21
173.1043645456
 31
0.0
 73
     1
  3

  2
REVISION
 70
     0
 74
     1
  0
ATTDEF
  5
7D
  8
BLOCK
 62
     7
 10
78.7253407769
 20
168.1397842609
 30
0.0
 40
2.38125
  1
Material
 41
0.7
 11
78.7253407769
 21
167.2985837385
 31
0.0
 73
     1
  3

  2
MATERIAL
 70
     0
 74
     1
  0
ATTDEF
  5
7E
  8
BLOCK
 62
     7
 10
78.7253407769
 20
163.1397842609
 30
0.0
 40
2.38125
  1
Finish
 41
0.7
 11
78.7253407769
 21
162.2985837385
 31
0.0
 73
     1
  3

  2
FINISH
 70
     0
 74
     1
  0
ATTDEF
  5
7F
  8
BLOCK
 62
     7
 10
74.5596224449
 20
157.714038091
 30
0.0
 40
2.1166666667
  1
DrawnBy
 41
0.7
 11
74.5596224449
 21
156.9663042933
 31
0.0
 73
     1
  3

  2
DRAWNBY
 70
     0
 74
     1
  0
ATTDEF
  5
80
  8
BLOCK
 62
     7
 10
95.5116786932
 20
157.714038091
 30
0.0
 40
2.1166666667
  1
DrawnDate
 41
0.7
 11
95.5116786932
 21
156.9663042933
 31
0.0
 73
     1
  3

  2
DRAWNDATE
 70
     0
 74
     1
  0
ATTDEF
  5
81
  8
BLOCK
 62
     7
 10
146.9579813319
 20
157.555078016
 30
0.0
 40
2.1166666667
  1
Mod.Date
 41
0.7
 11
146.9579813319
 21
156.8073442183
 31
0.0
 73
     1
  3

  2
MODDATE
 70
     0
 74
     1
  0
ATTDEF
  5
82
  8
BLOCK
 62
     7
 10
125.8396174566
 20
157.5496584351
 30
0.0
 40
2.1166666667
  1
Mod.By
 41
0.7
 11
125.8396174566
 21
156.8019246373
 31
0.0
 73
     1
  3

  2
MODBY
 70
     0
 74
     1
  0
ATTDEF
  5
83
  8
BLOCK
 62
     7
 10
198.2363277113
 20
157.555078016
 30
0.0
 40
2.1166666667
  1
Rel.Date
 41
0.7
 11
198.2363277113
 21
156.8073442183
 31
0.0
 73
     1
  3

  2
RELDATE
 70
     0
 74
     1
  0
ATTDEF
  5
84
  8
BLOCK
 62
     7
 10
177.1179638359
 20
157.555078016
 30
0.0
 40
2.1166666667
  1
Rel.By
 41
0.7
 11
177.1179638359
 21
156.8073442183
 31
0.0
 73
     1
  3

  2
RELBY
 70
     0
 74
     1
  0
ATTDEF
  5
85
  8
BLOCK
 62
     7
 10
180.7790129002
 20
152.4812725583
 30
0.0
 40
2.1166666667
  1
2/2
 41
0.7
 11
180.7790129002
 21
151.7335387605
 31
0.0
 73
     1
  3

  2
AUTOATTR1
 70
     0
 74
     1
  0
ATTDEF
  5
86
  8
BLOCK
 62
     7
 10
198.4242550543
 20
152.4812726165
 30
0.0
 40
2.1166666667
  1
Format
 41
0.7
 11
198.4242550543
 21
151.7335388187
 31
0.0
 73
     1
  3

  2
FORMAT
 70
     0
 74
     1
  0
ATTDEF
  5
87
  8
BLOCK
 62
     7
 10
78.7253407769
 20
153.1346813667
 30
0.0
 40
2.38125
  1
Finish
 41
0.7
 11
78.7253407769
 21
152.2934808442
 31
0.0
 73
     1
  3

  2
REMARK
 70
     0
 74
     1
  0
ATTDEF
  5
88
  8
BLOCK
 62
     7
 10
167.6729490394
 20
164.3153124029
 30
0.0
 40
2.1166666667
  1
Angle Tol
 41
0.7
 11
167.6729490394
 21
163.5675786051
 31
0.0
 73
     1
  3

  2
ANGLETOL
 70
     0
 74
     1
  0
ATTDEF
  5
89
  8
BLOCK
 62
     7
 10
193.6694406713
 20
164.1524933923
 30
0.0
 40
2.1166666667
  1
Dim Tol
 41
0.7
 11
193.6694406713
 21
163.4047595946
 31
0.0
 73
     1
  3

  2
DIMTOL
 70
     0
 74
     1
  0
ATTDEF
  5
8A
  8
BLOCK_0_4MM
 62
     7
 10
149.244200989
 20
163.1502406384
 30
0.0
 40
2.5
  1
1:1
 41
0.7
 11
149.244200989
 21
162.2670904836
 31
0.0
 73
     1
  3

  2
AUTOATTR2
 70
     0
 74
     1
  0
ATTDEF
  5
8B
  8
BLOCK_0_4MM
 62
     7
 10
147.6055122229
 20
168.1502406384
 30
0.0
 40
2.5
  1
0.1424 g
 41
0.7
 11
147.6055122229
 21
167.2670904836
 31
0.0
 73
     1
  3

  2
AUTOATTR3
 70
     0
 74
     1
  0
ENDBLK
  5
49
  8
0
  0
BLOCK
  8
0
  2
TEMPLATE_BLOCK_23-08-2011_
 70
     2
 10
0.0
 20
0.0
 30
0.0
  3
TEMPLATE_BLOCK_23-08-2011_
  1

  0
ARC
  5
8F
  8
0
  6
CONTINUOUS
 62
     7
 10
191.4522115405
 20
175.5813166711
 30
0.0
 40
3.0
 50
90.0
 51
270.0
  0
ARC
  5
90
  8
0
  6
CONTINUOUS
 62
     7
 10
191.4522115405
 20
175.5813166711
 30
0.0
 40
1.249999999999972
 50
270.0
 51
90.0
  0
ARC
  5
91
  8
0
  6
CONTINUOUS
 62
     7
 10
191.4522115405
 20
175.5813166711
 30
0.0
 40
3.0
 50
270.0
 51
90.0
  0
ARC
  5
92
  8
0
  6
CONTINUOUS
 62
     7
 10
191.4522115405
 20
175.5813166711
 30
0.0
 40
1.249999999999972
 50
90.0
 51
270.0
  0
LINE
  5
93
  8
0
  6
CONTINUOUS
 62
     7
 10
62.5356831742
 20
156.4442864895
 30
0.0
 11
87.2023498409
 21
156.4442864895
 31
0.0
  0
LINE
  5
94
  8
0
  6
CONTINUOUS
 62
     7
 10
62.5356831742
 20
161.4442864895
 30
0.0
 11
210.5356831742
 21
161.4442864895
 31
0.0
  0
LINE
  5
95
  8
0
  6
CONTINUOUS
 62
     7
 10
62.5356831742
 20
166.4442864895
 30
0.0
 11
161.2023498409
 21
166.4442864895
 31
0.0
  0
LINE
  5
96
  8
0
  6
CONTINUOUS
 62
     7
 10
62.5356831742
 20
171.4442864895
 30
0.0
 11
210.5356831742
 21
171.4442864895
 31
0.0
  0
LINE
  5
97
  8
0
  6
CONTINUOUS
 62
     7
 10
62.8245470911
 20
179.4442864895
 30
0.0
 11
210.2468192573
 21
179.4442864895
 31
0.0
  0
LINE
  5
98
  8
0
  6
CONTINUOUS
 62
     7
 10
87.2023498409
 20
156.4442864895
 30
0.0
 11
111.8690165075
 21
156.4442864895
 31
0.0
  0
LINE
  5
99
  8
0
  6
CONTINUOUS
 62
     7
 10
111.8690165075
 20
156.4442864895
 30
0.0
 11
136.5356831742
 21
156.4442864895
 31
0.0
  0
LINE
  5
9A
  8
0
  6
CONTINUOUS
 62
     7
 10
136.5356831742
 20
156.4442864895
 30
0.0
 11
161.2023498409
 21
156.4442864895
 31
0.0
  0
LINE
  5
9B
  8
0
  6
CONTINUOUS
 62
     7
 10
161.2023498409
 20
156.4442864895
 30
0.0
 11
185.8690165075
 21
156.4442864895
 31
0.0
  0
LINE
  5
9C
  8
0
  6
CONTINUOUS
 62
     7
 10
185.8690165075
 20
156.4442864895
 30
0.0
 11
210.5356831742
 21
156.4442864895
 31
0.0
  0
LINE
  5
9D
  8
0
  6
CONTINUOUS
 62
     7
 10
87.2023498409
 20
156.4442864895
 30
0.0
 11
87.2023498409
 21
161.4442864895
 31
0.0
  0
LINE
  5
9E
  8
0
  6
CONTINUOUS
 62
     7
 10
111.8690165075
 20
156.4442864895
 30
0.0
 11
111.8690165075
 21
161.4442864895
 31
0.0
  0
LINE
  5
9F
  8
0
  6
CONTINUOUS
 62
     7
 10
136.5356831742
 20
156.4442864895
 30
0.0
 11
136.5356831742
 21
161.4442864895
 31
0.0
  0
LINE
  5
A0
  8
0
  6
CONTINUOUS
 62
     7
 10
161.2023498409
 20
156.4442864895
 30
0.0
 11
161.2023498409
 21
161.4442864895
 31
0.0
  0
LINE
  5
A1
  8
0
  6
CONTINUOUS
 62
     7
 10
185.8690165075
 20
156.4442864895
 30
0.0
 11
185.8690165075
 21
161.4442864895
 31
0.0
  0
LINE
  5
A2
  8
0
  6
CONTINUOUS
 62
     7
 10
136.5356831742
 20
161.4442864895
 30
0.0
 11
136.5356831742
 21
179.4442864895
 31
0.0
  0
LINE
  5
A3
  8
0
  6
CONTINUOUS
 62
     7
 10
161.2023498409
 20
161.4442864895
 30
0.0
 11
161.2023498409
 21
179.4442864895
 31
0.0
  0
LINE
  5
A4
  8
0
  6
CENTERX2
 62
     7
 10
191.4522115405
 20
179.0813166711
 30
0.0
 11
191.4522115405
 21
172.0813166711
 31
0.0
  0
LINE
  5
A5
  8
0
  6
CENTERX2
 62
     7
 10
187.9522115405
 20
175.5813166711
 30
0.0
 11
194.9522115405
 21
175.5813166711
 31
0.0
  0
LINE
  5
A6
  8
0
  6
CONTINUOUS
 62
     7
 10
198.9688251586
 20
176.8313166711
 30
0.0
 11
198.9688251586
 21
174.3313166711
 31
0.0
  0
LINE
  5
A7
  8
0
  6
CONTINUOUS
 62
     7
 10
198.9688251586
 20
176.8313166711
 30
0.0
 11
204.9688251586
 21
178.5813166711
 31
0.0
  0
LINE
  5
A8
  8
0
  6
CONTINUOUS
 62
     7
 10
204.9688251586
 20
178.5813166711
 30
0.0
 11
204.9688251586
 21
172.5813166711
 31
0.0
  0
LINE
  5
A9
  8
0
  6
CONTINUOUS
 62
     7
 10
204.9688251586
 20
172.5813166711
 30
0.0
 11
198.9688251586
 21
174.3313166711
 31
0.0
  0
LINE
  5
AA
  8
0
  6
CENTERX2
 62
     7
 10
205.941683749
 20
175.5813166711
 30
0.0
 11
197.8813151032
 21
175.5813166711
 31
0.0
  0
LINE
  5
AB
  8
0
  6
CONTINUOUS
 62
     7
 10
161.2023498409
 20
156.4442864895
 30
0.0
 11
161.2023498409
 21
151.4442864895
 31
0.0
  0
LINE
  5
AC
  8
0
  6
CONTINUOUS
 62
     7
 10
185.8690165075
 20
156.4442864895
 30
0.0
 11
185.8690165075
 21
151.4442864895
 31
0.0
  0
TEXT
  5
AD
  8
BLOCK
 62
     7
 10
63.5576398697
 20
184.8123399363
 30
0.0
 40
1.8520833333
  1
Description
 41
0.7
 11
63.5576398697
 21
184.1580728633
 31
0.0
 73
     1
  0
TEXT
  5
AE
  8
BLOCK
 62
     7
 10
63.5514716817
 20
176.8843686002
 30
0.0
 40
1.8520833333
  1
Article nr.
 41
0.7
 11
63.5514716817
 21
176.2301015272
 31
0.0
 73
     1
  0
TEXT
  5
AF
  8
BLOCK
 62
     7
 10
63.5514716817
 20
169.1161588169
 30
0.0
 40
1.8520833333
  1
Material
 41
0.7
 11
63.5514716817
 21
168.4618917439
 31
0.0
 73
     1
  0
TEXT
  5
B0
  8
BLOCK
 62
     7
 10
63.5514716817
 20
164.2307913525
 30
0.0
 40
1.8520833333
  1
Finish
 41
0.7
 11
63.5514716817
 21
163.5765242795
 31
0.0
 73
     1
  0
TEXT
  5
B1
  8
BLOCK
 62
     7
 10
63.5514716817
 20
159.1927191589
 30
0.0
 40
1.8520833333
  1
Drawn by
 41
0.7
 11
63.5514716817
 21
158.5384520858
 31
0.0
 73
     1
  0
TEXT
  5
B2
  8
BLOCK
 62
     7
 10
88.0113040812
 20
159.1927191589
 30
0.0
 40
1.8520833333
  1
Date
 41
0.7
 11
88.0113040812
 21
158.5384520858
 31
0.0
 73
     1
  0
TEXT
  5
B3
  8
BLOCK
 62
     7
 10
112.9654021834
 20
159.3254934295
 30
0.0
 40
1.8520833333
  1
Mod. by
 41
0.7
 11
112.9654021834
 21
158.6712263564
 31
0.0
 73
     1
  0
TEXT
  5
B4
  8
BLOCK
 62
     7
 10
137.4252345829
 20
159.3254934295
 30
0.0
 40
1.8520833333
  1
Date
 41
0.7
 11
137.4252345829
 21
158.6712263564
 31
0.0
 73
     1
  0
TEXT
  5
B5
  8
BLOCK
 62
     7
 10
186.4741557862
 20
159.3254934295
 30
0.0
 40
1.8520833333
  1
Date
 41
0.7
 11
186.4741557862
 21
158.6712263564
 31
0.0
 73
     1
  0
TEXT
  5
B6
  8
BLOCK
 62
     7
 10
161.8645267427
 20
159.3254934295
 30
0.0
 40
1.8520833333
  1
Rel. by
 41
0.7
 11
161.8645267427
 21
158.6712263564
 31
0.0
 73
     1
  0
TEXT
  5
B7
  8
BLOCK
 62
     7
 10
63.5514716817
 20
154.2077359849
 30
0.0
 40
1.8520833333
  1
Remarks
 41
0.7
 11
63.5514716817
 21
153.5534689119
 31
0.0
 73
     1
  0
TEXT
  5
B8
  8
BLOCK
 62
     7
 10
137.4252345829
 20
177.0027654141
 30
0.0
 40
1.8520833333
  1
Revision
 41
0.7
 11
137.4252345829
 21
176.3484983411
 31
0.0
 73
     1
  0
TEXT
  5
B9
  8
BLOCK
 62
     7
 10
137.4252345829
 20
169.236973898
 30
0.0
 40
1.8520833333
  1
Weight
 41
0.7
 11
137.4252345829
 21
168.582706825
 31
0.0
 73
     1
  0
TEXT
  5
BA
  8
BLOCK
 62
     7
 10
137.4252345829
 20
164.2997508115
 30
0.0
 40
1.8520833333
  1
Scale
 41
0.7
 11
137.4252345829
 21
163.6454837385
 31
0.0
 73
     1
  0
TEXT
  5
BB
  8
BLOCK
 62
     7
 10
161.8645267427
 20
177.0027654141
 30
0.0
 40
1.8520833333
  1
Projection
 41
0.7
 11
161.8645267427
 21
176.3484983411
 31
0.0
 73
     1
  0
TEXT
  5
BC
  8
BLOCK
 62
     7
 10
161.8645267427
 20
154.2153377848
 30
0.0
 40
1.8520833333
  1
Page
 41
0.7
 11
161.8645267427
 21
153.5610707118
 31
0.0
 73
     1
  0
TEXT
  5
BD
  8
BLOCK
 62
     7
 10
186.4741557862
 20
154.2153377848
 30
0.0
 40
1.8520833333
  1
Size
 41
0.7
 11
186.4741557862
 21
153.5610707118
 31
0.0
 73
     1
  0
TEXT
  5
BE
  8
BLOCK
 62
     7
 10
161.8645267427
 20
169.236973898
 30
0.0
 40
1.8520833333
  1
Tolerances unless otherwise specified
 41
0.6716216216
 11
161.8645267427
 21
168.582706825
 31
0.0
 73
     1
  0
ATTDEF
  5
BF
  8
BLOCK
 62
     7
 10
124.3379506665
 20
182.3528182885
 30
0.0
 40
3.7041666667
  1
Description
 41
0.7
 11
124.3379506665
 21
181.0442841425
 31
0.0
 73
     1
  3

  2
DESCRIPTION
 70
     0
 74
     1
  0
ATTDEF
  5
C0
  8
BLOCK
 62
     7
 10
78.7253407769
 20
174.4128986916
 30
0.0
 40
3.7041666667
  1
Article Nr.
 41
0.7
 11
78.7253407769
 21
173.1043645456
 31
0.0
 73
     1
  3

  2
ARTICLENR.
 70
     0
 74
     1
  0
ATTDEF
  5
C1
  8
BLOCK
 62
     7
 10
149.8774862028
 20
174.4128986916
 30
0.0
 40
3.7041666667
  1
Rev
 41
0.7
 11
149.8774862028
 21
173.1043645456
 31
0.0
 73
     1
  3

  2
REVISION
 70
     0
 74
     1
  0
ATTDEF
  5
C2
  8
BLOCK
 62
     7
 10
78.7253407769
 20
168.1397842609
 30
0.0
 40
2.38125
  1
Material
 41
0.7
 11
78.7253407769
 21
167.2985837385
 31
0.0
 73
     1
  3

  2
MATERIAL
 70
     0
 74
     1
  0
ATTDEF
  5
C3
  8
BLOCK
 62
     7
 10
78.7253407769
 20
163.1397842609
 30
0.0
 40
2.38125
  1
Finish
 41
0.7
 11
78.7253407769
 21
162.2985837385
 31
0.0
 73
     1
  3

  2
FINISH
 70
     0
 74
     1
  0
ATTDEF
  5
C4
  8
BLOCK
 62
     7
 10
74.5596224449
 20
157.714038091
 30
0.0
 40
2.1166666667
  1
DrawnBy
 41
0.7
 11
74.5596224449
 21
156.9663042933
 31
0.0
 73
     1
  3

  2
DRAWNBY
 70
     0
 74
     1
  0
ATTDEF
  5
C5
  8
BLOCK
 62
     7
 10
95.5116786932
 20
157.714038091
 30
0.0
 40
2.1166666667
  1
DrawnDate
 41
0.7
 11
95.5116786932
 21
156.9663042933
 31
0.0
 73
     1
  3

  2
DRAWNDATE
 70
     0
 74
     1
  0
ATTDEF
  5
C6
  8
BLOCK
 62
     7
 10
146.9579813319
 20
157.555078016
 30
0.0
 40
2.1166666667
  1
Mod.Date
 41
0.7
 11
146.9579813319
 21
156.8073442183
 31
0.0
 73
     1
  3

  2
MODDATE
 70
     0
 74
     1
  0
ATTDEF
  5
C7
  8
BLOCK
 62
     7
 10
125.8396174566
 20
157.5496584351
 30
0.0
 40
2.1166666667
  1
Mod.By
 41
0.7
 11
125.8396174566
 21
156.8019246373
 31
0.0
 73
     1
  3

  2
MODBY
 70
     0
 74
     1
  0
ATTDEF
  5
C8
  8
BLOCK
 62
     7
 10
198.2363277113
 20
157.555078016
 30
0.0
 40
2.1166666667
  1
Rel.Date
 41
0.7
 11
198.2363277113
 21
156.8073442183
 31
0.0
 73
     1
  3

  2
RELDATE
 70
     0
 74
     1
  0
ATTDEF
  5
C9
  8
BLOCK
 62
     7
 10
177.1179638359
 20
157.555078016
 30
0.0
 40
2.1166666667
  1
Rel.By
 41
0.7
 11
177.1179638359
 21
156.8073442183
 31
0.0
 73
     1
  3

  2
RELBY
 70
     0
 74
     1
  0
ATTDEF
  5
CA
  8
BLOCK
 62
     7
 10
180.7790129002
 20
152.4812725583
 30
0.0
 40
2.1166666667
  1
2/2
 41
0.7
 11
180.7790129002
 21
151.7335387605
 31
0.0
 73
     1
  3

  2
AUTOATTR1
 70
     0
 74
     1
  0
ATTDEF
  5
CB
  8
BLOCK
 62
     7
 10
198.4242550543
 20
152.4812726165
 30
0.0
 40
2.1166666667
  1
Format
 41
0.7
 11
198.4242550543
 21
151.7335388187
 31
0.0
 73
     1
  3

  2
FORMAT
 70
     0
 74
     1
  0
ATTDEF
  5
CC
  8
BLOCK
 62
     7
 10
78.7253407769
 20
153.1346813667
 30
0.0
 40
2.38125
  1
Finish
 41
0.7
 11
78.7253407769
 21
152.2934808442
 31
0.0
 73
     1
  3

  2
REMARK
 70
     0
 74
     1
  0
ATTDEF
  5
CD
  8
BLOCK
 62
     7
 10
167.6729490394
 20
164.3153124029
 30
0.0
 40
2.1166666667
  1
Angle Tol
 41
0.7
 11
167.6729490394
 21
163.5675786051
 31
0.0
 73
     1
  3

  2
ANGLETOL
 70
     0
 74
     1
  0
ATTDEF
  5
CE
  8
BLOCK
 62
     7
 10
193.6694406713
 20
164.1524933923
 30
0.0
 40
2.1166666667
  1
Dim Tol
 41
0.7
 11
193.6694406713
 21
163.4047595946
 31
0.0
 73
     1
  3

  2
DIMTOL
 70
     0
 74
     1
  0
ATTDEF
  5
CF
  8
BLOCK_0_4MM
 62
     7
 10
149.244200989
 20
163.1502406384
 30
0.0
 40
2.5
  1
1:1
 41
0.7
 11
149.244200989
 21
162.2670904836
 31
0.0
 73
     1
  3

  2
AUTOATTR2
 70
     0
 74
     1
  0
ATTDEF
  5
D0
  8
BLOCK_0_4MM
 62
     7
 10
147.6055122229
 20
168.1502406384
 30
0.0
 40
2.5
  1
0.1424 g
 41
0.7
 11
147.6055122229
 21
167.2670904836
 31
0.0
 73
     1
  3

  2
AUTOATTR3
 70
     0
 74
     1
  0
ENDBLK
  5
8E
  8
0
  0
BLOCK
  8
0
  2
SW_NOTE_0
 70
     0
 10
0.0
 20
0.0
 30
0.0
  3
SW_NOTE_0
  1

  0
TEXT
  5
F4
  8
0
  6
CONTINUOUS
 62
     0
 10
0.0
 20
0.6358681115
 30
0.0
 40
1.8
  1
Utrechtsestraatweg 220
 41
0.7
 11
0.0
 21
0.0
 31
0.0
 73
     1
  0
TEXT
  5
F5
  8
0
  6
CONTINUOUS
 62
     0
 10
0.0
 20
-2.1641317887
 30
0.0
 40
1.8
  1
NL-3911 TX Rhenen
 41
0.6588235294
 11
0.0
 21
-2.7999999002
 31
0.0
 73
     1
  0
TEXT
  5
F6
  8
0
  6
CONTINUOUS
 62
     0
 10
0.0
 20
-7.764131589
 30
0.0
 40
1.8
  1
P.O. Box 128
 41
0.6416666667
 11
0.0
 21
-8.3999997005
 31
0.0
 73
     1
  0
TEXT
  5
F7
  8
0
  6
CONTINUOUS
 62
     0
 10
0.0
 20
-10.5641314892
 30
0.0
 40
1.8
  1
NL-3910 AC Rhenen
 41
0.6588235294
 11
0.0
 21
-11.1999996006
 31
0.0
 73
     1
  0
TEXT
  5
F8
  8
0
  6
CONTINUOUS
 62
     0
 10
0.0
 20
-13.3641313894
 30
0.0
 40
1.8
  1
The Netherlands
 41
0.7
 11
0.0
 21
-13.9999995008
 31
0.0
 73
     1
  0
TEXT
  5
F9
  8
0
  6
CONTINUOUS
 62
     0
 10
0.0
 20
-16.1641312895
 30
0.0
 40
1.8
  1
www.vanleeuwenint.nl
 41
0.7
 11
0.0
 21
-16.799999401
 31
0.0
 73
     1
  0
ENDBLK
  5
F3
  8
0
  0
BLOCK
  8
0
  2
*D4
 70
     1
 10
0.0
 20
0.0
 30
0.0
  3
*D4
  1

  0
SOLID
  5
110
  8
BLOCK_0_4MM
 62
     7
 10
95.6837502747
 20
268.5524765973
 30
0.0
 11
98.9857502747
 21
268.0444765973
 31
0.0
 12
98.9857502747
 22
269.0604765973
 32
0.0
 13
98.9857502747
 23
269.0604765973
 33
0.0
  0
SOLID
  5
111
  8
BLOCK_0_4MM
 62
     7
 10
135.6837502747
 20
268.5524765973
 30
0.0
 11
132.3817502747
 21
269.0604765973
 31
0.0
 12
132.3817502747
 22
268.0444765973
 32
0.0
 13
132.3817502747
 23
268.0444765973
 33
0.0
  0
LINE
  5
112
  8
BLOCK_0_4MM
 62
     7
 10
95.6837502747
 20
239.5524765973
 30
0.0
 11
95.6837502747
 21
269.5524765973
 31
0.0
  0
LINE
  5
113
  8
BLOCK_0_4MM
 62
     7
 10
135.6837502747
 20
239.5524765973
 30
0.0
 11
135.6837502747
 21
269.5524765973
 31
0.0
  0
LINE
  5
114
  8
BLOCK_0_4MM
 62
     7
 10
95.6837502747
 20
268.5524765973
 30
0.0
 11
135.6837502747
 21
268.5524765973
 31
0.0
  0
TEXT
  5
115
  8
BLOCK_0_4MM
 62
     7
 10
112.6557409551
 20
269.4871437863
 30
1.9
 40
2.6458333333
  1
40
 50
0.0
 41
0.7
 11
112.6557409551
 21
268.5524765391
 31
1.9
 73
     1
  0
ENDBLK
  5
10F
  8
0
  0
BLOCK
  8
0
  2
*D5
 70
     1
 10
0.0
 20
0.0
 30
0.0
  3
*D5
  1

  0
SOLID
  5
11A
  8
BLOCK_0_4MM
 62
     7
 10
79.6837502747
 20
258.5524765973
 30
0.0
 11
79.1757502747
 21
255.2504765973
 31
0.0
 12
80.1917502747
 22
255.2504765973
 32
0.0
 13
80.1917502747
 23
255.2504765973
 33
0.0
  0
SOLID
  5
11B
  8
BLOCK_0_4MM
 62
     7
 10
79.6837502747
 20
23.5524765973
 30
0.0
 11
80.1917502747
 21
26.8544765973
 31
0.0
 12
79.1757502747
 22
26.8544765973
 32
0.0
 13
79.1757502747
 23
26.8544765973
 33
0.0
  0
LINE
  5
11C
  8
BLOCK_0_4MM
 62
     7
 10
114.6837502747
 20
258.5524765973
 30
0.0
 11
78.6837502747
 21
258.5524765973
 31
0.0
  0
LINE
  5
11D
  8
BLOCK_0_4MM
 62
     7
 10
114.6837502747
 20
23.5524765973
 30
0.0
 11
78.6837502747
 21
23.5524765973
 31
0.0
  0
LINE
  5
11E
  8
BLOCK_0_4MM
 62
     7
 10
79.6837502747
 20
258.5524765973
 30
0.0
 11
79.6837502747
 21
23.5524765973
 31
0.0
  0
TEXT
  5
11F
  8
BLOCK_0_4MM
 62
     7
 10
78.7490830858
 20
137.0469788101
 30
1.9
 40
2.6458333333
  1
235
 50
90.0
 41
0.7
 11
79.6837503329
 21
137.0469788101
 31
1.9
 73
     1
  0
ENDBLK
  5
119
  8
0
  0
BLOCK
  8
0
  2
*D6
 70
     1
 10
0.0
 20
0.0
 30
0.0
  3
*D6
  1

  0
SOLID
  5
124
  8
BLOCK_0_4MM
 62
     7
 10
88.64678827
 20
173.5524765973
 30
0.0
 11
89.15478827
 21
176.8544765973
 31
0.0
 12
88.13878827
 22
176.8544765973
 32
0.0
 13
88.13878827
 23
176.8544765973
 33
0.0
  0
SOLID
  5
125
  8
BLOCK_0_4MM
 62
     7
 10
88.64678827
 20
245.0524765973
 30
0.0
 11
88.13878827
 21
241.7504765973
 31
0.0
 12
89.15478827
 22
241.7504765973
 32
0.0
 13
89.15478827
 23
241.7504765973
 33
0.0
  0
LINE
  5
126
  8
BLOCK_0_4MM
 62
     7
 10
104.1837502747
 20
173.5524765973
 30
0.0
 11
87.64678827
 21
173.5524765973
 31
0.0
  0
LINE
  5
127
  8
BLOCK_0_4MM
 62
     7
 10
104.6837502747
 20
245.0524765973
 30
0.0
 11
87.64678827
 21
245.0524765973
 31
0.0
  0
LINE
  5
128
  8
BLOCK_0_4MM
 62
     7
 10
88.64678827
 20
173.5524765973
 30
0.0
 11
88.64678827
 21
245.0524765973
 31
0.0
  0
TEXT
  5
129
  8
BLOCK_0_4MM
 62
     7
 10
87.712121081
 20
204.809459382
 30
1.9
 40
2.6458333333
  1
71,5
 50
90.0
 41
0.7
 11
88.6467883282
 21
204.809459382
 31
1.9
 73
     1
  0
ENDBLK
  5
123
  8
0
  0
BLOCK
  8
0
  2
*D7
 70
     1
 10
0.0
 20
0.0
 30
0.0
  3
*D7
  1

  0
SOLID
  5
12E
  8
BLOCK_0_4MM
 62
     7
 10
88.64678827
 20
37.0524765973
 30
0.0
 11
89.15478827
 21
40.3544765973
 31
0.0
 12
88.13878827
 22
40.3544765973
 32
0.0
 13
88.13878827
 23
40.3544765973
 33
0.0
  0
SOLID
  5
12F
  8
BLOCK_0_4MM
 62
     7
 10
88.64678827
 20
173.5524765973
 30
0.0
 11
88.13878827
 21
170.2504765973
 31
0.0
 12
89.15478827
 22
170.2504765973
 32
0.0
 13
89.15478827
 23
170.2504765973
 33
0.0
  0
LINE
  5
130
  8
BLOCK_0_4MM
 62
     7
 10
104.6837502747
 20
37.0524765973
 30
0.0
 11
87.64678827
 21
37.0524765973
 31
0.0
  0
LINE
  5
131
  8
BLOCK_0_4MM
 62
     7
 10
104.1837502747
 20
173.5524765973
 30
0.0
 11
87.64678827
 21
173.5524765973
 31
0.0
  0
LINE
  5
132
  8
BLOCK_0_4MM
 62
     7
 10
88.64678827
 20
37.0524765973
 30
0.0
 11
88.64678827
 21
173.5524765973
 31
0.0
  0
TEXT
  5
133
  8
BLOCK_0_4MM
 62
     7
 10
87.712121081
 20
99.8319706817
 30
1.9
 40
2.6458333333
  1
136,5
 50
90.0
 41
0.7
 11
88.6467883282
 21
99.8319706817
 31
1.9
 73
     1
  0
ENDBLK
  5
12D
  8
0
  0
BLOCK
  8
0
  2
*D8
 70
     1
 10
0.0
 20
0.0
 30
0.0
  3
*D8
  1

  0
SOLID
  5
138
  8
BLOCK_0_4MM
 62
     7
 10
105.6837502747
 20
263.1678376994
 30
0.0
 11
108.9857502747
 21
262.6598376994
 31
0.0
 12
108.9857502747
 22
263.6758376994
 32
0.0
 13
108.9857502747
 23
263.6758376994
 33
0.0
  0
SOLID
  5
139
  8
BLOCK_0_4MM
 62
     7
 10
125.6837502747
 20
263.1678376994
 30
0.0
 11
122.3817502747
 21
263.6758376994
 31
0.0
 12
122.3817502747
 22
262.6598376994
 32
0.0
 13
122.3817502747
 23
262.6598376994
 33
0.0
  0
LINE
  5
13A
  8
BLOCK_0_4MM
 62
     7
 10
105.6837502747
 20
246.0524765973
 30
0.0
 11
105.6837502747
 21
264.1678376994
 31
0.0
  0
LINE
  5
13B
  8
BLOCK_0_4MM
 62
     7
 10
125.6837502747
 20
246.0524765973
 30
0.0
 11
125.6837502747
 21
264.1678376994
 31
0.0
  0
LINE
  5
13C
  8
BLOCK_0_4MM
 62
     7
 10
105.6837502747
 20
263.1678376994
 30
0.0
 11
125.6837502747
 21
263.1678376994
 31
0.0
  0
TEXT
  5
13D
  8
BLOCK_0_4MM
 62
     7
 10
112.6557409551
 20
264.1025048884
 30
1.9
 40
2.6458333333
  1
20
 41
0.7
 11
112.6557409551
 21
263.1678376412
 31
1.9
 73
     1
  0
ENDBLK
  5
137
  8
0
  0
BLOCK
  8
0
  2
_NONE
 70
     0
 10
0.0
 20
0.0
 30
0.0
  3
_NONE
  1

  0
ENDBLK
  5
142
  8
0
  0
BLOCK
  8
0
  2
*D10
 70
     1
 10
0.0
 20
0.0
 30
0.0
  3
*D10
  1

  0
SOLID
  5
146
  8
BLOCK_0_4MM
 10
128.5121773995
 20
247.880903722
 30
0.0
 11
131.2062542358
 21
249.8565600687
 31
0.0
 12
130.4878337461
 22
250.5749805584
 32
0.0
 13
130.4878337461
 23
250.5749805584
 33
0.0
  0
LINE
  5
147
  8
BLOCK_0_4MM
 10
128.5121773995
 20
247.880903722
 30
0.0
 11
137.190797222
 21
256.5595235445
 31
0.0
  0
LINE
  5
148
  8
BLOCK_0_4MM
 10
122.85532315
 20
242.2240494726
 30
0.0
 11
128.5121773995
 21
247.880903722
 31
0.0
  0
LINE
  5
149
  8
BLOCK_0_4MM
 10
137.190797222
 20
256.5595235445
 30
0.0
 11
162.26594708
 21
256.5595235445
 31
0.0
  0
TEXT
  5
14A
  8
BLOCK_0_4MM
 10
143.7725517813
 20
261.6981258873
 30
1.9
 40
2.6458333333
  1
4 x 
 41
0.525
 11
143.7725517813
 21
260.7634586401
 31
1.9
 73
     1
  0
TEXT
  5
14B
  8
BLOCK_0_4MM
 10
149.3728989649
 20
261.6981259455
 30
1.9
 40
2.6458333333
  1
%%c
 41
0.7
 11
149.3728989649
 21
260.7634586983
 31
1.9
 73
     1
  0
TEXT
  5
14C
  8
BLOCK_0_4MM
 10
153.3666374076
 20
261.6981258873
 30
1.9
 40
2.6458333333
  1
 5 
 41
0.4666666667
 11
153.3666374076
 21
260.7634586401
 31
1.9
 73
     1
  0
INSERT
  5
152
  8
BLOCK_0_4MM
  2
SW_SYMBOL_HOLE_SINK
 10
138.778297222
 20
256.9264262138
 30
0.0
 41
0.0033796387
 42
0.0033796387
 43
0.0033796387
  0
TEXT
  5
153
  8
BLOCK_0_4MM
 10
145.9249872628
 20
257.4941907917
 30
1.9
 40
2.6458333333
  1
%%c
 41
0.7
 11
145.9249872628
 21
256.5595235445
 31
1.9
 73
     1
  0
TEXT
  5
154
  8
BLOCK_0_4MM
 10
149.9187257055
 20
257.4941907335
 30
1.9
 40
2.6458333333
  1
 8 X 90°
 41
0.56875
 11
149.9187257055
 21
256.5595234863
 31
1.9
 73
     1
  0
ENDBLK
  5
145
  8
0
  0
BLOCK
  8
0
  2
SW_SYMBOL_HOLE_SINK
 70
     0
 10
0.0
 20
0.0
 30
0.0
  3
SW_SYMBOL_HOLE_SINK
  1

  0
LINE
  5
150
  8
BLOCK_0_4MM
 62
     0
 10
0.0
 20
875.0
 30
0.0
 11
800.0
 21
75.0
 31
0.0
  0
LINE
  5
151
  8
BLOCK_0_4MM
 62
     0
 10
800.0
 20
75.0
 30
0.0
 11
1600.0
 21
875.0
 31
0.0
  0
ENDBLK
  5
14F
  8
0
  0
BLOCK
  8
0
  2
SW_CENTERMARKSYMBOL_0
 70
     0
 10
0.0
 20
0.0
 30
0.0
  3
SW_CENTERMARKSYMBOL_0
  1

  0
LINE
  5
158
  8
BLOCK_0_4MM
 62
     0
 10
0.0
 20
0.0
 30
0.0
 11
0.0
 21
2.5
 31
0.0
  0
LINE
  5
159
  8
BLOCK_0_4MM
 62
     0
 10
0.0
 20
0.0
 30
0.0
 11
-2.5
 21
0.0
 31
0.0
  0
LINE
  5
15A
  8
BLOCK_0_4MM
 62
     0
 10
0.0
 20
0.0
 30
0.0
 11
0.0
 21
-2.5
 31
0.0
  0
LINE
  5
15B
  8
BLOCK_0_4MM
 62
     0
 10
0.0
 20
0.0
 30
0.0
 11
2.5
 21
0.0
 31
0.0
  0
LINE
  5
15C
  8
BLOCK_0_4MM
 62
     0
 10
0.0
 20
2.5
 30
0.0
 11
0.0
 21
5.0
 31
0.0
  0
LINE
  5
15D
  8
BLOCK_0_4MM
 62
     0
 10
-2.5
 20
0.0
 30
0.0
 11
-5.0
 21
0.0
 31
0.0
  0
LINE
  5
15E
  8
BLOCK_0_4MM
 62
     0
 10
0.0
 20
-2.5
 30
0.0
 11
0.0
 21
-5.0
 31
0.0
  0
LINE
  5
15F
  8
BLOCK_0_4MM
 62
     0
 10
2.5
 20
0.0
 30
0.0
 11
5.0
 21
0.0
 31
0.0
  0
ENDBLK
  5
157
  8
0
  0
BLOCK
  8
0
  2
SW_CENTERMARKSYMBOL_1
 70
     0
 10
0.0
 20
0.0
 30
0.0
  3
SW_CENTERMARKSYMBOL_1
  1

  0
LINE
  5
164
  8
BLOCK_0_4MM
 62
     0
 10
0.0
 20
0.0
 30
0.0
 11
0.0
 21
2.5
 31
0.0
  0
LINE
  5
165
  8
BLOCK_0_4MM
 62
     0
 10
0.0
 20
0.0
 30
0.0
 11
-2.5
 21
0.0
 31
0.0
  0
LINE
  5
166
  8
BLOCK_0_4MM
 62
     0
 10
0.0
 20
0.0
 30
0.0
 11
0.0
 21
-2.5
 31
0.0
  0
LINE
  5
167
  8
BLOCK_0_4MM
 62
     0
 10
0.0
 20
0.0
 30
0.0
 11
2.5
 21
0.0
 31
0.0
  0
LINE
  5
168
  8
BLOCK_0_4MM
 62
     0
 10
0.0
 20
2.5
 30
0.0
 11
0.0
 21
5.0
 31
0.0
  0
LINE
  5
169
  8
BLOCK_0_4MM
 62
     0
 10
-2.5
 20
0.0
 30
0.0
 11
-5.0
 21
0.0
 31
0.0
  0
LINE
  5
16A
  8
BLOCK_0_4MM
 62
     0
 10
0.0
 20
-2.5
 30
0.0
 11
0.0
 21
-5.0
 31
0.0
  0
LINE
  5
16B
  8
BLOCK_0_4MM
 62
     0
 10
2.5
 20
0.0
 30
0.0
 11
5.0
 21
0.0
 31
0.0
  0
ENDBLK
  5
163
  8
0
  0
BLOCK
  8
0
  2
SW_CENTERMARKSYMBOL_2
 70
     0
 10
0.0
 20
0.0
 30
0.0
  3
SW_CENTERMARKSYMBOL_2
  1

  0
LINE
  5
170
  8
BLOCK_0_4MM
 62
     0
 10
0.0
 20
0.0
 30
0.0
 11
0.0
 21
2.5
 31
0.0
  0
LINE
  5
171
  8
BLOCK_0_4MM
 62
     0
 10
0.0
 20
0.0
 30
0.0
 11
-2.5
 21
0.0
 31
0.0
  0
LINE
  5
172
  8
BLOCK_0_4MM
 62
     0
 10
0.0
 20
0.0
 30
0.0
 11
0.0
 21
-2.5
 31
0.0
  0
LINE
  5
173
  8
BLOCK_0_4MM
 62
     0
 10
0.0
 20
0.0
 30
0.0
 11
2.5
 21
0.0
 31
0.0
  0
LINE
  5
174
  8
BLOCK_0_4MM
 62
     0
 10
0.0
 20
2.5
 30
0.0
 11
0.0
 21
5.0
 31
0.0
  0
LINE
  5
175
  8
BLOCK_0_4MM
 62
     0
 10
-2.5
 20
0.0
 30
0.0
 11
-5.0
 21
0.0
 31
0.0
  0
LINE
  5
176
  8
BLOCK_0_4MM
 62
     0
 10
0.0
 20
-2.5
 30
0.0
 11
0.0
 21
-5.0
 31
0.0
  0
LINE
  5
177
  8
BLOCK_0_4MM
 62
     0
 10
2.5
 20
0.0
 30
0.0
 11
5.0
 21
0.0
 31
0.0
  0
ENDBLK
  5
16F
  8
0
  0
BLOCK
  8
0
  2
SW_CENTERMARKSYMBOL_3
 70
     0
 10
0.0
 20
0.0
 30
0.0
  3
SW_CENTERMARKSYMBOL_3
  1

  0
LINE
  5
17C
  8
BLOCK_0_4MM
 62
     0
 10
0.0
 20
0.0
 30
0.0
 11
0.0
 21
2.5
 31
0.0
  0
LINE
  5
17D
  8
BLOCK_0_4MM
 62
     0
 10
0.0
 20
0.0
 30
0.0
 11
-2.5
 21
0.0
 31
0.0
  0
LINE
  5
17E
  8
BLOCK_0_4MM
 62
     0
 10
0.0
 20
0.0
 30
0.0
 11
0.0
 21
-2.5
 31
0.0
  0
LINE
  5
17F
  8
BLOCK_0_4MM
 62
     0
 10
0.0
 20
0.0
 30
0.0
 11
2.5
 21
0.0
 31
0.0
  0
LINE
  5
180
  8
BLOCK_0_4MM
 62
     0
 10
0.0
 20
2.5
 30
0.0
 11
0.0
 21
5.0
 31
0.0
  0
LINE
  5
181
  8
BLOCK_0_4MM
 62
     0
 10
-2.5
 20
0.0
 30
0.0
 11
-5.0
 21
0.0
 31
0.0
  0
LINE
  5
182
  8
BLOCK_0_4MM
 62
     0
 10
0.0
 20
-2.5
 30
0.0
 11
0.0
 21
-5.0
 31
0.0
  0
LINE
  5
183
  8
BLOCK_0_4MM
 62
     0
 10
2.5
 20
0.0
 30
0.0
 11
5.0
 21
0.0
 31
0.0
  0
ENDBLK
  5
17B
  8
0
  0
BLOCK
  8
0
  2
SW_CENTERMARKSYMBOL_4
 70
     0
 10
0.0
 20
0.0
 30
0.0
  3
SW_CENTERMARKSYMBOL_4
  1

  0
LINE
  5
188
  8
BLOCK_0_4MM
 62
     0
 10
0.0
 20
0.0
 30
0.0
 11
0.0
 21
2.5
 31
0.0
  0
LINE
  5
189
  8
BLOCK_0_4MM
 62
     0
 10
0.0
 20
0.0
 30
0.0
 11
-2.5
 21
0.0
 31
0.0
  0
LINE
  5
18A
  8
BLOCK_0_4MM
 62
     0
 10
0.0
 20
0.0
 30
0.0
 11
0.0
 21
-2.5
 31
0.0
  0
LINE
  5
18B
  8
BLOCK_0_4MM
 62
     0
 10
0.0
 20
0.0
 30
0.0
 11
2.5
 21
0.0
 31
0.0
  0
LINE
  5
18C
  8
BLOCK_0_4MM
 62
     0
 10
0.0
 20
5.0
 30
0.0
 11
0.0
 21
10.5
 31
0.0
  0
LINE
  5
18D
  8
BLOCK_0_4MM
 62
     0
 10
-5.0
 20
0.0
 30
0.0
 11
-10.5
 21
0.0
 31
0.0
  0
LINE
  5
18E
  8
BLOCK_0_4MM
 62
     0
 10
0.0
 20
-5.0
 30
0.0
 11
0.0
 21
-10.5
 31
0.0
  0
LINE
  5
18F
  8
BLOCK_0_4MM
 62
     0
 10
5.0
 20
0.0
 30
0.0
 11
10.5
 21
0.0
 31
0.0
  0
ENDBLK
  5
187
  8
0
  0
BLOCK
  8
0
  2
*D17
 70
     1
 10
0.0
 20
0.0
 30
0.0
  3
*D17
  1

  0
SOLID
  5
1C0
  8
BLOCK_0_4MM
 62
     7
 10
181.3282108544
 20
263.4379911299
 30
0.0
 11
184.6302108544
 21
262.9299911299
 31
0.0
 12
184.6302108544
 22
263.9459911299
 32
0.0
 13
184.6302108544
 23
263.9459911299
 33
0.0
  0
SOLID
  5
1C1
  8
BLOCK_0_4MM
 62
     7
 10
179.3282108544
 20
263.4379911299
 30
0.0
 11
176.0262108544
 21
263.9459911299
 31
0.0
 12
176.0262108544
 22
262.9299911299
 32
0.0
 13
176.0262108544
 23
262.9299911299
 33
0.0
  0
LINE
  5
1C2
  8
BLOCK_0_4MM
 62
     7
 10
181.3282108544
 20
259.5524765973
 30
0.0
 11
181.3282108544
 21
264.4379911299
 31
0.0
  0
LINE
  5
1C3
  8
BLOCK_0_4MM
 62
     7
 10
179.3282108544
 20
259.5524765973
 30
0.0
 11
179.3282108544
 21
264.4379911299
 31
0.0
  0
LINE
  5
1C4
  8
BLOCK_0_4MM
 62
     7
 10
181.3282108544
 20
263.4379911299
 30
0.0
 11
187.6782108544
 21
263.4379911299
 31
0.0
  0
LINE
  5
1C5
  8
BLOCK_0_4MM
 62
     7
 10
181.3282108544
 20
263.4379911299
 30
0.0
 11
179.3282108544
 21
263.4379911299
 31
0.0
  0
LINE
  5
1C6
  8
BLOCK_0_4MM
 62
     7
 10
179.3282108544
 20
263.4379911299
 30
0.0
 11
171.4801356079
 21
263.4379911299
 31
0.0
  0
TEXT
  5
1C7
  8
BLOCK_0_4MM
 62
     7
 10
171.4801356079
 20
264.3726583188
 30
0.0
 40
2.6458333333
  1
2
 50
0.0
 41
0.7
 11
171.4801356079
 21
263.4379910717
 31
0.0
 73
     1
  0
ENDBLK
  5
1BF
  8
0
  0
BLOCK
  8
0
  2
*D18
 70
     1
 10
0.0
 20
0.0
 30
0.0
  3
*D18
  1

  0
SOLID
  5
1CC
  8
BLOCK_0_4MM
 62
     7
 10
187.1282108544
 20
174.4013671719
 30
0.0
 11
190.4302108544
 21
173.8933671719
 31
0.0
 12
190.4302108544
 22
174.9093671719
 32
0.0
 13
190.4302108544
 23
174.9093671719
 33
0.0
  0
SOLID
  5
1CD
  8
BLOCK_0_4MM
 62
     7
 10
179.3282108544
 20
174.4013671719
 30
0.0
 11
176.0262108544
 21
174.9093671719
 31
0.0
 12
176.0262108544
 22
173.8933671719
 32
0.0
 13
176.0262108544
 23
173.8933671719
 33
0.0
  0
LINE
  5
1CE
  8
BLOCK_0_4MM
 62
     7
 10
187.1282108544
 20
174.4013671719
 30
0.0
 11
197.9293206453
 21
174.4013671719
 31
0.0
  0
LINE
  5
1CF
  8
BLOCK_0_4MM
 62
     7
 10
187.1282108544
 20
174.4013671719
 30
0.0
 11
179.3282108544
 21
174.4013671719
 31
0.0
  0
LINE
  5
1D0
  8
BLOCK_0_4MM
 62
     7
 10
179.3282108544
 20
174.4013671719
 30
0.0
 11
172.9782108544
 21
174.4013671719
 31
0.0
  0
TEXT
  5
1D1
  8
BLOCK_0_4MM
 62
     7
 10
190.8982631497
 20
175.3360343609
 30
0.0
 40
2.6458333333
  1
7,8
 50
0.0
 41
0.7
 11
190.8982631497
 21
174.4013671137
 31
0.0
 73
     1
  0
ENDBLK
  5
1CB
  8
0
  0
ENDSEC
  0
SECTION
  2
ENTITIES
  0
LINE
  5
D2
  8
BLOCK_0_4MM
 62
     7
 10
8.0
 20
292.0
 30
0.0
 11
409.0
 21
292.0
 31
0.0
  0
LINE
  5
D3
  8
BLOCK_0_4MM
 62
     7
 10
219.0
 20
44.0
 30
0.0
 11
219.0
 21
8.0
 31
0.0
  0
LINE
  5
D4
  8
BLOCK_0_4MM
 62
     7
 10
8.0
 20
8.0
 30
0.0
 11
409.0
 21
8.0
 31
0.0
  0
LINE
  5
D5
  8
BLOCK_0_4MM
 62
     7
 10
412.0
 20
289.0
 30
0.0
 11
412.0
 21
11.0
 31
0.0
  0
LINE
  5
D6
  8
BLOCK_0_4MM
 62
     7
 10
219.0
 20
44.0
 30
0.0
 11
412.0
 21
44.0
 31
0.0
  0
LINE
  5
D7
  8
BLOCK_0_4MM
 62
     7
 10
264.0
 20
44.0
 30
0.0
 11
264.0
 21
8.0
 31
0.0
  0
LINE
  5
D8
  8
BLOCK_0_4MM
 62
     7
 10
5.0
 20
289.0
 30
0.0
 11
5.0
 21
11.0
 31
0.0
  0
ARC
  5
D9
  8
BLOCK_0_4MM
 62
     7
 10
409.0
 20
289.0
 30
0.0
 40
3.0
 50
0.0
 51
90.0
  0
ARC
  5
DA
  8
BLOCK_0_4MM
 62
     7
 10
8.0
 20
11.0
 30
0.0
 40
3.000000000000007
 50
180.0
 51
270.0
  0
ARC
  5
DB
  8
BLOCK_0_4MM
 62
     7
 10
8.0
 20
289.0
 30
0.0
 40
3.0
 50
90.0
 51
180.0
  0
ARC
  5
DC
  8
BLOCK_0_4MM
 62
     7
 10
409.0
 20
11.0
 30
0.0
 40
3.0
 50
270.0
 51
0.0
  0
INSERT
  5
DD
  8
BLOCK_0_4MM
 66
     1
  2
TEMPLATE_BLOCK_23-08-2011_
 10
201.4643168258
 20
-143.4442864895
 30
0.0
  0
ATTRIB
  5
DE
  8
0
  6
CONTINUOUS
 62
     7
 10
318.9324102928
 20
38.9085319155
 30
0.0
 40
3.7041666667
  1
schild  immer AG
 41
0.634375
 11
318.9324102928
 21
37.5999977694
 31
0.0
 73
     1
  2
DESCRIPTION
 70
     0
 74
     1
  0
ATTRIB
  5
DF
  8
0
  6
CONTINUOUS
 62
     7
 10
280.1896576027
 20
30.9686123186
 30
0.0
 40
3.7041666667
  1
schild  immer AG
 41
0.634375
 11
280.1896576027
 21
29.6600781725
 31
0.0
 73
     1
  2
ARTICLENR.
 70
     0
 74
     1
  0
ATTRIB
  5
E0
  8
0
  6
CONTINUOUS
 62
     7
 10
360.9080132684
 20
30.9686122021
 30
0.0
 40
3.7041666667
  1

 41
0.7
 11
360.9080132684
 21
29.6600780561
 31
0.0
 73
     1
  2
REVISION
 70
     0
 74
     1
  0
ATTRIB
  5
E1
  8
0
  6
CONTINUOUS
 62
     7
 10
280.1896576027
 20
24.6954978879
 30
0.0
 40
2.38125
  1
Stainless Steel 304 brushed (..35)
 41
0.6588235294
 11
280.1896576027
 21
23.8542973654
 31
0.0
 73
     1
  2
MATERIAL
 70
     0
 74
     1
  0
ATTRIB
  5
E2
  8
0
  6
CONTINUOUS
 62
     7
 10
280.1896576027
 20
19.6954977715
 30
0.0
 40
2.38125
  1

 41
0.7
 11
280.1896576027
 21
18.854297249
 31
0.0
 73
     1
  2
FINISH
 70
     0
 74
     1
  0
ATTRIB
  5
E3
  8
0
  6
CONTINUOUS
 62
     7
 10
280.6296497772
 20
14.2697515433
 30
0.0
 40
2.1166666667
  1
EvdG
 41
0.7
 11
280.6296497772
 21
13.5220177456
 31
0.0
 73
     1
  2
DRAWNBY
 70
     0
 74
     1
  0
ATTRIB
  5
E4
  8
0
  6
CONTINUOUS
 62
     7
 10
298.355748982
 20
14.2697515433
 30
0.0
 40
2.1166666667
  1
27-04-2012
 41
0.7
 11
298.355748982
 21
13.5220177456
 31
0.0
 73
     1
  2
DRAWNDATE
 70
     0
 74
     1
  0
ATTRIB
  5
E5
  8
0
  6
CONTINUOUS
 62
     7
 10
362.7510440354
 20
14.1107915265
 30
0.0
 40
2.1166666667
  1

 41
0.7
 11
362.7510440354
 21
13.3630577288
 31
0.0
 73
     1
  2
MODDATE
 70
     0
 74
     1
  0
ATTRIB
  5
E6
  8
0
  6
CONTINUOUS
 62
     7
 10
337.9432375068
 20
14.1053719456
 30
0.0
 40
2.1166666667
  1

 41
0.7
 11
337.9432375068
 21
13.3576381479
 31
0.0
 73
     1
  2
MODBY
 70
     0
 74
     1
  0
ATTRIB
  5
E7
  8
0
  6
CONTINUOUS
 62
     7
 10
411.7681270093
 20
14.1107915265
 30
0.0
 40
2.1166666667
  1

 41
0.7
 11
411.7681270093
 21
13.3630577288
 31
0.0
 73
     1
  2
RELDATE
 70
     0
 74
     1
  0
ATTRIB
  5
E8
  8
0
  6
CONTINUOUS
 62
     7
 10
386.9598983877
 20
14.1107915265
 30
0.0
 40
2.1166666667
  1

 41
0.7
 11
386.9598983877
 21
13.3630577288
 31
0.0
 73
     1
  2
RELBY
 70
     0
 74
     1
  0
ATTRIB
  5
E9
  8
0
  6
CONTINUOUS
 62
     7
 10
382.243329726
 20
9.0369860688
 30
0.0
 40
2.1166666667
  1
2/2
 41
0.7
 11
382.243329726
 21
8.2892522711
 31
0.0
 73
     1
  2
AUTOATTR1
 70
     0
 74
     1
  0
ATTRIB
  5
EA
  8
0
  6
CONTINUOUS
 62
     7
 10
405.8309179426
 20
9.0369860688
 30
0.0
 40
2.1166666667
  1
A3
 41
0.7
 11
405.8309179426
 21
8.2892522711
 31
0.0
 73
     1
  2
FORMAT
 70
     0
 74
     1
  0
ATTRIB
  5
EB
  8
0
  6
CONTINUOUS
 62
     7
 10
280.1896576027
 20
9.6903948772
 30
0.0
 40
2.38125
  1

 41
0.7
 11
280.1896576027
 21
8.8491943548
 31
0.0
 73
     1
  2
REMARK
 70
     0
 74
     1
  0
ATTRIB
  5
EC
  8
0
  6
CONTINUOUS
 62
     7
 10
375.8361229267
 20
20.8710259134
 30
0.0
 40
2.1166666667
  1
± 1 °
 41
0.56
 11
375.8361229267
 21
20.1232921157
 31
0.0
 73
     1
  2
ANGLETOL
 70
     0
 74
     1
  0
ATTRIB
  5
ED
  8
0
  6
CONTINUOUS
 62
     7
 10
392.5310415205
 20
20.7082069028
 30
0.0
 40
2.1166666667
  1
± 0.2 mm
 41
0.6125
 11
392.5310415205
 21
19.9604731051
 31
0.0
 73
     1
  2
DIMTOL
 70
     0
 74
     1
  0
ATTRIB
  5
EE
  8
BLOCK_0_4MM
 62
     7
 10
350.7085178148
 20
19.7059541489
 30
0.0
 40
2.5
  1
1:1
 41
0.7
 11
350.7085178148
 21
18.8228039941
 31
0.0
 73
     1
  2
AUTOATTR2
 70
     0
 74
     1
  0
ATTRIB
  5
EF
  8
BLOCK_0_4MM
 62
     7
 10
349.0698290487
 20
24.7059541489
 30
0.0
 40
2.5
  1
0.1424 g
 41
0.7
 11
349.0698290487
 21
23.8228039941
 31
0.0
 73
     1
  2
AUTOATTR3
 70
     0
 74
     1
  0
SEQEND
  5
F0
  8
BLOCK_0_4MM
  0
INSERT
  5
FA
  8
0
  6
CONTINUOUS
 62
     7
  2
SW_NOTE_0
 10
220.5
 20
25.7813523681
 30
0.0
  0
TEXT
  5
FB
  8
0
  6
CONTINUOUS
 62
     7
 10
414.6760321318
 20
4.8333996371
 30
0.0
 40
2.35
  1
No material may be reproduced or transmitted in any form or by any means, electronic or mechanical, for any purpose without the express written permission of Van Leeuwen International.
 50
90.0
 41
0.6467391304
 11
415.5061932773
 21
4.8333996371
 31
0.0
 73
     1
  0
TEXT
  5
FC
  8
0
  6
CONTINUOUS
 62
     7
 10
378.6195366537
 20
5.2506703546
 30
0.0
 40
2.35
  1
SW_00206840.slddrw
 41
0.7
 11
378.6195366537
 21
4.4205092091
 31
0.0
 73
     1
  0
TEXT
  5
FD
  8
0
  6
CONTINUOUS
 62
     7
 10
12.2470288249
 20
270.3054526816
 30
0.0
 40
9.525
  1
Concept
 41
0.7
 11
12.2470288249
 21
266.9406505918
 31
0.0
 73
     1
  0
CIRCLE
  5
FE
  8
0
  6
CONTINUOUS
 62
     7
 10
105.6837502747
 20
37.0524765973
 30
0.0
 40
4.0
  0
CIRCLE
  5
FF
  8
0
  6
CONTINUOUS
 62
     7
 10
105.6837502747
 20
37.0524765973
 30
0.0
 40
2.5
  0
CIRCLE
  5
100
  8
0
  6
CONTINUOUS
 62
     7
 10
105.6837502747
 20
245.0524765973
 30
0.0
 40
4.0
  0
CIRCLE
  5
101
  8
0
  6
CONTINUOUS
 62
     7
 10
125.6837502747
 20
245.0524765973
 30
0.0
 40
4.0
  0
CIRCLE
  5
102
  8
0
  6
CONTINUOUS
 62
     7
 10
125.6837502747
 20
37.0524765973
 30
0.0
 40
4.0
  0
LINE
  5
103
  8
0
  6
CONTINUOUS
 62
     7
 10
135.6837498277
 20
43.5524813657
 30
0.0
 11
135.6837498277
 21
238.5524742131
 31
0.0
  0
ARC
  5
104
  8
0
  6
CONTINUOUS
 62
     7
 10
115.6837502747
 20
43.5524765973
 30
0.0
 40
20.00000000000003
 50
180.0
 51
0.0
  0
LINE
  5
105
  8
0
  6
CONTINUOUS
 62
     7
 10
95.6837507218
 20
238.5524742131
 30
0.0
 11
95.6837507218
 21
43.5524813657
 31
0.0
  0
ARC
  5
106
  8
0
  6
CONTINUOUS
 62
     7
 10
115.6837502747
 20
238.5524765973
 30
0.0
 40
20.00000000000001
 50
0.0
 51
180.0
  0
CIRCLE
  5
107
  8
0
  6
CONTINUOUS
 62
     7
 10
125.6837502747
 20
245.0524765973
 30
0.0
 40
2.5
  0
CIRCLE
  5
108
  8
0
  6
CONTINUOUS
 62
     7
 10
125.6837502747
 20
37.0524765973
 30
0.0
 40
2.5
  0
CIRCLE
  5
109
  8
0
  6
CONTINUOUS
 62
     7
 10
105.6837502747
 20
245.0524765973
 30
0.0
 40
2.5
  0
CIRCLE
  5
10A
  8
0
  6
CONTINUOUS
 62
     7
 10
115.6837502747
 20
173.5524765973
 30
0.0
 40
7.999999999999986
  0
DIMENSION
  5
10B
  8
BLOCK_0_4MM
 62
     7
  2
*D4
 10
135.6837502747
 20
268.5524765973
 30
0.0
 11
115.6837502747
 21
268.5524765973
 31
0.0
 70
   160
  3
SLDDIMSTYLE0
 13
95.6837502747
 23
238.5524765973
 33
0.0
 14
135.6837502747
 24
238.5524765973
 34
0.0
  0
DIMENSION
  5
116
  8
BLOCK_0_4MM
 62
     7
  2
*D5
 10
79.6837502747
 20
23.5524765973
 30
0.0
 11
79.6837502747
 21
141.0524765973
 31
0.0
 70
   160
  3
SLDDIMSTYLE0
 13
115.6837502747
 23
258.5524765973
 33
0.0
 14
115.6837502747
 24
23.5524765973
 34
0.0
 50
90.0
  0
DIMENSION
  5
120
  8
BLOCK_0_4MM
 62
     7
  2
*D6
 10
88.64678827
 20
245.0524765973
 30
0.0
 11
88.64678827
 21
209.3024765973
 31
0.0
 70
   160
  3
SLDDIMSTYLE0
 13
105.1837502747
 23
173.5524765973
 33
0.0
 14
105.6837502747
 24
245.0524765973
 34
0.0
 50
90.0
  0
DIMENSION
  5
12A
  8
BLOCK_0_4MM
 62
     7
  2
*D7
 10
88.64678827
 20
173.5524765973
 30
0.0
 11
88.64678827
 21
105.3024765973
 31
0.0
 70
   160
  3
SLDDIMSTYLE0
 13
105.6837502747
 23
37.0524765973
 33
0.0
 14
105.1837502747
 24
173.5524765973
 34
0.0
 50
90.0
  0
DIMENSION
  5
134
  8
BLOCK_0_4MM
 62
     7
  2
*D8
 10
125.6837502747
 20
263.1678376994
 30
0.0
 11
115.6837502747
 21
263.1678376994
 31
0.0
 70
   160
  3
SLDDIMSTYLE0
 13
105.6837502747
 23
245.0524765973
 33
0.0
 14
125.6837502747
 24
245.0524765973
 34
0.0
  0
DIMENSION
  5
13E
  8
BLOCK_0_4MM
  2
*D10
 10
122.85532315
 20
242.2240494726
 30
0.0
 11
150.522122151
 21
260.7634586983
 31
0.0
 70
   163
  1
<> x %%c 5 \P{\fGDT;w}%%c 8 X 90°
  3
SLDDIMSTYLE1
 15
128.5121773995
 25
247.880903722
 35
0.0
 40
0.0
  0
INSERT
  5
160
  8
BLOCK_0_4MM
 62
     7
  2
SW_CENTERMARKSYMBOL_0
 10
125.6837502747
 20
37.0524765973
 30
0.0
  0
INSERT
  5
16C
  8
BLOCK_0_4MM
 62
     7
  2
SW_CENTERMARKSYMBOL_1
 10
105.6837502747
 20
37.0524765973
 30
0.0
  0
INSERT
  5
178
  8
BLOCK_0_4MM
 62
     7
  2
SW_CENTERMARKSYMBOL_2
 10
125.6837502747
 20
245.0524765973
 30
0.0
  0
INSERT
  5
184
  8
BLOCK_0_4MM
 62
     7
  2
SW_CENTERMARKSYMBOL_3
 10
105.6837502747
 20
245.0524765973
 30
0.0
  0
INSERT
  5
190
  8
BLOCK_0_4MM
 62
     7
  2
SW_CENTERMARKSYMBOL_4
 10
115.6837502747
 20
173.5524765973
 30
0.0
  0
LINE
  5
191
  8
0
  6
CONTINUOUS
 62
     7
 10
297.8986475028
 20
273.3348757758
 30
0.0
 11
296.4844338733
 21
272.5184676252
 31
0.0
  0
POLYLINE
  5
192
  8
0
  6
CONTINUOUS
 62
     7
 66
     1
 10
0.0
 20
0.0
 30
0.0
  0
VERTEX
  5
1D2
  8
0
  6
CONTINUOUS
 62
     7
 10
304.0786727037
 20
209.9692338239
 30
0.0
  0
VERTEX
  5
1D3
  8
0
  6
CONTINUOUS
 62
     7
 10
304.090773706
 20
209.9781659084
 30
0.0
  0
VERTEX
  5
1D4
  8
0
  6
CONTINUOUS
 62
     7
 10
304.410074773
 20
210.1010938073
 30
0.0
  0
VERTEX
  5
1D5
  8
0
  6
CONTINUOUS
 62
     7
 10
304.7583496992
 20
210.146628804
 30
0.0
  0
VERTEX
  5
1D6
  8
0
  6
CONTINUOUS
 62
     7
 10
305.1766493916
 20
210.1240470768
 30
0.0
  0
VERTEX
  5
1D7
  8
0
  6
CONTINUOUS
 62
     7
 10
305.7200845589
 20
210.0055088879
 30
0.0
  0
VERTEX
  5
1D8
  8
0
  6
CONTINUOUS
 62
     7
 10
306.3227486843
 20
209.7819193712
 30
0.0
  0
VERTEX
  5
1D9
  8
0
  6
CONTINUOUS
 62
     7
 10
306.9740815691
 20
209.4475940375
 30
0.0
  0
VERTEX
  5
1DA
  8
0
  6
CONTINUOUS
 62
     7
 10
307.6581783294
 20
209.0013104749
 30
0.0
  0
VERTEX
  5
1DB
  8
0
  6
CONTINUOUS
 62
     7
 10
308.3589348818
 20
208.4453046186
 30
0.0
  0
VERTEX
  5
1DC
  8
0
  6
CONTINUOUS
 62
     7
 10
309.0596629522
 20
207.7856263433
 30
0.0
  0
VERTEX
  5
1DD
  8
0
  6
CONTINUOUS
 62
     7
 10
309.7436322996
 20
207.0320214247
 30
0.0
  0
VERTEX
  5
1DE
  8
0
  6
CONTINUOUS
 62
     7
 10
310.3948469602
 20
206.19736657
 30
0.0
  0
VERTEX
  5
1DF
  8
0
  6
CONTINUOUS
 62
     7
 10
310.9985623696
 20
205.2970918358
 30
0.0
  0
VERTEX
  5
1E0
  8
0
  6
CONTINUOUS
 62
     7
 10
311.5416556289
 20
204.3486589115
 30
0.0
  0
VERTEX
  5
1E1
  8
0
  6
CONTINUOUS
 62
     7
 10
312.012901847
 20
203.3711459879
 30
0.0
  0
VERTEX
  5
1E2
  8
0
  6
CONTINUOUS
 62
     7
 10
312.403047815
 20
202.3854701532
 30
0.0
  0
VERTEX
  5
1E3
  8
0
  6
CONTINUOUS
 62
     7
 10
312.7057720819
 20
201.412612312
 30
0.0
  0
VERTEX
  5
1E4
  8
0
  6
CONTINUOUS
 62
     7
 10
312.9176352344
 20
200.4738456786
 30
0.0
  0
VERTEX
  5
1E5
  8
0
  6
CONTINUOUS
 62
     7
 10
313.0385100087
 20
199.5902115399
 30
0.0
  0
VERTEX
  5
1E6
  8
0
  6
CONTINUOUS
 62
     7
 10
313.0724557555
 20
198.8567045612
 30
0.0
  0
SEQEND
  5
1E7
  8
0
  6
CONTINUOUS
 62
     7
  0
ARC
  5
193
  8
0
  6
CONTINUOUS
 62
     7
 10
310.231085008
 20
198.3462266495
 30
0.0
 40
2.88686255701267
 50
309.4906893311
 51
10.1850495475
  0
LINE
  5
194
  8
0
  6
CONTINUOUS
 62
     7
 10
316.482807927
 20
78.651055591
 30
0.0
 11
317.8970215566
 21
79.4674637416
 31
0.0
  0
POLYLINE
  5
195
  8
0
  6
CONTINUOUS
 62
     7
 66
     1
 10
0.0
 20
0.0
 30
0.0
  0
VERTEX
  5
1E8
  8
0
  6
CONTINUOUS
 62
     7
 10
302.2409801762
 20
262.9542321531
 30
0.0
  0
VERTEX
  5
1E9
  8
0
  6
CONTINUOUS
 62
     7
 10
302.1830822601
 20
263.6451277895
 30
0.0
  0
VERTEX
  5
1EA
  8
0
  6
CONTINUOUS
 62
     7
 10
302.0117582844
 20
264.3745885938
 30
0.0
  0
VERTEX
  5
1EB
  8
0
  6
CONTINUOUS
 62
     7
 10
301.7340227357
 20
265.1127459527
 30
0.0
  0
VERTEX
  5
1EC
  8
0
  6
CONTINUOUS
 62
     7
 10
301.3612457145
 20
265.8293826095
 30
0.0
  0
VERTEX
  5
1ED
  8
0
  6
CONTINUOUS
 62
     7
 10
300.9086893188
 20
266.4951554443
 30
0.0
  0
VERTEX
  5
1EE
  8
0
  6
CONTINUOUS
 62
     7
 10
300.3948803813
 20
267.0828093043
 30
0.0
  0
VERTEX
  5
1EF
  8
0
  6
CONTINUOUS
 62
     7
 10
299.8408554478
 20
267.5682881594
 30
0.0
  0
VERTEX
  5
1F0
  8
0
  6
CONTINUOUS
 62
     7
 10
299.2692954497
 20
267.9317152576
 30
0.0
  0
VERTEX
  5
1F1
  8
0
  6
CONTINUOUS
 62
     7
 10
298.703600449
 20
268.1582131975
 30
0.0
  0
VERTEX
  5
1F2
  8
0
  6
CONTINUOUS
 62
     7
 10
298.1669301389
 20
268.238506505
 30
0.0
  0
VERTEX
  5
1F3
  8
0
  6
CONTINUOUS
 62
     7
 10
297.6812561985
 20
268.1693044374
 30
0.0
  0
VERTEX
  5
1F4
  8
0
  6
CONTINUOUS
 62
     7
 10
297.2664607449
 20
267.9534442461
 30
0.0
  0
VERTEX
  5
1F5
  8
0
  6
CONTINUOUS
 62
     7
 10
296.939527641
 20
267.5997679061
 30
0.0
  0
VERTEX
  5
1F6
  8
0
  6
CONTINUOUS
 62
     7
 10
296.7138398283
 20
267.1227490422
 30
0.0
  0
VERTEX
  5
1F7
  8
0
  6
CONTINUOUS
 62
     7
 10
296.5986380033
 20
266.5419172086
 30
0.0
  0
VERTEX
  5
1F8
  8
0
  6
CONTINUOUS
 62
     7
 10
296.5986380033
 20
265.8810506214
 30
0.0
  0
VERTEX
  5
1F9
  8
0
  6
CONTINUOUS
 62
     7
 10
296.7138398283
 20
265.1672095919
 30
0.0
  0
VERTEX
  5
1FA
  8
0
  6
CONTINUOUS
 62
     7
 10
296.939527641
 20
264.4296171259
 30
0.0
  0
VERTEX
  5
1FB
  8
0
  6
CONTINUOUS
 62
     7
 10
297.2664607449
 20
263.6984718588
 30
0.0
  0
VERTEX
  5
1FC
  8
0
  6
CONTINUOUS
 62
     7
 10
297.6812561985
 20
263.0036990307
 30
0.0
  0
VERTEX
  5
1FD
  8
0
  6
CONTINUOUS
 62
     7
 10
298.1669301389
 20
262.3737497673
 30
0.0
  0
VERTEX
  5
1FE
  8
0
  6
CONTINUOUS
 62
     7
 10
298.703600449
 20
261.8344167239
 30
0.0
  0
VERTEX
  5
1FF
  8
0
  6
CONTINUOUS
 62
     7
 10
299.2692954497
 20
261.4077771184
 30
0.0
  0
VERTEX
  5
200
  8
0
  6
CONTINUOUS
 62
     7
 10
299.8408554478
 20
261.1112950894
 30
0.0
  0
VERTEX
  5
201
  8
0
  6
CONTINUOUS
 62
     7
 10
300.3948803813
 20
260.9571103719
 30
0.0
  0
VERTEX
  5
202
  8
0
  6
CONTINUOUS
 62
     7
 10
300.9086893188
 20
260.95153306
 30
0.0
  0
VERTEX
  5
203
  8
0
  6
CONTINUOUS
 62
     7
 10
301.3612457145
 20
261.0947954022
 30
0.0
  0
VERTEX
  5
204
  8
0
  6
CONTINUOUS
 62
     7
 10
301.7340227357
 20
261.3810328715
 30
0.0
  0
VERTEX
  5
205
  8
0
  6
CONTINUOUS
 62
     7
 10
302.0117582844
 20
261.7985235917
 30
0.0
  0
VERTEX
  5
206
  8
0
  6
CONTINUOUS
 62
     7
 10
302.1830822601
 20
262.3301779439
 30
0.0
  0
VERTEX
  5
207
  8
0
  6
CONTINUOUS
 62
     7
 10
302.2409801762
 20
262.9542321531
 30
0.0
  0
SEQEND
  5
208
  8
0
  6
CONTINUOUS
 62
     7
  0
POLYLINE
  5
196
  8
0
  6
CONTINUOUS
 62
     7
 66
     1
 10
0.0
 20
0.0
 30
0.0
  0
VERTEX
  5
209
  8
0
  6
CONTINUOUS
 62
     7
 10
316.3831161423
 20
254.7901508372
 30
0.0
  0
VERTEX
  5
20A
  8
0
  6
CONTINUOUS
 62
     7
 10
316.3252175677
 20
255.4810468537
 30
0.0
  0
VERTEX
  5
20B
  8
0
  6
CONTINUOUS
 62
     7
 10
316.1538939213
 20
256.2105074679
 30
0.0
  0
VERTEX
  5
20C
  8
0
  6
CONTINUOUS
 62
     7
 10
315.8761580434
 20
256.948665017
 30
0.0
  0
VERTEX
  5
20D
  8
0
  6
CONTINUOUS
 62
     7
 10
315.5033816806
 20
257.6653012936
 30
0.0
  0
VERTEX
  5
20E
  8
0
  6
CONTINUOUS
 62
     7
 10
315.0508246264
 20
258.3310745085
 30
0.0
  0
VERTEX
  5
20F
  8
0
  6
CONTINUOUS
 62
     7
 10
314.5370163475
 20
258.9187279883
 30
0.0
  0
VERTEX
  5
210
  8
0
  6
CONTINUOUS
 62
     7
 10
313.982991414
 20
259.4042068434
 30
0.0
  0
VERTEX
  5
211
  8
0
  6
CONTINUOUS
 62
     7
 10
313.4114314159
 20
259.7676339417
 30
0.0
  0
VERTEX
  5
212
  8
0
  6
CONTINUOUS
 62
     7
 10
312.8457364152
 20
259.9941318816
 30
0.0
  0
VERTEX
  5
213
  8
0
  6
CONTINUOUS
 62
     7
 10
312.3090661051
 20
260.0744251891
 30
0.0
  0
VERTEX
  5
214
  8
0
  6
CONTINUOUS
 62
     7
 10
311.8233915061
 20
260.0052235016
 30
0.0
  0
VERTEX
  5
215
  8
0
  6
CONTINUOUS
 62
     7
 10
311.408596711
 20
259.7893629302
 30
0.0
  0
VERTEX
  5
216
  8
0
  6
CONTINUOUS
 62
     7
 10
311.0816629486
 20
259.4356869703
 30
0.0
  0
VERTEX
  5
217
  8
0
  6
CONTINUOUS
 62
     7
 10
310.8559754652
 20
258.9586679164
 30
0.0
  0
VERTEX
  5
218
  8
0
  6
CONTINUOUS
 62
     7
 10
310.7407733109
 20
258.3778362729
 30
0.0
  0
VERTEX
  5
219
  8
0
  6
CONTINUOUS
 62
     7
 10
310.7407733109
 20
257.7169696856
 30
0.0
  0
VERTEX
  5
21A
  8
0
  6
CONTINUOUS
 62
     7
 10
310.8559754652
 20
257.0031284661
 30
0.0
  0
VERTEX
  5
21B
  8
0
  6
CONTINUOUS
 62
     7
 10
311.0816629486
 20
256.2655361902
 30
0.0
  0
VERTEX
  5
21C
  8
0
  6
CONTINUOUS
 62
     7
 10
311.408596711
 20
255.5343905428
 30
0.0
  0
VERTEX
  5
21D
  8
0
  6
CONTINUOUS
 62
     7
 10
311.8233915061
 20
254.839618095
 30
0.0
  0
VERTEX
  5
21E
  8
0
  6
CONTINUOUS
 62
     7
 10
312.3090661051
 20
254.2096684514
 30
0.0
  0
VERTEX
  5
21F
  8
0
  6
CONTINUOUS
 62
     7
 10
312.8457364152
 20
253.670335408
 30
0.0
  0
VERTEX
  5
220
  8
0
  6
CONTINUOUS
 62
     7
 10
313.4114314159
 20
253.2436958025
 30
0.0
  0
VERTEX
  5
221
  8
0
  6
CONTINUOUS
 62
     7
 10
313.982991414
 20
252.9472137735
 30
0.0
  0
VERTEX
  5
222
  8
0
  6
CONTINUOUS
 62
     7
 10
314.5370163475
 20
252.793029056
 30
0.0
  0
VERTEX
  5
223
  8
0
  6
CONTINUOUS
 62
     7
 10
315.0508246264
 20
252.7874521242
 30
0.0
  0
VERTEX
  5
224
  8
0
  6
CONTINUOUS
 62
     7
 10
315.5033816806
 20
252.9307140863
 30
0.0
  0
VERTEX
  5
225
  8
0
  6
CONTINUOUS
 62
     7
 10
315.8761580434
 20
253.2169519358
 30
0.0
  0
VERTEX
  5
226
  8
0
  6
CONTINUOUS
 62
     7
 10
316.1538939213
 20
253.6344424658
 30
0.0
  0
VERTEX
  5
227
  8
0
  6
CONTINUOUS
 62
     7
 10
316.3252175677
 20
254.1660970082
 30
0.0
  0
VERTEX
  5
228
  8
0
  6
CONTINUOUS
 62
     7
 10
316.3831161423
 20
254.7901508372
 30
0.0
  0
SEQEND
  5
229
  8
0
  6
CONTINUOUS
 62
     7
  0
POLYLINE
  5
197
  8
0
  6
CONTINUOUS
 62
     7
 66
     1
 10
0.0
 20
0.0
 30
0.0
  0
VERTEX
  5
22A
  8
0
  6
CONTINUOUS
 62
     7
 10
302.2409801762
 20
93.1137397766
 30
0.0
  0
VERTEX
  5
22B
  8
0
  6
CONTINUOUS
 62
     7
 10
302.1830822601
 20
93.8046414967
 30
0.0
  0
VERTEX
  5
22C
  8
0
  6
CONTINUOUS
 62
     7
 10
302.0117582844
 20
94.5340962173
 30
0.0
  0
VERTEX
  5
22D
  8
0
  6
CONTINUOUS
 62
     7
 10
301.7340227357
 20
95.27225966
 30
0.0
  0
VERTEX
  5
22E
  8
0
  6
CONTINUOUS
 62
     7
 10
301.3612457145
 20
95.9888902331
 30
0.0
  0
VERTEX
  5
22F
  8
0
  6
CONTINUOUS
 62
     7
 10
300.9086893188
 20
96.6546630678
 30
0.0
  0
VERTEX
  5
230
  8
0
  6
CONTINUOUS
 62
     7
 10
300.3948803813
 20
97.2423230115
 30
0.0
  0
VERTEX
  5
231
  8
0
  6
CONTINUOUS
 62
     7
 10
299.8408554478
 20
97.7278018666
 30
0.0
  0
VERTEX
  5
232
  8
0
  6
CONTINUOUS
 62
     7
 10
299.2692954497
 20
98.0912289649
 30
0.0
  0
VERTEX
  5
233
  8
0
  6
CONTINUOUS
 62
     7
 10
298.703600449
 20
98.3177208211
 30
0.0
  0
VERTEX
  5
234
  8
0
  6
CONTINUOUS
 62
     7
 10
298.1669301389
 20
98.3980202122
 30
0.0
  0
VERTEX
  5
235
  8
0
  6
CONTINUOUS
 62
     7
 10
297.6812561985
 20
98.3288120609
 30
0.0
  0
VERTEX
  5
236
  8
0
  6
CONTINUOUS
 62
     7
 10
297.2664607449
 20
98.1129640371
 30
0.0
  0
VERTEX
  5
237
  8
0
  6
CONTINUOUS
 62
     7
 10
296.939527641
 20
97.7592755296
 30
0.0
  0
VERTEX
  5
238
  8
0
  6
CONTINUOUS
 62
     7
 10
296.7138398283
 20
97.2822627494
 30
0.0
  0
VERTEX
  5
239
  8
0
  6
CONTINUOUS
 62
     7
 10
296.5986380033
 20
96.7014248322
 30
0.0
  0
VERTEX
  5
23A
  8
0
  6
CONTINUOUS
 62
     7
 10
296.5986380033
 20
96.0405643286
 30
0.0
  0
VERTEX
  5
23B
  8
0
  6
CONTINUOUS
 62
     7
 10
296.7138398283
 20
95.3267172154
 30
0.0
  0
VERTEX
  5
23C
  8
0
  6
CONTINUOUS
 62
     7
 10
296.939527641
 20
94.5891308332
 30
0.0
  0
VERTEX
  5
23D
  8
0
  6
CONTINUOUS
 62
     7
 10
297.2664607449
 20
93.857985566
 30
0.0
  0
VERTEX
  5
23E
  8
0
  6
CONTINUOUS
 62
     7
 10
297.6812561985
 20
93.163212738
 30
0.0
  0
VERTEX
  5
23F
  8
0
  6
CONTINUOUS
 62
     7
 10
298.1669301389
 20
92.5332573908
 30
0.0
  0
VERTEX
  5
240
  8
0
  6
CONTINUOUS
 62
     7
 10
298.703600449
 20
91.9939304311
 30
0.0
  0
VERTEX
  5
241
  8
0
  6
CONTINUOUS
 62
     7
 10
299.2692954497
 20
91.5672847419
 30
0.0
  0
VERTEX
  5
242
  8
0
  6
CONTINUOUS
 62
     7
 10
299.8408554478
 20
91.2708027129
 30
0.0
  0
VERTEX
  5
243
  8
0
  6
CONTINUOUS
 62
     7
 10
300.3948803813
 20
91.1166179955
 30
0.0
  0
VERTEX
  5
244
  8
0
  6
CONTINUOUS
 62
     7
 10
300.9086893188
 20
91.1110467672
 30
0.0
  0
VERTEX
  5
245
  8
0
  6
CONTINUOUS
 62
     7
 10
301.3612457145
 20
91.2543091095
 30
0.0
  0
VERTEX
  5
246
  8
0
  6
CONTINUOUS
 62
     7
 10
301.7340227357
 20
91.5405404951
 30
0.0
  0
VERTEX
  5
247
  8
0
  6
CONTINUOUS
 62
     7
 10
302.0117582844
 20
91.9580372989
 30
0.0
  0
VERTEX
  5
248
  8
0
  6
CONTINUOUS
 62
     7
 10
302.1830822601
 20
92.4896855675
 30
0.0
  0
VERTEX
  5
249
  8
0
  6
CONTINUOUS
 62
     7
 10
302.2409801762
 20
93.1137397766
 30
0.0
  0
SEQEND
  5
24A
  8
0
  6
CONTINUOUS
 62
     7
  0
POLYLINE
  5
198
  8
0
  6
CONTINUOUS
 62
     7
 66
     1
 10
0.0
 20
0.0
 30
0.0
  0
VERTEX
  5
24B
  8
0
  6
CONTINUOUS
 62
     7
 10
316.3831161423
 20
84.9496584607
 30
0.0
  0
VERTEX
  5
24C
  8
0
  6
CONTINUOUS
 62
     7
 10
316.3252175677
 20
85.640560561
 30
0.0
  0
VERTEX
  5
24D
  8
0
  6
CONTINUOUS
 62
     7
 10
316.1538939213
 20
86.3700150915
 30
0.0
  0
VERTEX
  5
24E
  8
0
  6
CONTINUOUS
 62
     7
 10
315.8761580434
 20
87.1081787242
 30
0.0
  0
VERTEX
  5
24F
  8
0
  6
CONTINUOUS
 62
     7
 10
315.5033816806
 20
87.8248089171
 30
0.0
  0
VERTEX
  5
250
  8
0
  6
CONTINUOUS
 62
     7
 10
315.0508246264
 20
88.4905821321
 30
0.0
  0
VERTEX
  5
251
  8
0
  6
CONTINUOUS
 62
     7
 10
314.5370163475
 20
89.0782416956
 30
0.0
  0
VERTEX
  5
252
  8
0
  6
CONTINUOUS
 62
     7
 10
313.982991414
 20
89.5637205507
 30
0.0
  0
VERTEX
  5
253
  8
0
  6
CONTINUOUS
 62
     7
 10
313.4114314159
 20
89.9271476489
 30
0.0
  0
VERTEX
  5
254
  8
0
  6
CONTINUOUS
 62
     7
 10
312.8457364152
 20
90.1536395052
 30
0.0
  0
VERTEX
  5
255
  8
0
  6
CONTINUOUS
 62
     7
 10
312.3090661051
 20
90.2339388963
 30
0.0
  0
VERTEX
  5
256
  8
0
  6
CONTINUOUS
 62
     7
 10
311.8233915061
 20
90.1647311252
 30
0.0
  0
VERTEX
  5
257
  8
0
  6
CONTINUOUS
 62
     7
 10
311.408596711
 20
89.9488827212
 30
0.0
  0
VERTEX
  5
258
  8
0
  6
CONTINUOUS
 62
     7
 10
311.0816629486
 20
89.5951945939
 30
0.0
  0
VERTEX
  5
259
  8
0
  6
CONTINUOUS
 62
     7
 10
310.8559754652
 20
89.1181816236
 30
0.0
  0
VERTEX
  5
25A
  8
0
  6
CONTINUOUS
 62
     7
 10
310.7407733109
 20
88.5373438964
 30
0.0
  0
VERTEX
  5
25B
  8
0
  6
CONTINUOUS
 62
     7
 10
310.7407733109
 20
87.8764833929
 30
0.0
  0
VERTEX
  5
25C
  8
0
  6
CONTINUOUS
 62
     7
 10
310.8559754652
 20
87.1626360896
 30
0.0
  0
VERTEX
  5
25D
  8
0
  6
CONTINUOUS
 62
     7
 10
311.0816629486
 20
86.4250498975
 30
0.0
  0
VERTEX
  5
25E
  8
0
  6
CONTINUOUS
 62
     7
 10
311.408596711
 20
85.6939042501
 30
0.0
  0
VERTEX
  5
25F
  8
0
  6
CONTINUOUS
 62
     7
 10
311.8233915061
 20
84.9991318022
 30
0.0
  0
VERTEX
  5
260
  8
0
  6
CONTINUOUS
 62
     7
 10
312.3090661051
 20
84.3691760749
 30
0.0
  0
VERTEX
  5
261
  8
0
  6
CONTINUOUS
 62
     7
 10
312.8457364152
 20
83.8298491152
 30
0.0
  0
VERTEX
  5
262
  8
0
  6
CONTINUOUS
 62
     7
 10
313.4114314159
 20
83.403203426
 30
0.0
  0
VERTEX
  5
263
  8
0
  6
CONTINUOUS
 62
     7
 10
313.982991414
 20
83.106721397
 30
0.0
  0
VERTEX
  5
264
  8
0
  6
CONTINUOUS
 62
     7
 10
314.5370163475
 20
82.9525366796
 30
0.0
  0
VERTEX
  5
265
  8
0
  6
CONTINUOUS
 62
     7
 10
315.0508246264
 20
82.9469658315
 30
0.0
  0
VERTEX
  5
266
  8
0
  6
CONTINUOUS
 62
     7
 10
315.5033816806
 20
83.0902277935
 30
0.0
  0
VERTEX
  5
267
  8
0
  6
CONTINUOUS
 62
     7
 10
315.8761580434
 20
83.3764595593
 30
0.0
  0
VERTEX
  5
268
  8
0
  6
CONTINUOUS
 62
     7
 10
316.1538939213
 20
83.7939561731
 30
0.0
  0
VERTEX
  5
269
  8
0
  6
CONTINUOUS
 62
     7
 10
316.3252175677
 20
84.3256046317
 30
0.0
  0
VERTEX
  5
26A
  8
0
  6
CONTINUOUS
 62
     7
 10
316.3831161423
 20
84.9496584607
 30
0.0
  0
SEQEND
  5
26B
  8
0
  6
CONTINUOUS
 62
     7
  0
LINE
  5
199
  8
0
  6
CONTINUOUS
 62
     7
 10
320.6257562078
 20
87.8079544337
 30
0.0
 11
320.6257562078
 21
247.033406911
 31
0.0
  0
POLYLINE
  5
19A
  8
0
  6
CONTINUOUS
 62
     7
 66
     1
 10
0.0
 20
0.0
 30
0.0
  0
VERTEX
  5
26C
  8
0
  6
CONTINUOUS
 62
     7
 10
292.3414855925
 20
104.1361163052
 30
0.0
  0
VERTEX
  5
26D
  8
0
  6
CONTINUOUS
 62
     7
 10
292.4018135378
 20
102.5944659651
 30
0.0
  0
VERTEX
  5
26E
  8
0
  6
CONTINUOUS
 62
     7
 10
292.5822823919
 20
100.9963207031
 30
0.0
  0
VERTEX
  5
26F
  8
0
  6
CONTINUOUS
 62
     7
 10
292.8813524776
 20
99.3553086302
 30
0.0
  0
VERTEX
  5
270
  8
0
  6
CONTINUOUS
 62
     7
 10
293.2964725937
 20
97.685434952
 30
0.0
  0
VERTEX
  5
271
  8
0
  6
CONTINUOUS
 62
     7
 10
293.8240997706
 20
96.0009488897
 30
0.0
  0
VERTEX
  5
272
  8
0
  6
CONTINUOUS
 62
     7
 10
294.4597348322
 20
94.316201477
 30
0.0
  0
VERTEX
  5
273
  8
0
  6
CONTINUOUS
 62
     7
 10
295.1979526889
 20
92.6455915695
 30
0.0
  0
VERTEX
  5
274
  8
0
  6
CONTINUOUS
 62
     7
 10
296.0324563382
 20
91.0033643277
 30
0.0
  0
VERTEX
  5
275
  8
0
  6
CONTINUOUS
 62
     7
 10
296.9561255967
 20
89.4035222472
 30
0.0
  0
VERTEX
  5
276
  8
0
  6
CONTINUOUS
 62
     7
 10
297.961080321
 20
87.8597156579
 30
0.0
  0
VERTEX
  5
277
  8
0
  6
CONTINUOUS
 62
     7
 10
299.0387456029
 20
86.385132083
 30
0.0
  0
VERTEX
  5
278
  8
0
  6
CONTINUOUS
 62
     7
 10
300.1799288197
 20
84.9923300847
 30
0.0
  0
VERTEX
  5
279
  8
0
  6
CONTINUOUS
 62
     7
 10
301.374892403
 20
83.6932094232
 30
0.0
  0
VERTEX
  5
27A
  8
0
  6
CONTINUOUS
 62
     7
 10
302.6134417546
 20
82.49883863
 30
0.0
  0
VERTEX
  5
27B
  8
0
  6
CONTINUOUS
 62
     7
 10
303.8850103632
 20
81.4194302053
 30
0.0
  0
VERTEX
  5
27C
  8
0
  6
CONTINUOUS
 62
     7
 10
305.1787492842
 20
80.4641672891
 30
0.0
  0
VERTEX
  5
27D
  8
0
  6
CONTINUOUS
 62
     7
 10
306.4836209001
 20
79.6412103712
 30
0.0
  0
VERTEX
  5
27E
  8
0
  6
CONTINUOUS
 62
     7
 10
307.7884925161
 20
78.9575945897
 30
0.0
  0
VERTEX
  5
27F
  8
0
  6
CONTINUOUS
 62
     7
 10
309.0822314371
 20
78.4191383423
 30
0.0
  0
VERTEX
  5
280
  8
0
  6
CONTINUOUS
 62
     7
 10
310.3538000457
 20
78.0304249014
 30
0.0
  0
VERTEX
  5
281
  8
0
  6
CONTINUOUS
 62
     7
 10
311.5923493973
 20
77.7947970517
 30
0.0
  0
VERTEX
  5
282
  8
0
  6
CONTINUOUS
 62
     7
 10
312.7873129806
 20
77.7142421271
 30
0.0
  0
VERTEX
  5
283
  8
0
  6
CONTINUOUS
 62
     7
 10
313.9284961974
 20
77.7894620288
 30
0.0
  0
VERTEX
  5
284
  8
0
  6
CONTINUOUS
 62
     7
 10
315.0061614793
 20
78.0197997537
 30
0.0
  0
VERTEX
  5
285
  8
0
  6
CONTINUOUS
 62
     7
 10
316.0111162036
 20
78.4033103159
 30
0.0
  0
VERTEX
  5
286
  8
0
  6
CONTINUOUS
 62
     7
 10
316.9347854621
 20
78.9367065705
 30
0.0
  0
VERTEX
  5
287
  8
0
  6
CONTINUOUS
 62
     7
 10
317.7692891114
 20
79.6154364074
 30
0.0
  0
VERTEX
  5
288
  8
0
  6
CONTINUOUS
 62
     7
 10
318.5075069681
 20
80.4337181199
 30
0.0
  0
VERTEX
  5
289
  8
0
  6
CONTINUOUS
 62
     7
 10
319.1431420297
 20
81.3845769117
 30
0.0
  0
VERTEX
  5
28A
  8
0
  6
CONTINUOUS
 62
     7
 10
319.6707692066
 20
82.4598776024
 30
0.0
  0
VERTEX
  5
28B
  8
0
  6
CONTINUOUS
 62
     7
 10
320.0858893227
 20
83.6504637965
 30
0.0
  0
VERTEX
  5
28C
  8
0
  6
CONTINUOUS
 62
     7
 10
320.3849594084
 20
84.9461768983
 30
0.0
  0
VERTEX
  5
28D
  8
0
  6
CONTINUOUS
 62
     7
 10
320.5654282625
 20
86.3359572566
 30
0.0
  0
VERTEX
  5
28E
  8
0
  6
CONTINUOUS
 62
     7
 10
320.6257562078
 20
87.8079544337
 30
0.0
  0
SEQEND
  5
28F
  8
0
  6
CONTINUOUS
 62
     7
  0
LINE
  5
19B
  8
0
  6
CONTINUOUS
 62
     7
 10
292.3414855925
 20
263.3615687825
 30
0.0
 11
292.3414855925
 21
104.1361163052
 31
0.0
  0
POLYLINE
  5
19C
  8
0
  6
CONTINUOUS
 62
     7
 66
     1
 10
0.0
 20
0.0
 30
0.0
  0
VERTEX
  5
290
  8
0
  6
CONTINUOUS
 62
     7
 10
320.6257562078
 20
247.033406911
 30
0.0
  0
VERTEX
  5
291
  8
0
  6
CONTINUOUS
 62
     7
 10
320.5654282625
 20
248.5750511674
 30
0.0
  0
VERTEX
  5
292
  8
0
  6
CONTINUOUS
 62
     7
 10
320.3849594084
 20
250.1731964294
 30
0.0
  0
VERTEX
  5
293
  8
0
  6
CONTINUOUS
 62
     7
 10
320.0858893227
 20
251.8142085023
 30
0.0
  0
VERTEX
  5
294
  8
0
  6
CONTINUOUS
 62
     7
 10
319.6707692066
 20
253.4840821805
 30
0.0
  0
VERTEX
  5
295
  8
0
  6
CONTINUOUS
 62
     7
 10
319.1431420297
 20
255.1685743265
 30
0.0
  0
VERTEX
  5
296
  8
0
  6
CONTINUOUS
 62
     7
 10
318.5075069681
 20
256.8533156555
 30
0.0
  0
VERTEX
  5
297
  8
0
  6
CONTINUOUS
 62
     7
 10
317.7692891114
 20
258.523925563
 30
0.0
  0
VERTEX
  5
298
  8
0
  6
CONTINUOUS
 62
     7
 10
316.9347854621
 20
260.1661588885
 30
0.0
  0
VERTEX
  5
299
  8
0
  6
CONTINUOUS
 62
     7
 10
316.0111162036
 20
261.766000969
 30
0.0
  0
VERTEX
  5
29A
  8
0
  6
CONTINUOUS
 62
     7
 10
315.0061614793
 20
263.3098075583
 30
0.0
  0
VERTEX
  5
29B
  8
0
  6
CONTINUOUS
 62
     7
 10
313.9284961974
 20
264.7843972169
 30
0.0
  0
VERTEX
  5
29C
  8
0
  6
CONTINUOUS
 62
     7
 10
312.7873129806
 20
266.1771931315
 30
0.0
  0
VERTEX
  5
29D
  8
0
  6
CONTINUOUS
 62
     7
 10
311.5923493973
 20
267.4763137929
 30
0.0
  0
VERTEX
  5
29E
  8
0
  6
CONTINUOUS
 62
     7
 10
310.3538000457
 20
268.6706785025
 30
0.0
  0
VERTEX
  5
29F
  8
0
  6
CONTINUOUS
 62
     7
 10
309.0822314371
 20
269.7500990946
 30
0.0
  0
VERTEX
  5
2A0
  8
0
  6
CONTINUOUS
 62
     7
 10
307.7884925161
 20
270.7053559271
 30
0.0
  0
VERTEX
  5
2A1
  8
0
  6
CONTINUOUS
 62
     7
 10
306.4836209001
 20
271.5283067613
 30
0.0
  0
VERTEX
  5
2A2
  8
0
  6
CONTINUOUS
 62
     7
 10
305.1787492842
 20
272.2119286265
 30
0.0
  0
VERTEX
  5
2A3
  8
0
  6
CONTINUOUS
 62
     7
 10
303.8850103632
 20
272.7503909576
 30
0.0
  0
VERTEX
  5
2A4
  8
0
  6
CONTINUOUS
 62
     7
 10
302.6134417546
 20
273.1390922311
 30
0.0
  0
VERTEX
  5
2A5
  8
0
  6
CONTINUOUS
 62
     7
 10
301.374892403
 20
273.3747261645
 30
0.0
  0
VERTEX
  5
2A6
  8
0
  6
CONTINUOUS
 62
     7
 10
300.1799288197
 20
273.4552810891
 30
0.0
  0
VERTEX
  5
2A7
  8
0
  6
CONTINUOUS
 62
     7
 10
299.0387456029
 20
273.3800672711
 30
0.0
  0
VERTEX
  5
2A8
  8
0
  6
CONTINUOUS
 62
     7
 10
297.961080321
 20
273.1497234625
 30
0.0
  0
VERTEX
  5
2A9
  8
0
  6
CONTINUOUS
 62
     7
 10
296.9561255967
 20
272.7662129002
 30
0.0
  0
VERTEX
  5
2AA
  8
0
  6
CONTINUOUS
 62
     7
 10
296.0324563382
 20
272.2328166457
 30
0.0
  0
VERTEX
  5
2AB
  8
0
  6
CONTINUOUS
 62
     7
 10
295.1979526889
 20
271.554080725
 30
0.0
  0
VERTEX
  5
2AC
  8
0
  6
CONTINUOUS
 62
     7
 10
294.4597348322
 20
270.7357990126
 30
0.0
  0
VERTEX
  5
2AD
  8
0
  6
CONTINUOUS
 62
     7
 10
293.8240997706
 20
269.7849463044
 30
0.0
  0
VERTEX
  5
2AE
  8
0
  6
CONTINUOUS
 62
     7
 10
293.2964725937
 20
268.7096395301
 30
0.0
  0
VERTEX
  5
2AF
  8
0
  6
CONTINUOUS
 62
     7
 10
292.8813524776
 20
267.5190533359
 30
0.0
  0
VERTEX
  5
2B0
  8
0
  6
CONTINUOUS
 62
     7
 10
292.5822823919
 20
266.2233402341
 30
0.0
  0
VERTEX
  5
2B1
  8
0
  6
CONTINUOUS
 62
     7
 10
292.4018135378
 20
264.8335598759
 30
0.0
  0
VERTEX
  5
2B2
  8
0
  6
CONTINUOUS
 62
     7
 10
292.3414855925
 20
263.3615687825
 30
0.0
  0
SEQEND
  5
2B3
  8
0
  6
CONTINUOUS
 62
     7
  0
POLYLINE
  5
19D
  8
0
  6
CONTINUOUS
 62
     7
 66
     1
 10
0.0
 20
0.0
 30
0.0
  0
VERTEX
  5
2B4
  8
0
  6
CONTINUOUS
 62
     7
 10
313.7314656075
 20
197.9382453323
 30
0.0
  0
VERTEX
  5
2B5
  8
0
  6
CONTINUOUS
 62
     7
 10
313.6719608429
 20
196.9023232249
 30
0.0
  0
VERTEX
  5
2B6
  8
0
  6
CONTINUOUS
 62
     7
 10
313.494423829
 20
195.9521136018
 30
0.0
  0
VERTEX
  5
2B7
  8
0
  6
CONTINUOUS
 62
     7
 10
313.2017692838
 20
195.1032190586
 30
0.0
  0
VERTEX
  5
2B8
  8
0
  6
CONTINUOUS
 62
     7
 10
312.7988032652
 20
194.3695780952
 30
0.0
  0
VERTEX
  5
2B9
  8
0
  6
CONTINUOUS
 62
     7
 10
312.2921421698
 20
193.7632370648
 30
0.0
  0
VERTEX
  5
2BA
  8
0
  6
CONTINUOUS
 62
     7
 10
311.6901053904
 20
193.2941521578
 30
0.0
  0
VERTEX
  5
2BB
  8
0
  6
CONTINUOUS
 62
     7
 10
311.0025780093
 20
192.9700260798
 30
0.0
  0
VERTEX
  5
2BC
  8
0
  6
CONTINUOUS
 62
     7
 10
310.2408497844
 20
192.7961806589
 30
0.0
  0
VERTEX
  5
2BD
  8
0
  6
CONTINUOUS
 62
     7
 10
309.4174277929
 20
192.7754699451
 30
0.0
  0
VERTEX
  5
2BE
  8
0
  6
CONTINUOUS
 62
     7
 10
308.545832612
 20
192.9082355144
 30
0.0
  0
VERTEX
  5
2BF
  8
0
  6
CONTINUOUS
 62
     7
 10
307.6403761427
 20
193.1922959434
 30
0.0
  0
VERTEX
  5
2C0
  8
0
  6
CONTINUOUS
 62
     7
 10
306.7159257475
 20
193.6229871518
 30
0.0
  0
VERTEX
  5
2C1
  8
0
  6
CONTINUOUS
 62
     7
 10
305.787660939
 20
194.1932374629
 30
0.0
  0
VERTEX
  5
2C2
  8
0
  6
CONTINUOUS
 62
     7
 10
304.8708238328
 20
194.8936835273
 30
0.0
  0
VERTEX
  5
2C3
  8
0
  6
CONTINUOUS
 62
     7
 10
303.9804686945
 20
195.7128240314
 30
0.0
  0
VERTEX
  5
2C4
  8
0
  6
CONTINUOUS
 62
     7
 10
303.13121513
 20
196.6372085665
 30
0.0
  0
VERTEX
  5
2C5
  8
0
  6
CONTINUOUS
 62
     7
 10
302.3370081485
 20
197.6516582711
 30
0.0
  0
VERTEX
  5
2C6
  8
0
  6
CONTINUOUS
 62
     7
 10
301.6108887422
 20
198.7395165242
 30
0.0
  0
VERTEX
  5
2C7
  8
0
  6
CONTINUOUS
 62
     7
 10
300.9647788716
 20
199.8829209811
 30
0.0
  0
VERTEX
  5
2C8
  8
0
  6
CONTINUOUS
 62
     7
 10
300.4092886766
 20
201.0630962381
 30
0.0
  0
VERTEX
  5
2C9
  8
0
  6
CONTINUOUS
 62
     7
 10
299.95353834
 20
202.2606646555
 30
0.0
  0
VERTEX
  5
2CA
  8
0
  6
CONTINUOUS
 62
     7
 10
299.6050122202
 20
203.4559613652
 30
0.0
  0
VERTEX
  5
2CB
  8
0
  6
CONTINUOUS
 62
     7
 10
299.369433069
 20
204.6293597372
 30
0.0
  0
VERTEX
  5
2CC
  8
0
  6
CONTINUOUS
 62
     7
 10
299.2506678597
 20
205.7615934743
 30
0.0
  0
VERTEX
  5
2CD
  8
0
  6
CONTINUOUS
 62
     7
 10
299.2506678597
 20
206.8340703924
 30
0.0
  0
VERTEX
  5
2CE
  8
0
  6
CONTINUOUS
 62
     7
 10
299.369433069
 20
207.8291807375
 30
0.0
  0
VERTEX
  5
2CF
  8
0
  6
CONTINUOUS
 62
     7
 10
299.6050122202
 20
208.730585211
 30
0.0
  0
VERTEX
  5
2D0
  8
0
  6
CONTINUOUS
 62
     7
 10
299.95353834
 20
209.5234822282
 30
0.0
  0
VERTEX
  5
2D1
  8
0
  6
CONTINUOUS
 62
     7
 10
300.4092886766
 20
210.1948525074
 30
0.0
  0
VERTEX
  5
2D2
  8
0
  6
CONTINUOUS
 62
     7
 10
300.9647788716
 20
210.733672437
 30
0.0
  0
VERTEX
  5
2D3
  8
0
  6
CONTINUOUS
 62
     7
 10
301.6108887422
 20
211.1310943159
 30
0.0
  0
VERTEX
  5
2D4
  8
0
  6
CONTINUOUS
 62
     7
 10
302.3370081485
 20
211.3805929475
 30
0.0
  0
VERTEX
  5
2D5
  8
0
  6
CONTINUOUS
 62
     7
 10
303.13121513
 20
211.4780707895
 30
0.0
  0
VERTEX
  5
2D6
  8
0
  6
CONTINUOUS
 62
     7
 10
303.9804686945
 20
211.4219280302
 30
0.0
  0
VERTEX
  5
2D7
  8
0
  6
CONTINUOUS
 62
     7
 10
304.8708238328
 20
211.2130863729
 30
0.0
  0
VERTEX
  5
2D8
  8
0
  6
CONTINUOUS
 62
     7
 10
305.787660939
 20
210.8549748464
 30
0.0
  0
VERTEX
  5
2D9
  8
0
  6
CONTINUOUS
 62
     7
 10
306.7159257475
 20
210.3534734225
 30
0.0
  0
VERTEX
  5
2DA
  8
0
  6
CONTINUOUS
 62
     7
 10
307.6403761427
 20
209.7168169237
 30
0.0
  0
VERTEX
  5
2DB
  8
0
  6
CONTINUOUS
 62
     7
 10
308.545832612
 20
208.9554595657
 30
0.0
  0
VERTEX
  5
2DC
  8
0
  6
CONTINUOUS
 62
     7
 10
309.4174277929
 20
208.0819027593
 30
0.0
  0
VERTEX
  5
2DD
  8
0
  6
CONTINUOUS
 62
     7
 10
310.2408497844
 20
207.1104892504
 30
0.0
  0
VERTEX
  5
2DE
  8
0
  6
CONTINUOUS
 62
     7
 10
311.0025780093
 20
206.057171141
 30
0.0
  0
VERTEX
  5
2DF
  8
0
  6
CONTINUOUS
 62
     7
 10
311.6901053904
 20
204.9392428454
 30
0.0
  0
VERTEX
  5
2E0
  8
0
  6
CONTINUOUS
 62
     7
 10
312.2921421698
 20
203.7750610684
 30
0.0
  0
VERTEX
  5
2E1
  8
0
  6
CONTINUOUS
 62
     7
 10
312.7988032652
 20
202.5837415889
 30
0.0
  0
VERTEX
  5
2E2
  8
0
  6
CONTINUOUS
 62
     7
 10
313.2017692838
 20
201.3848459637
 30
0.0
  0
VERTEX
  5
2E3
  8
0
  6
CONTINUOUS
 62
     7
 10
313.494423829
 20
200.1980596749
 30
0.0
  0
VERTEX
  5
2E4
  8
0
  6
CONTINUOUS
 62
     7
 10
313.6719608429
 20
199.0428701786
 30
0.0
  0
VERTEX
  5
2E5
  8
0
  6
CONTINUOUS
 62
     7
 10
313.7314656075
 20
197.9382453323
 30
0.0
  0
SEQEND
  5
2E6
  8
0
  6
CONTINUOUS
 62
     7
  0
LINE
  5
19E
  8
0
  6
CONTINUOUS
 62
     7
 10
320.6257562078
 20
247.033406911
 30
0.0
 11
322.0399698373
 21
247.8498150616
 31
0.0
  0
POLYLINE
  5
19F
  8
0
  6
CONTINUOUS
 62
     7
 66
     1
 10
0.0
 20
0.0
 30
0.0
  0
VERTEX
  5
2E7
  8
0
  6
CONTINUOUS
 62
     7
 10
322.0399698373
 20
247.8498150616
 30
0.0
  0
VERTEX
  5
2E8
  8
0
  6
CONTINUOUS
 62
     7
 10
321.979641892
 20
249.391459318
 30
0.0
  0
VERTEX
  5
2E9
  8
0
  6
CONTINUOUS
 62
     7
 10
321.799173038
 20
250.98960458
 30
0.0
  0
VERTEX
  5
2EA
  8
0
  6
CONTINUOUS
 62
     7
 10
321.5001029522
 20
252.6306166529
 30
0.0
  0
VERTEX
  5
2EB
  8
0
  6
CONTINUOUS
 62
     7
 10
321.0849828362
 20
254.3004903311
 30
0.0
  0
VERTEX
  5
2EC
  8
0
  6
CONTINUOUS
 62
     7
 10
320.5573556593
 20
255.9849824771
 30
0.0
  0
VERTEX
  5
2ED
  8
0
  6
CONTINUOUS
 62
     7
 10
319.9217205976
 20
257.6697238061
 30
0.0
  0
VERTEX
  5
2EE
  8
0
  6
CONTINUOUS
 62
     7
 10
319.1835027409
 20
259.3403337136
 30
0.0
  0
VERTEX
  5
2EF
  8
0
  6
CONTINUOUS
 62
     7
 10
318.3489990917
 20
260.9825670391
 30
0.0
  0
VERTEX
  5
2F0
  8
0
  6
CONTINUOUS
 62
     7
 10
317.4253298331
 20
262.5824091196
 30
0.0
  0
VERTEX
  5
2F1
  8
0
  6
CONTINUOUS
 62
     7
 10
316.4203751089
 20
264.1262157089
 30
0.0
  0
VERTEX
  5
2F2
  8
0
  6
CONTINUOUS
 62
     7
 10
315.3427098269
 20
265.6008053675
 30
0.0
  0
VERTEX
  5
2F3
  8
0
  6
CONTINUOUS
 62
     7
 10
314.2015266101
 20
266.9936012821
 30
0.0
  0
VERTEX
  5
2F4
  8
0
  6
CONTINUOUS
 62
     7
 10
313.0065630268
 20
268.2927219435
 30
0.0
  0
VERTEX
  5
2F5
  8
0
  6
CONTINUOUS
 62
     7
 10
311.7680136752
 20
269.4870866531
 30
0.0
  0
VERTEX
  5
2F6
  8
0
  6
CONTINUOUS
 62
     7
 10
310.4964450667
 20
270.5665072452
 30
0.0
  0
VERTEX
  5
2F7
  8
0
  6
CONTINUOUS
 62
     7
 10
309.2027061456
 20
271.5217640777
 30
0.0
  0
VERTEX
  5
2F8
  8
0
  6
CONTINUOUS
 62
     7
 10
307.8978345297
 20
272.3447149119
 30
0.0
  0
VERTEX
  5
2F9
  8
0
  6
CONTINUOUS
 62
     7
 10
306.5929629138
 20
273.0283367771
 30
0.0
  0
VERTEX
  5
2FA
  8
0
  6
CONTINUOUS
 62
     7
 10
305.2992239927
 20
273.5667991082
 30
0.0
  0
VERTEX
  5
2FB
  8
0
  6
CONTINUOUS
 62
     7
 10
304.0276553842
 20
273.9555003817
 30
0.0
  0
VERTEX
  5
2FC
  8
0
  6
CONTINUOUS
 62
     7
 10
302.7891060326
 20
274.1911343151
 30
0.0
  0
VERTEX
  5
2FD
  8
0
  6
CONTINUOUS
 62
     7
 10
301.5941424493
 20
274.2716892397
 30
0.0
  0
VERTEX
  5
2FE
  8
0
  6
CONTINUOUS
 62
     7
 10
300.4529592324
 20
274.1964754217
 30
0.0
  0
VERTEX
  5
2FF
  8
0
  6
CONTINUOUS
 62
     7
 10
299.3752939505
 20
273.9661316131
 30
0.0
  0
VERTEX
  5
300
  8
0
  6
CONTINUOUS
 62
     7
 10
298.3703392263
 20
273.5826210508
 30
0.0
  0
VERTEX
  5
301
  8
0
  6
CONTINUOUS
 62
     7
 10
297.8986475028
 20
273.3348757758
 30
0.0
  0
SEQEND
  5
302
  8
0
  6
CONTINUOUS
 62
     7
  0
POLYLINE
  5
1A0
  8
0
  6
CONTINUOUS
 62
     7
 66
     1
 10
0.0
 20
0.0
 30
0.0
  0
VERTEX
  5
303
  8
0
  6
CONTINUOUS
 62
     7
 10
314.148285962
 20
259.2737110716
 30
0.0
  0
VERTEX
  5
304
  8
0
  6
CONTINUOUS
 62
     7
 10
313.731465484
 20
259.3133856136
 30
0.0
  0
VERTEX
  5
305
  8
0
  6
CONTINUOUS
 62
     7
 10
313.3653489819
 20
259.2003327858
 30
0.0
  0
VERTEX
  5
306
  8
0
  6
CONTINUOUS
 62
     7
 10
313.0844178461
 20
258.9397360968
 30
0.0
  0
VERTEX
  5
307
  8
0
  6
CONTINUOUS
 62
     7
 10
312.9078172825
 20
258.549349589
 30
0.0
  0
VERTEX
  5
308
  8
0
  6
CONTINUOUS
 62
     7
 10
312.8475818627
 20
258.0557835584
 30
0.0
  0
VERTEX
  5
309
  8
0
  6
CONTINUOUS
 62
     7
 10
312.9078172825
 20
257.4926651087
 30
0.0
  0
VERTEX
  5
30A
  8
0
  6
CONTINUOUS
 62
     7
 10
313.0844178461
 20
256.8983799302
 30
0.0
  0
VERTEX
  5
30B
  8
0
  6
CONTINUOUS
 62
     7
 10
313.3653489819
 20
256.313427056
 30
0.0
  0
VERTEX
  5
30C
  8
0
  6
CONTINUOUS
 62
     7
 10
313.731465484
 20
255.7776651124
 30
0.0
  0
VERTEX
  5
30D
  8
0
  6
CONTINUOUS
 62
     7
 10
314.1578170767
 20
255.3276057643
 30
0.0
  0
VERTEX
  5
30E
  8
0
  6
CONTINUOUS
 62
     7
 10
314.6153487761
 20
254.9939172748
 30
0.0
  0
VERTEX
  5
30F
  8
0
  6
CONTINUOUS
 62
     7
 10
315.0728804756
 20
254.7993509084
 30
0.0
  0
VERTEX
  5
310
  8
0
  6
CONTINUOUS
 62
     7
 10
315.4992327268
 20
254.7571548053
 30
0.0
  0
VERTEX
  5
311
  8
0
  6
CONTINUOUS
 62
     7
 10
315.8653492289
 20
254.8702076332
 30
0.0
  0
VERTEX
  5
312
  8
0
  6
CONTINUOUS
 62
     7
 10
316.1462797062
 20
255.1308047023
 30
0.0
  0
VERTEX
  5
313
  8
0
  6
CONTINUOUS
 62
     7
 10
316.3202223842
 20
255.5114038033
 30
0.0
  0
SEQEND
  5
314
  8
0
  6
CONTINUOUS
 62
     7
  0
LINE
  5
1A1
  8
0
  6
CONTINUOUS
 62
     7
 10
320.6257562078
 20
87.8079544337
 30
0.0
 11
322.0399698373
 21
88.6243625843
 31
0.0
  0
LINE
  5
1A2
  8
0
  6
CONTINUOUS
 62
     7
 10
322.0399698373
 20
88.6243625843
 30
0.0
 11
322.0399698373
 21
247.8498150616
 31
0.0
  0
POLYLINE
  5
1A3
  8
0
  6
CONTINUOUS
 62
     7
 66
     1
 10
0.0
 20
0.0
 30
0.0
  0
VERTEX
  5
315
  8
0
  6
CONTINUOUS
 62
     7
 10
313.554787171
 20
259.2806864081
 30
0.0
  0
VERTEX
  5
316
  8
0
  6
CONTINUOUS
 62
     7
 10
313.4379712535
 20
259.1438381345
 30
0.0
  0
VERTEX
  5
317
  8
0
  6
CONTINUOUS
 62
     7
 10
313.2613706898
 20
258.7534516266
 30
0.0
  0
VERTEX
  5
318
  8
0
  6
CONTINUOUS
 62
     7
 10
313.2011352701
 20
258.259885596
 30
0.0
  0
VERTEX
  5
319
  8
0
  6
CONTINUOUS
 62
     7
 10
313.2613706898
 20
257.6967671463
 30
0.0
  0
VERTEX
  5
31A
  8
0
  6
CONTINUOUS
 62
     7
 10
313.4379712535
 20
257.1024819678
 30
0.0
  0
VERTEX
  5
31B
  8
0
  6
CONTINUOUS
 62
     7
 10
313.7189023893
 20
256.5175290936
 30
0.0
  0
VERTEX
  5
31C
  8
0
  6
CONTINUOUS
 62
     7
 10
314.0850188914
 20
255.98176715
 30
0.0
  0
VERTEX
  5
31D
  8
0
  6
CONTINUOUS
 62
     7
 10
314.5113704841
 20
255.531707802
 30
0.0
  0
VERTEX
  5
31E
  8
0
  6
CONTINUOUS
 62
     7
 10
314.9689021835
 20
255.1980193124
 30
0.0
  0
VERTEX
  5
31F
  8
0
  6
CONTINUOUS
 62
     7
 10
315.426433883
 20
255.003452946
 30
0.0
  0
VERTEX
  5
320
  8
0
  6
CONTINUOUS
 62
     7
 10
315.8527861341
 20
254.961256843
 30
0.0
  0
VERTEX
  5
321
  8
0
  6
CONTINUOUS
 62
     7
 10
316.0294637475
 20
254.9939562151
 30
0.0
  0
SEQEND
  5
322
  8
0
  6
CONTINUOUS
 62
     7
  0
POLYLINE
  5
1A4
  8
0
  6
CONTINUOUS
 62
     7
 66
     1
 10
0.0
 20
0.0
 30
0.0
  0
VERTEX
  5
323
  8
0
  6
CONTINUOUS
 62
     7
 10
300.0061499958
 20
267.4377923875
 30
0.0
  0
VERTEX
  5
324
  8
0
  6
CONTINUOUS
 62
     7
 10
299.5893295179
 20
267.4774669295
 30
0.0
  0
VERTEX
  5
325
  8
0
  6
CONTINUOUS
 62
     7
 10
299.2232130157
 20
267.3644141017
 30
0.0
  0
VERTEX
  5
326
  8
0
  6
CONTINUOUS
 62
     7
 10
298.9422825384
 20
267.1038170326
 30
0.0
  0
VERTEX
  5
327
  8
0
  6
CONTINUOUS
 62
     7
 10
298.7656813163
 20
266.7134309049
 30
0.0
  0
VERTEX
  5
328
  8
0
  6
CONTINUOUS
 62
     7
 10
298.7054462258
 20
266.2198646842
 30
0.0
  0
VERTEX
  5
329
  8
0
  6
CONTINUOUS
 62
     7
 10
298.7656813163
 20
265.6567464246
 30
0.0
  0
VERTEX
  5
32A
  8
0
  6
CONTINUOUS
 62
     7
 10
298.9422825384
 20
265.0624608659
 30
0.0
  0
VERTEX
  5
32B
  8
0
  6
CONTINUOUS
 62
     7
 10
299.2232130157
 20
264.4775083719
 30
0.0
  0
VERTEX
  5
32C
  8
0
  6
CONTINUOUS
 62
     7
 10
299.5893295179
 20
263.9417464283
 30
0.0
  0
VERTEX
  5
32D
  8
0
  6
CONTINUOUS
 62
     7
 10
300.015681769
 20
263.4916867001
 30
0.0
  0
VERTEX
  5
32E
  8
0
  6
CONTINUOUS
 62
     7
 10
300.4732134685
 20
263.1579982105
 30
0.0
  0
VERTEX
  5
32F
  8
0
  6
CONTINUOUS
 62
     7
 10
300.9307451679
 20
262.9634318441
 30
0.0
  0
VERTEX
  5
330
  8
0
  6
CONTINUOUS
 62
     7
 10
301.3570967606
 20
262.9212361213
 30
0.0
  0
VERTEX
  5
331
  8
0
  6
CONTINUOUS
 62
     7
 10
301.7232132627
 20
263.0342889491
 30
0.0
  0
VERTEX
  5
332
  8
0
  6
CONTINUOUS
 62
     7
 10
302.0041443985
 20
263.294885638
 30
0.0
  0
VERTEX
  5
333
  8
0
  6
CONTINUOUS
 62
     7
 10
302.1780867473
 20
263.6754849291
 30
0.0
  0
SEQEND
  5
334
  8
0
  6
CONTINUOUS
 62
     7
  0
POLYLINE
  5
1A5
  8
0
  6
CONTINUOUS
 62
     7
 66
     1
 10
0.0
 20
0.0
 30
0.0
  0
VERTEX
  5
335
  8
0
  6
CONTINUOUS
 62
     7
 10
299.4126518634
 20
267.4447673438
 30
0.0
  0
VERTEX
  5
336
  8
0
  6
CONTINUOUS
 62
     7
 10
299.2958359458
 20
267.3079190702
 30
0.0
  0
VERTEX
  5
337
  8
0
  6
CONTINUOUS
 62
     7
 10
299.1192347237
 20
266.9175329425
 30
0.0
  0
VERTEX
  5
338
  8
0
  6
CONTINUOUS
 62
     7
 10
299.0589996332
 20
266.4239667218
 30
0.0
  0
VERTEX
  5
339
  8
0
  6
CONTINUOUS
 62
     7
 10
299.1192347237
 20
265.8608484623
 30
0.0
  0
VERTEX
  5
33A
  8
0
  6
CONTINUOUS
 62
     7
 10
299.2958359458
 20
265.2665629036
 30
0.0
  0
VERTEX
  5
33B
  8
0
  6
CONTINUOUS
 62
     7
 10
299.5767664231
 20
264.6816104095
 30
0.0
  0
VERTEX
  5
33C
  8
0
  6
CONTINUOUS
 62
     7
 10
299.9428829252
 20
264.145848466
 30
0.0
  0
VERTEX
  5
33D
  8
0
  6
CONTINUOUS
 62
     7
 10
300.3692351764
 20
263.6957887377
 30
0.0
  0
VERTEX
  5
33E
  8
0
  6
CONTINUOUS
 62
     7
 10
300.8267668759
 20
263.3621002482
 30
0.0
  0
VERTEX
  5
33F
  8
0
  6
CONTINUOUS
 62
     7
 10
301.2842985753
 20
263.1675338818
 30
0.0
  0
VERTEX
  5
340
  8
0
  6
CONTINUOUS
 62
     7
 10
301.710650168
 20
263.1253381589
 30
0.0
  0
VERTEX
  5
341
  8
0
  6
CONTINUOUS
 62
     7
 10
301.8873284398
 20
263.1580371509
 30
0.0
  0
SEQEND
  5
342
  8
0
  6
CONTINUOUS
 62
     7
  0
POLYLINE
  5
1A6
  8
0
  6
CONTINUOUS
 62
     7
 66
     1
 10
0.0
 20
0.0
 30
0.0
  0
VERTEX
  5
343
  8
0
  6
CONTINUOUS
 62
     7
 10
306.3421992902
 20
208.5719612682
 30
0.0
  0
VERTEX
  5
344
  8
0
  6
CONTINUOUS
 62
     7
 10
306.3997784708
 20
209.4683684828
 30
0.0
  0
VERTEX
  5
345
  8
0
  6
CONTINUOUS
 62
     7
 10
306.4415703638
 20
209.7336111191
 30
0.0
  0
SEQEND
  5
346
  8
0
  6
CONTINUOUS
 62
     7
  0
ARC
  5
1A7
  8
0
  6
CONTINUOUS
 62
     7
 10
318.0811770509
 20
208.8923089124
 30
0.0
 40
11.74334796715656
 50
181.5631696533
 51
244.6450547923
  0
POLYLINE
  5
1A8
  8
0
  6
CONTINUOUS
 62
     7
 66
     1
 10
0.0
 20
0.0
 30
0.0
  0
VERTEX
  5
347
  8
0
  6
CONTINUOUS
 62
     7
 10
317.8970215566
 20
79.4674637416
 30
0.0
  0
VERTEX
  5
348
  8
0
  6
CONTINUOUS
 62
     7
 10
318.3489990917
 20
79.7531147211
 30
0.0
  0
VERTEX
  5
349
  8
0
  6
CONTINUOUS
 62
     7
 10
319.1835027409
 20
80.431844558
 30
0.0
  0
VERTEX
  5
34A
  8
0
  6
CONTINUOUS
 62
     7
 10
319.9217205976
 20
81.2501262705
 30
0.0
  0
VERTEX
  5
34B
  8
0
  6
CONTINUOUS
 62
     7
 10
320.5573556593
 20
82.2009850623
 30
0.0
  0
VERTEX
  5
34C
  8
0
  6
CONTINUOUS
 62
     7
 10
321.0849828362
 20
83.276285753
 30
0.0
  0
VERTEX
  5
34D
  8
0
  6
CONTINUOUS
 62
     7
 10
321.5001029522
 20
84.4668719471
 30
0.0
  0
VERTEX
  5
34E
  8
0
  6
CONTINUOUS
 62
     7
 10
321.799173038
 20
85.7625850489
 30
0.0
  0
VERTEX
  5
34F
  8
0
  6
CONTINUOUS
 62
     7
 10
321.979641892
 20
87.1523654072
 30
0.0
  0
VERTEX
  5
350
  8
0
  6
CONTINUOUS
 62
     7
 10
322.0399698373
 20
88.6243625843
 30
0.0
  0
SEQEND
  5
351
  8
0
  6
CONTINUOUS
 62
     7
  0
POLYLINE
  5
1A9
  8
0
  6
CONTINUOUS
 62
     7
 66
     1
 10
0.0
 20
0.0
 30
0.0
  0
VERTEX
  5
352
  8
0
  6
CONTINUOUS
 62
     7
 10
314.148285962
 20
89.4332186951
 30
0.0
  0
VERTEX
  5
353
  8
0
  6
CONTINUOUS
 62
     7
 10
313.731465484
 20
89.4728993208
 30
0.0
  0
VERTEX
  5
354
  8
0
  6
CONTINUOUS
 62
     7
 10
313.3653489819
 20
89.359846493
 30
0.0
  0
VERTEX
  5
355
  8
0
  6
CONTINUOUS
 62
     7
 10
313.0844178461
 20
89.0992437204
 30
0.0
  0
VERTEX
  5
356
  8
0
  6
CONTINUOUS
 62
     7
 10
312.9078172825
 20
88.7088632962
 30
0.0
  0
VERTEX
  5
357
  8
0
  6
CONTINUOUS
 62
     7
 10
312.8475818627
 20
88.2152911819
 30
0.0
  0
VERTEX
  5
358
  8
0
  6
CONTINUOUS
 62
     7
 10
312.9078172825
 20
87.6521727322
 30
0.0
  0
VERTEX
  5
359
  8
0
  6
CONTINUOUS
 62
     7
 10
313.0844178461
 20
87.0578936375
 30
0.0
  0
VERTEX
  5
35A
  8
0
  6
CONTINUOUS
 62
     7
 10
313.3653489819
 20
86.4729346795
 30
0.0
  0
VERTEX
  5
35B
  8
0
  6
CONTINUOUS
 62
     7
 10
313.731465484
 20
85.9371727359
 30
0.0
  0
VERTEX
  5
35C
  8
0
  6
CONTINUOUS
 62
     7
 10
314.1578170767
 20
85.4871194716
 30
0.0
  0
VERTEX
  5
35D
  8
0
  6
CONTINUOUS
 62
     7
 10
314.6153487761
 20
85.153430982
 30
0.0
  0
VERTEX
  5
35E
  8
0
  6
CONTINUOUS
 62
     7
 10
315.0728804756
 20
84.9588646156
 30
0.0
  0
VERTEX
  5
35F
  8
0
  6
CONTINUOUS
 62
     7
 10
315.4992327268
 20
84.9166624289
 30
0.0
  0
VERTEX
  5
360
  8
0
  6
CONTINUOUS
 62
     7
 10
315.8653492289
 20
85.0297152567
 30
0.0
  0
VERTEX
  5
361
  8
0
  6
CONTINUOUS
 62
     7
 10
316.1462797062
 20
85.2903184095
 30
0.0
  0
VERTEX
  5
362
  8
0
  6
CONTINUOUS
 62
     7
 10
316.3202223842
 20
85.6709175106
 30
0.0
  0
SEQEND
  5
363
  8
0
  6
CONTINUOUS
 62
     7
  0
POLYLINE
  5
1AA
  8
0
  6
CONTINUOUS
 62
     7
 66
     1
 10
0.0
 20
0.0
 30
0.0
  0
VERTEX
  5
364
  8
0
  6
CONTINUOUS
 62
     7
 10
313.554787171
 20
89.4402001153
 30
0.0
  0
VERTEX
  5
365
  8
0
  6
CONTINUOUS
 62
     7
 10
313.4379712535
 20
89.303345758
 30
0.0
  0
VERTEX
  5
366
  8
0
  6
CONTINUOUS
 62
     7
 10
313.2613706898
 20
88.9129653339
 30
0.0
  0
VERTEX
  5
367
  8
0
  6
CONTINUOUS
 62
     7
 10
313.2011352701
 20
88.4193932196
 30
0.0
  0
VERTEX
  5
368
  8
0
  6
CONTINUOUS
 62
     7
 10
313.2613706898
 20
87.8562747699
 30
0.0
  0
VERTEX
  5
369
  8
0
  6
CONTINUOUS
 62
     7
 10
313.4379712535
 20
87.2619956751
 30
0.0
  0
VERTEX
  5
36A
  8
0
  6
CONTINUOUS
 62
     7
 10
313.7189023893
 20
86.6770367172
 30
0.0
  0
VERTEX
  5
36B
  8
0
  6
CONTINUOUS
 62
     7
 10
314.0850188914
 20
86.1412747736
 30
0.0
  0
VERTEX
  5
36C
  8
0
  6
CONTINUOUS
 62
     7
 10
314.5113704841
 20
85.6912215092
 30
0.0
  0
VERTEX
  5
36D
  8
0
  6
CONTINUOUS
 62
     7
 10
314.9689021835
 20
85.3575330197
 30
0.0
  0
VERTEX
  5
36E
  8
0
  6
CONTINUOUS
 62
     7
 10
315.426433883
 20
85.1629666533
 30
0.0
  0
VERTEX
  5
36F
  8
0
  6
CONTINUOUS
 62
     7
 10
315.8527861341
 20
85.1207644665
 30
0.0
  0
VERTEX
  5
370
  8
0
  6
CONTINUOUS
 62
     7
 10
316.0294637475
 20
85.1534638387
 30
0.0
  0
SEQEND
  5
371
  8
0
  6
CONTINUOUS
 62
     7
  0
POLYLINE
  5
1AB
  8
0
  6
CONTINUOUS
 62
     7
 66
     1
 10
0.0
 20
0.0
 30
0.0
  0
VERTEX
  5
372
  8
0
  6
CONTINUOUS
 62
     7
 10
300.0061499958
 20
97.597300011
 30
0.0
  0
VERTEX
  5
373
  8
0
  6
CONTINUOUS
 62
     7
 10
299.5893295179
 20
97.6369806367
 30
0.0
  0
VERTEX
  5
374
  8
0
  6
CONTINUOUS
 62
     7
 10
299.2232130157
 20
97.5239278089
 30
0.0
  0
VERTEX
  5
375
  8
0
  6
CONTINUOUS
 62
     7
 10
298.9422825384
 20
97.2633246561
 30
0.0
  0
VERTEX
  5
376
  8
0
  6
CONTINUOUS
 62
     7
 10
298.7656813163
 20
96.8729446122
 30
0.0
  0
VERTEX
  5
377
  8
0
  6
CONTINUOUS
 62
     7
 10
298.7054462258
 20
96.3793723077
 30
0.0
  0
VERTEX
  5
378
  8
0
  6
CONTINUOUS
 62
     7
 10
298.7656813163
 20
95.8162540482
 30
0.0
  0
VERTEX
  5
379
  8
0
  6
CONTINUOUS
 62
     7
 10
298.9422825384
 20
95.2219745732
 30
0.0
  0
VERTEX
  5
37A
  8
0
  6
CONTINUOUS
 62
     7
 10
299.2232130157
 20
94.6370159954
 30
0.0
  0
VERTEX
  5
37B
  8
0
  6
CONTINUOUS
 62
     7
 10
299.5893295179
 20
94.1012540519
 30
0.0
  0
VERTEX
  5
37C
  8
0
  6
CONTINUOUS
 62
     7
 10
300.015681769
 20
93.6512004073
 30
0.0
  0
VERTEX
  5
37D
  8
0
  6
CONTINUOUS
 62
     7
 10
300.4732134685
 20
93.3175119178
 30
0.0
  0
VERTEX
  5
37E
  8
0
  6
CONTINUOUS
 62
     7
 10
300.9307451679
 20
93.1229455514
 30
0.0
  0
VERTEX
  5
37F
  8
0
  6
CONTINUOUS
 62
     7
 10
301.3570967606
 20
93.0807437448
 30
0.0
  0
VERTEX
  5
380
  8
0
  6
CONTINUOUS
 62
     7
 10
301.7232132627
 20
93.1937965726
 30
0.0
  0
VERTEX
  5
381
  8
0
  6
CONTINUOUS
 62
     7
 10
302.0041443985
 20
93.4543993453
 30
0.0
  0
VERTEX
  5
382
  8
0
  6
CONTINUOUS
 62
     7
 10
302.1780867473
 20
93.8349986364
 30
0.0
  0
SEQEND
  5
383
  8
0
  6
CONTINUOUS
 62
     7
  0
POLYLINE
  5
1AC
  8
0
  6
CONTINUOUS
 62
     7
 66
     1
 10
0.0
 20
0.0
 30
0.0
  0
VERTEX
  5
384
  8
0
  6
CONTINUOUS
 62
     7
 10
299.4126518634
 20
97.6042810511
 30
0.0
  0
VERTEX
  5
385
  8
0
  6
CONTINUOUS
 62
     7
 10
299.2958359458
 20
97.4674266938
 30
0.0
  0
VERTEX
  5
386
  8
0
  6
CONTINUOUS
 62
     7
 10
299.1192347237
 20
97.0770466498
 30
0.0
  0
VERTEX
  5
387
  8
0
  6
CONTINUOUS
 62
     7
 10
299.0589996332
 20
96.5834743454
 30
0.0
  0
VERTEX
  5
388
  8
0
  6
CONTINUOUS
 62
     7
 10
299.1192347237
 20
96.0203560858
 30
0.0
  0
VERTEX
  5
389
  8
0
  6
CONTINUOUS
 62
     7
 10
299.2958359458
 20
95.4260766108
 30
0.0
  0
VERTEX
  5
38A
  8
0
  6
CONTINUOUS
 62
     7
 10
299.5767664231
 20
94.8411180331
 30
0.0
  0
VERTEX
  5
38B
  8
0
  6
CONTINUOUS
 62
     7
 10
299.9428829252
 20
94.3053560895
 30
0.0
  0
VERTEX
  5
38C
  8
0
  6
CONTINUOUS
 62
     7
 10
300.3692351764
 20
93.855302445
 30
0.0
  0
VERTEX
  5
38D
  8
0
  6
CONTINUOUS
 62
     7
 10
300.8267668759
 20
93.5216139554
 30
0.0
  0
VERTEX
  5
38E
  8
0
  6
CONTINUOUS
 62
     7
 10
301.2842985753
 20
93.327047589
 30
0.0
  0
VERTEX
  5
38F
  8
0
  6
CONTINUOUS
 62
     7
 10
301.710650168
 20
93.2848457825
 30
0.0
  0
VERTEX
  5
390
  8
0
  6
CONTINUOUS
 62
     7
 10
301.8873284398
 20
93.3175447744
 30
0.0
  0
SEQEND
  5
391
  8
0
  6
CONTINUOUS
 62
     7
  0
POLYLINE
  5
1AD
  8
0
  6
CONTINUOUS
 62
     8
 66
     1
 10
0.0
 20
0.0
 30
0.0
  0
VERTEX
  5
392
  8
0
  6
CONTINUOUS
 62
     8
 10
304.0828575277
 20
209.9737420405
 30
0.0
  0
VERTEX
  5
393
  8
0
  6
CONTINUOUS
 62
     8
 10
303.799445984
 20
209.7865607767
 30
0.0
  0
VERTEX
  5
394
  8
0
  6
CONTINUOUS
 62
     8
 10
303.3157624943
 20
209.3196636101
 30
0.0
  0
VERTEX
  5
395
  8
0
  6
CONTINUOUS
 62
     8
 10
302.9289555115
 20
208.7249464746
 30
0.0
  0
VERTEX
  5
396
  8
0
  6
CONTINUOUS
 62
     8
 10
302.6468992524
 20
208.0145166782
 30
0.0
  0
VERTEX
  5
397
  8
0
  6
CONTINUOUS
 62
     8
 10
302.4753358957
 20
207.2028360074
 30
0.0
  0
VERTEX
  5
398
  8
0
  6
CONTINUOUS
 62
     8
 10
302.4177567152
 20
206.3064287928
 30
0.0
  0
VERTEX
  5
399
  8
0
  6
CONTINUOUS
 62
     8
 10
302.4753358957
 20
205.3435420715
 30
0.0
  0
VERTEX
  5
39A
  8
0
  6
CONTINUOUS
 62
     8
 10
302.6468992524
 20
204.3337785653
 30
0.0
  0
VERTEX
  5
39B
  8
0
  6
CONTINUOUS
 62
     8
 10
302.9289555115
 20
203.297693544
 30
0.0
  0
VERTEX
  5
39C
  8
0
  6
CONTINUOUS
 62
     8
 10
303.3157624943
 20
202.2563785723
 30
0.0
  0
VERTEX
  5
39D
  8
0
  6
CONTINUOUS
 62
     8
 10
303.799445984
 20
201.2310323354
 30
0.0
  0
VERTEX
  5
39E
  8
0
  6
CONTINUOUS
 62
     8
 10
304.3701594231
 20
200.2425276651
 30
0.0
  0
VERTEX
  5
39F
  8
0
  6
CONTINUOUS
 62
     8
 10
305.0162847695
 20
199.3109876009
 30
0.0
  0
VERTEX
  5
3A0
  8
0
  6
CONTINUOUS
 62
     8
 10
305.7246690783
 20
198.4553756172
 30
0.0
  0
VERTEX
  5
3A1
  8
0
  6
CONTINUOUS
 62
     8
 10
306.4808912126
 20
197.693109714
 30
0.0
  0
VERTEX
  5
3A2
  8
0
  6
CONTINUOUS
 62
     8
 10
307.2695569537
 20
197.0397076407
 30
0.0
  0
VERTEX
  5
3A3
  8
0
  6
CONTINUOUS
 62
     8
 10
308.0746112334
 20
196.5084693851
 30
0.0
  0
VERTEX
  5
3A4
  8
0
  6
CONTINUOUS
 62
     8
 10
308.8796655131
 20
196.1102117542
 30
0.0
  0
VERTEX
  5
3A5
  8
0
  6
CONTINUOUS
 62
     8
 10
309.6683312542
 20
195.8530397449
 30
0.0
  0
VERTEX
  5
3A6
  8
0
  6
CONTINUOUS
 62
     8
 10
310.4245533885
 20
195.7421901566
 30
0.0
  0
VERTEX
  5
3A7
  8
0
  6
CONTINUOUS
 62
     8
 10
311.1329376973
 20
195.7799190265
 30
0.0
  0
VERTEX
  5
3A8
  8
0
  6
CONTINUOUS
 62
     8
 10
311.7790630437
 20
195.9654586449
 30
0.0
  0
VERTEX
  5
3A9
  8
0
  6
CONTINUOUS
 62
     8
 10
312.0655862102
 20
196.1074044458
 30
0.0
  0
SEQEND
  5
3AA
  8
0
  6
CONTINUOUS
 62
     8
  0
LINE
  5
1AE
  8
0
  6
CONTINUOUS
 62
     7
 10
179.3282107594
 20
23.5524706368
 30
0.0
 11
181.3282108544
 21
23.5524706368
 31
0.0
  0
LINE
  5
1AF
  8
0
  6
CONTINUOUS
 62
     7
 10
181.3282108544
 20
258.5524774914
 30
0.0
 11
179.3282107594
 21
258.5524774914
 31
0.0
  0
ARC
  5
1B0
  8
0
  6
CONTINUOUS
 62
     7
 10
181.5782108544
 20
164.0524765973
 30
0.0
 40
0.2500000000000284
 50
90.0
 51
180.0
  0
ARC
  5
1B1
  8
0
  6
CONTINUOUS
 62
     7
 10
181.5782108544
 20
183.0524765973
 30
0.0
 40
0.2500000000000284
 50
180.0
 51
270.0
  0
LINE
  5
1B2
  8
0
  6
CONTINUOUS
 62
     7
 10
181.5782108662
 20
164.3024764781
 30
0.0
 11
187.1282107806
 21
164.3024764781
 31
0.0
  0
LINE
  5
1B3
  8
0
  6
CONTINUOUS
 62
     7
 10
187.1282107806
 20
182.8024767165
 30
0.0
 11
181.5782108662
 21
182.8024767165
 31
0.0
  0
LINE
  5
1B4
  8
0
  6
CONTINUOUS
 62
     7
 10
179.3282107594
 20
23.5524706368
 30
0.0
 11
179.3282107594
 21
43.5524813657
 31
0.0
  0
LINE
  5
1B5
  8
0
  6
CONTINUOUS
 62
     7
 10
181.3282108544
 20
23.5524706368
 30
0.0
 11
181.3282108544
 21
43.5524813657
 31
0.0
  0
LINE
  5
1B6
  8
0
  6
CONTINUOUS
 62
     7
 10
179.3282107594
 20
43.5524813657
 30
0.0
 11
179.3282107594
 21
238.5524742131
 31
0.0
  0
LINE
  5
1B7
  8
0
  6
CONTINUOUS
 62
     7
 10
181.3282108544
 20
43.5524813657
 30
0.0
 11
181.3282108544
 21
238.5524742131
 31
0.0
  0
LINE
  5
1B8
  8
0
  6
CONTINUOUS
 62
     7
 10
179.3282107594
 20
238.5524742131
 30
0.0
 11
179.3282107594
 21
258.5524774914
 31
0.0
  0
LINE
  5
1B9
  8
0
  6
CONTINUOUS
 62
     7
 10
181.3282108544
 20
238.5524742131
 30
0.0
 11
181.3282108544
 21
258.5524774914
 31
0.0
  0
LINE
  5
1BA
  8
0
  6
CONTINUOUS
 62
     7
 10
187.1282107806
 20
182.8024767165
 30
0.0
 11
187.1282107806
 21
164.3024764781
 31
0.0
  0
DIMENSION
  5
1BB
  8
BLOCK_0_4MM
 62
     7
  2
*D17
 10
179.3282108544
 20
263.4379911299
 30
0.0
 11
173.5306564601
 21
263.4379911299
 31
0.0
 70
   160
  3
SLDDIMSTYLE2
 13
181.3282108544
 23
258.5524765973
 33
0.0
 14
179.3282108544
 24
258.5524765973
 34
0.0
  0
DIMENSION
  5
1C8
  8
BLOCK_0_4MM
 62
     7
  2
*D18
 10
179.3282108544
 20
174.4013671719
 30
0.0
 11
194.4137918975
 21
174.4013671719
 31
0.0
 70
   160
  3
SLDDIMSTYLE2
 13
187.1282108544
 23
182.8024765973
 33
0.0
 14
179.3282108544
 24
258.5524765973
 34
0.0
  0
ENDSEC
  0
EOF
