  0
SECTION
  2
HEADER
  9
$ACADVER
  1
AC1015
  9
$ACADMAINTVER
 70
     6
  9
$DWGCODEPAGE
  3
ANSI_1252
  9
$INSBASE
 10
0.0
 20
0.0
 30
0.0
  9
$EXTMIN
 10
0.0
 20
0.0
 30
0.0
  9
$EXTMAX
 10
210.0
 20
297.0
 30
0.0
  9
$LIMMIN
 10
0.0
 20
0.0
  9
$LIMMAX
 10
210.0
 20
297.0
  9
$ORTHOMODE
 70
     0
  9
$REGENMODE
 70
     1
  9
$FILLMODE
 70
     1
  9
$QTEXTMODE
 70
     0
  9
$MIRRTEXT
 70
     1
  9
$LTSCALE
 40
1.0
  9
$ATTMODE
 70
     1
  9
$TEXTSIZE
 40
2.5
  9
$TRACEWID
 40
1.0
  9
$TEXTSTYLE
  7
Standard
  9
$CLAYER
  8
0
  9
$CELTYPE
  6
ByLayer
  9
$CECOLOR
 62
   256
  9
$CELTSCALE
 40
1.0
  9
$DISPSILH
 70
     0
  9
$DIMSCALE
 40
1.0
  9
$DIMASZ
 40
2.5
  9
$DIMEXO
 40
0.625
  9
$DIMDLI
 40
3.75
  9
$DIMRND
 40
0.0
  9
$DIMDLE
 40
0.0
  9
$DIMEXE
 40
1.25
  9
$DIMTP
 40
0.0
  9
$DIMTM
 40
0.0
  9
$DIMTXT
 40
2.5
  9
$DIMCEN
 40
2.5
  9
$DIMTSZ
 40
0.0
  9
$DIMTOL
 70
     0
  9
$DIMLIM
 70
     0
  9
$DIMTIH
 70
     0
  9
$DIMTOH
 70
     0
  9
$DIMSE1
 70
     0
  9
$DIMSE2
 70
     0
  9
$DIMTAD
 70
     1
  9
$DIMZIN
 70
     8
  9
$DIMBLK
  1

  9
$DIMASO
 70
     1
  9
$DIMSHO
 70
     1
  9
$DIMPOST
  1

  9
$DIMAPOST
  1

  9
$DIMALT
 70
     0
  9
$DIMALTD
 70
     3
  9
$DIMALTF
 40
0.0393700787
  9
$DIMLFAC
 40
1.0
  9
$DIMTOFL
 70
     1
  9
$DIMTVP
 40
0.0
  9
$DIMTIX
 70
     0
  9
$DIMSOXD
 70
     0
  9
$DIMSAH
 70
     0
  9
$DIMBLK1
  1

  9
$DIMBLK2
  1

  9
$DIMSTYLE
  2
ISO-25
  9
$DIMCLRD
 70
     0
  9
$DIMCLRE
 70
     0
  9
$DIMCLRT
 70
     0
  9
$DIMTFAC
 40
1.0
  9
$DIMGAP
 40
0.625
  9
$DIMJUST
 70
     0
  9
$DIMSD1
 70
     0
  9
$DIMSD2
 70
     0
  9
$DIMTOLJ
 70
     0
  9
$DIMTZIN
 70
     8
  9
$DIMALTZ
 70
     0
  9
$DIMALTTZ
 70
     0
  9
$DIMUPT
 70
     0
  9
$DIMDEC
 70
     2
  9
$DIMTDEC
 70
     2
  9
$DIMALTU
 70
     2
  9
$DIMALTTD
 70
     3
  9
$DIMTXSTY
  7
Standard
  9
$DIMAUNIT
 70
     0
  9
$DIMADEC
 70
     0
  9
$DIMALTRND
 40
0.0
  9
$DIMAZIN
 70
     0
  9
$DIMDSEP
 70
    44
  9
$DIMATFIT
 70
     3
  9
$DIMFRAC
 70
     0
  9
$DIMLDRBLK
  1

  9
$DIMLUNIT
 70
     2
  9
$DIMLWD
 70
    -2
  9
$DIMLWE
 70
    -2
  9
$DIMTMOVE
 70
     0
  9
$LUNITS
 70
     2
  9
$LUPREC
 70
     4
  9
$SKETCHINC
 40
1.0
  9
$FILLETRAD
 40
10.0
  9
$AUNITS
 70
     0
  9
$AUPREC
 70
     0
  9
$MENU
  1
.
  9
$ELEVATION
 40
0.0
  9
$PELEVATION
 40
0.0
  9
$THICKNESS
 40
0.0
  9
$LIMCHECK
 70
     0
  9
$CHAMFERA
 40
10.0
  9
$CHAMFERB
 40
10.0
  9
$CHAMFERC
 40
20.0
  9
$CHAMFERD
 40
0.0
  9
$SKPOLY
 70
     0
  9
$TDCREATE
 40
2455334.502220891
  9
$TDUCREATE
 40
2455334.418887558
  9
$TDUPDATE
 40
2455334.502220903
  9
$TDUUPDATE
 40
2455334.41888757
  9
$TDINDWG
 40
0.0000000116
  9
$TDUSRTIMER
 40
0.0000000116
  9
$USRTIMER
 70
     1
  9
$ANGBASE
 50
0.0
  9
$ANGDIR
 70
     0
  9
$PDMODE
 70
     0
  9
$PDSIZE
 40
0.0
  9
$PLINEWID
 40
0.0
  9
$SPLFRAME
 70
     0
  9
$SPLINETYPE
 70
     6
  9
$SPLINESEGS
 70
     8
  9
$HANDSEED
  5
1F1
  9
$SURFTAB1
 70
     6
  9
$SURFTAB2
 70
     6
  9
$SURFTYPE
 70
     6
  9
$SURFU
 70
     6
  9
$SURFV
 70
     6
  9
$UCSBASE
  2

  9
$UCSNAME
  2

  9
$UCSORG
 10
0.0
 20
0.0
 30
0.0
  9
$UCSXDIR
 10
1.0
 20
0.0
 30
0.0
  9
$UCSYDIR
 10
0.0
 20
1.0
 30
0.0
  9
$UCSORTHOREF
  2

  9
$UCSORTHOVIEW
 70
     0
  9
$UCSORGTOP
 10
0.0
 20
0.0
 30
0.0
  9
$UCSORGBOTTOM
 10
0.0
 20
0.0
 30
0.0
  9
$UCSORGLEFT
 10
0.0
 20
0.0
 30
0.0
  9
$UCSORGRIGHT
 10
0.0
 20
0.0
 30
0.0
  9
$UCSORGFRONT
 10
0.0
 20
0.0
 30
0.0
  9
$UCSORGBACK
 10
0.0
 20
0.0
 30
0.0
  9
$PUCSBASE
  2

  9
$PUCSNAME
  2

  9
$PUCSORG
 10
0.0
 20
0.0
 30
0.0
  9
$PUCSXDIR
 10
1.0
 20
0.0
 30
0.0
  9
$PUCSYDIR
 10
0.0
 20
1.0
 30
0.0
  9
$PUCSORTHOREF
  2

  9
$PUCSORTHOVIEW
 70
     0
  9
$PUCSORGTOP
 10
0.0
 20
0.0
 30
0.0
  9
$PUCSORGBOTTOM
 10
0.0
 20
0.0
 30
0.0
  9
$PUCSORGLEFT
 10
0.0
 20
0.0
 30
0.0
  9
$PUCSORGRIGHT
 10
0.0
 20
0.0
 30
0.0
  9
$PUCSORGFRONT
 10
0.0
 20
0.0
 30
0.0
  9
$PUCSORGBACK
 10
0.0
 20
0.0
 30
0.0
  9
$USERI1
 70
     0
  9
$USERI2
 70
     0
  9
$USERI3
 70
     0
  9
$USERI4
 70
     0
  9
$USERI5
 70
     0
  9
$USERR1
 40
0.0
  9
$USERR2
 40
0.0
  9
$USERR3
 40
0.0
  9
$USERR4
 40
0.0
  9
$USERR5
 40
0.0
  9
$WORLDVIEW
 70
     1
  9
$SHADEDGE
 70
     3
  9
$SHADEDIF
 70
    70
  9
$TILEMODE
 70
     1
  9
$MAXACTVP
 70
    64
  9
$PINSBASE
 10
0.0
 20
0.0
 30
0.0
  9
$PLIMCHECK
 70
     0
  9
$PEXTMIN
 10
0.0
 20
0.0
 30
0.0
  9
$PEXTMAX
 10
210.0
 20
297.0
 30
0.0
  9
$PLIMMIN
 10
0.0
 20
0.0
  9
$PLIMMAX
 10
210.0
 20
297.0
  9
$UNITMODE
 70
     0
  9
$VISRETAIN
 70
     1
  9
$PLINEGEN
 70
     0
  9
$PSLTSCALE
 70
     1
  9
$TREEDEPTH
 70
  3020
  9
$CMLSTYLE
  2
Standard
  9
$CMLJUST
 70
     0
  9
$CMLSCALE
 40
20.0
  9
$PROXYGRAPHICS
 70
     1
  9
$MEASUREMENT
 70
     1
  9
$CELWEIGHT
370
    -1
  9
$ENDCAPS
280
     0
  9
$JOINSTYLE
280
     0
  9
$LWDISPLAY
290
     0
  9
$INSUNITS
 70
     4
  9
$HYPERLINKBASE
  1

  9
$STYLESHEET
  1

  9
$XEDIT
290
     1
  9
$CEPSNTYPE
380
     0
  9
$PSTYLEMODE
290
     1
  9
$FINGERPRINTGUID
  2
{4442DF87-0C99-40D2-BB66-C090B968D325}
  9
$VERSIONGUID
  2
{FAEB1C32-E019-11D5-929B-00C0DF256EC4}
  9
$EXTNAMES
290
     1
  9
$PSVPSCALE
 40
0.0
  9
$OLESTARTUP
290
     0
  0
ENDSEC
  0
SECTION
  2
CLASSES
  0
CLASS
  1
ACDBDICTIONARYWDFLT
  2
AcDbDictionaryWithDefault
  3
ObjectDBX Classes
 90
        0
280
     0
281
     0
  0
CLASS
  1
VISUALSTYLE
  2
AcDbVisualStyle
  3
ObjectDBX Classes
 90
     4095
280
     0
281
     0
  0
CLASS
  1
SCALE
  2
AcDbScale
  3
ObjectDBX Classes
 90
     1153
280
     0
281
     0
  0
CLASS
  1
DICTIONARYVAR
  2
AcDbDictionaryVar
  3
ObjectDBX Classes
 90
        0
280
     0
281
     0
  0
CLASS
  1
ACDBPLACEHOLDER
  2
AcDbPlaceHolder
  3
ObjectDBX Classes
 90
        0
280
     0
281
     0
  0
CLASS
  1
LAYOUT
  2
AcDbLayout
  3
ObjectDBX Classes
 90
        0
280
     0
281
     0
  0
ENDSEC
  0
SECTION
  2
TABLES
  0
TABLE
  2
VPORT
  5
8
330
0
100
AcDbSymbolTable
 70
     1
  0
VPORT
  5
29
330
8
100
AcDbSymbolTableRecord
100
AcDbViewportTableRecord
  2
*Active
 70
     0
 10
0.0
 20
0.0
 11
1.0
 21
1.0
 12
344.1869158879
 22
148.5
 13
0.0
 23
0.0
 14
10.0
 24
10.0
 15
10.0
 25
10.0
 16
0.0
 26
0.0
 36
1.0
 17
0.0
 27
0.0
 37
0.0
 40
297.0
 41
1.9729729729
 42
50.0
 43
0.0
 44
0.0
 50
0.0
 51
0.0
 71
     0
 72
   100
 73
     1
 74
     3
 75
     0
 76
     0
 77
     0
 78
     0
281
     0
 65
     1
110
0.0
120
0.0
130
0.0
111
1.0
121
0.0
131
0.0
112
0.0
122
1.0
132
0.0
 79
     0
146
0.0
  0
ENDTAB
  0
TABLE
  2
LTYPE
  5
5
330
0
100
AcDbSymbolTable
 70
     2
  0
LTYPE
  5
14
330
5
100
AcDbSymbolTableRecord
100
AcDbLinetypeTableRecord
  2
ByBlock
 70
     0
  3

 72
    65
 73
     0
 40
0.0
  0
LTYPE
  5
15
330
5
100
AcDbSymbolTableRecord
100
AcDbLinetypeTableRecord
  2
ByLayer
 70
     0
  3

 72
    65
 73
     0
 40
0.0
  0
LTYPE
  5
16
330
5
100
AcDbSymbolTableRecord
100
AcDbLinetypeTableRecord
  2
Continuous
 70
     0
  3
Solid line
 72
    65
 73
     0
 40
0.0
  0
LTYPE
  5
60
330
5
100
AcDbSymbolTableRecord
100
AcDbLinetypeTableRecord
  2
CENTER2
 70
     0
  3
Center (.5x) ___ _ ___ _ ___ _ ___ _ ___ _ ___
 72
    65
 73
     4
 40
28.575
 49
19.05
 74
     4
 75
     0
340
0
 46
0.0
 50
0.0
 44
0.0
 45
0.0
 49
-3.175
 74
     4
 75
     0
340
0
 46
0.0
 50
0.0
 44
0.0
 45
0.0
 49
3.175
 74
     4
 75
     0
340
0
 46
0.0
 50
0.0
 44
0.0
 45
0.0
 49
-3.175
 74
     4
 75
     0
340
0
 46
0.0
 50
0.0
 44
0.0
 45
0.0
  0
ENDTAB
  0
TABLE
  2
LAYER
  5
2
330
0
100
AcDbSymbolTable
 70
     6
  0
LAYER
  5
10
330
2
100
AcDbSymbolTableRecord
100
AcDbLayerTableRecord
  2
0
 70
     0
 62
     7
  6
Continuous
370
    -3
390
F
  0
LAYER
  5
5D
330
2
100
AcDbSymbolTableRecord
100
AcDbLayerTableRecord
  2
Default
 70
     0
 62
     7
  6
Continuous
370
    -3
390
F
  0
LAYER
  5
A2
330
2
100
AcDbSymbolTableRecord
100
AcDbLayerTableRecord
  2
MEGA_002014
 70
     0
 62
     7
  6
Continuous
370
    -3
390
F
  0
LAYER
  5
C3
330
2
100
AcDbSymbolTableRecord
100
AcDbLayerTableRecord
  2
MEGA_000863
 70
     0
 62
     7
  6
Continuous
370
    -3
390
F
  0
LAYER
  5
C7
330
2
100
AcDbSymbolTableRecord
100
AcDbLayerTableRecord
  2
MEGA_002117
 70
     0
 62
     7
  6
Continuous
370
    -3
390
F
  0
LAYER
  5
12F
330
2
100
AcDbSymbolTableRecord
100
AcDbLayerTableRecord
  2
MEGA_001616
 70
     0
 62
     7
  6
Continuous
370
    -3
390
F
  0
ENDTAB
  0
TABLE
  2
STYLE
  5
3
330
0
100
AcDbSymbolTable
 70
     3
  0
STYLE
  5
11
330
3
100
AcDbSymbolTableRecord
100
AcDbTextStyleTableRecord
  2
Standard
 70
     0
 40
0.0
 41
1.0
 50
0.0
 71
     0
 42
2.5
  3
txt
  4

  0
STYLE
  5
14C
330
3
100
AcDbSymbolTableRecord
100
AcDbTextStyleTableRecord
  2
SEACAD_seiso_ttf
 70
     0
 40
0.0
 41
1.0
 50
0.0
 71
     0
 42
0.2
  3
seiso.ttf
  4

  0
STYLE
  5
1B7
330
3
100
AcDbSymbolTableRecord
100
AcDbTextStyleTableRecord
  2
SEACAD_semeci1_ttf
 70
     0
 40
0.0
 41
1.0
 50
0.0
 71
     0
 42
0.2
  3
semeci1.ttf
  4

  0
ENDTAB
  0
TABLE
  2
VIEW
  5
6
330
0
100
AcDbSymbolTable
 70
     0
  0
ENDTAB
  0
TABLE
  2
UCS
  5
7
330
0
100
AcDbSymbolTable
 70
     0
  0
ENDTAB
  0
TABLE
  2
APPID
  5
9
330
0
100
AcDbSymbolTable
 70
     1
  0
APPID
  5
12
330
9
100
AcDbSymbolTableRecord
100
AcDbRegAppTableRecord
  2
ACAD
 70
     0
  0
ENDTAB
  0
TABLE
  2
DIMSTYLE
  5
A
330
0
100
AcDbSymbolTable
 70
     3
100
AcDbDimStyleTable
  0
DIMSTYLE
105
27
330
A
100
AcDbSymbolTableRecord
100
AcDbDimStyleTableRecord
  2
ISO-25
 70
     0
 41
2.5
 42
0.625
 43
3.75
 44
1.25
 73
     0
 74
     0
 77
     1
 78
     8
140
2.5
141
2.5
143
0.0393700787
147
0.625
171
     3
172
     1
271
     2
272
     2
274
     3
278
    44
283
     0
284
     8
340
11
  0
DIMSTYLE
105
13A
330
A
100
AcDbSymbolTableRecord
100
AcDbDimStyleTableRecord
  2
Standard
 70
     0
340
11
  0
DIMSTYLE
105
14D
102
{ACAD_REACTORS
330
14E
330
15C
330
166
330
170
330
17A
330
184
330
18E
330
198
330
1A2
330
1AC
330
1B6
330
1C2
330
1CC
330
1D5
330
1E0
102
}
330
A
100
AcDbSymbolTableRecord
100
AcDbDimStyleTableRecord
  2
DIN
 70
     0
 41
3.0
 42
0.0
 44
1.5
 73
     0
 74
     0
 77
     1
 78
     8
140
3.0
141
1.5
147
1.5
172
     1
173
     1
271
     2
272
     2
278
    44
284
     8
340
14C
343
147
344
147
  0
ENDTAB
  0
TABLE
  2
BLOCK_RECORD
  5
1
330
0
100
AcDbSymbolTable
 70
    29
  0
BLOCK_RECORD
  5
1F
330
1
100
AcDbSymbolTableRecord
100
AcDbBlockTableRecord
  2
*Model_Space
340
22
  0
BLOCK_RECORD
  5
1B
330
1
100
AcDbSymbolTableRecord
100
AcDbBlockTableRecord
  2
*Paper_Space
340
1E
  0
BLOCK_RECORD
  5
5E
330
1
100
AcDbSymbolTableRecord
100
AcDbBlockTableRecord
  2
SEANNOT_GROUP
340
0
102
{BLKREFS
331
5F
102
}
  0
BLOCK_RECORD
  5
64
330
1
100
AcDbSymbolTableRecord
100
AcDbBlockTableRecord
  2
SEANNOT_GROUP1
340
0
102
{BLKREFS
331
65
102
}
  0
BLOCK_RECORD
  5
6E
330
1
100
AcDbSymbolTableRecord
100
AcDbBlockTableRecord
  2
SEANNOT_GROUP2
340
0
102
{BLKREFS
331
6F
102
}
  0
BLOCK_RECORD
  5
78
330
1
100
AcDbSymbolTableRecord
100
AcDbBlockTableRecord
  2
SEANNOT_GROUP3
340
0
102
{BLKREFS
331
79
102
}
  0
BLOCK_RECORD
  5
82
330
1
100
AcDbSymbolTableRecord
100
AcDbBlockTableRecord
  2
SEANNOT_GROUP4
340
0
102
{BLKREFS
331
83
102
}
  0
BLOCK_RECORD
  5
8C
330
1
100
AcDbSymbolTableRecord
100
AcDbBlockTableRecord
  2
SEANNOT_GROUP5
340
0
102
{BLKREFS
331
8D
102
}
  0
BLOCK_RECORD
  5
96
330
1
100
AcDbSymbolTableRecord
100
AcDbBlockTableRecord
  2
SEANNOT_GROUP6
340
0
102
{BLKREFS
331
97
102
}
  0
BLOCK_RECORD
  5
A0
330
1
100
AcDbSymbolTableRecord
100
AcDbBlockTableRecord
  2
SE
340
0
102
{BLKREFS
331
A1
102
}
  0
BLOCK_RECORD
  5
F2
330
1
100
AcDbSymbolTableRecord
100
AcDbBlockTableRecord
  2
SE1
340
0
102
{BLKREFS
331
F3
102
}
  0
BLOCK_RECORD
  5
13B
330
1
100
AcDbSymbolTableRecord
100
AcDbBlockTableRecord
  2
_OBLIQUE
340
0
  0
BLOCK_RECORD
  5
13F
330
1
100
AcDbSymbolTableRecord
100
AcDbBlockTableRecord
  2
_DOT
340
0
  0
BLOCK_RECORD
  5
147
330
1
100
AcDbSymbolTableRecord
100
AcDbBlockTableRecord
  2
_SE_FILLED
340
0
  0
BLOCK_RECORD
  5
14F
330
1
100
AcDbSymbolTableRecord
100
AcDbBlockTableRecord
  2
DMBLK438
340
0
  0
BLOCK_RECORD
  5
157
330
1
100
AcDbSymbolTableRecord
100
AcDbBlockTableRecord
  2
_SE_SLASH
340
0
  0
BLOCK_RECORD
  5
15D
330
1
100
AcDbSymbolTableRecord
100
AcDbBlockTableRecord
  2
DMBLK439
340
0
  0
BLOCK_RECORD
  5
167
330
1
100
AcDbSymbolTableRecord
100
AcDbBlockTableRecord
  2
DMBLK440
340
0
  0
BLOCK_RECORD
  5
171
330
1
100
AcDbSymbolTableRecord
100
AcDbBlockTableRecord
  2
DMBLK441
340
0
  0
BLOCK_RECORD
  5
17B
330
1
100
AcDbSymbolTableRecord
100
AcDbBlockTableRecord
  2
DMBLK442
340
0
  0
BLOCK_RECORD
  5
185
330
1
100
AcDbSymbolTableRecord
100
AcDbBlockTableRecord
  2
DMBLK443
340
0
  0
BLOCK_RECORD
  5
18F
330
1
100
AcDbSymbolTableRecord
100
AcDbBlockTableRecord
  2
DMBLK444
340
0
  0
BLOCK_RECORD
  5
199
330
1
100
AcDbSymbolTableRecord
100
AcDbBlockTableRecord
  2
DMBLK445
340
0
  0
BLOCK_RECORD
  5
1A3
330
1
100
AcDbSymbolTableRecord
100
AcDbBlockTableRecord
  2
DMBLK446
340
0
  0
BLOCK_RECORD
  5
1AD
330
1
100
AcDbSymbolTableRecord
100
AcDbBlockTableRecord
  2
DMBLK447
340
0
  0
BLOCK_RECORD
  5
1B8
330
1
100
AcDbSymbolTableRecord
100
AcDbBlockTableRecord
  2
DMBLK448
340
0
  0
BLOCK_RECORD
  5
1C3
330
1
100
AcDbSymbolTableRecord
100
AcDbBlockTableRecord
  2
DMBLK449
340
0
  0
BLOCK_RECORD
  5
1CD
330
1
100
AcDbSymbolTableRecord
100
AcDbBlockTableRecord
  2
DMBLK450
340
0
  0
BLOCK_RECORD
  5
1D6
330
1
100
AcDbSymbolTableRecord
100
AcDbBlockTableRecord
  2
DMBLK451
340
0
  0
BLOCK_RECORD
  5
1E1
330
1
100
AcDbSymbolTableRecord
100
AcDbBlockTableRecord
  2
DMBLK452
340
0
  0
ENDTAB
  0
ENDSEC
  0
SECTION
  2
BLOCKS
  0
BLOCK
  5
20
330
1F
100
AcDbEntity
  8
0
100
AcDbBlockBegin
  2
*Model_Space
 70
     0
 10
0.0
 20
0.0
 30
0.0
  3
*Model_Space
  1

  0
ENDBLK
  5
21
330
1F
100
AcDbEntity
  8
0
100
AcDbBlockEnd
  0
BLOCK
  5
1C
330
1B
100
AcDbEntity
 67
     1
  8
0
100
AcDbBlockBegin
  2
*Paper_Space
 70
     0
 10
0.0
 20
0.0
 30
0.0
  3
*Paper_Space
  1

  0
ENDBLK
  5
1D
330
1B
100
AcDbEntity
 67
     1
  8
0
100
AcDbBlockEnd
  0
BLOCK
  5
62
330
5E
100
AcDbEntity
  8
0
100
AcDbBlockBegin
  2
SEANNOT_GROUP
 70
     0
 10
0.0
 20
0.0
 30
0.0
  3
SEANNOT_GROUP
  1

  0
LINE
  5
61
330
5E
100
AcDbEntity
  8
Default
  6
CENTER2
 62
     7
100
AcDbLine
 10
67.8006584248
 20
37.8446298701
 30
0.0
 11
67.8006584248
 21
261.5964794685
 31
0.0
  0
ENDBLK
  5
63
330
5E
100
AcDbEntity
  8
0
100
AcDbBlockEnd
  0
BLOCK
  5
6C
330
64
100
AcDbEntity
  8
0
100
AcDbBlockBegin
  2
SEANNOT_GROUP1
 70
     0
 10
0.0
 20
0.0
 30
0.0
  3
SEANNOT_GROUP1
  1

  0
LINE
  5
66
330
64
100
AcDbEntity
  8
Default
  6
CENTER2
 62
     7
100
AcDbLine
 10
73.8006584769
 20
172.6602972769
 30
0.0
 11
61.8006583726
 21
172.6602972769
 31
0.0
  0
LINE
  5
67
330
64
100
AcDbEntity
  8
Default
  6
CENTER2
 62
     7
100
AcDbLine
 10
67.8006584248
 20
178.660297329
 30
0.0
 11
67.8006584248
 21
166.6602972247
 31
0.0
  0
LINE
  5
68
330
64
100
AcDbEntity
  8
Default
  6
CENTER2
 62
     7
100
AcDbLine
 10
75.3006584899
 20
172.6602972769
 30
0.0
 11
81.8006584248
 21
172.6602972769
 31
0.0
  0
LINE
  5
69
330
64
100
AcDbEntity
  8
Default
  6
CENTER2
 62
     7
100
AcDbLine
 10
67.8006584248
 20
180.1602973421
 30
0.0
 11
67.8006584248
 21
186.6602972769
 31
0.0
  0
LINE
  5
6A
330
64
100
AcDbEntity
  8
Default
  6
CENTER2
 62
     7
100
AcDbLine
 10
60.3006583596
 20
172.6602972769
 30
0.0
 11
53.8006584248
 21
172.6602972769
 31
0.0
  0
LINE
  5
6B
330
64
100
AcDbEntity
  8
Default
  6
CENTER2
 62
     7
100
AcDbLine
 10
67.8006584248
 20
165.1602972117
 30
0.0
 11
67.8006584248
 21
158.6602972769
 31
0.0
  0
ENDBLK
  5
6D
330
64
100
AcDbEntity
  8
0
100
AcDbBlockEnd
  0
BLOCK
  5
76
330
6E
100
AcDbEntity
  8
0
100
AcDbBlockBegin
  2
SEANNOT_GROUP2
 70
     0
 10
0.0
 20
0.0
 30
0.0
  3
SEANNOT_GROUP2
  1

  0
LINE
  5
70
330
6E
100
AcDbEntity
  8
Default
  6
CENTER2
 62
     7
100
AcDbLine
 10
73.8006584769
 20
94.6602972769
 30
0.0
 11
61.8006583726
 21
94.6602972769
 31
0.0
  0
LINE
  5
71
330
6E
100
AcDbEntity
  8
Default
  6
CENTER2
 62
     7
100
AcDbLine
 10
67.8006584248
 20
100.660297329
 30
0.0
 11
67.8006584248
 21
88.6602972247
 31
0.0
  0
LINE
  5
72
330
6E
100
AcDbEntity
  8
Default
  6
CENTER2
 62
     7
100
AcDbLine
 10
75.3006584899
 20
94.6602972769
 30
0.0
 11
83.0506584248
 21
94.6602972769
 31
0.0
  0
LINE
  5
73
330
6E
100
AcDbEntity
  8
Default
  6
CENTER2
 62
     7
100
AcDbLine
 10
67.8006584248
 20
102.1602973421
 30
0.0
 11
67.8006584248
 21
109.9102972769
 31
0.0
  0
LINE
  5
74
330
6E
100
AcDbEntity
  8
Default
  6
CENTER2
 62
     7
100
AcDbLine
 10
60.3006583596
 20
94.6602972769
 30
0.0
 11
52.5506584248
 21
94.6602972769
 31
0.0
  0
LINE
  5
75
330
6E
100
AcDbEntity
  8
Default
  6
CENTER2
 62
     7
100
AcDbLine
 10
67.8006584248
 20
87.1602972117
 30
0.0
 11
67.8006584248
 21
79.4102972769
 31
0.0
  0
ENDBLK
  5
77
330
6E
100
AcDbEntity
  8
0
100
AcDbBlockEnd
  0
BLOCK
  5
80
330
78
100
AcDbEntity
  8
0
100
AcDbBlockBegin
  2
SEANNOT_GROUP3
 70
     0
 10
0.0
 20
0.0
 30
0.0
  3
SEANNOT_GROUP3
  1

  0
LINE
  5
7A
330
78
100
AcDbEntity
  8
Default
  6
CENTER2
 62
     7
100
AcDbLine
 10
63.3006584769
 20
54.6602972769
 30
0.0
 11
51.3006583726
 21
54.6602972769
 31
0.0
  0
LINE
  5
7B
330
78
100
AcDbEntity
  8
Default
  6
CENTER2
 62
     7
100
AcDbLine
 10
57.3006584248
 20
60.660297329
 30
0.0
 11
57.3006584248
 21
48.6602972247
 31
0.0
  0
LINE
  5
7C
330
78
100
AcDbEntity
  8
Default
  6
CENTER2
 62
     7
100
AcDbLine
 10
64.8006584899
 20
54.6602972769
 30
0.0
 11
61.0506584248
 21
54.6602972769
 31
0.0
  0
LINE
  5
7D
330
78
100
AcDbEntity
  8
Default
  6
CENTER2
 62
     7
100
AcDbLine
 10
57.3006584248
 20
62.1602973421
 30
0.0
 11
57.3006584248
 21
58.4102972769
 31
0.0
  0
LINE
  5
7E
330
78
100
AcDbEntity
  8
Default
  6
CENTER2
 62
     7
100
AcDbLine
 10
49.8006583596
 20
54.6602972769
 30
0.0
 11
53.5506584248
 21
54.6602972769
 31
0.0
  0
LINE
  5
7F
330
78
100
AcDbEntity
  8
Default
  6
CENTER2
 62
     7
100
AcDbLine
 10
57.3006584248
 20
47.1602972117
 30
0.0
 11
57.3006584248
 21
50.9102972769
 31
0.0
  0
ENDBLK
  5
81
330
78
100
AcDbEntity
  8
0
100
AcDbBlockEnd
  0
BLOCK
  5
8A
330
82
100
AcDbEntity
  8
0
100
AcDbBlockBegin
  2
SEANNOT_GROUP4
 70
     0
 10
0.0
 20
0.0
 30
0.0
  3
SEANNOT_GROUP4
  1

  0
LINE
  5
84
330
82
100
AcDbEntity
  8
Default
  6
CENTER2
 62
     7
100
AcDbLine
 10
84.3006584769
 20
54.6602972769
 30
0.0
 11
72.3006583726
 21
54.6602972769
 31
0.0
  0
LINE
  5
85
330
82
100
AcDbEntity
  8
Default
  6
CENTER2
 62
     7
100
AcDbLine
 10
78.3006584248
 20
60.660297329
 30
0.0
 11
78.3006584248
 21
48.6602972247
 31
0.0
  0
LINE
  5
86
330
82
100
AcDbEntity
  8
Default
  6
CENTER2
 62
     7
100
AcDbLine
 10
85.8006584899
 20
54.6602972769
 30
0.0
 11
83.6506584248
 21
54.6602972769
 31
0.0
  0
LINE
  5
87
330
82
100
AcDbEntity
  8
Default
  6
CENTER2
 62
     7
100
AcDbLine
 10
78.3006584248
 20
62.1602973421
 30
0.0
 11
78.3006584248
 21
60.0102972769
 31
0.0
  0
LINE
  5
88
330
82
100
AcDbEntity
  8
Default
  6
CENTER2
 62
     7
100
AcDbLine
 10
70.8006583596
 20
54.6602972769
 30
0.0
 11
72.9506584248
 21
54.6602972769
 31
0.0
  0
LINE
  5
89
330
82
100
AcDbEntity
  8
Default
  6
CENTER2
 62
     7
100
AcDbLine
 10
78.3006584248
 20
47.1602972117
 30
0.0
 11
78.3006584248
 21
49.3102972769
 31
0.0
  0
ENDBLK
  5
8B
330
82
100
AcDbEntity
  8
0
100
AcDbBlockEnd
  0
BLOCK
  5
94
330
8C
100
AcDbEntity
  8
0
100
AcDbBlockBegin
  2
SEANNOT_GROUP5
 70
     0
 10
0.0
 20
0.0
 30
0.0
  3
SEANNOT_GROUP5
  1

  0
LINE
  5
8E
330
8C
100
AcDbEntity
  8
Default
  6
CENTER2
 62
     7
100
AcDbLine
 10
63.3006584769
 20
244.6602972769
 30
0.0
 11
51.3006583726
 21
244.6602972769
 31
0.0
  0
LINE
  5
8F
330
8C
100
AcDbEntity
  8
Default
  6
CENTER2
 62
     7
100
AcDbLine
 10
57.3006584248
 20
250.660297329
 30
0.0
 11
57.3006584248
 21
238.6602972247
 31
0.0
  0
LINE
  5
90
330
8C
100
AcDbEntity
  8
Default
  6
CENTER2
 62
     7
100
AcDbLine
 10
64.8006584899
 20
244.6602972769
 30
0.0
 11
62.6506584248
 21
244.6602972769
 31
0.0
  0
LINE
  5
91
330
8C
100
AcDbEntity
  8
Default
  6
CENTER2
 62
     7
100
AcDbLine
 10
57.3006584248
 20
252.1602973421
 30
0.0
 11
57.3006584248
 21
250.0102972769
 31
0.0
  0
LINE
  5
92
330
8C
100
AcDbEntity
  8
Default
  6
CENTER2
 62
     7
100
AcDbLine
 10
49.8006583596
 20
244.6602972769
 30
0.0
 11
51.9506584248
 21
244.6602972769
 31
0.0
  0
LINE
  5
93
330
8C
100
AcDbEntity
  8
Default
  6
CENTER2
 62
     7
100
AcDbLine
 10
57.3006584248
 20
237.1602972117
 30
0.0
 11
57.3006584248
 21
239.3102972769
 31
0.0
  0
ENDBLK
  5
95
330
8C
100
AcDbEntity
  8
0
100
AcDbBlockEnd
  0
BLOCK
  5
9E
330
96
100
AcDbEntity
  8
0
100
AcDbBlockBegin
  2
SEANNOT_GROUP6
 70
     0
 10
0.0
 20
0.0
 30
0.0
  3
SEANNOT_GROUP6
  1

  0
LINE
  5
98
330
96
100
AcDbEntity
  8
Default
  6
CENTER2
 62
     7
100
AcDbLine
 10
84.3006584769
 20
244.6602972769
 30
0.0
 11
72.3006583726
 21
244.6602972769
 31
0.0
  0
LINE
  5
99
330
96
100
AcDbEntity
  8
Default
  6
CENTER2
 62
     7
100
AcDbLine
 10
78.3006584248
 20
250.660297329
 30
0.0
 11
78.3006584248
 21
238.6602972247
 31
0.0
  0
LINE
  5
9A
330
96
100
AcDbEntity
  8
Default
  6
CENTER2
 62
     7
100
AcDbLine
 10
85.8006584899
 20
244.6602972769
 30
0.0
 11
83.6506584248
 21
244.6602972769
 31
0.0
  0
LINE
  5
9B
330
96
100
AcDbEntity
  8
Default
  6
CENTER2
 62
     7
100
AcDbLine
 10
78.3006584248
 20
252.1602973421
 30
0.0
 11
78.3006584248
 21
250.0102972769
 31
0.0
  0
LINE
  5
9C
330
96
100
AcDbEntity
  8
Default
  6
CENTER2
 62
     7
100
AcDbLine
 10
70.8006583596
 20
244.6602972769
 30
0.0
 11
72.9506584248
 21
244.6602972769
 31
0.0
  0
LINE
  5
9D
330
96
100
AcDbEntity
  8
Default
  6
CENTER2
 62
     7
100
AcDbLine
 10
78.3006584248
 20
237.1602972117
 30
0.0
 11
78.3006584248
 21
239.3102972769
 31
0.0
  0
ENDBLK
  5
9F
330
96
100
AcDbEntity
  8
0
100
AcDbBlockEnd
  0
BLOCK
  5
F0
330
A0
100
AcDbEntity
  8
0
100
AcDbBlockBegin
  2
SE
 70
     0
 10
0.0
 20
0.0
 30
0.0
  3
SE
  1

  0
LINE
  5
A3
330
A0
100
AcDbEntity
  8
MEGA_002014
  6
Continuous
 62
     7
100
AcDbLine
 10
47.8006584248
 20
59.6602972769
 30
0.0
 11
47.8006584248
 21
239.6602972769
 31
0.0
  0
ARC
  5
A4
330
A0
100
AcDbEntity
  8
MEGA_002014
  6
Continuous
 62
     7
100
AcDbCircle
 10
67.8006584248
 20
239.6602972769
 30
0.0
 40
20.0
100
AcDbArc
 50
0.0
 51
180.0
  0
LINE
  5
A5
330
A0
100
AcDbEntity
  8
MEGA_002014
  6
Continuous
 62
     7
100
AcDbLine
 10
87.8006584248
 20
239.6602972769
 30
0.0
 11
87.8006584248
 21
59.6602972769
 31
0.0
  0
ARC
  5
A6
330
A0
100
AcDbEntity
  8
MEGA_002014
  6
Continuous
 62
     7
100
AcDbCircle
 10
67.8006584248
 20
59.6602972769
 30
0.0
 40
20.0
100
AcDbArc
 50
180.0
 51
0.0
  0
LINE
  5
A7
330
A0
100
AcDbEntity
  8
MEGA_002014
  6
Continuous
 62
     7
100
AcDbLine
 10
87.8006584248
 20
59.6602972769
 30
0.0
 11
86.9235203644
 21
59.6602972769
 31
0.0
  0
LINE
  5
A8
330
A0
100
AcDbEntity
  8
MEGA_002014
  6
Continuous
 62
     7
100
AcDbLine
 10
87.8006584248
 20
239.6602972769
 30
0.0
 11
86.9235203644
 21
239.6602972769
 31
0.0
  0
LINE
  5
A9
330
A0
100
AcDbEntity
  8
MEGA_002014
  6
Continuous
 62
     7
100
AcDbLine
 10
47.8006584248
 20
239.6602972769
 30
0.0
 11
48.6777964851
 21
239.6602972769
 31
0.0
  0
LINE
  5
AA
330
A0
100
AcDbEntity
  8
MEGA_002014
  6
Continuous
 62
     7
100
AcDbLine
 10
47.8006584248
 20
59.6602972769
 30
0.0
 11
48.6777964851
 21
59.6602972769
 31
0.0
  0
CIRCLE
  5
AB
330
A0
100
AcDbEntity
  8
MEGA_002014
  6
Continuous
 62
     7
100
AcDbCircle
 10
57.3006584248
 20
244.6602972769
 30
0.0
 40
3.600000000000001
  0
CIRCLE
  5
AC
330
A0
100
AcDbEntity
  8
MEGA_002014
  6
Continuous
 62
     7
100
AcDbCircle
 10
57.3006584248
 20
244.6602972769
 30
0.0
 40
2.0
  0
CIRCLE
  5
AD
330
A0
100
AcDbEntity
  8
MEGA_002014
  6
Continuous
 62
     7
100
AcDbCircle
 10
78.3006584248
 20
54.6602972769
 30
0.0
 40
2.0
  0
CIRCLE
  5
AE
330
A0
100
AcDbEntity
  8
MEGA_002014
  6
Continuous
 62
     7
100
AcDbCircle
 10
78.3006584248
 20
54.6602972769
 30
0.0
 40
3.600000000000001
  0
CIRCLE
  5
AF
330
A0
100
AcDbEntity
  8
MEGA_002014
  6
Continuous
 62
     7
100
AcDbCircle
 10
57.3006584248
 20
54.6602972769
 30
0.0
 40
2.0
  0
CIRCLE
  5
B0
330
A0
100
AcDbEntity
  8
MEGA_002014
  6
Continuous
 62
     7
100
AcDbCircle
 10
57.3006584248
 20
54.6602972769
 30
0.0
 40
3.600000000000001
  0
CIRCLE
  5
B1
330
A0
100
AcDbEntity
  8
MEGA_002014
  6
Continuous
 62
     7
100
AcDbCircle
 10
78.3006584248
 20
244.6602972769
 30
0.0
 40
3.600000000000001
  0
CIRCLE
  5
B2
330
A0
100
AcDbEntity
  8
MEGA_002014
  6
Continuous
 62
     7
100
AcDbCircle
 10
78.3006584248
 20
244.6602972769
 30
0.0
 40
2.0
  0
ARC
  5
B3
330
A0
100
AcDbEntity
  8
MEGA_002014
  6
Continuous
 62
     7
100
AcDbCircle
 10
67.8006584248
 20
59.6602972769
 30
0.0
 40
19.12286193967692
100
AcDbArc
 50
180.0
 51
0.0
  0
ARC
  5
B4
330
A0
100
AcDbEntity
  8
MEGA_002014
  6
Continuous
 62
     7
100
AcDbCircle
 10
67.8006584248
 20
239.6602972769
 30
0.0
 40
17.91545465681558
100
AcDbArc
 50
0.0
 51
180.0
  0
LINE
  5
B5
330
A0
100
AcDbEntity
  8
MEGA_002014
  6
Continuous
 62
     7
100
AcDbLine
 10
49.8852037679
 20
239.6602972769
 30
0.0
 11
49.8852037679
 21
59.6602972769
 31
0.0
  0
LINE
  5
B6
330
A0
100
AcDbEntity
  8
MEGA_002014
  6
Continuous
 62
     7
100
AcDbLine
 10
85.7161130816
 20
59.6602972769
 30
0.0
 11
85.7161130816
 21
239.6602972769
 31
0.0
  0
ARC
  5
B7
330
A0
100
AcDbEntity
  8
MEGA_002014
  6
Continuous
 62
     7
100
AcDbCircle
 10
67.8006584248
 20
59.6602972769
 30
0.0
 40
17.91545465681558
100
AcDbArc
 50
180.0
 51
0.0
  0
LINE
  5
B8
330
A0
100
AcDbEntity
  8
MEGA_002014
  6
Continuous
 62
     7
100
AcDbLine
 10
86.9235203644
 20
239.6602972769
 30
0.0
 11
86.9235203644
 21
59.6602972769
 31
0.0
  0
LINE
  5
B9
330
A0
100
AcDbEntity
  8
MEGA_002014
  6
Continuous
 62
     7
100
AcDbLine
 10
48.6777964851
 20
59.6602972769
 30
0.0
 11
48.6777964851
 21
239.6602972769
 31
0.0
  0
ARC
  5
BA
330
A0
100
AcDbEntity
  8
MEGA_002014
  6
Continuous
 62
     7
100
AcDbCircle
 10
67.8006584248
 20
239.6602972769
 30
0.0
 40
19.12286193967692
100
AcDbArc
 50
0.0
 51
180.0
  0
LINE
  5
BB
330
A0
100
AcDbEntity
  8
MEGA_002014
  6
Continuous
 62
     7
100
AcDbLine
 10
86.9235203644
 20
239.6602972769
 30
0.0
 11
85.7161130816
 21
239.6602972769
 31
0.0
  0
LINE
  5
BC
330
A0
100
AcDbEntity
  8
MEGA_002014
  6
Continuous
 62
     7
100
AcDbLine
 10
49.8852037679
 20
239.6602972769
 30
0.0
 11
48.6777964851
 21
239.6602972769
 31
0.0
  0
LINE
  5
BD
330
A0
100
AcDbEntity
  8
MEGA_002014
  6
Continuous
 62
     7
100
AcDbLine
 10
86.9235203644
 20
59.6602972769
 30
0.0
 11
85.7161130816
 21
59.6602972769
 31
0.0
  0
LINE
  5
BE
330
A0
100
AcDbEntity
  8
MEGA_002014
  6
Continuous
 62
     7
100
AcDbLine
 10
49.8852037679
 20
59.6602972769
 30
0.0
 11
48.6777964851
 21
59.6602972769
 31
0.0
  0
ARC
  5
BF
330
A0
100
AcDbEntity
  8
MEGA_002014
  6
Continuous
 62
     7
100
AcDbCircle
 10
67.8006584248
 20
94.6602972769
 30
0.0
 40
8.499999999999998
100
AcDbArc
 50
47.4315457967
 51
132.5684542033
  0
LINE
  5
C0
330
A0
100
AcDbEntity
  8
MEGA_002014
  6
Continuous
 62
     7
100
AcDbLine
 10
73.5506584248
 20
100.9202892897
 30
0.0
 11
76.7666304321
 21
104.7529354832
 31
0.0
  0
ARC
  5
C1
330
A0
100
AcDbEntity
  8
MEGA_002014
  6
Continuous
 62
     7
100
AcDbCircle
 10
67.8006584248
 20
94.6602972769
 30
0.0
 40
13.49999999999999
100
AcDbArc
 50
48.3831521264
 51
131.6168478736
  0
LINE
  5
C2
330
A0
100
AcDbEntity
  8
MEGA_002014
  6
Continuous
 62
     7
100
AcDbLine
 10
58.8346864174
 20
104.7529354832
 30
0.0
 11
62.0506584248
 21
100.9202892897
 31
0.0
  0
CIRCLE
  5
C4
330
A0
100
AcDbEntity
  8
MEGA_000863
  6
Continuous
 62
     7
100
AcDbCircle
 10
67.8006584248
 20
172.6602972769
 30
0.0
 40
12.25
  0
CIRCLE
  5
C5
330
A0
100
AcDbEntity
  8
MEGA_000863
  6
Continuous
 62
     7
100
AcDbCircle
 10
67.8006584248
 20
172.6602972769
 30
0.0
 40
10.83578643762691
  0
CIRCLE
  5
C6
330
A0
100
AcDbEntity
  8
MEGA_000863
  6
Continuous
 62
     7
100
AcDbCircle
 10
67.8006584248
 20
172.6602972769
 30
0.0
 40
8.200000000000003
  0
ARC
  5
C8
330
A0
100
AcDbEntity
  8
MEGA_002117
  6
Continuous
 62
     7
100
AcDbCircle
 10
66.6624070738
 20
94.6602972769
 30
0.0
 40
7.498563497862517
100
AcDbArc
 50
350.5806404883
 51
9.4193595117
  0
ARC
  5
C9
330
A0
100
AcDbEntity
  8
MEGA_002117
  6
Continuous
 62
     7
100
AcDbCircle
 10
68.9389097757
 20
94.6602972769
 30
0.0
 40
7.498563497862391
100
AcDbArc
 50
170.5806404883
 51
189.4193595117
  0
CIRCLE
  5
CA
330
A0
100
AcDbEntity
  8
MEGA_002117
  6
Continuous
 62
     7
100
AcDbCircle
 10
67.8006584248
 20
94.6602972769
 30
0.0
 40
7.853553390593272
  0
CIRCLE
  5
CB
330
A0
100
AcDbEntity
  8
MEGA_002117
  6
Continuous
 62
     7
100
AcDbCircle
 10
67.8006584248
 20
94.6602972769
 30
0.0
 40
8.0
  0
ARC
  5
CC
330
A0
100
AcDbEntity
  8
MEGA_002117
  6
Continuous
 62
     7
100
AcDbCircle
 10
67.8006584248
 20
94.6602972769
 30
0.0
 40
5.146446609406727
100
AcDbArc
 50
13.8723185619
 51
166.1276814381
  0
ARC
  5
CD
330
A0
100
AcDbEntity
  8
MEGA_002117
  6
Continuous
 62
     7
100
AcDbCircle
 10
59.0476295745
 20
685.1960360699
 30
0.0
 40
589.3138057356293
100
AcDbArc
 50
270.2424613356
 51
270.3652451856
  0
ARC
  5
CE
330
A0
100
AcDbEntity
  8
MEGA_002117
  6
Continuous
 62
     7
100
AcDbCircle
 10
76.2183988689
 20
621.9733131811
 30
0.0
 40
526.0902344422232
100
AcDbArc
 50
269.6273769574
 51
269.7649165214
  0
LINE
  5
CF
330
A0
100
AcDbEntity
  8
MEGA_002117
  6
Continuous
 62
     7
100
AcDbLine
 10
72.4408982253
 20
95.6602972769
 30
0.0
 11
63.1604186242
 21
95.6602972769
 31
0.0
  0
LINE
  5
D0
330
A0
100
AcDbEntity
  8
MEGA_002117
  6
Continuous
 62
     7
100
AcDbLine
 10
63.1604186242
 20
95.6602972769
 30
0.0
 11
62.941617595
 21
95.6602972769
 31
0.0
  0
LINE
  5
D1
330
A0
100
AcDbEntity
  8
MEGA_002117
  6
Continuous
 62
     7
100
AcDbLine
 10
72.6596992545
 20
95.6602972769
 30
0.0
 11
72.4408982253
 21
95.6602972769
 31
0.0
  0
LINE
  5
D2
330
A0
100
AcDbEntity
  8
MEGA_002117
  6
Continuous
 62
     7
100
AcDbLine
 10
62.941617595
 20
95.6602972769
 30
0.0
 11
61.7810711331
 21
95.6602972769
 31
0.0
  0
LINE
  5
D3
330
A0
100
AcDbEntity
  8
MEGA_002117
  6
Continuous
 62
     7
100
AcDbLine
 10
73.8202457164
 20
95.6602972769
 30
0.0
 11
72.6596992545
 21
95.6602972769
 31
0.0
  0
ARC
  5
D4
330
A0
100
AcDbEntity
  8
MEGA_002117
  6
Continuous
 62
     7
100
AcDbCircle
 10
67.8006584248
 20
94.6602972769
 30
0.0
 40
4.792893218813457
100
AcDbArc
 50
14.4994490059
 51
165.5005509941
  0
ARC
  5
D5
330
A0
100
AcDbEntity
  8
MEGA_002117
  6
Continuous
 62
     7
100
AcDbCircle
 10
58.7388517566
 20
51.3111152031
 30
0.0
 40
44.7680676041336
100
AcDbArc
 50
84.3318792742
 51
84.7896881731
  0
ARC
  5
D6
330
A0
100
AcDbEntity
  8
MEGA_002117
  6
Continuous
 62
     7
100
AcDbCircle
 10
76.861610644
 20
51.3200887677
 30
0.0
 40
44.75905352365725
100
AcDbArc
 50
95.2102657273
 51
95.6681668253
  0
LINE
  5
D7
330
A0
100
AcDbEntity
  8
MEGA_002117
  6
Continuous
 62
     7
100
AcDbLine
 10
63.1604186242
 20
95.8602972769
 30
0.0
 11
72.4408982253
 21
95.8602972769
 31
0.0
  0
SPLINE
  5
D8
330
A0
100
AcDbEntity
  8
MEGA_002117
  6
Continuous
 62
     7
100
AcDbSpline
210
0.0
220
0.0
230
1.0
 70
     8
 71
     3
 72
    10
 73
     6
 74
     0
 42
0.0000000258213433
 43
0.0000000001
 40
0.0
 40
0.0
 40
0.0
 40
0.0
 40
0.5
 40
0.5
 40
1.0
 40
1.0
 40
1.0
 40
1.0
 10
74.05986683664011
 20
95.88750695273454
 30
0.0
 10
74.07025748530991
 20
95.8247408511285
 30
0.0
 10
74.04073119990747
 20
95.7604730162682
 30
0.0
 10
73.9453679232519
 20
95.6799870684089
 30
0.0
 10
73.88268356999676
 20
95.66029727688411
 30
0.0
 10
73.82024571639126
 20
95.66029727688411
 30
0.0
  0
SPLINE
  5
D9
330
A0
100
AcDbEntity
  8
MEGA_002117
  6
Continuous
 62
     7
100
AcDbSpline
210
0.0
220
0.0
230
1.0
 70
     8
 71
     3
 72
    10
 73
     6
 74
     0
 42
0.0000000258117368
 43
0.0000000001
 40
0.0
 40
0.0
 40
0.0
 40
0.0
 40
0.5
 40
0.5
 40
1.0
 40
1.0
 40
1.0
 40
1.0
 10
61.78107113310997
 20
95.66029727688411
 30
0.0
 10
61.71850368146981
 20
95.66029727688411
 30
0.0
 10
61.65656573305301
 20
95.67954193287682
 30
0.0
 10
61.5602820988745
 20
95.76065401099923
 30
0.0
 10
61.53101783311484
 20
95.82448997711293
 30
0.0
 10
61.54145001286112
 20
95.88750695273454
 30
0.0
  0
SPLINE
  5
DA
330
A0
100
AcDbEntity
  8
MEGA_002117
  6
Continuous
 62
     7
100
AcDbSpline
210
0.0
220
0.0
230
1.0
 70
    12
 71
     2
 72
     6
 73
     3
 74
     0
 42
0.0000000249435551
 43
0.0000000001
 40
0.0
 40
0.0
 40
0.0
 40
1.0
 40
1.0
 40
1.0
 10
62.80432115607569
 20
95.89420432408177
 30
0.0
 41
1.0
 10
62.7762927734306
 20
95.66029727688408
 30
0.0
 41
0.6443852745103962
 10
62.94161759503293
 20
95.6602972768841
 30
0.0
 41
1.0
  0
LINE
  5
DB
330
A0
100
AcDbEntity
  8
MEGA_002117
  6
Continuous
 62
     7
100
AcDbLine
 10
63.1604186242
 20
95.8602972769
 30
0.0
 11
63.1604186242
 21
95.6602972769
 31
0.0
  0
LINE
  5
DC
330
A0
100
AcDbEntity
  8
MEGA_002117
  6
Continuous
 62
     7
100
AcDbLine
 10
72.4408982253
 20
95.8602972769
 30
0.0
 11
72.4408982253
 21
95.6602972769
 31
0.0
  0
SPLINE
  5
DD
330
A0
100
AcDbEntity
  8
MEGA_002117
  6
Continuous
 62
     7
100
AcDbSpline
210
0.0
220
0.0
230
1.0
 70
    12
 71
     2
 72
     6
 73
     3
 74
     0
 42
0.0000000249435551
 43
0.0000000001
 40
0.0
 40
0.0
 40
0.0
 40
1.0
 40
1.0
 40
1.0
 10
72.6596992544683
 20
95.6602972768841
 30
0.0
 41
1.0
 10
72.82502407607062
 20
95.66029727688408
 30
0.0
 41
0.6443852745101789
 10
72.79699569342553
 20
95.89420432408177
 30
0.0
 41
1.0
  0
LINE
  5
DE
330
A0
100
AcDbEntity
  8
MEGA_002117
  6
Continuous
 62
     7
100
AcDbLine
 10
61.7810711331
 20
93.6602972769
 30
0.0
 11
62.941617595
 21
93.6602972769
 31
0.0
  0
LINE
  5
DF
330
A0
100
AcDbEntity
  8
MEGA_002117
  6
Continuous
 62
     7
100
AcDbLine
 10
62.941617595
 20
93.6602972769
 30
0.0
 11
63.1604186242
 21
93.6602972769
 31
0.0
  0
LINE
  5
E0
330
A0
100
AcDbEntity
  8
MEGA_002117
  6
Continuous
 62
     7
100
AcDbLine
 10
63.1604186242
 20
93.6602972769
 30
0.0
 11
72.4408982253
 21
93.6602972769
 31
0.0
  0
LINE
  5
E1
330
A0
100
AcDbEntity
  8
MEGA_002117
  6
Continuous
 62
     7
100
AcDbLine
 10
72.4408982253
 20
93.6602972769
 30
0.0
 11
72.6596992545
 21
93.6602972769
 31
0.0
  0
LINE
  5
E2
330
A0
100
AcDbEntity
  8
MEGA_002117
  6
Continuous
 62
     7
100
AcDbLine
 10
72.6596992545
 20
93.6602972769
 30
0.0
 11
73.8202457164
 21
93.6602972769
 31
0.0
  0
ARC
  5
E3
330
A0
100
AcDbEntity
  8
MEGA_002117
  6
Continuous
 62
     7
100
AcDbCircle
 10
67.8006584248
 20
94.6602972769
 30
0.0
 40
5.146446609406727
100
AcDbArc
 50
193.8723185619
 51
346.1276814381
  0
ARC
  5
E4
330
A0
100
AcDbEntity
  8
MEGA_002117
  6
Continuous
 62
     7
100
AcDbCircle
 10
59.3829179806
 20
-432.6527186273
 30
0.0
 40
526.09023444224
100
AcDbArc
 50
89.6273769574
 51
89.7649165214
  0
ARC
  5
E5
330
A0
100
AcDbEntity
  8
MEGA_002117
  6
Continuous
 62
     7
100
AcDbCircle
 10
76.553687275
 20
-495.8754415161
 30
0.0
 40
589.3138057356293
100
AcDbArc
 50
90.2424613356
 51
90.3652451856
  0
ARC
  5
E6
330
A0
100
AcDbEntity
  8
MEGA_002117
  6
Continuous
 62
     7
100
AcDbCircle
 10
67.8006584248
 20
94.6602972769
 30
0.0
 40
4.792893218813457
100
AcDbArc
 50
194.4994490059
 51
345.5005509941
  0
ARC
  5
E7
330
A0
100
AcDbEntity
  8
MEGA_002117
  6
Continuous
 62
     7
100
AcDbCircle
 10
58.7397062055
 20
138.0005057861
 30
0.0
 40
44.75905352366082
100
AcDbArc
 50
275.2102657273
 51
275.6681668253
  0
ARC
  5
E8
330
A0
100
AcDbEntity
  8
MEGA_002117
  6
Continuous
 62
     7
100
AcDbCircle
 10
76.8624650929
 20
138.0094793507
 30
0.0
 40
44.7680676041336
100
AcDbArc
 50
264.3318792742
 51
264.7896881731
  0
LINE
  5
E9
330
A0
100
AcDbEntity
  8
MEGA_002117
  6
Continuous
 62
     7
100
AcDbLine
 10
72.4408982253
 20
93.4602972769
 30
0.0
 11
63.1604186242
 21
93.4602972769
 31
0.0
  0
SPLINE
  5
EA
330
A0
100
AcDbEntity
  8
MEGA_002117
  6
Continuous
 62
     7
100
AcDbSpline
210
0.0
220
0.0
230
1.0
 70
     8
 71
     3
 72
    10
 73
     6
 74
     0
 42
0.0000000258117368
 43
0.0000000001
 40
0.0
 40
0.0
 40
0.0
 40
0.0
 40
0.5
 40
0.5
 40
1.0
 40
1.0
 40
1.0
 40
1.0
 10
73.82024571639126
 20
93.66029727688411
 30
0.0
 10
73.88281316803143
 20
93.66029727688411
 30
0.0
 10
73.94475111644822
 20
93.6410526208914
 30
0.0
 10
74.04103475062672
 20
93.55994054276894
 30
0.0
 10
74.07029901638637
 20
93.49610457665524
 30
0.0
 10
74.05986683664011
 20
93.43308760103366
 30
0.0
  0
SPLINE
  5
EB
330
A0
100
AcDbEntity
  8
MEGA_002117
  6
Continuous
 62
     7
100
AcDbSpline
210
0.0
220
0.0
230
1.0
 70
     8
 71
     3
 72
    10
 73
     6
 74
     0
 42
0.0000000258213433
 43
0.0000000001
 40
0.0
 40
0.0
 40
0.0
 40
0.0
 40
0.5
 40
0.5
 40
1.0
 40
1.0
 40
1.0
 40
1.0
 10
61.54145001286113
 20
93.43308760103363
 30
0.0
 10
61.53105936419132
 20
93.49585370263972
 30
0.0
 10
61.56058564959376
 20
93.56012153749998
 30
0.0
 10
61.65594892624934
 20
93.64060748535927
 30
0.0
 10
61.71863327950447
 20
93.66029727688411
 30
0.0
 10
61.78107113310997
 20
93.66029727688411
 30
0.0
  0
SPLINE
  5
EC
330
A0
100
AcDbEntity
  8
MEGA_002117
  6
Continuous
 62
     7
100
AcDbSpline
210
0.0
220
0.0
230
1.0
 70
    12
 71
     2
 72
     6
 73
     3
 74
     0
 42
0.0000000249435551
 43
0.0000000001
 40
0.0
 40
0.0
 40
0.0
 40
1.0
 40
1.0
 40
1.0
 10
62.94161759503292
 20
93.6602972768841
 30
0.0
 41
1.0
 10
62.7762927734306
 20
93.6602972768841
 30
0.0
 41
0.644385274510481
 10
62.80432115607569
 20
93.4263902296864
 30
0.0
 41
1.0
  0
LINE
  5
ED
330
A0
100
AcDbEntity
  8
MEGA_002117
  6
Continuous
 62
     7
100
AcDbLine
 10
63.1604186242
 20
93.6602972769
 30
0.0
 11
63.1604186242
 21
93.4602972769
 31
0.0
  0
LINE
  5
EE
330
A0
100
AcDbEntity
  8
MEGA_002117
  6
Continuous
 62
     7
100
AcDbLine
 10
72.4408982253
 20
93.6602972769
 30
0.0
 11
72.4408982253
 21
93.4602972769
 31
0.0
  0
SPLINE
  5
EF
330
A0
100
AcDbEntity
  8
MEGA_002117
  6
Continuous
 62
     7
100
AcDbSpline
210
0.0
220
0.0
230
1.0
 70
    12
 71
     2
 72
     6
 73
     3
 74
     0
 42
0.0000000249435551
 43
0.0000000001
 40
0.0
 40
0.0
 40
0.0
 40
1.0
 40
1.0
 40
1.0
 10
72.79699569342553
 20
93.42639022968643
 30
0.0
 41
1.0
 10
72.82502407607059
 20
93.66029727688408
 30
0.0
 41
0.6443852745103507
 10
72.65969925446831
 20
93.66029727688408
 30
0.0
 41
1.0
  0
ENDBLK
  5
F1
330
A0
100
AcDbEntity
  8
0
100
AcDbBlockEnd
  0
BLOCK
  5
138
330
F2
100
AcDbEntity
  8
0
100
AcDbBlockBegin
  2
SE1
 70
     0
 10
0.0
 20
0.0
 30
0.0
  3
SE1
  1

  0
LINE
  5
F4
330
F2
100
AcDbEntity
  8
MEGA_002014
  6
Continuous
 62
     7
100
AcDbLine
 10
181.1209344426
 20
59.6602972769
 30
0.0
 11
181.1209344426
 21
239.6602972769
 31
0.0
  0
LINE
  5
F5
330
F2
100
AcDbEntity
  8
MEGA_002014
  6
Continuous
 62
     7
100
AcDbLine
 10
181.1209344426
 20
239.6602972769
 30
0.0
 11
181.1209344426
 21
259.6602972769
 31
0.0
  0
LINE
  5
F6
330
F2
100
AcDbEntity
  8
MEGA_002014
  6
Continuous
 62
     7
100
AcDbLine
 10
181.1209344426
 20
59.6602972769
 30
0.0
 11
181.1209344426
 21
39.6602972769
 31
0.0
  0
LINE
  5
F7
330
F2
100
AcDbEntity
  8
MEGA_002014
  6
Continuous
 62
     7
100
AcDbLine
 10
181.1209344426
 20
239.6602972769
 30
0.0
 11
184.394458249
 21
239.6602972769
 31
0.0
  0
LINE
  5
F8
330
F2
100
AcDbEntity
  8
MEGA_002014
  6
Continuous
 62
     7
100
AcDbLine
 10
181.1209344426
 20
59.6602972769
 30
0.0
 11
184.394458249
 21
59.6602972769
 31
0.0
  0
LINE
  5
F9
330
F2
100
AcDbEntity
  8
MEGA_002014
  6
Continuous
 62
     7
100
AcDbLine
 10
178.3209344426
 20
183.2021316899
 30
0.0
 11
178.3209344426
 21
162.1184628639
 31
0.0
  0
LINE
  5
FA
330
F2
100
AcDbEntity
  8
MEGA_002014
  6
Continuous
 62
     7
100
AcDbLine
 10
178.7773565712
 20
161.6203655148
 30
0.0
 11
178.7773565712
 21
183.7002290389
 31
0.0
  0
LINE
  5
FB
330
F2
100
AcDbEntity
  8
MEGA_002014
  6
Continuous
 62
     7
100
AcDbLine
 10
184.394458249
 20
59.6602972769
 30
0.0
 11
184.394458249
 21
40.5374353372
 31
0.0
  0
LINE
  5
FC
330
F2
100
AcDbEntity
  8
MEGA_002014
  6
Continuous
 62
     7
100
AcDbLine
 10
185.3209344426
 20
239.6602972769
 30
0.0
 11
185.3209344426
 21
257.5757519337
 31
0.0
  0
LINE
  5
FD
330
F2
100
AcDbEntity
  8
MEGA_002014
  6
Continuous
 62
     7
100
AcDbLine
 10
185.3209344426
 20
239.6602972769
 30
0.0
 11
185.3209344426
 21
59.6602972769
 31
0.0
  0
LINE
  5
FE
330
F2
100
AcDbEntity
  8
MEGA_002014
  6
Continuous
 62
     7
100
AcDbLine
 10
185.3209344426
 20
59.6602972769
 30
0.0
 11
185.3209344426
 21
41.7448426201
 31
0.0
  0
LINE
  5
FF
330
F2
100
AcDbEntity
  8
MEGA_002014
  6
Continuous
 62
     7
100
AcDbLine
 10
184.394458249
 20
59.6602972769
 30
0.0
 11
184.394458249
 21
239.6602972769
 31
0.0
  0
LINE
  5
100
330
F2
100
AcDbEntity
  8
MEGA_002014
  6
Continuous
 62
     7
100
AcDbLine
 10
184.394458249
 20
239.6602972769
 30
0.0
 11
184.394458249
 21
258.7831592166
 31
0.0
  0
LINE
  5
101
330
F2
100
AcDbEntity
  8
MEGA_002014
  6
Continuous
 62
     7
100
AcDbLine
 10
185.3209344426
 20
239.6602972769
 30
0.0
 11
184.394458249
 21
239.6602972769
 31
0.0
  0
LINE
  5
102
330
F2
100
AcDbEntity
  8
MEGA_002014
  6
Continuous
 62
     7
100
AcDbLine
 10
185.3209344426
 20
59.6602972769
 30
0.0
 11
184.394458249
 21
59.6602972769
 31
0.0
  0
LINE
  5
103
330
F2
100
AcDbEntity
  8
MEGA_002014
  6
Continuous
 62
     7
100
AcDbLine
 10
184.394458249
 20
258.7831592166
 30
0.0
 11
181.1209344426
 21
259.6602972769
 31
0.0
  0
LINE
  5
104
330
F2
100
AcDbEntity
  8
MEGA_002014
  6
Continuous
 62
     7
100
AcDbLine
 10
181.1209344426
 20
39.6602972769
 30
0.0
 11
184.394458249
 21
40.5374353372
 31
0.0
  0
LINE
  5
105
330
F2
100
AcDbEntity
  8
MEGA_002014
  6
Continuous
 62
     7
100
AcDbLine
 10
181.1209344426
 20
183.9052655348
 30
0.0
 11
178.7773565712
 21
183.7002290389
 31
0.0
  0
LINE
  5
106
330
F2
100
AcDbEntity
  8
MEGA_002014
  6
Continuous
 62
     7
100
AcDbLine
 10
178.7773565712
 20
161.6203655148
 30
0.0
 11
181.1209344426
 21
161.415329019
 31
0.0
  0
ARC
  5
107
330
F2
100
AcDbEntity
  8
MEGA_002014
  6
Continuous
 62
     7
100
AcDbCircle
 10
178.8209344426
 20
162.1184628639
 30
0.0
 40
0.5000000000000004
100
AcDbArc
 50
180.0
 51
265.0
  0
ARC
  5
108
330
F2
100
AcDbEntity
  8
MEGA_002014
  6
Continuous
 62
     7
100
AcDbCircle
 10
178.8209344426
 20
183.2021316899
 30
0.0
 40
0.5000000000000022
100
AcDbArc
 50
95.0
 51
180.0
  0
ARC
  5
109
330
F2
100
AcDbEntity
  8
MEGA_002014
  6
Continuous
 62
     7
100
AcDbCircle
 10
184.0709344426
 20
257.5757519337
 30
0.0
 40
1.25
100
AcDbArc
 50
0.0
 51
75.0
  0
ARC
  5
10A
330
F2
100
AcDbEntity
  8
MEGA_002014
  6
Continuous
 62
     7
100
AcDbCircle
 10
184.0709344426
 20
41.7448426201
 30
0.0
 40
1.250000000000004
100
AcDbArc
 50
285.0
 51
0.0
  0
LINE
  5
10B
330
F2
100
AcDbEntity
  8
MEGA_000863
  6
Continuous
 62
     7
100
AcDbLine
 10
175.8209344426
 20
181.6602972769
 30
0.0
 11
175.8209344426
 21
163.6602972769
 31
0.0
  0
LINE
  5
10C
330
F2
100
AcDbEntity
  8
MEGA_000863
  6
Continuous
 62
     7
100
AcDbLine
 10
177.8209344426
 20
181.6602972769
 30
0.0
 11
177.8209344426
 21
163.6602972769
 31
0.0
  0
LINE
  5
10D
330
F2
100
AcDbEntity
  8
MEGA_000863
  6
Continuous
 62
     7
100
AcDbLine
 10
186.3209344426
 20
183.4960837145
 30
0.0
 11
186.3209344426
 21
161.8245108393
 31
0.0
  0
LINE
  5
10E
330
F2
100
AcDbEntity
  8
MEGA_000863
  6
Continuous
 62
     7
100
AcDbLine
 10
175.8209344426
 20
163.6602972769
 30
0.0
 11
177.8209344426
 21
163.6602972769
 31
0.0
  0
LINE
  5
10F
330
F2
100
AcDbEntity
  8
MEGA_000863
  6
Continuous
 62
     7
100
AcDbLine
 10
177.8209344426
 20
181.6602972769
 30
0.0
 11
175.8209344426
 21
181.6602972769
 31
0.0
  0
ARC
  5
110
330
F2
100
AcDbEntity
  8
MEGA_000863
  6
Continuous
 62
     7
100
AcDbCircle
 10
184.8209344426
 20
161.8245108393
 30
0.0
 40
1.5
100
AcDbArc
 50
289.4712206345
 51
0.0
  0
ARC
  5
111
330
F2
100
AcDbEntity
  8
MEGA_000863
  6
Continuous
 62
     7
100
AcDbCircle
 10
184.8209344426
 20
183.4960837145
 30
0.0
 40
1.5
100
AcDbArc
 50
0.0
 51
70.5287793655
  0
ARC
  5
112
330
F2
100
AcDbEntity
  8
MEGA_000863
  6
Continuous
 62
     7
100
AcDbCircle
 10
178.0709344426
 20
181.6602972769
 30
0.0
 40
0.2500000000000002
100
AcDbArc
 50
0.0
 51
180.0
  0
ARC
  5
113
330
F2
100
AcDbEntity
  8
MEGA_000863
  6
Continuous
 62
     7
100
AcDbCircle
 10
178.0709344426
 20
163.6602972769
 30
0.0
 40
0.2500000000000002
100
AcDbArc
 50
180.0
 51
0.0
  0
ARC
  5
114
330
F2
100
AcDbEntity
  8
MEGA_002117
  6
Continuous
 62
     7
100
AcDbCircle
 10
148.4252500373
 20
94.6602972769
 30
0.0
 40
41.13561415070837
100
AcDbArc
 50
358.2904261717
 51
1.7095738283
  0
LINE
  5
115
330
F2
100
AcDbEntity
  8
MEGA_002117
  6
Continuous
 62
     7
100
AcDbLine
 10
188.067381052
 20
86.8067438863
 30
0.0
 11
188.067381052
 21
102.5138506675
 31
0.0
  0
LINE
  5
116
330
F2
100
AcDbEntity
  8
MEGA_002117
  6
Continuous
 62
     7
100
AcDbLine
 10
187.7138276614
 20
102.6602972769
 30
0.0
 11
187.7138276614
 21
86.6602972769
 31
0.0
  0
LINE
  5
117
330
F2
100
AcDbEntity
  8
MEGA_002117
  6
Continuous
 62
     7
100
AcDbLine
 10
190.7744878332
 20
95.8942043241
 30
0.0
 11
190.7744878332
 21
99.8067438863
 31
0.0
  0
ARC
  5
118
330
F2
100
AcDbEntity
  8
MEGA_002117
  6
Continuous
 62
     7
100
AcDbCircle
 10
187.1799162969
 20
643.7838962138
 30
0.0
 40
547.9014833193654
100
AcDbArc
 50
270.2470692423
 51
270.3758983356
  0
LINE
  5
119
330
F2
100
AcDbEntity
  8
MEGA_002117
  6
Continuous
 62
     7
100
AcDbLine
 10
190.7209344426
 20
95.6602972769
 30
0.0
 11
190.6330664769
 21
95.6602972769
 31
0.0
  0
LINE
  5
11A
330
F2
100
AcDbEntity
  8
MEGA_002117
  6
Continuous
 62
     7
100
AcDbLine
 10
190.6330664769
 20
95.6602972769
 30
0.0
 11
189.5487275084
 21
95.6602972769
 31
0.0
  0
LINE
  5
11B
330
F2
100
AcDbEntity
  8
MEGA_002117
  6
Continuous
 62
     7
100
AcDbLine
 10
190.9209344426
 20
99.4531904957
 30
0.0
 11
190.9209344426
 21
95.8602972769
 31
0.0
  0
SPLINE
  5
11C
330
F2
100
AcDbEntity
  8
MEGA_002117
  6
Continuous
 62
     7
100
AcDbSpline
210
0.0
220
0.0
230
1.0
 70
     8
 71
     3
 72
     8
 73
     4
 74
     0
 42
0.0000000619574657
 43
0.0000000001
 40
0.0
 40
0.0
 40
0.0
 40
0.0
 40
1.0
 40
1.0
 40
1.0
 40
1.0
 10
190.7744878331706
 20
95.89420432408177
 30
0.0
 10
190.8681819474797
 20
95.88559956421818
 30
0.0
 10
190.9209344425774
 20
95.87348402603187
 30
0.0
 10
190.9209344425774
 20
95.86029727688408
 30
0.0
  0
SPLINE
  5
11D
330
F2
100
AcDbEntity
  8
MEGA_002117
  6
Continuous
 62
     7
100
AcDbSpline
210
0.0
220
0.0
230
1.0
 70
    12
 71
     2
 72
     6
 73
     3
 74
     0
 42
0.0000000246321295
 43
0.0000000001
 40
0.0
 40
0.0
 40
0.0
 40
1.0
 40
1.0
 40
1.0
 10
190.6330664769333
 20
95.6602972768841
 30
0.0
 41
1.0
 10
190.8033582970874
 20
95.66029727688408
 30
0.0
 41
0.6443852745107047
 10
190.7744878331707
 20
95.89420432408176
 30
0.0
 41
1.0
  0
ARC
  5
11E
330
F2
100
AcDbEntity
  8
MEGA_002117
  6
Continuous
 62
     7
100
AcDbCircle
 10
190.7209344426
 20
95.8602972769
 30
0.0
 40
0.1999999999999988
100
AcDbArc
 50
270.0
 51
0.0
  0
LINE
  5
11F
330
F2
100
AcDbEntity
  8
MEGA_002117
  6
Continuous
 62
     7
100
AcDbLine
 10
189.5487275536
 20
93.6602972769
 30
0.0
 11
190.6330664769
 21
93.6602972769
 31
0.0
  0
LINE
  5
120
330
F2
100
AcDbEntity
  8
MEGA_002117
  6
Continuous
 62
     7
100
AcDbLine
 10
190.6330664769
 20
93.6602972769
 30
0.0
 11
190.7209344426
 21
93.6602972769
 31
0.0
  0
LINE
  5
121
330
F2
100
AcDbEntity
  8
MEGA_002117
  6
Continuous
 62
     7
100
AcDbLine
 10
190.7744878332
 20
93.4263902297
 30
0.0
 11
190.7744878332
 21
89.5138506675
 31
0.0
  0
ARC
  5
122
330
F2
100
AcDbEntity
  8
MEGA_002117
  6
Continuous
 62
     7
100
AcDbCircle
 10
187.5166016368
 20
-392.5324415608
 30
0.0
 40
485.9697521632612
100
AcDbArc
 50
89.6158927041
 51
89.761139718
  0
LINE
  5
123
330
F2
100
AcDbEntity
  8
MEGA_002117
  6
Continuous
 62
     7
100
AcDbLine
 10
190.9209344426
 20
93.4602972769
 30
0.0
 11
190.9209344426
 21
89.8674040581
 31
0.0
  0
SPLINE
  5
124
330
F2
100
AcDbEntity
  8
MEGA_002117
  6
Continuous
 62
     7
100
AcDbSpline
210
0.0
220
0.0
230
1.0
 70
     8
 71
     3
 72
     8
 73
     4
 74
     0
 42
0.0000000619564295
 43
0.0000000001
 40
0.0
 40
0.0
 40
0.0
 40
0.0
 40
1.0
 40
1.0
 40
1.0
 40
1.0
 10
190.9209344425774
 20
93.46029727688409
 30
0.0
 10
190.9209344425774
 20
93.44710729322122
 30
0.0
 10
190.8682028617929
 20
93.43499691029652
 30
0.0
 10
190.7744878331706
 20
93.4263902296864
 30
0.0
  0
SPLINE
  5
125
330
F2
100
AcDbEntity
  8
MEGA_002117
  6
Continuous
 62
     7
100
AcDbSpline
210
0.0
220
0.0
230
1.0
 70
    12
 71
     2
 72
     6
 73
     3
 74
     0
 42
0.0000000246321295
 43
0.0000000001
 40
0.0
 40
0.0
 40
0.0
 40
1.0
 40
1.0
 40
1.0
 10
190.7744878331707
 20
93.4263902296864
 30
0.0
 41
1.0
 10
190.8033582970874
 20
93.6602972768841
 30
0.0
 41
0.6443852745103719
 10
190.6330664769334
 20
93.6602972768841
 30
0.0
 41
1.0
  0
ARC
  5
126
330
F2
100
AcDbEntity
  8
MEGA_002117
  6
Continuous
 62
     7
100
AcDbCircle
 10
190.7209344426
 20
93.4602972769
 30
0.0
 40
0.2000000000000057
100
AcDbArc
 50
0.0
 51
90.0
  0
LINE
  5
127
330
F2
100
AcDbEntity
  8
MEGA_002117
  6
Continuous
 62
     7
100
AcDbLine
 10
188.067381052
 20
86.8067438863
 30
0.0
 11
190.7744878332
 21
89.5138506675
 31
0.0
  0
LINE
  5
128
330
F2
100
AcDbEntity
  8
MEGA_002117
  6
Continuous
 62
     7
100
AcDbLine
 10
190.7744878332
 20
99.8067438863
 30
0.0
 11
188.067381052
 21
102.5138506675
 31
0.0
  0
LINE
  5
129
330
F2
100
AcDbEntity
  8
MEGA_002117
  6
Continuous
 62
     7
100
AcDbLine
 10
187.7138276614
 20
102.6602972769
 30
0.0
 11
185.3209344426
 21
102.6602972769
 31
0.0
  0
LINE
  5
12A
330
F2
100
AcDbEntity
  8
MEGA_002117
  6
Continuous
 62
     7
100
AcDbLine
 10
185.3209344426
 20
86.6602972769
 30
0.0
 11
187.7138276614
 21
86.6602972769
 31
0.0
  0
ARC
  5
12B
330
F2
100
AcDbEntity
  8
MEGA_002117
  6
Continuous
 62
     7
100
AcDbCircle
 10
190.4209344426
 20
99.4531904957
 30
0.0
 40
0.5000000000000004
100
AcDbArc
 50
0.0
 51
45.0
  0
ARC
  5
12C
330
F2
100
AcDbEntity
  8
MEGA_002117
  6
Continuous
 62
     7
100
AcDbCircle
 10
187.7138276614
 20
87.1602972769
 30
0.0
 40
0.5000000000000004
100
AcDbArc
 50
270.0
 51
315.0
  0
ARC
  5
12D
330
F2
100
AcDbEntity
  8
MEGA_002117
  6
Continuous
 62
     7
100
AcDbCircle
 10
187.7138276614
 20
102.1602972769
 30
0.0
 40
0.4999999999999897
100
AcDbArc
 50
45.0
 51
90.0
  0
ARC
  5
12E
330
F2
100
AcDbEntity
  8
MEGA_002117
  6
Continuous
 62
     7
100
AcDbCircle
 10
190.4209344426
 20
89.8674040581
 30
0.0
 40
0.5
100
AcDbArc
 50
315.0
 51
0.0
  0
LINE
  5
130
330
F2
100
AcDbEntity
  8
MEGA_001616
  6
Continuous
 62
     7
100
AcDbLine
 10
181.1209344426
 20
98.1602972769
 30
0.0
 11
123.0631980367
 21
98.1602972769
 31
0.0
  0
LINE
  5
131
330
F2
100
AcDbEntity
  8
MEGA_001616
  6
Continuous
 62
     7
100
AcDbLine
 10
181.1209344426
 20
91.1602972769
 30
0.0
 11
123.0631980367
 21
91.1602972769
 31
0.0
  0
LINE
  5
132
330
F2
100
AcDbEntity
  8
MEGA_001616
  6
Continuous
 62
     7
100
AcDbLine
 10
121.1209344426
 20
97.6677811511
 30
0.0
 11
121.1209344426
 21
91.6528134027
 31
0.0
  0
LINE
  5
133
330
F2
100
AcDbEntity
  8
MEGA_001616
  6
Continuous
 62
     7
100
AcDbLine
 10
123.0631980367
 20
98.1602972769
 30
0.0
 11
121.613450822
 21
98.1602972769
 31
0.0
  0
LINE
  5
134
330
F2
100
AcDbEntity
  8
MEGA_001616
  6
Continuous
 62
     7
100
AcDbLine
 10
121.613450822
 20
91.1602972769
 30
0.0
 11
123.0631980367
 21
91.1602972769
 31
0.0
  0
SPLINE
  5
135
330
F2
100
AcDbEntity
  8
MEGA_001616
  6
Continuous
 62
     7
100
AcDbSpline
210
0.0
220
0.0
230
1.0
 70
     8
 71
     3
 72
    14
 73
    10
 74
     0
 42
0.0000000012926452
 43
0.0000000001
 40
0.0
 40
0.0
 40
0.0
 40
0.0
 40
0.25
 40
0.25
 40
0.5
 40
0.5
 40
0.75
 40
0.75
 40
1.0
 40
1.0
 40
1.0
 40
1.0
 10
123.0631980366571
 20
91.16029727688407
 30
0.0
 10
122.6923424476238
 20
91.68476628057675
 30
0.0
 10
122.3457860005069
 20
92.22628049361379
 30
0.0
 10
121.8034596245526
 20
93.38438923716919
 30
0.0
 10
121.6132046179799
 20
94.01498898945573
 30
0.0
 10
121.6136970261012
 20
95.30827076625137
 30
0.0
 10
121.8052655670048
 20
95.94166746774735
 30
0.0
 10
122.3501895176431
 20
97.10209344081689
 30
0.0
 10
122.6943672849398
 20
97.63869182558535
 30
0.0
 10
123.0631980366571
 20
98.16029727688408
 30
0.0
  0
LINE
  5
136
330
F2
100
AcDbEntity
  8
MEGA_001616
  6
Continuous
 62
     7
100
AcDbLine
 10
121.6134505684
 20
98.1602972769
 30
0.0
 11
121.1209344426
 21
97.6677811511
 31
0.0
  0
LINE
  5
137
330
F2
100
AcDbEntity
  8
MEGA_001616
  6
Continuous
 62
     7
100
AcDbLine
 10
121.1209344426
 20
91.6528134027
 30
0.0
 11
121.6134505684
 21
91.1602972769
 31
0.0
  0
ENDBLK
  5
139
330
F2
100
AcDbEntity
  8
0
100
AcDbBlockEnd
  0
BLOCK
  5
13C
330
13B
100
AcDbEntity
  8
0
100
AcDbBlockBegin
  2
_OBLIQUE
 70
     0
 10
0.0
 20
0.0
 30
0.0
  3
_OBLIQUE
  1

  0
LINE
  5
13E
330
13B
100
AcDbEntity
  8
0
  6
ByBlock
 62
     0
370
    -2
100
AcDbLine
 10
-0.5
 20
-0.5
 30
0.0
 11
0.5
 21
0.5
 31
0.0
  0
ENDBLK
  5
13D
330
13B
100
AcDbEntity
  8
0
100
AcDbBlockEnd
  0
BLOCK
  5
140
330
13F
100
AcDbEntity
  8
0
100
AcDbBlockBegin
  2
_DOT
 70
     0
 10
0.0
 20
0.0
 30
0.0
  3
_DOT
  1

  0
POLYLINE
  5
142
330
13F
100
AcDbEntity
  8
0
  6
ByBlock
 62
     0
100
AcDb2dPolyline
 66
     1
 10
0.0
 20
0.0
 30
0.0
 70
     1
 40
0.5
 41
0.5
  0
VERTEX
  5
145
330
142
100
AcDbEntity
  8
0
  6
ByBlock
 62
     0
100
AcDbVertex
100
AcDb2dVertex
 10
-0.25
 20
0.0
 30
0.0
 42
1.0
  0
VERTEX
  5
146
330
142
100
AcDbEntity
  8
0
  6
ByBlock
 62
     0
100
AcDbVertex
100
AcDb2dVertex
 10
0.25
 20
0.0
 30
0.0
 42
1.0
  0
SEQEND
  5
144
330
142
100
AcDbEntity
  8
0
  6
ByBlock
 62
     0
  0
LINE
  5
143
330
13F
100
AcDbEntity
  8
0
  6
ByBlock
 62
     0
370
    -2
100
AcDbLine
 10
-0.5
 20
0.0
 30
0.0
 11
-1.0
 21
0.0
 31
0.0
  0
ENDBLK
  5
141
330
13F
100
AcDbEntity
  8
0
100
AcDbBlockEnd
  0
BLOCK
  5
14A
330
147
100
AcDbEntity
  8
0
100
AcDbBlockBegin
  2
_SE_FILLED
 70
     0
 10
0.0
 20
0.0
 30
0.0
  3
_SE_FILLED
  1

  0
SOLID
  5
148
330
147
100
AcDbEntity
  8
0
 62
     0
100
AcDbTrace
 10
0.0
 20
0.0
 30
0.0
 11
-1.0
 21
-0.1665
 31
0.0
 12
-1.0
 22
0.1665
 32
0.0
 13
0.0
 23
0.0
 33
0.0
  0
LINE
  5
149
330
147
100
AcDbEntity
  8
0
 62
     0
100
AcDbLine
 10
0.0
 20
0.0
 30
0.0
 11
-1.0
 21
0.0
 31
0.0
  0
ENDBLK
  5
14B
330
147
100
AcDbEntity
  8
0
100
AcDbBlockEnd
  0
BLOCK
  5
155
330
14F
100
AcDbEntity
  8
0
100
AcDbBlockBegin
  2
DMBLK438
 70
     0
 10
0.0
 20
0.0
 30
0.0
  3
DMBLK438
  1

  0
HATCH
  5
150
330
14F
100
AcDbEntity
  8
Default
  6
Continuous
 62
     7
100
AcDbHatch
 10
0.0
 20
0.0
 30
0.0
210
0.0
220
0.0
230
1.0
  2
SOLID
 70
     1
 71
     0
 91
        1
 92
        1
 93
        3
 72
     1
 10
178.1209344165003
 20
76.01651673683006
 11
178.1209344165003
 21
75.0165167281377
 72
     1
 10
178.1209344165003
 20
75.0165167281377
 11
181.1209344425774
 21
75.51651673248388
 72
     1
 10
181.1209344425774
 20
75.51651673248388
 11
178.1209344165003
 21
76.01651673683006
 97
        0
 75
     0
 76
     1
 98
        0
  0
HATCH
  5
151
330
14F
100
AcDbEntity
  8
Default
  6
Continuous
 62
     7
100
AcDbHatch
 10
0.0
 20
0.0
 30
0.0
210
0.0
220
0.0
230
1.0
  2
SOLID
 70
     1
 71
     0
 91
        1
 92
        1
 93
        3
 72
     1
 10
124.1209358097589
 20
76.01651673683006
 11
121.1209357836819
 21
75.51651673248388
 72
     1
 10
121.1209357836819
 20
75.51651673248388
 11
124.1209358097589
 21
75.0165167281377
 72
     1
 10
124.1209358097589
 20
75.0165167281377
 11
124.1209358097589
 21
76.01651673683006
 97
        0
 75
     0
 76
     1
 98
        0
  0
LINE
  5
152
330
14F
100
AcDbEntity
  8
Default
  6
Continuous
 62
     7
100
AcDbLine
 10
121.1209344426
 20
94.6602972769
 30
0.0
 11
121.1209344426
 21
74.0165167194
 31
0.0
  0
LINE
  5
153
330
14F
100
AcDbEntity
  8
Default
  6
Continuous
 62
     7
100
AcDbLine
 10
181.1209344426
 20
75.5165167325
 30
0.0
 11
121.1209357837
 21
75.5165167325
 31
0.0
  0
TEXT
  5
154
330
14F
100
AcDbEntity
  8
Default
  6
Continuous
 62
     7
100
AcDbText
 10
149.3141169313
 20
76.2665167325
 30
0.0
 40
3.0
  1
60
  7
SEACAD_seiso_ttf
 11
149.3141169313
 21
79.2665167325
 31
0.0
100
AcDbText
 73
     3
  0
ENDBLK
  5
156
330
14F
100
AcDbEntity
  8
0
100
AcDbBlockEnd
  0
BLOCK
  5
15A
330
157
100
AcDbEntity
  8
0
100
AcDbBlockBegin
  2
_SE_SLASH
 70
     0
 10
0.0
 20
0.0
 30
0.0
  3
_SE_SLASH
  1

  0
LINE
  5
158
330
157
100
AcDbEntity
  8
0
 62
     0
100
AcDbLine
 10
-0.5
 20
-0.5
 30
0.0
 11
0.5
 21
0.5
 31
0.0
  0
LINE
  5
159
330
157
100
AcDbEntity
  8
0
 62
     0
100
AcDbLine
 10
0.0
 20
0.0
 30
0.0
 11
-1.0
 21
0.0
 31
0.0
  0
ENDBLK
  5
15B
330
157
100
AcDbEntity
  8
0
100
AcDbBlockEnd
  0
BLOCK
  5
164
330
15D
100
AcDbEntity
  8
0
100
AcDbBlockBegin
  2
DMBLK439
 70
     0
 10
0.0
 20
0.0
 30
0.0
  3
DMBLK439
  1

  0
HATCH
  5
15E
330
15D
100
AcDbEntity
  8
Default
  6
Continuous
 62
     7
100
AcDbHatch
 10
0.0
 20
0.0
 30
0.0
210
0.0
220
0.0
230
1.0
  2
SOLID
 70
     1
 71
     0
 91
        1
 92
        1
 93
        3
 72
     1
 10
178.1209344165003
 20
32.35205404627799
 11
181.1209344425774
 21
32.85205405062416
 72
     1
 10
181.1209344425774
 20
32.85205405062416
 11
178.1209344165003
 21
33.35205405497033
 72
     1
 10
178.1209344165003
 20
33.35205405497033
 11
178.1209344165003
 21
32.35205404627799
 97
        0
 75
     0
 76
     1
 98
        0
  0
LINE
  5
15F
330
15D
100
AcDbEntity
  8
Default
  6
Continuous
 62
     7
100
AcDbLine
 10
187.1580517656
 20
34.6891713737
 30
0.0
 11
183.4838171195
 21
31.0149367276
 31
0.0
  0
LINE
  5
160
330
15D
100
AcDbEntity
  8
Default
  6
Continuous
 62
     7
100
AcDbLine
 10
181.1209344426
 20
39.6602972769
 30
0.0
 11
181.1209344426
 21
31.3520540376
 31
0.0
  0
LINE
  5
161
330
15D
100
AcDbEntity
  8
Default
  6
Continuous
 62
     7
100
AcDbLine
 10
185.3209344426
 20
50.7025699485
 30
0.0
 11
185.3209344426
 21
31.3520540376
 31
0.0
  0
LINE
  5
162
330
15D
100
AcDbEntity
  8
Default
  6
Continuous
 62
     7
100
AcDbLine
 10
169.0710107917
 20
32.8520540506
 30
0.0
 11
191.3209348106
 21
32.8520540506
 31
0.0
  0
TEXT
  5
163
330
15D
100
AcDbEntity
  8
Default
  6
Continuous
 62
     7
100
AcDbText
 10
170.1210106153
 20
33.6020540506
 30
0.0
 40
3.0
  1
4,2
  7
SEACAD_seiso_ttf
 11
170.1210106153
 21
36.6020540506
 31
0.0
100
AcDbText
 73
     3
  0
ENDBLK
  5
165
330
15D
100
AcDbEntity
  8
0
100
AcDbBlockEnd
  0
BLOCK
  5
16E
330
167
100
AcDbEntity
  8
0
100
AcDbBlockBegin
  2
DMBLK440
 70
     0
 10
0.0
 20
0.0
 30
0.0
  3
DMBLK440
  1

  0
LINE
  5
168
330
167
100
AcDbEntity
  8
Default
  6
Continuous
 62
     7
100
AcDbLine
 10
187.1580517656
 20
34.6891709076
 30
0.0
 11
183.4838171195
 21
31.0149362614
 31
0.0
  0
HATCH
  5
169
330
167
100
AcDbEntity
  8
Default
  6
Continuous
 62
     7
100
AcDbHatch
 10
0.0
 20
0.0
 30
0.0
210
0.0
220
0.0
230
1.0
  2
SOLID
 70
     1
 71
     0
 91
        1
 92
        1
 93
        3
 72
     1
 10
193.9209344686544
 20
32.35205358015175
 11
193.9209344686544
 21
33.35205358884409
 72
     1
 10
193.9209344686544
 20
33.35205358884409
 11
190.9209344425774
 21
32.85205358449792
 72
     1
 10
190.9209344425774
 20
32.85205358449792
 11
193.9209344686544
 21
32.35205358015175
 97
        0
 75
     0
 76
     1
 98
        0
  0
LINE
  5
16A
330
167
100
AcDbEntity
  8
Default
  6
Continuous
 62
     7
100
AcDbLine
 10
185.3209344426
 20
50.7025699485
 30
0.0
 11
185.3209344426
 21
31.3520535715
 31
0.0
  0
LINE
  5
16B
330
167
100
AcDbEntity
  8
Default
  6
Continuous
 62
     7
100
AcDbLine
 10
190.9209344426
 20
95.8602972769
 30
0.0
 11
190.9209344426
 21
31.3520535715
 31
0.0
  0
LINE
  5
16C
330
167
100
AcDbEntity
  8
Default
  6
Continuous
 62
     7
100
AcDbLine
 10
179.3209343904
 20
32.8520535845
 30
0.0
 11
200.8176112303
 21
32.8520535845
 31
0.0
  0
TEXT
  5
16D
330
167
100
AcDbEntity
  8
Default
  6
Continuous
 62
     7
100
AcDbText
 10
195.6767021576
 20
33.6020535845
 30
0.0
 40
3.0
  1
5,6
  7
SEACAD_seiso_ttf
 11
195.6767021576
 21
36.6020535845
 31
0.0
100
AcDbText
 73
     3
  0
ENDBLK
  5
16F
330
167
100
AcDbEntity
  8
0
100
AcDbBlockEnd
  0
BLOCK
  5
178
330
171
100
AcDbEntity
  8
0
100
AcDbBlockBegin
  2
DMBLK441
 70
     0
 10
0.0
 20
0.0
 30
0.0
  3
DMBLK441
  1

  0
HATCH
  5
172
330
171
100
AcDbEntity
  8
Default
  6
Continuous
 62
     7
100
AcDbHatch
 10
0.0
 20
0.0
 30
0.0
210
0.0
220
0.0
230
1.0
  2
SOLID
 70
     1
 71
     0
 91
        1
 92
        1
 93
        3
 72
     1
 10
50.80065845082764
 20
275.6571990019925
 11
47.80065842475061
 21
275.1571989976463
 72
     1
 10
47.80065842475061
 20
275.1571989976463
 11
50.80065845082764
 21
274.6571989933001
 72
     1
 10
50.80065845082764
 20
274.6571989933001
 11
50.80065845082764
 21
275.6571990019925
 97
        0
 75
     0
 76
     1
 98
        0
  0
HATCH
  5
173
330
171
100
AcDbEntity
  8
Default
  6
Continuous
 62
     7
100
AcDbHatch
 10
0.0
 20
0.0
 30
0.0
210
0.0
220
0.0
230
1.0
  2
SOLID
 70
     1
 71
     0
 91
        1
 92
        1
 93
        3
 72
     1
 10
84.8006575046039
 20
275.6571990019925
 11
84.8006575046039
 21
274.6571989933001
 72
     1
 10
84.8006575046039
 20
274.6571989933001
 11
87.80065753068094
 21
275.1571989976463
 72
     1
 10
87.80065753068094
 20
275.1571989976463
 11
84.8006575046039
 21
275.6571990019925
 97
        0
 75
     0
 76
     1
 98
        0
  0
LINE
  5
174
330
171
100
AcDbEntity
  8
Default
  6
Continuous
 62
     7
100
AcDbLine
 10
47.8006584248
 20
239.6602972769
 30
0.0
 11
47.8006584248
 21
276.6571990107
 31
0.0
  0
LINE
  5
175
330
171
100
AcDbEntity
  8
Default
  6
Continuous
 62
     7
100
AcDbLine
 10
87.8006584248
 20
239.6602972769
 30
0.0
 11
87.8006584248
 21
276.6571990107
 31
0.0
  0
LINE
  5
176
330
171
100
AcDbEntity
  8
Default
  6
Continuous
 62
     7
100
AcDbLine
 10
47.8006584248
 20
275.1571989976
 30
0.0
 11
87.8006575307
 21
275.1571989976
 31
0.0
  0
TEXT
  5
177
330
171
100
AcDbEntity
  8
Default
  6
Continuous
 62
     7
100
AcDbText
 10
66.027930705
 20
275.9071989976
 30
0.0
 40
3.0
  1
40
  7
SEACAD_seiso_ttf
 11
66.027930705
 21
278.9071989976
 31
0.0
100
AcDbText
 73
     3
  0
ENDBLK
  5
179
330
171
100
AcDbEntity
  8
0
100
AcDbBlockEnd
  0
BLOCK
  5
182
330
17B
100
AcDbEntity
  8
0
100
AcDbBlockBegin
  2
DMBLK442
 70
     0
 10
0.0
 20
0.0
 30
0.0
  3
DMBLK442
  1

  0
HATCH
  5
17C
330
17B
100
AcDbEntity
  8
Default
  6
Continuous
 62
     7
100
AcDbHatch
 10
0.0
 20
0.0
 30
0.0
210
0.0
220
0.0
230
1.0
  2
SOLID
 70
     1
 71
     0
 91
        1
 92
        1
 93
        3
 72
     1
 10
60.30065845082763
 20
266.6167195654758
 11
57.3006584247506
 21
266.1167195611296
 72
     1
 10
57.3006584247506
 20
266.1167195611296
 11
60.30065845082763
 21
265.6167195567834
 72
     1
 10
60.30065845082763
 20
265.6167195567834
 11
60.30065845082763
 21
266.6167195654758
 97
        0
 75
     0
 76
     1
 98
        0
  0
HATCH
  5
17D
330
17B
100
AcDbEntity
  8
Default
  6
Continuous
 62
     7
100
AcDbHatch
 10
0.0
 20
0.0
 30
0.0
210
0.0
220
0.0
230
1.0
  2
SOLID
 70
     1
 71
     0
 91
        1
 92
        1
 93
        3
 72
     1
 10
75.3006581155515
 20
266.6167195654758
 11
75.3006581155515
 21
265.6167195567834
 72
     1
 10
75.3006581155515
 20
265.6167195567834
 11
78.30065814162853
 21
266.1167195611296
 72
     1
 10
78.30065814162853
 20
266.1167195611296
 11
75.3006581155515
 21
266.6167195654758
 97
        0
 75
     0
 76
     1
 98
        0
  0
LINE
  5
17E
330
17B
100
AcDbEntity
  8
Default
  6
Continuous
 62
     7
100
AcDbLine
 10
57.3006584248
 20
244.6602972769
 30
0.0
 11
57.3006584248
 21
267.6167195742
 31
0.0
  0
LINE
  5
17F
330
17B
100
AcDbEntity
  8
Default
  6
Continuous
 62
     7
100
AcDbLine
 10
78.3006584248
 20
244.6602972769
 30
0.0
 11
78.3006584248
 21
267.6167195742
 31
0.0
  0
LINE
  5
180
330
17B
100
AcDbEntity
  8
Default
  6
Continuous
 62
     7
100
AcDbLine
 10
57.3006584248
 20
266.1167195611
 30
0.0
 11
78.3006581416
 21
266.1167195611
 31
0.0
  0
TEXT
  5
181
330
17B
100
AcDbEntity
  8
Default
  6
Continuous
 62
     7
100
AcDbText
 10
66.2665673741
 20
266.8667195611
 30
0.0
 40
3.0
  1
21
  7
SEACAD_seiso_ttf
 11
66.2665673741
 21
269.8667195611
 31
0.0
100
AcDbText
 73
     3
  0
ENDBLK
  5
183
330
17B
100
AcDbEntity
  8
0
100
AcDbBlockEnd
  0
BLOCK
  5
18C
330
185
100
AcDbEntity
  8
0
100
AcDbBlockBegin
  2
DMBLK443
 70
     0
 10
0.0
 20
0.0
 30
0.0
  3
DMBLK443
  1

  0
HATCH
  5
186
330
185
100
AcDbEntity
  8
Default
  6
Continuous
 62
     7
100
AcDbHatch
 10
0.0
 20
0.0
 30
0.0
210
0.0
220
0.0
230
1.0
  2
SOLID
 70
     1
 71
     0
 91
        1
 92
        1
 93
        3
 72
     1
 10
37.70503935285473
 20
175.6602973029611
 11
38.2050393572009
 21
172.6602972768841
 72
     1
 10
38.2050393572009
 20
172.6602972768841
 11
38.70503936154707
 21
175.6602973029611
 72
     1
 10
38.70503936154707
 20
175.6602973029611
 11
37.70503935285473
 21
175.6602973029611
 97
        0
 75
     0
 76
     1
 98
        0
  0
HATCH
  5
187
330
185
100
AcDbEntity
  8
Default
  6
Continuous
 62
     7
100
AcDbHatch
 10
0.0
 20
0.0
 30
0.0
210
0.0
220
0.0
230
1.0
  2
SOLID
 70
     1
 71
     0
 91
        1
 92
        1
 93
        3
 72
     1
 10
37.70503935285473
 20
241.6602941513655
 11
38.70503936154707
 21
241.6602941513655
 72
     1
 10
38.70503936154707
 20
241.6602941513655
 11
38.2050393572009
 21
244.6602941774426
 72
     1
 10
38.2050393572009
 20
244.6602941774426
 11
37.70503935285473
 21
241.6602941513655
 97
        0
 75
     0
 76
     1
 98
        0
  0
LINE
  5
188
330
185
100
AcDbEntity
  8
Default
  6
Continuous
 62
     7
100
AcDbLine
 10
67.8006584248
 20
172.6602972769
 30
0.0
 11
36.7050393442
 21
172.6602972769
 31
0.0
  0
LINE
  5
189
330
185
100
AcDbEntity
  8
Default
  6
Continuous
 62
     7
100
AcDbLine
 10
78.3006584248
 20
244.6602972769
 30
0.0
 11
36.7050393442
 21
244.6602972769
 31
0.0
  0
LINE
  5
18A
330
185
100
AcDbEntity
  8
Default
  6
Continuous
 62
     7
100
AcDbLine
 10
38.2050393572
 20
172.6602972769
 30
0.0
 11
38.2050393572
 21
244.6602941774
 31
0.0
  0
TEXT
  5
18B
330
185
100
AcDbEntity
  8
Default
  6
Continuous
 62
     7
100
AcDbText
 10
37.4550393572
 20
206.7852957272
 30
0.0
 40
3.0
  1
72
 50
90.0
  7
SEACAD_seiso_ttf
 11
34.4550393572
 21
206.7852957272
 31
0.0
100
AcDbText
 73
     3
  0
ENDBLK
  5
18D
330
185
100
AcDbEntity
  8
0
100
AcDbBlockEnd
  0
BLOCK
  5
196
330
18F
100
AcDbEntity
  8
0
100
AcDbBlockBegin
  2
DMBLK444
 70
     0
 10
0.0
 20
0.0
 30
0.0
  3
DMBLK444
  1

  0
HATCH
  5
190
330
18F
100
AcDbEntity
  8
Default
  6
Continuous
 62
     7
100
AcDbHatch
 10
0.0
 20
0.0
 30
0.0
210
0.0
220
0.0
230
1.0
  2
SOLID
 70
     1
 71
     0
 91
        1
 92
        1
 93
        3
 72
     1
 10
28.70504160293007
 20
175.6602973029611
 11
29.20504160727624
 21
172.6602972768841
 72
     1
 10
29.20504160727624
 20
172.6602972768841
 11
29.70504161162242
 21
175.6602973029611
 72
     1
 10
29.70504161162242
 20
175.6602973029611
 11
28.70504160293007
 21
175.6602973029611
 97
        0
 75
     0
 76
     1
 98
        0
  0
HATCH
  5
191
330
18F
100
AcDbEntity
  8
Default
  6
Continuous
 62
     7
100
AcDbHatch
 10
0.0
 20
0.0
 30
0.0
210
0.0
220
0.0
230
1.0
  2
SOLID
 70
     1
 71
     0
 91
        1
 92
        1
 93
        3
 72
     1
 10
28.70504160293007
 20
256.660294747412
 11
29.70504161162242
 21
256.660294747412
 72
     1
 10
29.70504161162242
 20
256.660294747412
 11
29.20504160727624
 21
259.660294773489
 72
     1
 10
29.20504160727624
 20
259.660294773489
 11
28.70504160293007
 21
256.660294747412
 97
        0
 75
     0
 76
     1
 98
        0
  0
LINE
  5
192
330
18F
100
AcDbEntity
  8
Default
  6
Continuous
 62
     7
100
AcDbLine
 10
67.8006584248
 20
172.6602972769
 30
0.0
 11
27.7050415942
 21
172.6602972769
 31
0.0
  0
LINE
  5
193
330
18F
100
AcDbEntity
  8
Default
  6
Continuous
 62
     7
100
AcDbLine
 10
67.8006584248
 20
259.6602972769
 30
0.0
 11
27.7050415942
 21
259.6602972769
 31
0.0
  0
LINE
  5
194
330
18F
100
AcDbEntity
  8
Default
  6
Continuous
 62
     7
100
AcDbLine
 10
29.2050416073
 20
172.6602972769
 30
0.0
 11
29.2050416073
 21
259.6602947735
 31
0.0
  0
TEXT
  5
195
330
18F
100
AcDbEntity
  8
Default
  6
Continuous
 62
     7
100
AcDbText
 10
28.4550416073
 20
214.2512051161
 30
0.0
 40
3.0
  1
87
 50
90.0
  7
SEACAD_seiso_ttf
 11
25.4550416073
 21
214.2512051161
 31
0.0
100
AcDbText
 73
     3
  0
ENDBLK
  5
197
330
18F
100
AcDbEntity
  8
0
100
AcDbBlockEnd
  0
BLOCK
  5
1A0
330
199
100
AcDbEntity
  8
0
100
AcDbBlockBegin
  2
DMBLK445
 70
     0
 10
0.0
 20
0.0
 30
0.0
  3
DMBLK445
  1

  0
HATCH
  5
19A
330
199
100
AcDbEntity
  8
Default
  6
Continuous
 62
     7
100
AcDbHatch
 10
0.0
 20
0.0
 30
0.0
210
0.0
220
0.0
230
1.0
  2
SOLID
 70
     1
 71
     0
 91
        1
 92
        1
 93
        3
 72
     1
 10
37.70503935285473
 20
169.660297250807
 11
38.70503936154707
 21
169.660297250807
 72
     1
 10
38.70503936154707
 20
169.660297250807
 11
38.2050393572009
 21
172.6602972768841
 72
     1
 10
38.2050393572009
 20
172.6602972768841
 11
37.70503935285473
 21
169.660297250807
 97
        0
 75
     0
 76
     1
 98
        0
  0
HATCH
  5
19B
330
199
100
AcDbEntity
  8
Default
  6
Continuous
 62
     7
100
AcDbHatch
 10
0.0
 20
0.0
 30
0.0
210
0.0
220
0.0
230
1.0
  2
SOLID
 70
     1
 71
     0
 91
        1
 92
        1
 93
        3
 72
     1
 10
37.70503935285473
 20
97.66029569363572
 11
38.2050393572009
 21
94.66029566755869
 72
     1
 10
38.2050393572009
 20
94.66029566755869
 11
38.70503936154707
 21
97.66029569363572
 72
     1
 10
38.70503936154707
 20
97.66029569363572
 11
37.70503935285473
 21
97.66029569363572
 97
        0
 75
     0
 76
     1
 98
        0
  0
LINE
  5
19C
330
199
100
AcDbEntity
  8
Default
  6
Continuous
 62
     7
100
AcDbLine
 10
67.8006584248
 20
172.6602972769
 30
0.0
 11
36.7050393442
 21
172.6602972769
 31
0.0
  0
LINE
  5
19D
330
199
100
AcDbEntity
  8
Default
  6
Continuous
 62
     7
100
AcDbLine
 10
67.8006584248
 20
94.6602972769
 30
0.0
 11
36.7050393442
 21
94.6602972769
 31
0.0
  0
LINE
  5
19E
330
199
100
AcDbEntity
  8
Default
  6
Continuous
 62
     7
100
AcDbLine
 10
38.2050393572
 20
172.6602972769
 30
0.0
 11
38.2050393572
 21
94.6602956676
 31
0.0
  0
TEXT
  5
19F
330
199
100
AcDbEntity
  8
Default
  6
Continuous
 62
     7
100
AcDbText
 10
37.4550393572
 20
131.7512055631
 30
0.0
 40
3.0
  1
78
 50
90.0
  7
SEACAD_seiso_ttf
 11
34.4550393572
 21
131.7512055631
 31
0.0
100
AcDbText
 73
     3
  0
ENDBLK
  5
1A1
330
199
100
AcDbEntity
  8
0
100
AcDbBlockEnd
  0
BLOCK
  5
1AA
330
1A3
100
AcDbEntity
  8
0
100
AcDbBlockBegin
  2
DMBLK446
 70
     0
 10
0.0
 20
0.0
 30
0.0
  3
DMBLK446
  1

  0
HATCH
  5
1A4
330
1A3
100
AcDbEntity
  8
Default
  6
Continuous
 62
     7
100
AcDbHatch
 10
0.0
 20
0.0
 30
0.0
210
0.0
220
0.0
230
1.0
  2
SOLID
 70
     1
 71
     0
 91
        1
 92
        1
 93
        3
 72
     1
 10
28.70504160293007
 20
169.660297250807
 11
29.70504161162242
 21
169.660297250807
 72
     1
 10
29.70504161162242
 20
169.660297250807
 11
29.20504160727624
 21
172.6602972768841
 72
     1
 10
29.20504160727624
 20
172.6602972768841
 11
28.70504160293007
 21
169.660297250807
 97
        0
 75
     0
 76
     1
 98
        0
  0
HATCH
  5
1A5
330
1A3
100
AcDbEntity
  8
Default
  6
Continuous
 62
     7
100
AcDbHatch
 10
0.0
 20
0.0
 30
0.0
210
0.0
220
0.0
230
1.0
  2
SOLID
 70
     1
 71
     0
 91
        1
 92
        1
 93
        3
 72
     1
 10
28.70504160293007
 20
57.66029658770538
 11
29.20504160727624
 21
54.66029656162835
 72
     1
 10
29.20504160727624
 20
54.66029656162835
 11
29.70504161162242
 21
57.66029658770538
 72
     1
 10
29.70504161162242
 20
57.66029658770538
 11
28.70504160293007
 21
57.66029658770538
 97
        0
 75
     0
 76
     1
 98
        0
  0
LINE
  5
1A6
330
1A3
100
AcDbEntity
  8
Default
  6
Continuous
 62
     7
100
AcDbLine
 10
67.8006584248
 20
172.6602972769
 30
0.0
 11
27.7050415942
 21
172.6602972769
 31
0.0
  0
LINE
  5
1A7
330
1A3
100
AcDbEntity
  8
Default
  6
Continuous
 62
     7
100
AcDbLine
 10
78.3006584248
 20
54.6602972769
 30
0.0
 11
27.7050415942
 21
54.6602972769
 31
0.0
  0
LINE
  5
1A8
330
1A3
100
AcDbEntity
  8
Default
  6
Continuous
 62
     7
100
AcDbLine
 10
29.2050416073
 20
172.6602972769
 30
0.0
 11
29.2050416073
 21
54.6602965616
 31
0.0
  0
TEXT
  5
1A9
330
1A3
100
AcDbEntity
  8
Default
  6
Continuous
 62
     7
100
AcDbText
 10
28.4550416073
 20
111.4784787374
 30
0.0
 40
3.0
  1
118
 50
90.0
  7
SEACAD_seiso_ttf
 11
25.4550416073
 21
111.4784787374
 31
0.0
100
AcDbText
 73
     3
  0
ENDBLK
  5
1AB
330
1A3
100
AcDbEntity
  8
0
100
AcDbBlockEnd
  0
BLOCK
  5
1B4
330
1AD
100
AcDbEntity
  8
0
100
AcDbBlockBegin
  2
DMBLK447
 70
     0
 10
0.0
 20
0.0
 30
0.0
  3
DMBLK447
  1

  0
HATCH
  5
1AE
330
1AD
100
AcDbEntity
  8
Default
  6
Continuous
 62
     7
100
AcDbHatch
 10
0.0
 20
0.0
 30
0.0
210
0.0
220
0.0
230
1.0
  2
SOLID
 70
     1
 71
     0
 91
        1
 92
        1
 93
        3
 72
     1
 10
17.36396153338814
 20
256.6602972508071
 11
18.36396154208049
 21
256.6602972508071
 72
     1
 10
18.36396154208049
 20
256.6602972508071
 11
17.86396153773431
 21
259.6602972768841
 72
     1
 10
17.86396153773431
 20
259.6602972768841
 11
17.36396153338814
 21
256.6602972508071
 97
        0
 75
     0
 76
     1
 98
        0
  0
HATCH
  5
1AF
330
1AD
100
AcDbEntity
  8
Default
  6
Continuous
 62
     7
100
AcDbHatch
 10
0.0
 20
0.0
 30
0.0
210
0.0
220
0.0
230
1.0
  2
SOLID
 70
     1
 71
     0
 91
        1
 92
        1
 93
        3
 72
     1
 10
17.36396153338814
 20
42.66029849505404
 11
17.86396153773431
 21
39.660298468977
 72
     1
 10
17.86396153773431
 20
39.660298468977
 11
18.36396154208049
 21
42.66029849505404
 72
     1
 10
18.36396154208049
 20
42.66029849505404
 11
17.36396153338814
 21
42.66029849505404
 97
        0
 75
     0
 76
     1
 98
        0
  0
LINE
  5
1B0
330
1AD
100
AcDbEntity
  8
Default
  6
Continuous
 62
     7
100
AcDbLine
 10
67.8006584248
 20
259.6602972769
 30
0.0
 11
16.3639615247
 21
259.6602972769
 31
0.0
  0
LINE
  5
1B1
330
1AD
100
AcDbEntity
  8
Default
  6
Continuous
 62
     7
100
AcDbLine
 10
67.8006584248
 20
39.6602972769
 30
0.0
 11
16.3639615247
 21
39.6602972769
 31
0.0
  0
LINE
  5
1B2
330
1AD
100
AcDbEntity
  8
Default
  6
Continuous
 62
     7
100
AcDbLine
 10
17.8639615377
 20
259.6602972769
 30
0.0
 11
17.8639615377
 21
39.660298469
 31
0.0
  0
TEXT
  5
1B3
330
1AD
100
AcDbEntity
  8
Default
  6
Continuous
 62
     7
100
AcDbText
 10
17.1139615377
 20
146.9330251457
 30
0.0
 40
3.0
  1
220
 50
90.0
  7
SEACAD_seiso_ttf
 11
14.1139615377
 21
146.9330251457
 31
0.0
100
AcDbText
 73
     3
  0
ENDBLK
  5
1B5
330
1AD
100
AcDbEntity
  8
0
100
AcDbBlockEnd
  0
BLOCK
  5
1C0
330
1B8
100
AcDbEntity
  8
0
100
AcDbBlockBegin
  2
DMBLK448
 70
     0
 10
0.0
 20
0.0
 30
0.0
  3
DMBLK448
  1

  0
HATCH
  5
1B9
330
1B8
100
AcDbEntity
  8
Default
  6
Continuous
 62
     7
100
AcDbHatch
 10
0.0
 20
0.0
 30
0.0
210
0.0
220
0.0
230
1.0
  2
SOLID
 70
     1
 71
     0
 91
        1
 92
        1
 93
        3
 72
     1
 10
100.8583321814047
 20
167.4602973029611
 11
99.85833217271232
 21
167.4602973029611
 72
     1
 10
99.85833217271232
 20
167.4602973029611
 11
100.3583321770585
 21
164.4602972768841
 72
     1
 10
100.3583321770585
 20
164.4602972768841
 11
100.8583321814047
 21
167.4602973029611
 97
        0
 75
     0
 76
     1
 98
        0
  0
HATCH
  5
1BA
330
1B8
100
AcDbEntity
  8
Default
  6
Continuous
 62
     7
100
AcDbHatch
 10
0.0
 20
0.0
 30
0.0
210
0.0
220
0.0
230
1.0
  2
SOLID
 70
     1
 71
     0
 91
        1
 92
        1
 93
        3
 72
     1
 10
100.8583321814047
 20
177.8602973312733
 11
100.3583321770585
 21
180.8602973573503
 72
     1
 10
100.3583321770585
 20
180.8602973573503
 11
99.85833217271232
 21
177.8602973312733
 72
     1
 10
99.85833217271232
 20
177.8602973312733
 11
100.8583321814047
 21
177.8602973312733
 97
        0
 75
     0
 76
     1
 98
        0
  0
LINE
  5
1BB
330
1B8
100
AcDbEntity
  8
Default
  6
Continuous
 62
     7
100
AcDbLine
 10
67.8006584248
 20
164.4602972769
 30
0.0
 11
101.8583321901
 21
164.4602972769
 31
0.0
  0
LINE
  5
1BC
330
1B8
100
AcDbEntity
  8
Default
  6
Continuous
 62
     7
100
AcDbLine
 10
67.8006584248
 20
180.8602972769
 30
0.0
 11
101.8583321901
 21
180.8602972769
 31
0.0
  0
LINE
  5
1BD
330
1B8
100
AcDbEntity
  8
Default
  6
Continuous
 62
     7
100
AcDbLine
 10
100.3583321771
 20
164.4602972769
 30
0.0
 11
100.3583321771
 21
180.8602973574
 31
0.0
  0
TEXT
  5
1BE
330
1B8
100
AcDbEntity
  8
Default
  6
Continuous
 62
     7
100
AcDbText
 10
99.6083321771
 20
172.9465120849
 30
0.0
 40
3.0
  1
16
 50
90.0
  7
SEACAD_seiso_ttf
 11
96.6083321771
 21
172.9465120849
 31
0.0
100
AcDbText
 73
     3
  0
TEXT
  5
1BF
330
1B8
100
AcDbEntity
  8
Default
  6
Continuous
 62
     7
100
AcDbText
 10
99.6083321771
 20
169.3059007312
 30
0.0
 40
3.0
  1
O
 50
90.0
  7
SEACAD_semeci1_ttf
 11
96.6083321771
 21
169.3059007312
 31
0.0
100
AcDbText
 73
     3
  0
ENDBLK
  5
1C1
330
1B8
100
AcDbEntity
  8
0
100
AcDbBlockEnd
  0
BLOCK
  5
1CA
330
1C3
100
AcDbEntity
  8
0
100
AcDbBlockBegin
  2
DMBLK449
 70
     0
 10
0.0
 20
0.0
 30
0.0
  3
DMBLK449
  1

  0
HATCH
  5
1C4
330
1C3
100
AcDbEntity
  8
Default
  6
Continuous
 62
     7
100
AcDbHatch
 10
0.0
 20
0.0
 30
0.0
210
0.0
220
0.0
230
1.0
  2
SOLID
 70
     1
 71
     0
 91
        1
 92
        1
 93
        3
 72
     1
 10
182.3209344165004
 20
272.2670171923288
 11
182.3209344165004
 21
271.2670171836364
 72
     1
 10
182.3209344165004
 20
271.2670171836364
 11
185.3209344425774
 21
271.7670171879826
 72
     1
 10
185.3209344425774
 20
271.7670171879826
 11
182.3209344165004
 21
272.2670171923288
 97
        0
 75
     0
 76
     1
 98
        0
  0
HATCH
  5
1C5
330
1C3
100
AcDbEntity
  8
Default
  6
Continuous
 62
     7
100
AcDbHatch
 10
0.0
 20
0.0
 30
0.0
210
0.0
220
0.0
230
1.0
  2
SOLID
 70
     1
 71
     0
 91
        1
 92
        1
 93
        3
 72
     1
 10
178.8209347741282
 20
272.2670171923288
 11
175.8209347480512
 21
271.7670171879826
 72
     1
 10
175.8209347480512
 20
271.7670171879826
 11
178.8209347741282
 21
271.2670171836364
 72
     1
 10
178.8209347741282
 20
271.2670171836364
 11
178.8209347741282
 21
272.2670171923288
 97
        0
 75
     0
 76
     1
 98
        0
  0
LINE
  5
1C6
330
1C3
100
AcDbEntity
  8
Default
  6
Continuous
 62
     7
100
AcDbLine
 10
185.3209344426
 20
239.6602972769
 30
0.0
 11
185.3209344426
 21
273.267017201
 31
0.0
  0
LINE
  5
1C7
330
1C3
100
AcDbEntity
  8
Default
  6
Continuous
 62
     7
100
AcDbLine
 10
175.8209344426
 20
181.6602972769
 30
0.0
 11
175.8209344426
 21
273.267017201
 31
0.0
  0
LINE
  5
1C8
330
1C3
100
AcDbEntity
  8
Default
  6
Continuous
 62
     7
100
AcDbLine
 10
185.3209344426
 20
271.767017188
 30
0.0
 11
175.8209347481
 21
271.767017188
 31
0.0
  0
TEXT
  5
1C9
330
1C3
100
AcDbEntity
  8
Default
  6
Continuous
 62
     7
100
AcDbText
 10
178.5254800499
 20
272.517017188
 30
0.0
 40
3.0
  1
9,5
  7
SEACAD_seiso_ttf
 11
178.5254800499
 21
275.517017188
 31
0.0
100
AcDbText
 73
     3
  0
ENDBLK
  5
1CB
330
1C3
100
AcDbEntity
  8
0
100
AcDbBlockEnd
  0
BLOCK
  5
1D3
330
1CD
100
AcDbEntity
  8
0
100
AcDbBlockBegin
  2
DMBLK450
 70
     0
 10
0.0
 20
0.0
 30
0.0
  3
DMBLK450
  1

  0
HATCH
  5
1CE
330
1CD
100
AcDbEntity
  8
Default
  6
Continuous
 62
     7
100
AcDbHatch
 10
0.0
 20
0.0
 30
0.0
210
0.0
220
0.0
230
1.0
  2
SOLID
 70
     1
 71
     0
 91
        1
 92
        1
 93
        3
 72
     1
 10
138.1503060868196
 20
88.16029725080703
 11
137.6503060824735
 21
91.16029727688407
 72
     1
 10
137.6503060824735
 20
91.16029727688407
 11
137.1503060781273
 21
88.16029725080703
 72
     1
 10
137.1503060781273
 20
88.16029725080703
 11
138.1503060868196
 21
88.16029725080703
 97
        0
 75
     0
 76
     1
 98
        0
  0
HATCH
  5
1CF
330
1CD
100
AcDbEntity
  8
Default
  6
Continuous
 62
     7
100
AcDbHatch
 10
0.0
 20
0.0
 30
0.0
210
0.0
220
0.0
230
1.0
  2
SOLID
 70
     1
 71
     0
 91
        1
 92
        1
 93
        3
 72
     1
 10
138.1503060868196
 20
101.1602973029611
 11
137.1503060781273
 21
101.1602973029611
 72
     1
 10
137.1503060781273
 20
101.1602973029611
 11
137.6503060824735
 21
98.16029727688408
 72
     1
 10
137.6503060824735
 20
98.16029727688408
 11
138.1503060868196
 21
101.1602973029611
 97
        0
 75
     0
 76
     1
 98
        0
  0
LINE
  5
1D0
330
1CD
100
AcDbEntity
  8
Default
  6
Continuous
 62
     7
100
AcDbLine
 10
137.6503060825
 20
85.1602972247
 30
0.0
 11
137.6503060825
 21
110.5382757955
 31
0.0
  0
TEXT
  5
1D1
330
1CD
100
AcDbEntity
  8
Default
  6
Continuous
 62
     7
100
AcDbText
 10
136.9003060825
 20
107.579184602
 30
0.0
 40
3.0
  1
7
 50
90.0
  7
SEACAD_seiso_ttf
 11
133.9003060825
 21
107.579184602
 31
0.0
100
AcDbText
 73
     3
  0
TEXT
  5
1D2
330
1CD
100
AcDbEntity
  8
Default
  6
Continuous
 62
     7
100
AcDbText
 10
136.9003060825
 20
103.8730710649
 30
0.0
 40
3.0
  1
q
 50
90.0
  7
SEACAD_semeci1_ttf
 11
133.9003060825
 21
103.8730710649
 31
0.0
100
AcDbText
 73
     3
  0
ENDBLK
  5
1D4
330
1CD
100
AcDbEntity
  8
0
100
AcDbBlockEnd
  0
BLOCK
  5
1DE
330
1D6
100
AcDbEntity
  8
0
100
AcDbBlockBegin
  2
DMBLK451
 70
     0
 10
0.0
 20
0.0
 30
0.0
  3
DMBLK451
  1

  0
HATCH
  5
1D7
330
1D6
100
AcDbEntity
  8
Default
  6
Continuous
 62
     7
100
AcDbHatch
 10
0.0
 20
0.0
 30
0.0
210
0.0
220
0.0
230
1.0
  2
SOLID
 70
     1
 71
     0
 91
        1
 92
        1
 93
        3
 72
     1
 10
98.25566291255817
 20
239.660297250807
 11
97.75566290821199
 21
242.6602972768841
 72
     1
 10
97.75566290821199
 20
242.6602972768841
 11
97.25566290386581
 21
239.660297250807
 72
     1
 10
97.25566290386581
 20
239.660297250807
 11
98.25566291255817
 21
239.660297250807
 97
        0
 75
     0
 76
     1
 98
        0
  0
HATCH
  5
1D8
330
1D6
100
AcDbEntity
  8
Default
  6
Continuous
 62
     7
100
AcDbHatch
 10
0.0
 20
0.0
 30
0.0
210
0.0
220
0.0
230
1.0
  2
SOLID
 70
     1
 71
     0
 91
        1
 92
        1
 93
        3
 72
     1
 10
98.25566291255817
 20
249.6602973029611
 11
97.25566290386581
 21
249.6602973029611
 72
     1
 10
97.25566290386581
 20
249.6602973029611
 11
97.75566290821199
 21
246.6602972768841
 72
     1
 10
97.75566290821199
 20
246.6602972768841
 11
98.25566291255817
 21
249.6602973029611
 97
        0
 75
     0
 76
     1
 98
        0
  0
LINE
  5
1D9
330
1D6
100
AcDbEntity
  8
Default
  6
Continuous
 62
     7
100
AcDbLine
 10
78.3006584248
 20
242.6602972769
 30
0.0
 11
99.2556629213
 21
242.6602972769
 31
0.0
  0
LINE
  5
1DA
330
1D6
100
AcDbEntity
  8
Default
  6
Continuous
 62
     7
100
AcDbLine
 10
78.3006584248
 20
246.6602972769
 30
0.0
 11
99.2556629213
 21
246.6602972769
 31
0.0
  0
LINE
  5
1DB
330
1D6
100
AcDbEntity
  8
Default
  6
Continuous
 62
     7
100
AcDbLine
 10
97.7556629082
 20
236.6602972247
 30
0.0
 11
97.7556629082
 21
259.1139247738
 31
0.0
  0
TEXT
  5
1DC
330
1D6
100
AcDbEntity
  8
Default
  6
Continuous
 62
     7
100
AcDbText
 10
97.0056629082
 20
256.2911964963
 30
0.0
 40
3.0
  1
4
 50
90.0
  7
SEACAD_seiso_ttf
 11
94.0056629082
 21
256.2911964963
 31
0.0
100
AcDbText
 73
     3
  0
TEXT
  5
1DD
330
1D6
100
AcDbEntity
  8
Default
  6
Continuous
 62
     7
100
AcDbText
 10
97.0056629082
 20
252.6505851426
 30
0.0
 40
3.0
  1
O
 50
90.0
  7
SEACAD_semeci1_ttf
 11
94.0056629082
 21
252.6505851426
 31
0.0
100
AcDbText
 73
     3
  0
ENDBLK
  5
1DF
330
1D6
100
AcDbEntity
  8
0
100
AcDbBlockEnd
  0
BLOCK
  5
1E9
330
1E1
100
AcDbEntity
  8
0
100
AcDbBlockBegin
  2
DMBLK452
 70
     0
 10
0.0
 20
0.0
 30
0.0
  3
DMBLK452
  1

  0
HATCH
  5
1E2
330
1E1
100
AcDbEntity
  8
Default
  6
Continuous
 62
     7
100
AcDbHatch
 10
0.0
 20
0.0
 30
0.0
210
0.0
220
0.0
230
1.0
  2
SOLID
 70
     1
 71
     0
 91
        1
 92
        1
 93
        3
 72
     1
 10
105.8488941882358
 20
238.0602972508071
 11
105.3488941838897
 21
241.0602972768841
 72
     1
 10
105.3488941838897
 20
241.0602972768841
 11
104.8488941795435
 21
238.0602972508071
 72
     1
 10
104.8488941795435
 20
238.0602972508071
 11
105.8488941882358
 21
238.0602972508071
 97
        0
 75
     0
 76
     1
 98
        0
  0
HATCH
  5
1E3
330
1E1
100
AcDbEntity
  8
Default
  6
Continuous
 62
     7
100
AcDbHatch
 10
0.0
 20
0.0
 30
0.0
210
0.0
220
0.0
230
1.0
  2
SOLID
 70
     1
 71
     0
 91
        1
 92
        1
 93
        3
 72
     1
 10
105.8488941882358
 20
251.2602973029611
 11
104.8488941795435
 21
251.2602973029611
 72
     1
 10
104.8488941795435
 20
251.2602973029611
 11
105.3488941838897
 21
248.2602972768841
 72
     1
 10
105.3488941838897
 20
248.2602972768841
 11
105.8488941882358
 21
251.2602973029611
 97
        0
 75
     0
 76
     1
 98
        0
  0
LINE
  5
1E4
330
1E1
100
AcDbEntity
  8
Default
  6
Continuous
 62
     7
100
AcDbLine
 10
78.3006584248
 20
241.0602972769
 30
0.0
 11
106.8488941969
 21
241.0602972769
 31
0.0
  0
LINE
  5
1E5
330
1E1
100
AcDbEntity
  8
Default
  6
Continuous
 62
     7
100
AcDbLine
 10
78.3006584248
 20
248.2602972769
 30
0.0
 11
106.8488941969
 21
248.2602972769
 31
0.0
  0
LINE
  5
1E6
330
1E1
100
AcDbEntity
  8
Default
  6
Continuous
 62
     7
100
AcDbLine
 10
105.3488941839
 20
235.0602972247
 30
0.0
 11
105.3488941839
 21
260.7929588222
 31
0.0
  0
TEXT
  5
1E7
330
1E1
100
AcDbEntity
  8
Default
  6
Continuous
 62
     7
100
AcDbText
 10
104.5988941839
 20
255.4475040014
 30
0.0
 40
3.0
  1
7,2
 50
90.0
  7
SEACAD_seiso_ttf
 11
101.5988941839
 21
255.4475040014
 31
0.0
100
AcDbText
 73
     3
  0
TEXT
  5
1E8
330
1E1
100
AcDbEntity
  8
Default
  6
Continuous
 62
     7
100
AcDbText
 10
104.5988941839
 20
251.8068926477
 30
0.0
 40
3.0
  1
O
 50
90.0
  7
SEACAD_semeci1_ttf
 11
101.5988941839
 21
251.8068926477
 31
0.0
100
AcDbText
 73
     3
  0
ENDBLK
  5
1EA
330
1E1
100
AcDbEntity
  8
0
100
AcDbBlockEnd
  0
ENDSEC
  0
SECTION
  2
ENTITIES
  0
INSERT
  5
5F
330
1F
100
AcDbEntity
  8
Default
100
AcDbBlockReference
  2
SEANNOT_GROUP
 10
0.0
 20
0.0
 30
0.0
  0
INSERT
  5
65
330
1F
100
AcDbEntity
  8
Default
100
AcDbBlockReference
  2
SEANNOT_GROUP1
 10
0.0
 20
0.0
 30
0.0
  0
INSERT
  5
6F
330
1F
100
AcDbEntity
  8
Default
100
AcDbBlockReference
  2
SEANNOT_GROUP2
 10
0.0
 20
0.0
 30
0.0
  0
INSERT
  5
79
330
1F
100
AcDbEntity
  8
Default
100
AcDbBlockReference
  2
SEANNOT_GROUP3
 10
0.0
 20
0.0
 30
0.0
  0
INSERT
  5
83
330
1F
100
AcDbEntity
  8
Default
100
AcDbBlockReference
  2
SEANNOT_GROUP4
 10
0.0
 20
0.0
 30
0.0
  0
INSERT
  5
8D
330
1F
100
AcDbEntity
  8
Default
100
AcDbBlockReference
  2
SEANNOT_GROUP5
 10
0.0
 20
0.0
 30
0.0
  0
INSERT
  5
97
330
1F
100
AcDbEntity
  8
Default
100
AcDbBlockReference
  2
SEANNOT_GROUP6
 10
0.0
 20
0.0
 30
0.0
  0
INSERT
  5
A1
330
1F
100
AcDbEntity
  8
Default
100
AcDbBlockReference
  2
SE
 10
0.0
 20
0.0
 30
0.0
  0
INSERT
  5
F3
330
1F
100
AcDbEntity
  8
Default
100
AcDbBlockReference
  2
SE1
 10
0.0
 20
0.0
 30
0.0
  0
DIMENSION
  5
14E
330
1F
100
AcDbEntity
  8
Default
  6
Continuous
 62
     7
100
AcDbDimension
  2
DMBLK438
 10
121.1209344426
 20
75.5165167325
 30
0.0
 11
151.1209351131
 21
75.5165167325
 31
0.0
 70
   160
  1
\A1;<>
 71
     5
 42
-1.0
  3
DIN
100
AcDbAlignedDimension
 13
181.1209344426
 23
59.6602972769
 33
0.0
 14
121.1209344426
 24
94.6602972769
 34
0.0
100
AcDbRotatedDimension
  0
DIMENSION
  5
15C
330
1F
100
AcDbEntity
  8
Default
  6
Continuous
 62
     7
100
AcDbDimension
  2
DMBLK439
 10
185.3209344426
 20
32.8520540506
 30
0.0
 11
175.3301015244
 21
32.8520540506
 31
0.0
 70
   160
  1
\A1;<>
 71
     5
 42
-1.0
  3
DIN
100
AcDbAlignedDimension
 13
181.1209344426
 23
39.6602972769
 33
0.0
 14
185.3209344426
 24
50.7025699485
 34
0.0
100
AcDbRotatedDimension
1001
ACAD
1000
DSTYLE
1002
{
1070
   344
1005
157
1070
     0
1002
}
  0
DIMENSION
  5
166
330
1F
100
AcDbEntity
  8
Default
  6
Continuous
 62
     7
100
AcDbDimension
  2
DMBLK440
 10
190.9209344426
 20
32.8520535845
 30
0.0
 11
194.6267021576
 21
32.8520535845
 31
0.0
 70
   160
  1
\A1;<>
 71
     5
 42
-1.0
  3
DIN
100
AcDbAlignedDimension
 13
185.3209344426
 23
50.7025699485
 33
0.0
 14
190.9209344426
 24
95.8602972769
 34
0.0
100
AcDbRotatedDimension
1001
ACAD
1000
DSTYLE
1002
{
1070
   343
1005
157
1070
     0
1002
}
  0
DIMENSION
  5
170
330
1F
100
AcDbEntity
  8
Default
  6
Continuous
 62
     7
100
AcDbDimension
  2
DMBLK441
 10
47.8006584248
 20
275.1571989976
 30
0.0
 11
67.8006579777
 21
275.1571989976
 31
0.0
 70
   161
  1
\A1;<>
 71
     5
 42
-1.0
  3
DIN
100
AcDbAlignedDimension
 13
47.8006584248
 23
239.6602972769
 33
0.0
 14
87.8006584248
 24
239.6602972769
 34
0.0
  0
DIMENSION
  5
17A
330
1F
100
AcDbEntity
  8
Default
  6
Continuous
 62
     7
100
AcDbDimension
  2
DMBLK442
 10
57.3006584248
 20
266.1167195611
 30
0.0
 11
67.8006582832
 21
266.1167195611
 31
0.0
 70
   161
  1
\A1;<>
 71
     5
 42
-1.0
  3
DIN
100
AcDbAlignedDimension
 13
57.3006584248
 23
244.6602972769
 33
0.0
 14
78.3006584248
 24
244.6602972769
 34
0.0
  0
DIMENSION
  5
184
330
1F
100
AcDbEntity
  8
Default
  6
Continuous
 62
     7
100
AcDbDimension
  2
DMBLK443
 10
38.2050393572
 20
244.6602972769
 30
0.0
 11
38.2050393572
 21
208.6602957272
 31
0.0
 70
   160
  1
\A1;<>
 71
     5
 42
-1.0
  3
DIN
100
AcDbAlignedDimension
 13
67.8006584248
 23
172.6602972769
 33
0.0
 14
78.3006584248
 24
244.6602972769
 34
0.0
 50
90.0
100
AcDbRotatedDimension
  0
DIMENSION
  5
18E
330
1F
100
AcDbEntity
  8
Default
  6
Continuous
 62
     7
100
AcDbDimension
  2
DMBLK444
 10
29.2050416073
 20
172.6602972769
 30
0.0
 11
29.2050416073
 21
216.1602960252
 31
0.0
 70
   161
  1
\A1;<>
 71
     5
 42
-1.0
  3
DIN
100
AcDbAlignedDimension
 13
67.8006584248
 23
172.6602972769
 33
0.0
 14
67.8006584248
 24
259.6602972769
 34
0.0
  0
DIMENSION
  5
198
330
1F
100
AcDbEntity
  8
Default
  6
Continuous
 62
     7
100
AcDbDimension
  2
DMBLK445
 10
38.2050393572
 20
172.6602972769
 30
0.0
 11
38.2050393572
 21
133.6602964722
 31
0.0
 70
   161
  1
\A1;<>
 71
     5
 42
-1.0
  3
DIN
100
AcDbAlignedDimension
 13
67.8006584248
 23
172.6602972769
 33
0.0
 14
67.8006584248
 24
94.6602972769
 34
0.0
  0
DIMENSION
  5
1A2
330
1F
100
AcDbEntity
  8
Default
  6
Continuous
 62
     7
100
AcDbDimension
  2
DMBLK446
 10
29.2050416073
 20
54.6602972769
 30
0.0
 11
29.2050416073
 21
113.6602969193
 31
0.0
 70
   160
  1
\A1;<>
 71
     5
 42
-1.0
  3
DIN
100
AcDbAlignedDimension
 13
67.8006584248
 23
172.6602972769
 33
0.0
 14
78.3006584248
 24
54.6602972769
 34
0.0
 50
90.0
100
AcDbRotatedDimension
  0
DIMENSION
  5
1AC
330
1F
100
AcDbEntity
  8
Default
  6
Continuous
 62
     7
100
AcDbDimension
  2
DMBLK447
 10
17.8639615377
 20
259.6602972769
 30
0.0
 11
17.8639615377
 21
149.6602978729
 31
0.0
 70
   161
  1
\A1;<>
 71
     5
 42
-1.0
  3
DIN
100
AcDbAlignedDimension
 13
67.8006584248
 23
259.6602972769
 33
0.0
 14
67.8006584248
 24
39.6602972769
 34
0.0
  0
DIMENSION
  5
1B6
330
1F
100
AcDbEntity
  8
Default
  6
Continuous
 62
     7
100
AcDbDimension
  2
DMBLK448
 10
100.3583318186
 20
180.8602987
 30
0.0
 11
100.3583321771
 21
172.6602973171
 31
0.0
 70
   161
  1
\A1;%%C <>
 71
     5
 42
-1.0
  3
DIN
100
AcDbAlignedDimension
 13
67.8006587832
 23
164.4602972769
 33
0.0
 14
67.8006580663
 24
180.8602972769
 34
0.0
1001
ACAD
1000
DSTYLE
1002
{
1070
    73
1070
     1
1070
    74
1070
     1
1070
    77
1070
     0
1070
   271
1070
     0
1070
   272
1070
     0
1070
     0
1002
}
  0
DIMENSION
  5
1C2
330
1F
100
AcDbEntity
  8
Default
  6
Continuous
 62
     7
100
AcDbDimension
  2
DMBLK449
 10
175.8209344426
 20
271.767017188
 30
0.0
 11
180.5709345953
 21
271.767017188
 31
0.0
 70
   160
  1
\A1;<>
 71
     5
 42
-1.0
  3
DIN
100
AcDbAlignedDimension
 13
185.3209344426
 23
239.6602972769
 33
0.0
 14
175.8209344426
 24
181.6602972769
 34
0.0
100
AcDbRotatedDimension
  0
DIMENSION
  5
1CC
330
1F
100
AcDbEntity
  8
Default
  6
Continuous
 62
     7
100
AcDbDimension
  2
DMBLK450
 10
137.6503060825
 20
91.1602972769
 30
0.0
 11
137.6503060825
 21
102.8230710649
 31
0.0
 70
   161
  1
\A1;{\Fsemeca1.ttf;q} <>
 71
     5
 42
-1.0
  3
DIN
100
AcDbAlignedDimension
 13
123.0631980367
 23
91.1602972769
 33
0.0
 14
123.0631980367
 24
98.1602972769
 34
0.0
  0
DIMENSION
  5
1D5
330
1F
100
AcDbEntity
  8
Default
  6
Continuous
 62
     7
100
AcDbDimension
  2
DMBLK451
 10
97.7556631242
 20
246.6602981273
 30
0.0
 11
97.7556629082
 21
251.6005851426
 31
0.0
 70
   161
  1
\A1;%%C <>
 71
     5
 42
-1.0
  3
DIN
100
AcDbAlignedDimension
 13
78.3006585122
 23
242.6602972769
 33
0.0
 14
78.3006583373
 24
246.6602972769
 34
0.0
1001
ACAD
1000
DSTYLE
1002
{
1070
    73
1070
     1
1070
    74
1070
     1
1070
    77
1070
     0
1070
     0
1002
}
  0
DIMENSION
  5
1E0
330
1F
100
AcDbEntity
  8
Default
  6
Continuous
 62
     7
100
AcDbDimension
  2
DMBLK452
 10
105.348894293
 20
248.2602984592
 30
0.0
 11
105.3488941839
 21
250.7568926477
 31
0.0
 70
   161
  1
\A1;%%C <>
 71
     5
 42
-1.0
  3
DIN
100
AcDbAlignedDimension
 13
78.3006585821
 23
241.0602972769
 33
0.0
 14
78.3006582674
 24
248.2602972769
 34
0.0
1001
ACAD
1000
DSTYLE
1002
{
1070
    73
1070
     1
1070
    74
1070
     1
1070
    77
1070
     0
1070
     0
1002
}
  0
ENDSEC
  0
SECTION
  2
OBJECTS
  0
DICTIONARY
  5
C
330
0
100
AcDbDictionary
281
     1
  3
ACAD_GROUP
350
D
  3
ACAD_LAYOUT
350
1A
  3
ACAD_MLEADERSTYLE
350
1EE
  3
ACAD_MLINESTYLE
350
17
  3
ACAD_PLOTSETTINGS
350
19
  3
ACAD_PLOTSTYLENAME
350
E
  3
ACAD_SCALELIST
350
3B
  3
ACAD_TABLESTYLE
350
1ED
  3
ACAD_VISUALSTYLE
350
2A
  3
AcDbVariableDictionary
350
1EB
  0
DICTIONARY
  5
D
102
{ACAD_REACTORS
330
C
102
}
330
C
100
AcDbDictionary
281
     1
  0
DICTIONARY
  5
1A
102
{ACAD_REACTORS
330
C
102
}
330
C
100
AcDbDictionary
281
     1
  3
Layout1
350
1E
  3
Model
350
22
  0
DICTIONARY
  5
1EE
102
{ACAD_REACTORS
330
C
102
}
330
C
100
AcDbDictionary
281
     1
  0
DICTIONARY
  5
17
102
{ACAD_REACTORS
330
C
102
}
330
C
100
AcDbDictionary
281
     1
  3
Standard
350
18
  0
DICTIONARY
  5
19
102
{ACAD_REACTORS
330
C
102
}
330
C
100
AcDbDictionary
281
     1
  0
ACDBDICTIONARYWDFLT
  5
E
102
{ACAD_REACTORS
330
C
102
}
330
C
100
AcDbDictionary
281
     1
  3
Normal
350
F
100
AcDbDictionaryWithDefault
340
F
  0
DICTIONARY
  5
3B
102
{ACAD_REACTORS
330
C
102
}
330
C
100
AcDbDictionary
281
     1
  3
A0
350
3C
  3
A1
350
3D
  3
A2
350
3E
  3
A3
350
3F
  3
A4
350
40
  3
A5
350
41
  3
A6
350
42
  3
A7
350
43
  3
A8
350
44
  3
A9
350
45
  3
B0
350
46
  3
B1
350
47
  3
B2
350
48
  3
B3
350
49
  3
B4
350
4A
  3
B5
350
4B
  3
B6
350
4C
  3
B7
350
4D
  3
B8
350
4E
  3
B9
350
4F
  3
C0
350
50
  3
C1
350
51
  3
C2
350
52
  3
C3
350
53
  3
C4
350
54
  3
C5
350
55
  3
C6
350
56
  3
C7
350
57
  3
C8
350
58
  3
C9
350
59
  3
D0
350
5A
  3
D1
350
5B
  3
D2
350
5C
  0
DICTIONARY
  5
1ED
102
{ACAD_REACTORS
330
C
102
}
330
C
100
AcDbDictionary
281
     1
  0
DICTIONARY
  5
2A
102
{ACAD_REACTORS
330
C
102
}
330
C
100
AcDbDictionary
281
     1
  3
2dWireframe
350
2F
  3
3D Hidden
350
31
  3
3dWireframe
350
30
  3
Basic
350
32
  3
Brighten
350
36
  3
ColorChange
350
3A
  3
Conceptual
350
34
  3
Dim
350
35
  3
Facepattern
350
39
  3
Flat
350
2B
  3
FlatWithEdges
350
2C
  3
Gouraud
350
2D
  3
GouraudWithEdges
350
2E
  3
Linepattern
350
38
  3
Realistic
350
33
  3
Thicken
350
37
  0
DICTIONARY
  5
1EB
102
{ACAD_REACTORS
330
C
102
}
330
C
100
AcDbDictionary
281
     1
  3
CANNOSCALE
350
1EC
  3
PSOLHEIGHT
350
1F0
  3
PSOLWIDTH
350
1EF
  0
LAYOUT
  5
1E
102
{ACAD_REACTORS
330
1A
102
}
330
1A
100
AcDbPlotSettings
  1

  2
none_device
  4

  6

 40
0.0
 41
0.0
 42
0.0
 43
0.0
 44
0.0
 45
0.0
 46
0.0
 47
0.0
 48
0.0
 49
0.0
140
0.0
141
0.0
142
1.0
143
1.0
 70
   688
 72
     0
 73
     0
 74
     5
  7

 75
    16
147
1.0
148
0.0
149
0.0
100
AcDbLayout
  1
Layout1
 70
     1
 71
     1
 10
0.0
 20
0.0
 11
210.0
 21
297.0
 12
0.0
 22
0.0
 32
0.0
 14
0.0
 24
0.0
 34
0.0
 15
210.0
 25
297.0
 35
0.0
146
0.0
 13
0.0
 23
0.0
 33
0.0
 16
1.0
 26
0.0
 36
0.0
 17
0.0
 27
1.0
 37
0.0
 76
     0
330
1B
  0
LAYOUT
  5
22
102
{ACAD_REACTORS
330
1A
102
}
330
1A
100
AcDbPlotSettings
  1

  2
none_device
  4

  6

 40
0.0
 41
0.0
 42
0.0
 43
0.0
 44
0.0
 45
0.0
 46
0.0
 47
0.0
 48
0.0
 49
0.0
140
0.0
141
0.0
142
1.0
143
1.0
 70
  1712
 72
     0
 73
     0
 74
     0
  7

 75
     0
147
1.0
148
0.0
149
0.0
100
AcDbLayout
  1
Model
 70
     1
 71
     0
 10
0.0
 20
0.0
 11
210.0
 21
297.0
 12
0.0
 22
0.0
 32
0.0
 14
0.0
 24
0.0
 34
0.0
 15
210.0
 25
297.0
 35
0.0
146
0.0
 13
0.0
 23
0.0
 33
0.0
 16
1.0
 26
0.0
 36
0.0
 17
0.0
 27
1.0
 37
0.0
 76
     0
330
1F
331
29
  0
MLINESTYLE
  5
18
102
{ACAD_REACTORS
330
17
102
}
330
17
100
AcDbMlineStyle
  2
Standard
 70
     0
  3

 62
   256
 51
90.0
 52
90.0
 71
     2
 49
0.5
 62
   256
  6
BYLAYER
 49
-0.5
 62
   256
  6
BYLAYER
  0
ACDBPLACEHOLDER
  5
F
102
{ACAD_REACTORS
330
E
102
}
330
E
  0
SCALE
  5
3C
102
{ACAD_REACTORS
330
3B
102
}
330
3B
100
AcDbScale
 70
     0
300
1:1
140
1.0
141
1.0
290
     1
  0
SCALE
  5
3D
102
{ACAD_REACTORS
330
3B
102
}
330
3B
100
AcDbScale
 70
     0
300
1:2
140
1.0
141
2.0
290
     0
  0
SCALE
  5
3E
102
{ACAD_REACTORS
330
3B
102
}
330
3B
100
AcDbScale
 70
     0
300
1:4
140
1.0
141
4.0
290
     0
  0
SCALE
  5
3F
102
{ACAD_REACTORS
330
3B
102
}
330
3B
100
AcDbScale
 70
     0
300
1:5
140
1.0
141
5.0
290
     0
  0
SCALE
  5
40
102
{ACAD_REACTORS
330
3B
102
}
330
3B
100
AcDbScale
 70
     0
300
1:8
140
1.0
141
8.0
290
     0
  0
SCALE
  5
41
102
{ACAD_REACTORS
330
3B
102
}
330
3B
100
AcDbScale
 70
     0
300
1:10
140
1.0
141
10.0
290
     0
  0
SCALE
  5
42
102
{ACAD_REACTORS
330
3B
102
}
330
3B
100
AcDbScale
 70
     0
300
1:16
140
1.0
141
16.0
290
     0
  0
SCALE
  5
43
102
{ACAD_REACTORS
330
3B
102
}
330
3B
100
AcDbScale
 70
     0
300
1:20
140
1.0
141
20.0
290
     0
  0
SCALE
  5
44
102
{ACAD_REACTORS
330
3B
102
}
330
3B
100
AcDbScale
 70
     0
300
1:30
140
1.0
141
30.0
290
     0
  0
SCALE
  5
45
102
{ACAD_REACTORS
330
3B
102
}
330
3B
100
AcDbScale
 70
     0
300
1:40
140
1.0
141
40.0
290
     0
  0
SCALE
  5
46
102
{ACAD_REACTORS
330
3B
102
}
330
3B
100
AcDbScale
 70
     0
300
1:50
140
1.0
141
50.0
290
     0
  0
SCALE
  5
47
102
{ACAD_REACTORS
330
3B
102
}
330
3B
100
AcDbScale
 70
     0
300
1:100
140
1.0
141
100.0
290
     0
  0
SCALE
  5
48
102
{ACAD_REACTORS
330
3B
102
}
330
3B
100
AcDbScale
 70
     0
300
2:1
140
2.0
141
1.0
290
     0
  0
SCALE
  5
49
102
{ACAD_REACTORS
330
3B
102
}
330
3B
100
AcDbScale
 70
     0
300
4:1
140
4.0
141
1.0
290
     0
  0
SCALE
  5
4A
102
{ACAD_REACTORS
330
3B
102
}
330
3B
100
AcDbScale
 70
     0
300
8:1
140
8.0
141
1.0
290
     0
  0
SCALE
  5
4B
102
{ACAD_REACTORS
330
3B
102
}
330
3B
100
AcDbScale
 70
     0
300
10:1
140
10.0
141
1.0
290
     0
  0
SCALE
  5
4C
102
{ACAD_REACTORS
330
3B
102
}
330
3B
100
AcDbScale
 70
     0
300
100:1
140
100.0
141
1.0
290
     0
  0
SCALE
  5
4D
102
{ACAD_REACTORS
330
3B
102
}
330
3B
100
AcDbScale
 70
     0
300
1/128" = 1'-0"
140
0.0078125
141
12.0
290
     0
  0
SCALE
  5
4E
102
{ACAD_REACTORS
330
3B
102
}
330
3B
100
AcDbScale
 70
     0
300
1/64" = 1'-0"
140
0.015625
141
12.0
290
     0
  0
SCALE
  5
4F
102
{ACAD_REACTORS
330
3B
102
}
330
3B
100
AcDbScale
 70
     0
300
1/32" = 1'-0"
140
0.03125
141
12.0
290
     0
  0
SCALE
  5
50
102
{ACAD_REACTORS
330
3B
102
}
330
3B
100
AcDbScale
 70
     0
300
1/16" = 1'-0"
140
0.0625
141
12.0
290
     0
  0
SCALE
  5
51
102
{ACAD_REACTORS
330
3B
102
}
330
3B
100
AcDbScale
 70
     0
300
3/32" = 1'-0"
140
0.09375
141
12.0
290
     0
  0
SCALE
  5
52
102
{ACAD_REACTORS
330
3B
102
}
330
3B
100
AcDbScale
 70
     0
300
1/8" = 1'-0"
140
0.125
141
12.0
290
     0
  0
SCALE
  5
53
102
{ACAD_REACTORS
330
3B
102
}
330
3B
100
AcDbScale
 70
     0
300
3/16" = 1'-0"
140
0.1875
141
12.0
290
     0
  0
SCALE
  5
54
102
{ACAD_REACTORS
330
3B
102
}
330
3B
100
AcDbScale
 70
     0
300
1/4" = 1'-0"
140
0.25
141
12.0
290
     0
  0
SCALE
  5
55
102
{ACAD_REACTORS
330
3B
102
}
330
3B
100
AcDbScale
 70
     0
300
3/8" = 1'-0"
140
0.375
141
12.0
290
     0
  0
SCALE
  5
56
102
{ACAD_REACTORS
330
3B
102
}
330
3B
100
AcDbScale
 70
     0
300
1/2" = 1'-0"
140
0.5
141
12.0
290
     0
  0
SCALE
  5
57
102
{ACAD_REACTORS
330
3B
102
}
330
3B
100
AcDbScale
 70
     0
300
3/4" = 1'-0"
140
0.75
141
12.0
290
     0
  0
SCALE
  5
58
102
{ACAD_REACTORS
330
3B
102
}
330
3B
100
AcDbScale
 70
     0
300
1" = 1'-0"
140
1.0
141
12.0
290
     0
  0
SCALE
  5
59
102
{ACAD_REACTORS
330
3B
102
}
330
3B
100
AcDbScale
 70
     0
300
1-1/2" = 1'-0"
140
1.5
141
12.0
290
     0
  0
SCALE
  5
5A
102
{ACAD_REACTORS
330
3B
102
}
330
3B
100
AcDbScale
 70
     0
300
3" = 1'-0"
140
3.0
141
12.0
290
     0
  0
SCALE
  5
5B
102
{ACAD_REACTORS
330
3B
102
}
330
3B
100
AcDbScale
 70
     0
300
6" = 1'-0"
140
6.0
141
12.0
290
     0
  0
SCALE
  5
5C
102
{ACAD_REACTORS
330
3B
102
}
330
3B
100
AcDbScale
 70
     0
300
1'-0" = 1'-0"
140
12.0
141
12.0
290
     0
  0
VISUALSTYLE
  5
2F
102
{ACAD_REACTORS
330
2A
102
}
330
2A
100
AcDbVisualStyle
  2
2dWireframe
 70
     4
 71
     0
 72
     2
 73
     0
 90
        0
 40
-0.6
 41
-30.0
 62
     5
 63
     7
 74
     1
 91
        4
 64
     7
 65
   257
 75
     1
175
     1
 42
1.0
 92
        0
 66
   257
 43
1.0
 76
     1
 77
     6
 78
     2
 67
     7
 79
     5
170
     0
171
     0
290
     0
174
     0
 93
        1
 44
0.0
173
     0
291
     0
 45
0.0
1001
ACAD
1000
AcDbSavedByObjectVersion
1070
     0
  0
VISUALSTYLE
  5
31
102
{ACAD_REACTORS
330
2A
102
}
330
2A
100
AcDbVisualStyle
  2
3D Hidden
 70
     6
 71
     1
 72
     2
 73
     2
 90
        0
 40
-0.6
 41
-30.0
 62
     5
 63
     7
 74
     2
 91
        2
 64
     7
 65
   257
 75
     2
175
     1
 42
40.0
 92
        0
 66
   257
 43
1.0
 76
     1
 77
     6
 78
     2
 67
     7
 79
     3
170
     0
171
     0
290
     0
174
     0
 93
        1
 44
0.0
173
     0
291
     0
 45
0.0
1001
ACAD
1000
AcDbSavedByObjectVersion
1070
     0
  0
VISUALSTYLE
  5
30
102
{ACAD_REACTORS
330
2A
102
}
330
2A
100
AcDbVisualStyle
  2
3dWireframe
 70
     5
 71
     0
 72
     2
 73
     0
 90
        0
 40
-0.6
 41
-30.0
 62
     5
 63
     7
 74
     1
 91
        4
 64
     7
 65
   257
 75
     1
175
     1
 42
1.0
 92
        0
 66
   257
 43
1.0
 76
     1
 77
     6
 78
     2
 67
     7
 79
     5
170
     0
171
     0
290
     0
174
     0
 93
        1
 44
0.0
173
     0
291
     0
 45
0.0
1001
ACAD
1000
AcDbSavedByObjectVersion
1070
     0
  0
VISUALSTYLE
  5
32
102
{ACAD_REACTORS
330
2A
102
}
330
2A
100
AcDbVisualStyle
  2
Basic
 70
     7
 71
     1
 72
     0
 73
     1
 90
        0
 40
-0.6
 41
-30.0
 62
     5
 63
     7
 74
     0
 91
        4
 64
     7
 65
   257
 75
     1
175
     1
 42
1.0
 92
        8
 66
     7
 43
1.0
 76
     1
 77
     6
 78
     2
 67
     7
 79
     5
170
     0
171
     0
290
     0
174
     0
 93
        1
 44
0.0
173
     0
291
     1
 45
0.0
1001
ACAD
1000
AcDbSavedByObjectVersion
1070
     0
  0
VISUALSTYLE
  5
36
102
{ACAD_REACTORS
330
2A
102
}
330
2A
100
AcDbVisualStyle
  2
Brighten
 70
    12
 71
     2
 72
     2
 73
     0
 90
        0
 40
-0.6
 41
-30.0
 62
     5
 63
     7
 74
     1
 91
        4
 64
     7
 65
   257
 75
     1
175
     1
 42
1.0
 92
        8
 66
     7
 43
1.0
 76
     1
 77
     6
 78
     2
 67
     7
 79
     5
170
     0
171
     0
290
     0
174
     0
 93
        1
 44
50.0
173
     0
291
     1
 45
0.0
1001
ACAD
1000
AcDbSavedByObjectVersion
1070
     0
  0
VISUALSTYLE
  5
3A
102
{ACAD_REACTORS
330
2A
102
}
330
2A
100
AcDbVisualStyle
  2
ColorChange
 70
    16
 71
     2
 72
     2
 73
     3
 90
        0
 40
-0.6
 41
-30.0
 62
     5
 63
     8
 74
     1
 91
        4
 64
     7
 65
   257
 75
     1
175
     1
 42
1.0
 92
        8
 66
     8
 43
1.0
 76
     1
 77
     6
 78
     2
 67
     7
 79
     5
170
     0
171
     0
290
     0
174
     0
 93
        1
 44
0.0
173
     0
291
     1
 45
0.0
1001
ACAD
1000
AcDbSavedByObjectVersion
1070
     0
  0
VISUALSTYLE
  5
34
102
{ACAD_REACTORS
330
2A
102
}
330
2A
100
AcDbVisualStyle
  2
Conceptual
 70
     9
 71
     3
 72
     2
 73
     0
 90
        0
 40
-0.6
 41
-30.0
 62
     5
 63
     7
 74
     2
 91
        2
 64
     7
 65
   257
 75
     1
175
     1
 42
40.0
 92
        8
 66
     7
 43
1.0
 76
     1
 77
     6
 78
     2
 67
     7
 79
     3
170
     0
171
     0
290
     0
174
     0
 93
        1
 44
0.0
173
     0
291
     0
 45
0.0
1001
ACAD
1000
AcDbSavedByObjectVersion
1070
     0
  0
VISUALSTYLE
  5
35
102
{ACAD_REACTORS
330
2A
102
}
330
2A
100
AcDbVisualStyle
  2
Dim
 70
    11
 71
     2
 72
     2
 73
     0
 90
        0
 40
-0.6
 41
-30.0
 62
     5
 63
     7
 74
     1
 91
        4
 64
     7
 65
   257
 75
     1
175
     1
 42
1.0
 92
        8
 66
     7
 43
1.0
 76
     1
 77
     6
 78
     2
 67
     7
 79
     5
170
     0
171
     0
290
     0
174
     0
 93
        1
 44
-50.0
173
     0
291
     1
 45
0.0
1001
ACAD
1000
AcDbSavedByObjectVersion
1070
     0
  0
VISUALSTYLE
  5
39
102
{ACAD_REACTORS
330
2A
102
}
330
2A
100
AcDbVisualStyle
  2
Facepattern
 70
    15
 71
     2
 72
     2
 73
     0
 90
        0
 40
-0.6
 41
-30.0
 62
     5
 63
     7
 74
     1
 91
        4
 64
     7
 65
   257
 75
     1
175
     1
 42
1.0
 92
        8
 66
     7
 43
1.0
 76
     1
 77
     6
 78
     2
 67
     7
 79
     5
170
     0
171
     0
290
     0
174
     0
 93
        1
 44
0.0
173
     0
291
     1
 45
0.0
1001
ACAD
1000
AcDbSavedByObjectVersion
1070
     0
  0
VISUALSTYLE
  5
2B
102
{ACAD_REACTORS
330
2A
102
}
330
2A
100
AcDbVisualStyle
  2
Flat
 70
     0
 71
     2
 72
     1
 73
     1
 90
        2
 40
-0.6
 41
30.0
 62
     5
 63
     7
 74
     0
 91
        4
 64
     7
 65
   257
 75
     1
175
     1
 42
1.0
 92
        8
 66
     7
 43
1.0
 76
     1
 77
     6
 78
     2
 67
     7
 79
     5
170
     0
171
     0
290
     0
174
     0
 93
       13
 44
0.0
173
     0
291
     1
 45
0.0
1001
ACAD
1000
AcDbSavedByObjectVersion
1070
     0
  0
VISUALSTYLE
  5
2C
102
{ACAD_REACTORS
330
2A
102
}
330
2A
100
AcDbVisualStyle
  2
FlatWithEdges
 70
     1
 71
     2
 72
     1
 73
     1
 90
        2
 40
-0.6
 41
30.0
 62
     5
 63
     7
 74
     1
 91
        4
 64
     7
 65
   257
 75
     1
175
     1
 42
1.0
 92
        0
 66
   257
 43
1.0
 76
     1
 77
     6
 78
     2
 67
     7
 79
     5
170
     0
171
     0
290
     0
174
     0
 93
       13
 44
0.0
173
     0
291
     1
 45
0.0
1001
ACAD
1000
AcDbSavedByObjectVersion
1070
     0
  0
VISUALSTYLE
  5
2D
102
{ACAD_REACTORS
330
2A
102
}
330
2A
100
AcDbVisualStyle
  2
Gouraud
 70
     2
 71
     2
 72
     2
 73
     1
 90
        2
 40
-0.6
 41
30.0
 62
     5
 63
     7
 74
     0
 91
        4
 64
     7
 65
   257
 75
     1
175
     1
 42
1.0
 92
        0
 66
     7
 43
1.0
 76
     1
 77
     6
 78
     2
 67
     7
 79
     5
170
     0
171
     0
290
     0
174
     0
 93
       13
 44
0.0
173
     0
291
     1
 45
0.0
1001
ACAD
1000
AcDbSavedByObjectVersion
1070
     0
  0
VISUALSTYLE
  5
2E
102
{ACAD_REACTORS
330
2A
102
}
330
2A
100
AcDbVisualStyle
  2
GouraudWithEdges
 70
     3
 71
     2
 72
     2
 73
     1
 90
        2
 40
-0.6
 41
30.0
 62
     5
 63
     7
 74
     1
 91
        4
 64
     7
 65
   257
 75
     1
175
     1
 42
1.0
 92
        0
 66
   257
 43
1.0
 76
     1
 77
     6
 78
     2
 67
     7
 79
     5
170
     0
171
     0
290
     0
174
     0
 93
       13
 44
0.0
173
     0
291
     1
 45
0.0
1001
ACAD
1000
AcDbSavedByObjectVersion
1070
     0
  0
VISUALSTYLE
  5
38
102
{ACAD_REACTORS
330
2A
102
}
330
2A
100
AcDbVisualStyle
  2
Linepattern
 70
    14
 71
     2
 72
     2
 73
     0
 90
        0
 40
-0.6
 41
-30.0
 62
     5
 63
     7
 74
     1
 91
        4
 64
     7
 65
   257
 75
     7
175
     7
 42
1.0
 92
        8
 66
     7
 43
1.0
 76
     1
 77
     6
 78
     2
 67
     7
 79
     5
170
     0
171
     0
290
     0
174
     0
 93
        1
 44
0.0
173
     0
291
     1
 45
0.0
1001
ACAD
1000
AcDbSavedByObjectVersion
1070
     0
  0
VISUALSTYLE
  5
33
102
{ACAD_REACTORS
330
2A
102
}
330
2A
100
AcDbVisualStyle
  2
Realistic
 70
     8
 71
     2
 72
     2
 73
     0
 90
        0
 40
-0.6
 41
-30.0
 62
     5
 63
     7
 74
     1
 91
        0
 64
     7
 65
   257
 75
     1
175
     1
 42
1.0
 92
        8
 66
     8
 43
1.0
 76
     1
 77
     6
 78
     2
 67
     7
 79
     5
170
     0
171
     0
290
     0
174
     0
 93
       13
 44
0.0
173
     0
291
     0
 45
0.0
1001
ACAD
1000
AcDbSavedByObjectVersion
1070
     0
  0
VISUALSTYLE
  5
37
102
{ACAD_REACTORS
330
2A
102
}
330
2A
100
AcDbVisualStyle
  2
Thicken
 70
    13
 71
     2
 72
     2
 73
     0
 90
        0
 40
-0.6
 41
-30.0
 62
     5
 63
     7
 74
     1
 91
        4
 64
     7
 65
   257
 75
     1
175
     1
 42
1.0
 92
       12
 66
     7
 43
1.0
 76
     1
 77
     6
 78
     2
 67
     7
 79
     5
170
     0
171
     0
290
     0
174
     0
 93
        1
 44
0.0
173
     0
291
     1
 45
0.0
1001
ACAD
1000
AcDbSavedByObjectVersion
1070
     0
  0
DICTIONARYVAR
  5
1EC
102
{ACAD_REACTORS
330
1EB
102
}
330
1EB
100
DictionaryVariables
280
     0
  1
1:1
  0
DICTIONARYVAR
  5
1F0
102
{ACAD_REACTORS
330
1EB
102
}
330
1EB
100
DictionaryVariables
280
     0
  1
80.000000
  0
DICTIONARYVAR
  5
1EF
102
{ACAD_REACTORS
330
1EB
102
}
330
1EB
100
DictionaryVariables
280
     0
  1
5.000000
  0
ENDSEC
  0
EOF
