  0
SECTION
  2
HEADER
  9
$ACADVER
  1
AC1015
  9
$ACADMAINTVER
 70
     6
  9
$DWGCODEPAGE
  3
ANSI_1252
  9
$INSBASE
 10
0.0
 20
0.0
 30
0.0
  9
$EXTMIN
 10
0.0
 20
0.0
 30
0.0
  9
$EXTMAX
 10
210.0
 20
297.0
 30
0.0
  9
$LIMMIN
 10
0.0
 20
0.0
  9
$LIMMAX
 10
210.0
 20
297.0
  9
$ORTHOMODE
 70
     0
  9
$REGENMODE
 70
     1
  9
$FILLMODE
 70
     1
  9
$QTEXTMODE
 70
     0
  9
$MIRRTEXT
 70
     1
  9
$LTSCALE
 40
1.0
  9
$ATTMODE
 70
     1
  9
$TEXTSIZE
 40
2.5
  9
$TRACEWID
 40
1.0
  9
$TEXTSTYLE
  7
Standard
  9
$CLAYER
  8
0
  9
$CELTYPE
  6
ByLayer
  9
$CECOLOR
 62
   256
  9
$CELTSCALE
 40
1.0
  9
$DISPSILH
 70
     0
  9
$DIMSCALE
 40
1.0
  9
$DIMASZ
 40
2.5
  9
$DIMEXO
 40
0.625
  9
$DIMDLI
 40
3.75
  9
$DIMRND
 40
0.0
  9
$DIMDLE
 40
0.0
  9
$DIMEXE
 40
1.25
  9
$DIMTP
 40
0.0
  9
$DIMTM
 40
0.0
  9
$DIMTXT
 40
2.5
  9
$DIMCEN
 40
2.5
  9
$DIMTSZ
 40
0.0
  9
$DIMTOL
 70
     0
  9
$DIMLIM
 70
     0
  9
$DIMTIH
 70
     0
  9
$DIMTOH
 70
     0
  9
$DIMSE1
 70
     0
  9
$DIMSE2
 70
     0
  9
$DIMTAD
 70
     1
  9
$DIMZIN
 70
     8
  9
$DIMBLK
  1

  9
$DIMASO
 70
     1
  9
$DIMSHO
 70
     1
  9
$DIMPOST
  1

  9
$DIMAPOST
  1

  9
$DIMALT
 70
     0
  9
$DIMALTD
 70
     3
  9
$DIMALTF
 40
0.0393700787
  9
$DIMLFAC
 40
1.0
  9
$DIMTOFL
 70
     1
  9
$DIMTVP
 40
0.0
  9
$DIMTIX
 70
     0
  9
$DIMSOXD
 70
     0
  9
$DIMSAH
 70
     0
  9
$DIMBLK1
  1

  9
$DIMBLK2
  1

  9
$DIMSTYLE
  2
ISO-25
  9
$DIMCLRD
 70
     0
  9
$DIMCLRE
 70
     0
  9
$DIMCLRT
 70
     0
  9
$DIMTFAC
 40
1.0
  9
$DIMGAP
 40
0.625
  9
$DIMJUST
 70
     0
  9
$DIMSD1
 70
     0
  9
$DIMSD2
 70
     0
  9
$DIMTOLJ
 70
     0
  9
$DIMTZIN
 70
     8
  9
$DIMALTZ
 70
     0
  9
$DIMALTTZ
 70
     0
  9
$DIMUPT
 70
     0
  9
$DIMDEC
 70
     2
  9
$DIMTDEC
 70
     2
  9
$DIMALTU
 70
     2
  9
$DIMALTTD
 70
     3
  9
$DIMTXSTY
  7
Standard
  9
$DIMAUNIT
 70
     0
  9
$DIMADEC
 70
     0
  9
$DIMALTRND
 40
0.0
  9
$DIMAZIN
 70
     0
  9
$DIMDSEP
 70
    44
  9
$DIMATFIT
 70
     3
  9
$DIMFRAC
 70
     0
  9
$DIMLDRBLK
  1

  9
$DIMLUNIT
 70
     2
  9
$DIMLWD
 70
    -2
  9
$DIMLWE
 70
    -2
  9
$DIMTMOVE
 70
     0
  9
$LUNITS
 70
     2
  9
$LUPREC
 70
     4
  9
$SKETCHINC
 40
1.0
  9
$FILLETRAD
 40
10.0
  9
$AUNITS
 70
     0
  9
$AUPREC
 70
     0
  9
$MENU
  1
.
  9
$ELEVATION
 40
0.0
  9
$PELEVATION
 40
0.0
  9
$THICKNESS
 40
0.0
  9
$LIMCHECK
 70
     0
  9
$CHAMFERA
 40
10.0
  9
$CHAMFERB
 40
10.0
  9
$CHAMFERC
 40
20.0
  9
$CHAMFERD
 40
0.0
  9
$SKPOLY
 70
     0
  9
$TDCREATE
 40
2454748.398881331
  9
$TDUCREATE
 40
2454748.315547998
  9
$TDUPDATE
 40
2454748.398881343
  9
$TDUUPDATE
 40
2454748.315548009
  9
$TDINDWG
 40
0.0000000116
  9
$TDUSRTIMER
 40
0.0000000116
  9
$USRTIMER
 70
     1
  9
$ANGBASE
 50
0.0
  9
$ANGDIR
 70
     0
  9
$PDMODE
 70
     0
  9
$PDSIZE
 40
0.0
  9
$PLINEWID
 40
0.0
  9
$SPLFRAME
 70
     0
  9
$SPLINETYPE
 70
     6
  9
$SPLINESEGS
 70
     8
  9
$HANDSEED
  5
B0
  9
$SURFTAB1
 70
     6
  9
$SURFTAB2
 70
     6
  9
$SURFTYPE
 70
     6
  9
$SURFU
 70
     6
  9
$SURFV
 70
     6
  9
$UCSBASE
  2

  9
$UCSNAME
  2

  9
$UCSORG
 10
0.0
 20
0.0
 30
0.0
  9
$UCSXDIR
 10
1.0
 20
0.0
 30
0.0
  9
$UCSYDIR
 10
0.0
 20
1.0
 30
0.0
  9
$UCSORTHOREF
  2

  9
$UCSORTHOVIEW
 70
     0
  9
$UCSORGTOP
 10
0.0
 20
0.0
 30
0.0
  9
$UCSORGBOTTOM
 10
0.0
 20
0.0
 30
0.0
  9
$UCSORGLEFT
 10
0.0
 20
0.0
 30
0.0
  9
$UCSORGRIGHT
 10
0.0
 20
0.0
 30
0.0
  9
$UCSORGFRONT
 10
0.0
 20
0.0
 30
0.0
  9
$UCSORGBACK
 10
0.0
 20
0.0
 30
0.0
  9
$PUCSBASE
  2

  9
$PUCSNAME
  2

  9
$PUCSORG
 10
0.0
 20
0.0
 30
0.0
  9
$PUCSXDIR
 10
1.0
 20
0.0
 30
0.0
  9
$PUCSYDIR
 10
0.0
 20
1.0
 30
0.0
  9
$PUCSORTHOREF
  2

  9
$PUCSORTHOVIEW
 70
     0
  9
$PUCSORGTOP
 10
0.0
 20
0.0
 30
0.0
  9
$PUCSORGBOTTOM
 10
0.0
 20
0.0
 30
0.0
  9
$PUCSORGLEFT
 10
0.0
 20
0.0
 30
0.0
  9
$PUCSORGRIGHT
 10
0.0
 20
0.0
 30
0.0
  9
$PUCSORGFRONT
 10
0.0
 20
0.0
 30
0.0
  9
$PUCSORGBACK
 10
0.0
 20
0.0
 30
0.0
  9
$USERI1
 70
     0
  9
$USERI2
 70
     0
  9
$USERI3
 70
     0
  9
$USERI4
 70
     0
  9
$USERI5
 70
     0
  9
$USERR1
 40
0.0
  9
$USERR2
 40
0.0
  9
$USERR3
 40
0.0
  9
$USERR4
 40
0.0
  9
$USERR5
 40
0.0
  9
$WORLDVIEW
 70
     1
  9
$SHADEDGE
 70
     3
  9
$SHADEDIF
 70
    70
  9
$TILEMODE
 70
     1
  9
$MAXACTVP
 70
    64
  9
$PINSBASE
 10
0.0
 20
0.0
 30
0.0
  9
$PLIMCHECK
 70
     0
  9
$PEXTMIN
 10
0.0
 20
0.0
 30
0.0
  9
$PEXTMAX
 10
210.0
 20
297.0
 30
0.0
  9
$PLIMMIN
 10
0.0
 20
0.0
  9
$PLIMMAX
 10
210.0
 20
297.0
  9
$UNITMODE
 70
     0
  9
$VISRETAIN
 70
     1
  9
$PLINEGEN
 70
     0
  9
$PSLTSCALE
 70
     1
  9
$TREEDEPTH
 70
  3020
  9
$CMLSTYLE
  2
Standard
  9
$CMLJUST
 70
     0
  9
$CMLSCALE
 40
20.0
  9
$PROXYGRAPHICS
 70
     1
  9
$MEASUREMENT
 70
     1
  9
$CELWEIGHT
370
    -1
  9
$ENDCAPS
280
     0
  9
$JOINSTYLE
280
     0
  9
$LWDISPLAY
290
     0
  9
$INSUNITS
 70
     4
  9
$HYPERLINKBASE
  1

  9
$STYLESHEET
  1

  9
$XEDIT
290
     1
  9
$CEPSNTYPE
380
     0
  9
$PSTYLEMODE
290
     1
  9
$FINGERPRINTGUID
  2
{643146F5-FEEE-4A07-A1DD-12274F5917CB}
  9
$VERSIONGUID
  2
{FAEB1C32-E019-11D5-929B-00C0DF256EC4}
  9
$EXTNAMES
290
     1
  9
$PSVPSCALE
 40
0.0
  9
$OLESTARTUP
290
     0
  0
ENDSEC
  0
SECTION
  2
CLASSES
  0
CLASS
  1
ACDBDICTIONARYWDFLT
  2
AcDbDictionaryWithDefault
  3
ObjectDBX Classes
 90
        0
280
     0
281
     0
  0
CLASS
  1
ACDBPLACEHOLDER
  2
AcDbPlaceHolder
  3
ObjectDBX Classes
 90
        0
280
     0
281
     0
  0
CLASS
  1
LAYOUT
  2
AcDbLayout
  3
ObjectDBX Classes
 90
        0
280
     0
281
     0
  0
ENDSEC
  0
SECTION
  2
TABLES
  0
TABLE
  2
VPORT
  5
8
330
0
100
AcDbSymbolTable
 70
     1
  0
VPORT
  5
29
330
8
100
AcDbSymbolTableRecord
100
AcDbViewportTableRecord
  2
*Active
 70
     0
 10
0.0
 20
0.0
 11
1.0
 21
1.0
 12
344.1869158879
 22
148.5
 13
0.0
 23
0.0
 14
10.0
 24
10.0
 15
10.0
 25
10.0
 16
0.0
 26
0.0
 36
1.0
 17
0.0
 27
0.0
 37
0.0
 40
297.0
 41
1.9729729729
 42
50.0
 43
0.0
 44
0.0
 50
0.0
 51
0.0
 71
     0
 72
   100
 73
     1
 74
     3
 75
     0
 76
     0
 77
     0
 78
     0
281
     0
 65
     1
110
0.0
120
0.0
130
0.0
111
1.0
121
0.0
131
0.0
112
0.0
122
1.0
132
0.0
 79
     0
146
0.0
  0
ENDTAB
  0
TABLE
  2
LTYPE
  5
5
330
0
100
AcDbSymbolTable
 70
     3
  0
LTYPE
  5
14
330
5
100
AcDbSymbolTableRecord
100
AcDbLinetypeTableRecord
  2
ByBlock
 70
     0
  3

 72
    65
 73
     0
 40
0.0
  0
LTYPE
  5
15
330
5
100
AcDbSymbolTableRecord
100
AcDbLinetypeTableRecord
  2
ByLayer
 70
     0
  3

 72
    65
 73
     0
 40
0.0
  0
LTYPE
  5
16
330
5
100
AcDbSymbolTableRecord
100
AcDbLinetypeTableRecord
  2
Continuous
 70
     0
  3
Solid line
 72
    65
 73
     0
 40
0.0
  0
LTYPE
  5
3C
330
5
100
AcDbSymbolTableRecord
100
AcDbLinetypeTableRecord
  2
HIDDEN2
 70
     0
  3
Hidden (.5x) _ _ _ _ _ _ _ _ _ _ _ _ _ _ _ _ _ 
 72
    65
 73
     2
 40
4.7625
 49
3.175
 74
     4
 75
     0
340
0
 46
0.0
 50
0.0
 44
0.0
 45
0.0
 49
-1.5875
 74
     4
 75
     0
340
0
 46
0.0
 50
0.0
 44
0.0
 45
0.0
  0
LTYPE
  5
51
330
5
100
AcDbSymbolTableRecord
100
AcDbLinetypeTableRecord
  2
CENTER2
 70
     0
  3
Center (.5x) ___ _ ___ _ ___ _ ___ _ ___ _ ___
 72
    65
 73
     4
 40
28.575
 49
19.05
 74
     4
 75
     0
340
0
 46
0.0
 50
0.0
 44
0.0
 45
0.0
 49
-3.175
 74
     4
 75
     0
340
0
 46
0.0
 50
0.0
 44
0.0
 45
0.0
 49
3.175
 74
     4
 75
     0
340
0
 46
0.0
 50
0.0
 44
0.0
 45
0.0
 49
-3.175
 74
     4
 75
     0
340
0
 46
0.0
 50
0.0
 44
0.0
 45
0.0
  0
ENDTAB
  0
TABLE
  2
LAYER
  5
2
330
0
100
AcDbSymbolTable
 70
     5
  0
LAYER
  5
10
330
2
100
AcDbSymbolTableRecord
100
AcDbLayerTableRecord
  2
0
 70
     0
 62
     7
  6
Continuous
370
    -3
390
F
  0
LAYER
  5
2C
330
2
100
AcDbSymbolTableRecord
100
AcDbLayerTableRecord
  2
Default
 70
     0
 62
     7
  6
Continuous
370
    -3
390
F
  0
LAYER
  5
2F
330
2
100
AcDbSymbolTableRecord
100
AcDbLayerTableRecord
  2
MEGA_000966
 70
     0
 62
     7
  6
Continuous
370
    -3
390
F
  0
LAYER
  5
36
330
2
100
AcDbSymbolTableRecord
100
AcDbLayerTableRecord
  2
MEGA_006584
 70
     0
 62
     7
  6
Continuous
370
    -3
390
F
  0
LAYER
  5
4D
330
2
100
AcDbSymbolTableRecord
100
AcDbLayerTableRecord
  2
DV1_Standard
 70
     0
 62
     7
  6
Continuous
370
    -3
390
F
  0
ENDTAB
  0
TABLE
  2
STYLE
  5
3
330
0
100
AcDbSymbolTable
 70
     4
  0
STYLE
  5
11
330
3
100
AcDbSymbolTableRecord
100
AcDbTextStyleTableRecord
  2
Standard
 70
     0
 40
0.0
 41
1.0
 50
0.0
 71
     0
 42
2.5
  3
txt
  4

  0
STYLE
  5
2A
330
3
100
AcDbSymbolTableRecord
100
AcDbTextStyleTableRecord
  2
SEACAD_arial_ttfI
 70
     0
 40
0.0
 41
1.0
 50
0.0
 71
     0
 42
0.2
  3
arial.ttf
  4

  0
STYLE
  5
65
330
3
100
AcDbSymbolTableRecord
100
AcDbTextStyleTableRecord
  2
SEACAD_seiso_ttf
 70
     0
 40
0.0
 41
1.0
 50
0.0
 71
     0
 42
0.2
  3
seiso.ttf
  4

  0
STYLE
  5
7C
330
3
100
AcDbSymbolTableRecord
100
AcDbTextStyleTableRecord
  2
SEACAD_semeci1_ttf
 70
     0
 40
0.0
 41
1.0
 50
0.0
 71
     0
 42
0.2
  3
semeci1.ttf
  4

  0
ENDTAB
  0
TABLE
  2
VIEW
  5
6
330
0
100
AcDbSymbolTable
 70
     0
  0
ENDTAB
  0
TABLE
  2
UCS
  5
7
330
0
100
AcDbSymbolTable
 70
     0
  0
ENDTAB
  0
TABLE
  2
APPID
  5
9
330
0
100
AcDbSymbolTable
 70
     1
  0
APPID
  5
12
330
9
100
AcDbSymbolTableRecord
100
AcDbRegAppTableRecord
  2
ACAD
 70
     0
  0
ENDTAB
  0
TABLE
  2
DIMSTYLE
  5
A
330
0
100
AcDbSymbolTable
 70
     3
100
AcDbDimStyleTable
  0
DIMSTYLE
105
27
330
A
100
AcDbSymbolTableRecord
100
AcDbDimStyleTableRecord
  2
ISO-25
 70
     0
 41
2.5
 42
0.625
 43
3.75
 44
1.25
 73
     0
 74
     0
 77
     1
 78
     8
140
2.5
141
2.5
143
0.0393700787
147
0.625
171
     3
172
     1
271
     2
272
     2
274
     3
278
    44
283
     0
284
     8
340
11
  0
DIMSTYLE
105
56
330
A
100
AcDbSymbolTableRecord
100
AcDbDimStyleTableRecord
  2
Standard
 70
     0
340
11
  0
DIMSTYLE
105
66
102
{ACAD_REACTORS
330
67
330
71
330
7B
330
87
330
92
330
9D
102
}
330
A
100
AcDbSymbolTableRecord
100
AcDbDimStyleTableRecord
  2
DIN
 70
     0
 41
3.0
 42
0.0
 44
1.5
 73
     0
 74
     0
 77
     1
 78
     8
140
3.0
141
1.5
147
1.5
172
     1
173
     1
176
   176
177
   176
178
   176
271
     0
272
     0
278
    44
284
     8
340
65
343
60
344
60
  0
ENDTAB
  0
TABLE
  2
BLOCK_RECORD
  5
1
330
0
100
AcDbSymbolTable
 70
    12
  0
BLOCK_RECORD
  5
1F
330
1
100
AcDbSymbolTableRecord
100
AcDbBlockTableRecord
  2
*Model_Space
340
22
  0
BLOCK_RECORD
  5
1B
330
1
100
AcDbSymbolTableRecord
100
AcDbBlockTableRecord
  2
*Paper_Space
340
1E
  0
BLOCK_RECORD
  5
2D
330
1
100
AcDbSymbolTableRecord
100
AcDbBlockTableRecord
  2
SE
340
0
102
{BLKREFS
331
2E
102
}
1001
ACAD
1000
DesignCenter Data
1002
{
1070
     1
1070
     0
1002
}
  0
BLOCK_RECORD
  5
57
330
1
100
AcDbSymbolTableRecord
100
AcDbBlockTableRecord
  2
_Oblique
340
0
1001
ACAD
1000
DesignCenter Data
1002
{
1070
     1
1070
     0
1002
}
  0
BLOCK_RECORD
  5
5B
330
1
100
AcDbSymbolTableRecord
100
AcDbBlockTableRecord
  2
_Dot
340
0
1001
ACAD
1000
DesignCenter Data
1002
{
1070
     1
1070
     0
1002
}
  0
BLOCK_RECORD
  5
60
330
1
100
AcDbSymbolTableRecord
100
AcDbBlockTableRecord
  2
_SE_FILLED
340
0
1001
ACAD
1000
DesignCenter Data
1002
{
1070
     1
1070
     0
1002
}
  0
BLOCK_RECORD
  5
68
330
1
100
AcDbSymbolTableRecord
100
AcDbBlockTableRecord
  2
DMBLK21
340
0
1001
ACAD
1000
DesignCenter Data
1002
{
1070
     1
1070
     0
1002
}
  0
BLOCK_RECORD
  5
72
330
1
100
AcDbSymbolTableRecord
100
AcDbBlockTableRecord
  2
DMBLK22
340
0
1001
ACAD
1000
DesignCenter Data
1002
{
1070
     1
1070
     0
1002
}
  0
BLOCK_RECORD
  5
7D
330
1
100
AcDbSymbolTableRecord
100
AcDbBlockTableRecord
  2
DMBLK23
340
0
1001
ACAD
1000
DesignCenter Data
1002
{
1070
     1
1070
     0
1002
}
  0
BLOCK_RECORD
  5
88
330
1
100
AcDbSymbolTableRecord
100
AcDbBlockTableRecord
  2
DMBLK24
340
0
1001
ACAD
1000
DesignCenter Data
1002
{
1070
     1
1070
     0
1002
}
  0
BLOCK_RECORD
  5
93
330
1
100
AcDbSymbolTableRecord
100
AcDbBlockTableRecord
  2
DMBLK25
340
0
1001
ACAD
1000
DesignCenter Data
1002
{
1070
     1
1070
     0
1002
}
  0
BLOCK_RECORD
  5
9E
330
1
100
AcDbSymbolTableRecord
100
AcDbBlockTableRecord
  2
DMBLK26
340
0
1001
ACAD
1000
DesignCenter Data
1002
{
1070
     1
1070
     0
1002
}
  0
BLOCK_RECORD
  5
A7
330
1
100
AcDbSymbolTableRecord
100
AcDbBlockTableRecord
  2
GDimGGroup
340
0
102
{BLKREFS
331
A8
102
}
1001
ACAD
1000
DesignCenter Data
1002
{
1070
     1
1070
     0
1002
}
  0
ENDTAB
  0
ENDSEC
  0
SECTION
  2
BLOCKS
  0
BLOCK
  5
20
330
1F
100
AcDbEntity
  8
0
100
AcDbBlockBegin
  2
*Model_Space
 70
     0
 71
     0
 10
0.0
 20
0.0
 30
0.0
  3
*Model_Space
  1

  0
ENDBLK
  5
21
330
1F
100
AcDbEntity
  8
0
100
AcDbBlockEnd
  0
BLOCK
  5
1C
330
1B
100
AcDbEntity
 67
     1
  8
0
100
AcDbBlockBegin
  2
*Paper_Space
 70
     0
 71
     0
 10
0.0
 20
0.0
 30
0.0
  3
*Paper_Space
  1

  0
ENDBLK
  5
1D
330
1B
100
AcDbEntity
 67
     1
  8
0
100
AcDbBlockEnd
  0
BLOCK
  5
54
330
2D
100
AcDbEntity
  8
0
100
AcDbBlockBegin
  2
SE
 70
     0
 71
     0
 10
0.0
 20
0.0
 30
0.0
  3
SE
  1

  0
LINE
  5
30
330
2D
100
AcDbEntity
  8
MEGA_000966
  6
Continuous
 62
     7
100
AcDbLine
 10
82.9242770622
 20
184.1691866398
 30
0.0
 11
170.1302500622
 21
184.1691866398
 31
0.0
  0
LINE
  5
31
330
2D
100
AcDbEntity
  8
MEGA_000966
  6
Continuous
 62
     7
100
AcDbLine
 10
170.1302500622
 20
202.1691866398
 30
0.0
 11
82.9242770622
 21
202.1691866398
 31
0.0
  0
ARC
  5
32
330
2D
100
AcDbEntity
  8
MEGA_000966
  6
Continuous
 62
     7
100
AcDbCircle
 10
170.1302500622
 20
187.1691866398
 30
0.0
 40
3.000000000000003
100
AcDbArc
 50
270.0
 51
339.3341397377
  0
ARC
  5
33
330
2D
100
AcDbEntity
  8
MEGA_000966
  6
Continuous
 62
     7
100
AcDbCircle
 10
170.1302500622
 20
199.1691866398
 30
0.0
 40
2.999999999999994
100
AcDbArc
 50
20.6658602623
 51
90.0
  0
ARC
  5
34
330
2D
100
AcDbEntity
  8
MEGA_000966
  6
Continuous
 62
     7
100
AcDbCircle
 10
154.2242764306
 20
193.1691864015
 30
0.0
 40
19.99999991591387
100
AcDbArc
 50
339.3329018512
 51
360.0
  0
ARC
  5
35
330
2D
100
AcDbEntity
  8
MEGA_000966
  6
Continuous
 62
     7
100
AcDbCircle
 10
154.2242764306
 20
193.1691864015
 30
0.0
 40
20.00000000000002
100
AcDbArc
 50
0.0
 51
20.6670987874
  0
LINE
  5
37
330
2D
100
AcDbEntity
  8
MEGA_006584
  6
Continuous
 62
     7
100
AcDbLine
 10
69.4242770622
 20
236.1691866398
 30
0.0
 11
50.4242770622
 21
236.1691866398
 31
0.0
  0
LINE
  5
38
330
2D
100
AcDbEntity
  8
MEGA_006584
  6
Continuous
 62
     7
100
AcDbLine
 10
82.9242770622
 20
202.6691866398
 30
0.0
 11
82.9242770622
 21
183.6691866398
 31
0.0
  0
ARC
  5
39
330
2D
100
AcDbEntity
  8
MEGA_006584
  6
Continuous
 62
     7
100
AcDbCircle
 10
41.8020990663
 20
231.1691866394
 30
0.0
 40
9.043787775301187
100
AcDbArc
 50
342.4361569069
 51
17.5638429878
  0
LINE
  5
3A
330
2D
100
AcDbEntity
  8
MEGA_006584
  6
Continuous
 62
     7
100
AcDbLine
 10
67.4242770622
 20
245.6691866398
 30
0.0
 11
52.4242770622
 21
245.6691866398
 31
0.0
  0
LINE
  5
3B
330
2D
100
AcDbEntity
  8
MEGA_006584
  6
Continuous
 62
     7
100
AcDbLine
 10
67.6619986689
 20
245.1691866398
 30
0.0
 11
52.1865554556
 21
245.1691866398
 31
0.0
  0
ARC
  5
3D
330
2D
100
AcDbEntity
  8
MEGA_006584
  6
HIDDEN2
 62
     7
100
AcDbCircle
 10
94.2267730261
 20
195.919175156
 30
0.0
 40
1.477480927820498
100
AcDbArc
 50
208.1682312497
 51
209.7526559371
  0
SPLINE
  5
3E
330
2D
100
AcDbEntity
  8
MEGA_006584
  6
Continuous
 62
     7
100
AcDbSpline
210
0.0
220
0.0
230
1.0
 70
     8
 71
     3
 72
     8
 73
     4
 74
     0
 42
0.0000000392218731
 43
0.0000000001
 40
0.0
 40
0.0
 40
0.0
 40
0.0
 40
1.0
 40
1.0
 40
1.0
 40
1.0
 10
67.66199866887831
 20
245.1691866397663
 30
0.0
 10
67.68537304249128
 20
245.3165666340933
 30
0.0
 10
67.7090086382385
 20
245.38445506377
 30
0.0
 10
67.73294598834525
 20
245.3605177136626
 30
0.0
  0
LINE
  5
3F
330
2D
100
AcDbEntity
  8
MEGA_006584
  6
Continuous
 62
     7
100
AcDbLine
 10
67.7329459883
 20
236.1691866398
 30
0.0
 11
67.7329459883
 21
245.3605177137
 31
0.0
  0
LINE
  5
40
330
2D
100
AcDbEntity
  8
MEGA_006584
  6
Continuous
 62
     7
100
AcDbLine
 10
67.6619986689
 20
245.1691866398
 30
0.0
 11
67.6619986689
 21
236.1691866398
 31
0.0
  0
LINE
  5
41
330
2D
100
AcDbEntity
  8
MEGA_006584
  6
Continuous
 62
     7
100
AcDbLine
 10
52.1865554556
 20
245.1691866398
 30
0.0
 11
52.1865554556
 21
236.1691866398
 31
0.0
  0
LINE
  5
42
330
2D
100
AcDbEntity
  8
MEGA_006584
  6
Continuous
 62
     7
100
AcDbLine
 10
52.1156081361
 20
236.1691866398
 30
0.0
 11
52.1156081361
 21
245.3605177137
 31
0.0
  0
SPLINE
  5
43
330
2D
100
AcDbEntity
  8
MEGA_006584
  6
Continuous
 62
     7
100
AcDbSpline
210
0.0
220
0.0
230
1.0
 70
     8
 71
     3
 72
     8
 73
     4
 74
     0
 42
0.0000000392218731
 43
0.0000000001
 40
0.0
 40
0.0
 40
0.0
 40
0.0
 40
1.0
 40
1.0
 40
1.0
 40
1.0
 10
52.18655545560468
 20
245.1691866397663
 30
0.0
 10
52.16318108199172
 20
245.3165666340933
 30
0.0
 10
52.13954548624449
 20
245.38445506377
 30
0.0
 10
52.11560813613775
 20
245.3605177136626
 30
0.0
  0
LINE
  5
44
330
2D
100
AcDbEntity
  8
MEGA_006584
  6
Continuous
 62
     7
100
AcDbLine
 10
51.6742770622
 20
183.6691866398
 30
0.0
 11
82.9242770622
 21
183.6691866398
 31
0.0
  0
LINE
  5
45
330
2D
100
AcDbEntity
  8
MEGA_006584
  6
Continuous
 62
     7
100
AcDbLine
 10
82.9242770622
 20
202.6691866398
 30
0.0
 11
70.4242770622
 21
202.6691866398
 31
0.0
  0
LINE
  5
46
330
2D
100
AcDbEntity
  8
MEGA_006584
  6
Continuous
 62
     7
100
AcDbLine
 10
50.4242770622
 20
228.4401666781
 30
0.0
 11
50.4242770622
 21
184.9191866398
 31
0.0
  0
LINE
  5
47
330
2D
100
AcDbEntity
  8
MEGA_006584
  6
Continuous
 62
     7
100
AcDbLine
 10
50.4242770622
 20
233.8982026019
 30
0.0
 11
50.4242770622
 21
236.1691866398
 31
0.0
  0
LINE
  5
48
330
2D
100
AcDbEntity
  8
MEGA_006584
  6
Continuous
 62
     7
100
AcDbLine
 10
69.4242770622
 20
203.6691866398
 30
0.0
 11
69.4242770622
 21
236.1691866398
 31
0.0
  0
ARC
  5
49
330
2D
100
AcDbEntity
  8
MEGA_006584
  6
Continuous
 62
     7
100
AcDbCircle
 10
70.4242770622
 20
203.6691866398
 30
0.0
 40
1.0
100
AcDbArc
 50
180.8218621481
 51
269.3167986951
  0
ARC
  5
4A
330
2D
100
AcDbEntity
  8
MEGA_006584
  6
Continuous
 62
     7
100
AcDbCircle
 10
51.6742770622
 20
184.9191866398
 30
0.0
 40
1.250000000000002
100
AcDbArc
 50
179.3770806595
 51
270.8887610897
  0
LINE
  5
4B
330
2D
100
AcDbEntity
  8
MEGA_006584
  6
Continuous
 62
     7
100
AcDbLine
 10
67.7329459883
 20
245.3605177137
 30
0.0
 11
67.4242770622
 21
245.6691866398
 31
0.0
  0
LINE
  5
4C
330
2D
100
AcDbEntity
  8
MEGA_006584
  6
Continuous
 62
     7
100
AcDbLine
 10
52.4242770622
 20
245.6691866398
 30
0.0
 11
52.1156081361
 21
245.3605177137
 31
0.0
  0
LINE
  5
4E
330
2D
100
AcDbEntity
  8
DV1_Standard
  6
Continuous
 62
     7
100
AcDbLine
 10
174.2242764306
 20
193.1691864015
 30
0.0
 11
174.2242764306
 21
176.2188450175
 31
0.0
  0
LINE
  5
4F
330
2D
100
AcDbEntity
  8
DV1_Standard
  6
Continuous
 62
     7
100
AcDbLine
 10
59.9242770622
 20
245.6691866398
 30
0.0
 11
55.9242770622
 21
245.6691866398
 31
0.0
  0
LINE
  5
50
330
2D
100
AcDbEntity
  8
DV1_Standard
  6
Continuous
 62
     7
100
AcDbLine
 10
55.9242770622
 20
245.6691866398
 30
0.0
 11
63.9242770622
 21
245.6691866398
 31
0.0
  0
LINE
  5
52
330
2D
100
AcDbEntity
  8
DV1_Standard
  6
CENTER2
 62
     7
100
AcDbLine
 10
59.9242770622
 20
245.6691866398
 30
0.0
 11
59.9242770622
 21
193.1691864015
 31
0.0
  0
LINE
  5
53
330
2D
100
AcDbEntity
  8
DV1_Standard
  6
CENTER2
 62
     7
100
AcDbLine
 10
174.2242764306
 20
193.1691864015
 30
0.0
 11
59.9242770622
 21
193.1691864015
 31
0.0
  0
ENDBLK
  5
55
330
2D
100
AcDbEntity
  8
0
100
AcDbBlockEnd
  0
BLOCK
  5
58
330
57
100
AcDbEntity
  8
0
100
AcDbBlockBegin
  2
_Oblique
 70
     0
 71
     0
 10
0.0
 20
0.0
 30
0.0
  3
_Oblique
  1

  0
LINE
  5
5A
330
57
100
AcDbEntity
  8
0
  6
ByBlock
 62
     0
370
    -2
100
AcDbLine
 10
-0.5
 20
-0.5
 30
0.0
 11
0.5
 21
0.5
 31
0.0
  0
ENDBLK
  5
59
330
57
100
AcDbEntity
  8
0
100
AcDbBlockEnd
  0
BLOCK
  5
5C
330
5B
100
AcDbEntity
  8
0
100
AcDbBlockBegin
  2
_Dot
 70
     0
 71
     0
 10
0.0
 20
0.0
 30
0.0
  3
_Dot
  1

  0
LWPOLYLINE
  5
5E
330
5B
100
AcDbEntity
  8
0
  6
ByBlock
 62
     0
100
AcDbPolyline
 90
        2
 70
     1
 43
0.5
 10
-0.25
 20
0.0
 42
1.0
 10
0.25
 20
0.0
 42
1.0
  0
LINE
  5
5F
330
5B
100
AcDbEntity
  8
0
  6
ByBlock
 62
     0
370
    -2
100
AcDbLine
 10
-0.5
 20
0.0
 30
0.0
 11
-1.0
 21
0.0
 31
0.0
  0
ENDBLK
  5
5D
330
5B
100
AcDbEntity
  8
0
100
AcDbBlockEnd
  0
BLOCK
  5
63
330
60
100
AcDbEntity
  8
0
100
AcDbBlockBegin
  2
_SE_FILLED
 70
     0
 71
     0
 10
0.0
 20
0.0
 30
0.0
  3
_SE_FILLED
  1

  0
SOLID
  5
61
330
60
100
AcDbEntity
  8
0
 62
     0
100
AcDbTrace
 10
0.0
 20
0.0
 30
0.0
 11
-1.0
 21
-0.1665
 31
0.0
 12
-1.0
 22
0.1665
 32
0.0
 13
0.0
 23
0.0
 33
0.0
  0
LINE
  5
62
330
60
100
AcDbEntity
  8
0
 62
     0
100
AcDbLine
 10
0.0
 20
0.0
 30
0.0
 11
-1.0
 21
0.0
 31
0.0
  0
ENDBLK
  5
64
330
60
100
AcDbEntity
  8
0
100
AcDbBlockEnd
  0
BLOCK
  5
6F
330
68
100
AcDbEntity
  8
0
100
AcDbBlockBegin
  2
DMBLK21
 70
     0
 71
     0
 10
0.0
 20
0.0
 30
0.0
  3
DMBLK21
  1

  0
HATCH
  5
69
330
68
100
AcDbEntity
  8
Default
  6
Continuous
 62
   176
370
     9
100
AcDbHatch
 10
0.0
 20
0.0
 30
0.0
210
0.0
220
0.0
230
1.0
  2
SOLID
 70
     1
 71
     0
 91
        1
 92
        1
 93
        3
 72
     1
 10
53.42427708831853
 20
159.8133913493616
 11
53.42427708831853
 21
160.813391358054
 72
     1
 10
53.42427708831853
 20
160.813391358054
 11
50.4242770622415
 21
160.3133913537078
 72
     1
 10
50.4242770622415
 20
160.3133913537078
 11
53.42427708831853
 21
159.8133913493616
 97
        0
 75
     0
 76
     1
 98
        0
  0
HATCH
  5
6A
330
68
100
AcDbEntity
  8
Default
  6
Continuous
 62
   176
370
     9
100
AcDbHatch
 10
0.0
 20
0.0
 30
0.0
210
0.0
220
0.0
230
1.0
  2
SOLID
 70
     1
 71
     0
 91
        1
 92
        1
 93
        3
 72
     1
 10
171.2242790746433
 20
159.8133913493616
 11
174.2242791007204
 21
160.3133913537078
 72
     1
 10
174.2242791007204
 20
160.3133913537078
 11
171.2242790746433
 21
160.813391358054
 72
     1
 10
171.2242790746433
 20
160.813391358054
 11
171.2242790746433
 21
159.8133913493616
 97
        0
 75
     0
 76
     1
 98
        0
  0
LINE
  5
6B
330
68
100
AcDbEntity
  8
Default
  6
Continuous
 62
   176
370
     9
100
AcDbLine
 10
50.4242770622
 20
184.9191870948
 30
0.0
 11
50.4242770622
 21
158.8133913407
 31
0.0
  0
LINE
  5
6C
330
68
100
AcDbEntity
  8
Default
  6
Continuous
 62
   176
370
     9
100
AcDbLine
 10
174.2242764306
 20
176.2188450175
 30
0.0
 11
174.2242764306
 21
158.8133913407
 31
0.0
  0
LINE
  5
6D
330
68
100
AcDbEntity
  8
Default
  6
Continuous
 62
   176
370
     9
100
AcDbLine
 10
50.4242770622
 20
160.3133913537
 30
0.0
 11
174.2242791007
 21
160.3133913537
 31
0.0
  0
TEXT
  5
6E
330
68
100
AcDbEntity
  8
Default
  6
Continuous
 62
   176
370
     9
100
AcDbText
 10
109.903823536
 20
161.0633913537
 30
0.0
 40
3.0
  1
124
  7
SEACAD_seiso_ttf
 11
109.903823536
 21
164.0633913537
 31
0.0
100
AcDbText
 73
     3
  0
ENDBLK
  5
70
330
68
100
AcDbEntity
  8
0
100
AcDbBlockEnd
  0
BLOCK
  5
79
330
72
100
AcDbEntity
  8
0
100
AcDbBlockBegin
  2
DMBLK22
 70
     0
 71
     0
 10
0.0
 20
0.0
 30
0.0
  3
DMBLK22
  1

  0
HATCH
  5
73
330
72
100
AcDbEntity
  8
Default
  6
Continuous
 62
   176
370
     9
100
AcDbHatch
 10
0.0
 20
0.0
 30
0.0
210
0.0
220
0.0
230
1.0
  2
SOLID
 70
     1
 71
     0
 91
        1
 92
        1
 93
        3
 72
     1
 10
40.92050619984585
 20
233.1691866136893
 11
41.92050620853819
 21
233.1691866136893
 72
     1
 10
41.92050620853819
 20
233.1691866136893
 11
41.42050620419202
 21
236.1691866397663
 72
     1
 10
41.42050620419202
 20
236.1691866397663
 11
40.92050619984585
 21
233.1691866136893
 97
        0
 75
     0
 76
     1
 98
        0
  0
HATCH
  5
74
330
72
100
AcDbEntity
  8
Default
  6
Continuous
 62
   176
370
     9
100
AcDbHatch
 10
0.0
 20
0.0
 30
0.0
210
0.0
220
0.0
230
1.0
  2
SOLID
 70
     1
 71
     0
 91
        1
 92
        1
 93
        3
 72
     1
 10
40.92050619984585
 20
186.6691883049711
 11
41.42050620419202
 21
183.669188278894
 72
     1
 10
41.42050620419202
 20
183.669188278894
 11
41.92050620853819
 21
186.6691883049711
 72
     1
 10
41.92050620853819
 20
186.6691883049711
 11
40.92050619984585
 21
186.6691883049711
 97
        0
 75
     0
 76
     1
 98
        0
  0
LINE
  5
75
330
72
100
AcDbEntity
  8
Default
  6
Continuous
 62
   176
370
     9
100
AcDbLine
 10
69.4242770622
 20
236.1691866398
 30
0.0
 11
39.9205061912
 21
236.1691866398
 31
0.0
  0
LINE
  5
76
330
72
100
AcDbEntity
  8
Default
  6
Continuous
 62
   176
370
     9
100
AcDbLine
 10
82.9242770622
 20
183.6691866398
 30
0.0
 11
39.9205061912
 21
183.6691866398
 31
0.0
  0
LINE
  5
77
330
72
100
AcDbEntity
  8
Default
  6
Continuous
 62
   176
370
     9
100
AcDbLine
 10
41.4205062042
 20
236.1691866398
 30
0.0
 11
41.4205062042
 21
183.6691882789
 31
0.0
  0
TEXT
  5
78
330
72
100
AcDbEntity
  8
Default
  6
Continuous
 62
   176
370
     9
100
AcDbText
 10
40.6705062042
 20
207.0214601866
 30
0.0
 40
3.0
  1
52,5
 50
90.0
  7
SEACAD_seiso_ttf
 11
37.6705062042
 21
207.0214601866
 31
0.0
100
AcDbText
 73
     3
  0
ENDBLK
  5
7A
330
72
100
AcDbEntity
  8
0
100
AcDbBlockEnd
  0
BLOCK
  5
85
330
7D
100
AcDbEntity
  8
0
100
AcDbBlockBegin
  2
DMBLK23
 70
     0
 71
     0
 10
0.0
 20
0.0
 30
0.0
  3
DMBLK23
  1

  0
HATCH
  5
7E
330
7D
100
AcDbEntity
  8
Default
  6
Continuous
 62
   176
370
     9
100
AcDbHatch
 10
0.0
 20
0.0
 30
0.0
210
0.0
220
0.0
230
1.0
  2
SOLID
 70
     1
 71
     0
 91
        1
 92
        1
 93
        3
 72
     1
 10
184.719708688626
 20
187.1691866658433
 11
183.7197086799337
 21
187.1691866658433
 72
     1
 10
183.7197086799337
 20
187.1691866658433
 11
184.2197086842798
 21
184.1691866397663
 72
     1
 10
184.2197086842799
 20
184.1691866397663
 11
184.719708688626
 21
187.1691866658433
 97
        0
 75
     0
 76
     1
 98
        0
  0
HATCH
  5
7F
330
7D
100
AcDbEntity
  8
Default
  6
Continuous
 62
   176
370
     9
100
AcDbHatch
 10
0.0
 20
0.0
 30
0.0
210
0.0
220
0.0
230
1.0
  2
SOLID
 70
     1
 71
     0
 91
        1
 92
        1
 93
        3
 72
     1
 10
184.719708688626
 20
199.1691858388289
 11
184.2197086842799
 21
202.1691858649059
 72
     1
 10
184.2197086842799
 20
202.1691858649059
 11
183.7197086799337
 21
199.1691858388289
 72
     1
 10
183.7197086799337
 20
199.1691858388289
 11
184.719708688626
 21
199.1691858388289
 97
        0
 75
     0
 76
     1
 98
        0
  0
LINE
  5
80
330
7D
100
AcDbEntity
  8
Default
  6
Continuous
 62
   176
370
     9
100
AcDbLine
 10
170.1302500622
 20
184.1691866398
 30
0.0
 11
185.7197086973
 21
184.1691866398
 31
0.0
  0
LINE
  5
81
330
7D
100
AcDbEntity
  8
Default
  6
Continuous
 62
   176
370
     9
100
AcDbLine
 10
170.1302500622
 20
202.1691866398
 30
0.0
 11
185.7197086973
 21
202.1691866398
 31
0.0
  0
LINE
  5
82
330
7D
100
AcDbEntity
  8
Default
  6
Continuous
 62
   176
370
     9
100
AcDbLine
 10
184.2197086843
 20
184.1691866398
 30
0.0
 11
184.2197086843
 21
202.1691858649
 31
0.0
  0
TEXT
  5
83
330
7D
100
AcDbEntity
  8
Default
  6
Continuous
 62
   176
370
     9
100
AcDbText
 10
183.4697086843
 20
193.421310111
 30
0.0
 40
3.0
  1
18
 50
90.0
  7
SEACAD_seiso_ttf
 11
180.4697086843
 21
193.421310111
 31
0.0
100
AcDbText
 73
     3
  0
TEXT
  5
84
330
7D
100
AcDbEntity
  8
Default
  6
Continuous
 62
   176
370
     9
100
AcDbText
 10
183.4697086843
 20
189.7806987573
 30
0.0
 40
3.0
  1
O
 50
90.0
  7
SEACAD_semeci1_ttf
 11
180.4697086843
 21
189.7806987573
 31
0.0
100
AcDbText
 73
     3
  0
ENDBLK
  5
86
330
7D
100
AcDbEntity
  8
0
100
AcDbBlockEnd
  0
BLOCK
  5
90
330
88
100
AcDbEntity
  8
0
100
AcDbBlockBegin
  2
DMBLK24
 70
     0
 71
     0
 10
0.0
 20
0.0
 30
0.0
  3
DMBLK24
  1

  0
HATCH
  5
89
330
88
100
AcDbEntity
  8
Default
  6
Continuous
 62
   176
370
     9
100
AcDbHatch
 10
0.0
 20
0.0
 30
0.0
210
0.0
220
0.0
230
1.0
  2
SOLID
 70
     1
 71
     0
 91
        1
 92
        1
 93
        3
 72
     1
 10
55.18655548168172
 20
272.3920350594872
 11
52.18655545560468
 21
271.892035055141
 72
     1
 10
52.18655545560468
 20
271.892035055141
 11
55.18655548168172
 21
271.3920350507948
 72
     1
 10
55.18655548168172
 20
271.3920350507948
 11
55.18655548168172
 21
272.3920350594872
 97
        0
 75
     0
 76
     1
 98
        0
  0
HATCH
  5
8A
330
88
100
AcDbEntity
  8
Default
  6
Continuous
 62
   176
370
     9
100
AcDbHatch
 10
0.0
 20
0.0
 30
0.0
210
0.0
220
0.0
230
1.0
  2
SOLID
 70
     1
 71
     0
 91
        1
 92
        1
 93
        3
 72
     1
 10
64.73294621629466
 20
272.3920350594872
 11
64.73294621629466
 21
271.3920350507948
 72
     1
 10
64.73294621629466
 20
271.3920350507948
 11
67.7329462423717
 21
271.892035055141
 72
     1
 10
67.7329462423717
 20
271.892035055141
 11
64.73294621629466
 21
272.3920350594872
 97
        0
 75
     0
 76
     1
 98
        0
  0
LINE
  5
8B
330
88
100
AcDbEntity
  8
Default
  6
Continuous
 62
   176
370
     9
100
AcDbLine
 10
52.1865554556
 20
245.1691866398
 30
0.0
 11
52.1865554556
 21
273.3920350682
 31
0.0
  0
LINE
  5
8C
330
88
100
AcDbEntity
  8
Default
  6
Continuous
 62
   176
370
     9
100
AcDbLine
 10
67.7329459883
 20
245.3605177137
 30
0.0
 11
67.7329459883
 21
273.3920350682
 31
0.0
  0
LINE
  5
8D
330
88
100
AcDbEntity
  8
Default
  6
Continuous
 62
   176
370
     9
100
AcDbLine
 10
52.1865554556
 20
271.8920350551
 30
0.0
 11
67.7329462424
 21
271.8920350551
 31
0.0
  0
TEXT
  5
8E
330
88
100
AcDbEntity
  8
Default
  6
Continuous
 62
   176
370
     9
100
AcDbText
 10
60.2459656168
 20
272.6420350551
 30
0.0
 40
3.0
  1
16
  7
SEACAD_seiso_ttf
 11
60.2459656168
 21
275.6420350551
 31
0.0
100
AcDbText
 73
     3
  0
TEXT
  5
8F
330
88
100
AcDbEntity
  8
Default
  6
Continuous
 62
   176
370
     9
100
AcDbText
 10
56.605354263
 20
272.6420350551
 30
0.0
 40
3.0
  1
O
  7
SEACAD_semeci1_ttf
 11
56.605354263
 21
275.6420350551
 31
0.0
100
AcDbText
 73
     3
  0
ENDBLK
  5
91
330
88
100
AcDbEntity
  8
0
100
AcDbBlockEnd
  0
BLOCK
  5
9B
330
93
100
AcDbEntity
  8
0
100
AcDbBlockBegin
  2
DMBLK25
 70
     0
 71
     0
 10
0.0
 20
0.0
 30
0.0
  3
DMBLK25
  1

  0
HATCH
  5
94
330
93
100
AcDbEntity
  8
Default
  6
Continuous
 62
   176
370
     9
100
AcDbHatch
 10
0.0
 20
0.0
 30
0.0
210
0.0
220
0.0
230
1.0
  2
SOLID
 70
     1
 71
     0
 91
        1
 92
        1
 93
        3
 72
     1
 10
52.92427703616447
 20
263.7481572850103
 11
52.92427703616447
 21
262.7481572763179
 72
     1
 10
52.92427703616447
 20
262.7481572763179
 11
55.9242770622415
 21
263.2481572806641
 72
     1
 10
55.9242770622415
 20
263.2481572806641
 11
52.92427703616447
 21
263.7481572850103
 97
        0
 75
     0
 76
     1
 98
        0
  0
HATCH
  5
95
330
93
100
AcDbEntity
  8
Default
  6
Continuous
 62
   176
370
     9
100
AcDbHatch
 10
0.0
 20
0.0
 30
0.0
210
0.0
220
0.0
230
1.0
  2
SOLID
 70
     1
 71
     0
 91
        1
 92
        1
 93
        3
 72
     1
 10
66.92427708831852
 20
263.7481572850103
 11
63.92427706224149
 21
263.2481572806641
 72
     1
 10
63.92427706224149
 20
263.2481572806641
 11
66.92427708831852
 21
262.7481572763179
 72
     1
 10
66.92427708831852
 20
262.7481572763179
 11
66.92427708831852
 21
263.7481572850103
 97
        0
 75
     0
 76
     1
 98
        0
  0
LINE
  5
96
330
93
100
AcDbEntity
  8
Default
  6
Continuous
 62
   176
370
     9
100
AcDbLine
 10
55.9242770622
 20
245.6691866398
 30
0.0
 11
55.9242770622
 21
264.7481572937
 31
0.0
  0
LINE
  5
97
330
93
100
AcDbEntity
  8
Default
  6
Continuous
 62
   176
370
     9
100
AcDbLine
 10
63.9242770622
 20
245.6691866398
 30
0.0
 11
63.9242770622
 21
264.7481572937
 31
0.0
  0
LINE
  5
98
330
93
100
AcDbEntity
  8
Default
  6
Continuous
 62
   176
370
     9
100
AcDbLine
 10
49.9242770101
 20
263.2481572807
 30
0.0
 11
69.9242774944
 21
263.2481572807
 31
0.0
  0
TEXT
  5
99
330
93
100
AcDbEntity
  8
Default
  6
Continuous
 62
   176
370
     9
100
AcDbText
 10
60.8227885662
 20
263.9981572807
 30
0.0
 40
3.0
  1
8
  7
SEACAD_seiso_ttf
 11
60.8227885662
 21
266.9981572807
 31
0.0
100
AcDbText
 73
     3
  0
TEXT
  5
9A
330
93
100
AcDbEntity
  8
Default
  6
Continuous
 62
   176
370
     9
100
AcDbText
 10
57.1166750291
 20
263.9981572807
 30
0.0
 40
3.0
  1
q
  7
SEACAD_semeci1_ttf
 11
57.1166750291
 21
266.9981572807
 31
0.0
100
AcDbText
 73
     3
  0
ENDBLK
  5
9C
330
93
100
AcDbEntity
  8
0
100
AcDbBlockEnd
  0
BLOCK
  5
A5
330
9E
100
AcDbEntity
  8
0
100
AcDbBlockBegin
  2
DMBLK26
 70
     0
 71
     0
 10
0.0
 20
0.0
 30
0.0
  3
DMBLK26
  1

  0
HATCH
  5
9F
330
9E
100
AcDbEntity
  8
Default
  6
Continuous
 62
   176
370
     9
100
AcDbHatch
 10
0.0
 20
0.0
 30
0.0
210
0.0
220
0.0
230
1.0
  2
SOLID
 70
     1
 71
     0
 91
        1
 92
        1
 93
        3
 72
     1
 10
40.92050619984585
 20
239.1691866658433
 11
41.42050620419202
 21
236.1691866397663
 72
     1
 10
41.42050620419202
 20
236.1691866397663
 11
41.92050620853819
 21
239.1691866658433
 72
     1
 10
41.92050620853819
 20
239.1691866658433
 11
40.92050619984585
 21
239.1691866658433
 97
        0
 75
     0
 76
     1
 98
        0
  0
HATCH
  5
A0
330
9E
100
AcDbEntity
  8
Default
  6
Continuous
 62
   176
370
     9
100
AcDbHatch
 10
0.0
 20
0.0
 30
0.0
210
0.0
220
0.0
230
1.0
  2
SOLID
 70
     1
 71
     0
 91
        1
 92
        1
 93
        3
 72
     1
 10
40.92050619984585
 20
242.6691863082155
 11
41.92050620853819
 21
242.6691863082155
 72
     1
 10
41.92050620853819
 20
242.6691863082155
 11
41.42050620419202
 21
245.6691863342925
 72
     1
 10
41.42050620419202
 20
245.6691863342925
 11
40.92050619984585
 21
242.6691863082155
 97
        0
 75
     0
 76
     1
 98
        0
  0
LINE
  5
A1
330
9E
100
AcDbEntity
  8
Default
  6
Continuous
 62
   176
370
     9
100
AcDbLine
 10
69.4242770622
 20
236.1691866398
 30
0.0
 11
39.9205061912
 21
236.1691866398
 31
0.0
  0
LINE
  5
A2
330
9E
100
AcDbEntity
  8
Default
  6
Continuous
 62
   176
370
     9
100
AcDbLine
 10
59.9242770622
 20
245.6691866398
 30
0.0
 11
39.9205061912
 21
245.6691866398
 31
0.0
  0
LINE
  5
A3
330
9E
100
AcDbEntity
  8
Default
  6
Continuous
 62
   176
370
     9
100
AcDbLine
 10
41.4205062042
 20
236.1691866398
 30
0.0
 11
41.4205062042
 21
245.6691863343
 31
0.0
  0
TEXT
  5
A4
330
9E
100
AcDbEntity
  8
Default
  6
Continuous
 62
   176
370
     9
100
AcDbText
 10
40.6705062042
 20
238.8737319416
 30
0.0
 40
3.0
  1
9,5
 50
90.0
  7
SEACAD_seiso_ttf
 11
37.6705062042
 21
238.8737319416
 31
0.0
100
AcDbText
 73
     3
  0
ENDBLK
  5
A6
330
9E
100
AcDbEntity
  8
0
100
AcDbBlockEnd
  0
BLOCK
  5
AE
330
A7
100
AcDbEntity
  8
0
100
AcDbBlockBegin
  2
GDimGGroup
 70
     0
 71
     0
 10
0.0
 20
0.0
 30
0.0
  3
GDimGGroup
  1

  0
HATCH
  5
A9
330
A7
100
AcDbEntity
  8
Default
  6
Continuous
 62
   176
370
     9
100
AcDbHatch
 10
0.0
 20
0.0
 30
0.0
210
0.0
220
0.0
230
1.0
  2
SOLID
 70
     1
 71
     0
 91
        1
 92
        1
 93
        3
 72
     1
 10
53.42427708831853
 20
279.5422264937523
 11
50.4242770622415
 21
279.0422264894061
 72
     1
 10
50.4242770622415
 20
279.0422264894061
 11
53.42427708831853
 21
278.5422264850599
 72
     1
 10
53.42427708831853
 20
278.5422264850599
 11
53.42427708831853
 21
279.5422264937523
 97
        0
 75
     0
 76
     1
 98
        0
  0
LINE
  5
AA
330
A7
100
AcDbEntity
  8
Default
  6
Continuous
 62
   176
370
     9
100
AcDbLine
 10
50.4242770622
 20
228.4401666781
 30
0.0
 11
50.4242770622
 21
280.5422265024
 31
0.0
  0
LINE
  5
AB
330
A7
100
AcDbEntity
  8
Default
  6
Continuous
 62
   176
370
     9
100
AcDbLine
 10
50.4242770622
 20
279.0422264894
 30
0.0
 11
59.9242767568
 21
279.0422264894
 31
0.0
  0
TEXT
  5
AC
330
A7
100
AcDbEntity
  8
Default
  6
Continuous
 62
   176
370
     9
100
AcDbText
 10
55.8198801708
 20
279.7922264894
 30
0.0
 40
3.0
  1
O
  7
SEACAD_semeci1_ttf
 11
55.8198801708
 21
282.7922264894
 31
0.0
100
AcDbText
 73
     3
  0
TEXT
  5
AD
330
A7
100
AcDbEntity
  8
Default
  6
Continuous
 62
   176
370
     9
100
AcDbText
 10
60.9604915245
 20
279.7922264894
 30
0.0
 40
3.0
  1
19
  7
SEACAD_seiso_ttf
 11
60.9604915245
 21
282.7922264894
 31
0.0
100
AcDbText
 73
     3
  0
ENDBLK
  5
AF
330
A7
100
AcDbEntity
  8
0
100
AcDbBlockEnd
  0
ENDSEC
  0
SECTION
  2
ENTITIES
  0
TEXT
  5
2B
330
1F
100
AcDbEntity
  8
Default
  6
Continuous
 62
     7
100
AcDbText
 10
87.9489409185
 20
101.3809332329
 30
0.0
 40
5.0
  1
32.227
  7
SEACAD_arial_ttfI
 11
87.9489409185
 21
106.3809332329
 31
0.0
100
AcDbText
 73
     3
  0
INSERT
  5
2E
330
1F
100
AcDbEntity
  8
0
100
AcDbBlockReference
  2
SE
 10
0.0
 20
0.0
 30
0.0
  0
DIMENSION
  5
67
330
1F
100
AcDbEntity
  8
Default
  6
Continuous
 62
   176
370
     9
100
AcDbDimension
  2
DMBLK21
 10
174.2242764306
 20
160.3133913537
 30
0.0
 11
112.3242780815
 21
160.3133913537
 31
0.0
 70
   160
  1
\A1;<>
 71
     5
 42
-1.0
  3
DIN
100
AcDbAlignedDimension
 13
50.4242770622
 23
228.4401666781
 33
0.0
 14
174.2242764306
 24
176.2188450175
 34
0.0
100
AcDbRotatedDimension
  0
DIMENSION
  5
71
330
1F
100
AcDbEntity
  8
Default
  6
Continuous
 62
   176
370
     9
100
AcDbDimension
  2
DMBLK22
 10
41.4205062042
 20
183.6691866398
 30
0.0
 11
41.4205062042
 21
209.9191874593
 31
0.0
 70
   160
  1
\A1;<>
 71
     5
 42
-1.0
  3
DIN
100
AcDbAlignedDimension
 13
69.4242770622
 23
236.1691866398
 33
0.0
 14
82.9242770622
 24
183.6691866398
 34
0.0
 50
90.0
100
AcDbRotatedDimension
1001
ACAD
1000
DSTYLE
1002
{
1070
   271
1070
     2
1070
   272
1070
     2
1070
     0
1002
}
  0
DIMENSION
  5
7B
330
1F
100
AcDbEntity
  8
Default
  6
Continuous
 62
   176
370
     9
100
AcDbDimension
  2
DMBLK23
 10
184.2197086843
 20
184.1691866398
 30
0.0
 11
184.2197086843
 21
193.1691862523
 31
0.0
 70
   161
  1
\A1;%%C <>
 71
     5
 42
-1.0
  3
DIN
100
AcDbAlignedDimension
 13
170.1302500622
 23
184.1691866398
 33
0.0
 14
170.1302500622
 24
202.1691866398
 34
0.0
1001
ACAD
1000
DSTYLE
1002
{
1070
   271
1070
     2
1070
   272
1070
     2
1070
     0
1002
}
  0
DIMENSION
  5
87
330
1F
100
AcDbEntity
  8
Default
  6
Continuous
 62
   176
370
     9
100
AcDbDimension
  2
DMBLK24
 10
67.7329459883
 20
271.8920350551
 30
0.0
 11
59.959750849
 21
271.8920350551
 31
0.0
 70
   160
  1
\A1;%%C <>
 71
     5
 42
-1.0
  3
DIN
100
AcDbAlignedDimension
 13
52.1865554556
 23
245.1691866398
 33
0.0
 14
67.7329459883
 24
245.3605177137
 34
0.0
100
AcDbRotatedDimension
  0
DIMENSION
  5
92
330
1F
100
AcDbEntity
  8
Default
  6
Continuous
 62
   176
370
     9
100
AcDbDimension
  2
DMBLK25
 10
55.9242770622
 20
263.2481572807
 30
0.0
 11
59.9242772522
 21
263.2481572807
 31
0.0
 70
   161
  1
\A1;{\Fsemeca1.ttf;q} <>
 71
     5
 42
-1.0
  3
DIN
100
AcDbAlignedDimension
 13
55.9242770622
 23
245.6691866398
 33
0.0
 14
63.9242770622
 24
245.6691866398
 34
0.0
1001
ACAD
1000
DSTYLE
1002
{
1070
   271
1070
     2
1070
   272
1070
     2
1070
     0
1002
}
  0
DIMENSION
  5
9D
330
1F
100
AcDbEntity
  8
Default
  6
Continuous
 62
   176
370
     9
100
AcDbDimension
  2
DMBLK26
 10
41.4205062042
 20
245.6691866398
 30
0.0
 11
41.4205062042
 21
240.919186487
 31
0.0
 70
   160
  1
\A1;<>
 71
     5
 42
-1.0
  3
DIN
100
AcDbAlignedDimension
 13
69.4242770622
 23
236.1691866398
 33
0.0
 14
59.9242770622
 24
245.6691866398
 34
0.0
 50
90.0
100
AcDbRotatedDimension
1001
ACAD
1000
DSTYLE
1002
{
1070
   271
1070
     2
1070
   272
1070
     2
1070
     0
1002
}
  0
INSERT
  5
A8
330
1F
100
AcDbEntity
  8
Default
100
AcDbBlockReference
  2
GDimGGroup
 10
0.0
 20
0.0
 30
0.0
  0
ENDSEC
  0
SECTION
  2
OBJECTS
  0
DICTIONARY
  5
C
330
0
100
AcDbDictionary
281
     1
  3
ACAD_GROUP
350
D
  3
ACAD_LAYOUT
350
1A
  3
ACAD_MLINESTYLE
350
17
  3
ACAD_PLOTSETTINGS
350
19
  3
ACAD_PLOTSTYLENAME
350
E
  0
DICTIONARY
  5
D
102
{ACAD_REACTORS
330
C
102
}
330
C
100
AcDbDictionary
281
     1
  0
DICTIONARY
  5
1A
102
{ACAD_REACTORS
330
C
102
}
330
C
100
AcDbDictionary
281
     1
  3
Layout1
350
1E
  3
Model
350
22
  0
DICTIONARY
  5
17
102
{ACAD_REACTORS
330
C
102
}
330
C
100
AcDbDictionary
281
     1
  3
Standard
350
18
  0
DICTIONARY
  5
19
102
{ACAD_REACTORS
330
C
102
}
330
C
100
AcDbDictionary
281
     1
  0
ACDBDICTIONARYWDFLT
  5
E
102
{ACAD_REACTORS
330
C
102
}
330
C
100
AcDbDictionary
281
     1
  3
Normal
350
F
100
AcDbDictionaryWithDefault
340
F
  0
LAYOUT
  5
1E
102
{ACAD_REACTORS
330
1A
102
}
330
1A
100
AcDbPlotSettings
  1

  2
none_device
  4

  6

 40
0.0
 41
0.0
 42
0.0
 43
0.0
 44
0.0
 45
0.0
 46
0.0
 47
0.0
 48
0.0
 49
0.0
140
0.0
141
0.0
142
1.0
143
1.0
 70
   688
 72
     0
 73
     0
 74
     5
  7

 75
    16
147
1.0
148
0.0
149
0.0
100
AcDbLayout
  1
Layout1
 70
     1
 71
     1
 10
0.0
 20
0.0
 11
210.0
 21
297.0
 12
0.0
 22
0.0
 32
0.0
 14
0.0
 24
0.0
 34
0.0
 15
210.0
 25
297.0
 35
0.0
146
0.0
 13
0.0
 23
0.0
 33
0.0
 16
1.0
 26
0.0
 36
0.0
 17
0.0
 27
1.0
 37
0.0
 76
     0
330
1B
  0
LAYOUT
  5
22
102
{ACAD_REACTORS
330
1A
102
}
330
1A
100
AcDbPlotSettings
  1

  2
none_device
  4

  6

 40
0.0
 41
0.0
 42
0.0
 43
0.0
 44
0.0
 45
0.0
 46
0.0
 47
0.0
 48
0.0
 49
0.0
140
0.0
141
0.0
142
1.0
143
1.0
 70
  1712
 72
     0
 73
     0
 74
     0
  7

 75
     0
147
1.0
148
0.0
149
0.0
100
AcDbLayout
  1
Model
 70
     1
 71
     0
 10
0.0
 20
0.0
 11
210.0
 21
297.0
 12
0.0
 22
0.0
 32
0.0
 14
0.0
 24
0.0
 34
0.0
 15
210.0
 25
297.0
 35
0.0
146
0.0
 13
0.0
 23
0.0
 33
0.0
 16
1.0
 26
0.0
 36
0.0
 17
0.0
 27
1.0
 37
0.0
 76
     0
330
1F
  0
MLINESTYLE
  5
18
102
{ACAD_REACTORS
330
17
102
}
330
17
100
AcDbMlineStyle
  2
Standard
 70
     0
  3

 62
   256
 51
90.0
 52
90.0
 71
     2
 49
0.5
 62
   256
  6
BYLAYER
 49
-0.5
 62
   256
  6
BYLAYER
  0
ACDBPLACEHOLDER
  5
F
102
{ACAD_REACTORS
330
E
102
}
330
E
  0
ENDSEC
  0
EOF
