  0
SECTION
  2
HEADER
  9
$ACADVER
  1
AC1015
  9
$ACADMAINTVER
 70
     6
  9
$DWGCODEPAGE
  3
ANSI_1252
  9
$INSBASE
 10
0.0
 20
0.0
 30
0.0
  9
$EXTMIN
 10
0.0
 20
0.0
 30
0.0
  9
$EXTMAX
 10
210.0
 20
297.0
 30
0.0
  9
$LIMMIN
 10
0.0
 20
0.0
  9
$LIMMAX
 10
210.0
 20
297.0
  9
$ORTHOMODE
 70
     0
  9
$REGENMODE
 70
     1
  9
$FILLMODE
 70
     1
  9
$QTEXTMODE
 70
     0
  9
$MIRRTEXT
 70
     1
  9
$LTSCALE
 40
1.0
  9
$ATTMODE
 70
     1
  9
$TEXTSIZE
 40
2.5
  9
$TRACEWID
 40
1.0
  9
$TEXTSTYLE
  7
Standard
  9
$CLAYER
  8
0
  9
$CELTYPE
  6
ByLayer
  9
$CECOLOR
 62
   256
  9
$CELTSCALE
 40
1.0
  9
$DISPSILH
 70
     0
  9
$DIMSCALE
 40
1.0
  9
$DIMASZ
 40
2.5
  9
$DIMEXO
 40
0.625
  9
$DIMDLI
 40
3.75
  9
$DIMRND
 40
0.0
  9
$DIMDLE
 40
0.0
  9
$DIMEXE
 40
1.25
  9
$DIMTP
 40
0.0
  9
$DIMTM
 40
0.0
  9
$DIMTXT
 40
2.5
  9
$DIMCEN
 40
2.5
  9
$DIMTSZ
 40
0.0
  9
$DIMTOL
 70
     0
  9
$DIMLIM
 70
     0
  9
$DIMTIH
 70
     0
  9
$DIMTOH
 70
     0
  9
$DIMSE1
 70
     0
  9
$DIMSE2
 70
     0
  9
$DIMTAD
 70
     1
  9
$DIMZIN
 70
     8
  9
$DIMBLK
  1

  9
$DIMASO
 70
     1
  9
$DIMSHO
 70
     1
  9
$DIMPOST
  1

  9
$DIMAPOST
  1

  9
$DIMALT
 70
     0
  9
$DIMALTD
 70
     3
  9
$DIMALTF
 40
0.0393700787
  9
$DIMLFAC
 40
1.0
  9
$DIMTOFL
 70
     1
  9
$DIMTVP
 40
0.0
  9
$DIMTIX
 70
     0
  9
$DIMSOXD
 70
     0
  9
$DIMSAH
 70
     0
  9
$DIMBLK1
  1

  9
$DIMBLK2
  1

  9
$DIMSTYLE
  2
ISO-25
  9
$DIMCLRD
 70
     0
  9
$DIMCLRE
 70
     0
  9
$DIMCLRT
 70
     0
  9
$DIMTFAC
 40
1.0
  9
$DIMGAP
 40
0.625
  9
$DIMJUST
 70
     0
  9
$DIMSD1
 70
     0
  9
$DIMSD2
 70
     0
  9
$DIMTOLJ
 70
     0
  9
$DIMTZIN
 70
     8
  9
$DIMALTZ
 70
     0
  9
$DIMALTTZ
 70
     0
  9
$DIMUPT
 70
     0
  9
$DIMDEC
 70
     2
  9
$DIMTDEC
 70
     2
  9
$DIMALTU
 70
     2
  9
$DIMALTTD
 70
     3
  9
$DIMTXSTY
  7
Standard
  9
$DIMAUNIT
 70
     0
  9
$DIMADEC
 70
     0
  9
$DIMALTRND
 40
0.0
  9
$DIMAZIN
 70
     0
  9
$DIMDSEP
 70
    44
  9
$DIMATFIT
 70
     3
  9
$DIMFRAC
 70
     0
  9
$DIMLDRBLK
  1

  9
$DIMLUNIT
 70
     2
  9
$DIMLWD
 70
    -2
  9
$DIMLWE
 70
    -2
  9
$DIMTMOVE
 70
     0
  9
$LUNITS
 70
     2
  9
$LUPREC
 70
     4
  9
$SKETCHINC
 40
1.0
  9
$FILLETRAD
 40
10.0
  9
$AUNITS
 70
     0
  9
$AUPREC
 70
     0
  9
$MENU
  1
.
  9
$ELEVATION
 40
0.0
  9
$PELEVATION
 40
0.0
  9
$THICKNESS
 40
0.0
  9
$LIMCHECK
 70
     0
  9
$CHAMFERA
 40
10.0
  9
$CHAMFERB
 40
10.0
  9
$CHAMFERC
 40
20.0
  9
$CHAMFERD
 40
0.0
  9
$SKPOLY
 70
     0
  9
$TDCREATE
 40
2455328.441613622
  9
$TDUCREATE
 40
2455328.358280289
  9
$TDUPDATE
 40
2455328.441613634
  9
$TDUUPDATE
 40
2455328.358280301
  9
$TDINDWG
 40
0.0000000116
  9
$TDUSRTIMER
 40
0.0000000116
  9
$USRTIMER
 70
     1
  9
$ANGBASE
 50
0.0
  9
$ANGDIR
 70
     0
  9
$PDMODE
 70
     0
  9
$PDSIZE
 40
0.0
  9
$PLINEWID
 40
0.0
  9
$SPLFRAME
 70
     0
  9
$SPLINETYPE
 70
     6
  9
$SPLINESEGS
 70
     8
  9
$HANDSEED
  5
F1
  9
$SURFTAB1
 70
     6
  9
$SURFTAB2
 70
     6
  9
$SURFTYPE
 70
     6
  9
$SURFU
 70
     6
  9
$SURFV
 70
     6
  9
$UCSBASE
  2

  9
$UCSNAME
  2

  9
$UCSORG
 10
0.0
 20
0.0
 30
0.0
  9
$UCSXDIR
 10
1.0
 20
0.0
 30
0.0
  9
$UCSYDIR
 10
0.0
 20
1.0
 30
0.0
  9
$UCSORTHOREF
  2

  9
$UCSORTHOVIEW
 70
     0
  9
$UCSORGTOP
 10
0.0
 20
0.0
 30
0.0
  9
$UCSORGBOTTOM
 10
0.0
 20
0.0
 30
0.0
  9
$UCSORGLEFT
 10
0.0
 20
0.0
 30
0.0
  9
$UCSORGRIGHT
 10
0.0
 20
0.0
 30
0.0
  9
$UCSORGFRONT
 10
0.0
 20
0.0
 30
0.0
  9
$UCSORGBACK
 10
0.0
 20
0.0
 30
0.0
  9
$PUCSBASE
  2

  9
$PUCSNAME
  2

  9
$PUCSORG
 10
0.0
 20
0.0
 30
0.0
  9
$PUCSXDIR
 10
1.0
 20
0.0
 30
0.0
  9
$PUCSYDIR
 10
0.0
 20
1.0
 30
0.0
  9
$PUCSORTHOREF
  2

  9
$PUCSORTHOVIEW
 70
     0
  9
$PUCSORGTOP
 10
0.0
 20
0.0
 30
0.0
  9
$PUCSORGBOTTOM
 10
0.0
 20
0.0
 30
0.0
  9
$PUCSORGLEFT
 10
0.0
 20
0.0
 30
0.0
  9
$PUCSORGRIGHT
 10
0.0
 20
0.0
 30
0.0
  9
$PUCSORGFRONT
 10
0.0
 20
0.0
 30
0.0
  9
$PUCSORGBACK
 10
0.0
 20
0.0
 30
0.0
  9
$USERI1
 70
     0
  9
$USERI2
 70
     0
  9
$USERI3
 70
     0
  9
$USERI4
 70
     0
  9
$USERI5
 70
     0
  9
$USERR1
 40
0.0
  9
$USERR2
 40
0.0
  9
$USERR3
 40
0.0
  9
$USERR4
 40
0.0
  9
$USERR5
 40
0.0
  9
$WORLDVIEW
 70
     1
  9
$SHADEDGE
 70
     3
  9
$SHADEDIF
 70
    70
  9
$TILEMODE
 70
     1
  9
$MAXACTVP
 70
    64
  9
$PINSBASE
 10
0.0
 20
0.0
 30
0.0
  9
$PLIMCHECK
 70
     0
  9
$PEXTMIN
 10
0.0
 20
0.0
 30
0.0
  9
$PEXTMAX
 10
210.0
 20
297.0
 30
0.0
  9
$PLIMMIN
 10
0.0
 20
0.0
  9
$PLIMMAX
 10
210.0
 20
297.0
  9
$UNITMODE
 70
     0
  9
$VISRETAIN
 70
     1
  9
$PLINEGEN
 70
     0
  9
$PSLTSCALE
 70
     1
  9
$TREEDEPTH
 70
  3020
  9
$CMLSTYLE
  2
Standard
  9
$CMLJUST
 70
     0
  9
$CMLSCALE
 40
20.0
  9
$PROXYGRAPHICS
 70
     1
  9
$MEASUREMENT
 70
     1
  9
$CELWEIGHT
370
    -1
  9
$ENDCAPS
280
     0
  9
$JOINSTYLE
280
     0
  9
$LWDISPLAY
290
     0
  9
$INSUNITS
 70
     4
  9
$HYPERLINKBASE
  1

  9
$STYLESHEET
  1

  9
$XEDIT
290
     1
  9
$CEPSNTYPE
380
     0
  9
$PSTYLEMODE
290
     1
  9
$FINGERPRINTGUID
  2
{E93BB7F2-E1BB-4DCA-AC6C-D0330148B110}
  9
$VERSIONGUID
  2
{FAEB1C32-E019-11D5-929B-00C0DF256EC4}
  9
$EXTNAMES
290
     1
  9
$PSVPSCALE
 40
0.0
  9
$OLESTARTUP
290
     0
  0
ENDSEC
  0
SECTION
  2
CLASSES
  0
CLASS
  1
ACDBDICTIONARYWDFLT
  2
AcDbDictionaryWithDefault
  3
ObjectDBX Classes
 90
        0
280
     0
281
     0
  0
CLASS
  1
VISUALSTYLE
  2
AcDbVisualStyle
  3
ObjectDBX Classes
 90
     4095
280
     0
281
     0
  0
CLASS
  1
SCALE
  2
AcDbScale
  3
ObjectDBX Classes
 90
     1153
280
     0
281
     0
  0
CLASS
  1
DICTIONARYVAR
  2
AcDbDictionaryVar
  3
ObjectDBX Classes
 90
        0
280
     0
281
     0
  0
CLASS
  1
ACDBPLACEHOLDER
  2
AcDbPlaceHolder
  3
ObjectDBX Classes
 90
        0
280
     0
281
     0
  0
CLASS
  1
LAYOUT
  2
AcDbLayout
  3
ObjectDBX Classes
 90
        0
280
     0
281
     0
  0
ENDSEC
  0
SECTION
  2
TABLES
  0
TABLE
  2
VPORT
  5
8
330
0
100
AcDbSymbolTable
 70
     1
  0
VPORT
  5
29
330
8
100
AcDbSymbolTableRecord
100
AcDbViewportTableRecord
  2
*Active
 70
     0
 10
0.0
 20
0.0
 11
1.0
 21
1.0
 12
344.1869158879
 22
148.5
 13
0.0
 23
0.0
 14
10.0
 24
10.0
 15
10.0
 25
10.0
 16
0.0
 26
0.0
 36
1.0
 17
0.0
 27
0.0
 37
0.0
 40
297.0
 41
1.9729729729
 42
50.0
 43
0.0
 44
0.0
 50
0.0
 51
0.0
 71
     0
 72
   100
 73
     1
 74
     3
 75
     0
 76
     0
 77
     0
 78
     0
281
     0
 65
     1
110
0.0
120
0.0
130
0.0
111
1.0
121
0.0
131
0.0
112
0.0
122
1.0
132
0.0
 79
     0
146
0.0
  0
ENDTAB
  0
TABLE
  2
LTYPE
  5
5
330
0
100
AcDbSymbolTable
 70
     2
  0
LTYPE
  5
14
330
5
100
AcDbSymbolTableRecord
100
AcDbLinetypeTableRecord
  2
ByBlock
 70
     0
  3

 72
    65
 73
     0
 40
0.0
  0
LTYPE
  5
15
330
5
100
AcDbSymbolTableRecord
100
AcDbLinetypeTableRecord
  2
ByLayer
 70
     0
  3

 72
    65
 73
     0
 40
0.0
  0
LTYPE
  5
16
330
5
100
AcDbSymbolTableRecord
100
AcDbLinetypeTableRecord
  2
Continuous
 70
     0
  3
Solid line
 72
    65
 73
     0
 40
0.0
  0
LTYPE
  5
63
330
5
100
AcDbSymbolTableRecord
100
AcDbLinetypeTableRecord
  2
CENTER2
 70
     0
  3
Center (.5x) ___ _ ___ _ ___ _ ___ _ ___ _ ___
 72
    65
 73
     4
 40
28.575
 49
19.05
 74
     4
 75
     0
340
0
 46
0.0
 50
0.0
 44
0.0
 45
0.0
 49
-3.175
 74
     4
 75
     0
340
0
 46
0.0
 50
0.0
 44
0.0
 45
0.0
 49
3.175
 74
     4
 75
     0
340
0
 46
0.0
 50
0.0
 44
0.0
 45
0.0
 49
-3.175
 74
     4
 75
     0
340
0
 46
0.0
 50
0.0
 44
0.0
 45
0.0
  0
ENDTAB
  0
TABLE
  2
LAYER
  5
2
330
0
100
AcDbSymbolTable
 70
     4
  0
LAYER
  5
10
330
2
100
AcDbSymbolTableRecord
100
AcDbLayerTableRecord
  2
0
 70
     0
 62
     7
  6
Continuous
370
    -3
390
F
  0
LAYER
  5
5F
330
2
100
AcDbSymbolTableRecord
100
AcDbLayerTableRecord
  2
Default
 70
     0
 62
     7
  6
Continuous
370
    -3
390
F
  0
LAYER
  5
62
330
2
100
AcDbSymbolTableRecord
100
AcDbLayerTableRecord
  2
DV1_Standard
 70
     0
 62
     7
  6
Continuous
370
    -3
390
F
  0
LAYER
  5
69
330
2
100
AcDbSymbolTableRecord
100
AcDbLayerTableRecord
  2
MEGA_001513
 70
     0
 62
     7
  6
Continuous
370
    -3
390
F
  0
ENDTAB
  0
TABLE
  2
STYLE
  5
3
330
0
100
AcDbSymbolTable
 70
     3
  0
STYLE
  5
11
330
3
100
AcDbSymbolTableRecord
100
AcDbTextStyleTableRecord
  2
Standard
 70
     0
 40
0.0
 41
1.0
 50
0.0
 71
     0
 42
2.5
  3
txt
  4

  0
STYLE
  5
5D
330
3
100
AcDbSymbolTableRecord
100
AcDbTextStyleTableRecord
  2
SEACAD_seiso_ttf
 70
     0
 40
0.0
 41
1.0
 50
0.0
 71
     0
 42
0.2
  3
seiso.ttf
  4

  0
STYLE
  5
CA
330
3
100
AcDbSymbolTableRecord
100
AcDbTextStyleTableRecord
  2
SEACAD_semeci1_ttf
 70
     0
 40
0.0
 41
1.0
 50
0.0
 71
     0
 42
0.2
  3
semeci1.ttf
  4

  0
ENDTAB
  0
TABLE
  2
VIEW
  5
6
330
0
100
AcDbSymbolTable
 70
     0
  0
ENDTAB
  0
TABLE
  2
UCS
  5
7
330
0
100
AcDbSymbolTable
 70
     0
  0
ENDTAB
  0
TABLE
  2
APPID
  5
9
330
0
100
AcDbSymbolTable
 70
     1
  0
APPID
  5
12
330
9
100
AcDbSymbolTableRecord
100
AcDbRegAppTableRecord
  2
ACAD
 70
     0
  0
ENDTAB
  0
TABLE
  2
DIMSTYLE
  5
A
330
0
100
AcDbSymbolTable
 70
     3
100
AcDbDimStyleTable
  0
DIMSTYLE
105
27
330
A
100
AcDbSymbolTableRecord
100
AcDbDimStyleTableRecord
  2
ISO-25
 70
     0
 41
2.5
 42
0.625
 43
3.75
 44
1.25
 73
     0
 74
     0
 77
     1
 78
     8
140
2.5
141
2.5
143
0.0393700787
147
0.625
171
     3
172
     1
271
     2
272
     2
274
     3
278
    44
283
     0
284
     8
340
11
  0
DIMSTYLE
105
8E
330
A
100
AcDbSymbolTableRecord
100
AcDbDimStyleTableRecord
  2
Standard
 70
     0
340
11
  0
DIMSTYLE
105
A0
102
{ACAD_REACTORS
330
A1
330
AB
330
B5
330
BF
330
C9
330
D5
330
E0
102
}
330
A
100
AcDbSymbolTableRecord
100
AcDbDimStyleTableRecord
  2
DIN
 70
     0
 41
3.0
 42
0.0
 44
1.5
 73
     0
 74
     0
 77
     1
 78
     8
140
3.0
141
1.5
147
1.5
172
     1
173
     1
271
     0
272
     0
278
    44
284
     8
340
5D
343
9B
344
9B
  0
ENDTAB
  0
TABLE
  2
BLOCK_RECORD
  5
1
330
0
100
AcDbSymbolTable
 70
    12
  0
BLOCK_RECORD
  5
1F
330
1
100
AcDbSymbolTableRecord
100
AcDbBlockTableRecord
  2
*Model_Space
340
22
  0
BLOCK_RECORD
  5
1B
330
1
100
AcDbSymbolTableRecord
100
AcDbBlockTableRecord
  2
*Paper_Space
340
1E
  0
BLOCK_RECORD
  5
60
330
1
100
AcDbSymbolTableRecord
100
AcDbBlockTableRecord
  2
SE
340
0
102
{BLKREFS
331
61
102
}
  0
BLOCK_RECORD
  5
8F
330
1
100
AcDbSymbolTableRecord
100
AcDbBlockTableRecord
  2
_OBLIQUE
340
0
  0
BLOCK_RECORD
  5
93
330
1
100
AcDbSymbolTableRecord
100
AcDbBlockTableRecord
  2
_DOT
340
0
  0
BLOCK_RECORD
  5
9B
330
1
100
AcDbSymbolTableRecord
100
AcDbBlockTableRecord
  2
_SE_FILLED
340
0
  0
BLOCK_RECORD
  5
A2
330
1
100
AcDbSymbolTableRecord
100
AcDbBlockTableRecord
  2
DMBLK1
340
0
  0
BLOCK_RECORD
  5
AC
330
1
100
AcDbSymbolTableRecord
100
AcDbBlockTableRecord
  2
DMBLK2
340
0
  0
BLOCK_RECORD
  5
B6
330
1
100
AcDbSymbolTableRecord
100
AcDbBlockTableRecord
  2
DMBLK3
340
0
  0
BLOCK_RECORD
  5
C0
330
1
100
AcDbSymbolTableRecord
100
AcDbBlockTableRecord
  2
DMBLK4
340
0
  0
BLOCK_RECORD
  5
CB
330
1
100
AcDbSymbolTableRecord
100
AcDbBlockTableRecord
  2
DMBLK5
340
0
  0
BLOCK_RECORD
  5
D6
330
1
100
AcDbSymbolTableRecord
100
AcDbBlockTableRecord
  2
DMBLK6
340
0
  0
BLOCK_RECORD
  5
E1
330
1
100
AcDbSymbolTableRecord
100
AcDbBlockTableRecord
  2
DMBLK7
340
0
  0
ENDTAB
  0
ENDSEC
  0
SECTION
  2
BLOCKS
  0
BLOCK
  5
20
330
1F
100
AcDbEntity
  8
0
100
AcDbBlockBegin
  2
*Model_Space
 70
     0
 10
0.0
 20
0.0
 30
0.0
  3
*Model_Space
  1

  0
ENDBLK
  5
21
330
1F
100
AcDbEntity
  8
0
100
AcDbBlockEnd
  0
BLOCK
  5
1C
330
1B
100
AcDbEntity
 67
     1
  8
0
100
AcDbBlockBegin
  2
*Paper_Space
 70
     0
 10
0.0
 20
0.0
 30
0.0
  3
*Paper_Space
  1

  0
ENDBLK
  5
1D
330
1B
100
AcDbEntity
 67
     1
  8
0
100
AcDbBlockEnd
  0
BLOCK
  5
8C
330
60
100
AcDbEntity
  8
0
100
AcDbBlockBegin
  2
SE
 70
     0
 10
0.0
 20
0.0
 30
0.0
  3
SE
  1

  0
LINE
  5
64
330
60
100
AcDbEntity
  8
DV1_Standard
  6
CENTER2
 62
     7
100
AcDbLine
 10
64.2081981253
 20
239.1843414223
 30
0.0
 11
64.2081981253
 21
194.0000401468
 31
0.0
  0
LINE
  5
65
330
60
100
AcDbEntity
  8
DV1_Standard
  6
Continuous
 62
     7
100
AcDbLine
 10
102.9618399512
 20
181.4660063936
 30
0.0
 11
153.1666732275
 21
181.4660063936
 31
0.0
  0
LINE
  5
66
330
60
100
AcDbEntity
  8
DV1_Standard
  6
Continuous
 62
     7
100
AcDbLine
 10
169.2076129607
 20
186.1102230305
 30
0.0
 11
169.2076129607
 21
182.8723994924
 31
0.0
  0
LINE
  5
67
330
60
100
AcDbEntity
  8
DV1_Standard
  6
Continuous
 62
     7
100
AcDbLine
 10
165.720410227
 20
195.460086259
 30
0.0
 11
172.1129396324
 21
195.460086259
 31
0.0
  0
LINE
  5
68
330
60
100
AcDbEntity
  8
DV1_Standard
  6
CENTER2
 62
     7
100
AcDbLine
 10
64.2081981253
 20
236.6739184702
 30
0.0
 11
64.2081981253
 21
243.9645905093
 31
0.0
  0
SPLINE
  5
6A
330
60
100
AcDbEntity
  8
MEGA_001513
  6
Continuous
 62
     7
100
AcDbSpline
210
0.0
220
0.0
230
1.0
 70
     8
 71
     3
 72
     8
 73
     4
 74
     0
 42
0.0000000002183026
 43
0.0000000001
 40
0.0
 40
0.0
 40
0.0
 40
0.0
 40
0.0088618429959512
 40
0.0088618429959512
 40
0.0088618429959512
 40
0.0088618429959512
 10
54.1261853799806
 20
203.8966258866094
 30
0.0
 10
54.13090810650286
 20
203.7613958418803
 30
0.0
 10
54.13563286852909
 20
203.6261638545861
 30
0.0
 10
54.14035923399907
 20
203.4909303479293
 30
0.0
  0
SPLINE
  5
6B
330
60
100
AcDbEntity
  8
MEGA_001513
  6
Continuous
 62
     7
100
AcDbSpline
210
0.0
220
0.0
230
1.0
 70
     8
 71
     3
 72
     8
 73
     4
 74
     0
 42
0.000000000218339
 43
0.0000000001
 40
0.9960936394057355
 40
0.9960936394057355
 40
0.9960936394057355
 40
0.9960936394057355
 40
1.0
 40
1.0
 40
1.0
 40
1.0
 10
84.0293926673546
 20
181.7928242292475
 30
0.0
 10
84.08899950941121
 20
181.7907499005744
 30
0.0
 10
84.14860142493622
 20
181.7886863069006
 30
0.0
 10
84.20819812529528
 20
181.7866334534513
 30
0.0
  0
ARC
  5
6C
330
60
100
AcDbEntity
  8
MEGA_001513
  6
Continuous
 62
     7
100
AcDbCircle
 10
133.0470868023
 20
694.6383132844
 30
0.0
 40
500.2422541436691
100
AcDbArc
 50
270.676365816
 51
270.7056872909
  0
ARC
  5
6D
330
60
100
AcDbEntity
  8
MEGA_001513
  6
Continuous
 62
     7
100
AcDbCircle
 10
133.0470868023
 20
694.6383132844
 30
0.0
 40
500.2422541436691
100
AcDbArc
 50
264.3972610854
 51
264.4282397968
  0
LINE
  5
6E
330
60
100
AcDbEntity
  8
MEGA_001513
  6
Continuous
 62
     7
100
AcDbLine
 10
168.1959732255
 20
193.3084137721
 30
0.0
 11
168.2575146123
 21
192.870524052
 31
0.0
  0
LINE
  5
6F
330
60
100
AcDbEntity
  8
MEGA_001513
  6
Continuous
 62
     7
100
AcDbLine
 10
168.2575146123
 20
192.870524052
 30
0.0
 11
168.3407330613
 21
192.2783940195
 31
0.0
  0
LINE
  5
70
330
60
100
AcDbEntity
  8
MEGA_001513
  6
Continuous
 62
     7
100
AcDbLine
 10
168.3407330613
 20
192.2783940195
 30
0.0
 11
168.6079972611
 21
190.3767104245
 31
0.0
  0
LINE
  5
71
330
60
100
AcDbEntity
  8
MEGA_001513
  6
Continuous
 62
     7
100
AcDbLine
 10
168.6079972602
 20
190.3767104308
 30
0.0
 11
168.6298686846
 21
190.2210871598
 31
0.0
  0
LINE
  5
72
330
60
100
AcDbEntity
  8
MEGA_001513
  6
Continuous
 62
     7
100
AcDbLine
 10
168.6298686846
 20
190.2210871598
 30
0.0
 11
168.6682275352
 21
189.9481497555
 31
0.0
  0
LINE
  5
73
330
60
100
AcDbEntity
  8
MEGA_001513
  6
Continuous
 62
     7
100
AcDbLine
 10
168.6682275352
 20
189.9481497555
 30
0.0
 11
168.6740700368
 21
189.9065781964
 31
0.0
  0
LINE
  5
74
330
60
100
AcDbEntity
  8
MEGA_001513
  6
Continuous
 62
     7
100
AcDbLine
 10
168.6740700368
 20
189.9065781964
 30
0.0
 11
168.6845020078
 21
189.8323508661
 31
0.0
  0
LINE
  5
75
330
60
100
AcDbEntity
  8
MEGA_001513
  6
Continuous
 62
     7
100
AcDbLine
 10
168.6845020078
 20
189.8323508661
 30
0.0
 11
168.7231761731
 21
189.5571698811
 31
0.0
  0
LINE
  5
76
330
60
100
AcDbEntity
  8
MEGA_001513
  6
Continuous
 62
     7
100
AcDbLine
 10
168.7281918396
 20
189.5214815595
 30
0.0
 11
168.7724717364
 21
189.2064137223
 31
0.0
  0
LINE
  5
77
330
60
100
AcDbEntity
  8
MEGA_001513
  6
Continuous
 62
     7
100
AcDbLine
 10
168.7724717364
 20
189.2064137223
 30
0.0
 11
168.8583297955
 21
188.5955018888
 31
0.0
  0
SPLINE
  5
78
330
60
100
AcDbEntity
  8
MEGA_001513
  6
Continuous
 62
     7
100
AcDbSpline
210
0.0
220
0.0
230
1.0
 70
     8
 71
     3
 72
     8
 73
     4
 74
     0
 42
0.0000001335925271
 43
0.0000000001
 40
0.0
 40
0.0
 40
0.0
 40
0.0
 40
0.0431593214436899
 40
0.0431593214436899
 40
0.0431593214436899
 40
0.0431593214436899
 10
166.7088869364912
 20
185.7704766005295
 30
0.0
 10
166.7098938301444
 20
185.7696153801463
 30
0.0
 10
166.7108386324168
 20
185.7692403899064
 30
0.0
 10
166.7117209066409
 20
185.7693511887982
 30
0.0
  0
SPLINE
  5
79
330
60
100
AcDbEntity
  8
MEGA_001513
  6
Continuous
 62
     7
100
AcDbSpline
210
0.0
220
0.0
230
1.0
 70
    12
 71
     2
 72
     6
 73
     3
 74
     0
 42
0.0000000019828037
 43
0.0000000001
 40
0.0
 40
0.0
 40
0.0
 40
1.0
 40
1.0
 40
1.0
 10
166.70888693649
 20
185.7704766005387
 30
0.0
 41
1.0
 10
169.2090831805746
 20
186.0997618719631
 30
0.0
 41
0.7040323631156462
 10
168.8581475647875
 20
188.596798527318
 30
0.0
 41
1.0
  0
LINE
  5
7A
330
60
100
AcDbEntity
  8
MEGA_001513
  6
Continuous
 62
     7
100
AcDbLine
 10
72.2081981253
 20
238.8843414223
 30
0.0
 11
56.2081981253
 21
238.8843414223
 31
0.0
  0
ARC
  5
7B
330
60
100
AcDbEntity
  8
MEGA_001513
  6
Continuous
 62
     7
100
AcDbCircle
 10
42.8285288205
 20
224.8157787825
 30
0.0
 40
10.84343754089089
100
AcDbArc
 50
348.8874264152
 51
15.1125620932
  0
LINE
  5
7C
330
60
100
AcDbEntity
  8
MEGA_001513
  6
Continuous
 62
     7
100
AcDbLine
 10
71.9081981253
 20
239.1843414223
 30
0.0
 11
56.5081981253
 21
239.1843414223
 31
0.0
  0
SPLINE
  5
7D
330
60
100
AcDbEntity
  8
MEGA_001513
  6
Continuous
 62
     7
100
AcDbSpline
210
0.0
220
0.0
230
1.0
 70
    12
 71
     2
 72
     6
 73
     3
 74
     0
 42
0.0000000021550758
 43
0.0000000001
 40
0.0
 40
0.0
 40
0.0
 40
1.0
 40
1.0
 40
1.0
 10
168.195973213703
 20
193.3084137704069
 30
0.0
 41
1.0
 10
167.8731032777257
 20
195.6057527809736
 30
0.0
 41
0.7329594124752619
 10
165.5577279026957
 20
195.4547883659646
 30
0.0
 41
1.0
  0
LINE
  5
7E
330
60
100
AcDbEntity
  8
MEGA_001513
  6
Continuous
 62
     7
100
AcDbLine
 10
75.2081981253
 20
230.1843414223
 30
0.0
 11
53.2081981253
 21
230.1843414223
 31
0.0
  0
ARC
  5
7F
330
60
100
AcDbEntity
  8
MEGA_001513
  6
Continuous
 62
     7
100
AcDbCircle
 10
102.9618399512
 20
615.7519610892
 30
0.0
 40
434.2859546956663
100
AcDbArc
 50
267.5250437129
 51
274.787587534
  0
ARC
  5
80
330
60
100
AcDbEntity
  8
MEGA_001513
  6
Continuous
 62
     7
100
AcDbCircle
 10
132.3169601243
 20
711.716486835
 30
0.0
 40
517.3284070020258
100
AcDbArc
 50
270.7656466695
 51
273.6842938894
  0
LINE
  5
81
330
60
100
AcDbEntity
  8
MEGA_001513
  6
Continuous
 62
     7
100
AcDbLine
 10
53.2081981253
 20
230.1843414223
 30
0.0
 11
53.2972576914
 21
227.6340091303
 31
0.0
  0
LINE
  5
82
330
60
100
AcDbEntity
  8
MEGA_001513
  6
Continuous
 62
     7
100
AcDbLine
 10
74.2902108706
 20
203.8966258866
 30
0.0
 11
75.2081981253
 21
230.1843414223
 31
0.0
  0
LINE
  5
83
330
60
100
AcDbEntity
  8
MEGA_001513
  6
Continuous
 62
     7
100
AcDbLine
 10
72.2081981253
 20
230.1843414223
 30
0.0
 11
72.2081981253
 21
238.8843414223
 31
0.0
  0
LINE
  5
84
330
60
100
AcDbEntity
  8
MEGA_001513
  6
Continuous
 62
     7
100
AcDbLine
 10
72.2081981253
 20
238.8843414223
 30
0.0
 11
71.9081981253
 21
239.1843414223
 31
0.0
  0
LINE
  5
85
330
60
100
AcDbEntity
  8
MEGA_001513
  6
Continuous
 62
     7
100
AcDbLine
 10
56.2081981253
 20
238.8843414223
 30
0.0
 11
56.2081981253
 21
230.1843414223
 31
0.0
  0
SPLINE
  5
86
330
60
100
AcDbEntity
  8
MEGA_001513
  6
Continuous
 62
     7
100
AcDbSpline
210
0.0
220
0.0
230
1.0
 70
     8
 71
     3
 72
   128
 73
   124
 74
     0
 42
0.0000000002208103
 43
0.0000000001
 40
0.0
 40
0.0
 40
0.0
 40
0.0
 40
0.0183950667235122
 40
0.0183950667235122
 40
0.0183950667235122
 40
0.0367946837380459
 40
0.0367946837380459
 40
0.0367946837380459
 40
0.0553675130939297
 40
0.0553675130939297
 40
0.0553675130939297
 40
0.0766930257283147
 40
0.0766930257283147
 40
0.0766930257283147
 40
0.0987338117254781
 40
0.0987338117254781
 40
0.0987338117254781
 40
0.1216930119356095
 40
0.1216930119356095
 40
0.1216930119356095
 40
0.145591428113382
 40
0.145591428113382
 40
0.145591428113382
 40
0.1704407998959742
 40
0.1704407998959742
 40
0.1704407998959742
 40
0.1962449730321298
 40
0.1962449730321298
 40
0.1962449730321298
 40
0.2216251496353606
 40
0.2216251496353606
 40
0.2216251496353606
 40
0.2480964617029797
 40
0.2480964617029797
 40
0.2480964617029797
 40
0.2730045218137508
 40
0.2730045218137508
 40
0.2730045218137508
 40
0.2991350018973715
 40
0.2991350018973715
 40
0.2991350018973715
 40
0.3259154282575945
 40
0.3259154282575945
 40
0.3259154282575945
 40
0.3516606630597789
 40
0.3516606630597789
 40
0.3516606630597789
 40
0.3761111772229305
 40
0.3761111772229305
 40
0.3761111772229305
 40
0.3991494398303763
 40
0.3991494398303763
 40
0.3991494398303763
 40
0.4206918767281766
 40
0.4206918767281766
 40
0.4206918767281766
 40
0.4406859368195711
 40
0.4406859368195711
 40
0.4406859368195711
 40
0.4591117740622366
 40
0.4591117740622366
 40
0.4591117740622366
 40
0.4759704738285454
 40
0.4759704738285454
 40
0.4759704738285454
 40
0.4912754834634321
 40
0.4912754834634321
 40
0.4912754834634321
 40
0.5054093015375041
 40
0.5054093015375041
 40
0.5054093015375041
 40
0.5258068124041904
 40
0.5258068124041904
 40
0.5258068124041904
 40
0.5481818143222315
 40
0.5481818143222315
 40
0.5481818143222315
 40
0.5723435281900059
 40
0.5723435281900059
 40
0.5723435281900059
 40
0.5987337039003474
 40
0.5987337039003474
 40
0.5987337039003474
 40
0.6292639854006609
 40
0.6292639854006609
 40
0.6292639854006609
 40
0.6615755662740762
 40
0.6615755662740762
 40
0.6615755662740762
 40
0.6956375134730841
 40
0.6956375134730841
 40
0.6956375134730841
 40
0.7287242836739402
 40
0.7287242836739402
 40
0.7287242836739402
 40
0.7604066380495336
 40
0.7604066380495336
 40
0.7604066380495336
 40
0.8058612333897954
 40
0.8058612333897954
 40
0.8058612333897954
 40
0.8481824084442665
 40
0.8481824084442665
 40
0.8481824084442665
 40
0.8873181666603851
 40
0.8873181666603851
 40
0.8873181666603851
 40
0.9057408188492353
 40
0.9057408188492353
 40
0.9057408188492353
 40
0.9238448946352036
 40
0.9238448946352036
 40
0.9238448946352036
 40
0.9420103580981267
 40
0.9420103580981267
 40
0.9420103580981267
 40
0.9605713313889305
 40
0.9605713313889305
 40
0.9605713313889305
 40
0.9798219074244628
 40
0.9798219074244628
 40
0.9798219074244628
 40
1.0
 40
1.0
 40
1.0
 40
1.0
 10
54.1386803358903
 20
203.5389698388898
 30
0.0
 10
54.14990084373589
 20
203.2636407448472
 30
0.0
 10
54.15936838916807
 20
203.0303531333898
 30
0.0
 10
54.17139657332423
 20
202.7782440634951
 30
0.0
 10
54.18342773282912
 20
202.5260726307042
 30
0.0
 10
54.19802079803816
 20
202.2550704267938
 30
0.0
 10
54.21234355355922
 20
201.9833095374823
 30
0.0
 10
54.22680114221385
 20
201.7089903155768
 30
0.0
 10
54.24098330788296
 20
201.4338980566417
 30
0.0
 10
54.254474802899
 20
201.1551285926767
 30
0.0
 10
54.26996587547109
 20
200.8350426428221
 30
0.0
 10
54.28454637702053
 20
200.5101087146588
 30
0.0
 10
54.29720481831941
 20
200.1842169589289
 30
0.0
 10
54.31028783304029
 20
199.8473945542614
 30
0.0
 10
54.32131769060345
 20
199.5095489920088
 30
0.0
 10
54.3322500940227
 20
199.1718212235171
 30
0.0
 10
54.34363803812381
 20
198.8200207271862
 30
0.0
 10
54.35492023726779
 20
198.4683480458018
 30
0.0
 10
54.36600396122829
 20
198.1166414786403
 30
0.0
 10
54.37754109865396
 20
197.7505472838272
 30
0.0
 10
54.38886319029127
 20
197.3844163741285
 30
0.0
 10
54.40019909505635
 20
197.018283777115
 30
0.0
 10
54.41198607331902
 20
196.6375821876358
 30
0.0
 10
54.42378798587295
 20
196.2568787738882
 30
0.0
 10
54.43520640749608
 20
195.8762169445248
 30
0.0
 10
54.44706356553947
 20
195.4809287321241
 30
0.0
 10
54.45850719630315
 20
195.0856853611418
 30
0.0
 10
54.47147230852518
 20
194.6902707302512
 30
0.0
 10
54.48422438688628
 20
194.3013532822651
 30
0.0
 10
54.49844835760127
 20
193.9122701561841
 30
0.0
 10
54.53449910742982
 20
193.5249818797922
 30
0.0
 10
54.57209973818595
 20
193.1210434445019
 30
0.0
 10
54.63344422822662
 20
192.719057503358
 30
0.0
 10
54.71397116403068
 20
192.3211489693605
 30
0.0
 10
54.7897426162511
 20
191.9467387528181
 30
0.0
 10
54.88249778972698
 20
191.5759385840909
 30
0.0
 10
54.99284680857409
 20
191.2103667023685
 30
0.0
 10
55.10861145770406
 20
190.8268535451014
 30
0.0
 10
55.24373924472656
 20
190.4490944478524
 30
0.0
 10
55.39752944347267
 20
190.0791145946882
 30
0.0
 10
55.55514488257919
 20
189.6999321923473
 30
0.0
 10
55.73236266371054
 20
189.3289208348586
 30
0.0
 10
55.92799822203472
 20
188.9679580622058
 30
0.0
 10
56.11607153038926
 20
188.6209482270451
 30
0.0
 10
56.32116626529039
 20
188.2832251395136
 30
0.0
 10
56.54234815689933
 20
187.9564631013409
 30
0.0
 10
56.75240687320041
 20
187.6461338344413
 30
0.0
 10
56.97697539432809
 20
187.3456908818096
 30
0.0
 10
57.21520789380725
 20
187.0566367505792
 30
0.0
 10
57.43968018293811
 20
186.7842782660657
 30
0.0
 10
57.67628358432756
 20
186.5220309707944
 30
0.0
 10
57.92379290227497
 20
186.2707045143509
 30
0.0
 10
58.15523196321251
 20
186.035696153654
 30
0.0
 10
58.39620671978822
 20
185.810236536029
 30
0.0
 10
58.64596961767463
 20
185.5952256023159
 30
0.0
 10
58.8777806431697
 20
185.3956687207356
 30
0.0
 10
59.11716190361901
 20
185.2051124900755
 30
0.0
 10
59.36338462481928
 20
185.0242272637491
 30
0.0
 10
59.59029500547955
 20
184.8575296683303
 30
0.0
 10
59.82301572304404
 20
184.6990454933235
 30
0.0
 10
60.06076288208895
 20
184.549080206659
 30
0.0
 10
60.27828938695519
 20
184.4118696305561
 30
0.0
 10
60.50002368438997
 20
184.281790484352
 30
0.0
 10
60.72542876810287
 20
184.1591402475741
 30
0.0
 10
60.93006062143669
 20
184.0477934010422
 30
0.0
 10
61.13771784243887
 20
183.9425692706496
 30
0.0
 10
61.34778852617035
 20
183.8439117989133
 30
0.0
 10
61.54178388438226
 20
183.752803933552
 30
0.0
 10
61.73783746535077
 20
183.6672961738468
 30
0.0
 10
61.93649305601718
 20
183.5866027496063
 30
0.0
 10
62.22318696619136
 20
183.4701483712358
 30
0.0
 10
62.51530018971948
 20
183.363721008712
 30
0.0
 10
62.81137693138439
 20
183.2682004621942
 30
0.0
 10
63.13615762182928
 20
183.1634194217272
 30
0.0
 10
63.4657075905799
 20
183.071762489481
 30
0.0
 10
63.79883255074856
 20
182.9932407979688
 30
0.0
 10
64.15855855208216
 20
182.9084489105901
 30
0.0
 10
64.52245328866974
 20
182.8389737987542
 30
0.0
 10
64.88896976807115
 20
182.7883800842338
 30
0.0
 10
65.28929047152258
 20
182.7331200549437
 30
0.0
 10
65.69273883238266
 20
182.7003849437683
 30
0.0
 10
66.09627548741831
 20
182.6709131176133
 30
0.0
 10
66.56311920263863
 20
182.6368177345919
 30
0.0
 10
67.03008108836883
 20
182.6070898429965
 30
0.0
 10
67.49733275447484
 20
182.581157031811
 30
0.0
 10
67.99184637359976
 20
182.5537111621788
 30
0.0
 10
68.48668457422811
 20
182.530516142528
 30
0.0
 10
68.98144151057753
 20
182.5069572193049
 30
0.0
 10
69.50300016498994
 20
182.4821220742206
 30
0.0
 10
70.02446851223598
 20
182.4568825312767
 30
0.0
 10
70.54593723247451
 20
182.4318121692839
 30
0.0
 10
71.05247655662592
 20
182.4074595595737
 30
0.0
 10
71.55901623271835
 20
182.3832665823468
 30
0.0
 10
72.06556525969593
 20
182.3593507254022
 30
0.0
 10
72.55061308043791
 20
182.3364500116028
 30
0.0
 10
73.03566947508882
 20
182.3138033918312
 30
0.0
 10
73.5207174287783
 20
182.2915308474872
 30
0.0
 10
74.21661452639306
 20
182.2595764832896
 30
0.0
 10
74.91249424949586
 20
182.2283920998603
 30
0.0
 10
75.60843407936258
 20
182.1981872563855
 30
0.0
 10
76.25639917830779
 20
182.1700645889495
 30
0.0
 10
76.90441638270765
 20
182.1427910667906
 30
0.0
 10
77.5521077725558
 20
182.1161708457905
 30
0.0
 10
78.1510489314233
 20
182.0915542671775
 30
0.0
 10
78.74971147654011
 20
182.0674963458903
 30
0.0
 10
79.34917403334525
 20
182.0440962096107
 30
0.0
 10
79.6313632814307
 20
182.0330808980006
 30
0.0
 10
79.91372980681808
 20
182.0222113472001
 30
0.0
 10
80.19387967652672
 20
182.0096470002744
 30
0.0
 10
80.46918501370853
 20
181.9972999241525
 30
0.0
 10
80.74234969603656
 20
181.98331616012
 30
0.0
 10
81.01090566922541
 20
181.9683230018116
 30
0.0
 10
81.28037226759731
 20
181.9532790043899
 30
0.0
 10
81.54519884922692
 20
181.9372187557364
 30
0.0
 10
81.80235416161716
 20
181.9210180660907
 30
0.0
 10
82.06510842024676
 20
181.904464644901
 30
0.0
 10
82.31985372575305
 20
181.8877646006052
 30
0.0
 10
82.56920419693775
 20
181.8716314059515
 30
0.0
 10
82.82781887892833
 20
181.8548988087159
 30
0.0
 10
83.08063040714093
 20
181.8387759643376
 30
0.0
 10
83.31177145125585
 20
181.8261902231874
 30
0.0
 10
83.55404915648131
 20
181.8129980854774
 30
0.0
 10
83.77251784966427
 20
181.8036921061464
 30
0.0
 10
84.02939773000149
 20
181.7928240530665
 30
0.0
  0
ARC
  5
87
330
60
100
AcDbEntity
  8
MEGA_001513
  6
Continuous
 62
     7
100
AcDbCircle
 10
104.8275338933
 20
648.7880828573
 30
0.0
 40
467.1355226854799
100
AcDbArc
 50
274.2207231225
 51
277.6126820695
  0
SPLINE
  5
88
330
60
100
AcDbEntity
  8
MEGA_001513
  6
Continuous
 62
     7
100
AcDbSpline
210
0.0
220
0.0
230
1.0
 70
     8
 71
     3
 72
    53
 73
    49
 74
     0
 42
0.0000000007194711
 43
0.0000000001
 40
0.0
 40
0.0
 40
0.0
 40
0.0
 40
0.0848602749549485
 40
0.0848602749549485
 40
0.0848602749549485
 40
0.1677935695993718
 40
0.1677935695993718
 40
0.1677935695993718
 40
0.2483549311552197
 40
0.2483549311552197
 40
0.2483549311552197
 40
0.3243506639786678
 40
0.3243506639786678
 40
0.3243506639786678
 40
0.3967371657790904
 40
0.3967371657790904
 40
0.3967371657790904
 40
0.4687187827808319
 40
0.4687187827808319
 40
0.4687187827808319
 40
0.5256203609028137
 40
0.5256203609028137
 40
0.5256203609028137
 40
0.5846572713876997
 40
0.5846572713876997
 40
0.5846572713876997
 40
0.6447527082230982
 40
0.6447527082230982
 40
0.6447527082230982
 40
0.7048420264942296
 40
0.7048420264942296
 40
0.7048420264942296
 40
0.7468069283823554
 40
0.7468069283823554
 40
0.7468069283823554
 40
0.791788790942545
 40
0.791788790942545
 40
0.791788790942545
 40
0.8404929199299447
 40
0.8404929199299447
 40
0.8404929199299447
 40
0.8919269635262452
 40
0.8919269635262452
 40
0.8919269635262452
 40
0.945284851058679
 40
0.945284851058679
 40
0.945284851058679
 40
1.0
 40
1.0
 40
1.0
 40
1.0
 10
84.20819812529527
 20
196.7392836454488
 30
0.0
 10
83.77899039330536
 20
196.7839511848863
 30
0.0
 10
83.41753228279453
 20
196.8219316785874
 30
0.0
 10
83.0381783633211
 20
196.8629676034487
 30
0.0
 10
82.66743869278729
 20
196.9030716974943
 30
0.0
 10
82.27960673026621
 20
196.9460940346688
 30
0.0
 10
81.89701791009374
 20
196.9910255377613
 30
0.0
 10
81.52537131868205
 20
197.0346719777274
 30
0.0
 10
81.15867224553844
 20
197.080119939115
 30
0.0
 10
80.78959921408152
 20
197.1246787501502
 30
0.0
 10
80.4414425425797
 20
197.1667122936873
 30
0.0
 10
80.09117336528837
 20
197.207954612182
 30
0.0
 10
79.74623439741133
 20
197.2771167421112
 30
0.0
 10
79.41767746017807
 20
197.3429941862338
 30
0.0
 10
79.09395646441345
 20
197.4342024501081
 30
0.0
 10
78.77525543297325
 20
197.5408797984651
 30
0.0
 10
78.45833701569103
 20
197.6469604604837
 30
0.0
 10
78.1463825627082
 20
197.7683376421891
 30
0.0
 10
77.84595371048815
 20
197.9140280210846
 30
0.0
 10
77.60846424419451
 20
198.0291964880024
 30
0.0
 10
77.37817704125938
 20
198.1595580934691
 30
0.0
 10
77.1568282711336
 20
198.3035302415974
 30
0.0
 10
76.9271729969013
 20
198.452905199233
 30
0.0
 10
76.70713960410299
 20
198.6169313860645
 30
0.0
 10
76.4986814928946
 20
198.7945323253092
 30
0.0
 10
76.2864857470119
 20
198.9753176329858
 30
0.0
 10
76.08628409141788
 20
199.1701688452216
 30
0.0
 10
75.89989789184237
 20
199.3773059105703
 30
0.0
 10
75.71353066901455
 20
199.5844218864401
 30
0.0
 10
75.54097608913133
 20
199.8038212138032
 30
0.0
 10
75.38284089775344
 20
200.033014224291
 30
0.0
 10
75.27240316968185
 20
200.1930769854488
 30
0.0
 10
75.16899818406998
 20
200.3579164020883
 30
0.0
 10
75.0730084866961
 20
200.5269691309874
 30
0.0
 10
74.97011785237562
 20
200.7081754790217
 30
0.0
 10
74.87574703927088
 20
200.894222726833
 30
0.0
 10
74.78983898299963
 20
201.0842953029673
 30
0.0
 10
74.69682200203107
 20
201.2900964578801
 30
0.0
 10
74.61372632045665
 20
201.5006166999929
 30
0.0
 10
74.54186741853138
 20
201.7141593629382
 30
0.0
 10
74.46598075406885
 20
201.9396713033825
 30
0.0
 10
74.4026258372266
 20
202.168553979594
 30
0.0
 10
74.35233632568195
 20
202.4033243279639
 30
0.0
 10
74.30016578038861
 20
202.6468760491272
 30
0.0
 10
74.26205631912721
 20
202.89676412581
 30
0.0
 10
74.24236314171722
 20
203.1365898384847
 30
0.0
 10
74.22216903012573
 20
203.3825159835364
 30
0.0
 10
74.22134002625208
 20
203.6178613423401
 30
0.0
 10
74.22290363109678
 20
203.8966258866094
 30
0.0
  0
LINE
  5
89
330
60
100
AcDbEntity
  8
MEGA_001513
  6
Continuous
 62
     7
100
AcDbLine
 10
53.4684006916
 20
222.7331148283
 30
0.0
 11
54.12618538
 21
203.8966258866
 31
0.0
  0
ARC
  5
8A
330
60
100
AcDbEntity
  8
MEGA_001513
  6
Continuous
 62
     7
100
AcDbCircle
 10
134.2704619854
 20
723.241871809
 30
0.0
 40
528.831593192918
100
AcDbArc
 50
264.5911905324
 51
270.5107181413
  0
LINE
  5
8B
330
60
100
AcDbEntity
  8
MEGA_001513
  6
Continuous
 62
     7
100
AcDbLine
 10
56.5081981253
 20
239.1843414223
 30
0.0
 11
56.2081981253
 21
238.8843414223
 31
0.0
  0
ENDBLK
  5
8D
330
60
100
AcDbEntity
  8
0
100
AcDbBlockEnd
  0
BLOCK
  5
90
330
8F
100
AcDbEntity
  8
0
100
AcDbBlockBegin
  2
_OBLIQUE
 70
     0
 10
0.0
 20
0.0
 30
0.0
  3
_OBLIQUE
  1

  0
LINE
  5
92
330
8F
100
AcDbEntity
  8
0
  6
ByBlock
 62
     0
370
    -2
100
AcDbLine
 10
-0.5
 20
-0.5
 30
0.0
 11
0.5
 21
0.5
 31
0.0
  0
ENDBLK
  5
91
330
8F
100
AcDbEntity
  8
0
100
AcDbBlockEnd
  0
BLOCK
  5
94
330
93
100
AcDbEntity
  8
0
100
AcDbBlockBegin
  2
_DOT
 70
     0
 10
0.0
 20
0.0
 30
0.0
  3
_DOT
  1

  0
POLYLINE
  5
96
330
93
100
AcDbEntity
  8
0
  6
ByBlock
 62
     0
100
AcDb2dPolyline
 66
     1
 10
0.0
 20
0.0
 30
0.0
 70
     1
 40
0.5
 41
0.5
  0
VERTEX
  5
99
330
96
100
AcDbEntity
  8
0
  6
ByBlock
 62
     0
100
AcDbVertex
100
AcDb2dVertex
 10
-0.25
 20
0.0
 30
0.0
 42
1.0
  0
VERTEX
  5
9A
330
96
100
AcDbEntity
  8
0
  6
ByBlock
 62
     0
100
AcDbVertex
100
AcDb2dVertex
 10
0.25
 20
0.0
 30
0.0
 42
1.0
  0
SEQEND
  5
98
330
96
100
AcDbEntity
  8
0
  6
ByBlock
 62
     0
  0
LINE
  5
97
330
93
100
AcDbEntity
  8
0
  6
ByBlock
 62
     0
370
    -2
100
AcDbLine
 10
-0.5
 20
0.0
 30
0.0
 11
-1.0
 21
0.0
 31
0.0
  0
ENDBLK
  5
95
330
93
100
AcDbEntity
  8
0
100
AcDbBlockEnd
  0
BLOCK
  5
9E
330
9B
100
AcDbEntity
  8
0
100
AcDbBlockBegin
  2
_SE_FILLED
 70
     0
 10
0.0
 20
0.0
 30
0.0
  3
_SE_FILLED
  1

  0
SOLID
  5
9C
330
9B
100
AcDbEntity
  8
0
 62
     0
100
AcDbTrace
 10
0.0
 20
0.0
 30
0.0
 11
-1.0
 21
-0.1665
 31
0.0
 12
-1.0
 22
0.1665
 32
0.0
 13
0.0
 23
0.0
 33
0.0
  0
LINE
  5
9D
330
9B
100
AcDbEntity
  8
0
 62
     0
100
AcDbLine
 10
0.0
 20
0.0
 30
0.0
 11
-1.0
 21
0.0
 31
0.0
  0
ENDBLK
  5
9F
330
9B
100
AcDbEntity
  8
0
100
AcDbBlockEnd
  0
BLOCK
  5
A9
330
A2
100
AcDbEntity
  8
0
100
AcDbBlockBegin
  2
DMBLK1
 70
     0
 10
0.0
 20
0.0
 30
0.0
  3
DMBLK1
  1

  0
HATCH
  5
A3
330
A2
100
AcDbEntity
  8
Default
  6
Continuous
 62
     7
100
AcDbHatch
 10
0.0
 20
0.0
 30
0.0
210
0.0
220
0.0
230
1.0
  2
SOLID
 70
     1
 71
     0
 91
        1
 92
        1
 93
        3
 72
     1
 10
33.87442118501421
 20
227.1843413961892
 11
34.87442119370655
 21
227.1843413961892
 72
     1
 10
34.87442119370655
 20
227.1843413961892
 11
34.37442118936038
 21
230.1843414222662
 72
     1
 10
34.37442118936038
 20
230.1843414222662
 11
33.87442118501421
 21
227.1843413961892
 97
        0
 75
     0
 76
     1
 98
        0
  0
HATCH
  5
A4
330
A2
100
AcDbEntity
  8
Default
  6
Continuous
 62
     7
100
AcDbHatch
 10
0.0
 20
0.0
 30
0.0
210
0.0
220
0.0
230
1.0
  2
SOLID
 70
     1
 71
     0
 91
        1
 92
        1
 93
        3
 72
     1
 10
33.87442118501421
 20
184.4660082040195
 11
34.37442118936038
 21
181.4660081779425
 72
     1
 10
34.37442118936038
 20
181.4660081779425
 11
34.87442119370655
 21
184.4660082040195
 72
     1
 10
34.87442119370655
 20
184.4660082040195
 11
33.87442118501421
 21
184.4660082040195
 97
        0
 75
     0
 76
     1
 98
        0
  0
LINE
  5
A5
330
A2
100
AcDbEntity
  8
Default
  6
Continuous
 62
     7
100
AcDbLine
 10
53.2081981253
 20
230.1843414223
 30
0.0
 11
32.8744211763
 21
230.1843414223
 31
0.0
  0
LINE
  5
A6
330
A2
100
AcDbEntity
  8
Default
  6
Continuous
 62
     7
100
AcDbLine
 10
153.1666732275
 20
181.4660063936
 30
0.0
 11
32.8744211763
 21
181.4660063936
 31
0.0
  0
LINE
  5
A7
330
A2
100
AcDbEntity
  8
Default
  6
Continuous
 62
     7
100
AcDbLine
 10
34.3744211894
 20
230.1843414223
 30
0.0
 11
34.3744211894
 21
181.4660081779
 31
0.0
  0
TEXT
  5
A8
330
A2
100
AcDbEntity
  8
Default
  6
Continuous
 62
     7
100
AcDbText
 10
33.6244211894
 20
203.1689662158
 30
0.0
 40
3.0
  1
49
 50
90.0
  7
SEACAD_seiso_ttf
 11
30.6244211894
 21
203.1689662158
 31
0.0
100
AcDbText
 73
     3
  0
ENDBLK
  5
AA
330
A2
100
AcDbEntity
  8
0
100
AcDbBlockEnd
  0
BLOCK
  5
B3
330
AC
100
AcDbEntity
  8
0
100
AcDbBlockBegin
  2
DMBLK2
 70
     0
 10
0.0
 20
0.0
 30
0.0
  3
DMBLK2
  1

  0
HATCH
  5
AD
330
AC
100
AcDbEntity
  8
Default
  6
Continuous
 62
     7
100
AcDbHatch
 10
0.0
 20
0.0
 30
0.0
210
0.0
220
0.0
230
1.0
  2
SOLID
 70
     1
 71
     0
 91
        1
 92
        1
 93
        3
 72
     1
 10
33.87442118501421
 20
233.1843414483432
 11
34.37442118936038
 21
230.1843414222662
 72
     1
 10
34.37442118936038
 20
230.1843414222662
 11
34.87442119370655
 21
233.1843414483432
 72
     1
 10
34.87442119370655
 20
233.1843414483432
 11
33.87442118501421
 21
233.1843414483432
 97
        0
 75
     0
 76
     1
 98
        0
  0
HATCH
  5
AE
330
AC
100
AcDbEntity
  8
Default
  6
Continuous
 62
     7
100
AcDbHatch
 10
0.0
 20
0.0
 30
0.0
210
0.0
220
0.0
230
1.0
  2
SOLID
 70
     1
 71
     0
 91
        1
 92
        1
 93
        3
 72
     1
 10
33.87442118501421
 20
236.184341008759
 11
34.87442119370655
 21
236.184341008759
 72
     1
 10
34.87442119370655
 20
236.184341008759
 11
34.37442118936038
 21
239.184341034836
 72
     1
 10
34.37442118936038
 20
239.184341034836
 11
33.87442118501421
 21
236.184341008759
 97
        0
 75
     0
 76
     1
 98
        0
  0
LINE
  5
AF
330
AC
100
AcDbEntity
  8
Default
  6
Continuous
 62
     7
100
AcDbLine
 10
53.2081981253
 20
230.1843414223
 30
0.0
 11
32.8744211763
 21
230.1843414223
 31
0.0
  0
LINE
  5
B0
330
AC
100
AcDbEntity
  8
Default
  6
Continuous
 62
     7
100
AcDbLine
 10
56.5081981253
 20
239.1843414223
 30
0.0
 11
32.8744211763
 21
239.1843414223
 31
0.0
  0
LINE
  5
B1
330
AC
100
AcDbEntity
  8
Default
  6
Continuous
 62
     7
100
AcDbLine
 10
34.3744211894
 20
230.1843414223
 30
0.0
 11
34.3744211894
 21
239.1843410348
 31
0.0
  0
TEXT
  5
B2
330
AC
100
AcDbEntity
  8
Default
  6
Continuous
 62
     7
100
AcDbText
 10
33.6244211894
 20
233.7638866831
 30
0.0
 40
3.0
  1
9
 50
90.0
  7
SEACAD_seiso_ttf
 11
30.6244211894
 21
233.7638866831
 31
0.0
100
AcDbText
 73
     3
  0
ENDBLK
  5
B4
330
AC
100
AcDbEntity
  8
0
100
AcDbBlockEnd
  0
BLOCK
  5
BD
330
B6
100
AcDbEntity
  8
0
100
AcDbBlockBegin
  2
DMBLK3
 70
     0
 10
0.0
 20
0.0
 30
0.0
  3
DMBLK3
  1

  0
HATCH
  5
B7
330
B6
100
AcDbEntity
  8
Default
  6
Continuous
 62
     7
100
AcDbHatch
 10
0.0
 20
0.0
 30
0.0
210
0.0
220
0.0
230
1.0
  2
SOLID
 70
     1
 71
     0
 91
        1
 92
        1
 93
        3
 72
     1
 10
56.20819815137243
 20
163.9559675923699
 11
56.20819815137243
 21
164.9559676010623
 72
     1
 10
56.20819815137243
 20
164.9559676010623
 11
53.2081981252954
 21
164.4559675967161
 72
     1
 10
53.2081981252954
 20
164.4559675967161
 11
56.20819815137243
 21
163.9559675923699
 97
        0
 75
     0
 76
     1
 98
        0
  0
HATCH
  5
B8
330
B6
100
AcDbEntity
  8
Default
  6
Continuous
 62
     7
100
AcDbHatch
 10
0.0
 20
0.0
 30
0.0
210
0.0
220
0.0
230
1.0
  2
SOLID
 70
     1
 71
     0
 91
        1
 92
        1
 93
        3
 72
     1
 10
166.2076136160717
 20
163.9559675923699
 11
169.2076136421487
 21
164.4559675967161
 72
     1
 10
169.2076136421487
 20
164.4559675967161
 11
166.2076136160717
 21
164.9559676010623
 72
     1
 10
166.2076136160717
 20
164.9559676010623
 11
166.2076136160717
 21
163.9559675923699
 97
        0
 75
     0
 76
     1
 98
        0
  0
LINE
  5
B9
330
B6
100
AcDbEntity
  8
Default
  6
Continuous
 62
     7
100
AcDbLine
 10
53.2081981253
 20
230.1843414223
 30
0.0
 11
53.2081981253
 21
162.9559675837
 31
0.0
  0
LINE
  5
BA
330
B6
100
AcDbEntity
  8
Default
  6
Continuous
 62
     7
100
AcDbLine
 10
169.2076129607
 20
182.8723994924
 30
0.0
 11
169.2076129607
 21
162.9559675837
 31
0.0
  0
LINE
  5
BB
330
B6
100
AcDbEntity
  8
Default
  6
Continuous
 62
     7
100
AcDbLine
 10
53.2081981253
 20
164.4559675967
 30
0.0
 11
169.2076136421
 21
164.4559675967
 31
0.0
  0
TEXT
  5
BC
330
B6
100
AcDbEntity
  8
Default
  6
Continuous
 62
     7
100
AcDbText
 10
109.060178611
 20
165.2059675967
 30
0.0
 40
3.0
  1
116
  7
SEACAD_seiso_ttf
 11
109.060178611
 21
168.2059675967
 31
0.0
100
AcDbText
 73
     3
  0
ENDBLK
  5
BE
330
B6
100
AcDbEntity
  8
0
100
AcDbBlockEnd
  0
BLOCK
  5
C7
330
C0
100
AcDbEntity
  8
0
100
AcDbBlockBegin
  2
DMBLK4
 70
     0
 10
0.0
 20
0.0
 30
0.0
  3
DMBLK4
  1

  0
HATCH
  5
C1
330
C0
100
AcDbEntity
  8
Default
  6
Continuous
 62
     7
100
AcDbHatch
 10
0.0
 20
0.0
 30
0.0
210
0.0
220
0.0
230
1.0
  2
SOLID
 70
     1
 71
     0
 91
        1
 92
        1
 93
        3
 72
     1
 10
187.8390554375887
 20
184.4660064196595
 11
186.8390554288964
 21
184.4660064196595
 72
     1
 10
186.8390554288964
 20
184.4660064196595
 11
187.3390554332426
 21
181.4660063935824
 72
     1
 10
187.3390554332426
 20
181.4660063935824
 11
187.8390554375887
 21
184.4660064196595
 97
        0
 75
     0
 76
     1
 98
        0
  0
HATCH
  5
C2
330
C0
100
AcDbEntity
  8
Default
  6
Continuous
 62
     7
100
AcDbHatch
 10
0.0
 20
0.0
 30
0.0
210
0.0
220
0.0
230
1.0
  2
SOLID
 70
     1
 71
     0
 91
        1
 92
        1
 93
        3
 72
     1
 10
187.8390554375887
 20
192.4600863820322
 11
187.3390554332426
 21
195.4600864081093
 72
     1
 10
187.3390554332426
 20
195.4600864081093
 11
186.8390554288964
 21
192.4600863820322
 72
     1
 10
186.8390554288964
 20
192.4600863820322
 11
187.8390554375887
 21
192.4600863820322
 97
        0
 75
     0
 76
     1
 98
        0
  0
LINE
  5
C3
330
C0
100
AcDbEntity
  8
Default
  6
Continuous
 62
     7
100
AcDbLine
 10
153.1666732275
 20
181.4660063936
 30
0.0
 11
188.8390554463
 21
181.4660063936
 31
0.0
  0
LINE
  5
C4
330
C0
100
AcDbEntity
  8
Default
  6
Continuous
 62
     7
100
AcDbLine
 10
172.1129396324
 20
195.460086259
 30
0.0
 11
188.8390554463
 21
195.460086259
 31
0.0
  0
LINE
  5
C5
330
C0
100
AcDbEntity
  8
Default
  6
Continuous
 62
     7
100
AcDbLine
 10
187.3390554332
 20
181.4660063936
 30
0.0
 11
187.3390554332
 21
195.4600864081
 31
0.0
  0
TEXT
  5
C6
330
C0
100
AcDbEntity
  8
Default
  6
Continuous
 62
     7
100
AcDbText
 10
186.5890554332
 20
186.9630464008
 30
0.0
 40
3.0
  1
14
 50
90.0
  7
SEACAD_seiso_ttf
 11
183.5890554332
 21
186.9630464008
 31
0.0
100
AcDbText
 73
     3
  0
ENDBLK
  5
C8
330
C0
100
AcDbEntity
  8
0
100
AcDbBlockEnd
  0
BLOCK
  5
D3
330
CB
100
AcDbEntity
  8
0
100
AcDbBlockBegin
  2
DMBLK5
 70
     0
 10
0.0
 20
0.0
 30
0.0
  3
DMBLK5
  1

  0
HATCH
  5
CC
330
CB
100
AcDbEntity
  8
Default
  6
Continuous
 62
     7
100
AcDbHatch
 10
0.0
 20
0.0
 30
0.0
210
0.0
220
0.0
230
1.0
  2
SOLID
 70
     1
 71
     0
 91
        1
 92
        1
 93
        3
 72
     1
 10
57.15819809921825
 20
250.3940490518227
 11
57.15819809921825
 21
249.3940490431303
 72
     1
 10
57.15819809921825
 20
249.3940490431303
 11
60.15819812529529
 21
249.8940490474765
 72
     1
 10
60.15819812529529
 20
249.8940490474765
 11
57.15819809921825
 21
250.3940490518227
 97
        0
 75
     0
 76
     1
 98
        0
  0
HATCH
  5
CD
330
CB
100
AcDbEntity
  8
Default
  6
Continuous
 62
     7
100
AcDbHatch
 10
0.0
 20
0.0
 30
0.0
210
0.0
220
0.0
230
1.0
  2
SOLID
 70
     1
 71
     0
 91
        1
 92
        1
 93
        3
 72
     1
 10
71.25819815137233
 20
250.3940490518227
 11
68.2581981252953
 21
249.8940490474765
 72
     1
 10
68.2581981252953
 20
249.8940490474765
 11
71.25819815137233
 21
249.3940490431303
 72
     1
 10
71.25819815137233
 20
249.3940490431303
 11
71.25819815137233
 21
250.3940490518227
 97
        0
 75
     0
 76
     1
 98
        0
  0
LINE
  5
CE
330
CB
100
AcDbEntity
  8
Default
  6
Continuous
 62
     7
100
AcDbLine
 10
60.1581981253
 20
239.1843414223
 30
0.0
 11
60.1581981253
 21
251.3940490605
 31
0.0
  0
LINE
  5
CF
330
CB
100
AcDbEntity
  8
Default
  6
Continuous
 62
     7
100
AcDbLine
 10
68.2581981253
 20
239.1843414223
 30
0.0
 11
68.2581981253
 21
251.3940490605
 31
0.0
  0
LINE
  5
D0
330
CB
100
AcDbEntity
  8
Default
  6
Continuous
 62
     7
100
AcDbLine
 10
54.1581980731
 20
249.8940490475
 30
0.0
 11
74.2581983876
 21
249.8940490475
 31
0.0
  0
TEXT
  5
D1
330
CB
100
AcDbEntity
  8
Default
  6
Continuous
 62
     7
100
AcDbText
 10
65.1067095444
 20
250.6440490475
 30
0.0
 40
3.0
  1
8
  7
SEACAD_seiso_ttf
 11
65.1067095444
 21
253.6440490475
 31
0.0
100
AcDbText
 73
     3
  0
TEXT
  5
D2
330
CB
100
AcDbEntity
  8
Default
  6
Continuous
 62
     7
100
AcDbText
 10
61.4005960072
 20
250.6440490475
 30
0.0
 40
3.0
  1
q
  7
SEACAD_semeci1_ttf
 11
61.4005960072
 21
253.6440490475
 31
0.0
100
AcDbText
 73
     3
  0
ENDBLK
  5
D4
330
CB
100
AcDbEntity
  8
0
100
AcDbBlockEnd
  0
BLOCK
  5
DE
330
D6
100
AcDbEntity
  8
0
100
AcDbBlockBegin
  2
DMBLK6
 70
     0
 10
0.0
 20
0.0
 30
0.0
  3
DMBLK6
  1

  0
HATCH
  5
D7
330
D6
100
AcDbEntity
  8
Default
  6
Continuous
 62
     7
100
AcDbHatch
 10
0.0
 20
0.0
 30
0.0
210
0.0
220
0.0
230
1.0
  2
SOLID
 70
     1
 71
     0
 91
        1
 92
        1
 93
        3
 72
     1
 10
56.20819815137243
 20
267.7288665730968
 11
53.2081981252954
 21
267.2288665687506
 72
     1
 10
53.2081981252954
 20
267.2288665687506
 11
56.20819815137243
 21
266.7288665644044
 72
     1
 10
56.20819815137243
 20
266.7288665644044
 11
56.20819815137243
 21
267.7288665730968
 97
        0
 75
     0
 76
     1
 98
        0
  0
HATCH
  5
D8
330
D6
100
AcDbEntity
  8
Default
  6
Continuous
 62
     7
100
AcDbHatch
 10
0.0
 20
0.0
 30
0.0
210
0.0
220
0.0
230
1.0
  2
SOLID
 70
     1
 71
     0
 91
        1
 92
        1
 93
        3
 72
     1
 10
72.20819798000907
 20
267.7288665730968
 11
72.20819798000907
 21
266.7288665644044
 72
     1
 10
72.20819798000907
 20
266.7288665644044
 11
75.2081980060861
 21
267.2288665687506
 72
     1
 10
75.2081980060861
 20
267.2288665687506
 11
72.20819798000907
 21
267.7288665730968
 97
        0
 75
     0
 76
     1
 98
        0
  0
LINE
  5
D9
330
D6
100
AcDbEntity
  8
Default
  6
Continuous
 62
     7
100
AcDbLine
 10
53.2081981253
 20
230.1843414223
 30
0.0
 11
53.2081981253
 21
268.7288665818
 31
0.0
  0
LINE
  5
DA
330
D6
100
AcDbEntity
  8
Default
  6
Continuous
 62
     7
100
AcDbLine
 10
75.2081981253
 20
230.1843414223
 30
0.0
 11
75.2081981253
 21
268.7288665818
 31
0.0
  0
LINE
  5
DB
330
D6
100
AcDbEntity
  8
Default
  6
Continuous
 62
     7
100
AcDbLine
 10
53.2081981253
 20
267.2288665688
 30
0.0
 11
75.2081980061
 21
267.2288665688
 31
0.0
  0
TEXT
  5
DC
330
D6
100
AcDbEntity
  8
Default
  6
Continuous
 62
     7
100
AcDbText
 10
64.1875946516
 20
267.9788665688
 30
0.0
 40
3.0
  1
22
  7
SEACAD_seiso_ttf
 11
64.1875946516
 21
270.9788665688
 31
0.0
100
AcDbText
 73
     3
  0
TEXT
  5
DD
330
D6
100
AcDbEntity
  8
Default
  6
Continuous
 62
     7
100
AcDbText
 10
60.5469832979
 20
267.9788665688
 30
0.0
 40
3.0
  1
O
  7
SEACAD_semeci1_ttf
 11
60.5469832979
 21
270.9788665688
 31
0.0
100
AcDbText
 73
     3
  0
ENDBLK
  5
DF
330
D6
100
AcDbEntity
  8
0
100
AcDbBlockEnd
  0
BLOCK
  5
E9
330
E1
100
AcDbEntity
  8
0
100
AcDbBlockBegin
  2
DMBLK7
 70
     0
 10
0.0
 20
0.0
 30
0.0
  3
DMBLK7
  1

  0
HATCH
  5
E2
330
E1
100
AcDbEntity
  8
Default
  6
Continuous
 62
     7
100
AcDbHatch
 10
0.0
 20
0.0
 30
0.0
210
0.0
220
0.0
230
1.0
  2
SOLID
 70
     1
 71
     0
 91
        1
 92
        1
 93
        3
 72
     1
 10
59.20819815137232
 20
259.024285214068
 11
56.20819812529529
 21
258.5242852097218
 72
     1
 10
56.20819812529529
 20
258.5242852097218
 11
59.20819815137232
 21
258.0242852053756
 72
     1
 10
59.20819815137232
 20
258.0242852053756
 11
59.20819815137232
 21
259.024285214068
 97
        0
 75
     0
 76
     1
 98
        0
  0
HATCH
  5
E3
330
E1
100
AcDbEntity
  8
Default
  6
Continuous
 62
     7
100
AcDbHatch
 10
0.0
 20
0.0
 30
0.0
210
0.0
220
0.0
230
1.0
  2
SOLID
 70
     1
 71
     0
 91
        1
 92
        1
 93
        3
 72
     1
 10
69.20819885917747
 20
259.024285214068
 11
69.20819885917747
 21
258.0242852053756
 72
     1
 10
69.20819885917747
 20
258.0242852053756
 11
72.2081988852545
 21
258.5242852097218
 72
     1
 10
72.2081988852545
 20
258.5242852097218
 11
69.20819885917747
 21
259.024285214068
 97
        0
 75
     0
 76
     1
 98
        0
  0
LINE
  5
E4
330
E1
100
AcDbEntity
  8
Default
  6
Continuous
 62
     7
100
AcDbLine
 10
56.2081981253
 20
234.5343414223
 30
0.0
 11
56.2081981253
 21
260.0242852228
 31
0.0
  0
LINE
  5
E5
330
E1
100
AcDbEntity
  8
Default
  6
Continuous
 62
     7
100
AcDbLine
 10
72.2081981253
 20
234.5343414223
 30
0.0
 11
72.2081981253
 21
260.0242852228
 31
0.0
  0
LINE
  5
E6
330
E1
100
AcDbEntity
  8
Default
  6
Continuous
 62
     7
100
AcDbLine
 10
56.2081981253
 20
258.5242852097
 30
0.0
 11
72.2081988853
 21
258.5242852097
 31
0.0
  0
TEXT
  5
E7
330
E1
100
AcDbEntity
  8
Default
  6
Continuous
 62
     7
100
AcDbText
 10
64.494413273
 20
259.2742852097
 30
0.0
 40
3.0
  1
16
  7
SEACAD_seiso_ttf
 11
64.494413273
 21
262.2742852097
 31
0.0
100
AcDbText
 73
     3
  0
TEXT
  5
E8
330
E1
100
AcDbEntity
  8
Default
  6
Continuous
 62
     7
100
AcDbText
 10
60.8538019193
 20
259.2742852097
 30
0.0
 40
3.0
  1
O
  7
SEACAD_semeci1_ttf
 11
60.8538019193
 21
262.2742852097
 31
0.0
100
AcDbText
 73
     3
  0
ENDBLK
  5
EA
330
E1
100
AcDbEntity
  8
0
100
AcDbBlockEnd
  0
ENDSEC
  0
SECTION
  2
ENTITIES
  0
TEXT
  5
5E
330
1F
100
AcDbEntity
  8
Default
  6
Continuous
 62
     7
100
AcDbText
 10
82.2234861129
 20
115.0491478234
 30
0.0
 40
5.0
  1
32.640
  7
SEACAD_seiso_ttf
 11
82.2234861129
 21
120.0491478234
 31
0.0
100
AcDbText
 73
     3
  0
INSERT
  5
61
330
1F
100
AcDbEntity
  8
0
100
AcDbBlockReference
  2
SE
 10
0.0
 20
0.0
 30
0.0
  0
DIMENSION
  5
A1
330
1F
100
AcDbEntity
  8
Default
  6
Continuous
 62
     7
100
AcDbDimension
  2
DMBLK1
 10
34.3744211894
 20
181.4660063936
 30
0.0
 11
34.3744211894
 21
204.9757843977
 31
0.0
 70
   160
  1
\A1;<>
 71
     5
 42
-1.0
  3
DIN
100
AcDbAlignedDimension
 13
53.2081981253
 23
230.1843414223
 33
0.0
 14
153.1666732275
 24
181.4660063936
 34
0.0
 50
90.0
100
AcDbRotatedDimension
  0
DIMENSION
  5
AB
330
1F
100
AcDbEntity
  8
Default
  6
Continuous
 62
     7
100
AcDbDimension
  2
DMBLK2
 10
34.3744211894
 20
239.1843414223
 30
0.0
 11
34.3744211894
 21
234.6843412286
 31
0.0
 70
   160
  1
\A1;<>
 71
     5
 42
-1.0
  3
DIN
100
AcDbAlignedDimension
 13
53.2081981253
 23
230.1843414223
 33
0.0
 14
56.5081981253
 24
239.1843414223
 34
0.0
 50
90.0
100
AcDbRotatedDimension
1001
ACAD
1000
DSTYLE
1002
{
1070
   271
1070
     2
1070
   272
1070
     2
1070
     0
1002
}
  0
DIMENSION
  5
B5
330
1F
100
AcDbEntity
  8
Default
  6
Continuous
 62
     7
100
AcDbDimension
  2
DMBLK3
 10
169.2076129607
 20
164.4559675967
 30
0.0
 11
111.2079058837
 21
164.4559675967
 31
0.0
 70
   160
  1
\A1;<>
 71
     5
 42
-1.0
  3
DIN
100
AcDbAlignedDimension
 13
53.2081981253
 23
230.1843414223
 33
0.0
 14
169.2076129607
 24
182.8723994924
 34
0.0
100
AcDbRotatedDimension
1001
ACAD
1000
DSTYLE
1002
{
1070
   271
1070
     2
1070
   272
1070
     2
1070
     0
1002
}
  0
DIMENSION
  5
BF
330
1F
100
AcDbEntity
  8
Default
  6
Continuous
 62
     7
100
AcDbDimension
  2
DMBLK4
 10
187.3390554332
 20
195.460086259
 30
0.0
 11
187.3390554332
 21
188.4630464008
 31
0.0
 70
   160
  1
\A1;<>
 71
     5
 42
-1.0
  3
DIN
100
AcDbAlignedDimension
 13
153.1666732275
 23
181.4660063936
 33
0.0
 14
172.1129396324
 24
195.460086259
 34
0.0
 50
90.0
100
AcDbRotatedDimension
  0
DIMENSION
  5
C9
330
1F
100
AcDbEntity
  8
Default
  6
Continuous
 62
     7
100
AcDbDimension
  2
DMBLK5
 10
60.1581981253
 20
249.8940490475
 30
0.0
 11
64.2081982303
 21
249.8940490475
 31
0.0
 70
   161
  1
\A1;{\Fsemeca1.ttf;q} <>
 71
     5
 42
-1.0
  3
DIN
100
AcDbAlignedDimension
 13
60.1581981253
 23
239.1843414223
 33
0.0
 14
68.2581981253
 24
239.1843414223
 34
0.0
  0
DIMENSION
  5
D5
330
1F
100
AcDbEntity
  8
Default
  6
Continuous
 62
     7
100
AcDbDimension
  2
DMBLK6
 10
53.2081981253
 20
267.2288665688
 30
0.0
 11
64.2081980657
 21
267.2288665688
 31
0.0
 70
   161
  1
\A1;%%C <>
 71
     5
 42
-1.0
  3
DIN
100
AcDbAlignedDimension
 13
53.2081981253
 23
230.1843414223
 33
0.0
 14
75.2081981253
 24
230.1843414223
 34
0.0
1001
ACAD
1000
DSTYLE
1002
{
1070
   271
1070
     2
1070
   272
1070
     2
1070
     0
1002
}
  0
DIMENSION
  5
E0
330
1F
100
AcDbEntity
  8
Default
  6
Continuous
 62
     7
100
AcDbDimension
  2
DMBLK7
 10
56.2081981253
 20
258.5242852097
 30
0.0
 11
64.2081985053
 21
258.5242852097
 31
0.0
 70
   161
  1
\A1;%%C <>
 71
     5
 42
-1.0
  3
DIN
100
AcDbAlignedDimension
 13
56.2081981253
 23
234.5343414223
 33
0.0
 14
72.2081981253
 24
234.5343414223
 34
0.0
1001
ACAD
1000
DSTYLE
1002
{
1070
   271
1070
     2
1070
   272
1070
     2
1070
     0
1002
}
  0
ENDSEC
  0
SECTION
  2
OBJECTS
  0
DICTIONARY
  5
C
330
0
100
AcDbDictionary
281
     1
  3
ACAD_GROUP
350
D
  3
ACAD_LAYOUT
350
1A
  3
ACAD_MLEADERSTYLE
350
EE
  3
ACAD_MLINESTYLE
350
17
  3
ACAD_PLOTSETTINGS
350
19
  3
ACAD_PLOTSTYLENAME
350
E
  3
ACAD_SCALELIST
350
3B
  3
ACAD_TABLESTYLE
350
ED
  3
ACAD_VISUALSTYLE
350
2A
  3
AcDbVariableDictionary
350
EB
  0
DICTIONARY
  5
D
102
{ACAD_REACTORS
330
C
102
}
330
C
100
AcDbDictionary
281
     1
  0
DICTIONARY
  5
1A
102
{ACAD_REACTORS
330
C
102
}
330
C
100
AcDbDictionary
281
     1
  3
Layout1
350
1E
  3
Model
350
22
  0
DICTIONARY
  5
EE
102
{ACAD_REACTORS
330
C
102
}
330
C
100
AcDbDictionary
281
     1
  0
DICTIONARY
  5
17
102
{ACAD_REACTORS
330
C
102
}
330
C
100
AcDbDictionary
281
     1
  3
Standard
350
18
  0
DICTIONARY
  5
19
102
{ACAD_REACTORS
330
C
102
}
330
C
100
AcDbDictionary
281
     1
  0
ACDBDICTIONARYWDFLT
  5
E
102
{ACAD_REACTORS
330
C
102
}
330
C
100
AcDbDictionary
281
     1
  3
Normal
350
F
100
AcDbDictionaryWithDefault
340
F
  0
DICTIONARY
  5
3B
102
{ACAD_REACTORS
330
C
102
}
330
C
100
AcDbDictionary
281
     1
  3
A0
350
3C
  3
A1
350
3D
  3
A2
350
3E
  3
A3
350
3F
  3
A4
350
40
  3
A5
350
41
  3
A6
350
42
  3
A7
350
43
  3
A8
350
44
  3
A9
350
45
  3
B0
350
46
  3
B1
350
47
  3
B2
350
48
  3
B3
350
49
  3
B4
350
4A
  3
B5
350
4B
  3
B6
350
4C
  3
B7
350
4D
  3
B8
350
4E
  3
B9
350
4F
  3
C0
350
50
  3
C1
350
51
  3
C2
350
52
  3
C3
350
53
  3
C4
350
54
  3
C5
350
55
  3
C6
350
56
  3
C7
350
57
  3
C8
350
58
  3
C9
350
59
  3
D0
350
5A
  3
D1
350
5B
  3
D2
350
5C
  0
DICTIONARY
  5
ED
102
{ACAD_REACTORS
330
C
102
}
330
C
100
AcDbDictionary
281
     1
  0
DICTIONARY
  5
2A
102
{ACAD_REACTORS
330
C
102
}
330
C
100
AcDbDictionary
281
     1
  3
2dWireframe
350
2F
  3
3D Hidden
350
31
  3
3dWireframe
350
30
  3
Basic
350
32
  3
Brighten
350
36
  3
ColorChange
350
3A
  3
Conceptual
350
34
  3
Dim
350
35
  3
Facepattern
350
39
  3
Flat
350
2B
  3
FlatWithEdges
350
2C
  3
Gouraud
350
2D
  3
GouraudWithEdges
350
2E
  3
Linepattern
350
38
  3
Realistic
350
33
  3
Thicken
350
37
  0
DICTIONARY
  5
EB
102
{ACAD_REACTORS
330
C
102
}
330
C
100
AcDbDictionary
281
     1
  3
CANNOSCALE
350
EC
  3
PSOLHEIGHT
350
F0
  3
PSOLWIDTH
350
EF
  0
LAYOUT
  5
1E
102
{ACAD_REACTORS
330
1A
102
}
330
1A
100
AcDbPlotSettings
  1

  2
none_device
  4

  6

 40
0.0
 41
0.0
 42
0.0
 43
0.0
 44
0.0
 45
0.0
 46
0.0
 47
0.0
 48
0.0
 49
0.0
140
0.0
141
0.0
142
1.0
143
1.0
 70
   688
 72
     0
 73
     0
 74
     5
  7

 75
    16
147
1.0
148
0.0
149
0.0
100
AcDbLayout
  1
Layout1
 70
     1
 71
     1
 10
0.0
 20
0.0
 11
210.0
 21
297.0
 12
0.0
 22
0.0
 32
0.0
 14
0.0
 24
0.0
 34
0.0
 15
210.0
 25
297.0
 35
0.0
146
0.0
 13
0.0
 23
0.0
 33
0.0
 16
1.0
 26
0.0
 36
0.0
 17
0.0
 27
1.0
 37
0.0
 76
     0
330
1B
  0
LAYOUT
  5
22
102
{ACAD_REACTORS
330
1A
102
}
330
1A
100
AcDbPlotSettings
  1

  2
none_device
  4

  6

 40
0.0
 41
0.0
 42
0.0
 43
0.0
 44
0.0
 45
0.0
 46
0.0
 47
0.0
 48
0.0
 49
0.0
140
0.0
141
0.0
142
1.0
143
1.0
 70
  1712
 72
     0
 73
     0
 74
     0
  7

 75
     0
147
1.0
148
0.0
149
0.0
100
AcDbLayout
  1
Model
 70
     1
 71
     0
 10
0.0
 20
0.0
 11
210.0
 21
297.0
 12
0.0
 22
0.0
 32
0.0
 14
0.0
 24
0.0
 34
0.0
 15
210.0
 25
297.0
 35
0.0
146
0.0
 13
0.0
 23
0.0
 33
0.0
 16
1.0
 26
0.0
 36
0.0
 17
0.0
 27
1.0
 37
0.0
 76
     0
330
1F
331
29
  0
MLINESTYLE
  5
18
102
{ACAD_REACTORS
330
17
102
}
330
17
100
AcDbMlineStyle
  2
Standard
 70
     0
  3

 62
   256
 51
90.0
 52
90.0
 71
     2
 49
0.5
 62
   256
  6
BYLAYER
 49
-0.5
 62
   256
  6
BYLAYER
  0
ACDBPLACEHOLDER
  5
F
102
{ACAD_REACTORS
330
E
102
}
330
E
  0
SCALE
  5
3C
102
{ACAD_REACTORS
330
3B
102
}
330
3B
100
AcDbScale
 70
     0
300
1:1
140
1.0
141
1.0
290
     1
  0
SCALE
  5
3D
102
{ACAD_REACTORS
330
3B
102
}
330
3B
100
AcDbScale
 70
     0
300
1:2
140
1.0
141
2.0
290
     0
  0
SCALE
  5
3E
102
{ACAD_REACTORS
330
3B
102
}
330
3B
100
AcDbScale
 70
     0
300
1:4
140
1.0
141
4.0
290
     0
  0
SCALE
  5
3F
102
{ACAD_REACTORS
330
3B
102
}
330
3B
100
AcDbScale
 70
     0
300
1:5
140
1.0
141
5.0
290
     0
  0
SCALE
  5
40
102
{ACAD_REACTORS
330
3B
102
}
330
3B
100
AcDbScale
 70
     0
300
1:8
140
1.0
141
8.0
290
     0
  0
SCALE
  5
41
102
{ACAD_REACTORS
330
3B
102
}
330
3B
100
AcDbScale
 70
     0
300
1:10
140
1.0
141
10.0
290
     0
  0
SCALE
  5
42
102
{ACAD_REACTORS
330
3B
102
}
330
3B
100
AcDbScale
 70
     0
300
1:16
140
1.0
141
16.0
290
     0
  0
SCALE
  5
43
102
{ACAD_REACTORS
330
3B
102
}
330
3B
100
AcDbScale
 70
     0
300
1:20
140
1.0
141
20.0
290
     0
  0
SCALE
  5
44
102
{ACAD_REACTORS
330
3B
102
}
330
3B
100
AcDbScale
 70
     0
300
1:30
140
1.0
141
30.0
290
     0
  0
SCALE
  5
45
102
{ACAD_REACTORS
330
3B
102
}
330
3B
100
AcDbScale
 70
     0
300
1:40
140
1.0
141
40.0
290
     0
  0
SCALE
  5
46
102
{ACAD_REACTORS
330
3B
102
}
330
3B
100
AcDbScale
 70
     0
300
1:50
140
1.0
141
50.0
290
     0
  0
SCALE
  5
47
102
{ACAD_REACTORS
330
3B
102
}
330
3B
100
AcDbScale
 70
     0
300
1:100
140
1.0
141
100.0
290
     0
  0
SCALE
  5
48
102
{ACAD_REACTORS
330
3B
102
}
330
3B
100
AcDbScale
 70
     0
300
2:1
140
2.0
141
1.0
290
     0
  0
SCALE
  5
49
102
{ACAD_REACTORS
330
3B
102
}
330
3B
100
AcDbScale
 70
     0
300
4:1
140
4.0
141
1.0
290
     0
  0
SCALE
  5
4A
102
{ACAD_REACTORS
330
3B
102
}
330
3B
100
AcDbScale
 70
     0
300
8:1
140
8.0
141
1.0
290
     0
  0
SCALE
  5
4B
102
{ACAD_REACTORS
330
3B
102
}
330
3B
100
AcDbScale
 70
     0
300
10:1
140
10.0
141
1.0
290
     0
  0
SCALE
  5
4C
102
{ACAD_REACTORS
330
3B
102
}
330
3B
100
AcDbScale
 70
     0
300
100:1
140
100.0
141
1.0
290
     0
  0
SCALE
  5
4D
102
{ACAD_REACTORS
330
3B
102
}
330
3B
100
AcDbScale
 70
     0
300
1/128" = 1'-0"
140
0.0078125
141
12.0
290
     0
  0
SCALE
  5
4E
102
{ACAD_REACTORS
330
3B
102
}
330
3B
100
AcDbScale
 70
     0
300
1/64" = 1'-0"
140
0.015625
141
12.0
290
     0
  0
SCALE
  5
4F
102
{ACAD_REACTORS
330
3B
102
}
330
3B
100
AcDbScale
 70
     0
300
1/32" = 1'-0"
140
0.03125
141
12.0
290
     0
  0
SCALE
  5
50
102
{ACAD_REACTORS
330
3B
102
}
330
3B
100
AcDbScale
 70
     0
300
1/16" = 1'-0"
140
0.0625
141
12.0
290
     0
  0
SCALE
  5
51
102
{ACAD_REACTORS
330
3B
102
}
330
3B
100
AcDbScale
 70
     0
300
3/32" = 1'-0"
140
0.09375
141
12.0
290
     0
  0
SCALE
  5
52
102
{ACAD_REACTORS
330
3B
102
}
330
3B
100
AcDbScale
 70
     0
300
1/8" = 1'-0"
140
0.125
141
12.0
290
     0
  0
SCALE
  5
53
102
{ACAD_REACTORS
330
3B
102
}
330
3B
100
AcDbScale
 70
     0
300
3/16" = 1'-0"
140
0.1875
141
12.0
290
     0
  0
SCALE
  5
54
102
{ACAD_REACTORS
330
3B
102
}
330
3B
100
AcDbScale
 70
     0
300
1/4" = 1'-0"
140
0.25
141
12.0
290
     0
  0
SCALE
  5
55
102
{ACAD_REACTORS
330
3B
102
}
330
3B
100
AcDbScale
 70
     0
300
3/8" = 1'-0"
140
0.375
141
12.0
290
     0
  0
SCALE
  5
56
102
{ACAD_REACTORS
330
3B
102
}
330
3B
100
AcDbScale
 70
     0
300
1/2" = 1'-0"
140
0.5
141
12.0
290
     0
  0
SCALE
  5
57
102
{ACAD_REACTORS
330
3B
102
}
330
3B
100
AcDbScale
 70
     0
300
3/4" = 1'-0"
140
0.75
141
12.0
290
     0
  0
SCALE
  5
58
102
{ACAD_REACTORS
330
3B
102
}
330
3B
100
AcDbScale
 70
     0
300
1" = 1'-0"
140
1.0
141
12.0
290
     0
  0
SCALE
  5
59
102
{ACAD_REACTORS
330
3B
102
}
330
3B
100
AcDbScale
 70
     0
300
1-1/2" = 1'-0"
140
1.5
141
12.0
290
     0
  0
SCALE
  5
5A
102
{ACAD_REACTORS
330
3B
102
}
330
3B
100
AcDbScale
 70
     0
300
3" = 1'-0"
140
3.0
141
12.0
290
     0
  0
SCALE
  5
5B
102
{ACAD_REACTORS
330
3B
102
}
330
3B
100
AcDbScale
 70
     0
300
6" = 1'-0"
140
6.0
141
12.0
290
     0
  0
SCALE
  5
5C
102
{ACAD_REACTORS
330
3B
102
}
330
3B
100
AcDbScale
 70
     0
300
1'-0" = 1'-0"
140
12.0
141
12.0
290
     0
  0
VISUALSTYLE
  5
2F
102
{ACAD_REACTORS
330
2A
102
}
330
2A
100
AcDbVisualStyle
  2
2dWireframe
 70
     4
 71
     0
 72
     2
 73
     0
 90
        0
 40
-0.6
 41
-30.0
 62
     5
 63
     7
 74
     1
 91
        4
 64
     7
 65
   257
 75
     1
175
     1
 42
1.0
 92
        0
 66
   257
 43
1.0
 76
     1
 77
     6
 78
     2
 67
     7
 79
     5
170
     0
171
     0
290
     0
174
     0
 93
        1
 44
0.0
173
     0
291
     0
 45
0.0
1001
ACAD
1000
AcDbSavedByObjectVersion
1070
     0
  0
VISUALSTYLE
  5
31
102
{ACAD_REACTORS
330
2A
102
}
330
2A
100
AcDbVisualStyle
  2
3D Hidden
 70
     6
 71
     1
 72
     2
 73
     2
 90
        0
 40
-0.6
 41
-30.0
 62
     5
 63
     7
 74
     2
 91
        2
 64
     7
 65
   257
 75
     2
175
     1
 42
40.0
 92
        0
 66
   257
 43
1.0
 76
     1
 77
     6
 78
     2
 67
     7
 79
     3
170
     0
171
     0
290
     0
174
     0
 93
        1
 44
0.0
173
     0
291
     0
 45
0.0
1001
ACAD
1000
AcDbSavedByObjectVersion
1070
     0
  0
VISUALSTYLE
  5
30
102
{ACAD_REACTORS
330
2A
102
}
330
2A
100
AcDbVisualStyle
  2
3dWireframe
 70
     5
 71
     0
 72
     2
 73
     0
 90
        0
 40
-0.6
 41
-30.0
 62
     5
 63
     7
 74
     1
 91
        4
 64
     7
 65
   257
 75
     1
175
     1
 42
1.0
 92
        0
 66
   257
 43
1.0
 76
     1
 77
     6
 78
     2
 67
     7
 79
     5
170
     0
171
     0
290
     0
174
     0
 93
        1
 44
0.0
173
     0
291
     0
 45
0.0
1001
ACAD
1000
AcDbSavedByObjectVersion
1070
     0
  0
VISUALSTYLE
  5
32
102
{ACAD_REACTORS
330
2A
102
}
330
2A
100
AcDbVisualStyle
  2
Basic
 70
     7
 71
     1
 72
     0
 73
     1
 90
        0
 40
-0.6
 41
-30.0
 62
     5
 63
     7
 74
     0
 91
        4
 64
     7
 65
   257
 75
     1
175
     1
 42
1.0
 92
        8
 66
     7
 43
1.0
 76
     1
 77
     6
 78
     2
 67
     7
 79
     5
170
     0
171
     0
290
     0
174
     0
 93
        1
 44
0.0
173
     0
291
     1
 45
0.0
1001
ACAD
1000
AcDbSavedByObjectVersion
1070
     0
  0
VISUALSTYLE
  5
36
102
{ACAD_REACTORS
330
2A
102
}
330
2A
100
AcDbVisualStyle
  2
Brighten
 70
    12
 71
     2
 72
     2
 73
     0
 90
        0
 40
-0.6
 41
-30.0
 62
     5
 63
     7
 74
     1
 91
        4
 64
     7
 65
   257
 75
     1
175
     1
 42
1.0
 92
        8
 66
     7
 43
1.0
 76
     1
 77
     6
 78
     2
 67
     7
 79
     5
170
     0
171
     0
290
     0
174
     0
 93
        1
 44
50.0
173
     0
291
     1
 45
0.0
1001
ACAD
1000
AcDbSavedByObjectVersion
1070
     0
  0
VISUALSTYLE
  5
3A
102
{ACAD_REACTORS
330
2A
102
}
330
2A
100
AcDbVisualStyle
  2
ColorChange
 70
    16
 71
     2
 72
     2
 73
     3
 90
        0
 40
-0.6
 41
-30.0
 62
     5
 63
     8
 74
     1
 91
        4
 64
     7
 65
   257
 75
     1
175
     1
 42
1.0
 92
        8
 66
     8
 43
1.0
 76
     1
 77
     6
 78
     2
 67
     7
 79
     5
170
     0
171
     0
290
     0
174
     0
 93
        1
 44
0.0
173
     0
291
     1
 45
0.0
1001
ACAD
1000
AcDbSavedByObjectVersion
1070
     0
  0
VISUALSTYLE
  5
34
102
{ACAD_REACTORS
330
2A
102
}
330
2A
100
AcDbVisualStyle
  2
Conceptual
 70
     9
 71
     3
 72
     2
 73
     0
 90
        0
 40
-0.6
 41
-30.0
 62
     5
 63
     7
 74
     2
 91
        2
 64
     7
 65
   257
 75
     1
175
     1
 42
40.0
 92
        8
 66
     7
 43
1.0
 76
     1
 77
     6
 78
     2
 67
     7
 79
     3
170
     0
171
     0
290
     0
174
     0
 93
        1
 44
0.0
173
     0
291
     0
 45
0.0
1001
ACAD
1000
AcDbSavedByObjectVersion
1070
     0
  0
VISUALSTYLE
  5
35
102
{ACAD_REACTORS
330
2A
102
}
330
2A
100
AcDbVisualStyle
  2
Dim
 70
    11
 71
     2
 72
     2
 73
     0
 90
        0
 40
-0.6
 41
-30.0
 62
     5
 63
     7
 74
     1
 91
        4
 64
     7
 65
   257
 75
     1
175
     1
 42
1.0
 92
        8
 66
     7
 43
1.0
 76
     1
 77
     6
 78
     2
 67
     7
 79
     5
170
     0
171
     0
290
     0
174
     0
 93
        1
 44
-50.0
173
     0
291
     1
 45
0.0
1001
ACAD
1000
AcDbSavedByObjectVersion
1070
     0
  0
VISUALSTYLE
  5
39
102
{ACAD_REACTORS
330
2A
102
}
330
2A
100
AcDbVisualStyle
  2
Facepattern
 70
    15
 71
     2
 72
     2
 73
     0
 90
        0
 40
-0.6
 41
-30.0
 62
     5
 63
     7
 74
     1
 91
        4
 64
     7
 65
   257
 75
     1
175
     1
 42
1.0
 92
        8
 66
     7
 43
1.0
 76
     1
 77
     6
 78
     2
 67
     7
 79
     5
170
     0
171
     0
290
     0
174
     0
 93
        1
 44
0.0
173
     0
291
     1
 45
0.0
1001
ACAD
1000
AcDbSavedByObjectVersion
1070
     0
  0
VISUALSTYLE
  5
2B
102
{ACAD_REACTORS
330
2A
102
}
330
2A
100
AcDbVisualStyle
  2
Flat
 70
     0
 71
     2
 72
     1
 73
     1
 90
        2
 40
-0.6
 41
30.0
 62
     5
 63
     7
 74
     0
 91
        4
 64
     7
 65
   257
 75
     1
175
     1
 42
1.0
 92
        8
 66
     7
 43
1.0
 76
     1
 77
     6
 78
     2
 67
     7
 79
     5
170
     0
171
     0
290
     0
174
     0
 93
       13
 44
0.0
173
     0
291
     1
 45
0.0
1001
ACAD
1000
AcDbSavedByObjectVersion
1070
     0
  0
VISUALSTYLE
  5
2C
102
{ACAD_REACTORS
330
2A
102
}
330
2A
100
AcDbVisualStyle
  2
FlatWithEdges
 70
     1
 71
     2
 72
     1
 73
     1
 90
        2
 40
-0.6
 41
30.0
 62
     5
 63
     7
 74
     1
 91
        4
 64
     7
 65
   257
 75
     1
175
     1
 42
1.0
 92
        0
 66
   257
 43
1.0
 76
     1
 77
     6
 78
     2
 67
     7
 79
     5
170
     0
171
     0
290
     0
174
     0
 93
       13
 44
0.0
173
     0
291
     1
 45
0.0
1001
ACAD
1000
AcDbSavedByObjectVersion
1070
     0
  0
VISUALSTYLE
  5
2D
102
{ACAD_REACTORS
330
2A
102
}
330
2A
100
AcDbVisualStyle
  2
Gouraud
 70
     2
 71
     2
 72
     2
 73
     1
 90
        2
 40
-0.6
 41
30.0
 62
     5
 63
     7
 74
     0
 91
        4
 64
     7
 65
   257
 75
     1
175
     1
 42
1.0
 92
        0
 66
     7
 43
1.0
 76
     1
 77
     6
 78
     2
 67
     7
 79
     5
170
     0
171
     0
290
     0
174
     0
 93
       13
 44
0.0
173
     0
291
     1
 45
0.0
1001
ACAD
1000
AcDbSavedByObjectVersion
1070
     0
  0
VISUALSTYLE
  5
2E
102
{ACAD_REACTORS
330
2A
102
}
330
2A
100
AcDbVisualStyle
  2
GouraudWithEdges
 70
     3
 71
     2
 72
     2
 73
     1
 90
        2
 40
-0.6
 41
30.0
 62
     5
 63
     7
 74
     1
 91
        4
 64
     7
 65
   257
 75
     1
175
     1
 42
1.0
 92
        0
 66
   257
 43
1.0
 76
     1
 77
     6
 78
     2
 67
     7
 79
     5
170
     0
171
     0
290
     0
174
     0
 93
       13
 44
0.0
173
     0
291
     1
 45
0.0
1001
ACAD
1000
AcDbSavedByObjectVersion
1070
     0
  0
VISUALSTYLE
  5
38
102
{ACAD_REACTORS
330
2A
102
}
330
2A
100
AcDbVisualStyle
  2
Linepattern
 70
    14
 71
     2
 72
     2
 73
     0
 90
        0
 40
-0.6
 41
-30.0
 62
     5
 63
     7
 74
     1
 91
        4
 64
     7
 65
   257
 75
     7
175
     7
 42
1.0
 92
        8
 66
     7
 43
1.0
 76
     1
 77
     6
 78
     2
 67
     7
 79
     5
170
     0
171
     0
290
     0
174
     0
 93
        1
 44
0.0
173
     0
291
     1
 45
0.0
1001
ACAD
1000
AcDbSavedByObjectVersion
1070
     0
  0
VISUALSTYLE
  5
33
102
{ACAD_REACTORS
330
2A
102
}
330
2A
100
AcDbVisualStyle
  2
Realistic
 70
     8
 71
     2
 72
     2
 73
     0
 90
        0
 40
-0.6
 41
-30.0
 62
     5
 63
     7
 74
     1
 91
        0
 64
     7
 65
   257
 75
     1
175
     1
 42
1.0
 92
        8
 66
     8
 43
1.0
 76
     1
 77
     6
 78
     2
 67
     7
 79
     5
170
     0
171
     0
290
     0
174
     0
 93
       13
 44
0.0
173
     0
291
     0
 45
0.0
1001
ACAD
1000
AcDbSavedByObjectVersion
1070
     0
  0
VISUALSTYLE
  5
37
102
{ACAD_REACTORS
330
2A
102
}
330
2A
100
AcDbVisualStyle
  2
Thicken
 70
    13
 71
     2
 72
     2
 73
     0
 90
        0
 40
-0.6
 41
-30.0
 62
     5
 63
     7
 74
     1
 91
        4
 64
     7
 65
   257
 75
     1
175
     1
 42
1.0
 92
       12
 66
     7
 43
1.0
 76
     1
 77
     6
 78
     2
 67
     7
 79
     5
170
     0
171
     0
290
     0
174
     0
 93
        1
 44
0.0
173
     0
291
     1
 45
0.0
1001
ACAD
1000
AcDbSavedByObjectVersion
1070
     0
  0
DICTIONARYVAR
  5
EC
102
{ACAD_REACTORS
330
EB
102
}
330
EB
100
DictionaryVariables
280
     0
  1
1:1
  0
DICTIONARYVAR
  5
F0
102
{ACAD_REACTORS
330
EB
102
}
330
EB
100
DictionaryVariables
280
     0
  1
80.000000
  0
DICTIONARYVAR
  5
EF
102
{ACAD_REACTORS
330
EB
102
}
330
EB
100
DictionaryVariables
280
     0
  1
5.000000
  0
ENDSEC
  0
EOF
