  0
SECTION
  2
HEADER
  9
$ACADVER
  1
AC1015
  9
$ACADMAINTVER
 70
     6
  9
$DWGCODEPAGE
  3
ANSI_1252
  9
$INSBASE
 10
0.0
 20
0.0
 30
0.0
  9
$EXTMIN
 10
0.0
 20
0.0
 30
0.0
  9
$EXTMAX
 10
210.0
 20
297.0
 30
0.0
  9
$LIMMIN
 10
0.0
 20
0.0
  9
$LIMMAX
 10
210.0
 20
297.0
  9
$ORTHOMODE
 70
     0
  9
$REGENMODE
 70
     1
  9
$FILLMODE
 70
     1
  9
$QTEXTMODE
 70
     0
  9
$MIRRTEXT
 70
     1
  9
$LTSCALE
 40
1.0
  9
$ATTMODE
 70
     1
  9
$TEXTSIZE
 40
2.5
  9
$TRACEWID
 40
1.0
  9
$TEXTSTYLE
  7
Standard
  9
$CLAYER
  8
0
  9
$CELTYPE
  6
ByLayer
  9
$CECOLOR
 62
   256
  9
$CELTSCALE
 40
1.0
  9
$DISPSILH
 70
     0
  9
$DIMSCALE
 40
1.0
  9
$DIMASZ
 40
2.5
  9
$DIMEXO
 40
0.625
  9
$DIMDLI
 40
3.75
  9
$DIMRND
 40
0.0
  9
$DIMDLE
 40
0.0
  9
$DIMEXE
 40
1.25
  9
$DIMTP
 40
0.0
  9
$DIMTM
 40
0.0
  9
$DIMTXT
 40
2.5
  9
$DIMCEN
 40
2.5
  9
$DIMTSZ
 40
0.0
  9
$DIMTOL
 70
     0
  9
$DIMLIM
 70
     0
  9
$DIMTIH
 70
     0
  9
$DIMTOH
 70
     0
  9
$DIMSE1
 70
     0
  9
$DIMSE2
 70
     0
  9
$DIMTAD
 70
     1
  9
$DIMZIN
 70
     8
  9
$DIMBLK
  1

  9
$DIMASO
 70
     1
  9
$DIMSHO
 70
     1
  9
$DIMPOST
  1

  9
$DIMAPOST
  1

  9
$DIMALT
 70
     0
  9
$DIMALTD
 70
     3
  9
$DIMALTF
 40
0.0393700787
  9
$DIMLFAC
 40
1.0
  9
$DIMTOFL
 70
     1
  9
$DIMTVP
 40
0.0
  9
$DIMTIX
 70
     0
  9
$DIMSOXD
 70
     0
  9
$DIMSAH
 70
     0
  9
$DIMBLK1
  1

  9
$DIMBLK2
  1

  9
$DIMSTYLE
  2
ISO-25
  9
$DIMCLRD
 70
     0
  9
$DIMCLRE
 70
     0
  9
$DIMCLRT
 70
     0
  9
$DIMTFAC
 40
1.0
  9
$DIMGAP
 40
0.625
  9
$DIMJUST
 70
     0
  9
$DIMSD1
 70
     0
  9
$DIMSD2
 70
     0
  9
$DIMTOLJ
 70
     0
  9
$DIMTZIN
 70
     8
  9
$DIMALTZ
 70
     0
  9
$DIMALTTZ
 70
     0
  9
$DIMUPT
 70
     0
  9
$DIMDEC
 70
     2
  9
$DIMTDEC
 70
     2
  9
$DIMALTU
 70
     2
  9
$DIMALTTD
 70
     3
  9
$DIMTXSTY
  7
Standard
  9
$DIMAUNIT
 70
     0
  9
$DIMADEC
 70
     0
  9
$DIMALTRND
 40
0.0
  9
$DIMAZIN
 70
     0
  9
$DIMDSEP
 70
    44
  9
$DIMATFIT
 70
     3
  9
$DIMFRAC
 70
     0
  9
$DIMLDRBLK
  1

  9
$DIMLUNIT
 70
     2
  9
$DIMLWD
 70
    -2
  9
$DIMLWE
 70
    -2
  9
$DIMTMOVE
 70
     0
  9
$LUNITS
 70
     2
  9
$LUPREC
 70
     4
  9
$SKETCHINC
 40
1.0
  9
$FILLETRAD
 40
10.0
  9
$AUNITS
 70
     0
  9
$AUPREC
 70
     0
  9
$MENU
  1
.
  9
$ELEVATION
 40
0.0
  9
$PELEVATION
 40
0.0
  9
$THICKNESS
 40
0.0
  9
$LIMCHECK
 70
     0
  9
$CHAMFERA
 40
10.0
  9
$CHAMFERB
 40
10.0
  9
$CHAMFERC
 40
20.0
  9
$CHAMFERD
 40
0.0
  9
$SKPOLY
 70
     0
  9
$TDCREATE
 40
2455327.481558762
  9
$TDUCREATE
 40
2455327.398225428
  9
$TDUPDATE
 40
2455327.481558773
  9
$TDUUPDATE
 40
2455327.39822544
  9
$TDINDWG
 40
0.0000000116
  9
$TDUSRTIMER
 40
0.0000000116
  9
$USRTIMER
 70
     1
  9
$ANGBASE
 50
0.0
  9
$ANGDIR
 70
     0
  9
$PDMODE
 70
     0
  9
$PDSIZE
 40
0.0
  9
$PLINEWID
 40
0.0
  9
$SPLFRAME
 70
     0
  9
$SPLINETYPE
 70
     6
  9
$SPLINESEGS
 70
     8
  9
$HANDSEED
  5
11D
  9
$SURFTAB1
 70
     6
  9
$SURFTAB2
 70
     6
  9
$SURFTYPE
 70
     6
  9
$SURFU
 70
     6
  9
$SURFV
 70
     6
  9
$UCSBASE
  2

  9
$UCSNAME
  2

  9
$UCSORG
 10
0.0
 20
0.0
 30
0.0
  9
$UCSXDIR
 10
1.0
 20
0.0
 30
0.0
  9
$UCSYDIR
 10
0.0
 20
1.0
 30
0.0
  9
$UCSORTHOREF
  2

  9
$UCSORTHOVIEW
 70
     0
  9
$UCSORGTOP
 10
0.0
 20
0.0
 30
0.0
  9
$UCSORGBOTTOM
 10
0.0
 20
0.0
 30
0.0
  9
$UCSORGLEFT
 10
0.0
 20
0.0
 30
0.0
  9
$UCSORGRIGHT
 10
0.0
 20
0.0
 30
0.0
  9
$UCSORGFRONT
 10
0.0
 20
0.0
 30
0.0
  9
$UCSORGBACK
 10
0.0
 20
0.0
 30
0.0
  9
$PUCSBASE
  2

  9
$PUCSNAME
  2

  9
$PUCSORG
 10
0.0
 20
0.0
 30
0.0
  9
$PUCSXDIR
 10
1.0
 20
0.0
 30
0.0
  9
$PUCSYDIR
 10
0.0
 20
1.0
 30
0.0
  9
$PUCSORTHOREF
  2

  9
$PUCSORTHOVIEW
 70
     0
  9
$PUCSORGTOP
 10
0.0
 20
0.0
 30
0.0
  9
$PUCSORGBOTTOM
 10
0.0
 20
0.0
 30
0.0
  9
$PUCSORGLEFT
 10
0.0
 20
0.0
 30
0.0
  9
$PUCSORGRIGHT
 10
0.0
 20
0.0
 30
0.0
  9
$PUCSORGFRONT
 10
0.0
 20
0.0
 30
0.0
  9
$PUCSORGBACK
 10
0.0
 20
0.0
 30
0.0
  9
$USERI1
 70
     0
  9
$USERI2
 70
     0
  9
$USERI3
 70
     0
  9
$USERI4
 70
     0
  9
$USERI5
 70
     0
  9
$USERR1
 40
0.0
  9
$USERR2
 40
0.0
  9
$USERR3
 40
0.0
  9
$USERR4
 40
0.0
  9
$USERR5
 40
0.0
  9
$WORLDVIEW
 70
     1
  9
$SHADEDGE
 70
     3
  9
$SHADEDIF
 70
    70
  9
$TILEMODE
 70
     1
  9
$MAXACTVP
 70
    64
  9
$PINSBASE
 10
0.0
 20
0.0
 30
0.0
  9
$PLIMCHECK
 70
     0
  9
$PEXTMIN
 10
0.0
 20
0.0
 30
0.0
  9
$PEXTMAX
 10
210.0
 20
297.0
 30
0.0
  9
$PLIMMIN
 10
0.0
 20
0.0
  9
$PLIMMAX
 10
210.0
 20
297.0
  9
$UNITMODE
 70
     0
  9
$VISRETAIN
 70
     1
  9
$PLINEGEN
 70
     0
  9
$PSLTSCALE
 70
     1
  9
$TREEDEPTH
 70
  3020
  9
$CMLSTYLE
  2
Standard
  9
$CMLJUST
 70
     0
  9
$CMLSCALE
 40
20.0
  9
$PROXYGRAPHICS
 70
     1
  9
$MEASUREMENT
 70
     1
  9
$CELWEIGHT
370
    -1
  9
$ENDCAPS
280
     0
  9
$JOINSTYLE
280
     0
  9
$LWDISPLAY
290
     0
  9
$INSUNITS
 70
     4
  9
$HYPERLINKBASE
  1

  9
$STYLESHEET
  1

  9
$XEDIT
290
     1
  9
$CEPSNTYPE
380
     0
  9
$PSTYLEMODE
290
     1
  9
$FINGERPRINTGUID
  2
{A478FDAF-6AF5-4D9F-BC53-5BC92E7CAC79}
  9
$VERSIONGUID
  2
{FAEB1C32-E019-11D5-929B-00C0DF256EC4}
  9
$EXTNAMES
290
     1
  9
$PSVPSCALE
 40
0.0
  9
$OLESTARTUP
290
     0
  0
ENDSEC
  0
SECTION
  2
CLASSES
  0
CLASS
  1
ACDBDICTIONARYWDFLT
  2
AcDbDictionaryWithDefault
  3
ObjectDBX Classes
 90
        0
280
     0
281
     0
  0
CLASS
  1
VISUALSTYLE
  2
AcDbVisualStyle
  3
ObjectDBX Classes
 90
     4095
280
     0
281
     0
  0
CLASS
  1
SCALE
  2
AcDbScale
  3
ObjectDBX Classes
 90
     1153
280
     0
281
     0
  0
CLASS
  1
DICTIONARYVAR
  2
AcDbDictionaryVar
  3
ObjectDBX Classes
 90
        0
280
     0
281
     0
  0
CLASS
  1
ACDBPLACEHOLDER
  2
AcDbPlaceHolder
  3
ObjectDBX Classes
 90
        0
280
     0
281
     0
  0
CLASS
  1
LAYOUT
  2
AcDbLayout
  3
ObjectDBX Classes
 90
        0
280
     0
281
     0
  0
ENDSEC
  0
SECTION
  2
TABLES
  0
TABLE
  2
VPORT
  5
8
330
0
100
AcDbSymbolTable
 70
     1
  0
VPORT
  5
29
330
8
100
AcDbSymbolTableRecord
100
AcDbViewportTableRecord
  2
*Active
 70
     0
 10
0.0
 20
0.0
 11
1.0
 21
1.0
 12
344.1869158879
 22
148.5
 13
0.0
 23
0.0
 14
10.0
 24
10.0
 15
10.0
 25
10.0
 16
0.0
 26
0.0
 36
1.0
 17
0.0
 27
0.0
 37
0.0
 40
297.0
 41
1.9729729729
 42
50.0
 43
0.0
 44
0.0
 50
0.0
 51
0.0
 71
     0
 72
   100
 73
     1
 74
     3
 75
     0
 76
     0
 77
     0
 78
     0
281
     0
 65
     1
110
0.0
120
0.0
130
0.0
111
1.0
121
0.0
131
0.0
112
0.0
122
1.0
132
0.0
 79
     0
146
0.0
  0
ENDTAB
  0
TABLE
  2
LTYPE
  5
5
330
0
100
AcDbSymbolTable
 70
     2
  0
LTYPE
  5
14
330
5
100
AcDbSymbolTableRecord
100
AcDbLinetypeTableRecord
  2
ByBlock
 70
     0
  3

 72
    65
 73
     0
 40
0.0
  0
LTYPE
  5
15
330
5
100
AcDbSymbolTableRecord
100
AcDbLinetypeTableRecord
  2
ByLayer
 70
     0
  3

 72
    65
 73
     0
 40
0.0
  0
LTYPE
  5
16
330
5
100
AcDbSymbolTableRecord
100
AcDbLinetypeTableRecord
  2
Continuous
 70
     0
  3
Solid line
 72
    65
 73
     0
 40
0.0
  0
LTYPE
  5
60
330
5
100
AcDbSymbolTableRecord
100
AcDbLinetypeTableRecord
  2
CENTER2
 70
     0
  3
Center (.5x) ___ _ ___ _ ___ _ ___ _ ___ _ ___
 72
    65
 73
     4
 40
28.575
 49
19.05
 74
     4
 75
     0
340
0
 46
0.0
 50
0.0
 44
0.0
 45
0.0
 49
-3.175
 74
     4
 75
     0
340
0
 46
0.0
 50
0.0
 44
0.0
 45
0.0
 49
3.175
 74
     4
 75
     0
340
0
 46
0.0
 50
0.0
 44
0.0
 45
0.0
 49
-3.175
 74
     4
 75
     0
340
0
 46
0.0
 50
0.0
 44
0.0
 45
0.0
  0
ENDTAB
  0
TABLE
  2
LAYER
  5
2
330
0
100
AcDbSymbolTable
 70
     4
  0
LAYER
  5
10
330
2
100
AcDbSymbolTableRecord
100
AcDbLayerTableRecord
  2
0
 70
     0
 62
     7
  6
Continuous
370
    -3
390
F
  0
LAYER
  5
5D
330
2
100
AcDbSymbolTableRecord
100
AcDbLayerTableRecord
  2
Default
 70
     0
 62
     7
  6
Continuous
370
    -3
390
F
  0
LAYER
  5
70
330
2
100
AcDbSymbolTableRecord
100
AcDbLayerTableRecord
  2
MEGA_026224
 70
     0
 62
     7
  6
Continuous
370
    -3
390
F
  0
LAYER
  5
8B
330
2
100
AcDbSymbolTableRecord
100
AcDbLayerTableRecord
  2
DV1_Standard
 70
     0
 62
     7
  6
Continuous
370
    -3
390
F
  0
ENDTAB
  0
TABLE
  2
STYLE
  5
3
330
0
100
AcDbSymbolTable
 70
     3
  0
STYLE
  5
11
330
3
100
AcDbSymbolTableRecord
100
AcDbTextStyleTableRecord
  2
Standard
 70
     0
 40
0.0
 41
1.0
 50
0.0
 71
     0
 42
2.5
  3
txt
  4

  0
STYLE
  5
A2
330
3
100
AcDbSymbolTableRecord
100
AcDbTextStyleTableRecord
  2
SEACAD_seiso_ttf
 70
     0
 40
0.0
 41
1.0
 50
0.0
 71
     0
 42
0.2
  3
seiso.ttf
  4

  0
STYLE
  5
AF
330
3
100
AcDbSymbolTableRecord
100
AcDbTextStyleTableRecord
  2
SEACAD_semeci1_ttf
 70
     0
 40
0.0
 41
1.0
 50
0.0
 71
     0
 42
0.2
  3
semeci1.ttf
  4

  0
ENDTAB
  0
TABLE
  2
VIEW
  5
6
330
0
100
AcDbSymbolTable
 70
     0
  0
ENDTAB
  0
TABLE
  2
UCS
  5
7
330
0
100
AcDbSymbolTable
 70
     0
  0
ENDTAB
  0
TABLE
  2
APPID
  5
9
330
0
100
AcDbSymbolTable
 70
     1
  0
APPID
  5
12
330
9
100
AcDbSymbolTableRecord
100
AcDbRegAppTableRecord
  2
ACAD
 70
     0
  0
ENDTAB
  0
TABLE
  2
DIMSTYLE
  5
A
330
0
100
AcDbSymbolTable
 70
     3
100
AcDbDimStyleTable
  0
DIMSTYLE
105
27
330
A
100
AcDbSymbolTableRecord
100
AcDbDimStyleTableRecord
  2
ISO-25
 70
     0
 41
2.5
 42
0.625
 43
3.75
 44
1.25
 73
     0
 74
     0
 77
     1
 78
     8
140
2.5
141
2.5
143
0.0393700787
147
0.625
171
     3
172
     1
271
     2
272
     2
274
     3
278
    44
283
     0
284
     8
340
11
  0
DIMSTYLE
105
90
330
A
100
AcDbSymbolTableRecord
100
AcDbDimStyleTableRecord
  2
Standard
 70
     0
340
11
  0
DIMSTYLE
105
A3
102
{ACAD_REACTORS
330
A4
330
AE
330
BA
330
C5
330
CF
330
D9
330
E4
330
10D
102
}
330
A
100
AcDbSymbolTableRecord
100
AcDbDimStyleTableRecord
  2
DIN
 70
     0
 41
3.0
 42
0.0
 44
1.5
 73
     0
 74
     0
 77
     1
 78
     8
140
3.0
141
1.5
147
1.5
172
     1
173
     1
271
     2
272
     2
278
    44
284
     8
340
A2
343
9D
344
9D
  0
ENDTAB
  0
TABLE
  2
BLOCK_RECORD
  5
1
330
0
100
AcDbSymbolTable
 70
    17
  0
BLOCK_RECORD
  5
1F
330
1
100
AcDbSymbolTableRecord
100
AcDbBlockTableRecord
  2
*Model_Space
340
22
  0
BLOCK_RECORD
  5
1B
330
1
100
AcDbSymbolTableRecord
100
AcDbBlockTableRecord
  2
*Paper_Space
340
1E
  0
BLOCK_RECORD
  5
5E
330
1
100
AcDbSymbolTableRecord
100
AcDbBlockTableRecord
  2
SEANNOT_GROUP
340
0
102
{BLKREFS
331
5F
102
}
  0
BLOCK_RECORD
  5
64
330
1
100
AcDbSymbolTableRecord
100
AcDbBlockTableRecord
  2
SEANNOT_GROUP1
340
0
102
{BLKREFS
331
65
102
}
  0
BLOCK_RECORD
  5
69
330
1
100
AcDbSymbolTableRecord
100
AcDbBlockTableRecord
  2
SEANNOT_GROUP2
340
0
102
{BLKREFS
331
6A
102
}
  0
BLOCK_RECORD
  5
6E
330
1
100
AcDbSymbolTableRecord
100
AcDbBlockTableRecord
  2
SE
340
0
102
{BLKREFS
331
6F
102
}
  0
BLOCK_RECORD
  5
91
330
1
100
AcDbSymbolTableRecord
100
AcDbBlockTableRecord
  2
_OBLIQUE
340
0
  0
BLOCK_RECORD
  5
95
330
1
100
AcDbSymbolTableRecord
100
AcDbBlockTableRecord
  2
_DOT
340
0
  0
BLOCK_RECORD
  5
9D
330
1
100
AcDbSymbolTableRecord
100
AcDbBlockTableRecord
  2
_SE_FILLED
340
0
  0
BLOCK_RECORD
  5
A5
330
1
100
AcDbSymbolTableRecord
100
AcDbBlockTableRecord
  2
DMBLK171
340
0
  0
BLOCK_RECORD
  5
B0
330
1
100
AcDbSymbolTableRecord
100
AcDbBlockTableRecord
  2
DMBLK172
340
0
  0
BLOCK_RECORD
  5
BB
330
1
100
AcDbSymbolTableRecord
100
AcDbBlockTableRecord
  2
DMBLK173
340
0
  0
BLOCK_RECORD
  5
C6
330
1
100
AcDbSymbolTableRecord
100
AcDbBlockTableRecord
  2
DMBLK174
340
0
  0
BLOCK_RECORD
  5
D0
330
1
100
AcDbSymbolTableRecord
100
AcDbBlockTableRecord
  2
DMBLK175
340
0
  0
BLOCK_RECORD
  5
DA
330
1
100
AcDbSymbolTableRecord
100
AcDbBlockTableRecord
  2
DMBLK176
340
0
  0
BLOCK_RECORD
  5
E5
330
1
100
AcDbSymbolTableRecord
100
AcDbBlockTableRecord
  2
DMBLK177
340
0
  0
BLOCK_RECORD
  5
EE
330
1
100
AcDbSymbolTableRecord
100
AcDbBlockTableRecord
  2
SE1
340
0
102
{BLKREFS
331
EF
102
}
  0
BLOCK_RECORD
  5
10E
330
1
100
AcDbSymbolTableRecord
100
AcDbBlockTableRecord
  2
DMBLK178
340
0
  0
ENDTAB
  0
ENDSEC
  0
SECTION
  2
BLOCKS
  0
BLOCK
  5
20
330
1F
100
AcDbEntity
  8
0
100
AcDbBlockBegin
  2
*Model_Space
 70
     0
 10
0.0
 20
0.0
 30
0.0
  3
*Model_Space
  1

  0
ENDBLK
  5
21
330
1F
100
AcDbEntity
  8
0
100
AcDbBlockEnd
  0
BLOCK
  5
1C
330
1B
100
AcDbEntity
 67
     1
  8
0
100
AcDbBlockBegin
  2
*Paper_Space
 70
     0
 10
0.0
 20
0.0
 30
0.0
  3
*Paper_Space
  1

  0
ENDBLK
  5
1D
330
1B
100
AcDbEntity
 67
     1
  8
0
100
AcDbBlockEnd
  0
BLOCK
  5
62
330
5E
100
AcDbEntity
  8
0
100
AcDbBlockBegin
  2
SEANNOT_GROUP
 70
     0
 10
0.0
 20
0.0
 30
0.0
  3
SEANNOT_GROUP
  1

  0
LINE
  5
61
330
5E
100
AcDbEntity
  8
Default
  6
CENTER2
 62
     7
100
AcDbLine
 10
78.1307829243
 20
141.0111952879
 30
0.0
 11
78.1307829243
 21
195.2150680736
 31
0.0
  0
ENDBLK
  5
63
330
5E
100
AcDbEntity
  8
0
100
AcDbBlockEnd
  0
BLOCK
  5
67
330
64
100
AcDbEntity
  8
0
100
AcDbBlockBegin
  2
SEANNOT_GROUP1
 70
     0
 10
0.0
 20
0.0
 30
0.0
  3
SEANNOT_GROUP1
  1

  0
LINE
  5
66
330
64
100
AcDbEntity
  8
Default
  6
CENTER2
 62
     7
100
AcDbLine
 10
195.8807829039
 20
139.9850680554
 30
0.0
 11
87.3807829243
 21
139.9850680762
 31
0.0
  0
ENDBLK
  5
68
330
64
100
AcDbEntity
  8
0
100
AcDbBlockEnd
  0
BLOCK
  5
6C
330
69
100
AcDbEntity
  8
0
100
AcDbBlockBegin
  2
SEANNOT_GROUP2
 70
     0
 10
0.0
 20
0.0
 30
0.0
  3
SEANNOT_GROUP2
  1

  0
LINE
  5
6B
330
69
100
AcDbEntity
  8
Default
  6
CENTER2
 62
     7
100
AcDbLine
 10
24.0048646947
 20
126.9001547153
 30
0.0
 11
24.0048646947
 21
195.5940033222
 31
0.0
  0
ENDBLK
  5
6D
330
69
100
AcDbEntity
  8
0
100
AcDbBlockEnd
  0
BLOCK
  5
8E
330
6E
100
AcDbEntity
  8
0
100
AcDbBlockBegin
  2
SE
 70
     0
 10
0.0
 20
0.0
 30
0.0
  3
SE
  1

  0
LINE
  5
71
330
6E
100
AcDbEntity
  8
MEGA_026224
  6
Continuous
 62
     7
100
AcDbLine
 10
90.6307829243
 20
184.9650680736
 30
0.0
 11
65.6307829243
 21
184.9650680736
 31
0.0
  0
LINE
  5
72
330
6E
100
AcDbEntity
  8
MEGA_026224
  6
Continuous
 62
     7
100
AcDbLine
 10
89.6307829243
 20
175.4650680736
 30
0.0
 11
88.8348028972
 21
175.4650680736
 31
0.0
  0
LINE
  5
73
330
6E
100
AcDbEntity
  8
MEGA_026224
  6
Continuous
 62
     7
100
AcDbLine
 10
66.6307829243
 20
175.4650680736
 30
0.0
 11
67.4269076093
 21
175.4650680736
 31
0.0
  0
LINE
  5
74
330
6E
100
AcDbEntity
  8
MEGA_026224
  6
Continuous
 62
     7
100
AcDbLine
 10
195.6307829243
 20
144.2319207276
 30
0.0
 11
195.6307829243
 21
135.6861295876
 31
0.0
  0
LINE
  5
75
330
6E
100
AcDbEntity
  8
MEGA_026224
  6
Continuous
 62
     7
100
AcDbLine
 10
195.6307829243
 20
135.6861295876
 30
0.0
 11
195.6307829243
 21
134.4550680038
 31
0.0
  0
LINE
  5
76
330
6E
100
AcDbEntity
  8
MEGA_026224
  6
Continuous
 62
     7
100
AcDbLine
 10
195.6307829243
 20
144.2319207276
 30
0.0
 11
195.6307829243
 21
145.5150681306
 31
0.0
  0
LINE
  5
77
330
6E
100
AcDbEntity
  8
MEGA_026224
  6
Continuous
 62
     7
100
AcDbLine
 10
86.1307829243
 20
193.1650680736
 30
0.0
 11
70.1307829243
 21
193.1650680736
 31
0.0
  0
LINE
  5
78
330
6E
100
AcDbEntity
  8
MEGA_026224
  6
Continuous
 62
     7
100
AcDbLine
 10
85.8307829243
 20
193.4650680736
 30
0.0
 11
70.4307829243
 21
193.4650680736
 31
0.0
  0
LINE
  5
79
330
6E
100
AcDbEntity
  8
MEGA_026224
  6
Continuous
 62
     7
100
AcDbLine
 10
86.1307829243
 20
150.0150680736
 30
0.0
 11
86.1308368647
 21
172.4650204872
 31
0.0
  0
ARC
  5
7A
330
6E
100
AcDbEntity
  8
MEGA_026224
  6
Continuous
 62
     7
100
AcDbCircle
 10
89.1327055793
 20
150.0169907857
 30
0.0
 40
3.001923270791239
100
AcDbArc
 50
180.0366975724
 51
269.9633035167
  0
LINE
  5
7B
330
6E
100
AcDbEntity
  8
MEGA_026224
  6
Continuous
 62
     7
100
AcDbLine
 10
70.1308736692
 20
172.4651490367
 30
0.0
 11
70.1307829243
 21
150.0150680736
 31
0.0
  0
LINE
  5
7C
330
6E
100
AcDbEntity
  8
MEGA_026224
  6
Continuous
 62
     7
100
AcDbLine
 10
194.1307829243
 20
147.0150681306
 30
0.0
 11
89.1307829243
 21
147.0150681306
 31
0.0
  0
SPLINE
  5
7D
330
6E
100
AcDbEntity
  8
MEGA_026224
  6
Continuous
 62
     7
100
AcDbSpline
210
0.0
220
0.0
230
1.0
 70
     8
 71
     3
 72
    34
 73
    30
 74
     0
 42
0.0000000003233189
 43
0.0000000001
 40
0.0
 40
0.0
 40
0.0
 40
0.0
 40
0.0428240139131033
 40
0.0829000653383616
 40
0.1200952659239025
 40
0.1546100420226776
 40
0.1843581283841905
 40
0.2115048416129529
 40
0.2365303440864677
 40
0.2593897239193268
 40
0.2807001020043187
 40
0.3049193610668334
 40
0.3328731446895469
 40
0.3646299992232626
 40
0.4002396844087933
 40
0.439662289199134
 40
0.4827332423419795
 40
0.5172804429574944
 40
0.5535933641253734
 40
0.5914778750351773
 40
0.630647370488644
 40
0.6707831470519928
 40
0.7117288711977713
 40
0.7532970739215389
 40
0.7973603852573488
 40
0.84504820769252
 40
0.8948899034272466
 40
0.9465197306844083
 40
1.0
 40
1.0
 40
1.0
 40
1.0
 10
70.1307829242676
 20
150.0150680735581
 30
0.0
 10
70.13074056078058
 20
149.5298400075449
 30
0.0
 10
70.13072894003132
 20
148.7391882159934
 30
0.0
 10
70.13036559671123
 20
147.4783606510966
 30
0.0
 10
70.1310363164662
 20
146.332539145066
 30
0.0
 10
70.12969933198532
 20
145.2862559105442
 30
0.0
 10
70.13366302671221
 20
144.3444440329265
 30
0.0
 10
70.20971748146563
 20
143.5030028603941
 30
0.0
 10
70.32879380373345
 20
142.7388886096452
 30
0.0
 10
70.48336404035493
 20
142.0426058497354
 30
0.0
 10
70.67485924184314
 20
141.3643303520492
 30
0.0
 10
70.92242671321989
 20
140.6485109618858
 30
0.0
 10
71.2585976250453
 20
139.8512165367532
 30
0.0
 10
71.70844999167045
 20
138.9771822943268
 30
0.0
 10
72.29765162317992
 20
138.0463588308242
 30
0.0
 10
73.04533658889832
 20
137.0841653584999
 30
0.0
 10
73.881779298745
 20
136.2123319450246
 30
0.0
 10
74.77687841774406
 20
135.4509216974488
 30
0.0
 10
75.69518232566085
 20
134.8065456925023
 30
0.0
 10
76.71132279000965
 20
134.2275122272118
 30
0.0
 10
77.81528970654689
 20
133.7341100514869
 30
0.0
 10
78.9948246964597
 20
133.3481822607222
 30
0.0
 10
80.23231897679925
 20
133.0835123434406
 30
0.0
 10
81.53193342489632
 20
132.9439127651375
 30
0.0
 10
82.90588002019761
 20
132.9585426935749
 30
0.0
 10
84.36604628164446
 20
132.9538001048968
 30
0.0
 10
85.89476154461022
 20
132.9554315717676
 30
0.0
 10
87.52183651749331
 20
132.9550038734855
 30
0.0
 10
88.52479830754719
 20
132.955084052973
 30
0.0
 10
89.13078292426759
 20
132.9550680211573
 30
0.0
  0
LINE
  5
7E
330
6E
100
AcDbEntity
  8
MEGA_026224
  6
Continuous
 62
     7
100
AcDbLine
 10
89.1307829243
 20
132.9550680212
 30
0.0
 11
194.1307828836
 21
132.9550679809
 31
0.0
  0
LINE
  5
7F
330
6E
100
AcDbEntity
  8
MEGA_026224
  6
Continuous
 62
     7
100
AcDbLine
 10
90.6307829243
 20
176.4650680736
 30
0.0
 11
90.6307829243
 21
184.9650680736
 31
0.0
  0
LINE
  5
80
330
6E
100
AcDbEntity
  8
MEGA_026224
  6
Continuous
 62
     7
100
AcDbLine
 10
65.6307829243
 20
184.9650680736
 30
0.0
 11
65.6307829243
 21
176.4650680736
 31
0.0
  0
LINE
  5
81
330
6E
100
AcDbEntity
  8
MEGA_026224
  6
Continuous
 62
     7
100
AcDbLine
 10
86.1307829243
 20
184.9650680736
 30
0.0
 11
86.1307829243
 21
193.1650680736
 31
0.0
  0
LINE
  5
82
330
6E
100
AcDbEntity
  8
MEGA_026224
  6
Continuous
 62
     7
100
AcDbLine
 10
70.1307829243
 20
193.1650680736
 30
0.0
 11
70.1307829243
 21
184.9650680736
 31
0.0
  0
ARC
  5
83
330
6E
100
AcDbEntity
  8
MEGA_026224
  6
Continuous
 62
     7
100
AcDbCircle
 10
67.1308785357
 20
172.4650680735
 30
0.0
 40
2.999999959881483
100
AcDbArc
 50
359.9698348853
 51
89.989988855
  0
ARC
  5
84
330
6E
100
AcDbEntity
  8
MEGA_026224
  6
Continuous
 62
     7
100
AcDbCircle
 10
89.1308391121
 20
172.4650680736
 30
0.0
 40
2.999999999956821
100
AcDbArc
 50
90.0100075981
 51
179.9691969869
  0
ARC
  5
85
330
6E
100
AcDbEntity
  8
MEGA_026224
  6
Continuous
 62
     7
100
AcDbCircle
 10
89.6307829243
 20
176.4650680736
 30
0.0
 40
0.9999999999999996
100
AcDbArc
 50
270.0
 51
0.0
  0
ARC
  5
86
330
6E
100
AcDbEntity
  8
MEGA_026224
  6
Continuous
 62
     7
100
AcDbCircle
 10
66.6307829243
 20
176.4650680736
 30
0.0
 40
1.000000000000001
100
AcDbArc
 50
180.0
 51
270.0
  0
ARC
  5
87
330
6E
100
AcDbEntity
  8
MEGA_026224
  6
Continuous
 62
     7
100
AcDbCircle
 10
194.1307829238
 20
134.4550744039
 30
0.0
 40
1.500000000422737
100
AcDbArc
 50
269.968219791
 51
0.0004928733
  0
ARC
  5
88
330
6E
100
AcDbEntity
  8
MEGA_026224
  6
Continuous
 62
     7
100
AcDbCircle
 10
194.1307829243
 20
145.5150681306
 30
0.0
 40
1.500000000000001
100
AcDbArc
 50
0.0
 51
90.0
  0
LINE
  5
89
330
6E
100
AcDbEntity
  8
MEGA_026224
  6
Continuous
 62
     7
100
AcDbLine
 10
86.1307829243
 20
193.1650680736
 30
0.0
 11
85.8307829243
 21
193.4650680736
 31
0.0
  0
LINE
  5
8A
330
6E
100
AcDbEntity
  8
MEGA_026224
  6
Continuous
 62
     7
100
AcDbLine
 10
70.4307829243
 20
193.4650680736
 30
0.0
 11
70.1307829243
 21
193.1650680736
 31
0.0
  0
LINE
  5
8C
330
6E
100
AcDbEntity
  8
DV1_Standard
  6
Continuous
 62
     7
100
AcDbLine
 10
74.0807829243
 20
193.4650680736
 30
0.0
 11
74.0807829243
 21
193.1650680736
 31
0.0
  0
LINE
  5
8D
330
6E
100
AcDbEntity
  8
DV1_Standard
  6
Continuous
 62
     7
100
AcDbLine
 10
82.1807829243
 20
193.4650680736
 30
0.0
 11
82.1807829243
 21
193.1650680736
 31
0.0
  0
ENDBLK
  5
8F
330
6E
100
AcDbEntity
  8
0
100
AcDbBlockEnd
  0
BLOCK
  5
92
330
91
100
AcDbEntity
  8
0
100
AcDbBlockBegin
  2
_OBLIQUE
 70
     0
 10
0.0
 20
0.0
 30
0.0
  3
_OBLIQUE
  1

  0
LINE
  5
94
330
91
100
AcDbEntity
  8
0
  6
ByBlock
 62
     0
370
    -2
100
AcDbLine
 10
-0.5
 20
-0.5
 30
0.0
 11
0.5
 21
0.5
 31
0.0
  0
ENDBLK
  5
93
330
91
100
AcDbEntity
  8
0
100
AcDbBlockEnd
  0
BLOCK
  5
96
330
95
100
AcDbEntity
  8
0
100
AcDbBlockBegin
  2
_DOT
 70
     0
 10
0.0
 20
0.0
 30
0.0
  3
_DOT
  1

  0
POLYLINE
  5
98
330
95
100
AcDbEntity
  8
0
  6
ByBlock
 62
     0
100
AcDb2dPolyline
 66
     1
 10
0.0
 20
0.0
 30
0.0
 70
     1
 40
0.5
 41
0.5
  0
VERTEX
  5
9B
330
98
100
AcDbEntity
  8
0
  6
ByBlock
 62
     0
100
AcDbVertex
100
AcDb2dVertex
 10
-0.25
 20
0.0
 30
0.0
 42
1.0
  0
VERTEX
  5
9C
330
98
100
AcDbEntity
  8
0
  6
ByBlock
 62
     0
100
AcDbVertex
100
AcDb2dVertex
 10
0.25
 20
0.0
 30
0.0
 42
1.0
  0
SEQEND
  5
9A
330
98
100
AcDbEntity
  8
0
  6
ByBlock
 62
     0
  0
LINE
  5
99
330
95
100
AcDbEntity
  8
0
  6
ByBlock
 62
     0
370
    -2
100
AcDbLine
 10
-0.5
 20
0.0
 30
0.0
 11
-1.0
 21
0.0
 31
0.0
  0
ENDBLK
  5
97
330
95
100
AcDbEntity
  8
0
100
AcDbBlockEnd
  0
BLOCK
  5
A0
330
9D
100
AcDbEntity
  8
0
100
AcDbBlockBegin
  2
_SE_FILLED
 70
     0
 10
0.0
 20
0.0
 30
0.0
  3
_SE_FILLED
  1

  0
SOLID
  5
9E
330
9D
100
AcDbEntity
  8
0
 62
     0
100
AcDbTrace
 10
0.0
 20
0.0
 30
0.0
 11
-1.0
 21
-0.1665
 31
0.0
 12
-1.0
 22
0.1665
 32
0.0
 13
0.0
 23
0.0
 33
0.0
  0
LINE
  5
9F
330
9D
100
AcDbEntity
  8
0
 62
     0
100
AcDbLine
 10
0.0
 20
0.0
 30
0.0
 11
-1.0
 21
0.0
 31
0.0
  0
ENDBLK
  5
A1
330
9D
100
AcDbEntity
  8
0
100
AcDbBlockEnd
  0
BLOCK
  5
AC
330
A5
100
AcDbEntity
  8
0
100
AcDbBlockBegin
  2
DMBLK171
 70
     0
 10
0.0
 20
0.0
 30
0.0
  3
DMBLK171
  1

  0
HATCH
  5
A6
330
A5
100
AcDbEntity
  8
Default
  6
Continuous
 62
     7
100
AcDbHatch
 10
0.0
 20
0.0
 30
0.0
210
0.0
220
0.0
230
1.0
  2
SOLID
 70
     1
 71
     0
 91
        1
 92
        1
 93
        3
 72
     1
 10
51.66334905753341
 20
181.9650680474811
 11
52.66334906622575
 21
181.9650680474811
 72
     1
 10
52.66334906622576
 20
181.9650680474811
 11
52.16334906187959
 21
184.9650680735582
 72
     1
 10
52.16334906187959
 20
184.9650680735582
 11
51.66334905753342
 21
181.9650680474811
 97
        0
 75
     0
 76
     1
 98
        0
  0
HATCH
  5
A7
330
A5
100
AcDbEntity
  8
Default
  6
Continuous
 62
     7
100
AcDbHatch
 10
0.0
 20
0.0
 30
0.0
210
0.0
220
0.0
230
1.0
  2
SOLID
 70
     1
 71
     0
 91
        1
 92
        1
 93
        3
 72
     1
 10
51.66334905753341
 20
196.4650680996352
 11
52.16334906187958
 21
193.4650680735582
 72
     1
 10
52.16334906187959
 20
193.4650680735582
 11
52.66334906622576
 21
196.4650680996352
 72
     1
 10
52.66334906622576
 20
196.4650680996352
 11
51.66334905753342
 21
196.4650680996352
 97
        0
 75
     0
 76
     1
 98
        0
  0
LINE
  5
A8
330
A5
100
AcDbEntity
  8
Default
  6
Continuous
 62
     7
100
AcDbLine
 10
65.6307829243
 20
184.9650680736
 30
0.0
 11
50.6633490488
 21
184.9650680736
 31
0.0
  0
LINE
  5
A9
330
A5
100
AcDbEntity
  8
Default
  6
Continuous
 62
     7
100
AcDbLine
 10
70.4307829243
 20
193.4650680736
 30
0.0
 11
50.6633490488
 21
193.4650680736
 31
0.0
  0
LINE
  5
AA
330
A5
100
AcDbEntity
  8
Default
  6
Continuous
 62
     7
100
AcDbLine
 10
52.1633490619
 20
178.9650680214
 30
0.0
 11
52.1633490619
 21
199.4650676563
 31
0.0
  0
TEXT
  5
AB
330
A5
100
AcDbEntity
  8
Default
  6
Continuous
 62
     7
100
AcDbText
 10
51.4133490619
 20
187.13552285
 30
0.0
 40
3.0
  1
8,5
 50
90.0
  7
SEACAD_seiso_ttf
 11
48.4133490619
 21
187.13552285
 31
0.0
100
AcDbText
 73
     3
  0
ENDBLK
  5
AD
330
A5
100
AcDbEntity
  8
0
100
AcDbBlockEnd
  0
BLOCK
  5
B8
330
B0
100
AcDbEntity
  8
0
100
AcDbBlockBegin
  2
DMBLK172
 70
     0
 10
0.0
 20
0.0
 30
0.0
  3
DMBLK172
  1

  0
HATCH
  5
B1
330
B0
100
AcDbEntity
  8
Default
  6
Continuous
 62
     7
100
AcDbHatch
 10
0.0
 20
0.0
 30
0.0
210
0.0
220
0.0
230
1.0
  2
SOLID
 70
     1
 71
     0
 91
        1
 92
        1
 93
        3
 72
     1
 10
68.63078295034464
 20
217.1295387505118
 11
65.6307829242676
 21
216.6295387461656
 72
     1
 10
65.6307829242676
 20
216.6295387461656
 11
68.63078295034464
 21
216.1295387418194
 72
     1
 10
68.63078295034464
 20
216.1295387418194
 11
68.63078295034464
 21
217.1295387505118
 97
        0
 75
     0
 76
     1
 98
        0
  0
HATCH
  5
B2
330
B0
100
AcDbEntity
  8
Default
  6
Continuous
 62
     7
100
AcDbHatch
 10
0.0
 20
0.0
 30
0.0
210
0.0
220
0.0
230
1.0
  2
SOLID
 70
     1
 71
     0
 91
        1
 92
        1
 93
        3
 72
     1
 10
87.6307832707196
 20
217.1295387505118
 11
87.6307832707196
 21
216.1295387418194
 72
     1
 10
87.6307832707196
 20
216.1295387418194
 11
90.63078329679664
 21
216.6295387461656
 72
     1
 10
90.63078329679664
 20
216.6295387461656
 11
87.6307832707196
 21
217.1295387505118
 97
        0
 75
     0
 76
     1
 98
        0
  0
LINE
  5
B3
330
B0
100
AcDbEntity
  8
Default
  6
Continuous
 62
     7
100
AcDbLine
 10
65.6307829243
 20
184.9650685355
 30
0.0
 11
65.6307829243
 21
218.1295387592
 31
0.0
  0
LINE
  5
B4
330
B0
100
AcDbEntity
  8
Default
  6
Continuous
 62
     7
100
AcDbLine
 10
90.6307829243
 20
180.7150680736
 30
0.0
 11
90.6307829243
 21
218.1295387592
 31
0.0
  0
LINE
  5
B5
330
B0
100
AcDbEntity
  8
Default
  6
Continuous
 62
     7
100
AcDbLine
 10
65.6307829243
 20
216.6295387462
 30
0.0
 11
90.6307832968
 21
216.6295387462
 31
0.0
  0
TEXT
  5
B6
330
B0
100
AcDbEntity
  8
Default
  6
Continuous
 62
     7
100
AcDbText
 10
78.1783615147
 20
217.3795387462
 30
0.0
 40
3.0
  1
25
  7
SEACAD_seiso_ttf
 11
78.1783615147
 21
220.3795387462
 31
0.0
100
AcDbText
 73
     3
  0
TEXT
  5
B7
330
B0
100
AcDbEntity
  8
Default
  6
Continuous
 62
     7
100
AcDbText
 10
74.5377501609
 20
217.3795387462
 30
0.0
 40
3.0
  1
O
  7
SEACAD_semeci1_ttf
 11
74.5377501609
 21
220.3795387462
 31
0.0
100
AcDbText
 73
     3
  0
ENDBLK
  5
B9
330
B0
100
AcDbEntity
  8
0
100
AcDbBlockEnd
  0
BLOCK
  5
C3
330
BB
100
AcDbEntity
  8
0
100
AcDbBlockBegin
  2
DMBLK173
 70
     0
 10
0.0
 20
0.0
 30
0.0
  3
DMBLK173
  1

  0
HATCH
  5
BC
330
BB
100
AcDbEntity
  8
Default
  6
Continuous
 62
     7
100
AcDbHatch
 10
0.0
 20
0.0
 30
0.0
210
0.0
220
0.0
230
1.0
  2
SOLID
 70
     1
 71
     0
 91
        1
 92
        1
 93
        3
 72
     1
 10
73.13078295034464
 20
209.2454195825878
 11
70.1307829242676
 21
208.7454195782417
 72
     1
 10
70.1307829242676
 20
208.7454195782417
 11
73.13078295034464
 21
208.2454195738955
 72
     1
 10
73.13078295034464
 20
208.2454195738955
 11
73.13078295034464
 21
209.2454195825878
 97
        0
 75
     0
 76
     1
 98
        0
  0
HATCH
  5
BD
330
BB
100
AcDbEntity
  8
Default
  6
Continuous
 62
     7
100
AcDbHatch
 10
0.0
 20
0.0
 30
0.0
210
0.0
220
0.0
230
1.0
  2
SOLID
 70
     1
 71
     0
 91
        1
 92
        1
 93
        3
 72
     1
 10
83.1307836581498
 20
209.2454195825878
 11
83.1307836581498
 21
208.2454195738955
 72
     1
 10
83.1307836581498
 20
208.2454195738955
 11
86.13078368422683
 21
208.7454195782417
 72
     1
 10
86.13078368422683
 20
208.7454195782417
 11
83.1307836581498
 21
209.2454195825878
 97
        0
 75
     0
 76
     1
 98
        0
  0
LINE
  5
BE
330
BB
100
AcDbEntity
  8
Default
  6
Continuous
 62
     7
100
AcDbLine
 10
70.1307829243
 20
193.1650681138
 30
0.0
 11
70.1307829243
 21
210.2454195913
 31
0.0
  0
LINE
  5
BF
330
BB
100
AcDbEntity
  8
Default
  6
Continuous
 62
     7
100
AcDbLine
 10
86.1307829243
 20
189.0650680736
 30
0.0
 11
86.1307829243
 21
210.2454195913
 31
0.0
  0
LINE
  5
C0
330
BB
100
AcDbEntity
  8
Default
  6
Continuous
 62
     7
100
AcDbLine
 10
70.1307829243
 20
208.7454195782
 30
0.0
 11
86.1307836842
 21
208.7454195782
 31
0.0
  0
TEXT
  5
C1
330
BB
100
AcDbEntity
  8
Default
  6
Continuous
 62
     7
100
AcDbText
 10
78.416998072
 20
209.4954195782
 30
0.0
 40
3.0
  1
16
  7
SEACAD_seiso_ttf
 11
78.416998072
 21
212.4954195782
 31
0.0
100
AcDbText
 73
     3
  0
TEXT
  5
C2
330
BB
100
AcDbEntity
  8
Default
  6
Continuous
 62
     7
100
AcDbText
 10
74.7763867183
 20
209.4954195782
 30
0.0
 40
3.0
  1
O
  7
SEACAD_semeci1_ttf
 11
74.7763867183
 21
212.4954195782
 31
0.0
100
AcDbText
 73
     3
  0
ENDBLK
  5
C4
330
BB
100
AcDbEntity
  8
0
100
AcDbBlockEnd
  0
BLOCK
  5
CD
330
C6
100
AcDbEntity
  8
0
100
AcDbBlockBegin
  2
DMBLK174
 70
     0
 10
0.0
 20
0.0
 30
0.0
  3
DMBLK174
  1

  0
HATCH
  5
C7
330
C6
100
AcDbEntity
  8
Default
  6
Continuous
 62
     7
100
AcDbHatch
 10
0.0
 20
0.0
 30
0.0
210
0.0
220
0.0
230
1.0
  2
SOLID
 70
     1
 71
     0
 91
        1
 92
        1
 93
        3
 72
     1
 10
204.2149480661861
 20
135.9550680069962
 11
203.2149480574938
 21
135.9550680069962
 72
     1
 10
203.2149480574938
 20
135.9550680069962
 11
203.71494806184
 21
132.9550679809191
 72
     1
 10
203.71494806184
 20
132.9550679809191
 11
204.2149480661861
 21
135.9550680069962
 97
        0
 75
     0
 76
     1
 98
        0
  0
HATCH
  5
C8
330
C6
100
AcDbEntity
  8
Default
  6
Continuous
 62
     7
100
AcDbHatch
 10
0.0
 20
0.0
 30
0.0
210
0.0
220
0.0
230
1.0
  2
SOLID
 70
     1
 71
     0
 91
        1
 92
        1
 93
        3
 72
     1
 10
204.2149480661861
 20
144.0150679125228
 11
203.71494806184
 21
147.0150679385998
 72
     1
 10
203.71494806184
 20
147.0150679385998
 11
203.2149480574938
 21
144.0150679125228
 72
     1
 10
203.2149480574938
 20
144.0150679125228
 11
204.2149480661861
 21
144.0150679125228
 97
        0
 75
     0
 76
     1
 98
        0
  0
LINE
  5
C9
330
C6
100
AcDbEntity
  8
Default
  6
Continuous
 62
     7
100
AcDbLine
 10
194.1307828836
 20
132.9550679809
 30
0.0
 11
205.2149480749
 21
132.9550679809
 31
0.0
  0
LINE
  5
CA
330
C6
100
AcDbEntity
  8
Default
  6
Continuous
 62
     7
100
AcDbLine
 10
194.1307829243
 20
147.0150681306
 30
0.0
 11
205.2149480749
 21
147.0150681306
 31
0.0
  0
LINE
  5
CB
330
C6
100
AcDbEntity
  8
Default
  6
Continuous
 62
     7
100
AcDbLine
 10
203.7149480618
 20
132.9550679809
 30
0.0
 11
203.7149480618
 21
147.0150679386
 31
0.0
  0
TEXT
  5
CC
330
C6
100
AcDbEntity
  8
Default
  6
Continuous
 62
     7
100
AcDbText
 10
202.9649480618
 20
138.4850679598
 30
0.0
 40
3.0
  1
14
 50
90.0
  7
SEACAD_seiso_ttf
 11
199.9649480618
 21
138.4850679598
 31
0.0
100
AcDbText
 73
     3
  0
ENDBLK
  5
CE
330
C6
100
AcDbEntity
  8
0
100
AcDbBlockEnd
  0
BLOCK
  5
D7
330
D0
100
AcDbEntity
  8
0
100
AcDbBlockBegin
  2
DMBLK175
 70
     0
 10
0.0
 20
0.0
 30
0.0
  3
DMBLK175
  1

  0
HATCH
  5
D1
330
D0
100
AcDbEntity
  8
Default
  6
Continuous
 62
     7
100
AcDbHatch
 10
0.0
 20
0.0
 30
0.0
210
0.0
220
0.0
230
1.0
  2
SOLID
 70
     1
 71
     0
 91
        1
 92
        1
 93
        3
 72
     1
 10
51.66334893087343
 20
135.9550680472343
 11
52.1633489352196
 21
132.9550680211573
 72
     1
 10
52.1633489352196
 20
132.9550680211573
 11
52.66334893956576
 21
135.9550680472343
 72
     1
 10
52.66334893956576
 20
135.9550680472343
 11
51.66334893087343
 21
135.9550680472343
 97
        0
 75
     0
 76
     1
 98
        0
  0
HATCH
  5
D2
330
D0
100
AcDbEntity
  8
Default
  6
Continuous
 62
     7
100
AcDbHatch
 10
0.0
 20
0.0
 30
0.0
210
0.0
220
0.0
230
1.0
  2
SOLID
 70
     1
 71
     0
 91
        1
 92
        1
 93
        3
 72
     1
 10
51.66334893087343
 20
181.9650677471249
 11
52.66334893956576
 21
181.9650677471249
 72
     1
 10
52.66334893956576
 20
181.9650677471249
 11
52.1633489352196
 21
184.965067773202
 72
     1
 10
52.1633489352196
 20
184.965067773202
 11
51.66334893087343
 21
181.9650677471249
 97
        0
 75
     0
 76
     1
 98
        0
  0
LINE
  5
D3
330
D0
100
AcDbEntity
  8
Default
  6
Continuous
 62
     7
100
AcDbLine
 10
89.1307829243
 20
132.9550680212
 30
0.0
 11
50.6633489222
 21
132.9550680212
 31
0.0
  0
LINE
  5
D4
330
D0
100
AcDbEntity
  8
Default
  6
Continuous
 62
     7
100
AcDbLine
 10
65.6307829243
 20
184.9650680736
 30
0.0
 11
50.6633489222
 21
184.9650680736
 31
0.0
  0
LINE
  5
D5
330
D0
100
AcDbEntity
  8
Default
  6
Continuous
 62
     7
100
AcDbLine
 10
52.1633489352
 20
132.9550680212
 30
0.0
 11
52.1633489352
 21
184.9650677732
 31
0.0
  0
TEXT
  5
D6
330
D0
100
AcDbEntity
  8
Default
  6
Continuous
 62
     7
100
AcDbText
 10
51.4133489352
 20
157.1873406245
 30
0.0
 40
3.0
  1
52
 50
90.0
  7
SEACAD_seiso_ttf
 11
48.4133489352
 21
157.1873406245
 31
0.0
100
AcDbText
 73
     3
  0
ENDBLK
  5
D8
330
D0
100
AcDbEntity
  8
0
100
AcDbBlockEnd
  0
BLOCK
  5
E2
330
DA
100
AcDbEntity
  8
0
100
AcDbBlockBegin
  2
DMBLK176
 70
     0
 10
0.0
 20
0.0
 30
0.0
  3
DMBLK176
  1

  0
HATCH
  5
DB
330
DA
100
AcDbEntity
  8
Default
  6
Continuous
 62
     7
100
AcDbHatch
 10
0.0
 20
0.0
 30
0.0
210
0.0
220
0.0
230
1.0
  2
SOLID
 70
     1
 71
     0
 91
        1
 92
        1
 93
        3
 72
     1
 10
71.08078289819058
 20
201.4589151276771
 11
71.08078289819058
 21
200.4589151189847
 72
     1
 10
71.08078289819058
 20
200.4589151189847
 11
74.08078292426761
 21
200.9589151233309
 72
     1
 10
74.08078292426761
 20
200.9589151233309
 11
71.08078289819058
 21
201.4589151276771
 97
        0
 75
     0
 76
     1
 98
        0
  0
HATCH
  5
DC
330
DA
100
AcDbEntity
  8
Default
  6
Continuous
 62
     7
100
AcDbHatch
 10
0.0
 20
0.0
 30
0.0
210
0.0
220
0.0
230
1.0
  2
SOLID
 70
     1
 71
     0
 91
        1
 92
        1
 93
        3
 72
     1
 10
85.18078295034464
 20
201.4589151276771
 11
82.1807829242676
 21
200.9589151233309
 72
     1
 10
82.1807829242676
 20
200.9589151233309
 11
85.18078295034464
 21
200.4589151189847
 72
     1
 10
85.18078295034464
 20
200.4589151189847
 11
85.18078295034464
 21
201.4589151276771
 97
        0
 75
     0
 76
     1
 98
        0
  0
LINE
  5
DD
330
DA
100
AcDbEntity
  8
Default
  6
Continuous
 62
     7
100
AcDbLine
 10
74.0807829243
 20
193.4650680736
 30
0.0
 11
74.0807829243
 21
202.4589151364
 31
0.0
  0
LINE
  5
DE
330
DA
100
AcDbEntity
  8
Default
  6
Continuous
 62
     7
100
AcDbLine
 10
82.1807829243
 20
193.4650680736
 30
0.0
 11
82.1807829243
 21
202.4589151364
 31
0.0
  0
LINE
  5
DF
330
DA
100
AcDbEntity
  8
Default
  6
Continuous
 62
     7
100
AcDbLine
 10
68.0807828721
 20
200.9589151233
 30
0.0
 11
88.1807831865
 21
200.9589151233
 31
0.0
  0
TEXT
  5
E0
330
DA
100
AcDbEntity
  8
Default
  6
Continuous
 62
     7
100
AcDbText
 10
78.142930707
 20
201.7089151233
 30
0.0
 40
3.0
  1
8,1
  7
SEACAD_seiso_ttf
 11
78.142930707
 21
204.7089151233
 31
0.0
100
AcDbText
 73
     3
  0
TEXT
  5
E1
330
DA
100
AcDbEntity
  8
Default
  6
Continuous
 62
     7
100
AcDbText
 10
74.4368171699
 20
201.7089151233
 30
0.0
 40
3.0
  1
q
  7
SEACAD_semeci1_ttf
 11
74.4368171699
 21
204.7089151233
 31
0.0
100
AcDbText
 73
     3
  0
ENDBLK
  5
E3
330
DA
100
AcDbEntity
  8
0
100
AcDbBlockEnd
  0
BLOCK
  5
EC
330
E5
100
AcDbEntity
  8
0
100
AcDbBlockBegin
  2
DMBLK177
 70
     0
 10
0.0
 20
0.0
 30
0.0
  3
DMBLK177
  1

  0
HATCH
  5
E6
330
E5
100
AcDbEntity
  8
Default
  6
Continuous
 62
     7
100
AcDbHatch
 10
0.0
 20
0.0
 30
0.0
210
0.0
220
0.0
230
1.0
  2
SOLID
 70
     1
 71
     0
 91
        1
 92
        1
 93
        3
 72
     1
 10
68.63078295034464
 20
122.4980365009232
 11
68.63078295034464
 21
123.4980365096155
 72
     1
 10
68.63078295034464
 20
123.4980365096155
 11
65.6307829242676
 21
122.9980365052694
 72
     1
 10
65.6307829242676
 20
122.9980365052694
 11
68.63078295034464
 21
122.4980365009232
 97
        0
 75
     0
 76
     1
 98
        0
  0
HATCH
  5
E7
330
E5
100
AcDbEntity
  8
Default
  6
Continuous
 62
     7
100
AcDbHatch
 10
0.0
 20
0.0
 30
0.0
210
0.0
220
0.0
230
1.0
  2
SOLID
 70
     1
 71
     0
 91
        1
 92
        1
 93
        3
 72
     1
 10
192.630778129819
 20
122.4980365009232
 11
195.630778155896
 21
122.9980365052694
 72
     1
 10
195.630778155896
 20
122.9980365052694
 11
192.630778129819
 21
123.4980365096155
 72
     1
 10
192.630778129819
 20
123.4980365096155
 11
192.630778129819
 21
122.4980365009232
 97
        0
 75
     0
 76
     1
 98
        0
  0
LINE
  5
E8
330
E5
100
AcDbEntity
  8
Default
  6
Continuous
 62
     7
100
AcDbLine
 10
65.6307829243
 20
176.4650680736
 30
0.0
 11
65.6307829243
 21
121.4980364922
 31
0.0
  0
LINE
  5
E9
330
E5
100
AcDbEntity
  8
Default
  6
Continuous
 62
     7
100
AcDbLine
 10
195.6307829243
 20
135.6861295876
 30
0.0
 11
195.6307829243
 21
121.4980364922
 31
0.0
  0
LINE
  5
EA
330
E5
100
AcDbEntity
  8
Default
  6
Continuous
 62
     7
100
AcDbLine
 10
65.6307829243
 20
122.9980365053
 30
0.0
 11
195.6307781559
 21
122.9980365053
 31
0.0
  0
TEXT
  5
EB
330
E5
100
AcDbEntity
  8
Default
  6
Continuous
 62
     7
100
AcDbText
 10
128.346689631
 20
123.7480365053
 30
0.0
 40
3.0
  1
130
  7
SEACAD_seiso_ttf
 11
128.346689631
 21
126.7480365053
 31
0.0
100
AcDbText
 73
     3
  0
ENDBLK
  5
ED
330
E5
100
AcDbEntity
  8
0
100
AcDbBlockEnd
  0
BLOCK
  5
10B
330
EE
100
AcDbEntity
  8
0
100
AcDbBlockBegin
  2
SE1
 70
     0
 10
0.0
 20
0.0
 30
0.0
  3
SE1
  1

  0
SPLINE
  5
F0
330
EE
100
AcDbEntity
  8
MEGA_026224
  6
Continuous
 62
     7
100
AcDbSpline
210
0.0
220
0.0
230
1.0
 70
     8
 71
     3
 72
     9
 73
     5
 74
     0
 42
0.000000016123488
 43
0.0000000001
 40
0.8516634856322808
 40
0.8516634856322808
 40
0.8516634856322808
 40
0.8516634856322808
 40
0.875
 40
1.0
 40
1.0
 40
1.0
 40
1.0
 10
15.65024243057101
 20
134.2569478423302
 30
0.0
 10
15.6431278895546
 20
134.261617447381
 30
0.0
 10
15.60393293071718
 20
134.2879224755368
 30
0.0
 10
15.57201778558845
 20
134.3051887081577
 30
0.0
 10
15.57201778558845
 20
134.3051887081577
 30
0.0
  0
LINE
  5
F1
330
EE
100
AcDbEntity
  8
MEGA_026224
  6
Continuous
 62
     7
100
AcDbLine
 10
15.5720177856
 20
134.3051887082
 30
0.0
 11
15.6480365319
 21
134.2804516154
 31
0.0
  0
LINE
  5
F2
330
EE
100
AcDbEntity
  8
MEGA_026224
  6
Continuous
 62
     7
100
AcDbLine
 10
11.5048646947
 20
184.9650680736
 30
0.0
 11
36.5048646947
 21
184.9650680736
 31
0.0
  0
LINE
  5
F3
330
EE
100
AcDbEntity
  8
MEGA_026224
  6
Continuous
 62
     7
100
AcDbLine
 10
32.3583937642
 20
134.2805161498
 30
0.0
 11
32.4375382761
 21
134.3062708675
 31
0.0
  0
ARC
  5
F4
330
EE
100
AcDbEntity
  8
MEGA_026224
  6
Continuous
 62
     7
100
AcDbCircle
 10
30.501563837
 20
139.98536596
 30
0.0
 40
5.999983608674759
100
AcDbArc
 50
287.2454107013
 51
70.7885356043
  0
ARC
  5
F5
330
EE
100
AcDbEntity
  8
MEGA_026224
  6
Continuous
 62
     7
100
AcDbCircle
 10
24.0031099371
 20
120.0150681306
 30
0.0
 40
27.00000000000006
100
AcDbArc
 50
71.7112068894
 51
108.2813456879
  0
ARC
  5
F6
330
EE
100
AcDbEntity
  8
MEGA_026224
  6
Continuous
 62
     7
100
AcDbCircle
 10
24.0031315095
 20
159.9549486774
 30
0.0
 40
26.99988072333378
100
AcDbArc
 50
252.1410951866
 51
287.8523416948
  0
ARC
  5
F7
330
EE
100
AcDbEntity
  8
MEGA_026224
  6
Continuous
 62
     7
100
AcDbCircle
 10
17.5048211092
 20
139.9853630359
 30
0.0
 40
5.999984883673091
100
AcDbArc
 50
109.1794346409
 51
252.7239367684
  0
LINE
  5
F8
330
EE
100
AcDbEntity
  8
MEGA_026224
  6
Continuous
 62
     7
100
AcDbLine
 10
32.0048646947
 20
193.1650680736
 30
0.0
 11
16.0048646947
 21
193.1650680736
 31
0.0
  0
LINE
  5
F9
330
EE
100
AcDbEntity
  8
MEGA_026224
  6
Continuous
 62
     7
100
AcDbLine
 10
16.3048646947
 20
193.4650680736
 30
0.0
 11
31.7048646947
 21
193.4650680736
 31
0.0
  0
LINE
  5
FA
330
EE
100
AcDbEntity
  8
MEGA_026224
  6
Continuous
 62
     7
100
AcDbLine
 10
11.5065373155
 20
175.3553547598
 30
0.0
 11
11.5065373155
 21
150.0150680736
 31
0.0
  0
LINE
  5
FB
330
EE
100
AcDbEntity
  8
MEGA_026224
  6
Continuous
 62
     7
100
AcDbLine
 10
36.5031920739
 20
150.0150680736
 30
0.0
 11
36.5031920739
 21
175.3553536982
 31
0.0
  0
SPLINE
  5
FC
330
EE
100
AcDbEntity
  8
MEGA_026224
  6
Continuous
 62
     7
100
AcDbSpline
210
0.0
220
0.0
230
1.0
 70
     8
 71
     3
 72
    41
 73
    37
 74
     0
 42
0.0000000009937191
 43
0.0000000001
 40
0.0
 40
0.0
 40
0.0
 40
0.0
 40
0.0274596236332384
 40
0.0537078418762768
 40
0.0788667169624129
 40
0.1030282341739101
 40
0.1262574746846941
 40
0.1475130185036453
 40
0.1766958850195972
 40
0.2040528253595708
 40
0.2292026983710409
 40
0.2514550501321374
 40
0.2713671560350857
 40
0.2888109503001469
 40
0.3055404275434228
 40
0.3250399580826364
 40
0.3474401163576865
 40
0.3727864277831591
 40
0.3974107323066308
 40
0.4243145102289384
 40
0.4534663059899561
 40
0.4848063034465355
 40
0.5182475232472838
 40
0.5536837920438193
 40
0.5909634196510017
 40
0.629864288908464
 40
0.6701151883227756
 40
0.7114675486310045
 40
0.753586316338649
 40
0.796154776550751
 40
0.8273456540585836
 40
0.8600352134910861
 40
0.8935034560277175
 40
0.9280395862363046
 40
0.9635715885507397
 40
1.0
 40
1.0
 40
1.0
 40
1.0
 10
11.50653731545463
 20
150.0150680735581
 30
0.0
 10
11.50653621128452
 20
149.8356607846755
 30
0.0
 10
11.50653410509747
 20
149.5402055555291
 30
0.0
 10
11.50651922441386
 20
149.0627223369549
 30
0.0
 10
11.50649962187278
 20
148.6161536018724
 30
0.0
 10
11.50647601782637
 20
148.1846687573115
 30
0.0
 10
11.50645338785663
 20
147.7770844060983
 30
0.0
 10
11.50642108549046
 20
147.3394929972739
 30
0.0
 10
11.50630012889797
 20
146.8774634754963
 30
0.0
 10
11.50622074903459
 20
146.3951072667404
 30
0.0
 10
11.5061659413803
 20
145.9576491343667
 30
0.0
 10
11.50612180138825
 20
145.5684476876818
 30
0.0
 10
11.50608389478575
 20
145.2284253808118
 30
0.0
 10
11.50605058606153
 20
144.9242164143665
 30
0.0
 10
11.50601829854182
 20
144.6266955931229
 30
0.0
 10
11.50598380486915
 20
144.3072121261125
 30
0.0
 10
11.50594508106918
 20
143.9489972432553
 30
0.0
 10
11.50590420236868
 20
143.5748586374689
 30
0.0
 10
11.50586141815988
 20
143.1918199867771
 30
0.0
 10
11.50581706607789
 20
142.8064236163539
 30
0.0
 10
11.50576949039375
 20
142.4100724808277
 30
0.0
 10
11.50571867422918
 20
142.010638085521
 30
0.0
 10
11.50566460486339
 20
141.6181606696069
 30
0.0
 10
11.50560705514736
 20
141.2432055310811
 30
0.0
 10
11.50554577147339
 20
140.8958448411654
 30
0.0
 10
11.50547933806635
 20
140.5875956356618
 30
0.0
 10
11.50541002995342
 20
140.331330820773
 30
0.0
 10
11.50532339626694
 20
140.1359463114154
 30
0.0
 10
11.50526315234123
 20
140.0079958600706
 30
0.0
 10
11.50506622809417
 20
139.9622412061897
 30
0.0
 10
11.50498414467007
 20
139.9688398033898
 30
0.0
 10
11.50494847367644
 20
139.9666351456346
 30
0.0
 10
11.50491647367799
 20
139.9665595263357
 30
0.0
 10
11.50488886820259
 20
139.9659672738921
 30
0.0
 10
11.50486745542101
 20
139.9655532450124
 30
0.0
 10
11.50486702833697
 20
139.9652446719658
 30
0.0
 10
11.50486469470111
 20
139.9650680735581
 30
0.0
  0
ARC
  5
FD
330
EE
100
AcDbEntity
  8
MEGA_026224
  6
Continuous
 62
     7
100
AcDbCircle
 10
17.6323474691
 20
140.1007474715
 30
0.0
 40
6.170923963474592
100
AcDbArc
 50
215.8799641557
 51
216.8862341766
  0
ARC
  5
FE
330
EE
100
AcDbEntity
  8
MEGA_026224
  6
Continuous
 62
     7
100
AcDbCircle
 10
17.6323474691
 20
140.1007474715
 30
0.0
 40
6.170923963474592
100
AcDbArc
 50
237.7028022707
 51
251.2685968838
  0
SPLINE
  5
FF
330
EE
100
AcDbEntity
  8
MEGA_026224
  6
Continuous
 62
     7
100
AcDbSpline
210
0.0
220
0.0
230
1.0
 70
     8
 71
     3
 72
    39
 73
    35
 74
     0
 42
0.0000000009950248
 43
0.0000000001
 40
0.0
 40
0.0
 40
0.0
 40
0.0
 40
0.041376521891301
 40
0.081082898760982
 40
0.1192738637120955
 40
0.1558531738260319
 40
0.1897434456922966
 40
0.224968562624987
 40
0.2530665919961685
 40
0.2802402528729908
 40
0.3143355581450183
 40
0.3458403613160083
 40
0.3746089994823287
 40
0.3942871422525133
 40
0.4122251784371188
 40
0.4288632484341106
 40
0.4471670542864654
 40
0.4676267141605108
 40
0.4902452532716702
 40
0.5150161505131267
 40
0.5419144838541706
 40
0.5708809837650285
 40
0.6018152419349228
 40
0.6345705890951265
 40
0.6689697428601422
 40
0.7048119157442374
 40
0.7418075345981622
 40
0.7795925567796983
 40
0.8182194582575557
 40
0.8519340458037405
 40
0.8874720106427162
 40
0.9235376042145679
 40
0.9612563782097265
 40
1.0
 40
1.0
 40
1.0
 40
1.0
 10
36.50151945319401
 20
139.9650680735582
 30
0.0
 10
36.50152325241045
 20
139.9665746105049
 30
0.0
 10
36.50152986104884
 20
139.9695986687619
 30
0.0
 10
36.50156182674961
 20
139.987840471893
 30
0.0
 10
36.50159869008969
 20
140.0154408114124
 30
0.0
 10
36.50163942884431
 20
140.0479936292542
 30
0.0
 10
36.50168765569041
 20
140.0991540034479
 30
0.0
 10
36.50182203212555
 20
140.1296251683524
 30
0.0
 10
36.50192993273812
 20
140.1584588842427
 30
0.0
 10
36.50198657859814
 20
140.230184803108
 30
0.0
 10
36.5020515607852
 20
140.343218549032
 30
0.0
 10
36.50210917634754
 20
140.5028908093302
 30
0.0
 10
36.50215605378887
 20
140.6718462733549
 30
0.0
 10
36.50219348444165
 20
140.8340014388068
 30
0.0
 10
36.50222342363557
 20
140.9797790311881
 30
0.0
 10
36.50225209435376
 20
141.1333737370952
 30
0.0
 10
36.50228176142772
 20
141.3063312833271
 30
0.0
 10
36.50231429498474
 20
141.5124714650345
 30
0.0
 10
36.50235000257506
 20
141.7578041089435
 30
0.0
 10
36.50238898834894
 20
142.0472494026577
 30
0.0
 10
36.50243133356576
 20
142.3844131256092
 30
0.0
 10
36.50247712521726
 20
142.7716777141645
 30
0.0
 10
36.50252649443862
 20
143.2105296570727
 30
0.0
 10
36.50257960420645
 20
143.7013371130961
 30
0.0
 10
36.50263675169441
 20
144.242779022916
 30
0.0
 10
36.50269846251793
 20
144.829689769095
 30
0.0
 10
36.50276615663087
 20
145.4550256158093
 30
0.0
 10
36.50283935455507
 20
146.1120789162607
 30
0.0
 10
36.50292973145072
 20
146.7607437568988
 30
0.0
 10
36.50308516364192
 20
147.3991301458701
 30
0.0
 10
36.50311818160418
 20
148.0220380103351
 30
0.0
 10
36.50315703948066
 20
148.6652223312211
 30
0.0
 10
36.50318518782703
 20
149.3438217119119
 30
0.0
 10
36.5031897145817
 20
149.7629256967317
 30
0.0
 10
36.50319207394757
 20
150.0150680735581
 30
0.0
  0
ARC
  5
100
330
EE
100
AcDbEntity
  8
MEGA_026224
  6
Continuous
 62
     7
100
AcDbCircle
 10
24.0031036322
 20
159.9522380757
 30
0.0
 40
26.99716959550079
100
AcDbArc
 50
267.7704722737
 51
271.5286942762
  0
LINE
  5
101
330
EE
100
AcDbEntity
  8
MEGA_026224
  6
Continuous
 62
     7
100
AcDbLine
 10
36.5048646947
 20
175.483037284
 30
0.0
 11
36.5048646947
 21
184.9650680736
 31
0.0
  0
LINE
  5
102
330
EE
100
AcDbEntity
  8
MEGA_026224
  6
Continuous
 62
     7
100
AcDbLine
 10
11.5048646947
 20
184.9650680736
 30
0.0
 11
11.5048646947
 21
175.4829087482
 31
0.0
  0
LINE
  5
103
330
EE
100
AcDbEntity
  8
MEGA_026224
  6
Continuous
 62
     7
100
AcDbLine
 10
32.0048646947
 20
184.9650680736
 30
0.0
 11
32.0048646947
 21
193.1650680736
 31
0.0
  0
LINE
  5
104
330
EE
100
AcDbEntity
  8
MEGA_026224
  6
Continuous
 62
     7
100
AcDbLine
 10
16.0048646947
 20
193.1650680736
 30
0.0
 11
16.0048646947
 21
184.9650680736
 31
0.0
  0
ARC
  5
105
330
EE
100
AcDbEntity
  8
MEGA_026224
  6
Continuous
 62
     7
100
AcDbCircle
 10
48.7138911219
 20
175.2108127002
 30
0.0
 40
12.21155437971331
100
AcDbArc
 50
178.879658035
 51
179.3218316949
  0
LINE
  5
106
330
EE
100
AcDbEntity
  8
MEGA_026224
  6
Continuous
 62
     7
100
AcDbLine
 10
11.5047945743
 20
175.4496442176
 30
0.0
 11
11.5054666872
 21
175.3800571089
 31
0.0
  0
ARC
  5
107
330
EE
100
AcDbEntity
  8
MEGA_026224
  6
Continuous
 62
     7
100
AcDbCircle
 10
11.8165081624
 20
175.460709351
 30
0.0
 40
0.311222002470147
100
AcDbArc
 50
175.9095994881
 51
182.0463640721
  0
LINE
  5
108
330
EE
100
AcDbEntity
  8
MEGA_026224
  6
Continuous
 62
     7
100
AcDbLine
 10
36.5032323995
 20
175.4496014521
 30
0.0
 11
36.5036583456
 21
175.4830449258
 31
0.0
  0
LINE
  5
109
330
EE
100
AcDbEntity
  8
MEGA_026224
  6
Continuous
 62
     7
100
AcDbLine
 10
32.0048646947
 20
193.1650680736
 30
0.0
 11
31.7048646947
 21
193.4650680736
 31
0.0
  0
LINE
  5
10A
330
EE
100
AcDbEntity
  8
MEGA_026224
  6
Continuous
 62
     7
100
AcDbLine
 10
16.3048646947
 20
193.4650680736
 30
0.0
 11
16.0048646947
 21
193.1650680736
 31
0.0
  0
ENDBLK
  5
10C
330
EE
100
AcDbEntity
  8
0
100
AcDbBlockEnd
  0
BLOCK
  5
115
330
10E
100
AcDbEntity
  8
0
100
AcDbBlockBegin
  2
DMBLK178
 70
     0
 10
0.0
 20
0.0
 30
0.0
  3
DMBLK178
  1

  0
HATCH
  5
10F
330
10E
100
AcDbEntity
  8
Default
  6
Continuous
 62
     7
100
AcDbHatch
 10
0.0
 20
0.0
 30
0.0
210
0.0
220
0.0
230
1.0
  2
SOLID
 70
     1
 71
     0
 91
        1
 92
        1
 93
        3
 72
     1
 10
14.50653734153167
 20
118.5224204362554
 11
14.50653734153167
 21
119.5224204449478
 72
     1
 10
14.50653734153167
 20
119.5224204449478
 11
11.50653731545463
 21
119.0224204406016
 72
     1
 10
11.50653731545463
 20
119.0224204406016
 11
14.50653734153167
 21
118.5224204362554
 97
        0
 75
     0
 76
     1
 98
        0
  0
HATCH
  5
110
330
10E
100
AcDbEntity
  8
Default
  6
Continuous
 62
     7
100
AcDbHatch
 10
0.0
 20
0.0
 30
0.0
210
0.0
220
0.0
230
1.0
  2
SOLID
 70
     1
 71
     0
 91
        1
 92
        1
 93
        3
 72
     1
 10
33.50319235121861
 20
118.5224204362554
 11
36.50319237729564
 21
119.0224204406016
 72
     1
 10
36.50319237729564
 20
119.0224204406016
 11
33.50319235121861
 21
119.5224204449478
 72
     1
 10
33.50319235121861
 20
119.5224204449478
 11
33.50319235121861
 21
118.5224204362554
 97
        0
 75
     0
 76
     1
 98
        0
  0
LINE
  5
111
330
10E
100
AcDbEntity
  8
Default
  6
Continuous
 62
     7
100
AcDbLine
 10
11.5065373155
 20
150.0150680736
 30
0.0
 11
11.5065373155
 21
117.5224204276
 31
0.0
  0
LINE
  5
112
330
10E
100
AcDbEntity
  8
Default
  6
Continuous
 62
     7
100
AcDbLine
 10
36.5031920739
 20
150.0150680736
 30
0.0
 11
36.5031920739
 21
117.5224204276
 31
0.0
  0
LINE
  5
113
330
10E
100
AcDbEntity
  8
Default
  6
Continuous
 62
     7
100
AcDbLine
 10
11.5065373155
 20
119.0224204406
 30
0.0
 11
36.5031923773
 21
119.0224204406
 31
0.0
  0
TEXT
  5
114
330
10E
100
AcDbEntity
  8
Default
  6
Continuous
 62
     7
100
AcDbText
 10
22.2321375736
 20
119.7724204406
 30
0.0
 40
3.0
  1
25
  7
SEACAD_seiso_ttf
 11
22.2321375736
 21
122.7724204406
 31
0.0
100
AcDbText
 73
     3
  0
ENDBLK
  5
116
330
10E
100
AcDbEntity
  8
0
100
AcDbBlockEnd
  0
ENDSEC
  0
SECTION
  2
ENTITIES
  0
INSERT
  5
5F
330
1F
100
AcDbEntity
  8
Default
100
AcDbBlockReference
  2
SEANNOT_GROUP
 10
0.0
 20
0.0
 30
0.0
  0
INSERT
  5
65
330
1F
100
AcDbEntity
  8
Default
100
AcDbBlockReference
  2
SEANNOT_GROUP1
 10
0.0
 20
0.0
 30
0.0
  0
INSERT
  5
6A
330
1F
100
AcDbEntity
  8
Default
100
AcDbBlockReference
  2
SEANNOT_GROUP2
 10
0.0
 20
0.0
 30
0.0
  0
INSERT
  5
6F
330
1F
100
AcDbEntity
  8
Default
100
AcDbBlockReference
  2
SE
 10
0.0
 20
0.0
 30
0.0
  0
DIMENSION
  5
A4
330
1F
100
AcDbEntity
  8
Default
  6
Continuous
 62
     7
100
AcDbDimension
  2
DMBLK171
 10
52.1633490619
 20
193.4650680736
 30
0.0
 11
52.1633490619
 21
189.2150683045
 31
0.0
 70
   160
  1
\A1;<>
 71
     5
 42
-1.0
  3
DIN
100
AcDbAlignedDimension
 13
65.6307829243
 23
184.9650680736
 33
0.0
 14
70.4307829243
 24
193.4650680736
 34
0.0
 50
90.0
100
AcDbRotatedDimension
  0
DIMENSION
  5
AE
330
1F
100
AcDbEntity
  8
Default
  6
Continuous
 62
     7
100
AcDbDimension
  2
DMBLK172
 10
90.6307829243
 20
216.6295387462
 30
0.0
 11
78.1307831105
 21
216.6295387462
 31
0.0
 70
   160
  1
\A1;%%C <>
 71
     5
 42
-1.0
  3
DIN
100
AcDbAlignedDimension
 13
65.6307829243
 23
176.4650680736
 33
0.0
 14
90.6307829243
 24
180.7150680736
 34
0.0
100
AcDbRotatedDimension
  0
DIMENSION
  5
BA
330
1F
100
AcDbEntity
  8
Default
  6
Continuous
 62
     7
100
AcDbDimension
  2
DMBLK173
 10
86.1307829243
 20
208.7454195782
 30
0.0
 11
78.1307833042
 21
208.7454195782
 31
0.0
 70
   160
  1
\A1;%%C <>
 71
     5
 42
-1.0
  3
DIN
100
AcDbAlignedDimension
 13
70.1307829243
 23
184.9650680736
 33
0.0
 14
86.1307829243
 24
189.0650680736
 34
0.0
100
AcDbRotatedDimension
  0
DIMENSION
  5
C5
330
1F
100
AcDbEntity
  8
Default
  6
Continuous
 62
     7
100
AcDbDimension
  2
DMBLK174
 10
203.7149480618
 20
132.9550679809
 30
0.0
 11
203.7149480618
 21
139.9850679598
 31
0.0
 70
   161
  1
\A1;<>
 71
     5
 42
-1.0
  3
DIN
100
AcDbAlignedDimension
 13
194.1307828836
 23
132.9550679809
 33
0.0
 14
194.1307829243
 24
147.0150681306
 34
0.0
1001
ACAD
1000
DSTYLE
1002
{
1070
   271
1070
     0
1070
   272
1070
     0
1070
     0
1002
}
  0
DIMENSION
  5
CF
330
1F
100
AcDbEntity
  8
Default
  6
Continuous
 62
     7
100
AcDbDimension
  2
DMBLK175
 10
52.1633489352
 20
184.9650680736
 30
0.0
 11
52.1633489352
 21
158.9600678972
 31
0.0
 70
   160
  1
\A1;<>
 71
     5
 42
-1.0
  3
DIN
100
AcDbAlignedDimension
 13
89.1307829243
 23
132.9550680212
 33
0.0
 14
65.6307829243
 24
184.9650680736
 34
0.0
 50
90.0
100
AcDbRotatedDimension
1001
ACAD
1000
DSTYLE
1002
{
1070
   271
1070
     1
1070
   272
1070
     1
1070
     0
1002
}
  0
DIMENSION
  5
D9
330
1F
100
AcDbEntity
  8
Default
  6
Continuous
 62
     7
100
AcDbDimension
  2
DMBLK176
 10
74.0807829243
 20
200.9589151233
 30
0.0
 11
78.1307830293
 21
200.9589151233
 31
0.0
 70
   161
  1
\A1;{\Fsemeca1.ttf;q} <>
 71
     5
 42
-1.0
  3
DIN
100
AcDbAlignedDimension
 13
74.0807829243
 23
193.4650680736
 33
0.0
 14
82.1807829243
 24
193.4650680736
 34
0.0
  0
DIMENSION
  5
E4
330
1F
100
AcDbEntity
  8
Default
  6
Continuous
 62
     7
100
AcDbDimension
  2
DMBLK177
 10
195.6307829243
 20
122.9980365053
 30
0.0
 11
130.6307805401
 21
122.9980365053
 31
0.0
 70
   160
  1
\A1;<>
 71
     5
 42
-1.0
  3
DIN
100
AcDbAlignedDimension
 13
65.6307829243
 23
176.4650680736
 33
0.0
 14
195.6307829243
 24
135.6861295876
 34
0.0
100
AcDbRotatedDimension
  0
INSERT
  5
EF
330
1F
100
AcDbEntity
  8
Default
100
AcDbBlockReference
  2
SE1
 10
0.0
 20
0.0
 30
0.0
  0
DIMENSION
  5
10D
330
1F
100
AcDbEntity
  8
Default
  6
Continuous
 62
     7
100
AcDbDimension
  2
DMBLK178
 10
11.5065373155
 20
119.0224204406
 30
0.0
 11
24.0048648464
 21
119.0224204406
 31
0.0
 70
   161
  1
\A1;<>
 71
     5
 42
-1.0
  3
DIN
100
AcDbAlignedDimension
 13
11.5065373155
 23
150.0150680736
 33
0.0
 14
36.5031920739
 24
150.0150680736
 34
0.0
  0
ENDSEC
  0
SECTION
  2
OBJECTS
  0
DICTIONARY
  5
C
330
0
100
AcDbDictionary
281
     1
  3
ACAD_GROUP
350
D
  3
ACAD_LAYOUT
350
1A
  3
ACAD_MLEADERSTYLE
350
11A
  3
ACAD_MLINESTYLE
350
17
  3
ACAD_PLOTSETTINGS
350
19
  3
ACAD_PLOTSTYLENAME
350
E
  3
ACAD_SCALELIST
350
3B
  3
ACAD_TABLESTYLE
350
119
  3
ACAD_VISUALSTYLE
350
2A
  3
AcDbVariableDictionary
350
117
  0
DICTIONARY
  5
D
102
{ACAD_REACTORS
330
C
102
}
330
C
100
AcDbDictionary
281
     1
  0
DICTIONARY
  5
1A
102
{ACAD_REACTORS
330
C
102
}
330
C
100
AcDbDictionary
281
     1
  3
Layout1
350
1E
  3
Model
350
22
  0
DICTIONARY
  5
11A
102
{ACAD_REACTORS
330
C
102
}
330
C
100
AcDbDictionary
281
     1
  0
DICTIONARY
  5
17
102
{ACAD_REACTORS
330
C
102
}
330
C
100
AcDbDictionary
281
     1
  3
Standard
350
18
  0
DICTIONARY
  5
19
102
{ACAD_REACTORS
330
C
102
}
330
C
100
AcDbDictionary
281
     1
  0
ACDBDICTIONARYWDFLT
  5
E
102
{ACAD_REACTORS
330
C
102
}
330
C
100
AcDbDictionary
281
     1
  3
Normal
350
F
100
AcDbDictionaryWithDefault
340
F
  0
DICTIONARY
  5
3B
102
{ACAD_REACTORS
330
C
102
}
330
C
100
AcDbDictionary
281
     1
  3
A0
350
3C
  3
A1
350
3D
  3
A2
350
3E
  3
A3
350
3F
  3
A4
350
40
  3
A5
350
41
  3
A6
350
42
  3
A7
350
43
  3
A8
350
44
  3
A9
350
45
  3
B0
350
46
  3
B1
350
47
  3
B2
350
48
  3
B3
350
49
  3
B4
350
4A
  3
B5
350
4B
  3
B6
350
4C
  3
B7
350
4D
  3
B8
350
4E
  3
B9
350
4F
  3
C0
350
50
  3
C1
350
51
  3
C2
350
52
  3
C3
350
53
  3
C4
350
54
  3
C5
350
55
  3
C6
350
56
  3
C7
350
57
  3
C8
350
58
  3
C9
350
59
  3
D0
350
5A
  3
D1
350
5B
  3
D2
350
5C
  0
DICTIONARY
  5
119
102
{ACAD_REACTORS
330
C
102
}
330
C
100
AcDbDictionary
281
     1
  0
DICTIONARY
  5
2A
102
{ACAD_REACTORS
330
C
102
}
330
C
100
AcDbDictionary
281
     1
  3
2dWireframe
350
2F
  3
3D Hidden
350
31
  3
3dWireframe
350
30
  3
Basic
350
32
  3
Brighten
350
36
  3
ColorChange
350
3A
  3
Conceptual
350
34
  3
Dim
350
35
  3
Facepattern
350
39
  3
Flat
350
2B
  3
FlatWithEdges
350
2C
  3
Gouraud
350
2D
  3
GouraudWithEdges
350
2E
  3
Linepattern
350
38
  3
Realistic
350
33
  3
Thicken
350
37
  0
DICTIONARY
  5
117
102
{ACAD_REACTORS
330
C
102
}
330
C
100
AcDbDictionary
281
     1
  3
CANNOSCALE
350
118
  3
PSOLHEIGHT
350
11C
  3
PSOLWIDTH
350
11B
  0
LAYOUT
  5
1E
102
{ACAD_REACTORS
330
1A
102
}
330
1A
100
AcDbPlotSettings
  1

  2
none_device
  4

  6

 40
0.0
 41
0.0
 42
0.0
 43
0.0
 44
0.0
 45
0.0
 46
0.0
 47
0.0
 48
0.0
 49
0.0
140
0.0
141
0.0
142
1.0
143
1.0
 70
   688
 72
     0
 73
     0
 74
     5
  7

 75
    16
147
1.0
148
0.0
149
0.0
100
AcDbLayout
  1
Layout1
 70
     1
 71
     1
 10
0.0
 20
0.0
 11
210.0
 21
297.0
 12
0.0
 22
0.0
 32
0.0
 14
0.0
 24
0.0
 34
0.0
 15
210.0
 25
297.0
 35
0.0
146
0.0
 13
0.0
 23
0.0
 33
0.0
 16
1.0
 26
0.0
 36
0.0
 17
0.0
 27
1.0
 37
0.0
 76
     0
330
1B
  0
LAYOUT
  5
22
102
{ACAD_REACTORS
330
1A
102
}
330
1A
100
AcDbPlotSettings
  1

  2
none_device
  4

  6

 40
0.0
 41
0.0
 42
0.0
 43
0.0
 44
0.0
 45
0.0
 46
0.0
 47
0.0
 48
0.0
 49
0.0
140
0.0
141
0.0
142
1.0
143
1.0
 70
  1712
 72
     0
 73
     0
 74
     0
  7

 75
     0
147
1.0
148
0.0
149
0.0
100
AcDbLayout
  1
Model
 70
     1
 71
     0
 10
0.0
 20
0.0
 11
210.0
 21
297.0
 12
0.0
 22
0.0
 32
0.0
 14
0.0
 24
0.0
 34
0.0
 15
210.0
 25
297.0
 35
0.0
146
0.0
 13
0.0
 23
0.0
 33
0.0
 16
1.0
 26
0.0
 36
0.0
 17
0.0
 27
1.0
 37
0.0
 76
     0
330
1F
331
29
  0
MLINESTYLE
  5
18
102
{ACAD_REACTORS
330
17
102
}
330
17
100
AcDbMlineStyle
  2
Standard
 70
     0
  3

 62
   256
 51
90.0
 52
90.0
 71
     2
 49
0.5
 62
   256
  6
BYLAYER
 49
-0.5
 62
   256
  6
BYLAYER
  0
ACDBPLACEHOLDER
  5
F
102
{ACAD_REACTORS
330
E
102
}
330
E
  0
SCALE
  5
3C
102
{ACAD_REACTORS
330
3B
102
}
330
3B
100
AcDbScale
 70
     0
300
1:1
140
1.0
141
1.0
290
     1
  0
SCALE
  5
3D
102
{ACAD_REACTORS
330
3B
102
}
330
3B
100
AcDbScale
 70
     0
300
1:2
140
1.0
141
2.0
290
     0
  0
SCALE
  5
3E
102
{ACAD_REACTORS
330
3B
102
}
330
3B
100
AcDbScale
 70
     0
300
1:4
140
1.0
141
4.0
290
     0
  0
SCALE
  5
3F
102
{ACAD_REACTORS
330
3B
102
}
330
3B
100
AcDbScale
 70
     0
300
1:5
140
1.0
141
5.0
290
     0
  0
SCALE
  5
40
102
{ACAD_REACTORS
330
3B
102
}
330
3B
100
AcDbScale
 70
     0
300
1:8
140
1.0
141
8.0
290
     0
  0
SCALE
  5
41
102
{ACAD_REACTORS
330
3B
102
}
330
3B
100
AcDbScale
 70
     0
300
1:10
140
1.0
141
10.0
290
     0
  0
SCALE
  5
42
102
{ACAD_REACTORS
330
3B
102
}
330
3B
100
AcDbScale
 70
     0
300
1:16
140
1.0
141
16.0
290
     0
  0
SCALE
  5
43
102
{ACAD_REACTORS
330
3B
102
}
330
3B
100
AcDbScale
 70
     0
300
1:20
140
1.0
141
20.0
290
     0
  0
SCALE
  5
44
102
{ACAD_REACTORS
330
3B
102
}
330
3B
100
AcDbScale
 70
     0
300
1:30
140
1.0
141
30.0
290
     0
  0
SCALE
  5
45
102
{ACAD_REACTORS
330
3B
102
}
330
3B
100
AcDbScale
 70
     0
300
1:40
140
1.0
141
40.0
290
     0
  0
SCALE
  5
46
102
{ACAD_REACTORS
330
3B
102
}
330
3B
100
AcDbScale
 70
     0
300
1:50
140
1.0
141
50.0
290
     0
  0
SCALE
  5
47
102
{ACAD_REACTORS
330
3B
102
}
330
3B
100
AcDbScale
 70
     0
300
1:100
140
1.0
141
100.0
290
     0
  0
SCALE
  5
48
102
{ACAD_REACTORS
330
3B
102
}
330
3B
100
AcDbScale
 70
     0
300
2:1
140
2.0
141
1.0
290
     0
  0
SCALE
  5
49
102
{ACAD_REACTORS
330
3B
102
}
330
3B
100
AcDbScale
 70
     0
300
4:1
140
4.0
141
1.0
290
     0
  0
SCALE
  5
4A
102
{ACAD_REACTORS
330
3B
102
}
330
3B
100
AcDbScale
 70
     0
300
8:1
140
8.0
141
1.0
290
     0
  0
SCALE
  5
4B
102
{ACAD_REACTORS
330
3B
102
}
330
3B
100
AcDbScale
 70
     0
300
10:1
140
10.0
141
1.0
290
     0
  0
SCALE
  5
4C
102
{ACAD_REACTORS
330
3B
102
}
330
3B
100
AcDbScale
 70
     0
300
100:1
140
100.0
141
1.0
290
     0
  0
SCALE
  5
4D
102
{ACAD_REACTORS
330
3B
102
}
330
3B
100
AcDbScale
 70
     0
300
1/128" = 1'-0"
140
0.0078125
141
12.0
290
     0
  0
SCALE
  5
4E
102
{ACAD_REACTORS
330
3B
102
}
330
3B
100
AcDbScale
 70
     0
300
1/64" = 1'-0"
140
0.015625
141
12.0
290
     0
  0
SCALE
  5
4F
102
{ACAD_REACTORS
330
3B
102
}
330
3B
100
AcDbScale
 70
     0
300
1/32" = 1'-0"
140
0.03125
141
12.0
290
     0
  0
SCALE
  5
50
102
{ACAD_REACTORS
330
3B
102
}
330
3B
100
AcDbScale
 70
     0
300
1/16" = 1'-0"
140
0.0625
141
12.0
290
     0
  0
SCALE
  5
51
102
{ACAD_REACTORS
330
3B
102
}
330
3B
100
AcDbScale
 70
     0
300
3/32" = 1'-0"
140
0.09375
141
12.0
290
     0
  0
SCALE
  5
52
102
{ACAD_REACTORS
330
3B
102
}
330
3B
100
AcDbScale
 70
     0
300
1/8" = 1'-0"
140
0.125
141
12.0
290
     0
  0
SCALE
  5
53
102
{ACAD_REACTORS
330
3B
102
}
330
3B
100
AcDbScale
 70
     0
300
3/16" = 1'-0"
140
0.1875
141
12.0
290
     0
  0
SCALE
  5
54
102
{ACAD_REACTORS
330
3B
102
}
330
3B
100
AcDbScale
 70
     0
300
1/4" = 1'-0"
140
0.25
141
12.0
290
     0
  0
SCALE
  5
55
102
{ACAD_REACTORS
330
3B
102
}
330
3B
100
AcDbScale
 70
     0
300
3/8" = 1'-0"
140
0.375
141
12.0
290
     0
  0
SCALE
  5
56
102
{ACAD_REACTORS
330
3B
102
}
330
3B
100
AcDbScale
 70
     0
300
1/2" = 1'-0"
140
0.5
141
12.0
290
     0
  0
SCALE
  5
57
102
{ACAD_REACTORS
330
3B
102
}
330
3B
100
AcDbScale
 70
     0
300
3/4" = 1'-0"
140
0.75
141
12.0
290
     0
  0
SCALE
  5
58
102
{ACAD_REACTORS
330
3B
102
}
330
3B
100
AcDbScale
 70
     0
300
1" = 1'-0"
140
1.0
141
12.0
290
     0
  0
SCALE
  5
59
102
{ACAD_REACTORS
330
3B
102
}
330
3B
100
AcDbScale
 70
     0
300
1-1/2" = 1'-0"
140
1.5
141
12.0
290
     0
  0
SCALE
  5
5A
102
{ACAD_REACTORS
330
3B
102
}
330
3B
100
AcDbScale
 70
     0
300
3" = 1'-0"
140
3.0
141
12.0
290
     0
  0
SCALE
  5
5B
102
{ACAD_REACTORS
330
3B
102
}
330
3B
100
AcDbScale
 70
     0
300
6" = 1'-0"
140
6.0
141
12.0
290
     0
  0
SCALE
  5
5C
102
{ACAD_REACTORS
330
3B
102
}
330
3B
100
AcDbScale
 70
     0
300
1'-0" = 1'-0"
140
12.0
141
12.0
290
     0
  0
VISUALSTYLE
  5
2F
102
{ACAD_REACTORS
330
2A
102
}
330
2A
100
AcDbVisualStyle
  2
2dWireframe
 70
     4
 71
     0
 72
     2
 73
     0
 90
        0
 40
-0.6
 41
-30.0
 62
     5
 63
     7
 74
     1
 91
        4
 64
     7
 65
   257
 75
     1
175
     1
 42
1.0
 92
        0
 66
   257
 43
1.0
 76
     1
 77
     6
 78
     2
 67
     7
 79
     5
170
     0
171
     0
290
     0
174
     0
 93
        1
 44
0.0
173
     0
291
     0
 45
0.0
1001
ACAD
1000
AcDbSavedByObjectVersion
1070
     0
  0
VISUALSTYLE
  5
31
102
{ACAD_REACTORS
330
2A
102
}
330
2A
100
AcDbVisualStyle
  2
3D Hidden
 70
     6
 71
     1
 72
     2
 73
     2
 90
        0
 40
-0.6
 41
-30.0
 62
     5
 63
     7
 74
     2
 91
        2
 64
     7
 65
   257
 75
     2
175
     1
 42
40.0
 92
        0
 66
   257
 43
1.0
 76
     1
 77
     6
 78
     2
 67
     7
 79
     3
170
     0
171
     0
290
     0
174
     0
 93
        1
 44
0.0
173
     0
291
     0
 45
0.0
1001
ACAD
1000
AcDbSavedByObjectVersion
1070
     0
  0
VISUALSTYLE
  5
30
102
{ACAD_REACTORS
330
2A
102
}
330
2A
100
AcDbVisualStyle
  2
3dWireframe
 70
     5
 71
     0
 72
     2
 73
     0
 90
        0
 40
-0.6
 41
-30.0
 62
     5
 63
     7
 74
     1
 91
        4
 64
     7
 65
   257
 75
     1
175
     1
 42
1.0
 92
        0
 66
   257
 43
1.0
 76
     1
 77
     6
 78
     2
 67
     7
 79
     5
170
     0
171
     0
290
     0
174
     0
 93
        1
 44
0.0
173
     0
291
     0
 45
0.0
1001
ACAD
1000
AcDbSavedByObjectVersion
1070
     0
  0
VISUALSTYLE
  5
32
102
{ACAD_REACTORS
330
2A
102
}
330
2A
100
AcDbVisualStyle
  2
Basic
 70
     7
 71
     1
 72
     0
 73
     1
 90
        0
 40
-0.6
 41
-30.0
 62
     5
 63
     7
 74
     0
 91
        4
 64
     7
 65
   257
 75
     1
175
     1
 42
1.0
 92
        8
 66
     7
 43
1.0
 76
     1
 77
     6
 78
     2
 67
     7
 79
     5
170
     0
171
     0
290
     0
174
     0
 93
        1
 44
0.0
173
     0
291
     1
 45
0.0
1001
ACAD
1000
AcDbSavedByObjectVersion
1070
     0
  0
VISUALSTYLE
  5
36
102
{ACAD_REACTORS
330
2A
102
}
330
2A
100
AcDbVisualStyle
  2
Brighten
 70
    12
 71
     2
 72
     2
 73
     0
 90
        0
 40
-0.6
 41
-30.0
 62
     5
 63
     7
 74
     1
 91
        4
 64
     7
 65
   257
 75
     1
175
     1
 42
1.0
 92
        8
 66
     7
 43
1.0
 76
     1
 77
     6
 78
     2
 67
     7
 79
     5
170
     0
171
     0
290
     0
174
     0
 93
        1
 44
50.0
173
     0
291
     1
 45
0.0
1001
ACAD
1000
AcDbSavedByObjectVersion
1070
     0
  0
VISUALSTYLE
  5
3A
102
{ACAD_REACTORS
330
2A
102
}
330
2A
100
AcDbVisualStyle
  2
ColorChange
 70
    16
 71
     2
 72
     2
 73
     3
 90
        0
 40
-0.6
 41
-30.0
 62
     5
 63
     8
 74
     1
 91
        4
 64
     7
 65
   257
 75
     1
175
     1
 42
1.0
 92
        8
 66
     8
 43
1.0
 76
     1
 77
     6
 78
     2
 67
     7
 79
     5
170
     0
171
     0
290
     0
174
     0
 93
        1
 44
0.0
173
     0
291
     1
 45
0.0
1001
ACAD
1000
AcDbSavedByObjectVersion
1070
     0
  0
VISUALSTYLE
  5
34
102
{ACAD_REACTORS
330
2A
102
}
330
2A
100
AcDbVisualStyle
  2
Conceptual
 70
     9
 71
     3
 72
     2
 73
     0
 90
        0
 40
-0.6
 41
-30.0
 62
     5
 63
     7
 74
     2
 91
        2
 64
     7
 65
   257
 75
     1
175
     1
 42
40.0
 92
        8
 66
     7
 43
1.0
 76
     1
 77
     6
 78
     2
 67
     7
 79
     3
170
     0
171
     0
290
     0
174
     0
 93
        1
 44
0.0
173
     0
291
     0
 45
0.0
1001
ACAD
1000
AcDbSavedByObjectVersion
1070
     0
  0
VISUALSTYLE
  5
35
102
{ACAD_REACTORS
330
2A
102
}
330
2A
100
AcDbVisualStyle
  2
Dim
 70
    11
 71
     2
 72
     2
 73
     0
 90
        0
 40
-0.6
 41
-30.0
 62
     5
 63
     7
 74
     1
 91
        4
 64
     7
 65
   257
 75
     1
175
     1
 42
1.0
 92
        8
 66
     7
 43
1.0
 76
     1
 77
     6
 78
     2
 67
     7
 79
     5
170
     0
171
     0
290
     0
174
     0
 93
        1
 44
-50.0
173
     0
291
     1
 45
0.0
1001
ACAD
1000
AcDbSavedByObjectVersion
1070
     0
  0
VISUALSTYLE
  5
39
102
{ACAD_REACTORS
330
2A
102
}
330
2A
100
AcDbVisualStyle
  2
Facepattern
 70
    15
 71
     2
 72
     2
 73
     0
 90
        0
 40
-0.6
 41
-30.0
 62
     5
 63
     7
 74
     1
 91
        4
 64
     7
 65
   257
 75
     1
175
     1
 42
1.0
 92
        8
 66
     7
 43
1.0
 76
     1
 77
     6
 78
     2
 67
     7
 79
     5
170
     0
171
     0
290
     0
174
     0
 93
        1
 44
0.0
173
     0
291
     1
 45
0.0
1001
ACAD
1000
AcDbSavedByObjectVersion
1070
     0
  0
VISUALSTYLE
  5
2B
102
{ACAD_REACTORS
330
2A
102
}
330
2A
100
AcDbVisualStyle
  2
Flat
 70
     0
 71
     2
 72
     1
 73
     1
 90
        2
 40
-0.6
 41
30.0
 62
     5
 63
     7
 74
     0
 91
        4
 64
     7
 65
   257
 75
     1
175
     1
 42
1.0
 92
        8
 66
     7
 43
1.0
 76
     1
 77
     6
 78
     2
 67
     7
 79
     5
170
     0
171
     0
290
     0
174
     0
 93
       13
 44
0.0
173
     0
291
     1
 45
0.0
1001
ACAD
1000
AcDbSavedByObjectVersion
1070
     0
  0
VISUALSTYLE
  5
2C
102
{ACAD_REACTORS
330
2A
102
}
330
2A
100
AcDbVisualStyle
  2
FlatWithEdges
 70
     1
 71
     2
 72
     1
 73
     1
 90
        2
 40
-0.6
 41
30.0
 62
     5
 63
     7
 74
     1
 91
        4
 64
     7
 65
   257
 75
     1
175
     1
 42
1.0
 92
        0
 66
   257
 43
1.0
 76
     1
 77
     6
 78
     2
 67
     7
 79
     5
170
     0
171
     0
290
     0
174
     0
 93
       13
 44
0.0
173
     0
291
     1
 45
0.0
1001
ACAD
1000
AcDbSavedByObjectVersion
1070
     0
  0
VISUALSTYLE
  5
2D
102
{ACAD_REACTORS
330
2A
102
}
330
2A
100
AcDbVisualStyle
  2
Gouraud
 70
     2
 71
     2
 72
     2
 73
     1
 90
        2
 40
-0.6
 41
30.0
 62
     5
 63
     7
 74
     0
 91
        4
 64
     7
 65
   257
 75
     1
175
     1
 42
1.0
 92
        0
 66
     7
 43
1.0
 76
     1
 77
     6
 78
     2
 67
     7
 79
     5
170
     0
171
     0
290
     0
174
     0
 93
       13
 44
0.0
173
     0
291
     1
 45
0.0
1001
ACAD
1000
AcDbSavedByObjectVersion
1070
     0
  0
VISUALSTYLE
  5
2E
102
{ACAD_REACTORS
330
2A
102
}
330
2A
100
AcDbVisualStyle
  2
GouraudWithEdges
 70
     3
 71
     2
 72
     2
 73
     1
 90
        2
 40
-0.6
 41
30.0
 62
     5
 63
     7
 74
     1
 91
        4
 64
     7
 65
   257
 75
     1
175
     1
 42
1.0
 92
        0
 66
   257
 43
1.0
 76
     1
 77
     6
 78
     2
 67
     7
 79
     5
170
     0
171
     0
290
     0
174
     0
 93
       13
 44
0.0
173
     0
291
     1
 45
0.0
1001
ACAD
1000
AcDbSavedByObjectVersion
1070
     0
  0
VISUALSTYLE
  5
38
102
{ACAD_REACTORS
330
2A
102
}
330
2A
100
AcDbVisualStyle
  2
Linepattern
 70
    14
 71
     2
 72
     2
 73
     0
 90
        0
 40
-0.6
 41
-30.0
 62
     5
 63
     7
 74
     1
 91
        4
 64
     7
 65
   257
 75
     7
175
     7
 42
1.0
 92
        8
 66
     7
 43
1.0
 76
     1
 77
     6
 78
     2
 67
     7
 79
     5
170
     0
171
     0
290
     0
174
     0
 93
        1
 44
0.0
173
     0
291
     1
 45
0.0
1001
ACAD
1000
AcDbSavedByObjectVersion
1070
     0
  0
VISUALSTYLE
  5
33
102
{ACAD_REACTORS
330
2A
102
}
330
2A
100
AcDbVisualStyle
  2
Realistic
 70
     8
 71
     2
 72
     2
 73
     0
 90
        0
 40
-0.6
 41
-30.0
 62
     5
 63
     7
 74
     1
 91
        0
 64
     7
 65
   257
 75
     1
175
     1
 42
1.0
 92
        8
 66
     8
 43
1.0
 76
     1
 77
     6
 78
     2
 67
     7
 79
     5
170
     0
171
     0
290
     0
174
     0
 93
       13
 44
0.0
173
     0
291
     0
 45
0.0
1001
ACAD
1000
AcDbSavedByObjectVersion
1070
     0
  0
VISUALSTYLE
  5
37
102
{ACAD_REACTORS
330
2A
102
}
330
2A
100
AcDbVisualStyle
  2
Thicken
 70
    13
 71
     2
 72
     2
 73
     0
 90
        0
 40
-0.6
 41
-30.0
 62
     5
 63
     7
 74
     1
 91
        4
 64
     7
 65
   257
 75
     1
175
     1
 42
1.0
 92
       12
 66
     7
 43
1.0
 76
     1
 77
     6
 78
     2
 67
     7
 79
     5
170
     0
171
     0
290
     0
174
     0
 93
        1
 44
0.0
173
     0
291
     1
 45
0.0
1001
ACAD
1000
AcDbSavedByObjectVersion
1070
     0
  0
DICTIONARYVAR
  5
118
102
{ACAD_REACTORS
330
117
102
}
330
117
100
DictionaryVariables
280
     0
  1
1:1
  0
DICTIONARYVAR
  5
11C
102
{ACAD_REACTORS
330
117
102
}
330
117
100
DictionaryVariables
280
     0
  1
80.000000
  0
DICTIONARYVAR
  5
11B
102
{ACAD_REACTORS
330
117
102
}
330
117
100
DictionaryVariables
280
     0
  1
5.000000
  0
ENDSEC
  0
EOF
