  0
SECTION
  2
HEADER
  9
$ACADVER
  1
AC1009
  9
$INSBASE
 10
0
 20
0
  9
$EXTMIN
 10
-35.9735902348692
 20
-35.2594257274491
  9
$EXTMAX
 10
100.9982144625143
 20
33.075
  9
$LIMMIN
 10
-35.9735902348692
 20
-35.2594257274491
  9
$LIMMAX
 10
100.9982144625143
 20
33.075
  9
$VIEWCTR
 10
10
 20
10
  9
$VIEWSIZE
 40
10
  9
$SNAPMODE
 70
0
  9
$SNAPUNIT
 10
1
 20
1
  9
$SNAPBASE
 10
0
 20
0
  9
$SNAPANG
 50
0
  9
$SNAPSTYLE
 70
0
  9
$SNAPISOPAIR
 70
0
  9
$GRIDMODE
 70
0
  9
$GRIDUNIT
 10
0
 20
0
  9
$ORTHOMODE
 70
0
  9
$REGENMODE
 70
1
  9
$FILLMODE
 70
1
  9
$QTEXTMODE
 70
0
  9
$DRAGMODE
 70
2
  9
$LTSCALE
 40
1
  9
$OSMODE
 70
0
  9
$ATTMODE
 70
1
  9
$TEXTSIZE
 40
3.5
  9
$TRACEWID
 40
0.5
  9
$TEXTSTYLE
  7
STANDARD
  9
$CLAYER
  8
0
  9
$CELTYPE
  6
BYLAYER
  9
$CECOLOR
 62
256
  9
$DIMSCALE
 40
1
  9
$DIMASZ
 40
0.18
  9
$DIMEXO
 40
0.0625
  9
$DIMDLI
 40
0.38
  9
$DIMRND
 40
0
  9
$DIMDLE
 40
0
  9
$DIMEXE
 40
0.18
  9
$DIMTP
 40
0
  9
$DIMTM
 40
0
  9
$DIMTXT
 40
0.18
  9
$DIMCEN
 40
0.09
  9
$DIMTSZ
 40
0
  9
$DIMTOL
 70
0
  9
$DIMLIM
 70
0
  9
$DIMTIH
 70
1
  9
$DIMTOH
 70
1
  9
$DIMSE1
 70
0
  9
$DIMSE2
 70
0
  9
$DIMTAD
 70
0
  9
$DIMZIN
 70
0
  9
$DIMBLK
  1

  9
$DIMASO
 70
1
  9
$DIMSHO
 70
1
  9
$DIMPOST
  1

  9
$DIMAPOST
  1

  9
$DIMALT
 70
0
  9
$DIMALTD
 70
2
  9
$DIMALTF
 40
25.4
  9
$DIMLFAC
 40
1
  9
$DIMTOFL
 70
0
  9
$DIMTVP
 40
0
  9
$DIMTIX
 70
0
  9
$DIMSOXD
 70
0
  9
$DIMSAH
 70
0
  9
$DIMBLK1
  1

  9
$DIMBLK2
  1

  9
$DIMSTYLE
  2
*UNNAMED
  9
$DIMCLRD
 70
0
  9
$DIMCLRE
 70
0
  9
$DIMCLRT
 70
0
  9
$DIMTFAC
 40
1
  9
$DIMGAP
 40
0.09
  9
$LUNITS
 70
2
  9
$LUPREC
 70
4
  9
$AXISMODE
 70
0
  9
$AXISUNIT
 10
0
 20
0
  9
$SKETCHINC
 40
0.1
  9
$FILLETRAD
 40
2
  9
$AUNITS
 70
0
  9
$AUPREC
 70
0
  9
$MENU
  1
ACAD
  9
$ELEVATION
 40
0
  9
$THICKNESS
 40
0
  9
$VIEWDIR
 10
0
 20
0
 30
1
  9
$LIMCHECK
 70
0
  9
$BLIPMODE
 70
1
  9
$CHAMFERA
 40
0
  9
$CHAMFERB
 40
0
  9
$FASTZOOM
 70
1
  9
$SKPOLY
 70
0
  9
$ANGBASE
 50
0
  9
$ANGDIR
 70
0
  9
$PDMODE
 70
0
  9
$PDSIZE
 40
0
  9
$PLINEWID
 40
0
  9
$COORDS
 70
2
  0
ENDSEC
  0
SECTION
  2
TABLES
  0
TABLE
  2
DIMSTYLE
 70
1
  0
DIMSTYLE
  2
DMST_1
 70
0
  3

  4

  5

  6

  7

 40
1
 41
5
 42
0
 43
7
 44
2
 45
0
 46
0
 47
0
 48
0
140
5
141
0
142
0
143
25.4
144
1
145
0
146
1
147
0.09
 71
0
 72
0
 73
0
 74
0
 75
0
 76
0
 77
1
 78
9
170
0
171
2
172
0
173
0
174
0
175
0
176
1
177
1
178
7
  0
ENDTAB
  0
TABLE
  2
LTYPE
 70
9
  0
LTYPE
  2
CONTINUOUS
 70
64
  3
Solid line
 72
65
 73
0
 40
0
  0
LTYPE
  2
BORDER
 70
64
  3
__ __ . __ __ .
 72
65
 73
6
 40
6.307912058432136
 49
1.802260588123467
 49
-0.9011302940617336
 49
1.802260588123467
 49
-0.9011302940617336
 49
0
 49
-0.9011302940617336
  0
LTYPE
  2
CENTER
 70
64
  3
____ _ ____ _
 72
65
 73
4
 40
7.209042352493869
 49
4.505651470308668
 49
-0.9011302940617336
 49
0.9011302940617336
 49
-0.9011302940617336
  0
LTYPE
  2
DASHDOT
 70
64
  3
__ . __ . __ .
 72
65
 73
4
 40
3.604521176246934
 49
1.802260588123467
 49
-0.9011302940617336
 49
0
 49
-0.9011302940617336
  0
LTYPE
  2
DASHED
 70
64
  3
__ __ __ __ __
 72
65
 73
2
 40
2.703390882185201
 49
1.802260588123467
 49
-0.9011302940617336
  0
LTYPE
  2
DIVIDE
 70
64
  3
__ . . __ . . 
 72
65
 73
6
 40
4.505651470308668
 49
1.802260588123467
 49
-0.9011302940617336
 49
0
 49
-0.9011302940617336
 49
0
 49
-0.9011302940617336
  0
LTYPE
  2
DOT
 70
64
  3
..............
 72
65
 73
4
 40
1.802260588123467
 49
0
 49
-0.9011302940617336
 49
0
 49
-0.9011302940617336
  0
LTYPE
  2
HIDDEN
 70
64
  3
_ _ _ _ _ _ _
 72
65
 73
2
 40
1.351695441092601
 49
0.9011302940617336
 49
-0.4505651470308668
  0
LTYPE
  2
PHANTOM
 70
64
  3
_____ _ _ _____ _ _ 
 72
65
 73
6
 40
9.011302940617336
 49
4.505651470308668
 49
-0.9011302940617336
 49
0.9011302940617336
 49
-0.9011302940617336
 49
0.9011302940617336
 49
-0.9011302940617336
  0
ENDTAB
  0
TABLE
  2
LAYER
 70
3
  0
LAYER
  2
1
 70
0
 62
7
  6
CONTINUOUS
  0
LAYER
  2
0
 70
0
 62
7
  6
CONTINUOUS
  0
ENDTAB
  0
TABLE
  2
STYLE
 70
4
  0
STYLE
  2
STANDARD
 70
0
 40
0
 41
1
 50
0
 71
0
 42
3.5
  3
txt
  4

  0
STYLE
  2
SIMPLEX
 70
0
 40
0
 41
1
 50
0
 71
0
 42
3.5
  3
simplex
  4

  0
STYLE
  2
COMPLEX
 70
0
 40
0
 41
1
 50
0
 71
0
 42
3.5
  3
complex
  4

  0
STYLE
  2
ITALIC
 70
0
 40
0
 41
1
 50
0
 71
0
 42
3.5
  3
italic
  4

  0
ENDTAB
  0
TABLE
  2
VIEW
 70
0
  0
ENDTAB
  0
ENDSEC
  0
SECTION
  2
BLOCKS
  0
BLOCK
  8
1
  2
*D0
 70
1
 10
0
 20
0
 30
0
  0
LINE
  8
1
 62
1
 10
0
 20
-32.7594257274491
 30
0
 11
-10.1956907601621
 21
-32.7594257274491
 31
0
  0
LINE
  8
1
 62
1
 10
0
 20
-32.7594257274491
 30
0
 11
7.499999999999999
 21
-32.7594257274491
 31
0
  0
LINE
  8
1
 62
1
 10
7.499999999999999
 20
-16.5
 30
0
 11
7.499999999999999
 21
-34.7594257274491
 31
0
  0
LINE
  8
1
 62
1
 10
0
 20
0
 30
0
 11
0
 21
-34.7594257274491
 31
0
  0
SOLID
  8
1
 62
1
 10
0
 20
-32.7594257274491
 30
0
 11
-5
 21
-33.4094257274491
 31
0
 12
-5
 22
-32.1094257274491
 32
0
 13
-5
 23
-32.1094257274491
 33
0
  0
LINE
  8
1
 62
1
 10
9.267766952966369
 20
-30.99165877448273
 30
0
 11
5.73223304703363
 21
-34.52719268041547
 31
0
  0
TEXT
  8
1
 62
7
 10
-10.1956907601621
 20
-30.8038097055499
 30
0
 40
5
  1
7,5
 41
0.9
  0
ENDBLK
  8
0
  0
BLOCK
  8
1
  2
*D1
 70
1
 10
0
 20
0
 30
0
  0
LINE
  8
1
 62
1
 10
7.5
 20
-32.75
 30
0
 11
17.5
 21
-32.75
 31
0
  0
LINE
  8
1
 62
1
 10
17.5
 20
-16.5
 30
0
 11
17.5
 21
-34.75
 31
0
  0
LINE
  8
1
 62
1
 10
7.5
 20
-16.5
 30
0
 11
7.5
 21
-34.75
 31
0
  0
LINE
  8
1
 62
1
 10
9.267766952966369
 20
-30.98223304703363
 30
0
 11
5.732233047033631
 21
-34.51776695296637
 31
0
  0
TEXT
  8
1
 62
7
 10
9.5
 20
-31.75
 30
0
 40
5
  1
10
 41
0.9
  0
ENDBLK
  8
0
  0
BLOCK
  8
1
  2
*D2
 70
1
 10
0
 20
0
 30
0
  0
LINE
  8
1
 62
1
 10
17.5
 20
-32.75
 30
0
 11
65.37791727074404
 21
-32.75
 31
0
  0
LINE
  8
1
 62
1
 10
65.37791727074404
 20
-1.087974680621471
 30
0
 11
65.37791727074404
 21
-34.75
 31
0
  0
LINE
  8
1
 62
1
 10
17.5
 20
-16.5
 30
0
 11
17.5
 21
-34.75
 31
0
  0
SOLID
  8
1
 62
1
 10
17.5
 20
-32.75
 30
0
 11
22.5
 21
-32.1
 31
0
 12
22.5
 22
-33.4
 32
0
 13
22.5
 23
-33.4
 33
0
  0
SOLID
  8
1
 62
1
 10
65.37791727074404
 20
-32.75
 30
0
 11
60.37791727074404
 21
-33.4
 31
0
 12
60.37791727074404
 22
-32.1
 32
0
 13
60.37791727074404
 23
-32.1
 33
0
  0
TEXT
  8
1
 62
7
 10
37.68895863537202
 20
-31.75
 30
0
 40
5
  1
50
 41
0.9
  0
ENDBLK
  8
0
  0
BLOCK
  8
1
  2
*D3
 70
1
 10
0
 20
0
 30
0
  0
LINE
  8
1
 62
1
 10
0
 20
27.075
 30
0
 11
85.0001894955431
 21
27.075
 31
0
  0
LINE
  8
1
 62
1
 10
85.0001894955431
 20
3.231039400630518
 30
0
 11
85.0001894955431
 21
29.075
 31
0
  0
LINE
  8
1
 62
1
 10
0
 20
0
 30
0
 11
0
 21
29.075
 31
0
  0
SOLID
  8
1
 62
1
 10
0
 20
27.075
 30
0
 11
5.000000000000001
 21
27.725
 31
0
 12
5.000000000000001
 22
26.425
 32
0
 13
5.000000000000001
 23
26.425
 33
0
  0
SOLID
  8
1
 62
1
 10
85.0001894955431
 20
27.075
 30
0
 11
80.0001894955431
 21
26.425
 31
0
 12
80.0001894955431
 22
27.725
 32
0
 13
80.0001894955431
 23
27.725
 33
0
  0
TEXT
  8
1
 62
7
 10
38.75009474777155
 20
28.075
 30
0
 40
5
  1
85
 41
0.9
  0
ENDBLK
  8
0
  0
BLOCK
  8
1
  2
*D4
 70
1
 10
0
 20
0
 30
0
  0
LINE
  8
1
 62
1
 10
-15.0157508887417
 20
3.5
 30
0
 11
-15.0157508887417
 21
13.5
 31
0
  0
LINE
  8
1
 62
1
 10
-15.0157508887417
 20
-3.5
 30
0
 11
-15.0157508887417
 21
-13.5
 31
0
  0
LINE
  8
1
 62
1
 10
-15.0157508887417
 20
-3.5
 30
0
 11
-15.0157508887417
 21
3.5
 31
0
  0
LINE
  8
1
 62
1
 10
0.9378221735089305
 20
3.5
 30
0
 11
-17.0157508887417
 21
3.5
 31
0
  0
LINE
  8
1
 62
1
 10
0.9378221735089305
 20
-3.5
 30
0
 11
-17.0157508887417
 21
-3.5
 31
0
  0
SOLID
  8
1
 62
1
 10
-15.0157508887417
 20
3.5
 30
0
 11
-15.6657508887417
 21
8.5
 31
0
 12
-14.3657508887417
 22
8.5
 32
0
 13
-14.3657508887417
 23
8.5
 33
0
  0
SOLID
  8
1
 62
1
 10
-15.0157508887417
 20
-3.5
 30
0
 11
-14.3657508887417
 21
-8.5
 31
0
 12
-15.6657508887417
 22
-8.5
 32
0
 13
-15.6657508887417
 23
-8.5
 33
0
  0
TEXT
  8
1
 62
7
 10
-17.5116950822766
 20
-1.08829099141175
 30
0
 40
5
  1
7
 50
90
 41
0.9
  0
TEXT
  8
1
 62
7
 10
-17.5116950822766
 20
-6.58829099141175
 30
0
 40
5
  1
Ö
 50
90
 41
0.9
  0
ENDBLK
  8
0
  0
BLOCK
  8
1
  2
*D5
 70
1
 10
0
 20
0
 30
0
  0
LINE
  8
1
 62
1
 10
-29.9735902348692
 20
-16.5
 30
0
 11
-29.9735902348692
 21
3.5
 31
0
  0
LINE
  8
1
 62
1
 10
0.937822173508934
 20
3.5
 30
0
 11
-31.9735902348692
 21
3.5
 31
0
  0
LINE
  8
1
 62
1
 10
7.5
 20
-16.5
 30
0
 11
-31.9735902348692
 21
-16.5
 31
0
  0
SOLID
  8
1
 62
1
 10
-29.9735902348692
 20
-16.5
 30
0
 11
-30.6235902348692
 21
-11.5
 31
0
 12
-29.3235902348692
 22
-11.5
 32
0
 13
-29.3235902348692
 23
-11.5
 33
0
  0
SOLID
  8
1
 62
1
 10
-29.9735902348692
 20
3.5
 30
0
 11
-29.3235902348692
 21
-1.5
 31
0
 12
-30.6235902348692
 22
-1.5
 32
0
 13
-30.6235902348692
 23
-1.5
 33
0
  0
TEXT
  8
1
 62
7
 10
-30.9735902348692
 20
-10.25
 30
0
 40
5
  1
20
 50
90
 41
0.9
  0
ENDBLK
  8
0
  0
ENDSEC
  0
SECTION
  2
ENTITIES
  0
POLYLINE
  8
1
 62
7
 66
1
  0
VERTEX
  8
1
 10
85.34
 20
0
 30
0
 42
0.01741064592086905
  0
VERTEX
  8
1
 10
85.3020827292559
 20
1.087974680621471
 30
0
 42
0.03520033333080309
  0
VERTEX
  8
1
 10
85.0001894955431
 20
3.231039400630522
 30
0
 42
0.03635518185877989
  0
VERTEX
  8
1
 10
84.4054506861996
 20
5.27643680467142
 30
0
 42
0.03828298817237056
  0
VERTEX
  8
1
 10
83.5356765316569
 20
7.162304796601433
 30
0
 42
0.04095554812757975
  0
VERTEX
  8
1
 10
82.4168918045082
 20
8.831520530406948
 30
0
 42
0.04425814113537505
  0
VERTEX
  8
1
 10
81.08257398388891
 20
10.23334101130337
 30
0
 42
0.04790799722149364
  0
VERTEX
  8
1
 10
79.5727500334021
 20
11.32484281057711
 30
0
 42
0.05138143572276344
  0
VERTEX
  8
1
 10
77.9330034475108
 20
12.07220826832709
 30
0
 42
0.05394483738316186
  0
VERTEX
  8
1
 10
76.21333122469541
 20
12.45193779169705
 30
0
 42
0.05489483905078695
  0
VERTEX
  8
1
 10
74.46666877530467
 20
12.45193779169706
 30
0
 42
0.05393445482223545
  0
VERTEX
  8
1
 10
72.74699655248924
 20
12.0722082683271
 30
0
 42
0.05136529550384046
  0
VERTEX
  8
1
 10
71.10724996659786
 20
11.32484281057711
 30
0
 42
0.04789148714976432
  0
VERTEX
  8
1
 10
69.5974260161111
 20
10.23334101130337
 30
0
 42
0.04424443250519593
  0
VERTEX
  8
1
 10
68.26310819549184
 20
8.831520530406948
 30
0
 42
0.04094548776040177
  0
VERTEX
  8
1
 10
67.14432346834309
 20
7.162304796601447
 30
0
 42
0.03827623483067631
  0
VERTEX
  8
1
 10
66.27454931380036
 20
5.27643680467142
 30
0
 42
0.03635110683690703
  0
VERTEX
  8
1
 10
65.67981050445684
 20
3.231039400630536
 30
0
 42
0.03519842829641919
  0
VERTEX
  8
1
 10
65.37791727074404
 20
1.087974680621471
 30
0
 42
0.03481602334823202
  0
VERTEX
  8
1
 10
65.37791727074404
 20
-1.087974680621471
 30
0
 42
0.03520033333078854
  0
VERTEX
  8
1
 10
65.67981050445684
 20
-3.231039400630522
 30
0
 42
0.03635518185880429
  0
VERTEX
  8
1
 10
66.27454931380036
 20
-5.276436804671413
 30
0
 42
0.03828298817234622
  0
VERTEX
  8
1
 10
67.14432346834307
 20
-7.162304796601433
 30
0
 42
0.0409555481275684
  0
VERTEX
  8
1
 10
68.26310819549184
 20
-8.831520530406948
 30
0
 42
0.04425814113535604
  0
VERTEX
  8
1
 10
69.59742601611107
 20
-10.23334101130336
 30
0
 42
0.04790799722150692
  0
VERTEX
  8
1
 10
71.10724996659786
 20
-11.32484281057711
 30
0
 42
0.05138143572277975
  0
VERTEX
  8
1
 10
72.74699655248924
 20
-12.07220826832709
 30
0
 42
0.05394483738316197
  0
VERTEX
  8
1
 10
74.46666877530467
 20
-12.45193779169705
 30
0
 42
0.05489483905078824
  0
VERTEX
  8
1
 10
76.21333122469531
 20
-12.45193779169706
 30
0
  0
SEQEND
  8
1
  0
POLYLINE
  8
1
 62
7
 66
1
 70
1
  0
VERTEX
  8
1
 10
75.77770886175371
 20
-7.47086830907601
 30
0
 42
0.02005192178782255
  0
VERTEX
  8
1
 10
76.2082408883346
 20
-7.386058147591562
 30
0
 42
0.0425342285988383
  0
VERTEX
  8
1
 10
76.63918223437391
 20
-7.242180158820211
 30
0
 42
0.001733928552387987
  0
VERTEX
  8
1
 10
77.0625297006914
 20
-7.04091285638242
 30
0
 42
0.05321344131001955
  0
VERTEX
  8
1
 10
77.84
 20
-6.49519052838329
 30
0
 42
0.04986105739143454
  0
VERTEX
  8
1
 10
78.2142972919203
 20
-6.136931361230282
 30
0
 42
0.001514243827615324
  0
VERTEX
  8
1
 10
78.56570457766991
 20
-5.73052512514154
 30
0
 42
0.04027351153897098
  0
VERTEX
  8
1
 10
79.1702222155949
 20
-4.820907072649049
 30
0
 42
0.03757880449621328
  0
VERTEX
  8
1
 10
79.43927171811821
 20
-4.294434976415914
 30
0
 42
0.0008173322777440643
  0
VERTEX
  8
1
 10
79.67542027931971
 20
-3.736247755209391
 30
0
 42
0.0323478318407077
  0
VERTEX
  8
1
 10
80.0384631039295
 20
-2.56515107494252
 30
0
 42
0.03096182273426685
  0
VERTEX
  8
1
 10
80.1703827690385
 20
-1.937195300377994
 30
0
 42
0.0002480125355207055
  0
VERTEX
  8
1
 10
80.2646749119497
 20
-1.296949586191587
 30
0
 42
0.02927655836030195
  0
VERTEX
  8
1
 10
80.3400000000001
 20
0
 30
0
 42
0.02903173722419144
  0
VERTEX
  8
1
 10
80.2646749119497
 20
1.296949586191573
 30
0
 42
0.02919902728992918
  0
VERTEX
  8
1
 10
80.1703827690385
 20
1.937195300377994
 30
0
 42
0.0005152258596779085
  0
VERTEX
  8
1
 10
80.0384631039295
 20
2.565151074942506
 30
0
 42
0.03157690504241384
  0
VERTEX
  8
1
 10
79.67542027931971
 20
3.736247755209376
 30
0
 42
0.03278841134369501
  0
VERTEX
  8
1
 10
79.43927171811821
 20
4.294434976415914
 30
0
 42
0.001160612833566345
  0
VERTEX
  8
1
 10
79.1702222155949
 20
4.820907072649049
 30
0
 42
0.03889343062116258
  0
VERTEX
  8
1
 10
78.56570457767
 20
5.730525125141526
 30
0
 42
0.0414767474123568
  0
VERTEX
  8
1
 10
78.2142972919203
 20
6.136931361230268
 30
0
 42
0.001781073022008974
  0
VERTEX
  8
1
 10
77.84
 20
6.495190528383276
 30
0
 42
0.05162452893099893
  0
VERTEX
  8
1
 10
77.0625297006914
 20
7.040912856382391
 30
0
 42
0.05561653664809527
  0
VERTEX
  8
1
 10
76.63918223437391
 20
7.242180158820204
 30
0
 42
0.001130580934904946
  0
VERTEX
  8
1
 10
76.2082408883346
 20
7.386058147591555
 30
0
 42
0.06388083724640002
  0
VERTEX
  8
1
 10
75.34
 20
7.500000000000014
 30
0
 42
0.06389952019627702
  0
VERTEX
  8
1
 10
74.47175911166535
 20
7.386058147591555
 30
0
 42
0.06376006263706722
  0
VERTEX
  8
1
 10
74.04081776562609
 20
7.242180158820204
 30
0
 42
0.001733928552389763
  0
VERTEX
  8
1
 10
73.61747029930855
 20
7.040912856382391
 30
0
 42
0.05321344131000163
  0
VERTEX
  8
1
 10
72.84
 20
6.495190528383304
 30
0
 42
0.04986105739127372
  0
VERTEX
  8
1
 10
72.4657027080797
 20
6.136931361230282
 30
0
 42
0.001514243827652516
  0
VERTEX
  8
1
 10
72.11429542233006
 20
5.73052512514154
 30
0
 42
0.04027351153892138
  0
VERTEX
  8
1
 10
71.5097777844051
 20
4.820907072649064
 30
0
 42
0.03757880449621372
  0
VERTEX
  8
1
 10
71.24072828188181
 20
4.294434976415928
 30
0
 42
0.0008173322777878072
  0
VERTEX
  8
1
 10
71.00457972068028
 20
3.736247755209391
 30
0
 42
0.03234783184070781
  0
VERTEX
  8
1
 10
70.64153689607046
 20
2.56515107494252
 30
0
 42
0.03096182273431008
  0
VERTEX
  8
1
 10
70.50961723096152
 20
1.937195300377994
 30
0
 42
0.0002480125355238141
  0
VERTEX
  8
1
 10
70.41532508805034
 20
1.296949586191573
 30
0
 42
0.02927655836029239
  0
VERTEX
  8
1
 10
70.3400000000001
 20
0
 30
0
 42
0.02903173722415855
  0
VERTEX
  8
1
 10
70.41532508805032
 20
-1.296949586191573
 30
0
 42
0.02919902728440776
  0
VERTEX
  8
1
 10
70.50961723096151
 20
-1.937195300377994
 30
0
 42
0.0005152258596998909
  0
VERTEX
  8
1
 10
70.64153689607046
 20
-2.565151074942506
 30
0
 42
0.03157690504244717
  0
VERTEX
  8
1
 10
71.00457972068028
 20
-3.736247755209376
 30
0
 42
0.03278841134334892
  0
VERTEX
  8
1
 10
71.24072828188181
 20
-4.294434976415914
 30
0
 42
0.001160612833531692
  0
VERTEX
  8
1
 10
71.50977778440512
 20
-4.820907072649049
 30
0
 42
0.0388934306211876
  0
VERTEX
  8
1
 10
72.11429542233004
 20
-5.730525125141533
 30
0
 42
0.04147674741230845
  0
VERTEX
  8
1
 10
72.4657027080797
 20
-6.136931361230282
 30
0
 42
0.001781073022068372
  0
VERTEX
  8
1
 10
72.84
 20
-6.495190528383283
 30
0
 42
0.0516245289310264
  0
VERTEX
  8
1
 10
73.61747029930856
 20
-7.040912856382413
 30
0
 42
0.05561653664768389
  0
VERTEX
  8
1
 10
74.04081776562609
 20
-7.242180158820211
 30
0
 42
0.001130580934909942
  0
VERTEX
  8
1
 10
74.47175911166535
 20
-7.386058147591562
 30
0
 42
0.06388083724641798
  0
VERTEX
  8
1
 10
75.34
 20
-7.5
 30
0
  0
VERTEX
  8
1
 10
75.77770886175371
 20
-7.47086830907601
 30
0
  0
SEQEND
  8
1
  0
POLYLINE
  8
1
 62
7
 66
1
  0
VERTEX
  8
1
 10
76.21333122469531
 20
-12.45193779169706
 30
0
 42
0.05393445482222174
  0
VERTEX
  8
1
 10
77.9330034475108
 20
-12.0722082683271
 30
0
 42
0.05136529550384687
  0
VERTEX
  8
1
 10
79.5727500334021
 20
-11.32484281057712
 30
0
 42
0.04789148714978201
  0
VERTEX
  8
1
 10
81.08257398388891
 20
-10.23334101130337
 30
0
 42
0.04424443250520883
  0
VERTEX
  8
1
 10
82.4168918045082
 20
-8.831520530406962
 30
0
 42
0.0409454877604238
  0
VERTEX
  8
1
 10
83.5356765316569
 20
-7.16230479660144
 30
0
 42
0.0382762348306812
  0
VERTEX
  8
1
 10
84.4054506861997
 20
-5.27643680467142
 30
0
 42
0.03635110683691983
  0
VERTEX
  8
1
 10
85.0001894955432
 20
-3.231039400630536
 30
0
 42
0.03519842829638061
  0
VERTEX
  8
1
 10
85.3020827292559
 20
-1.087974680621471
 30
0
 42
0.01738954789338298
  0
VERTEX
  8
1
 10
85.34
 20
0
 30
0
  0
SEQEND
  8
1
  0
LINE
  8
1
 62
7
 10
59.34
 20
-3.200000000000003
 30
0
 11
59.34
 21
3.199999999999989
 31
0
  0
LINE
  8
1
 62
7
 10
57.14
 20
-3.5
 30
0
 11
57.74000000000002
 21
-2.900000000000006
 31
0
  0
LINE
  8
1
 62
7
 10
57.14
 20
3.5
 30
0
 11
57.74000000000002
 21
2.900000000000006
 31
0
  0
LINE
  8
1
 62
7
 10
59.34
 20
-3.200000000000003
 30
0
 11
65.59419554863146
 21
-2.799999999999997
 31
0
  0
LINE
  8
1
 62
7
 10
65.59419554863146
 20
2.799999999999997
 30
0
 11
59.34
 21
3.199999999999989
 31
0
  0
LINE
  8
1
 62
7
 10
57.74000000000002
 20
-2.900000000000006
 30
0
 11
57.74000000000002
 21
2.900000000000006
 31
0
  0
LINE
  8
1
 62
7
 10
57.14
 20
-3.5
 30
0
 11
17.49999999999999
 21
-3.5
 31
0
  0
LINE
  8
1
 62
7
 10
7.5
 20
-2.5
 30
0
 11
17.5
 21
-2.5
 31
0
  0
LINE
  8
1
 62
2
  6
PHANTOM
 10
75.34
 20
14.9966885017019
 30
0
 11
75.34
 21
-14.9966885017019
 31
0
  0
LINE
  8
1
 62
2
  6
PHANTOM
 10
-2.996688501701883
 20
0
 30
0
 11
90.3366885017019
 21
0
 31
0
  0
LINE
  8
1
 62
7
 10
0.9378221735089269
 20
-3.5
 30
0
 11
0.9378221735089269
 21
3.5
 31
0
  0
LINE
  8
1
 62
7
 10
7.5
 20
-2.5
 30
0
 11
7.5
 21
-16.5
 31
0
  0
LINE
  8
1
 62
7
 10
7.5
 20
-16.5
 30
0
 11
17.5
 21
-16.5
 31
0
  0
LINE
  8
1
 62
7
 10
17.5
 20
-16.5
 30
0
 11
17.5
 21
-2.5
 31
0
  0
LINE
  8
1
 62
7
 10
7.5
 20
-3.5
 30
0
 11
0.9378221735089269
 21
-3.5
 31
0
  0
LINE
  8
1
 62
7
 10
0.9378221735089269
 20
3.5
 30
0
 11
57.14
 21
3.5
 31
0
  0
ARC
  8
1
 62
7
 10
58.54000000000001
 20
-2.966666666666612
 30
0
 40
0.833333333333359
 50
177.6597301414128
 51
343.7397952916841
  0
ARC
  8
1
 62
7
 10
58.54000000000001
 20
2.966666666666697
 30
0
 40
0.8333333333333122
 50
16.26020470830943
 51
182.3402698585951
  0
ARC
  8
1
 62
7
 10
7
 20
0
 30
0
 40
7.000000000000003
 50
150
 51
180
  0
ARC
  8
1
 62
7
 10
7
 20
0
 30
0
 40
7
 50
180
 51
210
  0
TEXT
  8
1
 62
7
 10
81.5922344625143
 20
-32.5432266166238
 30
0
 40
6
  1
7357
 41
0.8820900000000002
  0
DIMENSION
  8
1
  6
CONTINUOUS
 62
1
  2
*D2
  3
DMST_1
 10
65.37791727074404
 20
-32.75
 30
0
 11
41.43895863537202
 21
-29.25
 31
0
 12
0
 22
0
 32
0
 70
0
  1
50
 13
17.5
 23
-16.5
 33
0
 14
65.37791727074404
 24
-1.087974680621471
 34
0
 53
0
  0
DIMENSION
  8
1
  6
CONTINUOUS
 62
1
  2
*D3
  3
DMST_1
 10
85.0001894955431
 20
27.075
 30
0
 11
42.50009474777155
 21
30.575
 31
0
 12
0
 22
0
 32
0
 70
0
 13
0
 23
0
 33
0
 14
85.0001894955431
 24
3.231039400630522
 34
0
 53
0
  0
DIMENSION
  8
1
  6
CONTINUOUS
 62
1
  2
*D4
  3
DMST_1
 10
-15.0157508887417
 20
-3.500000000000001
 30
0
 11
-20.0116950822766
 21
-2.33829099141175
 31
0
 12
0
 22
0
 32
0
 70
0
  1
Ö<>
 13
0.9378221735089269
 23
3.5
 33
0
 14
0.9378221735089269
 24
-3.5
 34
0
 50
90
 53
0
  0
DIMENSION
  8
1
  6
CONTINUOUS
 62
1
  2
*D5
  3
DMST_1
 10
-29.9735902348692
 20
3.5
 30
0
 11
-33.4735902348692
 21
-6.5
 31
0
 12
0
 22
0
 32
0
 70
0
 13
7.5
 23
-16.5
 33
0
 14
0.9378221735089269
 24
3.5
 34
0
 50
90
 53
0
  0
INSERT
  8
1
  2
*D0
 10
0
 20
0
 30
0
  0
INSERT
  8
1
  2
*D1
 10
0
 20
0
 30
0
  0
ENDSEC
  0
EOF
