  0
SECTION
  2
HEADER
  9
$ACADVER
  1
AC1015
  9
$ACADMAINTVER
 70
     6
  9
$DWGCODEPAGE
  3
ANSI_1252
  9
$INSBASE
 10
0.0
 20
0.0
 30
0.0
  9
$EXTMIN
 10
0.0
 20
0.0
 30
0.0
  9
$EXTMAX
 10
297.0
 20
420.0
 30
0.0
  9
$LIMMIN
 10
0.0
 20
0.0
  9
$LIMMAX
 10
297.0
 20
420.0
  9
$ORTHOMODE
 70
     0
  9
$REGENMODE
 70
     1
  9
$FILLMODE
 70
     1
  9
$QTEXTMODE
 70
     0
  9
$MIRRTEXT
 70
     1
  9
$LTSCALE
 40
1.0
  9
$ATTMODE
 70
     1
  9
$TEXTSIZE
 40
2.5
  9
$TRACEWID
 40
1.0
  9
$TEXTSTYLE
  7
Standard
  9
$CLAYER
  8
0
  9
$CELTYPE
  6
ByLayer
  9
$CECOLOR
 62
   256
  9
$CELTSCALE
 40
1.0
  9
$DISPSILH
 70
     0
  9
$DIMSCALE
 40
1.0
  9
$DIMASZ
 40
2.5
  9
$DIMEXO
 40
0.625
  9
$DIMDLI
 40
3.75
  9
$DIMRND
 40
0.0
  9
$DIMDLE
 40
0.0
  9
$DIMEXE
 40
1.25
  9
$DIMTP
 40
0.0
  9
$DIMTM
 40
0.0
  9
$DIMTXT
 40
2.5
  9
$DIMCEN
 40
2.5
  9
$DIMTSZ
 40
0.0
  9
$DIMTOL
 70
     0
  9
$DIMLIM
 70
     0
  9
$DIMTIH
 70
     0
  9
$DIMTOH
 70
     0
  9
$DIMSE1
 70
     0
  9
$DIMSE2
 70
     0
  9
$DIMTAD
 70
     1
  9
$DIMZIN
 70
     8
  9
$DIMBLK
  1

  9
$DIMASO
 70
     1
  9
$DIMSHO
 70
     1
  9
$DIMPOST
  1

  9
$DIMAPOST
  1

  9
$DIMALT
 70
     0
  9
$DIMALTD
 70
     3
  9
$DIMALTF
 40
0.0393700787
  9
$DIMLFAC
 40
1.0
  9
$DIMTOFL
 70
     1
  9
$DIMTVP
 40
0.0
  9
$DIMTIX
 70
     0
  9
$DIMSOXD
 70
     0
  9
$DIMSAH
 70
     0
  9
$DIMBLK1
  1

  9
$DIMBLK2
  1

  9
$DIMSTYLE
  2
ISO-25
  9
$DIMCLRD
 70
     0
  9
$DIMCLRE
 70
     0
  9
$DIMCLRT
 70
     0
  9
$DIMTFAC
 40
1.0
  9
$DIMGAP
 40
0.625
  9
$DIMJUST
 70
     0
  9
$DIMSD1
 70
     0
  9
$DIMSD2
 70
     0
  9
$DIMTOLJ
 70
     0
  9
$DIMTZIN
 70
     8
  9
$DIMALTZ
 70
     0
  9
$DIMALTTZ
 70
     0
  9
$DIMUPT
 70
     0
  9
$DIMDEC
 70
     2
  9
$DIMTDEC
 70
     2
  9
$DIMALTU
 70
     2
  9
$DIMALTTD
 70
     3
  9
$DIMTXSTY
  7
Standard
  9
$DIMAUNIT
 70
     0
  9
$DIMADEC
 70
     0
  9
$DIMALTRND
 40
0.0
  9
$DIMAZIN
 70
     0
  9
$DIMDSEP
 70
    44
  9
$DIMATFIT
 70
     3
  9
$DIMFRAC
 70
     0
  9
$DIMLDRBLK
  1

  9
$DIMLUNIT
 70
     2
  9
$DIMLWD
 70
    -2
  9
$DIMLWE
 70
    -2
  9
$DIMTMOVE
 70
     0
  9
$LUNITS
 70
     2
  9
$LUPREC
 70
     4
  9
$SKETCHINC
 40
1.0
  9
$FILLETRAD
 40
10.0
  9
$AUNITS
 70
     0
  9
$AUPREC
 70
     0
  9
$MENU
  1
.
  9
$ELEVATION
 40
0.0
  9
$PELEVATION
 40
0.0
  9
$THICKNESS
 40
0.0
  9
$LIMCHECK
 70
     0
  9
$CHAMFERA
 40
10.0
  9
$CHAMFERB
 40
10.0
  9
$CHAMFERC
 40
20.0
  9
$CHAMFERD
 40
0.0
  9
$SKPOLY
 70
     0
  9
$TDCREATE
 40
2455334.441571968
  9
$TDUCREATE
 40
2455334.358238634
  9
$TDUPDATE
 40
2455334.441571979
  9
$TDUUPDATE
 40
2455334.358238646
  9
$TDINDWG
 40
0.0000000116
  9
$TDUSRTIMER
 40
0.0000000116
  9
$USRTIMER
 70
     1
  9
$ANGBASE
 50
0.0
  9
$ANGDIR
 70
     0
  9
$PDMODE
 70
     0
  9
$PDSIZE
 40
0.0
  9
$PLINEWID
 40
0.0
  9
$SPLFRAME
 70
     0
  9
$SPLINETYPE
 70
     6
  9
$SPLINESEGS
 70
     8
  9
$HANDSEED
  5
153
  9
$SURFTAB1
 70
     6
  9
$SURFTAB2
 70
     6
  9
$SURFTYPE
 70
     6
  9
$SURFU
 70
     6
  9
$SURFV
 70
     6
  9
$UCSBASE
  2

  9
$UCSNAME
  2

  9
$UCSORG
 10
0.0
 20
0.0
 30
0.0
  9
$UCSXDIR
 10
1.0
 20
0.0
 30
0.0
  9
$UCSYDIR
 10
0.0
 20
1.0
 30
0.0
  9
$UCSORTHOREF
  2

  9
$UCSORTHOVIEW
 70
     0
  9
$UCSORGTOP
 10
0.0
 20
0.0
 30
0.0
  9
$UCSORGBOTTOM
 10
0.0
 20
0.0
 30
0.0
  9
$UCSORGLEFT
 10
0.0
 20
0.0
 30
0.0
  9
$UCSORGRIGHT
 10
0.0
 20
0.0
 30
0.0
  9
$UCSORGFRONT
 10
0.0
 20
0.0
 30
0.0
  9
$UCSORGBACK
 10
0.0
 20
0.0
 30
0.0
  9
$PUCSBASE
  2

  9
$PUCSNAME
  2

  9
$PUCSORG
 10
0.0
 20
0.0
 30
0.0
  9
$PUCSXDIR
 10
1.0
 20
0.0
 30
0.0
  9
$PUCSYDIR
 10
0.0
 20
1.0
 30
0.0
  9
$PUCSORTHOREF
  2

  9
$PUCSORTHOVIEW
 70
     0
  9
$PUCSORGTOP
 10
0.0
 20
0.0
 30
0.0
  9
$PUCSORGBOTTOM
 10
0.0
 20
0.0
 30
0.0
  9
$PUCSORGLEFT
 10
0.0
 20
0.0
 30
0.0
  9
$PUCSORGRIGHT
 10
0.0
 20
0.0
 30
0.0
  9
$PUCSORGFRONT
 10
0.0
 20
0.0
 30
0.0
  9
$PUCSORGBACK
 10
0.0
 20
0.0
 30
0.0
  9
$USERI1
 70
     0
  9
$USERI2
 70
     0
  9
$USERI3
 70
     0
  9
$USERI4
 70
     0
  9
$USERI5
 70
     0
  9
$USERR1
 40
0.0
  9
$USERR2
 40
0.0
  9
$USERR3
 40
0.0
  9
$USERR4
 40
0.0
  9
$USERR5
 40
0.0
  9
$WORLDVIEW
 70
     1
  9
$SHADEDGE
 70
     3
  9
$SHADEDIF
 70
    70
  9
$TILEMODE
 70
     1
  9
$MAXACTVP
 70
    64
  9
$PINSBASE
 10
0.0
 20
0.0
 30
0.0
  9
$PLIMCHECK
 70
     0
  9
$PEXTMIN
 10
0.0
 20
0.0
 30
0.0
  9
$PEXTMAX
 10
297.0
 20
420.0
 30
0.0
  9
$PLIMMIN
 10
0.0
 20
0.0
  9
$PLIMMAX
 10
297.0
 20
420.0
  9
$UNITMODE
 70
     0
  9
$VISRETAIN
 70
     1
  9
$PLINEGEN
 70
     0
  9
$PSLTSCALE
 70
     1
  9
$TREEDEPTH
 70
  3020
  9
$CMLSTYLE
  2
Standard
  9
$CMLJUST
 70
     0
  9
$CMLSCALE
 40
20.0
  9
$PROXYGRAPHICS
 70
     1
  9
$MEASUREMENT
 70
     1
  9
$CELWEIGHT
370
    -1
  9
$ENDCAPS
280
     0
  9
$JOINSTYLE
280
     0
  9
$LWDISPLAY
290
     0
  9
$INSUNITS
 70
     4
  9
$HYPERLINKBASE
  1

  9
$STYLESHEET
  1

  9
$XEDIT
290
     1
  9
$CEPSNTYPE
380
     0
  9
$PSTYLEMODE
290
     1
  9
$FINGERPRINTGUID
  2
{47F15AE4-AF25-45B3-A59C-FDC94AEEE202}
  9
$VERSIONGUID
  2
{FAEB1C32-E019-11D5-929B-00C0DF256EC4}
  9
$EXTNAMES
290
     1
  9
$PSVPSCALE
 40
0.0
  9
$OLESTARTUP
290
     0
  0
ENDSEC
  0
SECTION
  2
CLASSES
  0
CLASS
  1
ACDBDICTIONARYWDFLT
  2
AcDbDictionaryWithDefault
  3
ObjectDBX Classes
 90
        0
280
     0
281
     0
  0
CLASS
  1
VISUALSTYLE
  2
AcDbVisualStyle
  3
ObjectDBX Classes
 90
     4095
280
     0
281
     0
  0
CLASS
  1
SCALE
  2
AcDbScale
  3
ObjectDBX Classes
 90
     1153
280
     0
281
     0
  0
CLASS
  1
DICTIONARYVAR
  2
AcDbDictionaryVar
  3
ObjectDBX Classes
 90
        0
280
     0
281
     0
  0
CLASS
  1
ACDBPLACEHOLDER
  2
AcDbPlaceHolder
  3
ObjectDBX Classes
 90
        0
280
     0
281
     0
  0
CLASS
  1
LAYOUT
  2
AcDbLayout
  3
ObjectDBX Classes
 90
        0
280
     0
281
     0
  0
ENDSEC
  0
SECTION
  2
TABLES
  0
TABLE
  2
VPORT
  5
8
330
0
100
AcDbSymbolTable
 70
     1
  0
VPORT
  5
29
330
8
100
AcDbSymbolTableRecord
100
AcDbViewportTableRecord
  2
*Active
 70
     0
 10
0.0
 20
0.0
 11
1.0
 21
1.0
 12
344.1869158879
 22
148.5
 13
0.0
 23
0.0
 14
10.0
 24
10.0
 15
10.0
 25
10.0
 16
0.0
 26
0.0
 36
1.0
 17
0.0
 27
0.0
 37
0.0
 40
297.0
 41
1.9729729729
 42
50.0
 43
0.0
 44
0.0
 50
0.0
 51
0.0
 71
     0
 72
   100
 73
     1
 74
     3
 75
     0
 76
     0
 77
     0
 78
     0
281
     0
 65
     1
110
0.0
120
0.0
130
0.0
111
1.0
121
0.0
131
0.0
112
0.0
122
1.0
132
0.0
 79
     0
146
0.0
  0
ENDTAB
  0
TABLE
  2
LTYPE
  5
5
330
0
100
AcDbSymbolTable
 70
     2
  0
LTYPE
  5
14
330
5
100
AcDbSymbolTableRecord
100
AcDbLinetypeTableRecord
  2
ByBlock
 70
     0
  3

 72
    65
 73
     0
 40
0.0
  0
LTYPE
  5
15
330
5
100
AcDbSymbolTableRecord
100
AcDbLinetypeTableRecord
  2
ByLayer
 70
     0
  3

 72
    65
 73
     0
 40
0.0
  0
LTYPE
  5
16
330
5
100
AcDbSymbolTableRecord
100
AcDbLinetypeTableRecord
  2
Continuous
 70
     0
  3
Solid line
 72
    65
 73
     0
 40
0.0
  0
LTYPE
  5
60
330
5
100
AcDbSymbolTableRecord
100
AcDbLinetypeTableRecord
  2
CENTER2
 70
     0
  3
Center (.5x) ___ _ ___ _ ___ _ ___ _ ___ _ ___
 72
    65
 73
     4
 40
28.575
 49
19.05
 74
     4
 75
     0
340
0
 46
0.0
 50
0.0
 44
0.0
 45
0.0
 49
-3.175
 74
     4
 75
     0
340
0
 46
0.0
 50
0.0
 44
0.0
 45
0.0
 49
3.175
 74
     4
 75
     0
340
0
 46
0.0
 50
0.0
 44
0.0
 45
0.0
 49
-3.175
 74
     4
 75
     0
340
0
 46
0.0
 50
0.0
 44
0.0
 45
0.0
  0
ENDTAB
  0
TABLE
  2
LAYER
  5
2
330
0
100
AcDbSymbolTable
 70
     3
  0
LAYER
  5
10
330
2
100
AcDbSymbolTableRecord
100
AcDbLayerTableRecord
  2
0
 70
     0
 62
     7
  6
Continuous
370
    -3
390
F
  0
LAYER
  5
5D
330
2
100
AcDbSymbolTableRecord
100
AcDbLayerTableRecord
  2
Default
 70
     0
 62
     7
  6
Continuous
370
    -3
390
F
  0
LAYER
  5
8C
330
2
100
AcDbSymbolTableRecord
100
AcDbLayerTableRecord
  2
MEGA_019749
 70
     0
 62
     7
  6
Continuous
370
    -3
390
F
  0
ENDTAB
  0
TABLE
  2
STYLE
  5
3
330
0
100
AcDbSymbolTable
 70
     3
  0
STYLE
  5
11
330
3
100
AcDbSymbolTableRecord
100
AcDbTextStyleTableRecord
  2
Standard
 70
     0
 40
0.0
 41
1.0
 50
0.0
 71
     0
 42
2.5
  3
txt
  4

  0
STYLE
  5
D9
330
3
100
AcDbSymbolTableRecord
100
AcDbTextStyleTableRecord
  2
SEACAD_seiso_ttf
 70
     0
 40
0.0
 41
1.0
 50
0.0
 71
     0
 42
0.2
  3
seiso.ttf
  4

  0
STYLE
  5
10E
330
3
100
AcDbSymbolTableRecord
100
AcDbTextStyleTableRecord
  2
SEACAD_semeci1_ttf
 70
     0
 40
0.0
 41
1.0
 50
0.0
 71
     0
 42
0.2
  3
semeci1.ttf
  4

  0
ENDTAB
  0
TABLE
  2
VIEW
  5
6
330
0
100
AcDbSymbolTable
 70
     0
  0
ENDTAB
  0
TABLE
  2
UCS
  5
7
330
0
100
AcDbSymbolTable
 70
     0
  0
ENDTAB
  0
TABLE
  2
APPID
  5
9
330
0
100
AcDbSymbolTable
 70
     1
  0
APPID
  5
12
330
9
100
AcDbSymbolTableRecord
100
AcDbRegAppTableRecord
  2
ACAD
 70
     0
  0
ENDTAB
  0
TABLE
  2
DIMSTYLE
  5
A
330
0
100
AcDbSymbolTable
 70
     3
100
AcDbDimStyleTable
  0
DIMSTYLE
105
27
330
A
100
AcDbSymbolTableRecord
100
AcDbDimStyleTableRecord
  2
ISO-25
 70
     0
 41
2.5
 42
0.625
 43
3.75
 44
1.25
 73
     0
 74
     0
 77
     1
 78
     8
140
2.5
141
2.5
143
0.0393700787
147
0.625
171
     3
172
     1
271
     2
272
     2
274
     3
278
    44
283
     0
284
     8
340
11
  0
DIMSTYLE
105
C7
330
A
100
AcDbSymbolTableRecord
100
AcDbDimStyleTableRecord
  2
Standard
 70
     0
340
11
  0
DIMSTYLE
105
DA
102
{ACAD_REACTORS
330
DB
330
E5
330
EF
330
F9
330
103
330
10D
330
119
330
123
330
12D
330
138
330
143
102
}
330
A
100
AcDbSymbolTableRecord
100
AcDbDimStyleTableRecord
  2
DIN
 70
     0
 41
3.0
 42
0.0
 44
1.5
 73
     0
 74
     0
 77
     1
 78
     8
140
3.0
141
1.5
147
1.5
172
     1
173
     1
271
     2
272
     2
278
    44
284
     8
340
D9
343
D4
344
D4
  0
ENDTAB
  0
TABLE
  2
BLOCK_RECORD
  5
1
330
0
100
AcDbSymbolTable
 70
    23
  0
BLOCK_RECORD
  5
1F
330
1
100
AcDbSymbolTableRecord
100
AcDbBlockTableRecord
  2
*Model_Space
340
22
  0
BLOCK_RECORD
  5
1B
330
1
100
AcDbSymbolTableRecord
100
AcDbBlockTableRecord
  2
*Paper_Space
340
1E
  0
BLOCK_RECORD
  5
5E
330
1
100
AcDbSymbolTableRecord
100
AcDbBlockTableRecord
  2
SEANNOT_GROUP
340
0
102
{BLKREFS
331
5F
102
}
  0
BLOCK_RECORD
  5
65
330
1
100
AcDbSymbolTableRecord
100
AcDbBlockTableRecord
  2
SEANNOT_GROUP1
340
0
102
{BLKREFS
331
66
102
}
  0
BLOCK_RECORD
  5
6F
330
1
100
AcDbSymbolTableRecord
100
AcDbBlockTableRecord
  2
SEANNOT_GROUP2
340
0
102
{BLKREFS
331
70
102
}
  0
BLOCK_RECORD
  5
75
330
1
100
AcDbSymbolTableRecord
100
AcDbBlockTableRecord
  2
SEANNOT_GROUP3
340
0
102
{BLKREFS
331
76
102
}
  0
BLOCK_RECORD
  5
7F
330
1
100
AcDbSymbolTableRecord
100
AcDbBlockTableRecord
  2
SEANNOT_GROUP4
340
0
102
{BLKREFS
331
80
102
}
  0
BLOCK_RECORD
  5
85
330
1
100
AcDbSymbolTableRecord
100
AcDbBlockTableRecord
  2
SEANNOT_GROUP5
340
0
102
{BLKREFS
331
86
102
}
  0
BLOCK_RECORD
  5
8A
330
1
100
AcDbSymbolTableRecord
100
AcDbBlockTableRecord
  2
SE
340
0
102
{BLKREFS
331
8B
102
}
  0
BLOCK_RECORD
  5
AC
330
1
100
AcDbSymbolTableRecord
100
AcDbBlockTableRecord
  2
SE1
340
0
102
{BLKREFS
331
AD
102
}
  0
BLOCK_RECORD
  5
C8
330
1
100
AcDbSymbolTableRecord
100
AcDbBlockTableRecord
  2
_OBLIQUE
340
0
  0
BLOCK_RECORD
  5
CC
330
1
100
AcDbSymbolTableRecord
100
AcDbBlockTableRecord
  2
_DOT
340
0
  0
BLOCK_RECORD
  5
D4
330
1
100
AcDbSymbolTableRecord
100
AcDbBlockTableRecord
  2
_SE_FILLED
340
0
  0
BLOCK_RECORD
  5
DC
330
1
100
AcDbSymbolTableRecord
100
AcDbBlockTableRecord
  2
DMBLK352
340
0
  0
BLOCK_RECORD
  5
E6
330
1
100
AcDbSymbolTableRecord
100
AcDbBlockTableRecord
  2
DMBLK353
340
0
  0
BLOCK_RECORD
  5
F0
330
1
100
AcDbSymbolTableRecord
100
AcDbBlockTableRecord
  2
DMBLK354
340
0
  0
BLOCK_RECORD
  5
FA
330
1
100
AcDbSymbolTableRecord
100
AcDbBlockTableRecord
  2
DMBLK355
340
0
  0
BLOCK_RECORD
  5
104
330
1
100
AcDbSymbolTableRecord
100
AcDbBlockTableRecord
  2
DMBLK356
340
0
  0
BLOCK_RECORD
  5
10F
330
1
100
AcDbSymbolTableRecord
100
AcDbBlockTableRecord
  2
DMBLK357
340
0
  0
BLOCK_RECORD
  5
11A
330
1
100
AcDbSymbolTableRecord
100
AcDbBlockTableRecord
  2
DMBLK358
340
0
  0
BLOCK_RECORD
  5
124
330
1
100
AcDbSymbolTableRecord
100
AcDbBlockTableRecord
  2
DMBLK359
340
0
  0
BLOCK_RECORD
  5
12E
330
1
100
AcDbSymbolTableRecord
100
AcDbBlockTableRecord
  2
DMBLK360
340
0
  0
BLOCK_RECORD
  5
139
330
1
100
AcDbSymbolTableRecord
100
AcDbBlockTableRecord
  2
DMBLK361
340
0
  0
BLOCK_RECORD
  5
144
330
1
100
AcDbSymbolTableRecord
100
AcDbBlockTableRecord
  2
DMBLK362
340
0
  0
ENDTAB
  0
ENDSEC
  0
SECTION
  2
BLOCKS
  0
BLOCK
  5
20
330
1F
100
AcDbEntity
  8
0
100
AcDbBlockBegin
  2
*Model_Space
 70
     0
 10
0.0
 20
0.0
 30
0.0
  3
*Model_Space
  1

  0
ENDBLK
  5
21
330
1F
100
AcDbEntity
  8
0
100
AcDbBlockEnd
  0
BLOCK
  5
1C
330
1B
100
AcDbEntity
 67
     1
  8
0
100
AcDbBlockBegin
  2
*Paper_Space
 70
     0
 10
0.0
 20
0.0
 30
0.0
  3
*Paper_Space
  1

  0
ENDBLK
  5
1D
330
1B
100
AcDbEntity
 67
     1
  8
0
100
AcDbBlockEnd
  0
BLOCK
  5
63
330
5E
100
AcDbEntity
  8
0
100
AcDbBlockBegin
  2
SEANNOT_GROUP
 70
     0
 10
0.0
 20
0.0
 30
0.0
  3
SEANNOT_GROUP
  1

  0
LINE
  5
61
330
5E
100
AcDbEntity
  8
Default
  6
CENTER2
 62
     7
100
AcDbLine
 10
211.1751043499
 20
343.7744359598
 30
0.0
 11
199.1751042456
 21
343.7744359598
 31
0.0
  0
LINE
  5
62
330
5E
100
AcDbEntity
  8
Default
  6
CENTER2
 62
     7
100
AcDbLine
 10
205.1751042978
 20
349.774436012
 30
0.0
 11
205.1751042978
 21
337.7744359077
 31
0.0
  0
ENDBLK
  5
64
330
5E
100
AcDbEntity
  8
0
100
AcDbBlockEnd
  0
BLOCK
  5
6D
330
65
100
AcDbEntity
  8
0
100
AcDbBlockBegin
  2
SEANNOT_GROUP1
 70
     0
 10
0.0
 20
0.0
 30
0.0
  3
SEANNOT_GROUP1
  1

  0
LINE
  5
67
330
65
100
AcDbEntity
  8
Default
  6
CENTER2
 62
     7
100
AcDbLine
 10
211.1751043499
 20
259.7744359598
 30
0.0
 11
199.1751042456
 21
259.7744359598
 31
0.0
  0
LINE
  5
68
330
65
100
AcDbEntity
  8
Default
  6
CENTER2
 62
     7
100
AcDbLine
 10
205.1751042978
 20
265.774436012
 30
0.0
 11
205.1751042978
 21
253.7744359077
 31
0.0
  0
LINE
  5
69
330
65
100
AcDbEntity
  8
Default
  6
CENTER2
 62
     7
100
AcDbLine
 10
212.6751043629
 20
259.7744359598
 30
0.0
 11
216.4251042978
 21
259.7744359598
 31
0.0
  0
LINE
  5
6A
330
65
100
AcDbEntity
  8
Default
  6
CENTER2
 62
     7
100
AcDbLine
 10
205.1751042978
 20
267.274436025
 30
0.0
 11
205.1751042978
 21
271.0244359598
 31
0.0
  0
LINE
  5
6B
330
65
100
AcDbEntity
  8
Default
  6
CENTER2
 62
     7
100
AcDbLine
 10
197.6751042326
 20
259.7744359598
 30
0.0
 11
193.9251042978
 21
259.7744359598
 31
0.0
  0
LINE
  5
6C
330
65
100
AcDbEntity
  8
Default
  6
CENTER2
 62
     7
100
AcDbLine
 10
205.1751042978
 20
252.2744358946
 30
0.0
 11
205.1751042978
 21
248.5244359598
 31
0.0
  0
ENDBLK
  5
6E
330
65
100
AcDbEntity
  8
0
100
AcDbBlockEnd
  0
BLOCK
  5
73
330
6F
100
AcDbEntity
  8
0
100
AcDbBlockBegin
  2
SEANNOT_GROUP2
 70
     0
 10
0.0
 20
0.0
 30
0.0
  3
SEANNOT_GROUP2
  1

  0
LINE
  5
71
330
6F
100
AcDbEntity
  8
Default
  6
CENTER2
 62
     7
100
AcDbLine
 10
211.1751043499
 20
237.7744359598
 30
0.0
 11
199.1751042456
 21
237.7744359598
 31
0.0
  0
LINE
  5
72
330
6F
100
AcDbEntity
  8
Default
  6
CENTER2
 62
     7
100
AcDbLine
 10
205.1751042978
 20
243.774436012
 30
0.0
 11
205.1751042978
 21
231.7744359077
 31
0.0
  0
ENDBLK
  5
74
330
6F
100
AcDbEntity
  8
0
100
AcDbBlockEnd
  0
BLOCK
  5
7D
330
75
100
AcDbEntity
  8
0
100
AcDbBlockBegin
  2
SEANNOT_GROUP3
 70
     0
 10
0.0
 20
0.0
 30
0.0
  3
SEANNOT_GROUP3
  1

  0
LINE
  5
77
330
75
100
AcDbEntity
  8
Default
  6
CENTER2
 62
     7
100
AcDbLine
 10
211.1751043499
 20
181.7744359598
 30
0.0
 11
199.1751042456
 21
181.7744359598
 31
0.0
  0
LINE
  5
78
330
75
100
AcDbEntity
  8
Default
  6
CENTER2
 62
     7
100
AcDbLine
 10
205.1751042978
 20
187.774436012
 30
0.0
 11
205.1751042978
 21
175.7744359077
 31
0.0
  0
LINE
  5
79
330
75
100
AcDbEntity
  8
Default
  6
CENTER2
 62
     7
100
AcDbLine
 10
212.6751043629
 20
181.7744359598
 30
0.0
 11
218.0251042978
 21
181.7744359598
 31
0.0
  0
LINE
  5
7A
330
75
100
AcDbEntity
  8
Default
  6
CENTER2
 62
     7
100
AcDbLine
 10
205.1751042978
 20
189.274436025
 30
0.0
 11
205.1751042978
 21
194.6244359598
 31
0.0
  0
LINE
  5
7B
330
75
100
AcDbEntity
  8
Default
  6
CENTER2
 62
     7
100
AcDbLine
 10
197.6751042326
 20
181.7744359598
 30
0.0
 11
192.3251042978
 21
181.7744359598
 31
0.0
  0
LINE
  5
7C
330
75
100
AcDbEntity
  8
Default
  6
CENTER2
 62
     7
100
AcDbLine
 10
205.1751042978
 20
174.2744358946
 30
0.0
 11
205.1751042978
 21
168.9244359598
 31
0.0
  0
ENDBLK
  5
7E
330
75
100
AcDbEntity
  8
0
100
AcDbBlockEnd
  0
BLOCK
  5
83
330
7F
100
AcDbEntity
  8
0
100
AcDbBlockBegin
  2
SEANNOT_GROUP4
 70
     0
 10
0.0
 20
0.0
 30
0.0
  3
SEANNOT_GROUP4
  1

  0
LINE
  5
81
330
7F
100
AcDbEntity
  8
Default
  6
CENTER2
 62
     7
100
AcDbLine
 10
211.1751043499
 20
105.7744359598
 30
0.0
 11
199.1751042456
 21
105.7744359598
 31
0.0
  0
LINE
  5
82
330
7F
100
AcDbEntity
  8
Default
  6
CENTER2
 62
     7
100
AcDbLine
 10
205.1751042978
 20
111.774436012
 30
0.0
 11
205.1751042978
 21
99.7744359077
 31
0.0
  0
ENDBLK
  5
84
330
7F
100
AcDbEntity
  8
0
100
AcDbBlockEnd
  0
BLOCK
  5
88
330
85
100
AcDbEntity
  8
0
100
AcDbBlockBegin
  2
SEANNOT_GROUP5
 70
     0
 10
0.0
 20
0.0
 30
0.0
  3
SEANNOT_GROUP5
  1

  0
LINE
  5
87
330
85
100
AcDbEntity
  8
Default
  6
CENTER2
 62
     7
100
AcDbLine
 10
205.1751042978
 20
81.9443525223
 30
0.0
 11
205.1751042978
 21
366.5152732113
 31
0.0
  0
ENDBLK
  5
89
330
85
100
AcDbEntity
  8
0
100
AcDbBlockEnd
  0
BLOCK
  5
AA
330
8A
100
AcDbEntity
  8
0
100
AcDbBlockBegin
  2
SE
 70
     0
 10
0.0
 20
0.0
 30
0.0
  3
SE
  1

  0
LINE
  5
8D
330
8A
100
AcDbEntity
  8
MEGA_019749
  6
Continuous
 62
     7
100
AcDbLine
 10
179.1751042978
 20
110.7744359598
 30
0.0
 11
179.1751042978
 21
338.7744359598
 31
0.0
  0
ARC
  5
8E
330
8A
100
AcDbEntity
  8
MEGA_019749
  6
Continuous
 62
     7
100
AcDbCircle
 10
205.1751042978
 20
110.7744359598
 30
0.0
 40
25.99999999999997
100
AcDbArc
 50
180.0
 51
360.0
  0
LINE
  5
8F
330
8A
100
AcDbEntity
  8
MEGA_019749
  6
Continuous
 62
     7
100
AcDbLine
 10
231.1751042978
 20
338.7744359598
 30
0.0
 11
231.1751042978
 21
110.7744359598
 31
0.0
  0
ARC
  5
90
330
8A
100
AcDbEntity
  8
MEGA_019749
  6
Continuous
 62
     7
100
AcDbCircle
 10
205.1751042978
 20
338.7744359598
 30
0.0
 40
26.00000000000006
100
AcDbArc
 50
0.0
 51
180.0
  0
CIRCLE
  5
91
330
8A
100
AcDbEntity
  8
MEGA_019749
  6
Continuous
 62
     7
100
AcDbCircle
 10
205.1751042978
 20
343.7744359598
 30
0.0
 40
5.75
  0
CIRCLE
  5
92
330
8A
100
AcDbEntity
  8
MEGA_019749
  6
Continuous
 62
     7
100
AcDbCircle
 10
205.1751042978
 20
343.7744359598
 30
0.0
 40
3.25
  0
CIRCLE
  5
93
330
8A
100
AcDbEntity
  8
MEGA_019749
  6
Continuous
 62
     7
100
AcDbCircle
 10
205.1751042978
 20
237.7744359598
 30
0.0
 40
5.75
  0
CIRCLE
  5
94
330
8A
100
AcDbEntity
  8
MEGA_019749
  6
Continuous
 62
     7
100
AcDbCircle
 10
205.1751042978
 20
237.7744359598
 30
0.0
 40
3.25
  0
CIRCLE
  5
95
330
8A
100
AcDbEntity
  8
MEGA_019749
  6
Continuous
 62
     7
100
AcDbCircle
 10
205.1751042978
 20
105.7744359598
 30
0.0
 40
5.75
  0
CIRCLE
  5
96
330
8A
100
AcDbEntity
  8
MEGA_019749
  6
Continuous
 62
     7
100
AcDbCircle
 10
205.1751042978
 20
105.7744359598
 30
0.0
 40
3.25
  0
CIRCLE
  5
97
330
8A
100
AcDbEntity
  8
MEGA_019749
  6
Continuous
 62
     7
100
AcDbCircle
 10
205.1751042978
 20
181.7744359598
 30
0.0
 40
11.1
  0
LINE
  5
98
330
8A
100
AcDbEntity
  8
MEGA_019749
  6
Continuous
 62
     7
100
AcDbLine
 10
179.9098694451
 20
338.7744359598
 30
0.0
 11
179.1751042978
 21
338.7744359598
 31
0.0
  0
LINE
  5
99
330
8A
100
AcDbEntity
  8
MEGA_019749
  6
Continuous
 62
     7
100
AcDbLine
 10
230.4403391504
 20
338.7744359598
 30
0.0
 11
231.1751042978
 21
338.7744359598
 31
0.0
  0
ARC
  5
9A
330
8A
100
AcDbEntity
  8
MEGA_019749
  6
Continuous
 62
     7
100
AcDbCircle
 10
205.1751042978
 20
338.7744359598
 30
0.0
 40
25.2652348526097
100
AcDbArc
 50
0.0
 51
180.0
  0
ARC
  5
9B
330
8A
100
AcDbEntity
  8
MEGA_019749
  6
Continuous
 62
     7
100
AcDbCircle
 10
205.1751042978
 20
110.7744359598
 30
0.0
 40
24.03422516134442
100
AcDbArc
 50
180.0
 51
360.0
  0
LINE
  5
9C
330
8A
100
AcDbEntity
  8
MEGA_019749
  6
Continuous
 62
     7
100
AcDbLine
 10
229.2093294591
 20
110.7744359598
 30
0.0
 11
229.2093294591
 21
338.7744359598
 31
0.0
  0
LINE
  5
9D
330
8A
100
AcDbEntity
  8
MEGA_019749
  6
Continuous
 62
     7
100
AcDbLine
 10
181.1408791364
 20
338.7744359598
 30
0.0
 11
181.1408791364
 21
110.7744359598
 31
0.0
  0
ARC
  5
9E
330
8A
100
AcDbEntity
  8
MEGA_019749
  6
Continuous
 62
     7
100
AcDbCircle
 10
205.1751042978
 20
338.7744359598
 30
0.0
 40
24.03422516134435
100
AcDbArc
 50
0.0
 51
180.0
  0
LINE
  5
9F
330
8A
100
AcDbEntity
  8
MEGA_019749
  6
Continuous
 62
     7
100
AcDbLine
 10
179.9098694451
 20
110.7744359598
 30
0.0
 11
179.1751042978
 21
110.7744359598
 31
0.0
  0
LINE
  5
A0
330
8A
100
AcDbEntity
  8
MEGA_019749
  6
Continuous
 62
     7
100
AcDbLine
 10
179.9098694451
 20
110.7744359598
 30
0.0
 11
179.9098694451
 21
338.7744359598
 31
0.0
  0
LINE
  5
A1
330
8A
100
AcDbEntity
  8
MEGA_019749
  6
Continuous
 62
     7
100
AcDbLine
 10
230.4403391504
 20
110.7744359598
 30
0.0
 11
231.1751042978
 21
110.7744359598
 31
0.0
  0
LINE
  5
A2
330
8A
100
AcDbEntity
  8
MEGA_019749
  6
Continuous
 62
     7
100
AcDbLine
 10
230.4403391504
 20
338.7744359598
 30
0.0
 11
230.4403391504
 21
110.7744359598
 31
0.0
  0
ARC
  5
A3
330
8A
100
AcDbEntity
  8
MEGA_019749
  6
Continuous
 62
     7
100
AcDbCircle
 10
205.1751042978
 20
110.7744359598
 30
0.0
 40
25.26523485260962
100
AcDbArc
 50
180.0
 51
360.0
  0
LINE
  5
A4
330
8A
100
AcDbEntity
  8
MEGA_019749
  6
Continuous
 62
     7
100
AcDbLine
 10
179.9098694451
 20
110.7744359598
 30
0.0
 11
181.1408791364
 21
110.7744359598
 31
0.0
  0
LINE
  5
A5
330
8A
100
AcDbEntity
  8
MEGA_019749
  6
Continuous
 62
     7
100
AcDbLine
 10
229.2093294591
 20
110.7744359598
 30
0.0
 11
230.4403391504
 21
110.7744359598
 31
0.0
  0
LINE
  5
A6
330
8A
100
AcDbEntity
  8
MEGA_019749
  6
Continuous
 62
     7
100
AcDbLine
 10
179.9098694451
 20
338.7744359598
 30
0.0
 11
181.1408791364
 21
338.7744359598
 31
0.0
  0
LINE
  5
A7
330
8A
100
AcDbEntity
  8
MEGA_019749
  6
Continuous
 62
     7
100
AcDbLine
 10
229.2093294591
 20
338.7744359598
 30
0.0
 11
230.4403391504
 21
338.7744359598
 31
0.0
  0
CIRCLE
  5
A8
330
8A
100
AcDbEntity
  8
MEGA_019749
  6
Continuous
 62
     7
100
AcDbCircle
 10
205.1751042978
 20
259.7744359598
 30
0.0
 40
9.500000000000021
  0
CIRCLE
  5
A9
330
8A
100
AcDbEntity
  8
MEGA_019749
  6
Continuous
 62
     7
100
AcDbCircle
 10
205.1751042978
 20
259.7744359598
 30
0.0
 40
9.000000000000002
  0
ENDBLK
  5
AB
330
8A
100
AcDbEntity
  8
0
100
AcDbBlockEnd
  0
BLOCK
  5
C5
330
AC
100
AcDbEntity
  8
0
100
AcDbBlockBegin
  2
SE1
 70
     0
 10
0.0
 20
0.0
 30
0.0
  3
SE1
  1

  0
LINE
  5
AE
330
AC
100
AcDbEntity
  8
MEGA_019749
  6
Continuous
 62
     7
100
AcDbLine
 10
92.8504090813
 20
84.7744359598
 30
0.0
 11
92.8504090813
 21
110.7744359598
 31
0.0
  0
LINE
  5
AF
330
AC
100
AcDbEntity
  8
MEGA_019749
  6
Continuous
 62
     7
100
AcDbLine
 10
92.8504090813
 20
338.7744359598
 30
0.0
 11
92.8504090813
 21
110.7744359598
 31
0.0
  0
LINE
  5
B0
330
AC
100
AcDbEntity
  8
MEGA_019749
  6
Continuous
 62
     7
100
AcDbLine
 10
92.8504090813
 20
364.7744359598
 30
0.0
 11
92.8504090813
 21
338.7744359598
 31
0.0
  0
LINE
  5
B1
330
AC
100
AcDbEntity
  8
MEGA_019749
  6
Continuous
 62
     7
100
AcDbLine
 10
88.6833488592
 20
338.7744359598
 30
0.0
 11
92.8504090813
 21
338.7744359598
 31
0.0
  0
LINE
  5
B2
330
AC
100
AcDbEntity
  8
MEGA_019749
  6
Continuous
 62
     7
100
AcDbLine
 10
88.6833488592
 20
364.0396708124
 30
0.0
 11
88.6833488592
 21
338.7744359598
 31
0.0
  0
LINE
  5
B3
330
AC
100
AcDbEntity
  8
MEGA_019749
  6
Continuous
 62
     7
100
AcDbLine
 10
87.6504090813
 20
110.7744359598
 30
0.0
 11
87.6504090813
 21
86.7402107985
 31
0.0
  0
LINE
  5
B4
330
AC
100
AcDbEntity
  8
MEGA_019749
  6
Continuous
 62
     7
100
AcDbLine
 10
87.6504090813
 20
110.7744359598
 30
0.0
 11
87.6504090813
 21
338.7744359598
 31
0.0
  0
LINE
  5
B5
330
AC
100
AcDbEntity
  8
MEGA_019749
  6
Continuous
 62
     7
100
AcDbLine
 10
87.6504090813
 20
338.7744359598
 30
0.0
 11
87.6504090813
 21
362.8086611212
 31
0.0
  0
LINE
  5
B6
330
AC
100
AcDbEntity
  8
MEGA_019749
  6
Continuous
 62
     7
100
AcDbLine
 10
88.6833488592
 20
110.7744359598
 30
0.0
 11
92.8504090813
 21
110.7744359598
 31
0.0
  0
LINE
  5
B7
330
AC
100
AcDbEntity
  8
MEGA_019749
  6
Continuous
 62
     7
100
AcDbLine
 10
88.6833488592
 20
338.7744359598
 30
0.0
 11
88.6833488592
 21
110.7744359598
 31
0.0
  0
LINE
  5
B8
330
AC
100
AcDbEntity
  8
MEGA_019749
  6
Continuous
 62
     7
100
AcDbLine
 10
88.6833488592
 20
85.5092011072
 30
0.0
 11
88.6833488592
 21
110.7744359598
 31
0.0
  0
LINE
  5
B9
330
AC
100
AcDbEntity
  8
MEGA_019749
  6
Continuous
 62
     7
100
AcDbLine
 10
87.6504090813
 20
110.7744359598
 30
0.0
 11
88.6833488592
 21
110.7744359598
 31
0.0
  0
LINE
  5
BA
330
AC
100
AcDbEntity
  8
MEGA_019749
  6
Continuous
 62
     7
100
AcDbLine
 10
87.6504090813
 20
338.7744359598
 30
0.0
 11
88.6833488592
 21
338.7744359598
 31
0.0
  0
LINE
  5
BB
330
AC
100
AcDbEntity
  8
MEGA_019749
  6
Continuous
 62
     7
100
AcDbLine
 10
96.237564824
 20
248.6945724357
 30
0.0
 11
96.237564824
 21
270.8542994839
 31
0.0
  0
LINE
  5
BC
330
AC
100
AcDbEntity
  8
MEGA_019749
  6
Continuous
 62
     7
100
AcDbLine
 10
97.1504090813
 20
269.8581047858
 30
0.0
 11
97.1504090813
 21
249.6907671338
 31
0.0
  0
LINE
  5
BD
330
AC
100
AcDbEntity
  8
MEGA_019749
  6
Continuous
 62
     7
100
AcDbLine
 10
88.6833488592
 20
85.5092011072
 30
0.0
 11
92.8504090813
 21
84.7744359598
 31
0.0
  0
LINE
  5
BE
330
AC
100
AcDbEntity
  8
MEGA_019749
  6
Continuous
 62
     7
100
AcDbLine
 10
92.8504090813
 20
364.7744359598
 30
0.0
 11
88.6833488592
 21
364.0396708124
 31
0.0
  0
LINE
  5
BF
330
AC
100
AcDbEntity
  8
MEGA_019749
  6
Continuous
 62
     7
100
AcDbLine
 10
92.8504090813
 20
248.3982347067
 30
0.0
 11
96.237564824
 21
248.6945724357
 31
0.0
  0
LINE
  5
C0
330
AC
100
AcDbEntity
  8
MEGA_019749
  6
Continuous
 62
     7
100
AcDbLine
 10
96.237564824
 20
270.8542994839
 30
0.0
 11
92.8504090813
 21
271.150637213
 31
0.0
  0
ARC
  5
C1
330
AC
100
AcDbEntity
  8
MEGA_019749
  6
Continuous
 62
     7
100
AcDbCircle
 10
88.9004090813
 20
86.7402107985
 30
0.0
 40
1.25
100
AcDbArc
 50
180.0
 51
260.0
  0
ARC
  5
C2
330
AC
100
AcDbEntity
  8
MEGA_019749
  6
Continuous
 62
     7
100
AcDbCircle
 10
88.9004090813
 20
362.8086611212
 30
0.0
 40
1.249999999999999
100
AcDbArc
 50
100.0
 51
180.0
  0
ARC
  5
C3
330
AC
100
AcDbEntity
  8
MEGA_019749
  6
Continuous
 62
     7
100
AcDbCircle
 10
96.1504090813
 20
249.6907671338
 30
0.0
 40
1.000000000000001
100
AcDbArc
 50
275.0
 51
0.0
  0
ARC
  5
C4
330
AC
100
AcDbEntity
  8
MEGA_019749
  6
Continuous
 62
     7
100
AcDbCircle
 10
96.1504090813
 20
269.8581047858
 30
0.0
 40
1.0
100
AcDbArc
 50
0.0
 51
85.0
  0
ENDBLK
  5
C6
330
AC
100
AcDbEntity
  8
0
100
AcDbBlockEnd
  0
BLOCK
  5
C9
330
C8
100
AcDbEntity
  8
0
100
AcDbBlockBegin
  2
_OBLIQUE
 70
     0
 10
0.0
 20
0.0
 30
0.0
  3
_OBLIQUE
  1

  0
LINE
  5
CB
330
C8
100
AcDbEntity
  8
0
  6
ByBlock
 62
     0
370
    -2
100
AcDbLine
 10
-0.5
 20
-0.5
 30
0.0
 11
0.5
 21
0.5
 31
0.0
  0
ENDBLK
  5
CA
330
C8
100
AcDbEntity
  8
0
100
AcDbBlockEnd
  0
BLOCK
  5
CD
330
CC
100
AcDbEntity
  8
0
100
AcDbBlockBegin
  2
_DOT
 70
     0
 10
0.0
 20
0.0
 30
0.0
  3
_DOT
  1

  0
POLYLINE
  5
CF
330
CC
100
AcDbEntity
  8
0
  6
ByBlock
 62
     0
100
AcDb2dPolyline
 66
     1
 10
0.0
 20
0.0
 30
0.0
 70
     1
 40
0.5
 41
0.5
  0
VERTEX
  5
D2
330
CF
100
AcDbEntity
  8
0
  6
ByBlock
 62
     0
100
AcDbVertex
100
AcDb2dVertex
 10
-0.25
 20
0.0
 30
0.0
 42
1.0
  0
VERTEX
  5
D3
330
CF
100
AcDbEntity
  8
0
  6
ByBlock
 62
     0
100
AcDbVertex
100
AcDb2dVertex
 10
0.25
 20
0.0
 30
0.0
 42
1.0
  0
SEQEND
  5
D1
330
CF
100
AcDbEntity
  8
0
  6
ByBlock
 62
     0
  0
LINE
  5
D0
330
CC
100
AcDbEntity
  8
0
  6
ByBlock
 62
     0
370
    -2
100
AcDbLine
 10
-0.5
 20
0.0
 30
0.0
 11
-1.0
 21
0.0
 31
0.0
  0
ENDBLK
  5
CE
330
CC
100
AcDbEntity
  8
0
100
AcDbBlockEnd
  0
BLOCK
  5
D7
330
D4
100
AcDbEntity
  8
0
100
AcDbBlockBegin
  2
_SE_FILLED
 70
     0
 10
0.0
 20
0.0
 30
0.0
  3
_SE_FILLED
  1

  0
SOLID
  5
D5
330
D4
100
AcDbEntity
  8
0
 62
     0
100
AcDbTrace
 10
0.0
 20
0.0
 30
0.0
 11
-1.0
 21
-0.1665
 31
0.0
 12
-1.0
 22
0.1665
 32
0.0
 13
0.0
 23
0.0
 33
0.0
  0
LINE
  5
D6
330
D4
100
AcDbEntity
  8
0
 62
     0
100
AcDbLine
 10
0.0
 20
0.0
 30
0.0
 11
-1.0
 21
0.0
 31
0.0
  0
ENDBLK
  5
D8
330
D4
100
AcDbEntity
  8
0
100
AcDbBlockEnd
  0
BLOCK
  5
E3
330
DC
100
AcDbEntity
  8
0
100
AcDbBlockBegin
  2
DMBLK352
 70
     0
 10
0.0
 20
0.0
 30
0.0
  3
DMBLK352
  1

  0
HATCH
  5
DD
330
DC
100
AcDbEntity
  8
Default
  6
Continuous
 62
     7
100
AcDbHatch
 10
0.0
 20
0.0
 30
0.0
210
0.0
220
0.0
230
1.0
  2
SOLID
 70
     1
 71
     0
 91
        1
 92
        1
 93
        3
 72
     1
 10
182.1751043238332
 20
384.6961964934412
 11
179.1751042977562
 21
384.196196489095
 72
     1
 10
179.1751042977562
 20
384.196196489095
 11
182.1751043238332
 21
383.6961964847488
 72
     1
 10
182.1751043238332
 20
383.6961964847488
 11
182.1751043238332
 21
384.6961964934412
 97
        0
 75
     0
 76
     1
 98
        0
  0
HATCH
  5
DE
330
DC
100
AcDbEntity
  8
Default
  6
Continuous
 62
     7
100
AcDbHatch
 10
0.0
 20
0.0
 30
0.0
210
0.0
220
0.0
230
1.0
  2
SOLID
 70
     1
 71
     0
 91
        1
 92
        1
 93
        3
 72
     1
 10
228.1751053445628
 20
384.6961964934412
 11
228.1751053445628
 21
383.6961964847488
 72
     1
 10
228.1751053445628
 20
383.6961964847488
 11
231.1751053706398
 21
384.196196489095
 72
     1
 10
231.1751053706398
 20
384.196196489095
 11
228.1751053445628
 21
384.6961964934412
 97
        0
 75
     0
 76
     1
 98
        0
  0
LINE
  5
DF
330
DC
100
AcDbEntity
  8
Default
  6
Continuous
 62
     7
100
AcDbLine
 10
179.1751042978
 20
338.7744359598
 30
0.0
 11
179.1751042978
 21
385.6961965021
 31
0.0
  0
LINE
  5
E0
330
DC
100
AcDbEntity
  8
Default
  6
Continuous
 62
     7
100
AcDbLine
 10
231.1751042978
 20
338.7744359598
 30
0.0
 11
231.1751042978
 21
385.6961965021
 31
0.0
  0
LINE
  5
E1
330
DC
100
AcDbEntity
  8
Default
  6
Continuous
 62
     7
100
AcDbLine
 10
179.1751042978
 20
384.1961964891
 30
0.0
 11
231.1751053706
 21
384.1961964891
 31
0.0
  0
TEXT
  5
E2
330
DC
100
AcDbEntity
  8
Default
  6
Continuous
 62
     7
100
AcDbText
 10
203.4023775615
 20
384.9461964891
 30
0.0
 40
3.0
  1
52
  7
SEACAD_seiso_ttf
 11
203.4023775615
 21
387.9461964891
 31
0.0
100
AcDbText
 73
     3
  0
ENDBLK
  5
E4
330
DC
100
AcDbEntity
  8
0
100
AcDbBlockEnd
  0
BLOCK
  5
ED
330
E6
100
AcDbEntity
  8
0
100
AcDbBlockBegin
  2
DMBLK353
 70
     0
 10
0.0
 20
0.0
 30
0.0
  3
DMBLK353
  1

  0
HATCH
  5
E7
330
E6
100
AcDbEntity
  8
Default
  6
Continuous
 62
     7
100
AcDbHatch
 10
0.0
 20
0.0
 30
0.0
210
0.0
220
0.0
230
1.0
  2
SOLID
 70
     1
 71
     0
 91
        1
 92
        1
 93
        3
 72
     1
 10
250.6941870271505
 20
256.7744359337382
 11
250.1941870228043
 21
259.7744359598153
 72
     1
 10
250.1941870228043
 20
259.7744359598153
 11
249.6941870184582
 21
256.7744359337382
 72
     1
 10
249.6941870184582
 20
256.7744359337382
 11
250.6941870271505
 21
256.7744359337382
 97
        0
 75
     0
 76
     1
 98
        0
  0
HATCH
  5
E8
330
E6
100
AcDbEntity
  8
Default
  6
Continuous
 62
     7
100
AcDbHatch
 10
0.0
 20
0.0
 30
0.0
210
0.0
220
0.0
230
1.0
  2
SOLID
 70
     1
 71
     0
 91
        1
 92
        1
 93
        3
 72
     1
 10
250.6941870271505
 20
184.7744343765669
 11
249.6941870184582
 21
184.7744343765669
 72
     1
 10
249.6941870184582
 20
184.7744343765669
 11
250.1941870228043
 21
181.7744343504899
 72
     1
 10
250.1941870228043
 20
181.7744343504899
 11
250.6941870271505
 21
184.7744343765669
 97
        0
 75
     0
 76
     1
 98
        0
  0
LINE
  5
E9
330
E6
100
AcDbEntity
  8
Default
  6
Continuous
 62
     7
100
AcDbLine
 10
205.1751042978
 20
259.7744359598
 30
0.0
 11
251.6941870358
 21
259.7744359598
 31
0.0
  0
LINE
  5
EA
330
E6
100
AcDbEntity
  8
Default
  6
Continuous
 62
     7
100
AcDbLine
 10
205.1751042978
 20
181.7744359598
 30
0.0
 11
251.6941870358
 21
181.7744359598
 31
0.0
  0
LINE
  5
EB
330
E6
100
AcDbEntity
  8
Default
  6
Continuous
 62
     7
100
AcDbLine
 10
250.1941870228
 20
259.7744359598
 30
0.0
 11
250.1941870228
 21
181.7744343505
 31
0.0
  0
TEXT
  5
EC
330
E6
100
AcDbEntity
  8
Default
  6
Continuous
 62
     7
100
AcDbText
 10
249.4441870228
 20
218.8653442461
 30
0.0
 40
3.0
  1
78
 50
90.0
  7
SEACAD_seiso_ttf
 11
246.4441870228
 21
218.8653442461
 31
0.0
100
AcDbText
 73
     3
  0
ENDBLK
  5
EE
330
E6
100
AcDbEntity
  8
0
100
AcDbBlockEnd
  0
BLOCK
  5
F7
330
F0
100
AcDbEntity
  8
0
100
AcDbBlockBegin
  2
DMBLK354
 70
     0
 10
0.0
 20
0.0
 30
0.0
  3
DMBLK354
  1

  0
HATCH
  5
F1
330
F0
100
AcDbEntity
  8
Default
  6
Continuous
 62
     7
100
AcDbHatch
 10
0.0
 20
0.0
 30
0.0
210
0.0
220
0.0
230
1.0
  2
SOLID
 70
     1
 71
     0
 91
        1
 92
        1
 93
        3
 72
     1
 10
170.7581466169994
 20
340.7744359337382
 11
171.7581466256918
 21
340.7744359337382
 72
     1
 10
171.7581466256918
 20
340.7744359337382
 11
171.2581466213456
 21
343.7744359598153
 72
     1
 10
171.2581466213456
 20
343.7744359598153
 11
170.7581466169994
 21
340.7744359337382
 97
        0
 75
     0
 76
     1
 98
        0
  0
HATCH
  5
F2
330
F0
100
AcDbEntity
  8
Default
  6
Continuous
 62
     7
100
AcDbHatch
 10
0.0
 20
0.0
 30
0.0
210
0.0
220
0.0
230
1.0
  2
SOLID
 70
     1
 71
     0
 91
        1
 92
        1
 93
        3
 72
     1
 10
170.7581466169994
 20
262.7744371183805
 11
171.2581466213456
 21
259.7744370923035
 72
     1
 10
171.2581466213456
 20
259.7744370923035
 11
171.7581466256918
 21
262.7744371183805
 72
     1
 10
171.7581466256918
 20
262.7744371183805
 11
170.7581466169994
 21
262.7744371183805
 97
        0
 75
     0
 76
     1
 98
        0
  0
LINE
  5
F3
330
F0
100
AcDbEntity
  8
Default
  6
Continuous
 62
     7
100
AcDbLine
 10
205.1751042978
 20
343.7744359598
 30
0.0
 11
169.7581466083
 21
343.7744359598
 31
0.0
  0
LINE
  5
F4
330
F0
100
AcDbEntity
  8
Default
  6
Continuous
 62
     7
100
AcDbLine
 10
205.1751042978
 20
259.7744359598
 30
0.0
 11
169.7581466083
 21
259.7744359598
 31
0.0
  0
LINE
  5
F5
330
F0
100
AcDbEntity
  8
Default
  6
Continuous
 62
     7
100
AcDbLine
 10
171.2581466213
 20
343.7744359598
 30
0.0
 11
171.2581466213
 21
259.7744370923
 31
0.0
  0
TEXT
  5
F6
330
F0
100
AcDbEntity
  8
Default
  6
Continuous
 62
     7
100
AcDbText
 10
170.5081466213
 20
299.9335274352
 30
0.0
 40
3.0
  1
84
 50
90.0
  7
SEACAD_seiso_ttf
 11
167.5081466213
 21
299.9335274352
 31
0.0
100
AcDbText
 73
     3
  0
ENDBLK
  5
F8
330
F0
100
AcDbEntity
  8
0
100
AcDbBlockEnd
  0
BLOCK
  5
101
330
FA
100
AcDbEntity
  8
0
100
AcDbBlockBegin
  2
DMBLK355
 70
     0
 10
0.0
 20
0.0
 30
0.0
  3
DMBLK355
  1

  0
HATCH
  5
FB
330
FA
100
AcDbEntity
  8
Default
  6
Continuous
 62
     7
100
AcDbHatch
 10
0.0
 20
0.0
 30
0.0
210
0.0
220
0.0
230
1.0
  2
SOLID
 70
     1
 71
     0
 91
        1
 92
        1
 93
        3
 72
     1
 10
170.7581466169994
 20
256.7744359337382
 11
171.7581466256918
 21
256.7744359337382
 72
     1
 10
171.7581466256918
 20
256.7744359337382
 11
171.2581466213456
 21
259.7744359598153
 72
     1
 10
171.2581466213456
 20
259.7744359598153
 11
170.7581466169994
 21
256.7744359337382
 97
        0
 75
     0
 76
     1
 98
        0
  0
HATCH
  5
FC
330
FA
100
AcDbEntity
  8
Default
  6
Continuous
 62
     7
100
AcDbHatch
 10
0.0
 20
0.0
 30
0.0
210
0.0
220
0.0
230
1.0
  2
SOLID
 70
     1
 71
     0
 91
        1
 92
        1
 93
        3
 72
     1
 10
170.7581466169994
 20
240.7744361051016
 11
171.2581466213456
 21
237.7744360790246
 72
     1
 10
171.2581466213456
 20
237.7744360790246
 11
171.7581466256918
 21
240.7744361051016
 72
     1
 10
171.7581466256918
 20
240.7744361051016
 11
170.7581466169994
 21
240.7744361051016
 97
        0
 75
     0
 76
     1
 98
        0
  0
LINE
  5
FD
330
FA
100
AcDbEntity
  8
Default
  6
Continuous
 62
     7
100
AcDbLine
 10
205.1751042978
 20
259.7744359598
 30
0.0
 11
169.7581466083
 21
259.7744359598
 31
0.0
  0
LINE
  5
FE
330
FA
100
AcDbEntity
  8
Default
  6
Continuous
 62
     7
100
AcDbLine
 10
205.1751042978
 20
237.7744359598
 30
0.0
 11
169.7581466083
 21
237.7744359598
 31
0.0
  0
LINE
  5
FF
330
FA
100
AcDbEntity
  8
Default
  6
Continuous
 62
     7
100
AcDbLine
 10
171.2581466213
 20
259.7744359598
 30
0.0
 11
171.2581466213
 21
237.774436079
 31
0.0
  0
TEXT
  5
100
330
FA
100
AcDbEntity
  8
Default
  6
Continuous
 62
     7
100
AcDbText
 10
170.5081466213
 20
246.9335269285
 30
0.0
 40
3.0
  1
22
 50
90.0
  7
SEACAD_seiso_ttf
 11
167.5081466213
 21
246.9335269285
 31
0.0
100
AcDbText
 73
     3
  0
ENDBLK
  5
102
330
FA
100
AcDbEntity
  8
0
100
AcDbBlockEnd
  0
BLOCK
  5
10B
330
104
100
AcDbEntity
  8
0
100
AcDbBlockBegin
  2
DMBLK356
 70
     0
 10
0.0
 20
0.0
 30
0.0
  3
DMBLK356
  1

  0
HATCH
  5
105
330
104
100
AcDbEntity
  8
Default
  6
Continuous
 62
     7
100
AcDbHatch
 10
0.0
 20
0.0
 30
0.0
210
0.0
220
0.0
230
1.0
  2
SOLID
 70
     1
 71
     0
 91
        1
 92
        1
 93
        3
 72
     1
 10
161.7581470044296
 20
256.7744359337382
 11
162.7581470131219
 21
256.7744359337382
 72
     1
 10
162.7581470131219
 20
256.7744359337382
 11
162.2581470087758
 21
259.7744359598153
 72
     1
 10
162.2581470087758
 20
259.7744359598153
 11
161.7581470044296
 21
256.7744359337382
 97
        0
 75
     0
 76
     1
 98
        0
  0
HATCH
  5
106
330
104
100
AcDbEntity
  8
Default
  6
Continuous
 62
     7
100
AcDbHatch
 10
0.0
 20
0.0
 30
0.0
210
0.0
220
0.0
230
1.0
  2
SOLID
 70
     1
 71
     0
 91
        1
 92
        1
 93
        3
 72
     1
 10
161.7581470044296
 20
108.7744368203573
 11
162.2581470087758
 21
105.7744367942803
 72
     1
 10
162.2581470087758
 20
105.7744367942803
 11
162.7581470131219
 21
108.7744368203573
 72
     1
 10
162.7581470131219
 20
108.7744368203573
 11
161.7581470044296
 21
108.7744368203573
 97
        0
 75
     0
 76
     1
 98
        0
  0
LINE
  5
107
330
104
100
AcDbEntity
  8
Default
  6
Continuous
 62
     7
100
AcDbLine
 10
205.1751042978
 20
259.7744359598
 30
0.0
 11
160.7581469957
 21
259.7744359598
 31
0.0
  0
LINE
  5
108
330
104
100
AcDbEntity
  8
Default
  6
Continuous
 62
     7
100
AcDbLine
 10
205.1751042978
 20
105.7744359598
 30
0.0
 11
160.7581469957
 21
105.7744359598
 31
0.0
  0
LINE
  5
109
330
104
100
AcDbEntity
  8
Default
  6
Continuous
 62
     7
100
AcDbLine
 10
162.2581470088
 20
259.7744359598
 30
0.0
 11
162.2581470088
 21
105.7744367943
 31
0.0
  0
TEXT
  5
10A
330
104
100
AcDbEntity
  8
Default
  6
Continuous
 62
     7
100
AcDbText
 10
161.5081470088
 20
180.4221636498
 30
0.0
 40
3.0
  1
154
 50
90.0
  7
SEACAD_seiso_ttf
 11
158.5081470088
 21
180.4221636498
 31
0.0
100
AcDbText
 73
     3
  0
ENDBLK
  5
10C
330
104
100
AcDbEntity
  8
0
100
AcDbBlockEnd
  0
BLOCK
  5
117
330
10F
100
AcDbEntity
  8
0
100
AcDbBlockBegin
  2
DMBLK357
 70
     0
 10
0.0
 20
0.0
 30
0.0
  3
DMBLK357
  1

  0
HATCH
  5
110
330
10F
100
AcDbEntity
  8
Default
  6
Continuous
 62
     7
100
AcDbHatch
 10
0.0
 20
0.0
 30
0.0
210
0.0
220
0.0
230
1.0
  2
SOLID
 70
     1
 71
     0
 91
        1
 92
        1
 93
        3
 72
     1
 10
242.6264860152544
 20
253.7744359858923
 11
241.626486006562
 21
253.7744359858923
 72
     1
 10
241.626486006562
 20
253.7744359858923
 11
242.1264860109082
 21
250.7744359598152
 72
     1
 10
242.1264860109082
 20
250.7744359598152
 11
242.6264860152544
 21
253.7744359858923
 97
        0
 75
     0
 76
     1
 98
        0
  0
HATCH
  5
111
330
10F
100
AcDbEntity
  8
Default
  6
Continuous
 62
     7
100
AcDbHatch
 10
0.0
 20
0.0
 30
0.0
210
0.0
220
0.0
230
1.0
  2
SOLID
 70
     1
 71
     0
 91
        1
 92
        1
 93
        3
 72
     1
 10
242.6264860152544
 20
265.7744359337382
 11
242.1264860109082
 21
268.7744359598153
 72
     1
 10
242.1264860109082
 20
268.7744359598153
 11
241.626486006562
 21
265.7744359337382
 72
     1
 10
241.626486006562
 20
265.7744359337382
 11
242.6264860152544
 21
265.7744359337382
 97
        0
 75
     0
 76
     1
 98
        0
  0
LINE
  5
112
330
10F
100
AcDbEntity
  8
Default
  6
Continuous
 62
     7
100
AcDbLine
 10
205.1751042978
 20
250.7744359598
 30
0.0
 11
243.6264860239
 21
250.7744359598
 31
0.0
  0
LINE
  5
113
330
10F
100
AcDbEntity
  8
Default
  6
Continuous
 62
     7
100
AcDbLine
 10
205.1751042978
 20
268.7744359598
 30
0.0
 11
243.6264860239
 21
268.7744359598
 31
0.0
  0
LINE
  5
114
330
10F
100
AcDbEntity
  8
Default
  6
Continuous
 62
     7
100
AcDbLine
 10
242.1264860109
 20
250.7744359598
 30
0.0
 11
242.1264860109
 21
279.4657501206
 31
0.0
  0
TEXT
  5
115
330
10F
100
AcDbEntity
  8
Default
  6
Continuous
 62
     7
100
AcDbText
 10
241.3764860109
 20
275.2793858486
 30
0.0
 40
3.0
  1
18
 50
90.0
  7
SEACAD_seiso_ttf
 11
238.3764860109
 21
275.2793858486
 31
0.0
100
AcDbText
 73
     3
  0
TEXT
  5
116
330
10F
100
AcDbEntity
  8
Default
  6
Continuous
 62
     7
100
AcDbText
 10
241.3764860109
 20
271.6387744949
 30
0.0
 40
3.0
  1
O
 50
90.0
  7
SEACAD_semeci1_ttf
 11
238.3764860109
 21
271.6387744949
 31
0.0
100
AcDbText
 73
     3
  0
ENDBLK
  5
118
330
10F
100
AcDbEntity
  8
0
100
AcDbBlockEnd
  0
BLOCK
  5
121
330
11A
100
AcDbEntity
  8
0
100
AcDbBlockBegin
  2
DMBLK358
 70
     0
 10
0.0
 20
0.0
 30
0.0
  3
DMBLK358
  1

  0
HATCH
  5
11B
330
11A
100
AcDbEntity
  8
Default
  6
Continuous
 62
     7
100
AcDbHatch
 10
0.0
 20
0.0
 30
0.0
210
0.0
220
0.0
230
1.0
  2
SOLID
 70
     1
 71
     0
 91
        1
 92
        1
 93
        3
 72
     1
 10
84.65040905522106
 20
371.9214198260847
 11
84.65040905522106
 21
370.9214198173923
 72
     1
 10
84.65040905522106
 20
370.9214198173923
 11
87.6504090812981
 21
371.4214198217385
 72
     1
 10
87.6504090812981
 20
371.4214198217385
 11
84.65040905522106
 21
371.9214198260847
 97
        0
 75
     0
 76
     1
 98
        0
  0
HATCH
  5
11C
330
11A
100
AcDbEntity
  8
Default
  6
Continuous
 62
     7
100
AcDbHatch
 10
0.0
 20
0.0
 30
0.0
210
0.0
220
0.0
230
1.0
  2
SOLID
 70
     1
 71
     0
 91
        1
 92
        1
 93
        3
 72
     1
 10
95.85040910737513
 20
371.9214198260847
 11
92.8504090812981
 21
371.4214198217385
 72
     1
 10
92.8504090812981
 20
371.4214198217385
 11
95.85040910737513
 21
370.9214198173923
 72
     1
 10
95.85040910737513
 20
370.9214198173923
 11
95.85040910737513
 21
371.9214198260847
 97
        0
 75
     0
 76
     1
 98
        0
  0
LINE
  5
11D
330
11A
100
AcDbEntity
  8
Default
  6
Continuous
 62
     7
100
AcDbLine
 10
87.6504090813
 20
338.7744359598
 30
0.0
 11
87.6504090813
 21
372.9214198348
 31
0.0
  0
LINE
  5
11E
330
11A
100
AcDbEntity
  8
Default
  6
Continuous
 62
     7
100
AcDbLine
 10
92.8504090813
 20
338.7744359598
 30
0.0
 11
92.8504090813
 21
372.9214198348
 31
0.0
  0
LINE
  5
11F
330
11A
100
AcDbEntity
  8
Default
  6
Continuous
 62
     7
100
AcDbLine
 10
74.6359081206
 20
371.4214198217
 30
0.0
 11
98.8504086819
 21
371.4214198217
 31
0.0
  0
TEXT
  5
120
330
11A
100
AcDbEntity
  8
Default
  6
Continuous
 62
     7
100
AcDbText
 10
75.6859081024
 20
372.1714198217
 30
0.0
 40
3.0
  1
5,2
  7
SEACAD_seiso_ttf
 11
75.6859081024
 21
375.1714198217
 31
0.0
100
AcDbText
 73
     3
  0
ENDBLK
  5
122
330
11A
100
AcDbEntity
  8
0
100
AcDbBlockEnd
  0
BLOCK
  5
12B
330
124
100
AcDbEntity
  8
0
100
AcDbBlockBegin
  2
DMBLK359
 70
     0
 10
0.0
 20
0.0
 30
0.0
  3
DMBLK359
  1

  0
HATCH
  5
125
330
124
100
AcDbEntity
  8
Default
  6
Continuous
 62
     7
100
AcDbHatch
 10
0.0
 20
0.0
 30
0.0
210
0.0
220
0.0
230
1.0
  2
SOLID
 70
     1
 71
     0
 91
        1
 92
        1
 93
        3
 72
     1
 10
84.65040905522106
 20
380.9214194386545
 11
84.65040905522106
 21
379.9214194299621
 72
     1
 10
84.65040905522106
 20
379.9214194299621
 11
87.6504090812981
 21
380.4214194343083
 72
     1
 10
87.6504090812981
 20
380.4214194343083
 11
84.65040905522106
 21
380.9214194386545
 97
        0
 75
     0
 76
     1
 98
        0
  0
HATCH
  5
126
330
124
100
AcDbEntity
  8
Default
  6
Continuous
 62
     7
100
AcDbHatch
 10
0.0
 20
0.0
 30
0.0
210
0.0
220
0.0
230
1.0
  2
SOLID
 70
     1
 71
     0
 91
        1
 92
        1
 93
        3
 72
     1
 10
100.1504091073751
 20
380.9214194386545
 11
97.1504090812981
 21
380.4214194343083
 72
     1
 10
97.1504090812981
 20
380.4214194343083
 11
100.1504091073751
 21
379.9214194299621
 72
     1
 10
100.1504091073751
 20
379.9214194299621
 11
100.1504091073751
 21
380.9214194386545
 97
        0
 75
     0
 76
     1
 98
        0
  0
LINE
  5
127
330
124
100
AcDbEntity
  8
Default
  6
Continuous
 62
     7
100
AcDbLine
 10
87.6504090813
 20
338.7744359598
 30
0.0
 11
87.6504090813
 21
381.9214194473
 31
0.0
  0
LINE
  5
128
330
124
100
AcDbEntity
  8
Default
  6
Continuous
 62
     7
100
AcDbLine
 10
97.1504090813
 20
249.6907671338
 30
0.0
 11
97.1504090813
 21
381.9214194473
 31
0.0
  0
LINE
  5
129
330
124
100
AcDbEntity
  8
Default
  6
Continuous
 62
     7
100
AcDbLine
 10
81.6504090291
 20
380.4214194343
 30
0.0
 11
103.150408828
 21
380.4214194343
 31
0.0
  0
TEXT
  5
12A
330
124
100
AcDbEntity
  8
Default
  6
Continuous
 62
     7
100
AcDbText
 10
90.3549543831
 20
381.1714194343
 30
0.0
 40
3.0
  1
9,5
  7
SEACAD_seiso_ttf
 11
90.3549543831
 21
384.1714194343
 31
0.0
100
AcDbText
 73
     3
  0
ENDBLK
  5
12C
330
124
100
AcDbEntity
  8
0
100
AcDbBlockEnd
  0
BLOCK
  5
136
330
12E
100
AcDbEntity
  8
0
100
AcDbBlockBegin
  2
DMBLK360
 70
     0
 10
0.0
 20
0.0
 30
0.0
  3
DMBLK360
  1

  0
HATCH
  5
12F
330
12E
100
AcDbEntity
  8
Default
  6
Continuous
 62
     7
100
AcDbHatch
 10
0.0
 20
0.0
 30
0.0
210
0.0
220
0.0
230
1.0
  2
SOLID
 70
     1
 71
     0
 91
        1
 92
        1
 93
        3
 72
     1
 10
244.4488272487463
 20
337.5244359337383
 11
243.9488272444001
 21
340.5244359598153
 72
     1
 10
243.9488272444001
 20
340.5244359598153
 11
243.4488272400539
 21
337.5244359337383
 72
     1
 10
243.4488272400539
 20
337.5244359337383
 11
244.4488272487463
 21
337.5244359337383
 97
        0
 75
     0
 76
     1
 98
        0
  0
HATCH
  5
130
330
12E
100
AcDbEntity
  8
Default
  6
Continuous
 62
     7
100
AcDbHatch
 10
0.0
 20
0.0
 30
0.0
210
0.0
220
0.0
230
1.0
  2
SOLID
 70
     1
 71
     0
 91
        1
 92
        1
 93
        3
 72
     1
 10
244.4488272487463
 20
350.0244359858923
 11
243.4488272400539
 21
350.0244359858923
 72
     1
 10
243.4488272400539
 20
350.0244359858923
 11
243.9488272444001
 21
347.0244359598153
 72
     1
 10
243.9488272444001
 20
347.0244359598153
 11
244.4488272487463
 21
350.0244359858923
 97
        0
 75
     0
 76
     1
 98
        0
  0
LINE
  5
131
330
12E
100
AcDbEntity
  8
Default
  6
Continuous
 62
     7
100
AcDbLine
 10
205.1751042978
 20
340.5244359598
 30
0.0
 11
245.4488272574
 21
340.5244359598
 31
0.0
  0
LINE
  5
132
330
12E
100
AcDbEntity
  8
Default
  6
Continuous
 62
     7
100
AcDbLine
 10
205.1751042978
 20
347.0244359598
 30
0.0
 11
245.4488272574
 21
347.0244359598
 31
0.0
  0
LINE
  5
133
330
12E
100
AcDbEntity
  8
Default
  6
Continuous
 62
     7
100
AcDbLine
 10
243.9488272444
 20
334.5244359077
 30
0.0
 11
243.9488272444
 21
360.0853411332
 31
0.0
  0
TEXT
  5
134
330
12E
100
AcDbEntity
  8
Default
  6
Continuous
 62
     7
100
AcDbText
 10
243.1988272444
 20
354.9444308269
 30
0.0
 40
3.0
  1
6,5
 50
90.0
  7
SEACAD_seiso_ttf
 11
240.1988272444
 21
354.9444308269
 31
0.0
100
AcDbText
 73
     3
  0
TEXT
  5
135
330
12E
100
AcDbEntity
  8
Default
  6
Continuous
 62
     7
100
AcDbText
 10
243.1988272444
 20
351.3038194731
 30
0.0
 40
3.0
  1
O
 50
90.0
  7
SEACAD_semeci1_ttf
 11
240.1988272444
 21
351.3038194731
 31
0.0
100
AcDbText
 73
     3
  0
ENDBLK
  5
137
330
12E
100
AcDbEntity
  8
0
100
AcDbBlockEnd
  0
BLOCK
  5
141
330
139
100
AcDbEntity
  8
0
100
AcDbBlockBegin
  2
DMBLK361
 70
     0
 10
0.0
 20
0.0
 30
0.0
  3
DMBLK361
  1

  0
HATCH
  5
13A
330
139
100
AcDbEntity
  8
Default
  6
Continuous
 62
     7
100
AcDbHatch
 10
0.0
 20
0.0
 30
0.0
210
0.0
220
0.0
230
1.0
  2
SOLID
 70
     1
 71
     0
 91
        1
 92
        1
 93
        3
 72
     1
 10
255.0402112721742
 20
335.0244359337383
 11
254.5402112678281
 21
338.0244359598153
 72
     1
 10
254.5402112678281
 20
338.0244359598153
 11
254.0402112634819
 21
335.0244359337383
 72
     1
 10
254.0402112634819
 20
335.0244359337383
 11
255.0402112721742
 21
335.0244359337383
 97
        0
 75
     0
 76
     1
 98
        0
  0
HATCH
  5
13B
330
139
100
AcDbEntity
  8
Default
  6
Continuous
 62
     7
100
AcDbHatch
 10
0.0
 20
0.0
 30
0.0
210
0.0
220
0.0
230
1.0
  2
SOLID
 70
     1
 71
     0
 91
        1
 92
        1
 93
        3
 72
     1
 10
255.0402112721742
 20
352.5244359858923
 11
254.0402112634819
 21
352.5244359858923
 72
     1
 10
254.0402112634819
 20
352.5244359858923
 11
254.5402112678281
 21
349.5244359598153
 72
     1
 10
254.5402112678281
 20
349.5244359598153
 11
255.0402112721742
 21
352.5244359858923
 97
        0
 75
     0
 76
     1
 98
        0
  0
LINE
  5
13C
330
139
100
AcDbEntity
  8
Default
  6
Continuous
 62
     7
100
AcDbLine
 10
205.1751042978
 20
338.0244359598
 30
0.0
 11
256.0402112809
 21
338.0244359598
 31
0.0
  0
LINE
  5
13D
330
139
100
AcDbEntity
  8
Default
  6
Continuous
 62
     7
100
AcDbLine
 10
205.1751042978
 20
349.5244359598
 30
0.0
 11
256.0402112809
 21
349.5244359598
 31
0.0
  0
LINE
  5
13E
330
139
100
AcDbEntity
  8
Default
  6
Continuous
 62
     7
100
AcDbLine
 10
254.5402112678
 20
332.0244359077
 30
0.0
 11
254.5402112678
 21
355.5244360343
 31
0.0
  0
TEXT
  5
13F
330
139
100
AcDbEntity
  8
Default
  6
Continuous
 62
     7
100
AcDbText
 10
253.7902112678
 20
343.2424689206
 30
0.0
 40
3.0
  1
11,5
 50
90.0
  7
SEACAD_seiso_ttf
 11
250.7902112678
 21
343.2424689206
 31
0.0
100
AcDbText
 73
     3
  0
TEXT
  5
140
330
139
100
AcDbEntity
  8
Default
  6
Continuous
 62
     7
100
AcDbText
 10
253.7902112678
 20
339.6018575669
 30
0.0
 40
3.0
  1
O
 50
90.0
  7
SEACAD_semeci1_ttf
 11
250.7902112678
 21
339.6018575669
 31
0.0
100
AcDbText
 73
     3
  0
ENDBLK
  5
142
330
139
100
AcDbEntity
  8
0
100
AcDbBlockEnd
  0
BLOCK
  5
14B
330
144
100
AcDbEntity
  8
0
100
AcDbBlockBegin
  2
DMBLK362
 70
     0
 10
0.0
 20
0.0
 30
0.0
  3
DMBLK362
  1

  0
HATCH
  5
145
330
144
100
AcDbEntity
  8
Default
  6
Continuous
 62
     7
100
AcDbHatch
 10
0.0
 20
0.0
 30
0.0
210
0.0
220
0.0
230
1.0
  2
SOLID
 70
     1
 71
     0
 91
        1
 92
        1
 93
        3
 72
     1
 10
151.4626665146988
 20
361.7744359337382
 11
152.4626665233911
 21
361.7744359337382
 72
     1
 10
152.4626665233911
 20
361.7744359337382
 11
151.9626665190449
 21
364.7744359598153
 72
     1
 10
151.9626665190449
 20
364.7744359598153
 11
151.4626665146988
 21
361.7744359337382
 97
        0
 75
     0
 76
     1
 98
        0
  0
HATCH
  5
146
330
144
100
AcDbEntity
  8
Default
  6
Continuous
 62
     7
100
AcDbHatch
 10
0.0
 20
0.0
 30
0.0
210
0.0
220
0.0
230
1.0
  2
SOLID
 70
     1
 71
     0
 91
        1
 92
        1
 93
        3
 72
     1
 10
151.4626665146988
 20
87.77443479379943
 11
151.9626665190449
 21
84.7744347677224
 72
     1
 10
151.9626665190449
 20
84.7744347677224
 11
152.4626665233911
 21
87.77443479379943
 72
     1
 10
152.4626665233911
 20
87.77443479379943
 11
151.4626665146988
 21
87.77443479379943
 97
        0
 75
     0
 76
     1
 98
        0
  0
LINE
  5
147
330
144
100
AcDbEntity
  8
Default
  6
Continuous
 62
     7
100
AcDbLine
 10
205.1751042978
 20
364.7744359598
 30
0.0
 11
150.462666506
 21
364.7744359598
 31
0.0
  0
LINE
  5
148
330
144
100
AcDbEntity
  8
Default
  6
Continuous
 62
     7
100
AcDbLine
 10
205.1751042978
 20
84.7744359598
 30
0.0
 11
150.462666506
 21
84.7744359598
 31
0.0
  0
LINE
  5
149
330
144
100
AcDbEntity
  8
Default
  6
Continuous
 62
     7
100
AcDbLine
 10
151.962666519
 20
364.7744359598
 30
0.0
 11
151.962666519
 21
84.7744347677
 31
0.0
  0
TEXT
  5
14A
330
144
100
AcDbEntity
  8
Default
  6
Continuous
 62
     7
100
AcDbText
 10
151.212666519
 20
222.0130717274
 30
0.0
 40
3.0
  1
280
 50
90.0
  7
SEACAD_seiso_ttf
 11
148.212666519
 21
222.0130717274
 31
0.0
100
AcDbText
 73
     3
  0
ENDBLK
  5
14C
330
144
100
AcDbEntity
  8
0
100
AcDbBlockEnd
  0
ENDSEC
  0
SECTION
  2
ENTITIES
  0
INSERT
  5
5F
330
1F
100
AcDbEntity
  8
Default
100
AcDbBlockReference
  2
SEANNOT_GROUP
 10
0.0
 20
0.0
 30
0.0
  0
INSERT
  5
66
330
1F
100
AcDbEntity
  8
Default
100
AcDbBlockReference
  2
SEANNOT_GROUP1
 10
0.0
 20
0.0
 30
0.0
  0
INSERT
  5
70
330
1F
100
AcDbEntity
  8
Default
100
AcDbBlockReference
  2
SEANNOT_GROUP2
 10
0.0
 20
0.0
 30
0.0
  0
INSERT
  5
76
330
1F
100
AcDbEntity
  8
Default
100
AcDbBlockReference
  2
SEANNOT_GROUP3
 10
0.0
 20
0.0
 30
0.0
  0
INSERT
  5
80
330
1F
100
AcDbEntity
  8
Default
100
AcDbBlockReference
  2
SEANNOT_GROUP4
 10
0.0
 20
0.0
 30
0.0
  0
INSERT
  5
86
330
1F
100
AcDbEntity
  8
Default
100
AcDbBlockReference
  2
SEANNOT_GROUP5
 10
0.0
 20
0.0
 30
0.0
  0
INSERT
  5
8B
330
1F
100
AcDbEntity
  8
Default
100
AcDbBlockReference
  2
SE
 10
0.0
 20
0.0
 30
0.0
  0
INSERT
  5
AD
330
1F
100
AcDbEntity
  8
Default
100
AcDbBlockReference
  2
SE1
 10
0.0
 20
0.0
 30
0.0
  0
DIMENSION
  5
DB
330
1F
100
AcDbEntity
  8
Default
  6
Continuous
 62
     7
100
AcDbDimension
  2
DMBLK352
 10
179.1751042978
 20
384.1961964891
 30
0.0
 11
205.1751048342
 21
384.1961964891
 31
0.0
 70
   161
  1
\A1;<>
 71
     5
 42
-1.0
  3
DIN
100
AcDbAlignedDimension
 13
179.1751042978
 23
338.7744359598
 33
0.0
 14
231.1751042978
 24
338.7744359598
 34
0.0
  0
DIMENSION
  5
E5
330
1F
100
AcDbEntity
  8
Default
  6
Continuous
 62
     7
100
AcDbDimension
  2
DMBLK353
 10
250.1941870228
 20
259.7744359598
 30
0.0
 11
250.1941870228
 21
220.7744351552
 31
0.0
 70
   161
  1
\A1;<>
 71
     5
 42
-1.0
  3
DIN
100
AcDbAlignedDimension
 13
205.1751042978
 23
259.7744359598
 33
0.0
 14
205.1751042978
 24
181.7744359598
 34
0.0
  0
DIMENSION
  5
EF
330
1F
100
AcDbEntity
  8
Default
  6
Continuous
 62
     7
100
AcDbDimension
  2
DMBLK354
 10
171.2581466213
 20
343.7744359598
 30
0.0
 11
171.2581466213
 21
301.7744365261
 31
0.0
 70
   161
  1
\A1;<>
 71
     5
 42
-1.0
  3
DIN
100
AcDbAlignedDimension
 13
205.1751042978
 23
343.7744359598
 33
0.0
 14
205.1751042978
 24
259.7744359598
 34
0.0
  0
DIMENSION
  5
F9
330
1F
100
AcDbEntity
  8
Default
  6
Continuous
 62
     7
100
AcDbDimension
  2
DMBLK355
 10
171.2581466213
 20
259.7744359598
 30
0.0
 11
171.2581466213
 21
248.7744360194
 31
0.0
 70
   161
  1
\A1;<>
 71
     5
 42
-1.0
  3
DIN
100
AcDbAlignedDimension
 13
205.1751042978
 23
259.7744359598
 33
0.0
 14
205.1751042978
 24
237.7744359598
 34
0.0
  0
DIMENSION
  5
103
330
1F
100
AcDbEntity
  8
Default
  6
Continuous
 62
     7
100
AcDbDimension
  2
DMBLK356
 10
162.2581470088
 20
259.7744359598
 30
0.0
 11
162.2581470088
 21
182.774436377
 31
0.0
 70
   161
  1
\A1;<>
 71
     5
 42
-1.0
  3
DIN
100
AcDbAlignedDimension
 13
205.1751042978
 23
259.7744359598
 33
0.0
 14
205.1751042978
 24
105.7744359598
 34
0.0
  0
DIMENSION
  5
10D
330
1F
100
AcDbEntity
  8
Default
  6
Continuous
 62
     7
100
AcDbDimension
  2
DMBLK357
 10
242.1264860902
 20
268.774437575
 30
0.0
 11
242.1264860109
 21
270.5887744949
 31
0.0
 70
   161
  1
\A1;%%C <>
 71
     5
 42
-1.0
  3
DIN
100
AcDbAlignedDimension
 13
205.1751046912
 23
250.7744359598
 33
0.0
 14
205.1751039044
 24
268.7744359598
 34
0.0
1001
ACAD
1000
DSTYLE
1002
{
1070
    73
1070
     1
1070
    74
1070
     1
1070
    77
1070
     0
1070
     0
1002
}
  0
DIMENSION
  5
119
330
1F
100
AcDbEntity
  8
Default
  6
Continuous
 62
     7
100
AcDbDimension
  2
DMBLK358
 10
87.6504090813
 20
371.4214198217
 30
0.0
 11
80.8268171933
 21
371.4214198217
 31
0.0
 70
   161
  1
\A1;<>
 71
     5
 42
-1.0
  3
DIN
100
AcDbAlignedDimension
 13
87.6504090813
 23
338.7744359598
 33
0.0
 14
92.8504090813
 24
338.7744359598
 34
0.0
  0
DIMENSION
  5
123
330
1F
100
AcDbEntity
  8
Default
  6
Continuous
 62
     7
100
AcDbDimension
  2
DMBLK359
 10
97.1504090813
 20
380.4214194343
 30
0.0
 11
92.4004089286
 21
380.4214194343
 31
0.0
 70
   160
  1
\A1;<>
 71
     5
 42
-1.0
  3
DIN
100
AcDbAlignedDimension
 13
87.6504090813
 23
338.7744359598
 33
0.0
 14
97.1504090813
 24
249.6907671338
 34
0.0
100
AcDbRotatedDimension
  0
DIMENSION
  5
12D
330
1F
100
AcDbEntity
  8
Default
  6
Continuous
 62
     7
100
AcDbDimension
  2
DMBLK360
 10
243.9488273856
 20
347.0244376547
 30
0.0
 11
243.9488272444
 21
350.2538194731
 31
0.0
 70
   161
  1
\A1;%%C <>
 71
     5
 42
-1.0
  3
DIN
100
AcDbAlignedDimension
 13
205.1751044398
 23
340.5244359598
 33
0.0
 14
205.1751041557
 24
347.0244359598
 34
0.0
1001
ACAD
1000
DSTYLE
1002
{
1070
    73
1070
     1
1070
    74
1070
     1
1070
    77
1070
     0
1070
     0
1002
}
  0
DIMENSION
  5
138
330
1F
100
AcDbEntity
  8
Default
  6
Continuous
 62
     7
100
AcDbDimension
  2
DMBLK361
 10
254.5402110165
 20
349.5244381176
 30
0.0
 11
254.5402112678
 21
343.774435971
 31
0.0
 70
   161
  1
\A1;%%C <>
 71
     5
 42
-1.0
  3
DIN
100
AcDbAlignedDimension
 13
205.1751045491
 23
338.0244359598
 33
0.0
 14
205.1751040464
 24
349.5244359598
 34
0.0
1001
ACAD
1000
DSTYLE
1002
{
1070
    73
1070
     1
1070
    74
1070
     1
1070
    77
1070
     0
1070
     0
1002
}
  0
DIMENSION
  5
143
330
1F
100
AcDbEntity
  8
Default
  6
Continuous
 62
     7
100
AcDbDimension
  2
DMBLK362
 10
151.962666519
 20
364.7744359598
 30
0.0
 11
151.962666519
 21
224.7744353638
 31
0.0
 70
   161
  1
\A1;<>
 71
     5
 42
-1.0
  3
DIN
100
AcDbAlignedDimension
 13
205.1751042978
 23
364.7744359598
 33
0.0
 14
205.1751042978
 24
84.7744359598
 34
0.0
  0
ENDSEC
  0
SECTION
  2
OBJECTS
  0
DICTIONARY
  5
C
330
0
100
AcDbDictionary
281
     1
  3
ACAD_GROUP
350
D
  3
ACAD_LAYOUT
350
1A
  3
ACAD_MLEADERSTYLE
350
150
  3
ACAD_MLINESTYLE
350
17
  3
ACAD_PLOTSETTINGS
350
19
  3
ACAD_PLOTSTYLENAME
350
E
  3
ACAD_SCALELIST
350
3B
  3
ACAD_TABLESTYLE
350
14F
  3
ACAD_VISUALSTYLE
350
2A
  3
AcDbVariableDictionary
350
14D
  0
DICTIONARY
  5
D
102
{ACAD_REACTORS
330
C
102
}
330
C
100
AcDbDictionary
281
     1
  0
DICTIONARY
  5
1A
102
{ACAD_REACTORS
330
C
102
}
330
C
100
AcDbDictionary
281
     1
  3
Layout1
350
1E
  3
Model
350
22
  0
DICTIONARY
  5
150
102
{ACAD_REACTORS
330
C
102
}
330
C
100
AcDbDictionary
281
     1
  0
DICTIONARY
  5
17
102
{ACAD_REACTORS
330
C
102
}
330
C
100
AcDbDictionary
281
     1
  3
Standard
350
18
  0
DICTIONARY
  5
19
102
{ACAD_REACTORS
330
C
102
}
330
C
100
AcDbDictionary
281
     1
  0
ACDBDICTIONARYWDFLT
  5
E
102
{ACAD_REACTORS
330
C
102
}
330
C
100
AcDbDictionary
281
     1
  3
Normal
350
F
100
AcDbDictionaryWithDefault
340
F
  0
DICTIONARY
  5
3B
102
{ACAD_REACTORS
330
C
102
}
330
C
100
AcDbDictionary
281
     1
  3
A0
350
3C
  3
A1
350
3D
  3
A2
350
3E
  3
A3
350
3F
  3
A4
350
40
  3
A5
350
41
  3
A6
350
42
  3
A7
350
43
  3
A8
350
44
  3
A9
350
45
  3
B0
350
46
  3
B1
350
47
  3
B2
350
48
  3
B3
350
49
  3
B4
350
4A
  3
B5
350
4B
  3
B6
350
4C
  3
B7
350
4D
  3
B8
350
4E
  3
B9
350
4F
  3
C0
350
50
  3
C1
350
51
  3
C2
350
52
  3
C3
350
53
  3
C4
350
54
  3
C5
350
55
  3
C6
350
56
  3
C7
350
57
  3
C8
350
58
  3
C9
350
59
  3
D0
350
5A
  3
D1
350
5B
  3
D2
350
5C
  0
DICTIONARY
  5
14F
102
{ACAD_REACTORS
330
C
102
}
330
C
100
AcDbDictionary
281
     1
  0
DICTIONARY
  5
2A
102
{ACAD_REACTORS
330
C
102
}
330
C
100
AcDbDictionary
281
     1
  3
2dWireframe
350
2F
  3
3D Hidden
350
31
  3
3dWireframe
350
30
  3
Basic
350
32
  3
Brighten
350
36
  3
ColorChange
350
3A
  3
Conceptual
350
34
  3
Dim
350
35
  3
Facepattern
350
39
  3
Flat
350
2B
  3
FlatWithEdges
350
2C
  3
Gouraud
350
2D
  3
GouraudWithEdges
350
2E
  3
Linepattern
350
38
  3
Realistic
350
33
  3
Thicken
350
37
  0
DICTIONARY
  5
14D
102
{ACAD_REACTORS
330
C
102
}
330
C
100
AcDbDictionary
281
     1
  3
CANNOSCALE
350
14E
  3
PSOLHEIGHT
350
152
  3
PSOLWIDTH
350
151
  0
LAYOUT
  5
1E
102
{ACAD_REACTORS
330
1A
102
}
330
1A
100
AcDbPlotSettings
  1

  2
none_device
  4

  6

 40
0.0
 41
0.0
 42
0.0
 43
0.0
 44
0.0
 45
0.0
 46
0.0
 47
0.0
 48
0.0
 49
0.0
140
0.0
141
0.0
142
1.0
143
1.0
 70
   688
 72
     0
 73
     0
 74
     5
  7

 75
    16
147
1.0
148
0.0
149
0.0
100
AcDbLayout
  1
Layout1
 70
     1
 71
     1
 10
0.0
 20
0.0
 11
297.0
 21
420.0
 12
0.0
 22
0.0
 32
0.0
 14
0.0
 24
0.0
 34
0.0
 15
297.0
 25
420.0
 35
0.0
146
0.0
 13
0.0
 23
0.0
 33
0.0
 16
1.0
 26
0.0
 36
0.0
 17
0.0
 27
1.0
 37
0.0
 76
     0
330
1B
  0
LAYOUT
  5
22
102
{ACAD_REACTORS
330
1A
102
}
330
1A
100
AcDbPlotSettings
  1

  2
none_device
  4

  6

 40
0.0
 41
0.0
 42
0.0
 43
0.0
 44
0.0
 45
0.0
 46
0.0
 47
0.0
 48
0.0
 49
0.0
140
0.0
141
0.0
142
1.0
143
1.0
 70
  1712
 72
     0
 73
     0
 74
     0
  7

 75
     0
147
1.0
148
0.0
149
0.0
100
AcDbLayout
  1
Model
 70
     1
 71
     0
 10
0.0
 20
0.0
 11
297.0
 21
420.0
 12
0.0
 22
0.0
 32
0.0
 14
0.0
 24
0.0
 34
0.0
 15
297.0
 25
420.0
 35
0.0
146
0.0
 13
0.0
 23
0.0
 33
0.0
 16
1.0
 26
0.0
 36
0.0
 17
0.0
 27
1.0
 37
0.0
 76
     0
330
1F
331
29
  0
MLINESTYLE
  5
18
102
{ACAD_REACTORS
330
17
102
}
330
17
100
AcDbMlineStyle
  2
Standard
 70
     0
  3

 62
   256
 51
90.0
 52
90.0
 71
     2
 49
0.5
 62
   256
  6
BYLAYER
 49
-0.5
 62
   256
  6
BYLAYER
  0
ACDBPLACEHOLDER
  5
F
102
{ACAD_REACTORS
330
E
102
}
330
E
  0
SCALE
  5
3C
102
{ACAD_REACTORS
330
3B
102
}
330
3B
100
AcDbScale
 70
     0
300
1:1
140
1.0
141
1.0
290
     1
  0
SCALE
  5
3D
102
{ACAD_REACTORS
330
3B
102
}
330
3B
100
AcDbScale
 70
     0
300
1:2
140
1.0
141
2.0
290
     0
  0
SCALE
  5
3E
102
{ACAD_REACTORS
330
3B
102
}
330
3B
100
AcDbScale
 70
     0
300
1:4
140
1.0
141
4.0
290
     0
  0
SCALE
  5
3F
102
{ACAD_REACTORS
330
3B
102
}
330
3B
100
AcDbScale
 70
     0
300
1:5
140
1.0
141
5.0
290
     0
  0
SCALE
  5
40
102
{ACAD_REACTORS
330
3B
102
}
330
3B
100
AcDbScale
 70
     0
300
1:8
140
1.0
141
8.0
290
     0
  0
SCALE
  5
41
102
{ACAD_REACTORS
330
3B
102
}
330
3B
100
AcDbScale
 70
     0
300
1:10
140
1.0
141
10.0
290
     0
  0
SCALE
  5
42
102
{ACAD_REACTORS
330
3B
102
}
330
3B
100
AcDbScale
 70
     0
300
1:16
140
1.0
141
16.0
290
     0
  0
SCALE
  5
43
102
{ACAD_REACTORS
330
3B
102
}
330
3B
100
AcDbScale
 70
     0
300
1:20
140
1.0
141
20.0
290
     0
  0
SCALE
  5
44
102
{ACAD_REACTORS
330
3B
102
}
330
3B
100
AcDbScale
 70
     0
300
1:30
140
1.0
141
30.0
290
     0
  0
SCALE
  5
45
102
{ACAD_REACTORS
330
3B
102
}
330
3B
100
AcDbScale
 70
     0
300
1:40
140
1.0
141
40.0
290
     0
  0
SCALE
  5
46
102
{ACAD_REACTORS
330
3B
102
}
330
3B
100
AcDbScale
 70
     0
300
1:50
140
1.0
141
50.0
290
     0
  0
SCALE
  5
47
102
{ACAD_REACTORS
330
3B
102
}
330
3B
100
AcDbScale
 70
     0
300
1:100
140
1.0
141
100.0
290
     0
  0
SCALE
  5
48
102
{ACAD_REACTORS
330
3B
102
}
330
3B
100
AcDbScale
 70
     0
300
2:1
140
2.0
141
1.0
290
     0
  0
SCALE
  5
49
102
{ACAD_REACTORS
330
3B
102
}
330
3B
100
AcDbScale
 70
     0
300
4:1
140
4.0
141
1.0
290
     0
  0
SCALE
  5
4A
102
{ACAD_REACTORS
330
3B
102
}
330
3B
100
AcDbScale
 70
     0
300
8:1
140
8.0
141
1.0
290
     0
  0
SCALE
  5
4B
102
{ACAD_REACTORS
330
3B
102
}
330
3B
100
AcDbScale
 70
     0
300
10:1
140
10.0
141
1.0
290
     0
  0
SCALE
  5
4C
102
{ACAD_REACTORS
330
3B
102
}
330
3B
100
AcDbScale
 70
     0
300
100:1
140
100.0
141
1.0
290
     0
  0
SCALE
  5
4D
102
{ACAD_REACTORS
330
3B
102
}
330
3B
100
AcDbScale
 70
     0
300
1/128" = 1'-0"
140
0.0078125
141
12.0
290
     0
  0
SCALE
  5
4E
102
{ACAD_REACTORS
330
3B
102
}
330
3B
100
AcDbScale
 70
     0
300
1/64" = 1'-0"
140
0.015625
141
12.0
290
     0
  0
SCALE
  5
4F
102
{ACAD_REACTORS
330
3B
102
}
330
3B
100
AcDbScale
 70
     0
300
1/32" = 1'-0"
140
0.03125
141
12.0
290
     0
  0
SCALE
  5
50
102
{ACAD_REACTORS
330
3B
102
}
330
3B
100
AcDbScale
 70
     0
300
1/16" = 1'-0"
140
0.0625
141
12.0
290
     0
  0
SCALE
  5
51
102
{ACAD_REACTORS
330
3B
102
}
330
3B
100
AcDbScale
 70
     0
300
3/32" = 1'-0"
140
0.09375
141
12.0
290
     0
  0
SCALE
  5
52
102
{ACAD_REACTORS
330
3B
102
}
330
3B
100
AcDbScale
 70
     0
300
1/8" = 1'-0"
140
0.125
141
12.0
290
     0
  0
SCALE
  5
53
102
{ACAD_REACTORS
330
3B
102
}
330
3B
100
AcDbScale
 70
     0
300
3/16" = 1'-0"
140
0.1875
141
12.0
290
     0
  0
SCALE
  5
54
102
{ACAD_REACTORS
330
3B
102
}
330
3B
100
AcDbScale
 70
     0
300
1/4" = 1'-0"
140
0.25
141
12.0
290
     0
  0
SCALE
  5
55
102
{ACAD_REACTORS
330
3B
102
}
330
3B
100
AcDbScale
 70
     0
300
3/8" = 1'-0"
140
0.375
141
12.0
290
     0
  0
SCALE
  5
56
102
{ACAD_REACTORS
330
3B
102
}
330
3B
100
AcDbScale
 70
     0
300
1/2" = 1'-0"
140
0.5
141
12.0
290
     0
  0
SCALE
  5
57
102
{ACAD_REACTORS
330
3B
102
}
330
3B
100
AcDbScale
 70
     0
300
3/4" = 1'-0"
140
0.75
141
12.0
290
     0
  0
SCALE
  5
58
102
{ACAD_REACTORS
330
3B
102
}
330
3B
100
AcDbScale
 70
     0
300
1" = 1'-0"
140
1.0
141
12.0
290
     0
  0
SCALE
  5
59
102
{ACAD_REACTORS
330
3B
102
}
330
3B
100
AcDbScale
 70
     0
300
1-1/2" = 1'-0"
140
1.5
141
12.0
290
     0
  0
SCALE
  5
5A
102
{ACAD_REACTORS
330
3B
102
}
330
3B
100
AcDbScale
 70
     0
300
3" = 1'-0"
140
3.0
141
12.0
290
     0
  0
SCALE
  5
5B
102
{ACAD_REACTORS
330
3B
102
}
330
3B
100
AcDbScale
 70
     0
300
6" = 1'-0"
140
6.0
141
12.0
290
     0
  0
SCALE
  5
5C
102
{ACAD_REACTORS
330
3B
102
}
330
3B
100
AcDbScale
 70
     0
300
1'-0" = 1'-0"
140
12.0
141
12.0
290
     0
  0
VISUALSTYLE
  5
2F
102
{ACAD_REACTORS
330
2A
102
}
330
2A
100
AcDbVisualStyle
  2
2dWireframe
 70
     4
 71
     0
 72
     2
 73
     0
 90
        0
 40
-0.6
 41
-30.0
 62
     5
 63
     7
 74
     1
 91
        4
 64
     7
 65
   257
 75
     1
175
     1
 42
1.0
 92
        0
 66
   257
 43
1.0
 76
     1
 77
     6
 78
     2
 67
     7
 79
     5
170
     0
171
     0
290
     0
174
     0
 93
        1
 44
0.0
173
     0
291
     0
 45
0.0
1001
ACAD
1000
AcDbSavedByObjectVersion
1070
     0
  0
VISUALSTYLE
  5
31
102
{ACAD_REACTORS
330
2A
102
}
330
2A
100
AcDbVisualStyle
  2
3D Hidden
 70
     6
 71
     1
 72
     2
 73
     2
 90
        0
 40
-0.6
 41
-30.0
 62
     5
 63
     7
 74
     2
 91
        2
 64
     7
 65
   257
 75
     2
175
     1
 42
40.0
 92
        0
 66
   257
 43
1.0
 76
     1
 77
     6
 78
     2
 67
     7
 79
     3
170
     0
171
     0
290
     0
174
     0
 93
        1
 44
0.0
173
     0
291
     0
 45
0.0
1001
ACAD
1000
AcDbSavedByObjectVersion
1070
     0
  0
VISUALSTYLE
  5
30
102
{ACAD_REACTORS
330
2A
102
}
330
2A
100
AcDbVisualStyle
  2
3dWireframe
 70
     5
 71
     0
 72
     2
 73
     0
 90
        0
 40
-0.6
 41
-30.0
 62
     5
 63
     7
 74
     1
 91
        4
 64
     7
 65
   257
 75
     1
175
     1
 42
1.0
 92
        0
 66
   257
 43
1.0
 76
     1
 77
     6
 78
     2
 67
     7
 79
     5
170
     0
171
     0
290
     0
174
     0
 93
        1
 44
0.0
173
     0
291
     0
 45
0.0
1001
ACAD
1000
AcDbSavedByObjectVersion
1070
     0
  0
VISUALSTYLE
  5
32
102
{ACAD_REACTORS
330
2A
102
}
330
2A
100
AcDbVisualStyle
  2
Basic
 70
     7
 71
     1
 72
     0
 73
     1
 90
        0
 40
-0.6
 41
-30.0
 62
     5
 63
     7
 74
     0
 91
        4
 64
     7
 65
   257
 75
     1
175
     1
 42
1.0
 92
        8
 66
     7
 43
1.0
 76
     1
 77
     6
 78
     2
 67
     7
 79
     5
170
     0
171
     0
290
     0
174
     0
 93
        1
 44
0.0
173
     0
291
     1
 45
0.0
1001
ACAD
1000
AcDbSavedByObjectVersion
1070
     0
  0
VISUALSTYLE
  5
36
102
{ACAD_REACTORS
330
2A
102
}
330
2A
100
AcDbVisualStyle
  2
Brighten
 70
    12
 71
     2
 72
     2
 73
     0
 90
        0
 40
-0.6
 41
-30.0
 62
     5
 63
     7
 74
     1
 91
        4
 64
     7
 65
   257
 75
     1
175
     1
 42
1.0
 92
        8
 66
     7
 43
1.0
 76
     1
 77
     6
 78
     2
 67
     7
 79
     5
170
     0
171
     0
290
     0
174
     0
 93
        1
 44
50.0
173
     0
291
     1
 45
0.0
1001
ACAD
1000
AcDbSavedByObjectVersion
1070
     0
  0
VISUALSTYLE
  5
3A
102
{ACAD_REACTORS
330
2A
102
}
330
2A
100
AcDbVisualStyle
  2
ColorChange
 70
    16
 71
     2
 72
     2
 73
     3
 90
        0
 40
-0.6
 41
-30.0
 62
     5
 63
     8
 74
     1
 91
        4
 64
     7
 65
   257
 75
     1
175
     1
 42
1.0
 92
        8
 66
     8
 43
1.0
 76
     1
 77
     6
 78
     2
 67
     7
 79
     5
170
     0
171
     0
290
     0
174
     0
 93
        1
 44
0.0
173
     0
291
     1
 45
0.0
1001
ACAD
1000
AcDbSavedByObjectVersion
1070
     0
  0
VISUALSTYLE
  5
34
102
{ACAD_REACTORS
330
2A
102
}
330
2A
100
AcDbVisualStyle
  2
Conceptual
 70
     9
 71
     3
 72
     2
 73
     0
 90
        0
 40
-0.6
 41
-30.0
 62
     5
 63
     7
 74
     2
 91
        2
 64
     7
 65
   257
 75
     1
175
     1
 42
40.0
 92
        8
 66
     7
 43
1.0
 76
     1
 77
     6
 78
     2
 67
     7
 79
     3
170
     0
171
     0
290
     0
174
     0
 93
        1
 44
0.0
173
     0
291
     0
 45
0.0
1001
ACAD
1000
AcDbSavedByObjectVersion
1070
     0
  0
VISUALSTYLE
  5
35
102
{ACAD_REACTORS
330
2A
102
}
330
2A
100
AcDbVisualStyle
  2
Dim
 70
    11
 71
     2
 72
     2
 73
     0
 90
        0
 40
-0.6
 41
-30.0
 62
     5
 63
     7
 74
     1
 91
        4
 64
     7
 65
   257
 75
     1
175
     1
 42
1.0
 92
        8
 66
     7
 43
1.0
 76
     1
 77
     6
 78
     2
 67
     7
 79
     5
170
     0
171
     0
290
     0
174
     0
 93
        1
 44
-50.0
173
     0
291
     1
 45
0.0
1001
ACAD
1000
AcDbSavedByObjectVersion
1070
     0
  0
VISUALSTYLE
  5
39
102
{ACAD_REACTORS
330
2A
102
}
330
2A
100
AcDbVisualStyle
  2
Facepattern
 70
    15
 71
     2
 72
     2
 73
     0
 90
        0
 40
-0.6
 41
-30.0
 62
     5
 63
     7
 74
     1
 91
        4
 64
     7
 65
   257
 75
     1
175
     1
 42
1.0
 92
        8
 66
     7
 43
1.0
 76
     1
 77
     6
 78
     2
 67
     7
 79
     5
170
     0
171
     0
290
     0
174
     0
 93
        1
 44
0.0
173
     0
291
     1
 45
0.0
1001
ACAD
1000
AcDbSavedByObjectVersion
1070
     0
  0
VISUALSTYLE
  5
2B
102
{ACAD_REACTORS
330
2A
102
}
330
2A
100
AcDbVisualStyle
  2
Flat
 70
     0
 71
     2
 72
     1
 73
     1
 90
        2
 40
-0.6
 41
30.0
 62
     5
 63
     7
 74
     0
 91
        4
 64
     7
 65
   257
 75
     1
175
     1
 42
1.0
 92
        8
 66
     7
 43
1.0
 76
     1
 77
     6
 78
     2
 67
     7
 79
     5
170
     0
171
     0
290
     0
174
     0
 93
       13
 44
0.0
173
     0
291
     1
 45
0.0
1001
ACAD
1000
AcDbSavedByObjectVersion
1070
     0
  0
VISUALSTYLE
  5
2C
102
{ACAD_REACTORS
330
2A
102
}
330
2A
100
AcDbVisualStyle
  2
FlatWithEdges
 70
     1
 71
     2
 72
     1
 73
     1
 90
        2
 40
-0.6
 41
30.0
 62
     5
 63
     7
 74
     1
 91
        4
 64
     7
 65
   257
 75
     1
175
     1
 42
1.0
 92
        0
 66
   257
 43
1.0
 76
     1
 77
     6
 78
     2
 67
     7
 79
     5
170
     0
171
     0
290
     0
174
     0
 93
       13
 44
0.0
173
     0
291
     1
 45
0.0
1001
ACAD
1000
AcDbSavedByObjectVersion
1070
     0
  0
VISUALSTYLE
  5
2D
102
{ACAD_REACTORS
330
2A
102
}
330
2A
100
AcDbVisualStyle
  2
Gouraud
 70
     2
 71
     2
 72
     2
 73
     1
 90
        2
 40
-0.6
 41
30.0
 62
     5
 63
     7
 74
     0
 91
        4
 64
     7
 65
   257
 75
     1
175
     1
 42
1.0
 92
        0
 66
     7
 43
1.0
 76
     1
 77
     6
 78
     2
 67
     7
 79
     5
170
     0
171
     0
290
     0
174
     0
 93
       13
 44
0.0
173
     0
291
     1
 45
0.0
1001
ACAD
1000
AcDbSavedByObjectVersion
1070
     0
  0
VISUALSTYLE
  5
2E
102
{ACAD_REACTORS
330
2A
102
}
330
2A
100
AcDbVisualStyle
  2
GouraudWithEdges
 70
     3
 71
     2
 72
     2
 73
     1
 90
        2
 40
-0.6
 41
30.0
 62
     5
 63
     7
 74
     1
 91
        4
 64
     7
 65
   257
 75
     1
175
     1
 42
1.0
 92
        0
 66
   257
 43
1.0
 76
     1
 77
     6
 78
     2
 67
     7
 79
     5
170
     0
171
     0
290
     0
174
     0
 93
       13
 44
0.0
173
     0
291
     1
 45
0.0
1001
ACAD
1000
AcDbSavedByObjectVersion
1070
     0
  0
VISUALSTYLE
  5
38
102
{ACAD_REACTORS
330
2A
102
}
330
2A
100
AcDbVisualStyle
  2
Linepattern
 70
    14
 71
     2
 72
     2
 73
     0
 90
        0
 40
-0.6
 41
-30.0
 62
     5
 63
     7
 74
     1
 91
        4
 64
     7
 65
   257
 75
     7
175
     7
 42
1.0
 92
        8
 66
     7
 43
1.0
 76
     1
 77
     6
 78
     2
 67
     7
 79
     5
170
     0
171
     0
290
     0
174
     0
 93
        1
 44
0.0
173
     0
291
     1
 45
0.0
1001
ACAD
1000
AcDbSavedByObjectVersion
1070
     0
  0
VISUALSTYLE
  5
33
102
{ACAD_REACTORS
330
2A
102
}
330
2A
100
AcDbVisualStyle
  2
Realistic
 70
     8
 71
     2
 72
     2
 73
     0
 90
        0
 40
-0.6
 41
-30.0
 62
     5
 63
     7
 74
     1
 91
        0
 64
     7
 65
   257
 75
     1
175
     1
 42
1.0
 92
        8
 66
     8
 43
1.0
 76
     1
 77
     6
 78
     2
 67
     7
 79
     5
170
     0
171
     0
290
     0
174
     0
 93
       13
 44
0.0
173
     0
291
     0
 45
0.0
1001
ACAD
1000
AcDbSavedByObjectVersion
1070
     0
  0
VISUALSTYLE
  5
37
102
{ACAD_REACTORS
330
2A
102
}
330
2A
100
AcDbVisualStyle
  2
Thicken
 70
    13
 71
     2
 72
     2
 73
     0
 90
        0
 40
-0.6
 41
-30.0
 62
     5
 63
     7
 74
     1
 91
        4
 64
     7
 65
   257
 75
     1
175
     1
 42
1.0
 92
       12
 66
     7
 43
1.0
 76
     1
 77
     6
 78
     2
 67
     7
 79
     5
170
     0
171
     0
290
     0
174
     0
 93
        1
 44
0.0
173
     0
291
     1
 45
0.0
1001
ACAD
1000
AcDbSavedByObjectVersion
1070
     0
  0
DICTIONARYVAR
  5
14E
102
{ACAD_REACTORS
330
14D
102
}
330
14D
100
DictionaryVariables
280
     0
  1
1:1
  0
DICTIONARYVAR
  5
152
102
{ACAD_REACTORS
330
14D
102
}
330
14D
100
DictionaryVariables
280
     0
  1
80.000000
  0
DICTIONARYVAR
  5
151
102
{ACAD_REACTORS
330
14D
102
}
330
14D
100
DictionaryVariables
280
     0
  1
5.000000
  0
ENDSEC
  0
EOF
