  0
SECTION
  2
HEADER
  9
$ACADVER
  1
AC1015
  9
$ACADMAINTVER
 70
     6
  9
$DWGCODEPAGE
  3
ANSI_1252
  9
$INSBASE
 10
0.0
 20
0.0
 30
0.0
  9
$EXTMIN
 10
0.0
 20
0.0
 30
0.0
  9
$EXTMAX
 10
210.0
 20
297.0
 30
0.0
  9
$LIMMIN
 10
0.0
 20
0.0
  9
$LIMMAX
 10
210.0
 20
297.0
  9
$ORTHOMODE
 70
     0
  9
$REGENMODE
 70
     1
  9
$FILLMODE
 70
     1
  9
$QTEXTMODE
 70
     0
  9
$MIRRTEXT
 70
     1
  9
$LTSCALE
 40
1.0
  9
$ATTMODE
 70
     1
  9
$TEXTSIZE
 40
2.5
  9
$TRACEWID
 40
1.0
  9
$TEXTSTYLE
  7
Standard
  9
$CLAYER
  8
0
  9
$CELTYPE
  6
ByLayer
  9
$CECOLOR
 62
   256
  9
$CELTSCALE
 40
1.0
  9
$DISPSILH
 70
     0
  9
$DIMSCALE
 40
1.0
  9
$DIMASZ
 40
2.5
  9
$DIMEXO
 40
0.625
  9
$DIMDLI
 40
3.75
  9
$DIMRND
 40
0.0
  9
$DIMDLE
 40
0.0
  9
$DIMEXE
 40
1.25
  9
$DIMTP
 40
0.0
  9
$DIMTM
 40
0.0
  9
$DIMTXT
 40
2.5
  9
$DIMCEN
 40
2.5
  9
$DIMTSZ
 40
0.0
  9
$DIMTOL
 70
     0
  9
$DIMLIM
 70
     0
  9
$DIMTIH
 70
     0
  9
$DIMTOH
 70
     0
  9
$DIMSE1
 70
     0
  9
$DIMSE2
 70
     0
  9
$DIMTAD
 70
     1
  9
$DIMZIN
 70
     8
  9
$DIMBLK
  1

  9
$DIMASO
 70
     1
  9
$DIMSHO
 70
     1
  9
$DIMPOST
  1

  9
$DIMAPOST
  1

  9
$DIMALT
 70
     0
  9
$DIMALTD
 70
     3
  9
$DIMALTF
 40
0.0393700787
  9
$DIMLFAC
 40
1.0
  9
$DIMTOFL
 70
     1
  9
$DIMTVP
 40
0.0
  9
$DIMTIX
 70
     0
  9
$DIMSOXD
 70
     0
  9
$DIMSAH
 70
     0
  9
$DIMBLK1
  1

  9
$DIMBLK2
  1

  9
$DIMSTYLE
  2
ISO-25
  9
$DIMCLRD
 70
     0
  9
$DIMCLRE
 70
     0
  9
$DIMCLRT
 70
     0
  9
$DIMTFAC
 40
1.0
  9
$DIMGAP
 40
0.625
  9
$DIMJUST
 70
     0
  9
$DIMSD1
 70
     0
  9
$DIMSD2
 70
     0
  9
$DIMTOLJ
 70
     0
  9
$DIMTZIN
 70
     8
  9
$DIMALTZ
 70
     0
  9
$DIMALTTZ
 70
     0
  9
$DIMUPT
 70
     0
  9
$DIMDEC
 70
     2
  9
$DIMTDEC
 70
     2
  9
$DIMALTU
 70
     2
  9
$DIMALTTD
 70
     3
  9
$DIMTXSTY
  7
Standard
  9
$DIMAUNIT
 70
     0
  9
$DIMADEC
 70
     0
  9
$DIMALTRND
 40
0.0
  9
$DIMAZIN
 70
     0
  9
$DIMDSEP
 70
    44
  9
$DIMATFIT
 70
     3
  9
$DIMFRAC
 70
     0
  9
$DIMLDRBLK
  1

  9
$DIMLUNIT
 70
     2
  9
$DIMLWD
 70
    -2
  9
$DIMLWE
 70
    -2
  9
$DIMTMOVE
 70
     0
  9
$LUNITS
 70
     2
  9
$LUPREC
 70
     4
  9
$SKETCHINC
 40
1.0
  9
$FILLETRAD
 40
10.0
  9
$AUNITS
 70
     0
  9
$AUPREC
 70
     0
  9
$MENU
  1
.
  9
$ELEVATION
 40
0.0
  9
$PELEVATION
 40
0.0
  9
$THICKNESS
 40
0.0
  9
$LIMCHECK
 70
     0
  9
$CHAMFERA
 40
10.0
  9
$CHAMFERB
 40
10.0
  9
$CHAMFERC
 40
20.0
  9
$CHAMFERD
 40
0.0
  9
$SKPOLY
 70
     0
  9
$TDCREATE
 40
2455334.422914491
  9
$TDUCREATE
 40
2455334.339581158
  9
$TDUPDATE
 40
2455334.422914502
  9
$TDUUPDATE
 40
2455334.339581169
  9
$TDINDWG
 40
0.0000000116
  9
$TDUSRTIMER
 40
0.0000000116
  9
$USRTIMER
 70
     1
  9
$ANGBASE
 50
0.0
  9
$ANGDIR
 70
     0
  9
$PDMODE
 70
     0
  9
$PDSIZE
 40
0.0
  9
$PLINEWID
 40
0.0
  9
$SPLFRAME
 70
     0
  9
$SPLINETYPE
 70
     6
  9
$SPLINESEGS
 70
     8
  9
$HANDSEED
  5
17B
  9
$SURFTAB1
 70
     6
  9
$SURFTAB2
 70
     6
  9
$SURFTYPE
 70
     6
  9
$SURFU
 70
     6
  9
$SURFV
 70
     6
  9
$UCSBASE
  2

  9
$UCSNAME
  2

  9
$UCSORG
 10
0.0
 20
0.0
 30
0.0
  9
$UCSXDIR
 10
1.0
 20
0.0
 30
0.0
  9
$UCSYDIR
 10
0.0
 20
1.0
 30
0.0
  9
$UCSORTHOREF
  2

  9
$UCSORTHOVIEW
 70
     0
  9
$UCSORGTOP
 10
0.0
 20
0.0
 30
0.0
  9
$UCSORGBOTTOM
 10
0.0
 20
0.0
 30
0.0
  9
$UCSORGLEFT
 10
0.0
 20
0.0
 30
0.0
  9
$UCSORGRIGHT
 10
0.0
 20
0.0
 30
0.0
  9
$UCSORGFRONT
 10
0.0
 20
0.0
 30
0.0
  9
$UCSORGBACK
 10
0.0
 20
0.0
 30
0.0
  9
$PUCSBASE
  2

  9
$PUCSNAME
  2

  9
$PUCSORG
 10
0.0
 20
0.0
 30
0.0
  9
$PUCSXDIR
 10
1.0
 20
0.0
 30
0.0
  9
$PUCSYDIR
 10
0.0
 20
1.0
 30
0.0
  9
$PUCSORTHOREF
  2

  9
$PUCSORTHOVIEW
 70
     0
  9
$PUCSORGTOP
 10
0.0
 20
0.0
 30
0.0
  9
$PUCSORGBOTTOM
 10
0.0
 20
0.0
 30
0.0
  9
$PUCSORGLEFT
 10
0.0
 20
0.0
 30
0.0
  9
$PUCSORGRIGHT
 10
0.0
 20
0.0
 30
0.0
  9
$PUCSORGFRONT
 10
0.0
 20
0.0
 30
0.0
  9
$PUCSORGBACK
 10
0.0
 20
0.0
 30
0.0
  9
$USERI1
 70
     0
  9
$USERI2
 70
     0
  9
$USERI3
 70
     0
  9
$USERI4
 70
     0
  9
$USERI5
 70
     0
  9
$USERR1
 40
0.0
  9
$USERR2
 40
0.0
  9
$USERR3
 40
0.0
  9
$USERR4
 40
0.0
  9
$USERR5
 40
0.0
  9
$WORLDVIEW
 70
     1
  9
$SHADEDGE
 70
     3
  9
$SHADEDIF
 70
    70
  9
$TILEMODE
 70
     1
  9
$MAXACTVP
 70
    64
  9
$PINSBASE
 10
0.0
 20
0.0
 30
0.0
  9
$PLIMCHECK
 70
     0
  9
$PEXTMIN
 10
0.0
 20
0.0
 30
0.0
  9
$PEXTMAX
 10
210.0
 20
297.0
 30
0.0
  9
$PLIMMIN
 10
0.0
 20
0.0
  9
$PLIMMAX
 10
210.0
 20
297.0
  9
$UNITMODE
 70
     0
  9
$VISRETAIN
 70
     1
  9
$PLINEGEN
 70
     0
  9
$PSLTSCALE
 70
     1
  9
$TREEDEPTH
 70
  3020
  9
$CMLSTYLE
  2
Standard
  9
$CMLJUST
 70
     0
  9
$CMLSCALE
 40
20.0
  9
$PROXYGRAPHICS
 70
     1
  9
$MEASUREMENT
 70
     1
  9
$CELWEIGHT
370
    -1
  9
$ENDCAPS
280
     0
  9
$JOINSTYLE
280
     0
  9
$LWDISPLAY
290
     0
  9
$INSUNITS
 70
     4
  9
$HYPERLINKBASE
  1

  9
$STYLESHEET
  1

  9
$XEDIT
290
     1
  9
$CEPSNTYPE
380
     0
  9
$PSTYLEMODE
290
     1
  9
$FINGERPRINTGUID
  2
{0894ED8A-0B11-4970-9A3D-68FAAE668620}
  9
$VERSIONGUID
  2
{FAEB1C32-E019-11D5-929B-00C0DF256EC4}
  9
$EXTNAMES
290
     1
  9
$PSVPSCALE
 40
0.0
  9
$OLESTARTUP
290
     0
  0
ENDSEC
  0
SECTION
  2
CLASSES
  0
CLASS
  1
ACDBDICTIONARYWDFLT
  2
AcDbDictionaryWithDefault
  3
ObjectDBX Classes
 90
        0
280
     0
281
     0
  0
CLASS
  1
VISUALSTYLE
  2
AcDbVisualStyle
  3
ObjectDBX Classes
 90
     4095
280
     0
281
     0
  0
CLASS
  1
SCALE
  2
AcDbScale
  3
ObjectDBX Classes
 90
     1153
280
     0
281
     0
  0
CLASS
  1
DICTIONARYVAR
  2
AcDbDictionaryVar
  3
ObjectDBX Classes
 90
        0
280
     0
281
     0
  0
CLASS
  1
ACDBPLACEHOLDER
  2
AcDbPlaceHolder
  3
ObjectDBX Classes
 90
        0
280
     0
281
     0
  0
CLASS
  1
LAYOUT
  2
AcDbLayout
  3
ObjectDBX Classes
 90
        0
280
     0
281
     0
  0
ENDSEC
  0
SECTION
  2
TABLES
  0
TABLE
  2
VPORT
  5
8
330
0
100
AcDbSymbolTable
 70
     1
  0
VPORT
  5
29
330
8
100
AcDbSymbolTableRecord
100
AcDbViewportTableRecord
  2
*Active
 70
     0
 10
0.0
 20
0.0
 11
1.0
 21
1.0
 12
344.1869158879
 22
148.5
 13
0.0
 23
0.0
 14
10.0
 24
10.0
 15
10.0
 25
10.0
 16
0.0
 26
0.0
 36
1.0
 17
0.0
 27
0.0
 37
0.0
 40
297.0
 41
1.9729729729
 42
50.0
 43
0.0
 44
0.0
 50
0.0
 51
0.0
 71
     0
 72
   100
 73
     1
 74
     3
 75
     0
 76
     0
 77
     0
 78
     0
281
     0
 65
     1
110
0.0
120
0.0
130
0.0
111
1.0
121
0.0
131
0.0
112
0.0
122
1.0
132
0.0
 79
     0
146
0.0
  0
ENDTAB
  0
TABLE
  2
LTYPE
  5
5
330
0
100
AcDbSymbolTable
 70
     2
  0
LTYPE
  5
14
330
5
100
AcDbSymbolTableRecord
100
AcDbLinetypeTableRecord
  2
ByBlock
 70
     0
  3

 72
    65
 73
     0
 40
0.0
  0
LTYPE
  5
15
330
5
100
AcDbSymbolTableRecord
100
AcDbLinetypeTableRecord
  2
ByLayer
 70
     0
  3

 72
    65
 73
     0
 40
0.0
  0
LTYPE
  5
16
330
5
100
AcDbSymbolTableRecord
100
AcDbLinetypeTableRecord
  2
Continuous
 70
     0
  3
Solid line
 72
    65
 73
     0
 40
0.0
  0
LTYPE
  5
60
330
5
100
AcDbSymbolTableRecord
100
AcDbLinetypeTableRecord
  2
CENTER2
 70
     0
  3
Center (.5x) ___ _ ___ _ ___ _ ___ _ ___ _ ___
 72
    65
 73
     4
 40
28.575
 49
19.05
 74
     4
 75
     0
340
0
 46
0.0
 50
0.0
 44
0.0
 45
0.0
 49
-3.175
 74
     4
 75
     0
340
0
 46
0.0
 50
0.0
 44
0.0
 45
0.0
 49
3.175
 74
     4
 75
     0
340
0
 46
0.0
 50
0.0
 44
0.0
 45
0.0
 49
-3.175
 74
     4
 75
     0
340
0
 46
0.0
 50
0.0
 44
0.0
 45
0.0
  0
ENDTAB
  0
TABLE
  2
LAYER
  5
2
330
0
100
AcDbSymbolTable
 70
     7
  0
LAYER
  5
10
330
2
100
AcDbSymbolTableRecord
100
AcDbLayerTableRecord
  2
0
 70
     0
 62
     7
  6
Continuous
370
    -3
390
F
  0
LAYER
  5
5D
330
2
100
AcDbSymbolTableRecord
100
AcDbLayerTableRecord
  2
Default
 70
     0
 62
     7
  6
Continuous
370
    -3
390
F
  0
LAYER
  5
95
330
2
100
AcDbSymbolTableRecord
100
AcDbLayerTableRecord
  2
MEGA_002109
 70
     0
 62
     7
  6
Continuous
370
    -3
390
F
  0
LAYER
  5
A4
330
2
100
AcDbSymbolTableRecord
100
AcDbLayerTableRecord
  2
MEGA_000863
 70
     0
 62
     7
  6
Continuous
370
    -3
390
F
  0
LAYER
  5
A6
330
2
100
AcDbSymbolTableRecord
100
AcDbLayerTableRecord
  2
MEGA_001997
 70
     0
 62
     7
  6
Continuous
370
    -3
390
F
  0
LAYER
  5
BB
330
2
100
AcDbSymbolTableRecord
100
AcDbLayerTableRecord
  2
MEGA_000572
 70
     0
 62
     7
  6
Continuous
370
    -3
390
F
  0
LAYER
  5
CD
330
2
100
AcDbSymbolTableRecord
100
AcDbLayerTableRecord
  2
DV2_Standard
 70
     0
 62
     7
  6
Continuous
370
    -3
390
F
  0
ENDTAB
  0
TABLE
  2
STYLE
  5
3
330
0
100
AcDbSymbolTable
 70
     4
  0
STYLE
  5
11
330
3
100
AcDbSymbolTableRecord
100
AcDbTextStyleTableRecord
  2
Standard
 70
     0
 40
0.0
 41
1.0
 50
0.0
 71
     0
 42
2.5
  3
txt
  4

  0
STYLE
  5
91
330
3
100
AcDbSymbolTableRecord
100
AcDbTextStyleTableRecord
  2
SEACAD_seiso_ttfI
 70
     0
 40
0.0
 41
1.0
 50
0.0
 71
     0
 42
0.2
  3
seiso.ttf
  4

  0
STYLE
  5
E4
330
3
100
AcDbSymbolTableRecord
100
AcDbTextStyleTableRecord
  2
SEACAD_seiso_ttf
 70
     0
 40
0.0
 41
1.0
 50
0.0
 71
     0
 42
0.2
  3
seiso.ttf
  4

  0
STYLE
  5
15F
330
3
100
AcDbSymbolTableRecord
100
AcDbTextStyleTableRecord
  2
SEACAD_semeci1_ttf
 70
     0
 40
0.0
 41
1.0
 50
0.0
 71
     0
 42
0.2
  3
semeci1.ttf
  4

  0
ENDTAB
  0
TABLE
  2
VIEW
  5
6
330
0
100
AcDbSymbolTable
 70
     0
  0
ENDTAB
  0
TABLE
  2
UCS
  5
7
330
0
100
AcDbSymbolTable
 70
     0
  0
ENDTAB
  0
TABLE
  2
APPID
  5
9
330
0
100
AcDbSymbolTable
 70
     1
  0
APPID
  5
12
330
9
100
AcDbSymbolTableRecord
100
AcDbRegAppTableRecord
  2
ACAD
 70
     0
  0
ENDTAB
  0
TABLE
  2
DIMSTYLE
  5
A
330
0
100
AcDbSymbolTable
 70
     3
100
AcDbDimStyleTable
  0
DIMSTYLE
105
27
330
A
100
AcDbSymbolTableRecord
100
AcDbDimStyleTableRecord
  2
ISO-25
 70
     0
 41
2.5
 42
0.625
 43
3.75
 44
1.25
 73
     0
 74
     0
 77
     1
 78
     8
140
2.5
141
2.5
143
0.0393700787
147
0.625
171
     3
172
     1
271
     2
272
     2
274
     3
278
    44
283
     0
284
     8
340
11
  0
DIMSTYLE
105
D2
330
A
100
AcDbSymbolTableRecord
100
AcDbDimStyleTableRecord
  2
Standard
 70
     0
340
11
  0
DIMSTYLE
105
E5
102
{ACAD_REACTORS
330
E6
330
F1
330
FB
330
105
330
10F
330
119
330
123
330
12D
330
137
330
141
330
14B
330
154
330
15E
330
16A
102
}
330
A
100
AcDbSymbolTableRecord
100
AcDbDimStyleTableRecord
  2
DIN
 70
     0
 41
3.0
 42
0.0
 44
1.5
 73
     0
 74
     0
 77
     1
 78
     8
140
3.0
141
1.5
147
1.5
172
     1
173
     1
271
     2
272
     2
278
    44
284
     8
340
E4
343
DF
344
DF
  0
ENDTAB
  0
TABLE
  2
BLOCK_RECORD
  5
1
330
0
100
AcDbSymbolTable
 70
    28
  0
BLOCK_RECORD
  5
1F
330
1
100
AcDbSymbolTableRecord
100
AcDbBlockTableRecord
  2
*Model_Space
340
22
  0
BLOCK_RECORD
  5
1B
330
1
100
AcDbSymbolTableRecord
100
AcDbBlockTableRecord
  2
*Paper_Space
340
1E
  0
BLOCK_RECORD
  5
5E
330
1
100
AcDbSymbolTableRecord
100
AcDbBlockTableRecord
  2
SEANNOT_GROUP
340
0
102
{BLKREFS
331
5F
102
}
  0
BLOCK_RECORD
  5
64
330
1
100
AcDbSymbolTableRecord
100
AcDbBlockTableRecord
  2
SEANNOT_GROUP1
340
0
102
{BLKREFS
331
65
102
}
  0
BLOCK_RECORD
  5
69
330
1
100
AcDbSymbolTableRecord
100
AcDbBlockTableRecord
  2
SEANNOT_GROUP2
340
0
102
{BLKREFS
331
6A
102
}
  0
BLOCK_RECORD
  5
6E
330
1
100
AcDbSymbolTableRecord
100
AcDbBlockTableRecord
  2
SEANNOT_GROUP3
340
0
102
{BLKREFS
331
6F
102
}
  0
BLOCK_RECORD
  5
73
330
1
100
AcDbSymbolTableRecord
100
AcDbBlockTableRecord
  2
SEANNOT_GROUP4
340
0
102
{BLKREFS
331
74
102
}
  0
BLOCK_RECORD
  5
7D
330
1
100
AcDbSymbolTableRecord
100
AcDbBlockTableRecord
  2
SEANNOT_GROUP5
340
0
102
{BLKREFS
331
7E
102
}
  0
BLOCK_RECORD
  5
87
330
1
100
AcDbSymbolTableRecord
100
AcDbBlockTableRecord
  2
SEANNOT_GROUP6
340
0
102
{BLKREFS
331
88
102
}
  0
BLOCK_RECORD
  5
8C
330
1
100
AcDbSymbolTableRecord
100
AcDbBlockTableRecord
  2
SEANNOT_GROUP7
340
0
102
{BLKREFS
331
8D
102
}
  0
BLOCK_RECORD
  5
93
330
1
100
AcDbSymbolTableRecord
100
AcDbBlockTableRecord
  2
SE
340
0
102
{BLKREFS
331
94
102
}
  0
BLOCK_RECORD
  5
AA
330
1
100
AcDbSymbolTableRecord
100
AcDbBlockTableRecord
  2
SE1
340
0
102
{BLKREFS
331
AB
102
}
  0
BLOCK_RECORD
  5
D3
330
1
100
AcDbSymbolTableRecord
100
AcDbBlockTableRecord
  2
_OBLIQUE
340
0
  0
BLOCK_RECORD
  5
D7
330
1
100
AcDbSymbolTableRecord
100
AcDbBlockTableRecord
  2
_DOT
340
0
  0
BLOCK_RECORD
  5
DF
330
1
100
AcDbSymbolTableRecord
100
AcDbBlockTableRecord
  2
_SE_FILLED
340
0
  0
BLOCK_RECORD
  5
E7
330
1
100
AcDbSymbolTableRecord
100
AcDbBlockTableRecord
  2
DMBLK313
340
0
  0
BLOCK_RECORD
  5
F2
330
1
100
AcDbSymbolTableRecord
100
AcDbBlockTableRecord
  2
DMBLK314
340
0
  0
BLOCK_RECORD
  5
FC
330
1
100
AcDbSymbolTableRecord
100
AcDbBlockTableRecord
  2
DMBLK315
340
0
  0
BLOCK_RECORD
  5
106
330
1
100
AcDbSymbolTableRecord
100
AcDbBlockTableRecord
  2
DMBLK316
340
0
  0
BLOCK_RECORD
  5
110
330
1
100
AcDbSymbolTableRecord
100
AcDbBlockTableRecord
  2
DMBLK317
340
0
  0
BLOCK_RECORD
  5
11A
330
1
100
AcDbSymbolTableRecord
100
AcDbBlockTableRecord
  2
DMBLK318
340
0
  0
BLOCK_RECORD
  5
124
330
1
100
AcDbSymbolTableRecord
100
AcDbBlockTableRecord
  2
DMBLK319
340
0
  0
BLOCK_RECORD
  5
12E
330
1
100
AcDbSymbolTableRecord
100
AcDbBlockTableRecord
  2
DMBLK320
340
0
  0
BLOCK_RECORD
  5
138
330
1
100
AcDbSymbolTableRecord
100
AcDbBlockTableRecord
  2
DMBLK321
340
0
  0
BLOCK_RECORD
  5
142
330
1
100
AcDbSymbolTableRecord
100
AcDbBlockTableRecord
  2
DMBLK322
340
0
  0
BLOCK_RECORD
  5
14C
330
1
100
AcDbSymbolTableRecord
100
AcDbBlockTableRecord
  2
DMBLK323
340
0
  0
BLOCK_RECORD
  5
155
330
1
100
AcDbSymbolTableRecord
100
AcDbBlockTableRecord
  2
DMBLK324
340
0
  0
BLOCK_RECORD
  5
160
330
1
100
AcDbSymbolTableRecord
100
AcDbBlockTableRecord
  2
DMBLK325
340
0
  0
BLOCK_RECORD
  5
16B
330
1
100
AcDbSymbolTableRecord
100
AcDbBlockTableRecord
  2
DMBLK326
340
0
  0
ENDTAB
  0
ENDSEC
  0
SECTION
  2
BLOCKS
  0
BLOCK
  5
20
330
1F
100
AcDbEntity
  8
0
100
AcDbBlockBegin
  2
*Model_Space
 70
     0
 10
0.0
 20
0.0
 30
0.0
  3
*Model_Space
  1

  0
ENDBLK
  5
21
330
1F
100
AcDbEntity
  8
0
100
AcDbBlockEnd
  0
BLOCK
  5
1C
330
1B
100
AcDbEntity
 67
     1
  8
0
100
AcDbBlockBegin
  2
*Paper_Space
 70
     0
 10
0.0
 20
0.0
 30
0.0
  3
*Paper_Space
  1

  0
ENDBLK
  5
1D
330
1B
100
AcDbEntity
 67
     1
  8
0
100
AcDbBlockEnd
  0
BLOCK
  5
62
330
5E
100
AcDbEntity
  8
0
100
AcDbBlockBegin
  2
SEANNOT_GROUP
 70
     0
 10
0.0
 20
0.0
 30
0.0
  3
SEANNOT_GROUP
  1

  0
LINE
  5
61
330
5E
100
AcDbEntity
  8
Default
  6
CENTER2
 62
     7
100
AcDbLine
 10
149.7957930095
 20
6.2063183853
 30
0.0
 11
149.7957930095
 21
294.5437530342
 31
0.0
  0
ENDBLK
  5
63
330
5E
100
AcDbEntity
  8
0
100
AcDbBlockEnd
  0
BLOCK
  5
67
330
64
100
AcDbEntity
  8
0
100
AcDbBlockBegin
  2
SEANNOT_GROUP1
 70
     0
 10
0.0
 20
0.0
 30
0.0
  3
SEANNOT_GROUP1
  1

  0
LINE
  5
66
330
64
100
AcDbEntity
  8
Default
  6
CENTER2
 62
     7
100
AcDbLine
 10
66.161145454
 20
268.5929269358
 30
0.0
 11
53.661145454
 21
268.5929269358
 31
0.0
  0
ENDBLK
  5
68
330
64
100
AcDbEntity
  8
0
100
AcDbBlockEnd
  0
BLOCK
  5
6C
330
69
100
AcDbEntity
  8
0
100
AcDbBlockBegin
  2
SEANNOT_GROUP2
 70
     0
 10
0.0
 20
0.0
 30
0.0
  3
SEANNOT_GROUP2
  1

  0
LINE
  5
6B
330
69
100
AcDbEntity
  8
Default
  6
CENTER2
 62
     7
100
AcDbLine
 10
65.1155307441
 20
162.5929269358
 30
0.0
 11
56.161145454
 21
162.5929269358
 31
0.0
  0
ENDBLK
  5
6D
330
69
100
AcDbEntity
  8
0
100
AcDbBlockEnd
  0
BLOCK
  5
71
330
6E
100
AcDbEntity
  8
0
100
AcDbBlockBegin
  2
SEANNOT_GROUP3
 70
     0
 10
0.0
 20
0.0
 30
0.0
  3
SEANNOT_GROUP3
  1

  0
LINE
  5
70
330
6E
100
AcDbEntity
  8
Default
  6
CENTER2
 62
     7
100
AcDbLine
 10
66.161145454
 20
30.5929269358
 30
0.0
 11
53.661145454
 21
30.5929269358
 31
0.0
  0
ENDBLK
  5
72
330
6E
100
AcDbEntity
  8
0
100
AcDbBlockEnd
  0
BLOCK
  5
7B
330
73
100
AcDbEntity
  8
0
100
AcDbBlockBegin
  2
SEANNOT_GROUP4
 70
     0
 10
0.0
 20
0.0
 30
0.0
  3
SEANNOT_GROUP4
  1

  0
LINE
  5
75
330
73
100
AcDbEntity
  8
Default
  6
CENTER2
 62
     7
100
AcDbLine
 10
155.7957930617
 20
106.5929269358
 30
0.0
 11
143.7957929574
 21
106.5929269358
 31
0.0
  0
LINE
  5
76
330
73
100
AcDbEntity
  8
Default
  6
CENTER2
 62
     7
100
AcDbLine
 10
149.7957930095
 20
112.592926988
 30
0.0
 11
149.7957930095
 21
100.5929268837
 31
0.0
  0
LINE
  5
77
330
73
100
AcDbEntity
  8
Default
  6
CENTER2
 62
     7
100
AcDbLine
 10
157.2957930747
 20
106.5929269358
 30
0.0
 11
166.5457930095
 21
106.5929269358
 31
0.0
  0
LINE
  5
78
330
73
100
AcDbEntity
  8
Default
  6
CENTER2
 62
     7
100
AcDbLine
 10
149.7957930095
 20
114.092927001
 30
0.0
 11
149.7957930095
 21
123.3429269358
 31
0.0
  0
LINE
  5
79
330
73
100
AcDbEntity
  8
Default
  6
CENTER2
 62
     7
100
AcDbLine
 10
142.2957929443
 20
106.5929269358
 30
0.0
 11
133.0457930095
 21
106.5929269358
 31
0.0
  0
LINE
  5
7A
330
73
100
AcDbEntity
  8
Default
  6
CENTER2
 62
     7
100
AcDbLine
 10
149.7957930095
 20
99.0929268706
 30
0.0
 11
149.7957930095
 21
89.8429269358
 31
0.0
  0
ENDBLK
  5
7C
330
73
100
AcDbEntity
  8
0
100
AcDbBlockEnd
  0
BLOCK
  5
85
330
7D
100
AcDbEntity
  8
0
100
AcDbBlockBegin
  2
SEANNOT_GROUP5
 70
     0
 10
0.0
 20
0.0
 30
0.0
  3
SEANNOT_GROUP5
  1

  0
LINE
  5
7F
330
7D
100
AcDbEntity
  8
Default
  6
CENTER2
 62
     7
100
AcDbLine
 10
155.7957930617
 20
184.5929269358
 30
0.0
 11
143.7957929574
 21
184.5929269358
 31
0.0
  0
LINE
  5
80
330
7D
100
AcDbEntity
  8
Default
  6
CENTER2
 62
     7
100
AcDbLine
 10
149.7957930095
 20
190.592926988
 30
0.0
 11
149.7957930095
 21
178.5929268837
 31
0.0
  0
LINE
  5
81
330
7D
100
AcDbEntity
  8
Default
  6
CENTER2
 62
     7
100
AcDbLine
 10
157.2957930747
 20
184.5929269358
 30
0.0
 11
159.7457930095
 21
184.5929269358
 31
0.0
  0
LINE
  5
82
330
7D
100
AcDbEntity
  8
Default
  6
CENTER2
 62
     7
100
AcDbLine
 10
149.7957930095
 20
192.092927001
 30
0.0
 11
149.7957930095
 21
194.5429269358
 31
0.0
  0
LINE
  5
83
330
7D
100
AcDbEntity
  8
Default
  6
CENTER2
 62
     7
100
AcDbLine
 10
142.2957929443
 20
184.5929269358
 30
0.0
 11
139.8457930095
 21
184.5929269358
 31
0.0
  0
LINE
  5
84
330
7D
100
AcDbEntity
  8
Default
  6
CENTER2
 62
     7
100
AcDbLine
 10
149.7957930095
 20
177.0929268706
 30
0.0
 11
149.7957930095
 21
174.6429269358
 31
0.0
  0
ENDBLK
  5
86
330
7D
100
AcDbEntity
  8
0
100
AcDbBlockEnd
  0
BLOCK
  5
8A
330
87
100
AcDbEntity
  8
0
100
AcDbBlockBegin
  2
SEANNOT_GROUP6
 70
     0
 10
0.0
 20
0.0
 30
0.0
  3
SEANNOT_GROUP6
  1

  0
LINE
  5
89
330
87
100
AcDbEntity
  8
Default
  6
CENTER2
 62
     7
100
AcDbLine
 10
35.1638651956
 20
184.5929269358
 30
0.0
 11
65.085397205
 21
184.5929269358
 31
0.0
  0
ENDBLK
  5
8B
330
87
100
AcDbEntity
  8
0
100
AcDbBlockEnd
  0
BLOCK
  5
8F
330
8C
100
AcDbEntity
  8
0
100
AcDbBlockBegin
  2
SEANNOT_GROUP7
 70
     0
 10
0.0
 20
0.0
 30
0.0
  3
SEANNOT_GROUP7
  1

  0
LINE
  5
8E
330
8C
100
AcDbEntity
  8
Default
  6
CENTER2
 62
     7
100
AcDbLine
 10
65.6682762876
 20
106.5929269358
 30
0.0
 11
13.0496343666
 21
106.5929269358
 31
0.0
  0
ENDBLK
  5
90
330
8C
100
AcDbEntity
  8
0
100
AcDbBlockEnd
  0
BLOCK
  5
A8
330
93
100
AcDbEntity
  8
0
100
AcDbBlockBegin
  2
SE
 70
     0
 10
0.0
 20
0.0
 30
0.0
  3
SE
  1

  0
LINE
  5
96
330
93
100
AcDbEntity
  8
MEGA_002109
  6
Continuous
 62
     7
100
AcDbLine
 10
123.7957930095
 20
263.5929269358
 30
0.0
 11
123.7957930095
 21
35.5929269358
 31
0.0
  0
ARC
  5
97
330
93
100
AcDbEntity
  8
MEGA_002109
  6
Continuous
 62
     7
100
AcDbCircle
 10
149.7957930095
 20
35.5929269358
 30
0.0
 40
26.00000000000001
100
AcDbArc
 50
180.0
 51
0.0
  0
LINE
  5
98
330
93
100
AcDbEntity
  8
MEGA_002109
  6
Continuous
 62
     7
100
AcDbLine
 10
175.7957930095
 20
35.5929269358
 30
0.0
 11
175.7957930095
 21
263.5929269358
 31
0.0
  0
ARC
  5
99
330
93
100
AcDbEntity
  8
MEGA_002109
  6
Continuous
 62
     7
100
AcDbCircle
 10
149.7957930095
 20
263.5929269358
 30
0.0
 40
26.00000000000002
100
AcDbArc
 50
0.0
 51
180.0
  0
LINE
  5
9A
330
93
100
AcDbEntity
  8
MEGA_002109
  6
Continuous
 62
     7
100
AcDbLine
 10
175.7957930095
 20
263.5929269358
 30
0.0
 11
171.0394006618
 21
263.5929269358
 31
0.0
  0
LINE
  5
9B
330
93
100
AcDbEntity
  8
MEGA_002109
  6
Continuous
 62
     7
100
AcDbLine
 10
175.7957930095
 20
35.5929269358
 30
0.0
 11
171.0394006618
 21
35.5929269358
 31
0.0
  0
LINE
  5
9C
330
93
100
AcDbEntity
  8
MEGA_002109
  6
Continuous
 62
     7
100
AcDbLine
 10
123.7957930095
 20
35.5929269358
 30
0.0
 11
128.5521853572
 21
35.5929269358
 31
0.0
  0
LINE
  5
9D
330
93
100
AcDbEntity
  8
MEGA_002109
  6
Continuous
 62
     7
100
AcDbLine
 10
123.7957930095
 20
263.5929269358
 30
0.0
 11
128.5521853572
 21
263.5929269358
 31
0.0
  0
CIRCLE
  5
9E
330
93
100
AcDbEntity
  8
MEGA_002109
  6
Continuous
 62
     7
100
AcDbCircle
 10
149.7957930095
 20
106.5929269358
 30
0.0
 40
15.0
  0
LINE
  5
9F
330
93
100
AcDbEntity
  8
MEGA_002109
  6
Continuous
 62
     7
100
AcDbLine
 10
128.5521853572
 20
35.5929269358
 30
0.0
 11
128.5521853572
 21
263.5929269358
 31
0.0
  0
ARC
  5
A0
330
93
100
AcDbEntity
  8
MEGA_002109
  6
Continuous
 62
     7
100
AcDbCircle
 10
149.7957930095
 20
263.5929269358
 30
0.0
 40
21.24360765232544
100
AcDbArc
 50
0.0
 51
180.0
  0
ARC
  5
A1
330
93
100
AcDbEntity
  8
MEGA_002109
  6
Continuous
 62
     7
100
AcDbCircle
 10
149.7957930095
 20
35.5929269358
 30
0.0
 40
21.24360765232542
100
AcDbArc
 50
180.0
 51
0.0
  0
LINE
  5
A2
330
93
100
AcDbEntity
  8
MEGA_002109
  6
Continuous
 62
     7
100
AcDbLine
 10
171.0394006618
 20
263.5929269358
 30
0.0
 11
171.0394006618
 21
35.5929269358
 31
0.0
  0
CIRCLE
  5
A3
330
93
100
AcDbEntity
  8
MEGA_002109
  6
Continuous
 62
     7
100
AcDbCircle
 10
149.7957930095
 20
184.5929269358
 30
0.0
 40
9.550796812243503
  0
CIRCLE
  5
A5
330
93
100
AcDbEntity
  8
MEGA_000863
  6
Continuous
 62
     7
100
AcDbCircle
 10
149.7957930095
 20
184.5929269358
 30
0.0
 40
9.000000000000002
  0
CIRCLE
  5
A7
330
93
100
AcDbEntity
  8
MEGA_001997
  6
Continuous
 62
     7
100
AcDbCircle
 10
149.7957930095
 20
106.5929269358
 30
0.0
 40
11.1
  0
ENDBLK
  5
A9
330
93
100
AcDbEntity
  8
0
100
AcDbBlockEnd
  0
BLOCK
  5
D0
330
AA
100
AcDbEntity
  8
0
100
AcDbBlockBegin
  2
SE1
 70
     0
 10
0.0
 20
0.0
 30
0.0
  3
SE1
  1

  0
LINE
  5
AC
330
AA
100
AcDbEntity
  8
MEGA_002109
  6
Continuous
 62
     7
100
AcDbLine
 10
57.911145454
 20
9.5929269358
 30
0.0
 11
57.911145454
 21
35.5929269358
 31
0.0
  0
LINE
  5
AD
330
AA
100
AcDbEntity
  8
MEGA_002109
  6
Continuous
 62
     7
100
AcDbLine
 10
57.911145454
 20
35.5929269358
 30
0.0
 11
57.911145454
 21
263.5929269358
 31
0.0
  0
LINE
  5
AE
330
AA
100
AcDbEntity
  8
MEGA_002109
  6
Continuous
 62
     7
100
AcDbLine
 10
57.911145454
 20
263.5929269358
 30
0.0
 11
57.911145454
 21
289.5929269358
 31
0.0
  0
LINE
  5
AF
330
AA
100
AcDbEntity
  8
MEGA_002109
  6
Continuous
 62
     7
100
AcDbLine
 10
63.611145454
 20
166.7472744303
 30
0.0
 11
63.611145454
 21
158.4385794413
 31
0.0
  0
LINE
  5
B0
330
AA
100
AcDbEntity
  8
MEGA_002109
  6
Continuous
 62
     7
100
AcDbLine
 10
42.211145454
 20
35.5929269358
 30
0.0
 11
42.211145454
 21
263.5929269358
 31
0.0
  0
LINE
  5
B1
330
AA
100
AcDbEntity
  8
MEGA_002109
  6
Continuous
 62
     7
100
AcDbLine
 10
42.211145454
 20
18.1080897666
 30
0.0
 11
42.211145454
 21
35.5929269358
 31
0.0
  0
LINE
  5
B2
330
AA
100
AcDbEntity
  8
MEGA_002109
  6
Continuous
 62
     7
100
AcDbLine
 10
42.211145454
 20
263.5929269358
 30
0.0
 11
42.211145454
 21
281.077764105
 31
0.0
  0
LINE
  5
B3
330
AA
100
AcDbEntity
  8
MEGA_002109
  6
Continuous
 62
     7
100
AcDbLine
 10
44.8430648807
 20
14.3493192835
 30
0.0
 11
57.911145454
 21
9.5929269358
 31
0.0
  0
LINE
  5
B4
330
AA
100
AcDbEntity
  8
MEGA_002109
  6
Continuous
 62
     7
100
AcDbLine
 10
57.911145454
 20
289.5929269358
 30
0.0
 11
44.8430648807
 21
284.8365345882
 31
0.0
  0
LINE
  5
B5
330
AA
100
AcDbEntity
  8
MEGA_002109
  6
Continuous
 62
     7
100
AcDbLine
 10
57.911145454
 20
158.0929269358
 30
0.0
 11
63.3655307441
 21
158.1886179058
 31
0.0
  0
LINE
  5
B6
330
AA
100
AcDbEntity
  8
MEGA_002109
  6
Continuous
 62
     7
100
AcDbLine
 10
63.3655307441
 20
166.9972359658
 30
0.0
 11
57.911145454
 21
167.0929269358
 31
0.0
  0
ARC
  5
B7
330
AA
100
AcDbEntity
  8
MEGA_002109
  6
Continuous
 62
     7
100
AcDbCircle
 10
63.361145454
 20
158.4385794413
 30
0.0
 40
0.2500000000000004
100
AcDbArc
 50
271.0050860053
 51
0.0
  0
ARC
  5
B8
330
AA
100
AcDbEntity
  8
MEGA_002109
  6
Continuous
 62
     7
100
AcDbCircle
 10
63.361145454
 20
166.7472744303
 30
0.0
 40
0.2500000000000002
100
AcDbArc
 50
0.0
 51
88.9949139947
  0
ARC
  5
B9
330
AA
100
AcDbEntity
  8
MEGA_002109
  6
Continuous
 62
     7
100
AcDbCircle
 10
46.211145454
 20
281.077764105
 30
0.0
 40
3.999999999999994
100
AcDbArc
 50
110.0
 51
180.0
  0
ARC
  5
BA
330
AA
100
AcDbEntity
  8
MEGA_002109
  6
Continuous
 62
     7
100
AcDbCircle
 10
46.211145454
 20
18.1080897666
 30
0.0
 40
4.0
100
AcDbArc
 50
180.0
 51
250.0
  0
LINE
  5
BC
330
AA
100
AcDbEntity
  8
MEGA_000572
  6
Continuous
 62
     7
100
AcDbLine
 10
64.911145454
 20
33.8429269358
 30
0.0
 11
64.911145454
 21
27.3429269358
 31
0.0
  0
LINE
  5
BD
330
AA
100
AcDbEntity
  8
MEGA_000572
  6
Continuous
 62
     7
100
AcDbLine
 10
64.411145454
 20
34.3429269358
 30
0.0
 11
57.911145454
 21
34.3429269358
 31
0.0
  0
LINE
  5
BE
330
AA
100
AcDbEntity
  8
MEGA_000572
  6
Continuous
 62
     7
100
AcDbLine
 10
57.911145454
 20
26.8429269358
 30
0.0
 11
64.411145454
 21
26.8429269358
 31
0.0
  0
LINE
  5
BF
330
AA
100
AcDbEntity
  8
MEGA_000572
  6
Continuous
 62
     7
100
AcDbLine
 10
64.411145454
 20
26.8429269358
 30
0.0
 11
64.911145454
 21
27.3429269358
 31
0.0
  0
LINE
  5
C0
330
AA
100
AcDbEntity
  8
MEGA_000572
  6
Continuous
 62
     7
100
AcDbLine
 10
64.911145454
 20
33.8429269358
 30
0.0
 11
64.411145454
 21
34.3429269358
 31
0.0
  0
LINE
  5
C1
330
AA
100
AcDbEntity
  8
MEGA_000572
  6
Continuous
 62
     7
100
AcDbLine
 10
64.911145454
 20
271.8429269358
 30
0.0
 11
64.911145454
 21
265.3429269358
 31
0.0
  0
LINE
  5
C2
330
AA
100
AcDbEntity
  8
MEGA_000572
  6
Continuous
 62
     7
100
AcDbLine
 10
64.411145454
 20
272.3429269358
 30
0.0
 11
57.911145454
 21
272.3429269358
 31
0.0
  0
LINE
  5
C3
330
AA
100
AcDbEntity
  8
MEGA_000572
  6
Continuous
 62
     7
100
AcDbLine
 10
57.911145454
 20
264.8429269358
 30
0.0
 11
64.411145454
 21
264.8429269358
 31
0.0
  0
LINE
  5
C4
330
AA
100
AcDbEntity
  8
MEGA_000572
  6
Continuous
 62
     7
100
AcDbLine
 10
64.411145454
 20
264.8429269358
 30
0.0
 11
64.911145454
 21
265.3429269358
 31
0.0
  0
LINE
  5
C5
330
AA
100
AcDbEntity
  8
MEGA_000572
  6
Continuous
 62
     7
100
AcDbLine
 10
64.911145454
 20
271.8429269358
 30
0.0
 11
64.411145454
 21
272.3429269358
 31
0.0
  0
LINE
  5
C6
330
AA
100
AcDbEntity
  8
MEGA_000863
  6
Continuous
 62
     7
100
AcDbLine
 10
41.211145454
 20
195.4287133735
 30
0.0
 11
41.211145454
 21
173.7571404982
 31
0.0
  0
ARC
  5
C7
330
AA
100
AcDbEntity
  8
MEGA_000863
  6
Continuous
 62
     7
100
AcDbCircle
 10
42.711145454
 20
195.4287133735
 30
0.0
 40
1.5
100
AcDbArc
 50
109.4712206345
 51
180.0
  0
ARC
  5
C8
330
AA
100
AcDbEntity
  8
MEGA_000863
  6
Continuous
 62
     7
100
AcDbCircle
 10
42.711145454
 20
173.7571404982
 30
0.0
 40
1.5
100
AcDbArc
 50
180.0
 51
250.5287793655
  0
LINE
  5
C9
330
AA
100
AcDbEntity
  8
MEGA_001997
  6
Continuous
 62
     7
100
AcDbLine
 10
24.011145454
 20
118.5929269358
 30
0.0
 11
24.011145454
 21
94.5929269358
 31
0.0
  0
LINE
  5
CA
330
AA
100
AcDbEntity
  8
MEGA_001997
  6
Continuous
 62
     7
100
AcDbLine
 10
42.0158260688
 20
121.4929269358
 30
0.0
 11
42.0158260688
 21
91.6929269358
 31
0.0
  0
LINE
  5
CB
330
AA
100
AcDbEntity
  8
MEGA_001997
  6
Continuous
 62
     7
100
AcDbLine
 10
42.0158260688
 20
121.4929269358
 30
0.0
 11
24.011145454
 21
118.5929269358
 31
0.0
  0
LINE
  5
CC
330
AA
100
AcDbEntity
  8
MEGA_001997
  6
Continuous
 62
     7
100
AcDbLine
 10
24.011145454
 20
94.5929269358
 30
0.0
 11
42.0158260688
 21
91.6929269358
 31
0.0
  0
LINE
  5
CE
330
AA
100
AcDbEntity
  8
DV2_Standard
  6
Continuous
 62
     7
100
AcDbLine
 10
64.911145454
 20
27.5929269358
 30
0.0
 11
66.1074738483
 21
27.5929269358
 31
0.0
  0
LINE
  5
CF
330
AA
100
AcDbEntity
  8
DV2_Standard
  6
Continuous
 62
     7
100
AcDbLine
 10
64.911145454
 20
33.5929269358
 30
0.0
 11
66.1074738483
 21
33.5929269358
 31
0.0
  0
ENDBLK
  5
D1
330
AA
100
AcDbEntity
  8
0
100
AcDbBlockEnd
  0
BLOCK
  5
D4
330
D3
100
AcDbEntity
  8
0
100
AcDbBlockBegin
  2
_OBLIQUE
 70
     0
 10
0.0
 20
0.0
 30
0.0
  3
_OBLIQUE
  1

  0
LINE
  5
D6
330
D3
100
AcDbEntity
  8
0
  6
ByBlock
 62
     0
370
    -2
100
AcDbLine
 10
-0.5
 20
-0.5
 30
0.0
 11
0.5
 21
0.5
 31
0.0
  0
ENDBLK
  5
D5
330
D3
100
AcDbEntity
  8
0
100
AcDbBlockEnd
  0
BLOCK
  5
D8
330
D7
100
AcDbEntity
  8
0
100
AcDbBlockBegin
  2
_DOT
 70
     0
 10
0.0
 20
0.0
 30
0.0
  3
_DOT
  1

  0
POLYLINE
  5
DA
330
D7
100
AcDbEntity
  8
0
  6
ByBlock
 62
     0
100
AcDb2dPolyline
 66
     1
 10
0.0
 20
0.0
 30
0.0
 70
     1
 40
0.5
 41
0.5
  0
VERTEX
  5
DD
330
DA
100
AcDbEntity
  8
0
  6
ByBlock
 62
     0
100
AcDbVertex
100
AcDb2dVertex
 10
-0.25
 20
0.0
 30
0.0
 42
1.0
  0
VERTEX
  5
DE
330
DA
100
AcDbEntity
  8
0
  6
ByBlock
 62
     0
100
AcDbVertex
100
AcDb2dVertex
 10
0.25
 20
0.0
 30
0.0
 42
1.0
  0
SEQEND
  5
DC
330
DA
100
AcDbEntity
  8
0
  6
ByBlock
 62
     0
  0
LINE
  5
DB
330
D7
100
AcDbEntity
  8
0
  6
ByBlock
 62
     0
370
    -2
100
AcDbLine
 10
-0.5
 20
0.0
 30
0.0
 11
-1.0
 21
0.0
 31
0.0
  0
ENDBLK
  5
D9
330
D7
100
AcDbEntity
  8
0
100
AcDbBlockEnd
  0
BLOCK
  5
E2
330
DF
100
AcDbEntity
  8
0
100
AcDbBlockBegin
  2
_SE_FILLED
 70
     0
 10
0.0
 20
0.0
 30
0.0
  3
_SE_FILLED
  1

  0
SOLID
  5
E0
330
DF
100
AcDbEntity
  8
0
 62
     0
100
AcDbTrace
 10
0.0
 20
0.0
 30
0.0
 11
-1.0
 21
-0.1665
 31
0.0
 12
-1.0
 22
0.1665
 32
0.0
 13
0.0
 23
0.0
 33
0.0
  0
LINE
  5
E1
330
DF
100
AcDbEntity
  8
0
 62
     0
100
AcDbLine
 10
0.0
 20
0.0
 30
0.0
 11
-1.0
 21
0.0
 31
0.0
  0
ENDBLK
  5
E3
330
DF
100
AcDbEntity
  8
0
100
AcDbBlockEnd
  0
BLOCK
  5
EF
330
E7
100
AcDbEntity
  8
0
100
AcDbBlockBegin
  2
DMBLK313
 70
     0
 10
0.0
 20
0.0
 30
0.0
  3
DMBLK313
  1

  0
HATCH
  5
E8
330
E7
100
AcDbEntity
  8
Default
  6
Continuous
 62
     7
100
AcDbHatch
 10
0.0
 20
0.0
 30
0.0
210
0.0
220
0.0
230
1.0
  2
SOLID
 70
     1
 71
     0
 91
        1
 92
        1
 93
        3
 72
     1
 10
78.67480586328514
 20
36.59292696190759
 11
77.67480585459279
 21
36.59292696190759
 72
     1
 10
77.67480585459279
 20
36.59292696190759
 11
78.17480585893897
 21
33.59292693583056
 72
     1
 10
78.17480585893897
 20
33.59292693583056
 11
78.67480586328514
 21
36.59292696190759
 97
        0
 75
     0
 76
     1
 98
        0
  0
HATCH
  5
E9
330
E7
100
AcDbEntity
  8
Default
  6
Continuous
 62
     7
100
AcDbHatch
 10
0.0
 20
0.0
 30
0.0
210
0.0
220
0.0
230
1.0
  2
SOLID
 70
     1
 71
     0
 91
        1
 92
        1
 93
        3
 72
     1
 10
78.67480586328514
 20
24.59292690975352
 11
78.17480585893897
 21
27.59292693583055
 72
     1
 10
78.17480585893897
 20
27.59292693583055
 11
77.67480585459279
 21
24.59292690975352
 72
     1
 10
77.67480585459279
 20
24.59292690975352
 11
78.67480586328514
 21
24.59292690975352
 97
        0
 75
     0
 76
     1
 98
        0
  0
LINE
  5
EA
330
E7
100
AcDbEntity
  8
Default
  6
Continuous
 62
     7
100
AcDbLine
 10
65.5093096512
 20
33.5929269358
 30
0.0
 11
79.674805872
 21
33.5929269358
 31
0.0
  0
LINE
  5
EB
330
E7
100
AcDbEntity
  8
Default
  6
Continuous
 62
     7
100
AcDbLine
 10
65.5093096512
 20
27.5929269358
 30
0.0
 11
79.674805872
 21
27.5929269358
 31
0.0
  0
LINE
  5
EC
330
E7
100
AcDbEntity
  8
Default
  6
Continuous
 62
     7
100
AcDbLine
 10
78.1748058589
 20
43.0922206878
 30
0.0
 11
78.1748058589
 21
21.5929268315
 31
0.0
  0
TEXT
  5
ED
330
E7
100
AcDbEntity
  8
Default
  6
Continuous
 62
     7
100
AcDbText
 10
77.4248058589
 20
40.2013115844
 30
0.0
 40
3.0
  1
6
 50
90.0
  7
SEACAD_seiso_ttf
 11
74.4248058589
 21
40.2013115844
 31
0.0
100
AcDbText
 73
     3
  0
TEXT
  5
EE
330
E7
100
AcDbEntity
  8
Default
  6
Continuous
 62
     7
100
AcDbText
 10
77.4248058589
 20
37.5831297662
 30
0.0
 40
3.0
  1
M
 50
90.0
  7
SEACAD_seiso_ttf
 11
74.4248058589
 21
37.5831297662
 31
0.0
100
AcDbText
 73
     3
  0
ENDBLK
  5
F0
330
E7
100
AcDbEntity
  8
0
100
AcDbBlockEnd
  0
BLOCK
  5
F9
330
F2
100
AcDbEntity
  8
0
100
AcDbBlockBegin
  2
DMBLK314
 70
     0
 10
0.0
 20
0.0
 30
0.0
  3
DMBLK314
  1

  0
HATCH
  5
F3
330
F2
100
AcDbEntity
  8
Default
  6
Continuous
 62
     7
100
AcDbHatch
 10
0.0
 20
0.0
 30
0.0
210
0.0
220
0.0
230
1.0
  2
SOLID
 70
     1
 71
     0
 91
        1
 92
        1
 93
        3
 72
     1
 10
92.19952918065529
 20
33.59292696190759
 11
91.19952917196294
 21
33.59292696190759
 72
     1
 10
91.19952917196294
 20
33.59292696190759
 11
91.69952917630911
 21
30.59292693583056
 72
     1
 10
91.69952917630911
 20
30.59292693583056
 11
92.19952918065529
 21
33.59292696190759
 97
        0
 75
     0
 76
     1
 98
        0
  0
HATCH
  5
F4
330
F2
100
AcDbEntity
  8
Default
  6
Continuous
 62
     7
100
AcDbHatch
 10
0.0
 20
0.0
 30
0.0
210
0.0
220
0.0
230
1.0
  2
SOLID
 70
     1
 71
     0
 91
        1
 92
        1
 93
        3
 72
     1
 10
92.19952918065529
 20
181.5929260752885
 11
91.69952917630911
 21
184.5929261013655
 72
     1
 10
91.69952917630911
 20
184.5929261013655
 11
91.19952917196294
 21
181.5929260752885
 72
     1
 10
91.19952917196294
 20
181.5929260752885
 11
92.19952918065529
 21
181.5929260752885
 97
        0
 75
     0
 76
     1
 98
        0
  0
LINE
  5
F5
330
F2
100
AcDbEntity
  8
Default
  6
Continuous
 62
     7
100
AcDbLine
 10
64.911145454
 20
30.5929269358
 30
0.0
 11
93.1995291893
 21
30.5929269358
 31
0.0
  0
LINE
  5
F6
330
F2
100
AcDbEntity
  8
Default
  6
Continuous
 62
     7
100
AcDbLine
 10
65.085397205
 20
184.5929269358
 30
0.0
 11
93.1995291893
 21
184.5929269358
 31
0.0
  0
LINE
  5
F7
330
F2
100
AcDbEntity
  8
Default
  6
Continuous
 62
     7
100
AcDbLine
 10
91.6995291763
 20
30.5929269358
 30
0.0
 11
91.6995291763
 21
184.5929261014
 31
0.0
  0
TEXT
  5
F8
330
F2
100
AcDbEntity
  8
Default
  6
Continuous
 62
     7
100
AcDbText
 10
90.9495291763
 20
105.2406537913
 30
0.0
 40
3.0
  1
154
 50
90.0
  7
SEACAD_seiso_ttf
 11
87.9495291763
 21
105.2406537913
 31
0.0
100
AcDbText
 73
     3
  0
ENDBLK
  5
FA
330
F2
100
AcDbEntity
  8
0
100
AcDbBlockEnd
  0
BLOCK
  5
103
330
FC
100
AcDbEntity
  8
0
100
AcDbBlockBegin
  2
DMBLK315
 70
     0
 10
0.0
 20
0.0
 30
0.0
  3
DMBLK315
  1

  0
HATCH
  5
FD
330
FC
100
AcDbEntity
  8
Default
  6
Continuous
 62
     7
100
AcDbHatch
 10
0.0
 20
0.0
 30
0.0
210
0.0
220
0.0
230
1.0
  2
SOLID
 70
     1
 71
     0
 91
        1
 92
        1
 93
        3
 72
     1
 10
92.1995301457389
 20
187.5929269619076
 11
91.19953013704655
 21
187.5929269619076
 72
     1
 10
91.19953013704655
 20
187.5929269619076
 11
91.69953014139273
 21
184.5929269358305
 72
     1
 10
91.69953014139273
 20
184.5929269358305
 11
92.1995301457389
 21
187.5929269619076
 97
        0
 75
     0
 76
     1
 98
        0
  0
HATCH
  5
FE
330
FC
100
AcDbEntity
  8
Default
  6
Continuous
 62
     7
100
AcDbHatch
 10
0.0
 20
0.0
 30
0.0
210
0.0
220
0.0
230
1.0
  2
SOLID
 70
     1
 71
     0
 91
        1
 92
        1
 93
        3
 72
     1
 10
92.1995301457389
 20
265.5929257772652
 11
91.69953014139273
 21
268.5929258033423
 72
     1
 10
91.69953014139273
 20
268.5929258033423
 11
91.19953013704655
 21
265.5929257772652
 72
     1
 10
91.19953013704655
 20
265.5929257772652
 11
92.1995301457389
 21
265.5929257772652
 97
        0
 75
     0
 76
     1
 98
        0
  0
LINE
  5
FF
330
FC
100
AcDbEntity
  8
Default
  6
Continuous
 62
     7
100
AcDbLine
 10
65.0853968728
 20
184.5929269358
 30
0.0
 11
93.1995301544
 21
184.5929269358
 31
0.0
  0
LINE
  5
100
330
FC
100
AcDbEntity
  8
Default
  6
Continuous
 62
     7
100
AcDbLine
 10
64.911145454
 20
268.5929269358
 30
0.0
 11
93.1995301544
 21
268.5929269358
 31
0.0
  0
LINE
  5
101
330
FC
100
AcDbEntity
  8
Default
  6
Continuous
 62
     7
100
AcDbLine
 10
91.6995301414
 20
184.5929269358
 30
0.0
 11
91.6995301414
 21
268.5929258033
 31
0.0
  0
TEXT
  5
102
330
FC
100
AcDbEntity
  8
Default
  6
Continuous
 62
     7
100
AcDbText
 10
90.9495301414
 20
224.7520172787
 30
0.0
 40
3.0
  1
84
 50
90.0
  7
SEACAD_seiso_ttf
 11
87.9495301414
 21
224.7520172787
 31
0.0
100
AcDbText
 73
     3
  0
ENDBLK
  5
104
330
FC
100
AcDbEntity
  8
0
100
AcDbBlockEnd
  0
BLOCK
  5
10D
330
106
100
AcDbEntity
  8
0
100
AcDbBlockBegin
  2
DMBLK316
 70
     0
 10
0.0
 20
0.0
 30
0.0
  3
DMBLK316
  1

  0
HATCH
  5
107
330
106
100
AcDbEntity
  8
Default
  6
Continuous
 62
     7
100
AcDbHatch
 10
0.0
 20
0.0
 30
0.0
210
0.0
220
0.0
230
1.0
  2
SOLID
 70
     1
 71
     0
 91
        1
 92
        1
 93
        3
 72
     1
 10
84.68777524603348
 20
165.5929269619076
 11
83.68777523734113
 21
165.5929269619076
 72
     1
 10
83.68777523734113
 20
165.5929269619076
 11
84.1877752416873
 21
162.5929269358305
 72
     1
 10
84.1877752416873
 20
162.5929269358305
 11
84.68777524603348
 21
165.5929269619076
 97
        0
 75
     0
 76
     1
 98
        0
  0
HATCH
  5
108
330
106
100
AcDbEntity
  8
Default
  6
Continuous
 62
     7
100
AcDbHatch
 10
0.0
 20
0.0
 30
0.0
210
0.0
220
0.0
230
1.0
  2
SOLID
 70
     1
 71
     0
 91
        1
 92
        1
 93
        3
 72
     1
 10
84.68777524603348
 20
181.5929267905442
 11
84.1877752416873
 21
184.5929268166212
 72
     1
 10
84.1877752416873
 20
184.5929268166212
 11
83.68777523734113
 21
181.5929267905442
 72
     1
 10
83.68777523734113
 20
181.5929267905442
 11
84.68777524603348
 21
181.5929267905442
 97
        0
 75
     0
 76
     1
 98
        0
  0
LINE
  5
109
330
106
100
AcDbEntity
  8
Default
  6
Continuous
 62
     7
100
AcDbLine
 10
63.611145454
 20
162.5929269358
 30
0.0
 11
85.6877752547
 21
162.5929269358
 31
0.0
  0
LINE
  5
10A
330
106
100
AcDbEntity
  8
Default
  6
Continuous
 62
     7
100
AcDbLine
 10
65.085397205
 20
184.5929269358
 30
0.0
 11
85.6877752547
 21
184.5929269358
 31
0.0
  0
LINE
  5
10B
330
106
100
AcDbEntity
  8
Default
  6
Continuous
 62
     7
100
AcDbLine
 10
84.1877752417
 20
162.5929269358
 30
0.0
 11
84.1877752417
 21
184.5929268166
 31
0.0
  0
TEXT
  5
10C
330
106
100
AcDbEntity
  8
Default
  6
Continuous
 62
     7
100
AcDbText
 10
83.4377752417
 20
171.7520177853
 30
0.0
 40
3.0
  1
22
 50
90.0
  7
SEACAD_seiso_ttf
 11
80.4377752417
 21
171.7520177853
 31
0.0
100
AcDbText
 73
     3
  0
ENDBLK
  5
10E
330
106
100
AcDbEntity
  8
0
100
AcDbBlockEnd
  0
BLOCK
  5
117
330
110
100
AcDbEntity
  8
0
100
AcDbBlockBegin
  2
DMBLK317
 70
     0
 10
0.0
 20
0.0
 30
0.0
  3
DMBLK317
  1

  0
HATCH
  5
111
330
110
100
AcDbEntity
  8
Default
  6
Continuous
 62
     7
100
AcDbHatch
 10
0.0
 20
0.0
 30
0.0
210
0.0
220
0.0
230
1.0
  2
SOLID
 70
     1
 71
     0
 91
        1
 92
        1
 93
        3
 72
     1
 10
109.2265184008504
 20
190.5929269097535
 11
110.2265184095428
 21
190.5929269097535
 72
     1
 10
110.2265184095428
 20
190.5929269097535
 11
109.7265184051966
 21
193.5929269358305
 72
     1
 10
109.7265184051966
 20
193.5929269358305
 11
109.2265184008504
 21
190.5929269097535
 97
        0
 75
     0
 76
     1
 98
        0
  0
HATCH
  5
112
330
110
100
AcDbEntity
  8
Default
  6
Continuous
 62
     7
100
AcDbHatch
 10
0.0
 20
0.0
 30
0.0
210
0.0
220
0.0
230
1.0
  2
SOLID
 70
     1
 71
     0
 91
        1
 92
        1
 93
        3
 72
     1
 10
109.2265184008504
 20
178.592927736768
 11
109.7265184051966
 21
175.5929277106909
 72
     1
 10
109.7265184051966
 20
175.5929277106909
 11
110.2265184095428
 21
178.592927736768
 72
     1
 10
110.2265184095428
 20
178.592927736768
 11
109.2265184008504
 21
178.592927736768
 97
        0
 75
     0
 76
     1
 98
        0
  0
LINE
  5
113
330
110
100
AcDbEntity
  8
Default
  6
Continuous
 62
     7
100
AcDbLine
 10
149.7957930095
 20
193.5929269358
 30
0.0
 11
108.2265183922
 21
193.5929269358
 31
0.0
  0
LINE
  5
114
330
110
100
AcDbEntity
  8
Default
  6
Continuous
 62
     7
100
AcDbLine
 10
149.7957930095
 20
175.5929269358
 30
0.0
 11
108.2265183922
 21
175.5929269358
 31
0.0
  0
LINE
  5
115
330
110
100
AcDbEntity
  8
Default
  6
Continuous
 62
     7
100
AcDbLine
 10
109.7265184052
 20
193.5929269358
 30
0.0
 11
109.7265184052
 21
175.5929277107
 31
0.0
  0
TEXT
  5
116
330
110
100
AcDbEntity
  8
Default
  6
Continuous
 62
     7
100
AcDbText
 10
108.9765184052
 20
183.0247455051
 30
0.0
 40
3.0
  1
18
 50
90.0
  7
SEACAD_seiso_ttf
 11
105.9765184052
 21
183.0247455051
 31
0.0
100
AcDbText
 73
     3
  0
ENDBLK
  5
118
330
110
100
AcDbEntity
  8
0
100
AcDbBlockEnd
  0
BLOCK
  5
121
330
11A
100
AcDbEntity
  8
0
100
AcDbBlockBegin
  2
DMBLK318
 70
     0
 10
0.0
 20
0.0
 30
0.0
  3
DMBLK318
  1

  0
HATCH
  5
11B
330
11A
100
AcDbEntity
  8
Default
  6
Continuous
 62
     7
100
AcDbHatch
 10
0.0
 20
0.0
 30
0.0
210
0.0
220
0.0
230
1.0
  2
SOLID
 70
     1
 71
     0
 91
        1
 92
        1
 93
        3
 72
     1
 10
188.2041608264968
 20
181.5929269097535
 11
187.7041608221506
 21
184.5929269358305
 72
     1
 10
187.7041608221506
 20
184.5929269358305
 11
187.2041608178045
 21
181.5929269097535
 72
     1
 10
187.2041608178045
 20
181.5929269097535
 11
188.2041608264968
 21
181.5929269097535
 97
        0
 75
     0
 76
     1
 98
        0
  0
HATCH
  5
11C
330
11A
100
AcDbEntity
  8
Default
  6
Continuous
 62
     7
100
AcDbHatch
 10
0.0
 20
0.0
 30
0.0
210
0.0
220
0.0
230
1.0
  2
SOLID
 70
     1
 71
     0
 91
        1
 92
        1
 93
        3
 72
     1
 10
188.2041608264968
 20
109.5929253525822
 11
187.2041608178045
 21
109.5929253525822
 72
     1
 10
187.2041608178045
 20
109.5929253525822
 11
187.7041608221506
 21
106.5929253265051
 72
     1
 10
187.7041608221506
 20
106.5929253265051
 11
188.2041608264968
 21
109.5929253525822
 97
        0
 75
     0
 76
     1
 98
        0
  0
LINE
  5
11D
330
11A
100
AcDbEntity
  8
Default
  6
Continuous
 62
     7
100
AcDbLine
 10
149.7957930095
 20
184.5929269358
 30
0.0
 11
189.2041608352
 21
184.5929269358
 31
0.0
  0
LINE
  5
11E
330
11A
100
AcDbEntity
  8
Default
  6
Continuous
 62
     7
100
AcDbLine
 10
149.7957930095
 20
106.5929269358
 30
0.0
 11
189.2041608352
 21
106.5929269358
 31
0.0
  0
LINE
  5
11F
330
11A
100
AcDbEntity
  8
Default
  6
Continuous
 62
     7
100
AcDbLine
 10
187.7041608222
 20
184.5929269358
 30
0.0
 11
187.7041608222
 21
106.5929253265
 31
0.0
  0
TEXT
  5
120
330
11A
100
AcDbEntity
  8
Default
  6
Continuous
 62
     7
100
AcDbText
 10
186.9541608222
 20
143.6838352221
 30
0.0
 40
3.0
  1
78
 50
90.0
  7
SEACAD_seiso_ttf
 11
183.9541608222
 21
143.6838352221
 31
0.0
100
AcDbText
 73
     3
  0
ENDBLK
  5
122
330
11A
100
AcDbEntity
  8
0
100
AcDbBlockEnd
  0
BLOCK
  5
12B
330
124
100
AcDbEntity
  8
0
100
AcDbBlockBegin
  2
DMBLK319
 70
     0
 10
0.0
 20
0.0
 30
0.0
  3
DMBLK319
  1

  0
HATCH
  5
125
330
124
100
AcDbEntity
  8
Default
  6
Continuous
 62
     7
100
AcDbHatch
 10
0.0
 20
0.0
 30
0.0
210
0.0
220
0.0
230
1.0
  2
SOLID
 70
     1
 71
     0
 91
        1
 92
        1
 93
        3
 72
     1
 10
199.0159702768848
 20
286.5929269097535
 11
198.5159702725386
 21
289.5929269358306
 72
     1
 10
198.5159702725386
 20
289.5929269358306
 11
198.0159702681924
 21
286.5929269097535
 72
     1
 10
198.0159702681924
 20
286.5929269097535
 11
199.0159702768848
 21
286.5929269097535
 97
        0
 75
     0
 76
     1
 98
        0
  0
HATCH
  5
126
330
124
100
AcDbEntity
  8
Default
  6
Continuous
 62
     7
100
AcDbHatch
 10
0.0
 20
0.0
 30
0.0
210
0.0
220
0.0
230
1.0
  2
SOLID
 70
     1
 71
     0
 91
        1
 92
        1
 93
        3
 72
     1
 10
199.0159702768848
 20
12.59292576981469
 11
198.0159702681924
 21
12.59292576981469
 72
     1
 10
198.0159702681924
 20
12.59292576981469
 11
198.5159702725386
 21
9.592925743737657
 72
     1
 10
198.5159702725386
 20
9.592925743737657
 11
199.0159702768848
 21
12.59292576981469
 97
        0
 75
     0
 76
     1
 98
        0
  0
LINE
  5
127
330
124
100
AcDbEntity
  8
Default
  6
Continuous
 62
     7
100
AcDbLine
 10
149.7957930095
 20
289.5929269358
 30
0.0
 11
200.0159702856
 21
289.5929269358
 31
0.0
  0
LINE
  5
128
330
124
100
AcDbEntity
  8
Default
  6
Continuous
 62
     7
100
AcDbLine
 10
149.7957930095
 20
9.5929269358
 30
0.0
 11
200.0159702856
 21
9.5929269358
 31
0.0
  0
LINE
  5
129
330
124
100
AcDbEntity
  8
Default
  6
Continuous
 62
     7
100
AcDbLine
 10
198.5159702725
 20
289.5929269358
 30
0.0
 11
198.5159702725
 21
9.5929257437
 31
0.0
  0
TEXT
  5
12A
330
124
100
AcDbEntity
  8
Default
  6
Continuous
 62
     7
100
AcDbText
 10
197.7659702725
 20
146.8315627034
 30
0.0
 40
3.0
  1
280
 50
90.0
  7
SEACAD_seiso_ttf
 11
194.7659702725
 21
146.8315627034
 31
0.0
100
AcDbText
 73
     3
  0
ENDBLK
  5
12C
330
124
100
AcDbEntity
  8
0
100
AcDbBlockEnd
  0
BLOCK
  5
135
330
12E
100
AcDbEntity
  8
0
100
AcDbBlockBegin
  2
DMBLK320
 70
     0
 10
0.0
 20
0.0
 30
0.0
  3
DMBLK320
  1

  0
HATCH
  5
12F
330
12E
100
AcDbEntity
  8
Default
  6
Continuous
 62
     7
100
AcDbHatch
 10
0.0
 20
0.0
 30
0.0
210
0.0
220
0.0
230
1.0
  2
SOLID
 70
     1
 71
     0
 91
        1
 92
        1
 93
        3
 72
     1
 10
126.7957930355942
 20
1.546229583128131
 11
126.7957930355942
 21
2.546229591820474
 72
     1
 10
126.7957930355942
 20
2.546229591820474
 11
123.7957930095171
 21
2.046229587474302
 72
     1
 10
123.7957930095171
 20
2.046229587474302
 11
126.7957930355942
 21
1.546229583128131
 97
        0
 75
     0
 76
     1
 98
        0
  0
HATCH
  5
130
330
12E
100
AcDbEntity
  8
Default
  6
Continuous
 62
     7
100
AcDbHatch
 10
0.0
 20
0.0
 30
0.0
210
0.0
220
0.0
230
1.0
  2
SOLID
 70
     1
 71
     0
 91
        1
 92
        1
 93
        3
 72
     1
 10
172.7957940563237
 20
1.546229583128136
 11
175.7957940824007
 21
2.046229587474309
 72
     1
 10
175.7957940824007
 20
2.046229587474309
 11
172.7957940563237
 21
2.54622959182048
 72
     1
 10
172.7957940563237
 20
2.54622959182048
 11
172.7957940563237
 21
1.546229583128136
 97
        0
 75
     0
 76
     1
 98
        0
  0
LINE
  5
131
330
12E
100
AcDbEntity
  8
Default
  6
Continuous
 62
     7
100
AcDbLine
 10
123.7957930095
 20
35.5929269358
 30
0.0
 11
123.7957930095
 21
0.5462295744
 31
0.0
  0
LINE
  5
132
330
12E
100
AcDbEntity
  8
Default
  6
Continuous
 62
     7
100
AcDbLine
 10
175.7957930095
 20
35.5929269358
 30
0.0
 11
175.7957930095
 21
0.5462295744
 31
0.0
  0
LINE
  5
133
330
12E
100
AcDbEntity
  8
Default
  6
Continuous
 62
     7
100
AcDbLine
 10
123.7957930095
 20
2.0462295875
 30
0.0
 11
175.7957940824
 21
2.0462295875
 31
0.0
  0
TEXT
  5
134
330
12E
100
AcDbEntity
  8
Default
  6
Continuous
 62
     7
100
AcDbText
 10
148.0230662732
 20
2.7962295875
 30
0.0
 40
3.0
  1
52
  7
SEACAD_seiso_ttf
 11
148.0230662732
 21
5.7962295875
 31
0.0
100
AcDbText
 73
     3
  0
ENDBLK
  5
136
330
12E
100
AcDbEntity
  8
0
100
AcDbBlockEnd
  0
BLOCK
  5
13F
330
138
100
AcDbEntity
  8
0
100
AcDbBlockBegin
  2
DMBLK321
 70
     0
 10
0.0
 20
0.0
 30
0.0
  3
DMBLK321
  1

  0
HATCH
  5
139
330
138
100
AcDbEntity
  8
Default
  6
Continuous
 62
     7
100
AcDbHatch
 10
0.0
 20
0.0
 30
0.0
210
0.0
220
0.0
230
1.0
  2
SOLID
 70
     1
 71
     0
 91
        1
 92
        1
 93
        3
 72
     1
 10
45.21114548008082
 20
292.9440403840168
 11
42.21114545400378
 21
292.4440403796706
 72
     1
 10
42.21114545400378
 20
292.4440403796706
 11
45.21114548008082
 21
291.9440403753244
 72
     1
 10
45.21114548008082
 20
291.9440403753244
 11
45.21114548008082
 21
292.9440403840168
 97
        0
 75
     0
 76
     1
 98
        0
  0
HATCH
  5
13A
330
138
100
AcDbEntity
  8
Default
  6
Continuous
 62
     7
100
AcDbHatch
 10
0.0
 20
0.0
 30
0.0
210
0.0
220
0.0
230
1.0
  2
SOLID
 70
     1
 71
     0
 91
        1
 92
        1
 93
        3
 72
     1
 10
54.91114483486054
 20
292.9440403840168
 11
54.91114483486054
 21
291.9440403753244
 72
     1
 10
54.91114483486054
 20
291.9440403753244
 11
57.91114486093757
 21
292.4440403796706
 72
     1
 10
57.91114486093757
 20
292.4440403796706
 11
54.91114483486054
 21
292.9440403840168
 97
        0
 75
     0
 76
     1
 98
        0
  0
LINE
  5
13B
330
138
100
AcDbEntity
  8
Default
  6
Continuous
 62
     7
100
AcDbLine
 10
42.211145454
 20
35.592926047
 30
0.0
 11
42.211145454
 21
293.9440403927
 31
0.0
  0
LINE
  5
13C
330
138
100
AcDbEntity
  8
Default
  6
Continuous
 62
     7
100
AcDbLine
 10
57.911145454
 20
35.5929274723
 30
0.0
 11
57.911145454
 21
293.9440403927
 31
0.0
  0
LINE
  5
13D
330
138
100
AcDbEntity
  8
Default
  6
Continuous
 62
     7
100
AcDbLine
 10
42.211145454
 20
292.4440403797
 30
0.0
 11
57.9111448609
 21
292.4440403797
 31
0.0
  0
TEXT
  5
13E
330
138
100
AcDbEntity
  8
Default
  6
Continuous
 62
     7
100
AcDbText
 10
47.3679633393
 20
293.1940403797
 30
0.0
 40
3.0
  1
15,7
  7
SEACAD_seiso_ttf
 11
47.3679633393
 21
296.1940403797
 31
0.0
100
AcDbText
 73
     3
  0
ENDBLK
  5
140
330
138
100
AcDbEntity
  8
0
100
AcDbBlockEnd
  0
BLOCK
  5
149
330
142
100
AcDbEntity
  8
0
100
AcDbBlockBegin
  2
DMBLK322
 70
     0
 10
0.0
 20
0.0
 30
0.0
  3
DMBLK322
  1

  0
HATCH
  5
143
330
142
100
AcDbEntity
  8
Default
  6
Continuous
 62
     7
100
AcDbHatch
 10
0.0
 20
0.0
 30
0.0
210
0.0
220
0.0
230
1.0
  2
SOLID
 70
     1
 71
     0
 91
        1
 92
        1
 93
        3
 72
     1
 10
54.91114542792679
 20
292.9440269081333
 11
54.91114542792679
 21
291.9440268994409
 72
     1
 10
54.91114542792679
 20
291.9440268994409
 11
57.91114545400382
 21
292.4440269037871
 72
     1
 10
57.91114545400382
 20
292.4440269037871
 11
54.91114542792679
 21
292.9440269081333
 97
        0
 75
     0
 76
     1
 98
        0
  0
HATCH
  5
144
330
142
100
AcDbEntity
  8
Default
  6
Continuous
 62
     7
100
AcDbHatch
 10
0.0
 20
0.0
 30
0.0
210
0.0
220
0.0
230
1.0
  2
SOLID
 70
     1
 71
     0
 91
        1
 92
        1
 93
        3
 72
     1
 10
67.91114548008086
 20
292.9440269081333
 11
64.91114545400383
 21
292.4440269037871
 72
     1
 10
64.91114545400383
 20
292.4440269037871
 11
67.91114548008086
 21
291.9440268994409
 72
     1
 10
67.91114548008086
 20
291.9440268994409
 11
67.91114548008086
 21
292.9440269081333
 97
        0
 75
     0
 76
     1
 98
        0
  0
LINE
  5
145
330
142
100
AcDbEntity
  8
Default
  6
Continuous
 62
     7
100
AcDbLine
 10
57.911145454
 20
35.5929274723
 30
0.0
 11
57.911145454
 21
293.9440269168
 31
0.0
  0
LINE
  5
146
330
142
100
AcDbEntity
  8
Default
  6
Continuous
 62
     7
100
AcDbLine
 10
64.911145454
 20
33.8429270699
 30
0.0
 11
64.911145454
 21
293.9440269168
 31
0.0
  0
LINE
  5
147
330
142
100
AcDbEntity
  8
Default
  6
Continuous
 62
     7
100
AcDbLine
 10
51.9111454018
 20
292.4440269038
 30
0.0
 11
70.9111457222
 21
292.4440269038
 31
0.0
  0
TEXT
  5
148
330
142
100
AcDbEntity
  8
Default
  6
Continuous
 62
     7
100
AcDbText
 10
60.4566001075
 20
293.1940269038
 30
0.0
 40
3.0
  1
7
  7
SEACAD_seiso_ttf
 11
60.4566001075
 21
296.1940269038
 31
0.0
100
AcDbText
 73
     3
  0
ENDBLK
  5
14A
330
142
100
AcDbEntity
  8
0
100
AcDbBlockEnd
  0
BLOCK
  5
152
330
14C
100
AcDbEntity
  8
0
100
AcDbBlockBegin
  2
DMBLK323
 70
     0
 10
0.0
 20
0.0
 30
0.0
  3
DMBLK323
  1

  0
HATCH
  5
14D
330
14C
100
AcDbEntity
  8
Default
  6
Continuous
 62
     7
100
AcDbHatch
 10
0.0
 20
0.0
 30
0.0
210
0.0
220
0.0
230
1.0
  2
SOLID
 70
     1
 71
     0
 91
        1
 92
        1
 93
        3
 72
     1
 10
54.91114542792678
 20
139.1767852426606
 11
57.91114545400381
 21
139.6767852470068
 72
     1
 10
57.91114545400381
 20
139.6767852470068
 11
54.91114542792678
 21
140.1767852513529
 72
     1
 10
54.91114542792678
 20
140.1767852513529
 11
54.91114542792678
 21
139.1767852426606
 97
        0
 75
     0
 76
     1
 98
        0
  0
HATCH
  5
14E
330
14C
100
AcDbEntity
  8
Default
  6
Continuous
 62
     7
100
AcDbHatch
 10
0.0
 20
0.0
 30
0.0
210
0.0
220
0.0
230
1.0
  2
SOLID
 70
     1
 71
     0
 91
        1
 92
        1
 93
        3
 72
     1
 10
66.61114548008085
 20
139.1767852426606
 11
66.61114548008085
 21
140.1767852513529
 72
     1
 10
66.61114548008085
 20
140.1767852513529
 11
63.61114545400382
 21
139.6767852470068
 72
     1
 10
63.61114545400382
 20
139.6767852470068
 11
66.61114548008085
 21
139.1767852426606
 97
        0
 75
     0
 76
     1
 98
        0
  0
LINE
  5
14F
330
14C
100
AcDbEntity
  8
Default
  6
Continuous
 62
     7
100
AcDbLine
 10
63.611145454
 20
158.4385794413
 30
0.0
 11
63.611145454
 21
138.176785234
 31
0.0
  0
LINE
  5
150
330
14C
100
AcDbEntity
  8
Default
  6
Continuous
 62
     7
100
AcDbLine
 10
51.9111454018
 20
139.676785247
 30
0.0
 11
73.2850608879
 21
139.676785247
 31
0.0
  0
TEXT
  5
151
330
14C
100
AcDbEntity
  8
Default
  6
Continuous
 62
     7
100
AcDbText
 10
68.0759706208
 20
140.426785247
 30
0.0
 40
3.0
  1
5,7
  7
SEACAD_seiso_ttf
 11
68.0759706208
 21
143.426785247
 31
0.0
100
AcDbText
 73
     3
  0
ENDBLK
  5
153
330
14C
100
AcDbEntity
  8
0
100
AcDbBlockEnd
  0
BLOCK
  5
15C
330
155
100
AcDbEntity
  8
0
100
AcDbBlockBegin
  2
DMBLK324
 70
     0
 10
0.0
 20
0.0
 30
0.0
  3
DMBLK324
  1

  0
HATCH
  5
156
330
155
100
AcDbEntity
  8
Default
  6
Continuous
 62
     7
100
AcDbHatch
 10
0.0
 20
0.0
 30
0.0
210
0.0
220
0.0
230
1.0
  2
SOLID
 70
     1
 71
     0
 91
        1
 92
        1
 93
        3
 72
     1
 10
27.01114548008084
 20
3.554320883854175
 11
27.01114548008084
 21
4.554320892546519
 72
     1
 10
27.01114548008084
 20
4.554320892546519
 11
24.01114545400381
 21
4.054320888200347
 72
     1
 10
24.01114545400381
 20
4.054320888200347
 11
27.01114548008084
 21
3.554320883854175
 97
        0
 75
     0
 76
     1
 98
        0
  0
HATCH
  5
157
330
155
100
AcDbEntity
  8
Default
  6
Continuous
 62
     7
100
AcDbHatch
 10
0.0
 20
0.0
 30
0.0
210
0.0
220
0.0
230
1.0
  2
SOLID
 70
     1
 71
     0
 91
        1
 92
        1
 93
        3
 72
     1
 10
54.91114558289885
 20
3.554320883854175
 11
57.91114560897588
 21
4.054320888200347
 72
     1
 10
57.91114560897588
 20
4.054320888200347
 11
54.91114558289885
 21
4.554320892546519
 72
     1
 10
54.91114558289885
 20
4.554320892546519
 11
54.91114558289885
 21
3.554320883854175
 97
        0
 75
     0
 76
     1
 98
        0
  0
LINE
  5
158
330
155
100
AcDbEntity
  8
Default
  6
Continuous
 62
     7
100
AcDbLine
 10
24.011145454
 20
94.5929269358
 30
0.0
 11
24.011145454
 21
2.5543208752
 31
0.0
  0
LINE
  5
159
330
155
100
AcDbEntity
  8
Default
  6
Continuous
 62
     7
100
AcDbLine
 10
57.911145454
 20
9.5929269358
 30
0.0
 11
57.911145454
 21
2.5543208752
 31
0.0
  0
LINE
  5
15A
330
155
100
AcDbEntity
  8
Default
  6
Continuous
 62
     7
100
AcDbLine
 10
24.011145454
 20
4.0543208882
 30
0.0
 11
57.911145609
 21
4.0543208882
 31
0.0
  0
TEXT
  5
15B
330
155
100
AcDbEntity
  8
Default
  6
Continuous
 62
     7
100
AcDbText
 10
36.7884182588
 20
4.8043208882
 30
0.0
 40
3.0
  1
14-34
  7
SEACAD_seiso_ttf
 11
36.7884182588
 21
7.8043208882
 31
0.0
100
AcDbText
 73
     3
  0
ENDBLK
  5
15D
330
155
100
AcDbEntity
  8
0
100
AcDbBlockEnd
  0
BLOCK
  5
168
330
160
100
AcDbEntity
  8
0
100
AcDbBlockBegin
  2
DMBLK325
 70
     0
 10
0.0
 20
0.0
 30
0.0
  3
DMBLK325
  1

  0
HATCH
  5
161
330
160
100
AcDbEntity
  8
Default
  6
Continuous
 62
     7
100
AcDbHatch
 10
0.0
 20
0.0
 30
0.0
210
0.0
220
0.0
230
1.0
  2
SOLID
 70
     1
 71
     0
 91
        1
 92
        1
 93
        3
 72
     1
 10
73.58730292541722
 20
164.0929269097535
 11
73.08730292107104
 21
167.0929269358305
 72
     1
 10
73.08730292107104
 20
167.0929269358305
 11
72.58730291672487
 21
164.0929269097535
 72
     1
 10
72.58730291672487
 20
164.0929269097535
 11
73.58730292541722
 21
164.0929269097535
 97
        0
 75
     0
 76
     1
 98
        0
  0
HATCH
  5
162
330
160
100
AcDbEntity
  8
Default
  6
Continuous
 62
     7
100
AcDbHatch
 10
0.0
 20
0.0
 30
0.0
210
0.0
220
0.0
230
1.0
  2
SOLID
 70
     1
 71
     0
 91
        1
 92
        1
 93
        3
 72
     1
 10
73.58730292541722
 20
161.0929273493377
 11
72.58730291672487
 21
161.0929273493377
 72
     1
 10
72.58730291672487
 20
161.0929273493377
 11
73.08730292107104
 21
158.0929273232607
 72
     1
 10
73.08730292107104
 20
158.0929273232607
 11
73.58730292541722
 21
161.0929273493377
 97
        0
 75
     0
 76
     1
 98
        0
  0
LINE
  5
163
330
160
100
AcDbEntity
  8
Default
  6
Continuous
 62
     7
100
AcDbLine
 10
57.911145454
 20
167.0929269358
 30
0.0
 11
74.5873029341
 21
167.0929269358
 31
0.0
  0
LINE
  5
164
330
160
100
AcDbEntity
  8
Default
  6
Continuous
 62
     7
100
AcDbLine
 10
57.911145454
 20
158.0929269358
 30
0.0
 11
74.5873029341
 21
158.0929269358
 31
0.0
  0
LINE
  5
165
330
160
100
AcDbEntity
  8
Default
  6
Continuous
 62
     7
100
AcDbLine
 10
73.0873029211
 20
176.0384106502
 30
0.0
 11
73.0873029211
 21
158.0929273233
 31
0.0
  0
TEXT
  5
166
330
160
100
AcDbEntity
  8
Default
  6
Continuous
 62
     7
100
AcDbText
 10
72.3373029211
 20
173.1475015275
 30
0.0
 40
3.0
  1
9
 50
90.0
  7
SEACAD_seiso_ttf
 11
69.3373029211
 21
173.1475015275
 31
0.0
100
AcDbText
 73
     3
  0
TEXT
  5
167
330
160
100
AcDbEntity
  8
Default
  6
Continuous
 62
     7
100
AcDbText
 10
72.3373029211
 20
169.5068901738
 30
0.0
 40
3.0
  1
O
 50
90.0
  7
SEACAD_semeci1_ttf
 11
69.3373029211
 21
169.5068901738
 31
0.0
100
AcDbText
 73
     3
  0
ENDBLK
  5
169
330
160
100
AcDbEntity
  8
0
100
AcDbBlockEnd
  0
BLOCK
  5
173
330
16B
100
AcDbEntity
  8
0
100
AcDbBlockBegin
  2
DMBLK326
 70
     0
 10
0.0
 20
0.0
 30
0.0
  3
DMBLK326
  1

  0
HATCH
  5
16C
330
16B
100
AcDbEntity
  8
Default
  6
Continuous
 62
     7
100
AcDbHatch
 10
0.0
 20
0.0
 30
0.0
210
0.0
220
0.0
230
1.0
  2
SOLID
 70
     1
 71
     0
 91
        1
 92
        1
 93
        3
 72
     1
 10
76.11838888598423
 20
275.3429269619076
 11
75.11838887729188
 21
275.3429269619076
 72
     1
 10
75.11838887729188
 20
275.3429269619076
 11
75.61838888163805
 21
272.3429269358306
 72
     1
 10
75.61838888163805
 20
272.3429269358306
 11
76.11838888598423
 21
275.3429269619076
 97
        0
 75
     0
 76
     1
 98
        0
  0
HATCH
  5
16D
330
16B
100
AcDbEntity
  8
Default
  6
Continuous
 62
     7
100
AcDbHatch
 10
0.0
 20
0.0
 30
0.0
210
0.0
220
0.0
230
1.0
  2
SOLID
 70
     1
 71
     0
 91
        1
 92
        1
 93
        3
 72
     1
 10
76.11838888598423
 20
261.8429269097535
 11
75.61838888163805
 21
264.8429269358306
 72
     1
 10
75.61838888163805
 20
264.8429269358306
 11
75.11838887729188
 21
261.8429269097535
 72
     1
 10
75.11838887729188
 20
261.8429269097535
 11
76.11838888598423
 21
261.8429269097535
 97
        0
 75
     0
 76
     1
 98
        0
  0
LINE
  5
16E
330
16B
100
AcDbEntity
  8
Default
  6
Continuous
 62
     7
100
AcDbLine
 10
64.411145454
 20
272.3429269358
 30
0.0
 11
77.1183888947
 21
272.3429269358
 31
0.0
  0
LINE
  5
16F
330
16B
100
AcDbEntity
  8
Default
  6
Continuous
 62
     7
100
AcDbLine
 10
64.411145454
 20
264.8429269358
 30
0.0
 11
77.1183888947
 21
264.8429269358
 31
0.0
  0
LINE
  5
170
330
16B
100
AcDbEntity
  8
Default
  6
Continuous
 62
     7
100
AcDbLine
 10
75.6183888816
 20
278.342926988
 30
0.0
 11
75.6183888816
 21
252.883304955
 31
0.0
  0
TEXT
  5
171
330
16B
100
AcDbEntity
  8
Default
  6
Continuous
 62
     7
100
AcDbText
 10
74.8683888816
 20
257.5739169004
 30
0.0
 40
3.0
  1
7,5
 50
90.0
  7
SEACAD_seiso_ttf
 11
71.8683888816
 21
257.5739169004
 31
0.0
100
AcDbText
 73
     3
  0
TEXT
  5
172
330
16B
100
AcDbEntity
  8
Default
  6
Continuous
 62
     7
100
AcDbText
 10
74.8683888816
 20
253.9333055467
 30
0.0
 40
3.0
  1
O
 50
90.0
  7
SEACAD_semeci1_ttf
 11
71.8683888816
 21
253.9333055467
 31
0.0
100
AcDbText
 73
     3
  0
ENDBLK
  5
174
330
16B
100
AcDbEntity
  8
0
100
AcDbBlockEnd
  0
ENDSEC
  0
SECTION
  2
ENTITIES
  0
INSERT
  5
5F
330
1F
100
AcDbEntity
  8
Default
100
AcDbBlockReference
  2
SEANNOT_GROUP
 10
0.0
 20
0.0
 30
0.0
  0
INSERT
  5
65
330
1F
100
AcDbEntity
  8
Default
100
AcDbBlockReference
  2
SEANNOT_GROUP1
 10
0.0
 20
0.0
 30
0.0
  0
INSERT
  5
6A
330
1F
100
AcDbEntity
  8
Default
100
AcDbBlockReference
  2
SEANNOT_GROUP2
 10
0.0
 20
0.0
 30
0.0
  0
INSERT
  5
6F
330
1F
100
AcDbEntity
  8
Default
100
AcDbBlockReference
  2
SEANNOT_GROUP3
 10
0.0
 20
0.0
 30
0.0
  0
INSERT
  5
74
330
1F
100
AcDbEntity
  8
Default
100
AcDbBlockReference
  2
SEANNOT_GROUP4
 10
0.0
 20
0.0
 30
0.0
  0
INSERT
  5
7E
330
1F
100
AcDbEntity
  8
Default
100
AcDbBlockReference
  2
SEANNOT_GROUP5
 10
0.0
 20
0.0
 30
0.0
  0
INSERT
  5
88
330
1F
100
AcDbEntity
  8
Default
100
AcDbBlockReference
  2
SEANNOT_GROUP6
 10
0.0
 20
0.0
 30
0.0
  0
INSERT
  5
8D
330
1F
100
AcDbEntity
  8
Default
100
AcDbBlockReference
  2
SEANNOT_GROUP7
 10
0.0
 20
0.0
 30
0.0
  0
TEXT
  5
92
330
1F
100
AcDbEntity
  8
Default
  6
Continuous
 62
     7
100
AcDbText
 10
93.6839501832
 20
7.1298236508
 30
0.0
 40
5.0
  1
35.495
  7
SEACAD_seiso_ttfI
 11
93.6839501832
 21
12.1298236508
 31
0.0
100
AcDbText
 73
     3
  0
INSERT
  5
94
330
1F
100
AcDbEntity
  8
0
100
AcDbBlockReference
  2
SE
 10
0.0
 20
0.0
 30
0.0
  0
INSERT
  5
AB
330
1F
100
AcDbEntity
  8
0
100
AcDbBlockReference
  2
SE1
 10
0.0
 20
0.0
 30
0.0
  0
DIMENSION
  5
E6
330
1F
100
AcDbEntity
  8
Default
  6
Continuous
 62
     7
100
AcDbDimension
  2
DMBLK313
 10
78.1748058589
 20
33.5929269358
 30
0.0
 11
78.1748058589
 21
36.5331297662
 31
0.0
 70
   161
  1
\A1;M <>
 71
     5
 42
-1.0
  3
DIN
100
AcDbAlignedDimension
 13
65.5093096512
 23
33.5929269358
 33
0.0
 14
65.5093096512
 24
27.5929269358
 34
0.0
  0
DIMENSION
  5
F1
330
1F
100
AcDbEntity
  8
Default
  6
Continuous
 62
     7
100
AcDbDimension
  2
DMBLK314
 10
91.6995291763
 20
30.5929269358
 30
0.0
 11
91.6995291763
 21
107.5929265186
 31
0.0
 70
   161
  1
\A1;<>
 71
     5
 42
-1.0
  3
DIN
100
AcDbAlignedDimension
 13
64.911145454
 23
30.5929269358
 33
0.0
 14
65.085397205
 24
184.5929269358
 34
0.0
  0
DIMENSION
  5
FB
330
1F
100
AcDbEntity
  8
Default
  6
Continuous
 62
     7
100
AcDbDimension
  2
DMBLK315
 10
91.6995301414
 20
268.5929269358
 30
0.0
 11
91.6995301414
 21
226.5929263696
 31
0.0
 70
   160
  1
\A1;<>
 71
     5
 42
-1.0
  3
DIN
100
AcDbAlignedDimension
 13
35.1638651956
 23
184.5929269358
 33
0.0
 14
64.911145454
 24
268.5929269358
 34
0.0
 50
90.0
100
AcDbRotatedDimension
  0
DIMENSION
  5
105
330
1F
100
AcDbEntity
  8
Default
  6
Continuous
 62
     7
100
AcDbDimension
  2
DMBLK316
 10
84.1877752417
 20
184.5929269358
 30
0.0
 11
84.1877752417
 21
173.5929268762
 31
0.0
 70
   160
  1
\A1;<>
 71
     5
 42
-1.0
  3
DIN
100
AcDbAlignedDimension
 13
63.611145454
 23
162.5929269358
 33
0.0
 14
65.085397205
 24
184.5929269358
 34
0.0
 50
90.0
100
AcDbRotatedDimension
  0
DIMENSION
  5
10F
330
1F
100
AcDbEntity
  8
Default
  6
Continuous
 62
     7
100
AcDbDimension
  2
DMBLK317
 10
109.7265180118
 20
175.5929286873
 30
0.0
 11
109.7265184052
 21
184.5929273233
 31
0.0
 70
   161
  1
\A1;<>
 71
     5
 42
-1.0
  3
DIN
100
AcDbAlignedDimension
 13
149.7957934029
 23
193.5929269358
 33
0.0
 14
149.7957926161
 24
175.5929269358
 34
0.0
1001
ACAD
1000
DSTYLE
1002
{
1070
    73
1070
     1
1070
    74
1070
     1
1070
    77
1070
     0
1070
     0
1002
}
  0
DIMENSION
  5
119
330
1F
100
AcDbEntity
  8
Default
  6
Continuous
 62
     7
100
AcDbDimension
  2
DMBLK318
 10
187.7041608222
 20
184.5929269358
 30
0.0
 11
187.7041608222
 21
145.5929261312
 31
0.0
 70
   161
  1
\A1;<>
 71
     5
 42
-1.0
  3
DIN
100
AcDbAlignedDimension
 13
149.7957930095
 23
184.5929269358
 33
0.0
 14
149.7957930095
 24
106.5929269358
 34
0.0
  0
DIMENSION
  5
123
330
1F
100
AcDbEntity
  8
Default
  6
Continuous
 62
     7
100
AcDbDimension
  2
DMBLK319
 10
198.5159702725
 20
289.5929269358
 30
0.0
 11
198.5159702725
 21
149.5929263398
 31
0.0
 70
   161
  1
\A1;<>
 71
     5
 42
-1.0
  3
DIN
100
AcDbAlignedDimension
 13
149.7957930095
 23
289.5929269358
 33
0.0
 14
149.7957930095
 24
9.5929269358
 34
0.0
  0
DIMENSION
  5
12D
330
1F
100
AcDbEntity
  8
Default
  6
Continuous
 62
     7
100
AcDbDimension
  2
DMBLK320
 10
123.7957930095
 20
2.0462295875
 30
0.0
 11
149.795793546
 21
2.0462295875
 31
0.0
 70
   161
  1
\A1;<>
 71
     5
 42
-1.0
  3
DIN
100
AcDbAlignedDimension
 13
123.7957930095
 23
35.5929269358
 33
0.0
 14
175.7957930095
 24
35.5929269358
 34
0.0
  0
DIMENSION
  5
137
330
1F
100
AcDbEntity
  8
Default
  6
Continuous
 62
     7
100
AcDbDimension
  2
DMBLK321
 10
57.911145454
 20
292.4440403797
 30
0.0
 11
50.0611451575
 21
292.4440403797
 31
0.0
 70
   160
  1
\A1;<>
 71
     5
 42
-1.0
  3
DIN
100
AcDbAlignedDimension
 13
42.211145454
 23
18.1080897666
 33
0.0
 14
57.911145454
 24
9.5929269358
 34
0.0
100
AcDbRotatedDimension
  0
DIMENSION
  5
141
330
1F
100
AcDbEntity
  8
Default
  6
Continuous
 62
     7
100
AcDbDimension
  2
DMBLK322
 10
64.911145454
 20
292.4440269038
 30
0.0
 11
61.411145562
 21
292.4440269038
 31
0.0
 70
   160
  1
\A1;<>
 71
     5
 42
-1.0
  3
DIN
100
AcDbAlignedDimension
 13
57.911145454
 23
9.5929269358
 33
0.0
 14
64.911145454
 24
27.3429269358
 34
0.0
100
AcDbRotatedDimension
  0
DIMENSION
  5
14B
330
1F
100
AcDbEntity
  8
Default
  6
Continuous
 62
     7
100
AcDbDimension
  2
DMBLK323
 10
63.611145454
 20
139.676785247
 30
0.0
 11
67.0259706208
 21
139.676785247
 31
0.0
 70
   160
  1
\A1;<>
 71
     5
 42
-1.0
  3
DIN
100
AcDbAlignedDimension
 13
57.911145454
 23
263.5929269358
 33
0.0
 14
63.611145454
 24
158.4385794413
 34
0.0
100
AcDbRotatedDimension
  0
DIMENSION
  5
154
330
1F
100
AcDbEntity
  8
Default
  6
Continuous
 62
     7
100
AcDbDimension
  2
DMBLK324
 10
57.911145454
 20
4.0543208882
 30
0.0
 11
40.9611455315
 21
4.0543208882
 31
0.0
 70
   160
  1
\A1;14-34 {}
 71
     5
 42
-1.0
  3
DIN
100
AcDbAlignedDimension
 13
24.011145454
 23
94.5929269358
 33
0.0
 14
57.911145454
 24
9.5929269358
 34
0.0
100
AcDbRotatedDimension
  0
DIMENSION
  5
15E
330
1F
100
AcDbEntity
  8
Default
  6
Continuous
 62
     7
100
AcDbDimension
  2
DMBLK325
 10
73.0873029211
 20
167.0929269358
 30
0.0
 11
73.0873029211
 21
168.4568901738
 31
0.0
 70
   161
  1
\A1;%%C <>
 71
     5
 42
-1.0
  3
DIN
100
AcDbAlignedDimension
 13
57.911145454
 23
167.0929269358
 33
0.0
 14
57.911145454
 24
158.0929269358
 34
0.0
  0
DIMENSION
  5
16A
330
1F
100
AcDbEntity
  8
Default
  6
Continuous
 62
     7
100
AcDbDimension
  2
DMBLK326
 10
75.6183888816
 20
272.3429269358
 30
0.0
 11
75.6183888816
 21
262.7830078095
 31
0.0
 70
   161
  1
\A1;%%C <>
 71
     5
 42
-1.0
  3
DIN
100
AcDbAlignedDimension
 13
64.411145454
 23
272.3429269358
 33
0.0
 14
64.411145454
 24
264.8429269358
 34
0.0
  0
ENDSEC
  0
SECTION
  2
OBJECTS
  0
DICTIONARY
  5
C
330
0
100
AcDbDictionary
281
     1
  3
ACAD_GROUP
350
D
  3
ACAD_LAYOUT
350
1A
  3
ACAD_MLEADERSTYLE
350
178
  3
ACAD_MLINESTYLE
350
17
  3
ACAD_PLOTSETTINGS
350
19
  3
ACAD_PLOTSTYLENAME
350
E
  3
ACAD_SCALELIST
350
3B
  3
ACAD_TABLESTYLE
350
177
  3
ACAD_VISUALSTYLE
350
2A
  3
AcDbVariableDictionary
350
175
  0
DICTIONARY
  5
D
102
{ACAD_REACTORS
330
C
102
}
330
C
100
AcDbDictionary
281
     1
  0
DICTIONARY
  5
1A
102
{ACAD_REACTORS
330
C
102
}
330
C
100
AcDbDictionary
281
     1
  3
Layout1
350
1E
  3
Model
350
22
  0
DICTIONARY
  5
178
102
{ACAD_REACTORS
330
C
102
}
330
C
100
AcDbDictionary
281
     1
  0
DICTIONARY
  5
17
102
{ACAD_REACTORS
330
C
102
}
330
C
100
AcDbDictionary
281
     1
  3
Standard
350
18
  0
DICTIONARY
  5
19
102
{ACAD_REACTORS
330
C
102
}
330
C
100
AcDbDictionary
281
     1
  0
ACDBDICTIONARYWDFLT
  5
E
102
{ACAD_REACTORS
330
C
102
}
330
C
100
AcDbDictionary
281
     1
  3
Normal
350
F
100
AcDbDictionaryWithDefault
340
F
  0
DICTIONARY
  5
3B
102
{ACAD_REACTORS
330
C
102
}
330
C
100
AcDbDictionary
281
     1
  3
A0
350
3C
  3
A1
350
3D
  3
A2
350
3E
  3
A3
350
3F
  3
A4
350
40
  3
A5
350
41
  3
A6
350
42
  3
A7
350
43
  3
A8
350
44
  3
A9
350
45
  3
B0
350
46
  3
B1
350
47
  3
B2
350
48
  3
B3
350
49
  3
B4
350
4A
  3
B5
350
4B
  3
B6
350
4C
  3
B7
350
4D
  3
B8
350
4E
  3
B9
350
4F
  3
C0
350
50
  3
C1
350
51
  3
C2
350
52
  3
C3
350
53
  3
C4
350
54
  3
C5
350
55
  3
C6
350
56
  3
C7
350
57
  3
C8
350
58
  3
C9
350
59
  3
D0
350
5A
  3
D1
350
5B
  3
D2
350
5C
  0
DICTIONARY
  5
177
102
{ACAD_REACTORS
330
C
102
}
330
C
100
AcDbDictionary
281
     1
  0
DICTIONARY
  5
2A
102
{ACAD_REACTORS
330
C
102
}
330
C
100
AcDbDictionary
281
     1
  3
2dWireframe
350
2F
  3
3D Hidden
350
31
  3
3dWireframe
350
30
  3
Basic
350
32
  3
Brighten
350
36
  3
ColorChange
350
3A
  3
Conceptual
350
34
  3
Dim
350
35
  3
Facepattern
350
39
  3
Flat
350
2B
  3
FlatWithEdges
350
2C
  3
Gouraud
350
2D
  3
GouraudWithEdges
350
2E
  3
Linepattern
350
38
  3
Realistic
350
33
  3
Thicken
350
37
  0
DICTIONARY
  5
175
102
{ACAD_REACTORS
330
C
102
}
330
C
100
AcDbDictionary
281
     1
  3
CANNOSCALE
350
176
  3
PSOLHEIGHT
350
17A
  3
PSOLWIDTH
350
179
  0
LAYOUT
  5
1E
102
{ACAD_REACTORS
330
1A
102
}
330
1A
100
AcDbPlotSettings
  1

  2
none_device
  4

  6

 40
0.0
 41
0.0
 42
0.0
 43
0.0
 44
0.0
 45
0.0
 46
0.0
 47
0.0
 48
0.0
 49
0.0
140
0.0
141
0.0
142
1.0
143
1.0
 70
   688
 72
     0
 73
     0
 74
     5
  7

 75
    16
147
1.0
148
0.0
149
0.0
100
AcDbLayout
  1
Layout1
 70
     1
 71
     1
 10
0.0
 20
0.0
 11
210.0
 21
297.0
 12
0.0
 22
0.0
 32
0.0
 14
0.0
 24
0.0
 34
0.0
 15
210.0
 25
297.0
 35
0.0
146
0.0
 13
0.0
 23
0.0
 33
0.0
 16
1.0
 26
0.0
 36
0.0
 17
0.0
 27
1.0
 37
0.0
 76
     0
330
1B
  0
LAYOUT
  5
22
102
{ACAD_REACTORS
330
1A
102
}
330
1A
100
AcDbPlotSettings
  1

  2
none_device
  4

  6

 40
0.0
 41
0.0
 42
0.0
 43
0.0
 44
0.0
 45
0.0
 46
0.0
 47
0.0
 48
0.0
 49
0.0
140
0.0
141
0.0
142
1.0
143
1.0
 70
  1712
 72
     0
 73
     0
 74
     0
  7

 75
     0
147
1.0
148
0.0
149
0.0
100
AcDbLayout
  1
Model
 70
     1
 71
     0
 10
0.0
 20
0.0
 11
210.0
 21
297.0
 12
0.0
 22
0.0
 32
0.0
 14
0.0
 24
0.0
 34
0.0
 15
210.0
 25
297.0
 35
0.0
146
0.0
 13
0.0
 23
0.0
 33
0.0
 16
1.0
 26
0.0
 36
0.0
 17
0.0
 27
1.0
 37
0.0
 76
     0
330
1F
331
29
  0
MLINESTYLE
  5
18
102
{ACAD_REACTORS
330
17
102
}
330
17
100
AcDbMlineStyle
  2
Standard
 70
     0
  3

 62
   256
 51
90.0
 52
90.0
 71
     2
 49
0.5
 62
   256
  6
BYLAYER
 49
-0.5
 62
   256
  6
BYLAYER
  0
ACDBPLACEHOLDER
  5
F
102
{ACAD_REACTORS
330
E
102
}
330
E
  0
SCALE
  5
3C
102
{ACAD_REACTORS
330
3B
102
}
330
3B
100
AcDbScale
 70
     0
300
1:1
140
1.0
141
1.0
290
     1
  0
SCALE
  5
3D
102
{ACAD_REACTORS
330
3B
102
}
330
3B
100
AcDbScale
 70
     0
300
1:2
140
1.0
141
2.0
290
     0
  0
SCALE
  5
3E
102
{ACAD_REACTORS
330
3B
102
}
330
3B
100
AcDbScale
 70
     0
300
1:4
140
1.0
141
4.0
290
     0
  0
SCALE
  5
3F
102
{ACAD_REACTORS
330
3B
102
}
330
3B
100
AcDbScale
 70
     0
300
1:5
140
1.0
141
5.0
290
     0
  0
SCALE
  5
40
102
{ACAD_REACTORS
330
3B
102
}
330
3B
100
AcDbScale
 70
     0
300
1:8
140
1.0
141
8.0
290
     0
  0
SCALE
  5
41
102
{ACAD_REACTORS
330
3B
102
}
330
3B
100
AcDbScale
 70
     0
300
1:10
140
1.0
141
10.0
290
     0
  0
SCALE
  5
42
102
{ACAD_REACTORS
330
3B
102
}
330
3B
100
AcDbScale
 70
     0
300
1:16
140
1.0
141
16.0
290
     0
  0
SCALE
  5
43
102
{ACAD_REACTORS
330
3B
102
}
330
3B
100
AcDbScale
 70
     0
300
1:20
140
1.0
141
20.0
290
     0
  0
SCALE
  5
44
102
{ACAD_REACTORS
330
3B
102
}
330
3B
100
AcDbScale
 70
     0
300
1:30
140
1.0
141
30.0
290
     0
  0
SCALE
  5
45
102
{ACAD_REACTORS
330
3B
102
}
330
3B
100
AcDbScale
 70
     0
300
1:40
140
1.0
141
40.0
290
     0
  0
SCALE
  5
46
102
{ACAD_REACTORS
330
3B
102
}
330
3B
100
AcDbScale
 70
     0
300
1:50
140
1.0
141
50.0
290
     0
  0
SCALE
  5
47
102
{ACAD_REACTORS
330
3B
102
}
330
3B
100
AcDbScale
 70
     0
300
1:100
140
1.0
141
100.0
290
     0
  0
SCALE
  5
48
102
{ACAD_REACTORS
330
3B
102
}
330
3B
100
AcDbScale
 70
     0
300
2:1
140
2.0
141
1.0
290
     0
  0
SCALE
  5
49
102
{ACAD_REACTORS
330
3B
102
}
330
3B
100
AcDbScale
 70
     0
300
4:1
140
4.0
141
1.0
290
     0
  0
SCALE
  5
4A
102
{ACAD_REACTORS
330
3B
102
}
330
3B
100
AcDbScale
 70
     0
300
8:1
140
8.0
141
1.0
290
     0
  0
SCALE
  5
4B
102
{ACAD_REACTORS
330
3B
102
}
330
3B
100
AcDbScale
 70
     0
300
10:1
140
10.0
141
1.0
290
     0
  0
SCALE
  5
4C
102
{ACAD_REACTORS
330
3B
102
}
330
3B
100
AcDbScale
 70
     0
300
100:1
140
100.0
141
1.0
290
     0
  0
SCALE
  5
4D
102
{ACAD_REACTORS
330
3B
102
}
330
3B
100
AcDbScale
 70
     0
300
1/128" = 1'-0"
140
0.0078125
141
12.0
290
     0
  0
SCALE
  5
4E
102
{ACAD_REACTORS
330
3B
102
}
330
3B
100
AcDbScale
 70
     0
300
1/64" = 1'-0"
140
0.015625
141
12.0
290
     0
  0
SCALE
  5
4F
102
{ACAD_REACTORS
330
3B
102
}
330
3B
100
AcDbScale
 70
     0
300
1/32" = 1'-0"
140
0.03125
141
12.0
290
     0
  0
SCALE
  5
50
102
{ACAD_REACTORS
330
3B
102
}
330
3B
100
AcDbScale
 70
     0
300
1/16" = 1'-0"
140
0.0625
141
12.0
290
     0
  0
SCALE
  5
51
102
{ACAD_REACTORS
330
3B
102
}
330
3B
100
AcDbScale
 70
     0
300
3/32" = 1'-0"
140
0.09375
141
12.0
290
     0
  0
SCALE
  5
52
102
{ACAD_REACTORS
330
3B
102
}
330
3B
100
AcDbScale
 70
     0
300
1/8" = 1'-0"
140
0.125
141
12.0
290
     0
  0
SCALE
  5
53
102
{ACAD_REACTORS
330
3B
102
}
330
3B
100
AcDbScale
 70
     0
300
3/16" = 1'-0"
140
0.1875
141
12.0
290
     0
  0
SCALE
  5
54
102
{ACAD_REACTORS
330
3B
102
}
330
3B
100
AcDbScale
 70
     0
300
1/4" = 1'-0"
140
0.25
141
12.0
290
     0
  0
SCALE
  5
55
102
{ACAD_REACTORS
330
3B
102
}
330
3B
100
AcDbScale
 70
     0
300
3/8" = 1'-0"
140
0.375
141
12.0
290
     0
  0
SCALE
  5
56
102
{ACAD_REACTORS
330
3B
102
}
330
3B
100
AcDbScale
 70
     0
300
1/2" = 1'-0"
140
0.5
141
12.0
290
     0
  0
SCALE
  5
57
102
{ACAD_REACTORS
330
3B
102
}
330
3B
100
AcDbScale
 70
     0
300
3/4" = 1'-0"
140
0.75
141
12.0
290
     0
  0
SCALE
  5
58
102
{ACAD_REACTORS
330
3B
102
}
330
3B
100
AcDbScale
 70
     0
300
1" = 1'-0"
140
1.0
141
12.0
290
     0
  0
SCALE
  5
59
102
{ACAD_REACTORS
330
3B
102
}
330
3B
100
AcDbScale
 70
     0
300
1-1/2" = 1'-0"
140
1.5
141
12.0
290
     0
  0
SCALE
  5
5A
102
{ACAD_REACTORS
330
3B
102
}
330
3B
100
AcDbScale
 70
     0
300
3" = 1'-0"
140
3.0
141
12.0
290
     0
  0
SCALE
  5
5B
102
{ACAD_REACTORS
330
3B
102
}
330
3B
100
AcDbScale
 70
     0
300
6" = 1'-0"
140
6.0
141
12.0
290
     0
  0
SCALE
  5
5C
102
{ACAD_REACTORS
330
3B
102
}
330
3B
100
AcDbScale
 70
     0
300
1'-0" = 1'-0"
140
12.0
141
12.0
290
     0
  0
VISUALSTYLE
  5
2F
102
{ACAD_REACTORS
330
2A
102
}
330
2A
100
AcDbVisualStyle
  2
2dWireframe
 70
     4
 71
     0
 72
     2
 73
     0
 90
        0
 40
-0.6
 41
-30.0
 62
     5
 63
     7
 74
     1
 91
        4
 64
     7
 65
   257
 75
     1
175
     1
 42
1.0
 92
        0
 66
   257
 43
1.0
 76
     1
 77
     6
 78
     2
 67
     7
 79
     5
170
     0
171
     0
290
     0
174
     0
 93
        1
 44
0.0
173
     0
291
     0
 45
0.0
1001
ACAD
1000
AcDbSavedByObjectVersion
1070
     0
  0
VISUALSTYLE
  5
31
102
{ACAD_REACTORS
330
2A
102
}
330
2A
100
AcDbVisualStyle
  2
3D Hidden
 70
     6
 71
     1
 72
     2
 73
     2
 90
        0
 40
-0.6
 41
-30.0
 62
     5
 63
     7
 74
     2
 91
        2
 64
     7
 65
   257
 75
     2
175
     1
 42
40.0
 92
        0
 66
   257
 43
1.0
 76
     1
 77
     6
 78
     2
 67
     7
 79
     3
170
     0
171
     0
290
     0
174
     0
 93
        1
 44
0.0
173
     0
291
     0
 45
0.0
1001
ACAD
1000
AcDbSavedByObjectVersion
1070
     0
  0
VISUALSTYLE
  5
30
102
{ACAD_REACTORS
330
2A
102
}
330
2A
100
AcDbVisualStyle
  2
3dWireframe
 70
     5
 71
     0
 72
     2
 73
     0
 90
        0
 40
-0.6
 41
-30.0
 62
     5
 63
     7
 74
     1
 91
        4
 64
     7
 65
   257
 75
     1
175
     1
 42
1.0
 92
        0
 66
   257
 43
1.0
 76
     1
 77
     6
 78
     2
 67
     7
 79
     5
170
     0
171
     0
290
     0
174
     0
 93
        1
 44
0.0
173
     0
291
     0
 45
0.0
1001
ACAD
1000
AcDbSavedByObjectVersion
1070
     0
  0
VISUALSTYLE
  5
32
102
{ACAD_REACTORS
330
2A
102
}
330
2A
100
AcDbVisualStyle
  2
Basic
 70
     7
 71
     1
 72
     0
 73
     1
 90
        0
 40
-0.6
 41
-30.0
 62
     5
 63
     7
 74
     0
 91
        4
 64
     7
 65
   257
 75
     1
175
     1
 42
1.0
 92
        8
 66
     7
 43
1.0
 76
     1
 77
     6
 78
     2
 67
     7
 79
     5
170
     0
171
     0
290
     0
174
     0
 93
        1
 44
0.0
173
     0
291
     1
 45
0.0
1001
ACAD
1000
AcDbSavedByObjectVersion
1070
     0
  0
VISUALSTYLE
  5
36
102
{ACAD_REACTORS
330
2A
102
}
330
2A
100
AcDbVisualStyle
  2
Brighten
 70
    12
 71
     2
 72
     2
 73
     0
 90
        0
 40
-0.6
 41
-30.0
 62
     5
 63
     7
 74
     1
 91
        4
 64
     7
 65
   257
 75
     1
175
     1
 42
1.0
 92
        8
 66
     7
 43
1.0
 76
     1
 77
     6
 78
     2
 67
     7
 79
     5
170
     0
171
     0
290
     0
174
     0
 93
        1
 44
50.0
173
     0
291
     1
 45
0.0
1001
ACAD
1000
AcDbSavedByObjectVersion
1070
     0
  0
VISUALSTYLE
  5
3A
102
{ACAD_REACTORS
330
2A
102
}
330
2A
100
AcDbVisualStyle
  2
ColorChange
 70
    16
 71
     2
 72
     2
 73
     3
 90
        0
 40
-0.6
 41
-30.0
 62
     5
 63
     8
 74
     1
 91
        4
 64
     7
 65
   257
 75
     1
175
     1
 42
1.0
 92
        8
 66
     8
 43
1.0
 76
     1
 77
     6
 78
     2
 67
     7
 79
     5
170
     0
171
     0
290
     0
174
     0
 93
        1
 44
0.0
173
     0
291
     1
 45
0.0
1001
ACAD
1000
AcDbSavedByObjectVersion
1070
     0
  0
VISUALSTYLE
  5
34
102
{ACAD_REACTORS
330
2A
102
}
330
2A
100
AcDbVisualStyle
  2
Conceptual
 70
     9
 71
     3
 72
     2
 73
     0
 90
        0
 40
-0.6
 41
-30.0
 62
     5
 63
     7
 74
     2
 91
        2
 64
     7
 65
   257
 75
     1
175
     1
 42
40.0
 92
        8
 66
     7
 43
1.0
 76
     1
 77
     6
 78
     2
 67
     7
 79
     3
170
     0
171
     0
290
     0
174
     0
 93
        1
 44
0.0
173
     0
291
     0
 45
0.0
1001
ACAD
1000
AcDbSavedByObjectVersion
1070
     0
  0
VISUALSTYLE
  5
35
102
{ACAD_REACTORS
330
2A
102
}
330
2A
100
AcDbVisualStyle
  2
Dim
 70
    11
 71
     2
 72
     2
 73
     0
 90
        0
 40
-0.6
 41
-30.0
 62
     5
 63
     7
 74
     1
 91
        4
 64
     7
 65
   257
 75
     1
175
     1
 42
1.0
 92
        8
 66
     7
 43
1.0
 76
     1
 77
     6
 78
     2
 67
     7
 79
     5
170
     0
171
     0
290
     0
174
     0
 93
        1
 44
-50.0
173
     0
291
     1
 45
0.0
1001
ACAD
1000
AcDbSavedByObjectVersion
1070
     0
  0
VISUALSTYLE
  5
39
102
{ACAD_REACTORS
330
2A
102
}
330
2A
100
AcDbVisualStyle
  2
Facepattern
 70
    15
 71
     2
 72
     2
 73
     0
 90
        0
 40
-0.6
 41
-30.0
 62
     5
 63
     7
 74
     1
 91
        4
 64
     7
 65
   257
 75
     1
175
     1
 42
1.0
 92
        8
 66
     7
 43
1.0
 76
     1
 77
     6
 78
     2
 67
     7
 79
     5
170
     0
171
     0
290
     0
174
     0
 93
        1
 44
0.0
173
     0
291
     1
 45
0.0
1001
ACAD
1000
AcDbSavedByObjectVersion
1070
     0
  0
VISUALSTYLE
  5
2B
102
{ACAD_REACTORS
330
2A
102
}
330
2A
100
AcDbVisualStyle
  2
Flat
 70
     0
 71
     2
 72
     1
 73
     1
 90
        2
 40
-0.6
 41
30.0
 62
     5
 63
     7
 74
     0
 91
        4
 64
     7
 65
   257
 75
     1
175
     1
 42
1.0
 92
        8
 66
     7
 43
1.0
 76
     1
 77
     6
 78
     2
 67
     7
 79
     5
170
     0
171
     0
290
     0
174
     0
 93
       13
 44
0.0
173
     0
291
     1
 45
0.0
1001
ACAD
1000
AcDbSavedByObjectVersion
1070
     0
  0
VISUALSTYLE
  5
2C
102
{ACAD_REACTORS
330
2A
102
}
330
2A
100
AcDbVisualStyle
  2
FlatWithEdges
 70
     1
 71
     2
 72
     1
 73
     1
 90
        2
 40
-0.6
 41
30.0
 62
     5
 63
     7
 74
     1
 91
        4
 64
     7
 65
   257
 75
     1
175
     1
 42
1.0
 92
        0
 66
   257
 43
1.0
 76
     1
 77
     6
 78
     2
 67
     7
 79
     5
170
     0
171
     0
290
     0
174
     0
 93
       13
 44
0.0
173
     0
291
     1
 45
0.0
1001
ACAD
1000
AcDbSavedByObjectVersion
1070
     0
  0
VISUALSTYLE
  5
2D
102
{ACAD_REACTORS
330
2A
102
}
330
2A
100
AcDbVisualStyle
  2
Gouraud
 70
     2
 71
     2
 72
     2
 73
     1
 90
        2
 40
-0.6
 41
30.0
 62
     5
 63
     7
 74
     0
 91
        4
 64
     7
 65
   257
 75
     1
175
     1
 42
1.0
 92
        0
 66
     7
 43
1.0
 76
     1
 77
     6
 78
     2
 67
     7
 79
     5
170
     0
171
     0
290
     0
174
     0
 93
       13
 44
0.0
173
     0
291
     1
 45
0.0
1001
ACAD
1000
AcDbSavedByObjectVersion
1070
     0
  0
VISUALSTYLE
  5
2E
102
{ACAD_REACTORS
330
2A
102
}
330
2A
100
AcDbVisualStyle
  2
GouraudWithEdges
 70
     3
 71
     2
 72
     2
 73
     1
 90
        2
 40
-0.6
 41
30.0
 62
     5
 63
     7
 74
     1
 91
        4
 64
     7
 65
   257
 75
     1
175
     1
 42
1.0
 92
        0
 66
   257
 43
1.0
 76
     1
 77
     6
 78
     2
 67
     7
 79
     5
170
     0
171
     0
290
     0
174
     0
 93
       13
 44
0.0
173
     0
291
     1
 45
0.0
1001
ACAD
1000
AcDbSavedByObjectVersion
1070
     0
  0
VISUALSTYLE
  5
38
102
{ACAD_REACTORS
330
2A
102
}
330
2A
100
AcDbVisualStyle
  2
Linepattern
 70
    14
 71
     2
 72
     2
 73
     0
 90
        0
 40
-0.6
 41
-30.0
 62
     5
 63
     7
 74
     1
 91
        4
 64
     7
 65
   257
 75
     7
175
     7
 42
1.0
 92
        8
 66
     7
 43
1.0
 76
     1
 77
     6
 78
     2
 67
     7
 79
     5
170
     0
171
     0
290
     0
174
     0
 93
        1
 44
0.0
173
     0
291
     1
 45
0.0
1001
ACAD
1000
AcDbSavedByObjectVersion
1070
     0
  0
VISUALSTYLE
  5
33
102
{ACAD_REACTORS
330
2A
102
}
330
2A
100
AcDbVisualStyle
  2
Realistic
 70
     8
 71
     2
 72
     2
 73
     0
 90
        0
 40
-0.6
 41
-30.0
 62
     5
 63
     7
 74
     1
 91
        0
 64
     7
 65
   257
 75
     1
175
     1
 42
1.0
 92
        8
 66
     8
 43
1.0
 76
     1
 77
     6
 78
     2
 67
     7
 79
     5
170
     0
171
     0
290
     0
174
     0
 93
       13
 44
0.0
173
     0
291
     0
 45
0.0
1001
ACAD
1000
AcDbSavedByObjectVersion
1070
     0
  0
VISUALSTYLE
  5
37
102
{ACAD_REACTORS
330
2A
102
}
330
2A
100
AcDbVisualStyle
  2
Thicken
 70
    13
 71
     2
 72
     2
 73
     0
 90
        0
 40
-0.6
 41
-30.0
 62
     5
 63
     7
 74
     1
 91
        4
 64
     7
 65
   257
 75
     1
175
     1
 42
1.0
 92
       12
 66
     7
 43
1.0
 76
     1
 77
     6
 78
     2
 67
     7
 79
     5
170
     0
171
     0
290
     0
174
     0
 93
        1
 44
0.0
173
     0
291
     1
 45
0.0
1001
ACAD
1000
AcDbSavedByObjectVersion
1070
     0
  0
DICTIONARYVAR
  5
176
102
{ACAD_REACTORS
330
175
102
}
330
175
100
DictionaryVariables
280
     0
  1
1:1
  0
DICTIONARYVAR
  5
17A
102
{ACAD_REACTORS
330
175
102
}
330
175
100
DictionaryVariables
280
     0
  1
80.000000
  0
DICTIONARYVAR
  5
179
102
{ACAD_REACTORS
330
175
102
}
330
175
100
DictionaryVariables
280
     0
  1
5.000000
  0
ENDSEC
  0
EOF
