  0
SECTION
  2
HEADER
  9
$ACADVER
  1
AC1009
  9
$INSBASE
 10
0
 20
0
  9
$EXTMIN
 10
28.67001836836539
 20
50.4753916916361
  9
$EXTMAX
 10
336.48820768665
 20
218.534436288326
  9
$LIMMIN
 10
28.67001836836539
 20
50.4753916916361
  9
$LIMMAX
 10
336.48820768665
 20
218.534436288326
  9
$VIEWCTR
 10
10
 20
10
  9
$VIEWSIZE
 40
10
  9
$SNAPMODE
 70
0
  9
$SNAPUNIT
 10
1
 20
1
  9
$SNAPBASE
 10
0
 20
0
  9
$SNAPANG
 50
0
  9
$SNAPSTYLE
 70
0
  9
$SNAPISOPAIR
 70
0
  9
$GRIDMODE
 70
0
  9
$GRIDUNIT
 10
0
 20
0
  9
$ORTHOMODE
 70
0
  9
$REGENMODE
 70
1
  9
$FILLMODE
 70
1
  9
$QTEXTMODE
 70
0
  9
$DRAGMODE
 70
2
  9
$LTSCALE
 40
1
  9
$OSMODE
 70
0
  9
$ATTMODE
 70
1
  9
$TEXTSIZE
 40
3.5
  9
$TRACEWID
 40
0.5
  9
$TEXTSTYLE
  7
STANDARD
  9
$CLAYER
  8
0
  9
$CELTYPE
  6
BYLAYER
  9
$CECOLOR
 62
256
  9
$DIMSCALE
 40
1
  9
$DIMASZ
 40
0.18
  9
$DIMEXO
 40
0.0625
  9
$DIMDLI
 40
0.38
  9
$DIMRND
 40
0
  9
$DIMDLE
 40
0
  9
$DIMEXE
 40
0.18
  9
$DIMTP
 40
0
  9
$DIMTM
 40
0
  9
$DIMTXT
 40
0.18
  9
$DIMCEN
 40
0.09
  9
$DIMTSZ
 40
0
  9
$DIMTOL
 70
0
  9
$DIMLIM
 70
0
  9
$DIMTIH
 70
1
  9
$DIMTOH
 70
1
  9
$DIMSE1
 70
0
  9
$DIMSE2
 70
0
  9
$DIMTAD
 70
0
  9
$DIMZIN
 70
0
  9
$DIMBLK
  1

  9
$DIMASO
 70
1
  9
$DIMSHO
 70
1
  9
$DIMPOST
  1

  9
$DIMAPOST
  1

  9
$DIMALT
 70
0
  9
$DIMALTD
 70
2
  9
$DIMALTF
 40
25.4
  9
$DIMLFAC
 40
1
  9
$DIMTOFL
 70
0
  9
$DIMTVP
 40
0
  9
$DIMTIX
 70
0
  9
$DIMSOXD
 70
0
  9
$DIMSAH
 70
0
  9
$DIMBLK1
  1

  9
$DIMBLK2
  1

  9
$DIMSTYLE
  2
*UNNAMED
  9
$DIMCLRD
 70
0
  9
$DIMCLRE
 70
0
  9
$DIMCLRT
 70
0
  9
$DIMTFAC
 40
1
  9
$DIMGAP
 40
0.09
  9
$LUNITS
 70
2
  9
$LUPREC
 70
4
  9
$AXISMODE
 70
0
  9
$AXISUNIT
 10
0
 20
0
  9
$SKETCHINC
 40
0.1
  9
$FILLETRAD
 40
2
  9
$AUNITS
 70
0
  9
$AUPREC
 70
0
  9
$MENU
  1
ACAD
  9
$ELEVATION
 40
0
  9
$THICKNESS
 40
0
  9
$VIEWDIR
 10
0
 20
0
 30
1
  9
$LIMCHECK
 70
0
  9
$BLIPMODE
 70
1
  9
$CHAMFERA
 40
0
  9
$CHAMFERB
 40
0
  9
$FASTZOOM
 70
1
  9
$SKPOLY
 70
0
  9
$ANGBASE
 50
0
  9
$ANGDIR
 70
0
  9
$PDMODE
 70
0
  9
$PDSIZE
 40
0
  9
$PLINEWID
 40
0
  9
$COORDS
 70
2
  0
ENDSEC
  0
SECTION
  2
TABLES
  0
TABLE
  2
DIMSTYLE
 70
1
  0
DIMSTYLE
  2
DMST_1
 70
0
  3

  4

  5

  6

  7

 40
1
 41
5
 42
0
 43
7
 44
2
 45
0
 46
0
 47
0
 48
0
140
5
141
0
142
0
143
25.4
144
1
145
0
146
1
147
0.09
 71
0
 72
0
 73
0
 74
0
 75
0
 76
0
 77
1
 78
9
170
0
171
2
172
0
173
0
174
0
175
0
176
1
177
1
178
3
  0
ENDTAB
  0
TABLE
  2
LTYPE
 70
9
  0
LTYPE
  2
CONTINUOUS
 70
64
  3
Solid line
 72
65
 73
0
 40
0
  0
LTYPE
  2
BORDER
 70
64
  3
__ __ . __ __ .
 72
65
 73
6
 40
14.17583766597363
 49
4.050239333135324
 49
-2.025119666567662
 49
4.050239333135324
 49
-2.025119666567662
 49
0
 49
-2.025119666567662
  0
LTYPE
  2
CENTER
 70
64
  3
____ _ ____ _
 72
65
 73
4
 40
16.2009573325413
 49
10.12559833283831
 49
-2.025119666567662
 49
2.025119666567662
 49
-2.025119666567662
  0
LTYPE
  2
DASHDOT
 70
64
  3
__ . __ . __ .
 72
65
 73
4
 40
8.100478666270648
 49
4.050239333135324
 49
-2.025119666567662
 49
0
 49
-2.025119666567662
  0
LTYPE
  2
DASHED
 70
64
  3
__ __ __ __ __
 72
65
 73
2
 40
6.075358999702987
 49
4.050239333135324
 49
-2.025119666567662
  0
LTYPE
  2
DIVIDE
 70
64
  3
__ . . __ . . 
 72
65
 73
6
 40
10.12559833283831
 49
4.050239333135324
 49
-2.025119666567662
 49
0
 49
-2.025119666567662
 49
0
 49
-2.025119666567662
  0
LTYPE
  2
DOT
 70
64
  3
..............
 72
65
 73
4
 40
4.050239333135324
 49
0
 49
-2.025119666567662
 49
0
 49
-2.025119666567662
  0
LTYPE
  2
HIDDEN
 70
64
  3
_ _ _ _ _ _ _
 72
65
 73
2
 40
3.037679499851493
 49
2.025119666567662
 49
-1.012559833283831
  0
LTYPE
  2
PHANTOM
 70
64
  3
_____ _ _ _____ _ _ 
 72
65
 73
6
 40
20.25119666567662
 49
10.12559833283831
 49
-2.025119666567662
 49
2.025119666567662
 49
-2.025119666567662
 49
2.025119666567662
 49
-2.025119666567662
  0
ENDTAB
  0
TABLE
  2
LAYER
 70
3
  0
LAYER
  2
1
 70
0
 62
7
  6
CONTINUOUS
  0
LAYER
  2
0
 70
0
 62
7
  6
CONTINUOUS
  0
ENDTAB
  0
TABLE
  2
STYLE
 70
4
  0
STYLE
  2
STANDARD
 70
0
 40
0
 41
1
 50
0
 71
0
 42
3.5
  3
txt
  4

  0
STYLE
  2
SIMPLEX
 70
0
 40
0
 41
1
 50
0
 71
0
 42
3.5
  3
simplex
  4

  0
STYLE
  2
COMPLEX
 70
0
 40
0
 41
1
 50
0
 71
0
 42
3.5
  3
complex
  4

  0
STYLE
  2
ITALIC
 70
0
 40
0
 41
1
 50
0
 71
0
 42
3.5
  3
italic
  4

  0
ENDTAB
  0
TABLE
  2
VIEW
 70
0
  0
ENDTAB
  0
ENDSEC
  0
SECTION
  2
BLOCKS
  0
BLOCK
  8
1
  2
*D0
 70
1
 10
0
 20
0
 30
0
  0
LINE
  8
1
 62
1
 10
100.3976335952482
 20
185.3195480168134
 30
0
 11
100.3976335952482
 21
202.308413462155
 31
0
  0
LINE
  8
1
 62
1
 10
100.3976335952482
 20
174.8195480168133
 30
0
 11
100.3976335952482
 21
185.3195480168134
 31
0
  0
LINE
  8
1
 62
1
 10
100.3976335952482
 20
164.8195480168133
 30
0
 11
100.3976335952482
 21
174.8195480168133
 31
0
  0
LINE
  8
1
 62
1
 10
115.1700183683654
 20
185.3195480168134
 30
0
 11
98.39763359524819
 21
185.3195480168134
 31
0
  0
LINE
  8
1
 62
1
 10
118.9950183683654
 20
174.8195480168133
 30
0
 11
98.39763359524819
 21
174.8195480168133
 31
0
  0
SOLID
  8
1
 62
1
 10
100.3976335952482
 20
174.8195480168133
 30
0
 11
101.0476335952482
 21
169.8195480168133
 31
0
 12
99.74763359524819
 22
169.8195480168133
 32
0
 13
99.74763359524819
 23
169.8195480168133
 33
0
  0
SOLID
  8
1
 62
1
 10
100.3976335952482
 20
185.3195480168134
 30
0
 11
99.74763359524819
 21
190.3195480168134
 31
0
 12
101.0476335952482
 22
190.3195480168134
 32
0
 13
101.0476335952482
 23
190.3195480168134
 33
0
  0
TEXT
  8
1
 62
3
 10
97.89763359524819
 20
190.058413462155
 30
0
 40
5
  1
10,5
 50
90
 41
0.9
  0
ENDBLK
  8
0
  0
BLOCK
  8
1
  2
*D1
 70
1
 10
0
 20
0
 30
0
  0
LINE
  8
1
 62
1
 10
100.4123219331821
 20
135.8195480168133
 30
0
 11
100.4123219331821
 21
174.8195480168133
 31
0
  0
LINE
  8
1
 62
1
 10
118.9950183683654
 20
174.8195480168133
 30
0
 11
98.4123219331821
 21
174.8195480168133
 31
0
  0
LINE
  8
1
 62
1
 10
118.9950183683654
 20
135.8195480168133
 30
0
 11
98.4123219331821
 21
135.8195480168133
 31
0
  0
SOLID
  8
1
 62
1
 10
100.4123219331821
 20
135.8195480168133
 30
0
 11
99.76232193318209
 21
140.8195480168133
 31
0
 12
101.0623219331821
 22
140.8195480168133
 32
0
 13
101.0623219331821
 23
140.8195480168133
 33
0
  0
SOLID
  8
1
 62
1
 10
100.4123219331821
 20
174.8195480168133
 30
0
 11
101.0623219331821
 21
169.8195480168133
 31
0
 12
99.76232193318209
 22
169.8195480168133
 32
0
 13
99.76232193318209
 23
169.8195480168133
 33
0
  0
TEXT
  8
1
 62
3
 10
98.4123219331821
 20
152.994851109996
 30
0
 40
5
  1
39
 50
90
 41
0.9
  0
ENDBLK
  8
0
  0
BLOCK
  8
1
  2
*D2
 70
1
 10
0
 20
0
 30
0
  0
LINE
  8
1
 62
1
 10
123.6700183683654
 20
198.66059714604
 30
0
 11
193.1700183683654
 21
198.66059714604
 31
0
  0
LINE
  8
1
 62
1
 10
193.1700183683654
 20
179.4945480168133
 30
0
 11
193.1700183683654
 21
200.66059714604
 31
0
  0
LINE
  8
1
 62
1
 10
123.6700183683654
 20
179.4945480168133
 30
0
 11
123.6700183683654
 21
200.66059714604
 31
0
  0
SOLID
  8
1
 62
1
 10
123.6700183683654
 20
198.66059714604
 30
0
 11
128.6700183683654
 21
199.31059714604
 31
0
 12
128.6700183683654
 22
198.01059714604
 32
0
 13
128.6700183683654
 23
198.01059714604
 33
0
  0
SOLID
  8
1
 62
1
 10
193.1700183683654
 20
198.66059714604
 30
0
 11
188.1700183683654
 21
198.01059714604
 31
0
 12
188.1700183683654
 22
199.31059714604
 32
0
 13
188.1700183683654
 23
199.31059714604
 33
0
  0
TEXT
  8
1
 62
3
 10
151.5450183683654
 20
201.16059714604
 30
0
 40
5
  1
69,5
 41
0.9
  0
ENDBLK
  8
0
  0
BLOCK
  8
1
  2
*D3
 70
1
 10
0
 20
0
 30
0
  0
LINE
  8
1
 62
1
 10
207.1700183683654
 20
198.586577999389
 30
0
 11
217.1700183683654
 21
198.586577999389
 31
0
  0
LINE
  8
1
 62
1
 10
193.1700183683654
 20
198.586577999389
 30
0
 11
183.1700183683654
 21
198.586577999389
 31
0
  0
LINE
  8
1
 62
1
 10
193.1700183683654
 20
198.586577999389
 30
0
 11
207.1700183683654
 21
198.586577999389
 31
0
  0
LINE
  8
1
 62
1
 10
207.1700183683654
 20
185.3195480168134
 30
0
 11
207.1700183683654
 21
200.586577999389
 31
0
  0
LINE
  8
1
 62
1
 10
193.1700183683654
 20
179.4945480168133
 30
0
 11
193.1700183683654
 21
200.586577999389
 31
0
  0
SOLID
  8
1
 62
1
 10
193.1700183683654
 20
198.586577999389
 30
0
 11
188.1700183683654
 21
197.936577999389
 31
0
 12
188.1700183683654
 22
199.236577999389
 32
0
 13
188.1700183683654
 23
199.236577999389
 33
0
  0
SOLID
  8
1
 62
1
 10
207.1700183683654
 20
198.586577999389
 30
0
 11
212.1700183683654
 21
199.236577999389
 31
0
 12
212.1700183683654
 22
197.936577999389
 32
0
 13
212.1700183683654
 23
197.936577999389
 33
0
  0
TEXT
  8
1
 62
3
 10
197.1700183683654
 20
200.586577999389
 30
0
 40
5
  1
14
 41
0.9
  0
ENDBLK
  8
0
  0
BLOCK
  8
1
  2
*D4
 70
1
 10
0
 20
0
 30
0
  0
LINE
  8
1
 62
1
 10
32.80751321598096
 20
90.2668196039411
 30
0
 11
48.30751321598096
 21
90.2668196039411
 31
0
  0
LINE
  8
1
 62
1
 10
48.30751321598096
 20
130.379624778123
 30
0
 11
48.30751321598096
 21
88.2668196039411
 31
0
  0
LINE
  8
1
 62
1
 10
32.80751321598096
 20
141.3195480168133
 30
0
 11
32.80751321598096
 21
88.2668196039411
 31
0
  0
SOLID
  8
1
 62
1
 10
32.80751321598096
 20
90.2668196039411
 30
0
 11
37.80751321598096
 21
90.91681960394111
 31
0
 12
37.80751321598096
 22
89.6168196039411
 32
0
 13
37.80751321598096
 23
89.6168196039411
 33
0
  0
SOLID
  8
1
 62
1
 10
48.30751321598096
 20
90.2668196039411
 30
0
 11
43.30751321598096
 21
89.6168196039411
 31
0
 12
43.30751321598096
 22
90.91681960394111
 32
0
 13
43.30751321598096
 23
90.91681960394111
 33
0
  0
TEXT
  8
1
 62
3
 10
34.43251321598096
 20
92.7668196039411
 30
0
 40
5
  1
15,5
 41
0.9
  0
ENDBLK
  8
0
  0
BLOCK
  8
1
  2
*D5
 70
1
 10
0
 20
0
 30
0
  0
LINE
  8
1
 62
1
 10
268.152464255884
 20
52.29253217550639
 30
0
 11
268.152464255884
 21
79.29253217550638
 31
0
  0
LINE
  8
1
 62
1
 10
285.0325235207499
 20
79.29253217550638
 30
0
 11
266.152464255884
 21
79.29253217550638
 31
0
  0
LINE
  8
1
 62
1
 10
285.0325235207499
 20
52.29253217550639
 30
0
 11
266.152464255884
 21
52.29253217550639
 31
0
  0
SOLID
  8
1
 62
1
 10
268.152464255884
 20
52.29253217550639
 30
0
 11
267.502464255884
 21
57.29253217550639
 31
0
 12
268.802464255884
 22
57.29253217550639
 32
0
 13
268.802464255884
 23
57.29253217550639
 33
0
  0
SOLID
  8
1
 62
1
 10
268.152464255884
 20
79.29253217550638
 30
0
 11
268.802464255884
 21
74.29253217550638
 31
0
 12
267.502464255884
 22
74.29253217550638
 32
0
 13
267.502464255884
 23
74.29253217550638
 33
0
  0
TEXT
  8
1
 62
3
 10
266.152464255884
 20
62.04253217550638
 30
0
 40
5
  1
27
 50
90
 41
0.9
  0
ENDBLK
  8
0
  0
BLOCK
  8
1
  2
*D6
 70
1
 10
0
 20
0
 30
0
  0
LINE
  8
1
 62
1
 10
306.0325235207499
 20
90.1197014552845
 30
0
 11
330.8325235207499
 21
90.1197014552845
 31
0
  0
LINE
  8
1
 62
1
 10
330.8325235207499
 20
130.379624778123
 30
0
 11
330.8325235207499
 21
88.1197014552845
 31
0
  0
LINE
  8
1
 62
1
 10
306.0325235207499
 20
125.3195480168134
 30
0
 11
306.0325235207499
 21
88.1197014552845
 31
0
  0
SOLID
  8
1
 62
1
 10
306.0325235207499
 20
90.1197014552845
 30
0
 11
311.0325235207499
 21
90.7697014552845
 31
0
 12
311.0325235207499
 22
89.46970145528449
 32
0
 13
311.0325235207499
 23
89.46970145528449
 33
0
  0
SOLID
  8
1
 62
1
 10
330.8325235207499
 20
90.1197014552845
 30
0
 11
325.8325235207499
 21
89.46970145528449
 31
0
 12
325.8325235207499
 22
90.7697014552845
 32
0
 13
325.8325235207499
 23
90.7697014552845
 33
0
  0
TEXT
  8
1
 62
3
 10
311.5575235207499
 20
92.6197014552845
 30
0
 40
5
  1
24,5
 41
0.9
  0
ENDBLK
  8
0
  0
BLOCK
  8
1
  2
*D7
 70
1
 10
0
 20
0
 30
0
  0
LINE
  8
1
 62
1
 10
291.0325235207499
 20
90.1548951443351
 30
0
 11
306.0325235207499
 21
90.1548951443351
 31
0
  0
LINE
  8
1
 62
1
 10
306.0325235207499
 20
125.3195480168134
 30
0
 11
306.0325235207499
 21
88.1548951443351
 31
0
  0
LINE
  8
1
 62
1
 10
291.0325235207499
 20
125.3195480168134
 30
0
 11
291.0325235207499
 21
88.1548951443351
 31
0
  0
SOLID
  8
1
 62
1
 10
291.0325235207499
 20
90.1548951443351
 30
0
 11
296.0325235207499
 21
90.80489514433511
 31
0
 12
296.0325235207499
 22
89.50489514433509
 32
0
 13
296.0325235207499
 23
89.50489514433509
 33
0
  0
SOLID
  8
1
 62
1
 10
306.0325235207499
 20
90.1548951443351
 30
0
 11
301.0325235207499
 21
89.50489514433509
 31
0
 12
301.0325235207499
 22
90.80489514433511
 32
0
 13
301.0325235207499
 23
90.80489514433511
 33
0
  0
TEXT
  8
1
 62
3
 10
295.5325235207499
 20
92.1548951443351
 30
0
 40
5
  1
15
 41
0.9
  0
ENDBLK
  8
0
  0
BLOCK
  8
1
  2
*D8
 70
1
 10
0
 20
0
 30
0
  0
LINE
  8
1
 62
1
 10
113.1700183683654
 20
105.438393303321
 30
0
 11
147.1700183683654
 21
105.438393303321
 31
0
  0
LINE
  8
1
 62
1
 10
147.1700183683654
 20
138.8195480168134
 30
0
 11
147.1700183683654
 21
103.438393303321
 31
0
  0
LINE
  8
1
 62
1
 10
113.1700183683654
 20
127.3195480168134
 30
0
 11
113.1700183683654
 21
103.438393303321
 31
0
  0
SOLID
  8
1
 62
1
 10
147.1700183683654
 20
105.438393303321
 30
0
 11
142.1700183683654
 21
104.788393303321
 31
0
 12
142.1700183683654
 22
106.088393303321
 32
0
 13
142.1700183683654
 23
106.088393303321
 33
0
  0
SOLID
  8
1
 62
1
 10
113.1700183683654
 20
105.438393303321
 30
0
 11
118.1700183683654
 21
106.088393303321
 31
0
 12
118.1700183683654
 22
104.788393303321
 32
0
 13
118.1700183683654
 23
104.788393303321
 33
0
  0
TEXT
  8
1
 62
3
 10
126.4200183683654
 20
107.438393303321
 30
0
 40
5
  1
34
 41
0.9
  0
ENDBLK
  8
0
  0
BLOCK
  8
1
  2
*D9
 70
1
 10
0
 20
0
 30
0
  0
LINE
  8
1
 62
1
 10
147.1700183683654
 20
105.389831114013
 30
0
 11
207.1700183683654
 21
105.389831114013
 31
0
  0
LINE
  8
1
 62
1
 10
207.1700183683654
 20
125.3195480168134
 30
0
 11
207.1700183683654
 21
103.389831114013
 31
0
  0
LINE
  8
1
 62
1
 10
147.1700183683654
 20
138.8195480168134
 30
0
 11
147.1700183683654
 21
103.389831114013
 31
0
  0
SOLID
  8
1
 62
1
 10
147.1700183683654
 20
105.389831114013
 30
0
 11
152.1700183683654
 21
106.039831114013
 31
0
 12
152.1700183683654
 22
104.739831114013
 32
0
 13
152.1700183683654
 23
104.739831114013
 33
0
  0
SOLID
  8
1
 62
1
 10
207.1700183683654
 20
105.389831114013
 30
0
 11
202.1700183683654
 21
104.739831114013
 31
0
 12
202.1700183683654
 22
106.039831114013
 32
0
 13
202.1700183683654
 23
106.039831114013
 33
0
  0
TEXT
  8
1
 62
3
 10
173.4200183683654
 20
107.389831114013
 30
0
 40
5
  1
60
 41
0.9
  0
ENDBLK
  8
0
  0
BLOCK
  8
1
  2
*D10
 70
1
 10
0
 20
0
 30
0
  0
LINE
  8
1
 62
1
 10
113.1700183683654
 20
90.22569002955809
 30
0
 11
207.1700183683654
 21
90.22569002955809
 31
0
  0
LINE
  8
1
 62
1
 10
207.1700183683654
 20
125.3195480168134
 30
0
 11
207.1700183683654
 21
88.22569002955809
 31
0
  0
LINE
  8
1
 62
1
 10
113.1700183683654
 20
127.3195480168134
 30
0
 11
113.1700183683654
 21
88.22569002955809
 31
0
  0
SOLID
  8
1
 62
1
 10
113.1700183683654
 20
90.22569002955809
 30
0
 11
118.1700183683654
 21
90.8756900295581
 31
0
 12
118.1700183683654
 22
89.57569002955809
 32
0
 13
118.1700183683654
 23
89.57569002955809
 33
0
  0
SOLID
  8
1
 62
1
 10
207.1700183683654
 20
90.22569002955809
 30
0
 11
202.1700183683654
 21
89.57569002955809
 31
0
 12
202.1700183683654
 22
90.8756900295581
 32
0
 13
202.1700183683654
 23
90.8756900295581
 33
0
  0
TEXT
  8
1
 62
3
 10
156.4200183683654
 20
92.22569002955809
 30
0
 40
5
  1
94
 41
0.9
  0
ENDBLK
  8
0
  0
BLOCK
  8
1
  2
*D11
 70
1
 10
0
 20
0
 30
0
  0
LINE
  8
1
 62
1
 10
250.307846347366
 20
142.8195480168133
 30
0
 11
250.307846347366
 21
167.8195480168133
 31
0
  0
LINE
  8
1
 62
1
 10
229.1700183683654
 20
167.8195480168133
 30
0
 11
252.307846347366
 21
167.8195480168133
 31
0
  0
LINE
  8
1
 62
1
 10
229.1700183683654
 20
142.8195480168133
 30
0
 11
252.307846347366
 21
142.8195480168133
 31
0
  0
SOLID
  8
1
 62
1
 10
250.307846347366
 20
142.8195480168133
 30
0
 11
249.657846347366
 21
147.8195480168133
 31
0
 12
250.957846347366
 22
147.8195480168133
 32
0
 13
250.957846347366
 23
147.8195480168133
 33
0
  0
SOLID
  8
1
 62
1
 10
250.307846347366
 20
167.8195480168133
 30
0
 11
250.957846347366
 21
162.8195480168133
 31
0
 12
249.657846347366
 22
162.8195480168133
 32
0
 13
249.657846347366
 23
162.8195480168133
 33
0
  0
TEXT
  8
1
 62
3
 10
248.307846347366
 20
151.5695480168133
 30
0
 40
5
  1
25
 50
90
 41
0.9
  0
ENDBLK
  8
0
  0
BLOCK
  8
1
  2
*D12
 70
1
 10
0
 20
0
 30
0
  0
LINE
  8
1
 62
1
 10
88.6336908951214
 20
125.3195480168134
 30
0
 11
88.6336908951214
 21
185.3195480168134
 31
0
  0
LINE
  8
1
 62
1
 10
115.1700183683654
 20
185.3195480168134
 30
0
 11
86.6336908951214
 21
185.3195480168134
 31
0
  0
LINE
  8
1
 62
1
 10
115.1700183683654
 20
125.3195480168134
 30
0
 11
86.6336908951214
 21
125.3195480168134
 31
0
  0
SOLID
  8
1
 62
1
 10
88.6336908951214
 20
125.3195480168134
 30
0
 11
87.9836908951214
 21
130.3195480168134
 31
0
 12
89.2836908951214
 22
130.3195480168134
 32
0
 13
89.2836908951214
 23
130.3195480168134
 33
0
  0
SOLID
  8
1
 62
1
 10
88.6336908951214
 20
185.3195480168134
 30
0
 11
89.28369089512141
 21
180.3195480168134
 31
0
 12
87.9836908951214
 22
180.3195480168134
 32
0
 13
87.9836908951214
 23
180.3195480168134
 33
0
  0
TEXT
  8
1
 62
3
 10
86.6336908951214
 20
151.5695480168134
 30
0
 40
5
  1
60
 50
90
 41
0.9
  0
ENDBLK
  8
0
  0
BLOCK
  8
1
  2
*D13
 70
1
 10
0
 20
0
 30
0
  0
LINE
  8
1
 62
1
 10
72.30751321598092
 20
105.245303783127
 30
0
 11
82.30751321598092
 21
105.245303783127
 31
0
  0
LINE
  8
1
 62
1
 10
65.30751321598092
 20
105.245303783127
 30
0
 11
72.30751321598092
 21
105.245303783127
 31
0
  0
LINE
  8
1
 62
1
 10
72.30751321598092
 20
125.3195480168134
 30
0
 11
72.30751321598092
 21
103.245303783127
 31
0
  0
LINE
  8
1
 62
1
 10
65.30751321598092
 20
142.8195480168133
 30
0
 11
65.30751321598092
 21
103.245303783127
 31
0
  0
LINE
  8
1
 62
1
 10
63.53974626301455
 20
103.4775368301606
 30
0
 11
67.07528016894729
 21
107.0130707360934
 31
0
  0
SOLID
  8
1
 62
1
 10
72.30751321598092
 20
105.245303783127
 30
0
 11
77.30751321598092
 21
105.895303783127
 31
0
 12
77.30751321598092
 22
104.595303783127
 32
0
 13
77.30751321598092
 23
104.595303783127
 33
0
  0
TEXT
  8
1
 62
3
 10
68.0887164903726
 20
107.549026680976
 30
0
 40
5
  1
7
 41
0.9
  0
ENDBLK
  8
0
  0
BLOCK
  8
1
  2
*D14
 70
1
 10
0
 20
0
 30
0
  0
LINE
  8
1
 62
1
 10
53.30751321598092
 20
105.245303783127
 30
0
 11
43.30751321598092
 21
105.245303783127
 31
0
  0
LINE
  8
1
 62
1
 10
53.30751321598092
 20
105.245303783127
 30
0
 11
65.30751321598092
 21
105.245303783127
 31
0
  0
LINE
  8
1
 62
1
 10
65.30751321598092
 20
142.8195480168133
 30
0
 11
65.30751321598092
 21
103.245303783127
 31
0
  0
LINE
  8
1
 62
1
 10
53.30751321598092
 20
142.8195480168133
 30
0
 11
53.30751321598092
 21
103.245303783127
 31
0
  0
SOLID
  8
1
 62
1
 10
53.30751321598092
 20
105.245303783127
 30
0
 11
48.30751321598092
 21
104.595303783127
 31
0
 12
48.30751321598092
 22
105.895303783127
 32
0
 13
48.30751321598092
 23
105.895303783127
 33
0
  0
LINE
  8
1
 62
1
 10
67.07528016894729
 20
107.0130707360934
 30
0
 11
63.53974626301455
 21
103.4775368301606
 31
0
  0
TEXT
  8
1
 62
3
 10
55.6544292267242
 20
107.549026680976
 30
0
 40
5
  1
12
 41
0.9
  0
ENDBLK
  8
0
  0
BLOCK
  8
1
  2
*D15
 70
1
 10
0
 20
0
 30
0
  0
LINE
  8
1
 62
1
 10
48.30751321598096
 20
90.323155773606
 30
0
 11
72.30751321598092
 21
90.323155773606
 31
0
  0
LINE
  8
1
 62
1
 10
72.30751321598092
 20
125.3195480168134
 30
0
 11
72.30751321598092
 21
88.323155773606
 31
0
  0
LINE
  8
1
 62
1
 10
48.30751321598096
 20
130.379624778123
 30
0
 11
48.30751321598096
 21
88.323155773606
 31
0
  0
SOLID
  8
1
 62
1
 10
72.30751321598092
 20
90.323155773606
 30
0
 11
67.30751321598092
 21
89.673155773606
 31
0
 12
67.30751321598092
 22
90.97315577360601
 32
0
 13
67.30751321598092
 23
90.97315577360601
 33
0
  0
SOLID
  8
1
 62
1
 10
48.30751321598096
 20
90.323155773606
 30
0
 11
53.30751321598096
 21
90.97315577360601
 31
0
 12
53.30751321598096
 22
89.673155773606
 32
0
 13
53.30751321598096
 23
89.673155773606
 33
0
  0
TEXT
  8
1
 62
3
 10
56.55751321598095
 20
92.323155773606
 30
0
 40
5
  1
24
 41
0.9
  0
ENDBLK
  8
0
  0
BLOCK
  8
1
  2
*D16
 70
1
 10
0
 20
0
 30
0
  0
LINE
  8
1
 62
1
 10
289.0325235207499
 20
105.363033516902
 30
0
 11
291.0325235207499
 21
105.363033516902
 31
0
  0
LINE
  8
1
 62
1
 10
291.0325235207499
 20
105.363033516902
 30
0
 11
301.0325235207499
 21
105.363033516902
 31
0
  0
LINE
  8
1
 62
1
 10
289.0325235207499
 20
125.3195480168134
 30
0
 11
289.0325235207499
 21
103.363033516902
 31
0
  0
LINE
  8
1
 62
1
 10
291.0325235207499
 20
125.3195480168134
 30
0
 11
291.0325235207499
 21
103.363033516902
 31
0
  0
LINE
  8
1
 62
1
 10
287.2647565677835
 20
103.5952665639356
 30
0
 11
290.8002904737163
 21
107.1308004698684
 31
0
  0
SOLID
  8
1
 62
1
 10
291.0325235207499
 20
105.363033516902
 30
0
 11
296.0325235207499
 21
106.013033516902
 31
0
 12
296.0325235207499
 22
104.713033516902
 32
0
 13
296.0325235207499
 23
104.713033516902
 33
0
  0
TEXT
  8
1
 62
3
 10
295.400336731134
 20
107.363033516902
 30
0
 40
5
  1
2
 41
0.9
  0
ENDBLK
  8
0
  0
BLOCK
  8
1
  2
*D17
 70
1
 10
0
 20
0
 30
0
  0
LINE
  8
1
 62
1
 10
287.0325235207499
 20
105.363033516902
 30
0
 11
289.0325235207499
 21
105.363033516902
 31
0
  0
LINE
  8
1
 62
1
 10
287.0325235207499
 20
105.363033516902
 30
0
 11
277.0325235207499
 21
105.363033516902
 31
0
  0
LINE
  8
1
 62
1
 10
287.0325235207499
 20
125.3195480168134
 30
0
 11
287.0325235207499
 21
103.363033516902
 31
0
  0
LINE
  8
1
 62
1
 10
289.0325235207499
 20
125.3195480168134
 30
0
 11
289.0325235207499
 21
103.363033516902
 31
0
  0
LINE
  8
1
 62
1
 10
290.8002904737163
 20
107.1308004698684
 30
0
 11
287.2647565677835
 21
103.5952665639356
 31
0
  0
SOLID
  8
1
 62
1
 10
287.0325235207499
 20
105.363033516902
 30
0
 11
282.0325235207499
 21
104.713033516902
 31
0
 12
282.0325235207499
 22
106.013033516902
 32
0
 13
282.0325235207499
 23
106.013033516902
 33
0
  0
TEXT
  8
1
 62
3
 10
279.078345875778
 20
107.363033516902
 30
0
 40
5
  1
2
 41
0.9
  0
ENDBLK
  8
0
  0
BLOCK
  8
1
  2
*D18
 70
1
 10
0
 20
0
 30
0
  0
LINE
  8
1
 62
1
 10
207.1700183683654
 20
90.20568495827931
 30
0
 11
229.1700183683654
 21
90.20568495827931
 31
0
  0
LINE
  8
1
 62
1
 10
229.1700183683654
 20
142.8195480168133
 30
0
 11
229.1700183683654
 21
88.20568495827931
 31
0
  0
LINE
  8
1
 62
1
 10
207.1700183683654
 20
125.3195480168134
 30
0
 11
207.1700183683654
 21
88.20568495827931
 31
0
  0
SOLID
  8
1
 62
1
 10
207.1700183683654
 20
90.20568495827931
 30
0
 11
212.1700183683654
 21
90.85568495827931
 31
0
 12
212.1700183683654
 22
89.5556849582793
 32
0
 13
212.1700183683654
 23
89.5556849582793
 33
0
  0
SOLID
  8
1
 62
1
 10
229.1700183683654
 20
90.20568495827931
 30
0
 11
224.1700183683654
 21
89.5556849582793
 31
0
 12
224.1700183683654
 22
90.85568495827931
 32
0
 13
224.1700183683654
 23
90.85568495827931
 33
0
  0
TEXT
  8
1
 62
3
 10
214.4200183683654
 20
92.20568495827931
 30
0
 40
5
  1
22
 41
0.9
  0
ENDBLK
  8
0
  0
ENDSEC
  0
SECTION
  2
ENTITIES
  0
LINE
  8
1
 62
2
  6
DIVIDE
 10
123.6700183683654
 20
140.4945480168133
 30
0
 11
123.6700183683654
 21
131.1445480168133
 31
0
  0
LINE
  8
1
 62
2
  6
DIVIDE
 10
128.3450183683654
 20
135.8195480168133
 30
0
 11
118.9950183683654
 21
135.8195480168133
 31
0
  0
LINE
  8
1
 62
2
  6
DIVIDE
 10
123.6700183683654
 20
179.4945480168133
 30
0
 11
123.6700183683654
 21
170.1445480168133
 31
0
  0
LINE
  8
1
 62
2
  6
DIVIDE
 10
128.3450183683654
 20
174.8195480168133
 30
0
 11
118.9950183683654
 21
174.8195480168133
 31
0
  0
LINE
  8
1
 62
2
  6
DIVIDE
 10
193.1700183683654
 20
179.4945480168133
 30
0
 11
193.1700183683654
 21
170.1445480168133
 31
0
  0
LINE
  8
1
 62
2
  6
DIVIDE
 10
197.8450183683654
 20
174.8195480168133
 30
0
 11
188.4950183683654
 21
174.8195480168133
 31
0
  0
LINE
  8
1
 62
2
  6
DIVIDE
 10
193.1700183683654
 20
140.4945480168133
 30
0
 11
193.1700183683654
 21
131.1445480168133
 31
0
  0
LINE
  8
1
 62
2
  6
DIVIDE
 10
197.8450183683654
 20
135.8195480168133
 30
0
 11
188.4950183683654
 21
135.8195480168133
 31
0
  0
LINE
  8
1
 62
2
  6
PHANTOM
 10
53.30751321598092
 20
155.3195480168134
 30
0
 11
28.67001836836539
 21
155.3195480168134
 31
0
  0
LINE
  8
1
 62
7
 10
48.30751321598096
 20
145.8195480168133
 30
0
 11
39.80751321598096
 21
145.8195480168133
 31
0
  0
LINE
  8
1
 62
7
 10
39.80751321598096
 20
155.3195480168133
 30
0
 11
39.80751321598096
 21
140.3195480168133
 31
0
  0
LINE
  8
1
 62
7
 10
32.80751321598096
 20
155.3195480168133
 30
0
 11
32.80751321598096
 21
141.3195480168133
 31
0
  0
LINE
  8
1
 62
7
 10
39.80751321598096
 20
140.3195480168133
 30
0
 11
32.80751321598096
 21
141.3195480168133
 31
0
  0
LINE
  8
1
 62
7
 10
39.80751321598096
 20
164.8195480168134
 30
0
 11
48.30751321598096
 21
164.8195480168134
 31
0
  0
LINE
  8
1
 62
7
 10
39.80751321598096
 20
170.3195480168134
 30
0
 11
39.80751321598096
 21
155.3195480168133
 31
0
  0
LINE
  8
1
 62
7
 10
32.80751321598096
 20
169.3195480168134
 30
0
 11
32.80751321598096
 21
155.3195480168133
 31
0
  0
LINE
  8
1
 62
7
 10
32.80751321598096
 20
169.3195480168134
 30
0
 11
39.80751321598096
 21
170.3195480168134
 31
0
  0
LINE
  8
1
 62
2
  6
DIVIDE
 10
147.1700183683654
 20
171.8195480168134
 30
0
 11
147.1700183683654
 21
138.8195480168134
 31
0
  0
LINE
  8
1
 62
2
  6
DIVIDE
 10
163.6700183683654
 20
155.3195480168134
 30
0
 11
130.6700183683654
 21
155.3195480168134
 31
0
  0
LINE
  8
1
 62
7
 10
306.0325235207499
 20
185.3195480168134
 30
0
 11
287.0325235207499
 21
185.3195480168134
 31
0
  0
LINE
  8
1
 62
7
 10
287.0325235207499
 20
185.3195480168134
 30
0
 11
287.0325235207499
 21
125.3195480168134
 31
0
  0
LINE
  8
1
 62
7
 10
289.0325235207499
 20
185.3195480168134
 30
0
 11
289.0325235207499
 21
125.3195480168134
 31
0
  0
LINE
  8
1
 62
7
 10
291.0325235207499
 20
185.3195480168134
 30
0
 11
291.0325235207499
 21
125.3195480168134
 31
0
  0
LINE
  8
1
 62
7
 10
306.0325235207499
 20
125.3195480168134
 30
0
 11
287.0325235207499
 21
125.3195480168134
 31
0
  0
LINE
  8
1
 62
7
 10
306.0325235207499
 20
185.3195480168134
 30
0
 11
306.0325235207499
 21
125.3195480168134
 31
0
  0
LINE
  8
1
 62
7
 10
330.8325235207499
 20
180.2594712555037
 30
0
 11
330.8325235207499
 21
130.379624778123
 31
0
  0
LINE
  8
1
 62
7
 10
318.4125235207499
 20
135.3055480168134
 30
0
 11
319.5465235207499
 21
135.3055480168134
 31
0
  0
LINE
  8
1
 62
7
 10
319.5465235207499
 20
135.3055480168134
 30
0
 11
319.5465235207499
 21
136.4395480168134
 31
0
  0
LINE
  8
1
 62
7
 10
318.4125235207499
 20
134.8195480168134
 30
0
 11
318.4125235207499
 21
135.3055480168134
 31
0
  0
LINE
  8
1
 62
7
 10
319.5465235207499
 20
136.4395480168134
 30
0
 11
320.0325235207499
 21
136.4395480168134
 31
0
  0
LINE
  8
1
 62
7
 10
319.5465235207499
 20
133.1995480168134
 30
0
 11
319.5465235207499
 21
134.3335480168134
 31
0
  0
LINE
  8
1
 62
7
 10
319.5465235207499
 20
134.3335480168134
 30
0
 11
318.4125235207499
 21
134.3335480168134
 31
0
  0
LINE
  8
1
 62
7
 10
318.4125235207499
 20
134.3335480168134
 30
0
 11
318.4125235207499
 21
134.8195480168134
 31
0
  0
LINE
  8
1
 62
7
 10
320.0325235207499
 20
133.1995480168134
 30
0
 11
319.5465235207499
 21
133.1995480168134
 31
0
  0
LINE
  8
1
 62
7
 10
320.5185235207499
 20
135.3055480168134
 30
0
 11
321.6525235207499
 21
135.3055480168134
 31
0
  0
LINE
  8
1
 62
7
 10
320.5185235207499
 20
136.4395480168134
 30
0
 11
320.5185235207499
 21
135.3055480168134
 31
0
  0
LINE
  8
1
 62
7
 10
321.6525235207499
 20
135.3055480168134
 30
0
 11
321.6525235207499
 21
134.8195480168134
 31
0
  0
LINE
  8
1
 62
7
 10
320.0325235207499
 20
136.4395480168134
 30
0
 11
320.5185235207499
 21
136.4395480168134
 31
0
  0
LINE
  8
1
 62
7
 10
320.5185235207499
 20
134.3335480168134
 30
0
 11
320.5185235207499
 21
133.1995480168134
 31
0
  0
LINE
  8
1
 62
7
 10
321.6525235207499
 20
134.3335480168134
 30
0
 11
320.5185235207499
 21
134.3335480168134
 31
0
  0
LINE
  8
1
 62
7
 10
321.6525235207499
 20
134.8195480168134
 30
0
 11
321.6525235207499
 21
134.3335480168134
 31
0
  0
LINE
  8
1
 62
7
 10
320.5185235207499
 20
133.1995480168134
 30
0
 11
320.0325235207499
 21
133.1995480168134
 31
0
  0
LINE
  8
1
 62
7
 10
115.1700183683654
 20
185.3195480168134
 30
0
 11
207.1700183683654
 21
185.3195480168134
 31
0
  0
LINE
  8
1
 62
7
 10
115.1700183683654
 20
125.3195480168134
 30
0
 11
207.1700183683654
 21
125.3195480168134
 31
0
  0
LINE
  8
1
 62
7
 10
207.1700183683654
 20
185.3195480168134
 30
0
 11
207.1700183683654
 21
125.3195480168134
 31
0
  0
LINE
  8
1
 62
7
 10
113.1700183683654
 20
183.3195480168134
 30
0
 11
113.1700183683654
 21
127.3195480168134
 31
0
  0
LINE
  8
1
 62
2
 10
115.6700183683654
 20
181.8195480168134
 30
0
 11
115.6700183683654
 21
128.8195480168134
 31
0
  0
LINE
  8
1
 62
2
 10
116.6700183683654
 20
127.8195480168134
 30
0
 11
207.1700183683654
 21
127.8195480168134
 31
0
  0
LINE
  8
1
 62
2
 10
116.6700183683654
 20
182.8195480168134
 30
0
 11
207.1700183683654
 21
182.8195480168134
 31
0
  0
LINE
  8
1
 62
7
 10
50.06377452917063
 20
182.2445635587862
 30
0
 11
72.30751321598092
 21
185.3195480168134
 31
0
  0
LINE
  8
1
 62
7
 10
72.30751321598092
 20
125.3195480168134
 30
0
 11
72.30751321598092
 21
185.3195480168134
 31
0
  0
LINE
  8
1
 62
7
 10
50.06377452917067
 20
128.3945324748404
 30
0
 11
72.30751321598092
 21
125.3195480168134
 31
0
  0
LINE
  8
1
 62
7
 10
48.30751321598096
 20
130.379624778123
 30
0
 11
48.30751321598096
 21
180.2594712555037
 31
0
  0
LINE
  8
1
 62
7
 10
65.79351321598094
 20
134.3055480168134
 30
0
 11
66.92751321598092
 21
134.3055480168134
 31
0
  0
LINE
  8
1
 62
7
 10
65.79351321598094
 20
135.4395480168134
 30
0
 11
65.79351321598094
 21
134.3055480168134
 31
0
  0
LINE
  8
1
 62
7
 10
66.92751321598092
 20
134.3055480168134
 30
0
 11
66.92751321598092
 21
133.8195480168134
 31
0
  0
LINE
  8
1
 62
7
 10
65.30751321598092
 20
135.4395480168134
 30
0
 11
65.79351321598094
 21
135.4395480168134
 31
0
  0
LINE
  8
1
 62
7
 10
65.79351321598094
 20
133.3335480168134
 30
0
 11
65.79351321598094
 21
132.1995480168134
 31
0
  0
LINE
  8
1
 62
7
 10
66.92751321598092
 20
133.3335480168134
 30
0
 11
65.79351321598094
 21
133.3335480168134
 31
0
  0
LINE
  8
1
 62
7
 10
66.92751321598092
 20
133.8195480168134
 30
0
 11
66.92751321598092
 21
133.3335480168134
 31
0
  0
LINE
  8
1
 62
7
 10
65.79351321598094
 20
132.1995480168134
 30
0
 11
65.30751321598092
 21
132.1995480168134
 31
0
  0
LINE
  8
1
 62
7
 10
63.68751321598091
 20
134.3055480168134
 30
0
 11
64.8215132159809
 21
134.3055480168134
 31
0
  0
LINE
  8
1
 62
7
 10
64.8215132159809
 20
134.3055480168134
 30
0
 11
64.8215132159809
 21
135.4395480168134
 31
0
  0
LINE
  8
1
 62
7
 10
63.68751321598091
 20
133.8195480168134
 30
0
 11
63.68751321598091
 21
134.3055480168134
 31
0
  0
LINE
  8
1
 62
7
 10
64.8215132159809
 20
135.4395480168134
 30
0
 11
65.30751321598092
 21
135.4395480168134
 31
0
  0
LINE
  8
1
 62
7
 10
64.8215132159809
 20
132.1995480168134
 30
0
 11
64.8215132159809
 21
133.3335480168134
 31
0
  0
LINE
  8
1
 62
7
 10
64.8215132159809
 20
133.3335480168134
 30
0
 11
63.68751321598091
 21
133.3335480168134
 31
0
  0
LINE
  8
1
 62
7
 10
63.68751321598091
 20
133.3335480168134
 30
0
 11
63.68751321598091
 21
133.8195480168134
 31
0
  0
LINE
  8
1
 62
7
 10
65.30751321598092
 20
132.1995480168134
 30
0
 11
64.8215132159809
 21
132.1995480168134
 31
0
  0
LINE
  8
1
 62
7
 10
65.79351321598094
 20
177.3055480168134
 30
0
 11
66.92751321598092
 21
177.3055480168134
 31
0
  0
LINE
  8
1
 62
7
 10
65.79351321598094
 20
178.4395480168134
 30
0
 11
65.79351321598094
 21
177.3055480168134
 31
0
  0
LINE
  8
1
 62
7
 10
66.92751321598092
 20
177.3055480168134
 30
0
 11
66.92751321598092
 21
176.8195480168134
 31
0
  0
LINE
  8
1
 62
7
 10
65.30751321598092
 20
178.4395480168134
 30
0
 11
65.79351321598094
 21
178.4395480168134
 31
0
  0
LINE
  8
1
 62
7
 10
65.79351321598094
 20
176.3335480168134
 30
0
 11
65.79351321598094
 21
175.1995480168134
 31
0
  0
LINE
  8
1
 62
7
 10
66.92751321598092
 20
176.3335480168134
 30
0
 11
65.79351321598094
 21
176.3335480168134
 31
0
  0
LINE
  8
1
 62
7
 10
66.92751321598092
 20
176.8195480168134
 30
0
 11
66.92751321598092
 21
176.3335480168134
 31
0
  0
LINE
  8
1
 62
7
 10
65.79351321598094
 20
175.1995480168134
 30
0
 11
65.30751321598092
 21
175.1995480168134
 31
0
  0
LINE
  8
1
 62
7
 10
63.68751321598091
 20
177.3055480168134
 30
0
 11
64.8215132159809
 21
177.3055480168134
 31
0
  0
LINE
  8
1
 62
7
 10
64.8215132159809
 20
177.3055480168134
 30
0
 11
64.8215132159809
 21
178.4395480168134
 31
0
  0
LINE
  8
1
 62
7
 10
63.68751321598091
 20
176.8195480168134
 30
0
 11
63.68751321598091
 21
177.3055480168134
 31
0
  0
LINE
  8
1
 62
7
 10
64.8215132159809
 20
178.4395480168134
 30
0
 11
65.30751321598092
 21
178.4395480168134
 31
0
  0
LINE
  8
1
 62
7
 10
64.8215132159809
 20
175.1995480168134
 30
0
 11
64.8215132159809
 21
176.3335480168134
 31
0
  0
LINE
  8
1
 62
7
 10
64.8215132159809
 20
176.3335480168134
 30
0
 11
63.68751321598091
 21
176.3335480168134
 31
0
  0
LINE
  8
1
 62
7
 10
63.68751321598091
 20
176.3335480168134
 30
0
 11
63.68751321598091
 21
176.8195480168134
 31
0
  0
LINE
  8
1
 62
7
 10
65.30751321598092
 20
175.1995480168134
 30
0
 11
64.8215132159809
 21
175.1995480168134
 31
0
  0
LINE
  8
1
 62
7
 10
48.30751321598096
 20
141.3195480168133
 30
0
 11
48.30751321598096
 21
169.3195480168133
 31
0
  0
LINE
  8
1
 62
7
 10
53.30751321598092
 20
167.8195480168133
 30
0
 11
65.30751321598092
 21
167.8195480168133
 31
0
  0
LINE
  8
1
 62
7
 10
53.30751321598092
 20
142.8195480168133
 30
0
 11
65.30751321598092
 21
142.8195480168133
 31
0
  0
LINE
  8
1
 62
7
 10
65.30751321598092
 20
142.8195480168133
 30
0
 11
65.30751321598092
 21
167.8195480168133
 31
0
  0
LINE
  8
1
 62
7
 10
53.30751321598092
 20
142.8195480168133
 30
0
 11
53.30751321598092
 21
167.8195480168133
 31
0
  0
LINE
  8
1
 62
7
 10
207.1700183683654
 20
167.8195480168133
 30
0
 11
229.1700183683654
 21
167.8195480168133
 31
0
  0
LINE
  8
1
 62
7
 10
207.1700183683654
 20
142.8195480168133
 30
0
 11
229.1700183683654
 21
142.8195480168133
 31
0
  0
LINE
  8
1
 62
7
 10
229.1700183683654
 20
142.8195480168133
 30
0
 11
229.1700183683654
 21
167.8195480168133
 31
0
  0
LINE
  8
1
 62
7
 10
227.1700183683654
 20
167.8195480168133
 30
0
 11
229.1700183683654
 21
167.8195480168133
 31
0
  0
LINE
  8
1
 62
7
 10
227.1700183683654
 20
142.8195480168133
 30
0
 11
229.1700183683654
 21
142.8195480168133
 31
0
  0
LINE
  8
1
 62
2
  6
DIVIDE
 10
161.990154172898
 20
155.3195480168133
 30
0
 11
235.282768130025
 21
155.3195480168133
 31
0
  0
LINE
  8
1
 62
7
 10
330.8325235207499
 20
74.23245541419682
 30
0
 11
330.8325235207499
 21
52.29253217550638
 31
0
  0
LINE
  8
1
 62
7
 10
304.0325235207499
 20
79.29253217550638
 30
0
 11
329.0762622075603
 21
76.21754771747932
 31
0
  0
LINE
  8
1
 62
7
 10
304.0325235207499
 20
52.29253217550639
 30
0
 11
304.0325235207499
 21
79.29253217550638
 31
0
  0
LINE
  8
1
 62
7
 10
330.8325235207499
 20
52.29253217550638
 30
0
 11
304.0325235207499
 21
52.29253217550639
 31
0
  0
LINE
  8
1
 62
7
 10
304.0325235207499
 20
79.29253217550638
 30
0
 11
285.0325235207499
 21
79.29253217550638
 31
0
  0
LINE
  8
1
 62
7
 10
304.0325235207499
 20
52.29253217550639
 30
0
 11
285.0325235207499
 21
52.29253217550639
 31
0
  0
LINE
  8
1
 62
7
 10
285.0325235207499
 20
52.29253217550639
 30
0
 11
285.0325235207499
 21
79.29253217550638
 31
0
  0
LINE
  8
1
 62
7
 10
287.0325235207499
 20
52.29253217550639
 30
0
 11
287.0325235207499
 21
79.29253217550638
 31
0
  0
LINE
  8
1
 62
7
 10
289.0325235207499
 20
52.29253217550639
 30
0
 11
289.0325235207499
 21
79.29253217550638
 31
0
  0
LINE
  8
1
 62
7
 10
215.6700183683654
 20
167.8195480168133
 30
0
 11
217.6700183683654
 21
167.8195480168133
 31
0
  0
LINE
  8
1
 62
7
 10
215.6700183683654
 20
142.8195480168133
 30
0
 11
217.6700183683654
 21
142.8195480168133
 31
0
  0
LINE
  8
1
 62
7
 10
318.4125235207499
 20
176.3055480168134
 30
0
 11
319.5465235207499
 21
176.3055480168134
 31
0
  0
LINE
  8
1
 62
7
 10
319.5465235207499
 20
176.3055480168134
 30
0
 11
319.5465235207499
 21
177.4395480168134
 31
0
  0
LINE
  8
1
 62
7
 10
318.4125235207499
 20
175.8195480168134
 30
0
 11
318.4125235207499
 21
176.3055480168134
 31
0
  0
LINE
  8
1
 62
7
 10
319.5465235207499
 20
177.4395480168134
 30
0
 11
320.0325235207499
 21
177.4395480168134
 31
0
  0
LINE
  8
1
 62
7
 10
319.5465235207499
 20
174.1995480168134
 30
0
 11
319.5465235207499
 21
175.3335480168134
 31
0
  0
LINE
  8
1
 62
7
 10
319.5465235207499
 20
175.3335480168134
 30
0
 11
318.4125235207499
 21
175.3335480168134
 31
0
  0
LINE
  8
1
 62
7
 10
318.4125235207499
 20
175.3335480168134
 30
0
 11
318.4125235207499
 21
175.8195480168134
 31
0
  0
LINE
  8
1
 62
7
 10
320.0325235207499
 20
174.1995480168134
 30
0
 11
319.5465235207499
 21
174.1995480168134
 31
0
  0
LINE
  8
1
 62
7
 10
320.5185235207499
 20
176.3055480168134
 30
0
 11
321.6525235207499
 21
176.3055480168134
 31
0
  0
LINE
  8
1
 62
7
 10
320.5185235207499
 20
177.4395480168134
 30
0
 11
320.5185235207499
 21
176.3055480168134
 31
0
  0
LINE
  8
1
 62
7
 10
321.6525235207499
 20
176.3055480168134
 30
0
 11
321.6525235207499
 21
175.8195480168134
 31
0
  0
LINE
  8
1
 62
7
 10
320.0325235207499
 20
177.4395480168134
 30
0
 11
320.5185235207499
 21
177.4395480168134
 31
0
  0
LINE
  8
1
 62
7
 10
320.5185235207499
 20
175.3335480168134
 30
0
 11
320.5185235207499
 21
174.1995480168134
 31
0
  0
LINE
  8
1
 62
7
 10
321.6525235207499
 20
175.3335480168134
 30
0
 11
320.5185235207499
 21
175.3335480168134
 31
0
  0
LINE
  8
1
 62
7
 10
321.6525235207499
 20
175.8195480168134
 30
0
 11
321.6525235207499
 21
175.3335480168134
 31
0
  0
LINE
  8
1
 62
7
 10
320.5185235207499
 20
174.1995480168134
 30
0
 11
320.0325235207499
 21
174.1995480168134
 31
0
  0
LINE
  8
1
 62
7
 10
312.3325235207499
 20
169.8195480168134
 30
0
 11
312.3325235207499
 21
140.8195480168134
 31
0
  0
LINE
  8
1
 62
7
 10
312.8325235207499
 20
140.3195480168134
 30
0
 11
326.1325235207499
 21
140.3195480168134
 31
0
  0
LINE
  8
1
 62
7
 10
312.8325235207499
 20
170.3195480168134
 30
0
 11
326.1325235207499
 21
170.3195480168134
 31
0
  0
LINE
  8
1
 62
7
 10
326.6325235207499
 20
140.8195480168134
 30
0
 11
326.6325235207499
 21
147.7195480168134
 31
0
  0
LINE
  8
1
 62
7
 10
325.6325235207499
 20
162.9195480168134
 30
0
 11
326.6325235207499
 21
162.9195480168134
 31
0
  0
LINE
  8
1
 62
7
 10
325.6325235207499
 20
147.7195480168134
 30
0
 11
326.6325235207499
 21
147.7195480168134
 31
0
  0
LINE
  8
1
 62
7
 10
325.6325235207499
 20
162.9195480168134
 30
0
 11
325.6325235207499
 21
147.7195480168134
 31
0
  0
LINE
  8
1
 62
7
 10
326.6325235207499
 20
162.9195480168134
 30
0
 11
326.6325235207499
 21
169.8195480168134
 31
0
  0
LINE
  8
1
 62
7
 10
306.0325235207499
 20
185.3195480168134
 30
0
 11
329.0762622075602
 21
182.2445635587862
 31
0
  0
LINE
  8
1
 62
7
 10
329.0762622075601
 20
128.3945324748404
 30
0
 11
306.0325235207499
 21
125.3195480168134
 31
0
  0
CIRCLE
  8
1
 62
7
 10
123.6700183683654
 20
135.8195480168133
 30
0
 40
4.25
  0
CIRCLE
  8
1
 62
7
 10
123.6700183683654
 20
135.8195480168133
 30
0
 40
2.25
  0
CIRCLE
  8
1
 62
7
 10
123.6700183683654
 20
174.8195480168133
 30
0
 40
4.25
  0
CIRCLE
  8
1
 62
7
 10
123.6700183683654
 20
174.8195480168133
 30
0
 40
2.25
  0
CIRCLE
  8
1
 62
7
 10
193.1700183683654
 20
135.8195480168133
 30
0
 40
4.25
  0
CIRCLE
  8
1
 62
7
 10
193.1700183683654
 20
135.8195480168133
 30
0
 40
2.25
  0
CIRCLE
  8
1
 62
7
 10
193.1700183683654
 20
174.8195480168133
 30
0
 40
4.25
  0
CIRCLE
  8
1
 62
7
 10
193.1700183683654
 20
174.8195480168133
 30
0
 40
2.25
  0
CIRCLE
  8
1
 62
3
  6
DASHED
 10
147.1700183683654
 20
155.3195480168134
 30
0
 40
9.5
  0
CIRCLE
  8
1
 62
7
 10
147.1700183683654
 20
155.3195480168134
 30
0
 40
14
  0
CIRCLE
  8
1
 62
7
 10
147.1700183683654
 20
155.3195480168134
 30
0
 40
15
  0
CIRCLE
  8
1
 62
7
 10
320.0325235207499
 20
134.8195480168134
 30
0
 40
3.037500000000023
  0
CIRCLE
  8
1
 62
7
 10
65.30751321598092
 20
133.8195480168134
 30
0
 40
3.037499999999994
  0
CIRCLE
  8
1
 62
7
 10
65.30751321598092
 20
176.8195480168134
 30
0
 40
3.037499999999994
  0
CIRCLE
  8
1
 62
7
 10
320.0325235207499
 20
175.8195480168134
 30
0
 40
3.037500000000023
  0
ARC
  8
1
 62
7
 10
328.8325235207499
 20
130.379624778123
 30
0
 40
1.99999999999996
 50
276.999999999998
 51
0
  0
ARC
  8
1
 62
7
 10
328.8325235207499
 20
180.2594712555037
 30
0
 40
2
 50
0
 51
82.99999999999845
  0
ARC
  8
1
 62
7
 10
115.1700183683654
 20
127.3195480168134
 30
0
 40
2
 50
180
 51
270
  0
ARC
  8
1
 62
7
 10
115.1700183683654
 20
183.3195480168134
 30
0
 40
2
 50
90
 51
180
  0
ARC
  8
1
 62
2
 10
116.6700183683654
 20
181.8195480168134
 30
0
 40
1
 50
90
 51
180
  0
ARC
  8
1
 62
2
 10
116.6700183683654
 20
128.8195480168134
 30
0
 40
1
 50
180
 51
270
  0
ARC
  8
1
 62
7
 10
50.30751321598096
 20
180.2594712555037
 30
0
 40
1.999999999999861
 50
97.00000000000155
 51
180
  0
ARC
  8
1
 62
7
 10
50.30751321598096
 20
130.379624778123
 30
0
 40
2
 50
180
 51
263.0000000000001
  0
ARC
  8
1
 62
7
 10
328.8325235207499
 20
74.23245541419682
 30
0
 40
2
 50
0
 51
82.99999999999521
  0
ARC
  8
1
 62
7
 10
312.8325235207499
 20
140.8195480168134
 30
0
 40
0.5
 50
180
 51
270
  0
ARC
  8
1
 62
7
 10
312.8325235207499
 20
169.8195480168134
 30
0
 40
0.5
 50
90
 51
180
  0
ARC
  8
1
 62
7
 10
326.1325235207499
 20
169.8195480168134
 30
0
 40
0.5
 50
0
 51
90
  0
ARC
  8
1
 62
7
 10
326.1325235207499
 20
140.8195480168134
 30
0
 40
0.5
 50
270
 51
0
  0
TEXT
  8
1
 62
7
 10
147.411577734997
 20
50.4753916916361
 30
0
 40
7
  1
6028
 41
0.9
  0
TEXT
  8
1
 62
3
 10
281.48820768665
 20
213.534436288326
 30
0
 40
5
  1
Schliesskasten
 41
0.9
  0
TEXT
  8
1
 62
3
 10
127.48820768665
 20
213.470009913558
 30
0
 40
5
  1
Zusatzschloss
 41
0.9
  0
DIMENSION
  8
1
  6
CONTINUOUS
 62
1
  2
*D0
  3
DMST_1
 10
100.3976335952482
 20
185.3195480168134
 30
0
 11
95.64763359524819
 21
196.183413462155
 31
0
 12
0
 22
0
 32
0
 70
0
 13
118.9950183683654
 23
174.8195480168133
 33
0
 14
115.1700183683654
 24
185.3195480168134
 34
0
 50
90
 53
0
  0
DIMENSION
  8
1
  6
CONTINUOUS
 62
1
  2
*D1
  3
DMST_1
 10
100.4123219331821
 20
174.8195480168133
 30
0
 11
95.9123219331821
 21
156.744851109996
 31
0
 12
0
 22
0
 32
0
 70
0
 13
118.9950183683654
 23
135.8195480168133
 33
0
 14
118.9950183683654
 24
174.8195480168133
 34
0
 50
90
 53
0
  0
DIMENSION
  8
1
  6
CONTINUOUS
 62
1
  2
*D2
  3
DMST_1
 10
193.1700183683654
 20
198.66059714604
 30
0
 11
158.4200183683654
 21
203.41059714604
 31
0
 12
0
 22
0
 32
0
 70
0
 13
123.6700183683654
 23
179.4945480168133
 33
0
 14
193.1700183683654
 24
179.4945480168133
 34
0
 53
0
  0
DIMENSION
  8
1
  6
CONTINUOUS
 62
1
  2
*D3
  3
DMST_1
 10
207.1700183683654
 20
198.586577999389
 30
0
 11
200.1700183683654
 21
203.086577999389
 31
0
 12
0
 22
0
 32
0
 70
0
 13
193.1700183683654
 23
179.4945480168133
 33
0
 14
207.1700183683654
 24
185.3195480168134
 34
0
 53
0
  0
DIMENSION
  8
1
  6
CONTINUOUS
 62
1
  2
*D4
  3
DMST_1
 10
48.30751321598096
 20
90.2668196039411
 30
0
 11
40.55751321598096
 21
95.0168196039411
 31
0
 12
0
 22
0
 32
0
 70
0
 13
32.80751321598096
 23
141.3195480168133
 33
0
 14
48.30751321598096
 24
130.379624778123
 34
0
 53
0
  0
DIMENSION
  8
1
  6
CONTINUOUS
 62
1
  2
*D5
  3
DMST_1
 10
268.152464255884
 20
52.29253217550639
 30
0
 11
263.652464255884
 21
65.79253217550638
 31
0
 12
0
 22
0
 32
0
 70
0
 13
285.0325235207499
 23
79.29253217550638
 33
0
 14
285.0325235207499
 24
52.29253217550639
 34
0
 50
90
 53
0
  0
DIMENSION
  8
1
  6
CONTINUOUS
 62
1
  2
*D6
  3
DMST_1
 10
330.8325235207499
 20
90.1197014552845
 30
0
 11
318.4325235207499
 21
94.8697014552845
 31
0
 12
0
 22
0
 32
0
 70
0
  1
24,5
 13
306.0325235207499
 23
125.3195480168134
 33
0
 14
330.8325235207499
 24
130.379624778123
 34
0
 53
0
  0
DIMENSION
  8
1
  6
CONTINUOUS
 62
1
  2
*D7
  3
DMST_1
 10
306.0325235207499
 20
90.1548951443351
 30
0
 11
298.5325235207499
 21
94.6548951443351
 31
0
 12
0
 22
0
 32
0
 70
0
 13
291.0325235207499
 23
125.3195480168134
 33
0
 14
306.0325235207499
 24
125.3195480168134
 34
0
 53
0
  0
DIMENSION
  8
1
  6
CONTINUOUS
 62
1
  2
*D8
  3
DMST_1
 10
113.1700183683654
 20
105.438393303321
 30
0
 11
130.1700183683654
 21
109.938393303321
 31
0
 12
0
 22
0
 32
0
 70
0
 13
147.1700183683654
 23
138.8195480168134
 33
0
 14
113.1700183683654
 24
127.3195480168134
 34
0
 53
0
  0
DIMENSION
  8
1
  6
CONTINUOUS
 62
1
  2
*D9
  3
DMST_1
 10
207.1700183683654
 20
105.389831114013
 30
0
 11
177.1700183683654
 21
109.889831114013
 31
0
 12
0
 22
0
 32
0
 70
0
 13
147.1700183683654
 23
138.8195480168134
 33
0
 14
207.1700183683654
 24
125.3195480168134
 34
0
 53
0
  0
DIMENSION
  8
1
  6
CONTINUOUS
 62
1
  2
*D10
  3
DMST_1
 10
113.1700183683654
 20
90.22569002955809
 30
0
 11
160.1700183683654
 21
94.72569002955809
 31
0
 12
0
 22
0
 32
0
 70
0
 13
207.1700183683654
 23
125.3195480168134
 33
0
 14
113.1700183683654
 24
127.3195480168134
 34
0
 53
0
  0
DIMENSION
  8
1
  6
CONTINUOUS
 62
1
  2
*D11
  3
DMST_1
 10
250.307846347366
 20
167.8195480168133
 30
0
 11
245.807846347366
 21
155.3195480168133
 31
0
 12
0
 22
0
 32
0
 70
0
 13
229.1700183683654
 23
142.8195480168133
 33
0
 14
229.1700183683654
 24
167.8195480168133
 34
0
 50
90
 53
0
  0
DIMENSION
  8
1
  6
CONTINUOUS
 62
1
  2
*D12
  3
DMST_1
 10
88.6336908951214
 20
185.3195480168134
 30
0
 11
84.1336908951214
 21
155.3195480168134
 31
0
 12
0
 22
0
 32
0
 70
0
 13
115.1700183683654
 23
125.3195480168134
 33
0
 14
115.1700183683654
 24
185.3195480168134
 34
0
 50
90
 53
0
  0
DIMENSION
  8
1
  6
CONTINUOUS
 62
1
  2
*D15
  3
DMST_1
 10
72.30751321598092
 20
90.323155773606
 30
0
 11
60.30751321598095
 21
94.823155773606
 31
0
 12
0
 22
0
 32
0
 70
0
  1
24
 13
48.30751321598096
 23
130.379624778123
 33
0
 14
72.30751321598092
 24
125.3195480168134
 34
0
 53
0
  0
DIMENSION
  8
1
  6
CONTINUOUS
 62
1
  2
*D18
  3
DMST_1
 10
229.1700183683654
 20
90.20568495827931
 30
0
 11
218.1700183683654
 21
94.70568495827931
 31
0
 12
0
 22
0
 32
0
 70
0
 13
207.1700183683654
 23
125.3195480168134
 33
0
 14
229.1700183683654
 24
142.8195480168133
 34
0
 53
0
  0
INSERT
  8
1
  2
*D13
 10
0
 20
0
 30
0
  0
INSERT
  8
1
  2
*D14
 10
0
 20
0
 30
0
  0
INSERT
  8
1
  2
*D16
 10
0
 20
0
 30
0
  0
INSERT
  8
1
  2
*D17
 10
0
 20
0
 30
0
  0
ENDSEC
  0
EOF
