  0
SECTION
  2
HEADER
  9
$ACADVER
  1
AC1009
  9
$INSBASE
 10
0
 20
0
  9
$EXTMIN
 10
-28.64920542242009
 20
-172.5249873857993
  9
$EXTMAX
 10
82.712779680225
 20
15.46777537560181
  9
$LIMMIN
 10
-28.64920542242009
 20
-172.5249873857993
  9
$LIMMAX
 10
82.712779680225
 20
15.46777537560181
  9
$VIEWCTR
 10
10
 20
10
  9
$VIEWSIZE
 40
10
  9
$SNAPMODE
 70
0
  9
$SNAPUNIT
 10
1
 20
1
  9
$SNAPBASE
 10
0
 20
0
  9
$SNAPANG
 50
0
  9
$SNAPSTYLE
 70
0
  9
$SNAPISOPAIR
 70
0
  9
$GRIDMODE
 70
0
  9
$GRIDUNIT
 10
0
 20
0
  9
$ORTHOMODE
 70
0
  9
$REGENMODE
 70
1
  9
$FILLMODE
 70
1
  9
$QTEXTMODE
 70
0
  9
$DRAGMODE
 70
2
  9
$LTSCALE
 40
1
  9
$OSMODE
 70
0
  9
$ATTMODE
 70
1
  9
$TEXTSIZE
 40
3.5
  9
$TRACEWID
 40
0.5
  9
$TEXTSTYLE
  7
STANDARD
  9
$CLAYER
  8
0
  9
$CELTYPE
  6
BYLAYER
  9
$CECOLOR
 62
256
  9
$DIMSCALE
 40
1
  9
$DIMASZ
 40
0.18
  9
$DIMEXO
 40
0.0625
  9
$DIMDLI
 40
0.38
  9
$DIMRND
 40
0
  9
$DIMDLE
 40
0
  9
$DIMEXE
 40
0.18
  9
$DIMTP
 40
0
  9
$DIMTM
 40
0
  9
$DIMTXT
 40
0.18
  9
$DIMCEN
 40
0.09
  9
$DIMTSZ
 40
0
  9
$DIMTOL
 70
0
  9
$DIMLIM
 70
0
  9
$DIMTIH
 70
1
  9
$DIMTOH
 70
1
  9
$DIMSE1
 70
0
  9
$DIMSE2
 70
0
  9
$DIMTAD
 70
0
  9
$DIMZIN
 70
0
  9
$DIMBLK
  1

  9
$DIMASO
 70
1
  9
$DIMSHO
 70
1
  9
$DIMPOST
  1

  9
$DIMAPOST
  1

  9
$DIMALT
 70
0
  9
$DIMALTD
 70
2
  9
$DIMALTF
 40
25.4
  9
$DIMLFAC
 40
1
  9
$DIMTOFL
 70
0
  9
$DIMTVP
 40
0
  9
$DIMTIX
 70
0
  9
$DIMSOXD
 70
0
  9
$DIMSAH
 70
0
  9
$DIMBLK1
  1

  9
$DIMBLK2
  1

  9
$DIMSTYLE
  2
*UNNAMED
  9
$DIMCLRD
 70
0
  9
$DIMCLRE
 70
0
  9
$DIMCLRT
 70
0
  9
$DIMTFAC
 40
1
  9
$DIMGAP
 40
0.09
  9
$LUNITS
 70
2
  9
$LUPREC
 70
4
  9
$AXISMODE
 70
0
  9
$AXISUNIT
 10
0
 20
0
  9
$SKETCHINC
 40
0.1
  9
$FILLETRAD
 40
2
  9
$AUNITS
 70
0
  9
$AUPREC
 70
0
  9
$MENU
  1
ACAD
  9
$ELEVATION
 40
0
  9
$THICKNESS
 40
0
  9
$VIEWDIR
 10
0
 20
0
 30
1
  9
$LIMCHECK
 70
0
  9
$BLIPMODE
 70
1
  9
$CHAMFERA
 40
0
  9
$CHAMFERB
 40
0
  9
$FASTZOOM
 70
1
  9
$SKPOLY
 70
0
  9
$ANGBASE
 50
0
  9
$ANGDIR
 70
0
  9
$PDMODE
 70
0
  9
$PDSIZE
 40
0
  9
$PLINEWID
 40
0
  9
$COORDS
 70
2
  0
ENDSEC
  0
SECTION
  2
TABLES
  0
TABLE
  2
DIMSTYLE
 70
2
  0
DIMSTYLE
  2
DMST_1
 70
0
  3

  4

  5

  6

  7

 40
1
 41
4.8
 42
0
 43
7
 44
2
 45
0
 46
0
 47
0
 48
0
140
3.2
141
0
142
0
143
25.4
144
1
145
0
146
1
147
0.09
 71
0
 72
0
 73
0
 74
0
 75
0
 76
0
 77
1
 78
9
170
0
171
2
172
0
173
0
174
0
175
0
176
1
177
1
178
3
  0
DIMSTYLE
  2
DMST_2
 70
0
  3

  4

  5

  6

  7

 40
1
 41
2.450000000000001
 42
0
 43
7
 44
0.5
 45
0
 46
0
 47
0
 48
0
140
3.500000000000001
141
0
142
0
143
25.4
144
1
145
0
146
1
147
0.09
 71
0
 72
0
 73
0
 74
0
 75
0
 76
0
 77
1
 78
9
170
0
171
2
172
0
173
0
174
0
175
0
176
1
177
1
178
3
  0
ENDTAB
  0
TABLE
  2
LTYPE
 70
9
  0
LTYPE
  2
CONTINUOUS
 70
64
  3
Solid line
 72
65
 73
0
 40
0
  0
LTYPE
  2
BORDER
 70
64
  3
__ __ . __ __ .
 72
65
 73
6
 40
8.657561442959262
 49
2.473588983702646
 49
-1.236794491851323
 49
2.473588983702646
 49
-1.236794491851323
 49
0
 49
-1.236794491851323
  0
LTYPE
  2
CENTER
 70
64
  3
____ _ ____ _
 72
65
 73
4
 40
9.894355934810585
 49
6.183972459256616
 49
-1.236794491851323
 49
1.236794491851323
 49
-1.236794491851323
  0
LTYPE
  2
DASHDOT
 70
64
  3
__ . __ . __ .
 72
65
 73
4
 40
4.947177967405293
 49
2.473588983702646
 49
-1.236794491851323
 49
0
 49
-1.236794491851323
  0
LTYPE
  2
DASHED
 70
64
  3
__ __ __ __ __
 72
65
 73
2
 40
3.71038347555397
 49
2.473588983702646
 49
-1.236794491851323
  0
LTYPE
  2
DIVIDE
 70
64
  3
__ . . __ . . 
 72
65
 73
6
 40
6.183972459256616
 49
2.473588983702646
 49
-1.236794491851323
 49
0
 49
-1.236794491851323
 49
0
 49
-1.236794491851323
  0
LTYPE
  2
DOT
 70
64
  3
..............
 72
65
 73
4
 40
2.473588983702646
 49
0
 49
-1.236794491851323
 49
0
 49
-1.236794491851323
  0
LTYPE
  2
HIDDEN
 70
64
  3
_ _ _ _ _ _ _
 72
65
 73
2
 40
1.855191737776985
 49
1.236794491851323
 49
-0.6183972459256616
  0
LTYPE
  2
PHANTOM
 70
64
  3
_____ _ _ _____ _ _ 
 72
65
 73
6
 40
12.36794491851323
 49
6.183972459256616
 49
-1.236794491851323
 49
1.236794491851323
 49
-1.236794491851323
 49
1.236794491851323
 49
-1.236794491851323
  0
ENDTAB
  0
TABLE
  2
LAYER
 70
3
  0
LAYER
  2
1
 70
0
 62
7
  6
CONTINUOUS
  0
LAYER
  2
0
 70
0
 62
7
  6
CONTINUOUS
  0
ENDTAB
  0
TABLE
  2
STYLE
 70
4
  0
STYLE
  2
STANDARD
 70
0
 40
0
 41
1
 50
0
 71
0
 42
3.5
  3
txt
  4

  0
STYLE
  2
SIMPLEX
 70
0
 40
0
 41
1
 50
0
 71
0
 42
3.5
  3
simplex
  4

  0
STYLE
  2
COMPLEX
 70
0
 40
0
 41
1
 50
0
 71
0
 42
3.5
  3
complex
  4

  0
STYLE
  2
ITALIC
 70
0
 40
0
 41
1
 50
0
 71
0
 42
3.5
  3
italic
  4

  0
ENDTAB
  0
TABLE
  2
VIEW
 70
0
  0
ENDTAB
  0
ENDSEC
  0
SECTION
  2
BLOCKS
  0
BLOCK
  8
1
  2
*D0
 70
1
 10
0
 20
0
 30
0
  0
LINE
  8
1
 62
1
 10
-1.287220319775003
 20
134.280333599845
 30
0
 11
-10.887220319775
 21
134.280333599845
 31
0
  0
LINE
  8
1
 62
1
 10
-1.287220319775003
 20
134.280333599845
 30
0
 11
0.2127796802249975
 21
134.280333599845
 31
0
  0
LINE
  8
1
 62
1
 10
9.812779680225001
 20
134.280333599845
 30
0
 11
0.2127796802249975
 21
134.280333599845
 31
0
  0
LINE
  8
1
 62
1
 10
0.2127796802249975
 20
130.0776759294479
 30
0
 11
0.2127796802249975
 21
135.080333599845
 31
0
  0
LINE
  8
1
 62
1
 10
-1.287220319775003
 20
130.0776759294479
 30
0
 11
-1.287220319775003
 21
135.080333599845
 31
0
  0
SOLID
  8
1
 62
1
 10
0.2127796802249975
 20
134.280333599845
 30
0
 11
5.012779680224998
 21
134.904333599845
 31
0
 12
5.012779680224998
 22
133.656333599845
 32
0
 13
5.012779680224998
 23
133.656333599845
 33
0
  0
SOLID
  8
1
 62
1
 10
-1.287220319775003
 20
134.280333599845
 30
0
 11
-6.087220319775002
 21
133.656333599845
 31
0
 12
-6.087220319775002
 22
134.904333599845
 32
0
 13
-6.087220319775002
 23
134.904333599845
 33
0
  0
TEXT
  8
1
 62
3
 10
-8.173617938767929
 20
137.2610707482267
 30
0
 40
3.2
  1
1,5
 41
0.9
  0
ENDBLK
  8
0
  0
BLOCK
  8
1
  2
*D1
 70
1
 10
0
 20
0
 30
0
  0
LINE
  8
1
 62
1
 10
59.71277968022501
 20
157.100922066205
 30
0
 11
82.712779680225
 21
157.100922066205
 31
0
  0
LINE
  8
1
 62
1
 10
82.712779680225
 20
170.0776759294479
 30
0
 11
82.712779680225
 21
156.300922066205
 31
0
  0
LINE
  8
1
 62
1
 10
59.71277968022501
 20
170.0776759294479
 30
0
 11
59.71277968022501
 21
156.300922066205
 31
0
  0
SOLID
  8
1
 62
1
 10
82.712779680225
 20
157.100922066205
 30
0
 11
77.912779680225
 21
156.476922066205
 31
0
 12
77.912779680225
 22
157.724922066205
 32
0
 13
77.912779680225
 23
157.724922066205
 33
0
  0
SOLID
  8
1
 62
1
 10
59.71277968022501
 20
157.100922066205
 30
0
 11
64.51277968022501
 21
157.724922066205
 31
0
 12
64.51277968022501
 22
156.476922066205
 32
0
 13
64.51277968022501
 23
156.476922066205
 33
0
  0
TEXT
  8
1
 62
3
 10
68.89374854726611
 20
158.9949138981017
 30
0
 40
3.2
  1
23
 41
0.9
  0
ENDBLK
  8
0
  0
BLOCK
  8
1
  2
*D2
 70
1
 10
0
 20
0
 30
0
  0
LINE
  8
1
 62
1
 10
-1.287220319775003
 20
156.8599147002569
 30
0
 11
-10.887220319775
 21
156.8599147002569
 31
0
  0
LINE
  8
1
 62
1
 10
-1.287220319775003
 20
156.8599147002569
 30
0
 11
3.512779680224995
 21
156.8599147002569
 31
0
  0
LINE
  8
1
 62
1
 10
3.512779680224995
 20
186.077675929448
 30
0
 11
3.512779680224995
 21
156.0599147002569
 31
0
  0
LINE
  8
1
 62
1
 10
-1.287220319775003
 20
170.077675929448
 30
0
 11
-1.287220319775003
 21
156.0599147002569
 31
0
  0
SOLID
  8
1
 62
1
 10
-1.287220319775003
 20
156.8599147002569
 30
0
 11
-6.087220319775002
 21
156.2359147002569
 31
0
 12
-6.087220319775002
 22
157.4839147002569
 32
0
 13
-6.087220319775002
 23
157.4839147002569
 33
0
  0
LINE
  8
1
 62
1
 10
5.209835955072709
 20
158.5569709751046
 30
0
 11
1.815723405377281
 21
155.1628584254092
 31
0
  0
TEXT
  8
1
 62
3
 10
-8.294702477294571
 20
160.0522025517848
 30
0
 40
3.2
  1
4,8
 41
0.9
  0
ENDBLK
  8
0
  0
BLOCK
  8
1
  2
*D3
 70
1
 10
0
 20
0
 30
0
  0
LINE
  8
1
 62
1
 10
3.512779680224995
 20
156.870611308319
 30
0
 11
12.012779680225
 21
156.870611308319
 31
0
  0
LINE
  8
1
 62
1
 10
12.012779680225
 20
186.077675929448
 30
0
 11
12.012779680225
 21
156.070611308319
 31
0
  0
LINE
  8
1
 62
1
 10
3.512779680224995
 20
186.077675929448
 30
0
 11
3.512779680224995
 21
156.070611308319
 31
0
  0
SOLID
  8
1
 62
1
 10
12.012779680225
 20
156.870611308319
 30
0
 11
7.212779680225002
 21
156.246611308319
 31
0
 12
7.212779680225002
 22
157.494611308319
 32
0
 13
7.212779680225002
 23
157.494611308319
 33
0
  0
TEXT
  8
1
 62
3
 10
5.344085058692806
 20
160.2316602825219
 30
0
 40
3.2
  1
8,5
 41
0.9
  0
ENDBLK
  8
0
  0
BLOCK
  8
1
  2
*D4
 70
1
 10
0
 20
0
 30
0
  0
LINE
  8
1
 62
1
 10
-19.1161373968556
 20
170.0776759294479
 30
0
 11
-19.1161373968556
 21
250.0776759294479
 31
0
  0
LINE
  8
1
 62
1
 10
-1.287220319775003
 20
250.0776759294479
 30
0
 11
-19.9161373968556
 21
250.0776759294479
 31
0
  0
LINE
  8
1
 62
1
 10
-1.287220319775003
 20
170.0776759294479
 30
0
 11
-19.9161373968556
 21
170.0776759294479
 31
0
  0
SOLID
  8
1
 62
1
 10
-19.1161373968556
 20
250.0776759294479
 30
0
 11
-18.4921373968556
 21
245.2776759294479
 31
0
 12
-19.74013739685559
 22
245.2776759294479
 32
0
 13
-19.74013739685559
 23
245.2776759294479
 33
0
  0
SOLID
  8
1
 62
1
 10
-19.1161373968556
 20
170.0776759294479
 30
0
 11
-19.7401373968556
 21
174.8776759294479
 31
0
 12
-18.4921373968556
 22
174.8776759294479
 32
0
 13
-18.4921373968556
 23
174.8776759294479
 33
0
  0
TEXT
  8
1
 62
3
 10
-20.7831868972788
 20
207.3663321199508
 30
0
 40
3.2
  1
80
 50
90
 41
0.9
  0
ENDBLK
  8
0
  0
BLOCK
  8
1
  2
*D5
 70
1
 10
0
 20
0
 30
0
  0
LINE
  8
1
 62
1
 10
-11.053810685578
 20
234.077675929448
 30
0
 11
-11.053810685578
 21
250.077675929448
 31
0
  0
LINE
  8
1
 62
1
 10
-1.287220319774999
 20
250.077675929448
 30
0
 11
-11.853810685578
 21
250.077675929448
 31
0
  0
LINE
  8
1
 62
1
 10
3.512779680224989
 20
234.077675929448
 30
0
 11
-11.853810685578
 21
234.077675929448
 31
0
  0
SOLID
  8
1
 62
1
 10
-11.053810685578
 20
250.077675929448
 30
0
 11
-10.429810685578
 21
245.277675929448
 31
0
 12
-11.677810685578
 22
245.277675929448
 32
0
 13
-11.677810685578
 23
245.277675929448
 33
0
  0
SOLID
  8
1
 62
1
 10
-11.053810685578
 20
234.077675929448
 30
0
 11
-11.677810685578
 21
238.877675929448
 31
0
 12
-10.429810685578
 22
238.877675929448
 32
0
 13
-10.429810685578
 23
238.877675929448
 33
0
  0
TEXT
  8
1
 62
3
 10
-12.16921582191841
 20
240.3281813832889
 30
0
 40
3.2
  1
16
 50
90
 41
0.9
  0
ENDBLK
  8
0
  0
BLOCK
  8
1
  2
*D6
 70
1
 10
0
 20
0
 30
0
  0
LINE
  8
1
 62
1
 10
-11.053810685578
 20
170.0776759294479
 30
0
 11
-11.053810685578
 21
186.0776759294479
 31
0
  0
LINE
  8
1
 62
1
 10
3.512779680225
 20
186.0776759294479
 30
0
 11
-11.853810685578
 21
186.0776759294479
 31
0
  0
LINE
  8
1
 62
1
 10
-1.287220319774999
 20
170.0776759294479
 30
0
 11
-11.853810685578
 21
170.0776759294479
 31
0
  0
SOLID
  8
1
 62
1
 10
-11.053810685578
 20
186.0776759294479
 30
0
 11
-10.429810685578
 21
181.2776759294479
 31
0
 12
-11.677810685578
 22
181.2776759294479
 32
0
 13
-11.677810685578
 23
181.2776759294479
 33
0
  0
SOLID
  8
1
 62
1
 10
-11.053810685578
 20
170.0776759294479
 30
0
 11
-11.677810685578
 21
174.8776759294479
 31
0
 12
-10.429810685578
 22
174.8776759294479
 32
0
 13
-10.429810685578
 23
174.8776759294479
 33
0
  0
TEXT
  8
1
 62
3
 10
-12.34867355265499
 20
176.4412292410329
 30
0
 40
3.2
  1
16
 50
90
 41
0.9
  0
ENDBLK
  8
0
  0
BLOCK
  8
1
  2
*D7
 70
1
 10
0
 20
0
 30
0
  0
LINE
  8
1
 62
1
 10
-11.053810685578
 20
186.0776759294479
 30
0
 11
-11.053810685578
 21
234.0776759294479
 31
0
  0
LINE
  8
1
 62
1
 10
3.512779680225
 20
234.0776759294479
 30
0
 11
-11.853810685578
 21
234.0776759294479
 31
0
  0
LINE
  8
1
 62
1
 10
3.512779680225
 20
186.0776759294479
 30
0
 11
-11.853810685578
 21
186.0776759294479
 31
0
  0
SOLID
  8
1
 62
1
 10
-11.053810685578
 20
234.0776759294479
 30
0
 11
-10.429810685578
 21
229.2776759294479
 31
0
 12
-11.677810685578
 22
229.2776759294479
 32
0
 13
-11.677810685578
 23
229.2776759294479
 33
0
  0
SOLID
  8
1
 62
1
 10
-11.053810685578
 20
186.0776759294479
 30
0
 11
-11.677810685578
 21
190.8776759294479
 31
0
 12
-10.429810685578
 22
190.8776759294479
 32
0
 13
-10.429810685578
 23
190.8776759294479
 33
0
  0
TEXT
  8
1
 62
3
 10
-12.34867355265499
 20
207.5457898506879
 30
0
 40
3.2
  1
48
 50
90
 41
0.9
  0
ENDBLK
  8
0
  0
BLOCK
  8
1
  2
*D8
 70
1
 10
0
 20
0
 30
0
  0
LINE
  8
1
 62
1
 10
-1.287220319774999
 20
146.482141524197
 30
0
 11
19.712779680225
 21
146.482141524197
 31
0
  0
LINE
  8
1
 62
1
 10
19.712779680225
 20
170.077675929448
 30
0
 11
19.712779680225
 21
145.682141524197
 31
0
  0
LINE
  8
1
 62
1
 10
-1.287220319774999
 20
170.077675929448
 30
0
 11
-1.287220319774999
 21
145.682141524197
 31
0
  0
SOLID
  8
1
 62
1
 10
-1.287220319774999
 20
146.482141524197
 30
0
 11
3.512779680225002
 21
147.106141524197
 31
0
 12
3.512779680225002
 22
145.858141524197
 32
0
 13
3.512779680225002
 23
145.858141524197
 33
0
  0
SOLID
  8
1
 62
1
 10
19.712779680225
 20
146.482141524197
 30
0
 11
14.912779680225
 21
145.858141524197
 31
0
 12
14.912779680225
 22
147.106141524197
 32
0
 13
14.912779680225
 23
147.106141524197
 33
0
  0
TEXT
  8
1
 62
3
 10
7.281373712376181
 20
147.8685345924278
 30
0
 40
3.2
  1
21
 41
0.9
  0
ENDBLK
  8
0
  0
BLOCK
  8
0
  2
KLEINER
 70
0
 10
-23.98318689727881
 20
105.931818970567
 30
0
  0
LINE
  8
1
 62
3
 10
59.712779680225
 20
170.0776759294479
 30
0
 11
82.712779680225
 21
170.0776759294479
 31
0
  0
LINE
  8
1
 62
3
 10
82.712779680225
 20
170.0776759294479
 30
0
 11
82.712779680225
 21
250.0776759294479
 31
0
  0
LINE
  8
1
 62
3
 10
19.712779680225
 20
250.0776759294479
 30
0
 11
19.712779680225
 21
170.0776759294479
 31
0
  0
LINE
  8
1
 62
3
 10
19.712779680225
 20
170.0776759294479
 30
0
 11
-1.287220319775003
 21
170.0776759294479
 31
0
  0
LINE
  8
1
 62
3
 10
-1.287220319775003
 20
250.0776759294479
 30
0
 11
19.712779680225
 21
250.0776759294479
 31
0
  0
LINE
  8
1
 62
3
 10
-1.287220319775003
 20
170.0776759294479
 30
0
 11
-1.287220319775003
 21
250.0776759294479
 31
0
  0
LINE
  8
1
 62
3
 10
12.01277968022499
 20
234.0776759294479
 30
0
 11
12.012779680225
 21
186.0776759294479
 31
0
  0
LINE
  8
1
 62
3
 10
12.012779680225
 20
186.0776759294479
 30
0
 11
3.512779680224995
 21
186.0776759294479
 31
0
  0
LINE
  8
1
 62
3
 10
3.512779680224995
 20
186.0776759294479
 30
0
 11
3.512779680224995
 21
234.0776759294479
 31
0
  0
LINE
  8
1
 62
3
 10
3.512779680224995
 20
234.0776759294479
 30
0
 11
12.01277968022499
 21
234.0776759294479
 31
0
  0
LINE
  8
1
 62
3
 10
-1.287220319775003
 20
130.0776759294479
 30
0
 11
0.2127796802249975
 21
130.0776759294479
 31
0
  0
LINE
  8
1
 62
3
 10
-1.287220319775003
 20
127.0776759294479
 30
0
 11
-1.287220319775003
 21
130.0776759294479
 31
0
  0
LINE
  8
1
 62
2
  6
DASHED
 10
16.31277968022501
 20
108.5776759294479
 30
0
 11
16.31277968022501
 21
107.0776759294479
 31
0
  0
LINE
  8
1
 62
2
  6
DASHED
 10
13.112779680225
 20
108.5776759294479
 30
0
 11
13.112779680225
 21
107.0776759294479
 31
0
  0
LINE
  8
1
 62
2
  6
DASHDOT
 10
14.712779680225
 20
109.4708906236019
 30
0
 11
14.712779680225
 21
105.931818970567
 31
0
  0
LINE
  8
1
 62
2
  6
DASHDOT
 10
70.28542362935391
 20
176.0776759294479
 30
0
 11
59.712779680225
 21
176.0776759294479
 31
0
  0
LINE
  8
1
 62
3
 10
0.2127796802249975
 20
122.0776759294479
 30
0
 11
0.2127796802249975
 21
108.5776759294479
 31
0
  0
LINE
  8
1
 62
3
 10
0.2127796802249975
 20
126.0776759294479
 30
0
 11
0.2127796802249975
 21
122.0776759294479
 31
0
  0
LINE
  8
1
 62
3
 10
-1.287220319775003
 20
121.0776759294479
 30
0
 11
-1.287220319775003
 21
127.0776759294479
 31
0
  0
LINE
  8
1
 62
2
  6
DASHED
 10
-0.2872203197750025
 20
122.0776759294479
 30
0
 11
-0.2872203197750025
 21
126.0776759294479
 31
0
  0
LINE
  8
1
 62
2
  6
DASHED
 10
0.2127796802249975
 20
126.0776759294479
 30
0
 11
-0.2872203197750025
 21
126.0776759294479
 31
0
  0
LINE
  8
1
 62
2
  6
DASHED
 10
0.2127796802249975
 20
122.0776759294479
 30
0
 11
-0.2872203197750025
 21
122.0776759294479
 31
0
  0
LINE
  8
1
 62
2
  6
DASHED
 10
-1.287220319775003
 20
127.0776759294479
 30
0
 11
-0.2872203197750025
 21
126.0776759294479
 31
0
  0
LINE
  8
1
 62
2
  6
DASHED
 10
-1.287220319775003
 20
121.0776759294479
 30
0
 11
-0.2872203197750025
 21
122.0776759294479
 31
0
  0
LINE
  8
1
 62
2
  6
DASHDOT
 10
6.248190308243991
 20
124.0776759294479
 30
0
 11
-4.343693749727009
 21
124.0776759294479
 31
0
  0
LINE
  8
1
 62
3
 10
19.712779680225
 20
108.5776759294479
 30
0
 11
19.712779680225
 21
107.0776759294479
 31
0
  0
LINE
  8
1
 62
3
 10
0.2127796802249975
 20
108.5776759294479
 30
0
 11
19.712779680225
 21
108.5776759294479
 31
0
  0
LINE
  8
1
 62
3
 10
0.2127796802249975
 20
130.0776759294479
 30
0
 11
0.2127796802249975
 21
126.0776759294479
 31
0
  0
LINE
  8
1
 62
3
 10
-1.287220319775003
 20
108.5776759294479
 30
0
 11
-1.287220319775003
 21
121.0776759294479
 31
0
  0
LINE
  8
1
 62
3
 10
19.712779680225
 20
107.0776759294479
 30
0
 11
0.2127796802249975
 21
107.0776759294479
 31
0
  0
LINE
  8
1
 62
2
  6
DASHED
 10
0.2127796802249975
 20
250.0776759294479
 30
0
 11
0.2127796802249975
 21
170.0776759294479
 31
0
  0
LINE
  8
1
 62
2
  6
CENTER
 10
16.63277968022501
 20
180.5776759294479
 30
0
 11
12.792779680225
 21
180.5776759294479
 31
0
  0
LINE
  8
1
 62
2
  6
CENTER
 10
14.712779680225
 20
182.497675929448
 30
0
 11
14.712779680225
 21
178.6576759294479
 31
0
  0
LINE
  8
1
 62
2
  6
CENTER
 10
16.632779680225
 20
239.5776759294479
 30
0
 11
12.792779680225
 21
239.5776759294479
 31
0
  0
LINE
  8
1
 62
2
  6
CENTER
 10
14.712779680225
 20
241.4976759294479
 30
0
 11
14.712779680225
 21
237.6576759294479
 31
0
  0
LINE
  8
1
 62
2
  6
DASHED
 10
81.212779680225
 20
170.0776759294479
 30
0
 11
81.212779680225
 21
250.0776759294479
 31
0
  0
LINE
  8
1
 62
3
 10
82.712779680225
 20
250.0776759294479
 30
0
 11
59.712779680225
 21
250.0776759294479
 31
0
  0
LINE
  8
1
 62
3
 10
59.712779680225
 20
250.0776759294479
 30
0
 11
59.712779680225
 21
170.0776759294479
 31
0
  0
LINE
  8
1
 62
2
  6
DASHDOT
 10
65.712779680225
 20
180.8776759294479
 30
0
 11
65.712779680225
 21
171.2776759294479
 31
0
  0
LINE
  8
1
 62
2
  6
DASHDOT
 10
60.91277968022501
 20
244.0776759294479
 30
0
 11
70.51277968022501
 21
244.0776759294479
 31
0
  0
LINE
  8
1
 62
2
  6
DASHDOT
 10
65.712779680225
 20
248.8776759294479
 30
0
 11
65.712779680225
 21
239.2776759294479
 31
0
  0
ARC
  8
1
 62
3
 10
14.712779680225
 20
180.5776759294479
 30
0
 40
1.599999999999909
 50
270
 51
0
  0
ARC
  8
1
 62
3
 10
14.712779680225
 20
180.5776759294479
 30
0
 40
1.6
 50
180
 51
270
  0
ARC
  8
1
 62
3
 10
14.712779680225
 20
180.5776759294479
 30
0
 40
1.60000000000001
 50
0
 51
180
  0
ARC
  8
1
 62
3
 10
14.712779680225
 20
239.5776759294479
 30
0
 40
1.599999999999994
 50
270
 51
0
  0
ARC
  8
1
 62
3
 10
14.712779680225
 20
239.5776759294479
 30
0
 40
1.6
 50
180
 51
270
  0
ARC
  8
1
 62
3
 10
14.712779680225
 20
239.5776759294479
 30
0
 40
1.6
 50
0
 51
180
  0
CIRCLE
  8
1
 62
3
 10
65.712779680225
 20
176.0776759294479
 30
0
 40
2
  0
CIRCLE
  8
1
 62
3
 10
65.712779680225
 20
176.0776759294479
 30
0
 40
3
  0
CIRCLE
  8
1
 62
3
 10
65.712779680225
 20
244.0776759294479
 30
0
 40
2
  0
CIRCLE
  8
1
 62
3
 10
65.712779680225
 20
244.0776759294479
 30
0
 40
3
  0
ARC
  8
1
 62
3
 10
0.2127796802249975
 20
108.5776759294479
 30
0
 40
1.5
 50
180
 51
270
  0
TEXT
  8
1
 62
3
 10
24.75004376247341
 20
267.7123692333429
 30
0
 40
14
  1
(1:4)
 41
0.9
  0
DIMENSION
  8
1
  6
CONTINUOUS
 62
1
  2
*D0
  3
DMST_1
 10
-1.287220319775003
 20
134.280333599845
 30
0
 11
-5.693617938767929
 21
138.7010707482267
 31
0
 12
0
 22
0
 32
0
 70
0
 13
0.2127796802249975
 23
130.0776759294479
 33
0
 14
-1.287220319775003
 24
130.0776759294479
 34
0
 53
0
  0
DIMENSION
  8
1
  6
CONTINUOUS
 62
1
  2
*D1
  3
DMST_1
 10
82.712779680225
 20
157.100922066205
 30
0
 11
71.29374854726612
 21
160.5949138981017
 31
0
 12
0
 22
0
 32
0
 70
0
 13
59.712779680225
 23
170.0776759294479
 33
0
 14
82.712779680225
 24
170.0776759294479
 34
0
 53
0
  0
DIMENSION
  8
1
  6
CONTINUOUS
 62
1
  2
*D4
  3
DMST_1
 10
-19.1161373968556
 20
170.0776759294479
 30
0
 11
-22.3831868972788
 21
209.7663321199508
 31
0
 12
0
 22
0
 32
0
 70
0
 13
-1.287220319775003
 23
250.0776759294479
 33
0
 14
-1.287220319775003
 24
170.0776759294479
 34
0
 50
90
 53
0
  0
DIMENSION
  8
1
  6
CONTINUOUS
 62
1
  2
*D5
  3
DMST_1
 10
-11.053810685578
 20
250.077675929448
 30
0
 11
-13.76921582191841
 21
242.2481813832889
 31
0
 12
0
 22
0
 32
0
 70
0
 13
3.512779680224995
 23
234.0776759294479
 33
0
 14
-1.287220319775003
 24
250.0776759294479
 34
0
 50
270
 53
0
  0
DIMENSION
  8
1
  6
CONTINUOUS
 62
1
  2
*D6
  3
DMST_1
 10
-11.053810685578
 20
186.0776759294479
 30
0
 11
-13.94867355265499
 21
178.3612292410329
 31
0
 12
0
 22
0
 32
0
 70
0
 13
-1.287220319775003
 23
170.0776759294479
 33
0
 14
3.512779680224995
 24
186.0776759294479
 34
0
 50
270
 53
0
  0
DIMENSION
  8
1
  6
CONTINUOUS
 62
1
  2
*D7
  3
DMST_1
 10
-11.053810685578
 20
186.0776759294479
 30
0
 11
-13.94867355265499
 21
209.9457898506879
 31
0
 12
0
 22
0
 32
0
 70
0
 13
3.512779680224995
 23
234.0776759294479
 33
0
 14
3.512779680224995
 24
186.0776759294479
 34
0
 50
270
 53
0
  0
DIMENSION
  8
1
  6
CONTINUOUS
 62
1
  2
*D8
  3
DMST_1
 10
-1.287220319774999
 20
146.482141524197
 30
0
 11
9.201373712376181
 21
149.4685345924278
 31
0
 12
0
 22
0
 32
0
 70
0
 13
19.712779680225
 23
170.0776759294479
 33
0
 14
-1.287220319775003
 24
170.0776759294479
 34
0
 53
0
  0
INSERT
  8
1
  2
*D2
 10
0
 20
0
 30
0
  0
INSERT
  8
1
  2
*D3
 10
0
 20
0
 30
0
  0
ENDBLK
  8
0
  0
BLOCK
  8
1
  2
*D9
 70
1
 10
0
 20
0
 30
0
  0
LINE
  8
1
 62
1
 10
-24.14920542242009
 20
-64.5322246243982
 30
0
 11
-24.14920542242009
 21
15.4677753756018
 31
0
  0
LINE
  8
1
 62
1
 10
-1.287220319774999
 20
15.4677753756018
 30
0
 11
-24.64920542242009
 21
15.4677753756018
 31
0
  0
LINE
  8
1
 62
1
 10
-1.287220319774999
 20
-64.5322246243982
 30
0
 11
-24.64920542242009
 21
-64.5322246243982
 31
0
  0
LINE
  8
1
 62
1
 10
-24.14920542242009
 20
15.4677753756018
 30
0
 11
-23.83070542242009
 21
13.0177753756018
 31
0
  0
LINE
  8
1
 62
1
 10
-23.83070542242009
 20
13.0177753756018
 30
0
 11
-24.46770542242009
 21
13.0177753756018
 31
0
  0
LINE
  8
1
 62
1
 10
-24.46770542242009
 20
13.0177753756018
 30
0
 11
-24.14920542242009
 21
15.4677753756018
 31
0
  0
LINE
  8
1
 62
1
 10
-24.14920542242009
 20
-64.5322246243982
 30
0
 11
-24.46770542242009
 21
-62.08222462439819
 31
0
  0
LINE
  8
1
 62
1
 10
-24.46770542242009
 20
-62.08222462439819
 30
0
 11
-23.83070542242009
 21
-62.08222462439819
 31
0
  0
LINE
  8
1
 62
1
 10
-23.83070542242009
 20
-62.08222462439819
 30
0
 11
-24.14920542242009
 21
-64.5322246243982
 31
0
  0
TEXT
  8
1
 62
3
 10
-25.14920542242009
 20
-27.1572246243982
 30
0
 40
3.500000000000001
  1
80
 50
90
 41
0.9
  0
ENDBLK
  8
0
  0
BLOCK
  8
1
  2
*D10
 70
1
 10
0
 20
0
 30
0
  0
LINE
  8
1
 62
1
 10
3.512779680224994
 20
-74.7392892455272
 30
0
 11
12.012779680225
 21
-74.7392892455272
 31
0
  0
LINE
  8
1
 62
1
 10
12.012779680225
 20
-48.5322246243982
 30
0
 11
12.012779680225
 21
-75.2392892455272
 31
0
  0
LINE
  8
1
 62
1
 10
3.512779680224994
 20
-48.5322246243982
 30
0
 11
3.512779680224994
 21
-75.2392892455272
 31
0
  0
LINE
  8
1
 62
1
 10
3.512779680224994
 20
-74.7392892455272
 30
0
 11
5.962779680224995
 21
-74.4207892455272
 31
0
  0
LINE
  8
1
 62
1
 10
5.962779680224995
 20
-74.4207892455272
 30
0
 11
5.962779680224995
 21
-75.0577892455272
 31
0
  0
LINE
  8
1
 62
1
 10
5.962779680224995
 20
-75.0577892455272
 30
0
 11
3.512779680224994
 21
-74.7392892455272
 31
0
  0
LINE
  8
1
 62
1
 10
12.012779680225
 20
-74.7392892455272
 30
0
 11
9.562779680225001
 21
-75.0577892455272
 31
0
  0
LINE
  8
1
 62
1
 10
9.562779680225001
 20
-75.0577892455272
 30
0
 11
9.562779680225001
 21
-74.4207892455272
 31
0
  0
LINE
  8
1
 62
1
 10
9.562779680225001
 20
-74.4207892455272
 30
0
 11
12.012779680225
 21
-74.7392892455272
 31
0
  0
TEXT
  8
1
 62
3
 10
4.525279680224997
 20
-73.38928924552721
 30
0
 40
3.500000000000001
  1
8,5
 41
0.9
  0
ENDBLK
  8
0
  0
BLOCK
  8
1
  2
*D11
 70
1
 10
0
 20
0
 30
0
  0
LINE
  8
1
 62
1
 10
-1.287220319775001
 20
-74.74998585358929
 30
0
 11
-14.95989494087441
 21
-74.74998585358929
 31
0
  0
LINE
  8
1
 62
1
 10
-1.287220319775001
 20
-74.74998585358929
 30
0
 11
3.512779680224989
 21
-74.74998585358929
 31
0
  0
LINE
  8
1
 62
1
 10
8.412779680224999
 20
-74.74998585358929
 30
0
 11
3.512779680224989
 21
-74.74998585358929
 31
0
  0
LINE
  8
1
 62
1
 10
3.512779680224989
 20
-48.5322246243982
 30
0
 11
3.512779680224989
 21
-75.24998585358929
 31
0
  0
LINE
  8
1
 62
1
 10
-1.287220319775001
 20
-64.5322246243982
 30
0
 11
-1.287220319775001
 21
-75.24998585358929
 31
0
  0
LINE
  8
1
 62
1
 10
-1.287220319775001
 20
-74.74998585358929
 30
0
 11
-3.737220319775001
 21
-75.06848585358929
 31
0
  0
LINE
  8
1
 62
1
 10
-3.737220319775001
 20
-75.06848585358929
 30
0
 11
-3.737220319775001
 21
-74.43148585358929
 31
0
  0
LINE
  8
1
 62
1
 10
-3.737220319775001
 20
-74.43148585358929
 30
0
 11
-1.287220319775001
 21
-74.74998585358929
 31
0
  0
LINE
  8
1
 62
1
 10
3.512779680224989
 20
-74.74998585358929
 30
0
 11
5.96277968022499
 21
-74.43148585358929
 31
0
  0
LINE
  8
1
 62
1
 10
5.96277968022499
 20
-74.43148585358929
 30
0
 11
5.96277968022499
 21
-75.06848585358929
 31
0
  0
LINE
  8
1
 62
1
 10
5.96277968022499
 20
-75.06848585358929
 30
0
 11
3.512779680224989
 21
-74.74998585358929
 31
0
  0
TEXT
  8
1
 62
3
 10
-14.95989494087441
 20
-73.3999858535893
 30
0
 40
3.500000000000001
  1
4,8
 41
0.9
  0
ENDBLK
  8
0
  0
BLOCK
  8
1
  2
*D12
 70
1
 10
0
 20
0
 30
0
  0
LINE
  8
1
 62
1
 10
59.712779680225
 20
-74.5089784876411
 30
0
 11
82.712779680225
 21
-74.5089784876411
 31
0
  0
LINE
  8
1
 62
1
 10
82.712779680225
 20
-64.5322246243982
 30
0
 11
82.712779680225
 21
-75.0089784876411
 31
0
  0
LINE
  8
1
 62
1
 10
59.712779680225
 20
-64.5322246243982
 30
0
 11
59.712779680225
 21
-75.0089784876411
 31
0
  0
LINE
  8
1
 62
1
 10
82.712779680225
 20
-74.5089784876411
 30
0
 11
80.26277968022499
 21
-74.8274784876411
 31
0
  0
LINE
  8
1
 62
1
 10
80.26277968022499
 20
-74.8274784876411
 30
0
 11
80.26277968022499
 21
-74.1904784876411
 31
0
  0
LINE
  8
1
 62
1
 10
80.26277968022499
 20
-74.1904784876411
 30
0
 11
82.712779680225
 21
-74.5089784876411
 31
0
  0
LINE
  8
1
 62
1
 10
59.712779680225
 20
-74.5089784876411
 30
0
 11
62.162779680225
 21
-74.1904784876411
 31
0
  0
LINE
  8
1
 62
1
 10
62.162779680225
 20
-74.1904784876411
 30
0
 11
62.162779680225
 21
-74.8274784876411
 31
0
  0
LINE
  8
1
 62
1
 10
62.162779680225
 20
-74.8274784876411
 30
0
 11
59.712779680225
 21
-74.5089784876411
 31
0
  0
TEXT
  8
1
 62
3
 10
68.587779680225
 20
-73.5089784876411
 30
0
 40
3.500000000000001
  1
23
 41
0.9
  0
ENDBLK
  8
0
  0
BLOCK
  8
1
  2
*D13
 70
1
 10
0
 20
0
 30
0
  0
LINE
  8
1
 62
1
 10
-1.287220319775003
 20
-97.32956695400119
 30
0
 11
-11.51300661903069
 21
-97.32956695400119
 31
0
  0
LINE
  8
1
 62
1
 10
-1.287220319775003
 20
-97.32956695400119
 30
0
 11
0.2127796802249975
 21
-97.32956695400119
 31
0
  0
LINE
  8
1
 62
1
 10
5.112779680224998
 20
-97.32956695400119
 30
0
 11
0.2127796802249975
 21
-97.32956695400119
 31
0
  0
LINE
  8
1
 62
1
 10
0.2127796802249975
 20
-104.5322246243982
 30
0
 11
0.2127796802249975
 21
-96.82956695400119
 31
0
  0
LINE
  8
1
 62
1
 10
-1.287220319775003
 20
-104.5322246243982
 30
0
 11
-1.287220319775003
 21
-96.82956695400119
 31
0
  0
LINE
  8
1
 62
1
 10
0.2127796802249975
 20
-97.32956695400119
 30
0
 11
2.662779680224999
 21
-97.01106695400119
 31
0
  0
LINE
  8
1
 62
1
 10
2.662779680224999
 20
-97.01106695400119
 30
0
 11
2.662779680224999
 21
-97.64806695400119
 31
0
  0
LINE
  8
1
 62
1
 10
2.662779680224999
 20
-97.64806695400119
 30
0
 11
0.2127796802249975
 21
-97.32956695400119
 31
0
  0
LINE
  8
1
 62
1
 10
-1.287220319775003
 20
-97.32956695400119
 30
0
 11
-3.737220319775004
 21
-97.64806695400119
 31
0
  0
LINE
  8
1
 62
1
 10
-3.737220319775004
 20
-97.64806695400119
 30
0
 11
-3.737220319775004
 21
-97.01106695400119
 31
0
  0
LINE
  8
1
 62
1
 10
-3.737220319775004
 20
-97.01106695400119
 30
0
 11
-1.287220319775003
 21
-97.32956695400119
 31
0
  0
TEXT
  8
1
 62
3
 10
-11.51300661903069
 20
-95.9795669540012
 30
0
 40
3.500000000000001
  1
1,5
 41
0.9
  0
ENDBLK
  8
0
  0
BLOCK
  8
1
  2
*D14
 70
1
 10
0
 20
0
 30
0
  0
LINE
  8
1
 62
1
 10
-14.053810685578
 20
-0.5322246243981992
 30
0
 11
-14.053810685578
 21
15.4677753756018
 31
0
  0
LINE
  8
1
 62
1
 10
-1.287220319775001
 20
15.4677753756018
 30
0
 11
-14.553810685578
 21
15.4677753756018
 31
0
  0
LINE
  8
1
 62
1
 10
3.512779680224991
 20
-0.5322246243981992
 30
0
 11
-14.553810685578
 21
-0.5322246243981992
 31
0
  0
LINE
  8
1
 62
1
 10
-14.053810685578
 20
15.4677753756018
 30
0
 11
-13.735310685578
 21
13.0177753756018
 31
0
  0
LINE
  8
1
 62
1
 10
-13.735310685578
 20
13.0177753756018
 30
0
 11
-14.372310685578
 21
13.0177753756018
 31
0
  0
LINE
  8
1
 62
1
 10
-14.372310685578
 20
13.0177753756018
 30
0
 11
-14.053810685578
 21
15.4677753756018
 31
0
  0
LINE
  8
1
 62
1
 10
-14.053810685578
 20
-0.5322246243981992
 30
0
 11
-14.372310685578
 21
1.917775375601801
 31
0
  0
LINE
  8
1
 62
1
 10
-14.372310685578
 20
1.917775375601801
 30
0
 11
-13.735310685578
 21
1.917775375601801
 31
0
  0
LINE
  8
1
 62
1
 10
-13.735310685578
 20
1.917775375601801
 30
0
 11
-14.053810685578
 21
-0.5322246243981992
 31
0
  0
TEXT
  8
1
 62
3
 10
-15.053810685578
 20
5.3677753756018
 30
0
 40
3.500000000000001
  1
16
 50
90
 41
0.9
  0
ENDBLK
  8
0
  0
BLOCK
  8
1
  2
*D15
 70
1
 10
0
 20
0
 30
0
  0
LINE
  8
1
 62
1
 10
-14.053810685578
 20
-64.5322246243982
 30
0
 11
-14.053810685578
 21
-48.5322246243982
 31
0
  0
LINE
  8
1
 62
1
 10
3.512779680224998
 20
-48.5322246243982
 30
0
 11
-14.553810685578
 21
-48.5322246243982
 31
0
  0
LINE
  8
1
 62
1
 10
-1.287220319775001
 20
-64.5322246243982
 30
0
 11
-14.553810685578
 21
-64.5322246243982
 31
0
  0
LINE
  8
1
 62
1
 10
-14.053810685578
 20
-48.5322246243982
 30
0
 11
-13.735310685578
 21
-50.9822246243982
 31
0
  0
LINE
  8
1
 62
1
 10
-13.735310685578
 20
-50.9822246243982
 30
0
 11
-14.372310685578
 21
-50.9822246243982
 31
0
  0
LINE
  8
1
 62
1
 10
-14.372310685578
 20
-50.9822246243982
 30
0
 11
-14.053810685578
 21
-48.5322246243982
 31
0
  0
LINE
  8
1
 62
1
 10
-14.053810685578
 20
-64.5322246243982
 30
0
 11
-14.372310685578
 21
-62.08222462439819
 31
0
  0
LINE
  8
1
 62
1
 10
-14.372310685578
 20
-62.08222462439819
 30
0
 11
-13.735310685578
 21
-62.08222462439819
 31
0
  0
LINE
  8
1
 62
1
 10
-13.735310685578
 20
-62.08222462439819
 30
0
 11
-14.053810685578
 21
-64.5322246243982
 31
0
  0
TEXT
  8
1
 62
3
 10
-15.053810685578
 20
-58.6322246243982
 30
0
 40
3.500000000000001
  1
16
 50
90
 41
0.9
  0
ENDBLK
  8
0
  0
BLOCK
  8
1
  2
*D16
 70
1
 10
0
 20
0
 30
0
  0
LINE
  8
1
 62
1
 10
-14.053810685578
 20
-48.5322246243982
 30
0
 11
-14.053810685578
 21
-0.5322246243982001
 31
0
  0
LINE
  8
1
 62
1
 10
3.512779680224998
 20
-0.5322246243982001
 30
0
 11
-14.553810685578
 21
-0.5322246243982001
 31
0
  0
LINE
  8
1
 62
1
 10
3.512779680224998
 20
-48.5322246243982
 30
0
 11
-14.553810685578
 21
-48.5322246243982
 31
0
  0
LINE
  8
1
 62
1
 10
-14.053810685578
 20
-0.5322246243982001
 30
0
 11
-13.735310685578
 21
-2.982224624398201
 31
0
  0
LINE
  8
1
 62
1
 10
-13.735310685578
 20
-2.982224624398201
 30
0
 11
-14.372310685578
 21
-2.982224624398201
 31
0
  0
LINE
  8
1
 62
1
 10
-14.372310685578
 20
-2.982224624398201
 30
0
 11
-14.053810685578
 21
-0.5322246243982001
 31
0
  0
LINE
  8
1
 62
1
 10
-14.053810685578
 20
-48.5322246243982
 30
0
 11
-14.372310685578
 21
-46.08222462439819
 31
0
  0
LINE
  8
1
 62
1
 10
-14.372310685578
 20
-46.08222462439819
 30
0
 11
-13.735310685578
 21
-46.08222462439819
 31
0
  0
LINE
  8
1
 62
1
 10
-13.735310685578
 20
-46.08222462439819
 30
0
 11
-14.053810685578
 21
-48.5322246243982
 31
0
  0
TEXT
  8
1
 62
3
 10
-15.053810685578
 20
-27.1572246243982
 30
0
 40
3.500000000000001
  1
48
 50
90
 41
0.9
  0
ENDBLK
  8
0
  0
BLOCK
  8
1
  2
*D17
 70
1
 10
0
 20
0
 30
0
  0
LINE
  8
1
 62
1
 10
-1.287220319774999
 20
-85.1277590296492
 30
0
 11
19.712779680225
 21
-85.1277590296492
 31
0
  0
LINE
  8
1
 62
1
 10
19.712779680225
 20
-64.5322246243982
 30
0
 11
19.712779680225
 21
-85.6277590296492
 31
0
  0
LINE
  8
1
 62
1
 10
-1.287220319774999
 20
-64.5322246243982
 30
0
 11
-1.287220319774999
 21
-85.6277590296492
 31
0
  0
LINE
  8
1
 62
1
 10
-1.287220319774999
 20
-85.1277590296492
 30
0
 11
1.162779680225002
 21
-84.8092590296492
 31
0
  0
LINE
  8
1
 62
1
 10
1.162779680225002
 20
-84.8092590296492
 30
0
 11
1.162779680225002
 21
-85.4462590296492
 31
0
  0
LINE
  8
1
 62
1
 10
1.162779680225002
 20
-85.4462590296492
 30
0
 11
-1.287220319774999
 21
-85.1277590296492
 31
0
  0
LINE
  8
1
 62
1
 10
19.712779680225
 20
-85.1277590296492
 30
0
 11
17.262779680225
 21
-85.4462590296492
 31
0
  0
LINE
  8
1
 62
1
 10
17.262779680225
 20
-85.4462590296492
 30
0
 11
17.262779680225
 21
-84.8092590296492
 31
0
  0
LINE
  8
1
 62
1
 10
17.262779680225
 20
-84.8092590296492
 30
0
 11
19.712779680225
 21
-85.1277590296492
 31
0
  0
TEXT
  8
1
 62
3
 10
7.112779680225
 20
-84.1277590296492
 30
0
 40
3.500000000000001
  1
21
 41
0.9
  0
ENDBLK
  8
0
  0
ENDSEC
  0
SECTION
  2
ENTITIES
  0
LINE
  8
1
 62
2
  6
DASHED
 10
16.31277968022501
 20
-126.0322246243982
 30
0
 11
16.31277968022501
 21
-127.5322246243982
 31
0
  0
LINE
  8
1
 62
2
  6
DASHED
 10
13.112779680225
 20
-126.0322246243982
 30
0
 11
13.112779680225
 21
-127.5322246243982
 31
0
  0
LINE
  8
1
 62
2
  6
DASHDOT
 10
14.712779680225
 20
-125.1390099302442
 30
0
 11
14.712779680225
 21
-128.6780815832792
 31
0
  0
LINE
  8
1
 62
2
  6
DASHDOT
 10
70.28542362935391
 20
-58.5322246243982
 30
0
 11
59.712779680225
 21
-58.5322246243982
 31
0
  0
LINE
  8
1
 62
7
 10
0.2127796802249975
 20
-112.5322246243982
 30
0
 11
0.2127796802249975
 21
-126.0322246243982
 31
0
  0
LINE
  8
1
 62
7
 10
0.2127796802249975
 20
-108.5322246243982
 30
0
 11
0.2127796802249975
 21
-112.5322246243982
 31
0
  0
LINE
  8
1
 62
7
 10
-1.287220319775003
 20
-107.5322246243982
 30
0
 11
-1.287220319775003
 21
-104.5322246243982
 31
0
  0
LINE
  8
1
 62
7
 10
-1.287220319775003
 20
-113.5322246243982
 30
0
 11
-1.287220319775003
 21
-107.5322246243982
 31
0
  0
LINE
  8
1
 62
2
  6
DASHED
 10
-0.2872203197750025
 20
-112.5322246243982
 30
0
 11
-0.2872203197750025
 21
-108.5322246243982
 31
0
  0
LINE
  8
1
 62
2
  6
DASHED
 10
0.2127796802249975
 20
-108.5322246243982
 30
0
 11
-0.2872203197750025
 21
-108.5322246243982
 31
0
  0
LINE
  8
1
 62
2
  6
DASHED
 10
0.2127796802249975
 20
-112.5322246243982
 30
0
 11
-0.2872203197750025
 21
-112.5322246243982
 31
0
  0
LINE
  8
1
 62
2
  6
DASHED
 10
-1.287220319775003
 20
-107.5322246243982
 30
0
 11
-0.2872203197750025
 21
-108.5322246243982
 31
0
  0
LINE
  8
1
 62
2
  6
DASHED
 10
-1.287220319775003
 20
-113.5322246243982
 30
0
 11
-0.2872203197750025
 21
-112.5322246243982
 31
0
  0
LINE
  8
1
 62
2
  6
DASHDOT
 10
6.248190308243991
 20
-110.5322246243982
 30
0
 11
-4.343693749727009
 21
-110.5322246243982
 31
0
  0
LINE
  8
1
 62
7
 10
19.712779680225
 20
-126.0322246243982
 30
0
 11
19.712779680225
 21
-127.5322246243982
 31
0
  0
LINE
  8
1
 62
7
 10
0.2127796802249975
 20
-126.0322246243982
 30
0
 11
19.712779680225
 21
-126.0322246243982
 31
0
  0
LINE
  8
1
 62
7
 10
0.2127796802249975
 20
-104.5322246243982
 30
0
 11
0.2127796802249975
 21
-108.5322246243982
 31
0
  0
LINE
  8
1
 62
7
 10
-1.287220319775003
 20
-104.5322246243982
 30
0
 11
0.2127796802249975
 21
-104.5322246243982
 31
0
  0
LINE
  8
1
 62
7
 10
-1.287220319775003
 20
-126.0322246243982
 30
0
 11
-1.287220319775003
 21
-113.5322246243982
 31
0
  0
LINE
  8
1
 62
7
 10
19.712779680225
 20
-127.5322246243982
 30
0
 11
0.2127796802249975
 21
-127.5322246243982
 31
0
  0
LINE
  8
1
 62
3
  6
DASHED
 10
0.2127796802249975
 20
15.4677753756018
 30
0
 11
0.2127796802249975
 21
-64.5322246243982
 31
0
  0
LINE
  8
1
 62
7
 10
3.512779680224995
 20
-0.5322246243982001
 30
0
 11
12.01277968022499
 21
-0.5322246243982001
 31
0
  0
LINE
  8
1
 62
7
 10
3.512779680224995
 20
-48.5322246243982
 30
0
 11
3.512779680224995
 21
-0.5322246243982001
 31
0
  0
LINE
  8
1
 62
7
 10
12.012779680225
 20
-48.5322246243982
 30
0
 11
3.512779680224995
 21
-48.5322246243982
 31
0
  0
LINE
  8
1
 62
7
 10
12.01277968022499
 20
-0.5322246243982001
 30
0
 11
12.012779680225
 21
-48.5322246243982
 31
0
  0
LINE
  8
1
 62
2
  6
CENTER
 10
16.63277968022501
 20
-54.0322246243982
 30
0
 11
12.792779680225
 21
-54.0322246243982
 31
0
  0
LINE
  8
1
 62
2
  6
CENTER
 10
14.712779680225
 20
-52.11222462439819
 30
0
 11
14.712779680225
 21
-55.9522246243982
 31
0
  0
LINE
  8
1
 62
2
  6
CENTER
 10
16.632779680225
 20
4.9677753756018
 30
0
 11
12.792779680225
 21
4.9677753756018
 31
0
  0
LINE
  8
1
 62
2
  6
CENTER
 10
14.712779680225
 20
6.8877753756018
 30
0
 11
14.712779680225
 21
3.0477753756018
 31
0
  0
LINE
  8
1
 62
7
 10
-1.287220319775003
 20
-64.5322246243982
 30
0
 11
-1.287220319775003
 21
15.4677753756018
 31
0
  0
LINE
  8
1
 62
7
 10
-1.287220319775003
 20
15.4677753756018
 30
0
 11
19.712779680225
 21
15.4677753756018
 31
0
  0
LINE
  8
1
 62
7
 10
19.712779680225
 20
-64.5322246243982
 30
0
 11
-1.287220319775003
 21
-64.5322246243982
 31
0
  0
LINE
  8
1
 62
7
 10
19.712779680225
 20
15.4677753756018
 30
0
 11
19.712779680225
 21
-64.5322246243982
 31
0
  0
LINE
  8
1
 62
3
  6
DASHED
 10
81.212779680225
 20
-64.5322246243982
 30
0
 11
81.212779680225
 21
15.46777537560181
 31
0
  0
LINE
  8
1
 62
7
 10
82.712779680225
 20
15.46777537560181
 30
0
 11
59.712779680225
 21
15.4677753756018
 31
0
  0
LINE
  8
1
 62
7
 10
82.712779680225
 20
-64.5322246243982
 30
0
 11
82.712779680225
 21
15.46777537560181
 31
0
  0
LINE
  8
1
 62
7
 10
59.712779680225
 20
-64.5322246243982
 30
0
 11
82.712779680225
 21
-64.5322246243982
 31
0
  0
LINE
  8
1
 62
7
 10
59.712779680225
 20
15.4677753756018
 30
0
 11
59.712779680225
 21
-64.5322246243982
 31
0
  0
LINE
  8
1
 62
2
  6
DASHDOT
 10
65.712779680225
 20
-53.7322246243982
 30
0
 11
65.712779680225
 21
-63.33222462439819
 31
0
  0
LINE
  8
1
 62
2
  6
DASHDOT
 10
60.91277968022501
 20
9.467775375601803
 30
0
 11
70.51277968022501
 21
9.467775375601803
 31
0
  0
LINE
  8
1
 62
2
  6
DASHDOT
 10
65.712779680225
 20
14.2677753756018
 30
0
 11
65.712779680225
 21
4.667775375601803
 31
0
  0
ARC
  8
1
 62
7
 10
14.712779680225
 20
-54.0322246243982
 30
0
 40
1.599999999999994
 50
270
 51
0
  0
ARC
  8
1
 62
7
 10
14.712779680225
 20
-54.0322246243982
 30
0
 40
1.6
 50
180
 51
270
  0
ARC
  8
1
 62
7
 10
14.712779680225
 20
-54.0322246243982
 30
0
 40
1.60000000000001
 50
0
 51
180
  0
ARC
  8
1
 62
7
 10
14.712779680225
 20
4.9677753756018
 30
0
 40
1.6
 50
270
 51
0
  0
ARC
  8
1
 62
7
 10
14.712779680225
 20
4.9677753756018
 30
0
 40
1.6
 50
180
 51
270
  0
ARC
  8
1
 62
7
 10
14.712779680225
 20
4.9677753756018
 30
0
 40
1.6
 50
0
 51
180
  0
CIRCLE
  8
1
 62
7
 10
65.712779680225
 20
-58.5322246243982
 30
0
 40
2
  0
CIRCLE
  8
1
 62
7
 10
65.712779680225
 20
-58.5322246243982
 30
0
 40
3
  0
CIRCLE
  8
1
 62
7
 10
65.712779680225
 20
9.467775375601803
 30
0
 40
2.000000000000001
  0
CIRCLE
  8
1
 62
7
 10
65.712779680225
 20
9.467775375601803
 30
0
 40
3.000000000000001
  0
ARC
  8
1
 62
7
 10
0.2127796802249975
 20
-126.0322246243982
 30
0
 40
1.5
 50
180
 51
270
  0
TEXT
  8
1
 62
7
 10
50.2573827610287
 20
-104.883038354507
 30
0
 40
3.5
  1
0-B-2305M
 41
0.9
  0
DIMENSION
  8
1
  6
CONTINUOUS
 62
1
  2
*D9
  3
DMST_2
 10
-24.14920542242009
 20
15.4677753756018
 30
0
 11
-26.89920542242009
 21
-24.5322246243982
 31
0
 12
0
 22
0
 32
0
 70
0
 13
-1.287220319775003
 23
-64.5322246243982
 33
0
 14
-1.287220319775003
 24
15.4677753756018
 34
0
 50
90
 53
0
  0
DIMENSION
  8
1
  6
CONTINUOUS
 62
1
  2
*D10
  3
DMST_2
 10
12.012779680225
 20
-74.7392892455272
 30
0
 11
7.762779680224998
 21
-71.81428924552721
 31
0
 12
0
 22
0
 32
0
 70
0
 13
3.512779680224995
 23
-48.5322246243982
 33
0
 14
12.012779680225
 24
-48.5322246243982
 34
0
 53
0
  0
DIMENSION
  8
1
  6
CONTINUOUS
 62
1
  2
*D11
  3
DMST_2
 10
-1.287220319775001
 20
-74.74998585358929
 30
0
 11
-11.72239494087441
 21
-71.8249858535893
 31
0
 12
0
 22
0
 32
0
 70
0
 13
3.512779680224995
 23
-48.5322246243982
 33
0
 14
-1.287220319775003
 24
-64.5322246243982
 34
0
 53
0
  0
DIMENSION
  8
1
  6
CONTINUOUS
 62
1
  2
*D12
  3
DMST_2
 10
82.712779680225
 20
-74.5089784876411
 30
0
 11
71.212779680225
 21
-71.7589784876411
 31
0
 12
0
 22
0
 32
0
 70
0
 13
59.712779680225
 23
-64.5322246243982
 33
0
 14
82.712779680225
 24
-64.5322246243982
 34
0
 53
0
  0
DIMENSION
  8
1
  6
CONTINUOUS
 62
1
  2
*D13
  3
DMST_2
 10
-1.287220319775003
 20
-97.32956695400119
 30
0
 11
-8.800506619030692
 21
-94.4045669540012
 31
0
 12
0
 22
0
 32
0
 70
0
 13
0.2127796802249975
 23
-104.5322246243982
 33
0
 14
-1.287220319775003
 24
-104.5322246243982
 34
0
 53
0
  0
DIMENSION
  8
1
  6
CONTINUOUS
 62
1
  2
*D14
  3
DMST_2
 10
-14.053810685578
 20
15.4677753756018
 30
0
 11
-16.803810685578
 21
7.467775375601801
 31
0
 12
0
 22
0
 32
0
 70
0
 13
3.512779680224995
 23
-0.5322246243982001
 33
0
 14
-1.287220319775003
 24
15.4677753756018
 34
0
 50
270
 53
0
  0
DIMENSION
  8
1
  6
CONTINUOUS
 62
1
  2
*D15
  3
DMST_2
 10
-14.053810685578
 20
-48.5322246243982
 30
0
 11
-16.803810685578
 21
-56.5322246243982
 31
0
 12
0
 22
0
 32
0
 70
0
 13
-1.287220319775003
 23
-64.5322246243982
 33
0
 14
3.512779680224995
 24
-48.5322246243982
 34
0
 50
270
 53
0
  0
DIMENSION
  8
1
  6
CONTINUOUS
 62
1
  2
*D16
  3
DMST_2
 10
-14.053810685578
 20
-0.5322246243982001
 30
0
 11
-16.803810685578
 21
-24.5322246243982
 31
0
 12
0
 22
0
 32
0
 70
0
 13
3.512779680224995
 23
-48.5322246243982
 33
0
 14
3.512779680224995
 24
-0.5322246243982001
 34
0
 50
270
 53
0
  0
DIMENSION
  8
1
  6
CONTINUOUS
 62
1
  2
*D17
  3
DMST_2
 10
19.712779680225
 20
-85.1277590296492
 30
0
 11
9.212779680225001
 21
-82.3777590296492
 31
0
 12
0
 22
0
 32
0
 70
0
 13
-1.287220319775003
 23
-64.5322246243982
 33
0
 14
19.712779680225
 24
-64.5322246243982
 34
0
 53
0
  0
INSERT
  8
0
  2
KLEINER
 10
23.39261049961705
 20
-172.5249873857994
 30
0
 41
0.25
 42
0.25
 43
0.25
  0
ENDSEC
  0
EOF
