  0
SECTION
  2
HEADER
  9
$ACADVER
  1
AC1009
  9
$INSBASE
 10
0
 20
0
  9
$EXTMIN
 10
-14.3166965533939
 20
-66.41036949072902
  9
$EXTMAX
 10
74.74904469382261
 20
103.547826086956
  9
$LIMMIN
 10
-14.3166965533939
 20
-66.41036949072902
  9
$LIMMAX
 10
74.74904469382261
 20
103.547826086956
  9
$VIEWCTR
 10
10
 20
10
  9
$VIEWSIZE
 40
10
  9
$SNAPMODE
 70
0
  9
$SNAPUNIT
 10
1
 20
1
  9
$SNAPBASE
 10
0
 20
0
  9
$SNAPANG
 50
0
  9
$SNAPSTYLE
 70
0
  9
$SNAPISOPAIR
 70
0
  9
$GRIDMODE
 70
0
  9
$GRIDUNIT
 10
0
 20
0
  9
$ORTHOMODE
 70
0
  9
$REGENMODE
 70
1
  9
$FILLMODE
 70
1
  9
$QTEXTMODE
 70
0
  9
$DRAGMODE
 70
2
  9
$LTSCALE
 40
1
  9
$OSMODE
 70
0
  9
$ATTMODE
 70
1
  9
$TEXTSIZE
 40
3.5
  9
$TRACEWID
 40
0.5
  9
$TEXTSTYLE
  7
STANDARD
  9
$CLAYER
  8
0
  9
$CELTYPE
  6
BYLAYER
  9
$CECOLOR
 62
256
  9
$DIMSCALE
 40
1
  9
$DIMASZ
 40
0.18
  9
$DIMEXO
 40
0.0625
  9
$DIMDLI
 40
0.38
  9
$DIMRND
 40
0
  9
$DIMDLE
 40
0
  9
$DIMEXE
 40
0.18
  9
$DIMTP
 40
0
  9
$DIMTM
 40
0
  9
$DIMTXT
 40
0.18
  9
$DIMCEN
 40
0.09
  9
$DIMTSZ
 40
0
  9
$DIMTOL
 70
0
  9
$DIMLIM
 70
0
  9
$DIMTIH
 70
1
  9
$DIMTOH
 70
1
  9
$DIMSE1
 70
0
  9
$DIMSE2
 70
0
  9
$DIMTAD
 70
0
  9
$DIMZIN
 70
0
  9
$DIMBLK
  1

  9
$DIMASO
 70
1
  9
$DIMSHO
 70
1
  9
$DIMPOST
  1

  9
$DIMAPOST
  1

  9
$DIMALT
 70
0
  9
$DIMALTD
 70
2
  9
$DIMALTF
 40
25.4
  9
$DIMLFAC
 40
1
  9
$DIMTOFL
 70
0
  9
$DIMTVP
 40
0
  9
$DIMTIX
 70
0
  9
$DIMSOXD
 70
0
  9
$DIMSAH
 70
0
  9
$DIMBLK1
  1

  9
$DIMBLK2
  1

  9
$DIMSTYLE
  2
*UNNAMED
  9
$DIMCLRD
 70
0
  9
$DIMCLRE
 70
0
  9
$DIMCLRT
 70
0
  9
$DIMTFAC
 40
1
  9
$DIMGAP
 40
0.09
  9
$LUNITS
 70
2
  9
$LUPREC
 70
4
  9
$AXISMODE
 70
0
  9
$AXISUNIT
 10
0
 20
0
  9
$SKETCHINC
 40
0.1
  9
$FILLETRAD
 40
2
  9
$AUNITS
 70
0
  9
$AUPREC
 70
0
  9
$MENU
  1
ACAD
  9
$ELEVATION
 40
0
  9
$THICKNESS
 40
0
  9
$VIEWDIR
 10
0
 20
0
 30
1
  9
$LIMCHECK
 70
0
  9
$BLIPMODE
 70
1
  9
$CHAMFERA
 40
0
  9
$CHAMFERB
 40
0
  9
$FASTZOOM
 70
1
  9
$SKPOLY
 70
0
  9
$ANGBASE
 50
0
  9
$ANGDIR
 70
0
  9
$PDMODE
 70
0
  9
$PDSIZE
 40
0
  9
$PLINEWID
 40
0
  9
$COORDS
 70
2
  0
ENDSEC
  0
SECTION
  2
TABLES
  0
TABLE
  2
DIMSTYLE
 70
4
  0
DIMSTYLE
  2
DMST_1
 70
0
  3

  4

  5

  6

  7

 40
1
 41
4.8
 42
0
 43
7
 44
0.7999999999999999
 45
0
 46
0
 47
0
 48
0
140
3.2
141
0
142
0
143
25.4
144
1
145
0
146
1
147
0.09
 71
0
 72
0
 73
0
 74
0
 75
0
 76
0
 77
1
 78
9
170
0
171
2
172
0
173
0
174
0
175
0
176
1
177
1
178
3
  0
DIMSTYLE
  2
DMST_2
 70
0
  3

  4

  5

  6

  7

 40
1
 41
4.8
 42
0
 43
7
 44
2
 45
0
 46
0
 47
0
 48
0
140
3.2
141
0
142
0
143
25.4
144
1
145
0
146
1
147
0.09
 71
0
 72
0
 73
0
 74
0
 75
0
 76
0
 77
1
 78
9
170
0
171
2
172
0
173
0
174
0
175
0
176
1
177
1
178
3
  0
DIMSTYLE
  2
DMST_3
 70
0
  3

  4

  5

  6

  7

 40
1
 41
2.450000000000001
 42
0
 43
7
 44
0.5
 45
0
 46
0
 47
0
 48
0
140
3.500000000000001
141
0
142
0
143
25.4
144
1
145
0
146
1
147
0.09
 71
0
 72
0
 73
0
 74
0
 75
0
 76
0
 77
1
 78
9
170
0
171
2
172
0
173
0
174
0
175
0
176
1
177
1
178
3
  0
DIMSTYLE
  2
DMST_4
 70
0
  3

  4

  5

  6

  7

 40
1
 41
2.45
 42
0
 43
7
 44
0.2
 45
0
 46
0
 47
0
 48
0
140
3.5
141
0
142
0
143
25.4
144
1
145
0
146
1
147
0.09
 71
0
 72
0
 73
0
 74
0
 75
0
 76
0
 77
1
 78
9
170
0
171
2
172
0
173
0
174
0
175
0
176
1
177
1
178
3
  0
ENDTAB
  0
TABLE
  2
LTYPE
 70
9
  0
LTYPE
  2
CONTINUOUS
 70
64
  3
Solid line
 72
65
 73
0
 40
0
  0
LTYPE
  2
BORDER
 70
64
  3
__ __ . __ __ .
 72
65
 73
6
 40
7.82702216476181
 49
2.236292047074803
 49
-1.118146023537401
 49
2.236292047074803
 49
-1.118146023537401
 49
0
 49
-1.118146023537401
  0
LTYPE
  2
CENTER
 70
64
  3
____ _ ____ _
 72
65
 73
4
 40
8.945168188299212
 49
5.590730117687007
 49
-1.118146023537401
 49
1.118146023537401
 49
-1.118146023537401
  0
LTYPE
  2
DASHDOT
 70
64
  3
__ . __ . __ .
 72
65
 73
4
 40
4.472584094149606
 49
2.236292047074803
 49
-1.118146023537401
 49
0
 49
-1.118146023537401
  0
LTYPE
  2
DASHED
 70
64
  3
__ __ __ __ __
 72
65
 73
2
 40
3.354438070612204
 49
2.236292047074803
 49
-1.118146023537401
  0
LTYPE
  2
DIVIDE
 70
64
  3
__ . . __ . . 
 72
65
 73
6
 40
5.590730117687007
 49
2.236292047074803
 49
-1.118146023537401
 49
0
 49
-1.118146023537401
 49
0
 49
-1.118146023537401
  0
LTYPE
  2
DOT
 70
64
  3
..............
 72
65
 73
4
 40
2.236292047074803
 49
0
 49
-1.118146023537401
 49
0
 49
-1.118146023537401
  0
LTYPE
  2
HIDDEN
 70
64
  3
_ _ _ _ _ _ _
 72
65
 73
2
 40
1.677219035306102
 49
1.118146023537401
 49
-0.5590730117687007
  0
LTYPE
  2
PHANTOM
 70
64
  3
_____ _ _ _____ _ _ 
 72
65
 73
6
 40
11.18146023537401
 49
5.590730117687007
 49
-1.118146023537401
 49
1.118146023537401
 49
-1.118146023537401
 49
1.118146023537401
 49
-1.118146023537401
  0
ENDTAB
  0
TABLE
  2
LAYER
 70
3
  0
LAYER
  2
1
 70
0
 62
7
  6
CONTINUOUS
  0
LAYER
  2
0
 70
0
 62
7
  6
CONTINUOUS
  0
ENDTAB
  0
TABLE
  2
STYLE
 70
4
  0
STYLE
  2
STANDARD
 70
0
 40
0
 41
1
 50
0
 71
0
 42
3.5
  3
txt
  4

  0
STYLE
  2
SIMPLEX
 70
0
 40
0
 41
1
 50
0
 71
0
 42
3.5
  3
simplex
  4

  0
STYLE
  2
COMPLEX
 70
0
 40
0
 41
1
 50
0
 71
0
 42
3.5
  3
complex
  4

  0
STYLE
  2
ITALIC
 70
0
 40
0
 41
1
 50
0
 71
0
 42
3.5
  3
italic
  4

  0
ENDTAB
  0
TABLE
  2
VIEW
 70
0
  0
ENDTAB
  0
ENDSEC
  0
SECTION
  2
BLOCKS
  0
BLOCK
  8
1
  2
*D0
 70
1
 10
0
 20
0
 30
0
  0
LINE
  8
1
 62
1
 10
-7.6245114803218
 20
80.91592568682248
 30
0
 11
-7.6245114803218
 21
90.51592568682247
 31
0
  0
LINE
  8
1
 62
1
 10
-7.6245114803218
 20
78.91592568682248
 30
0
 11
-7.6245114803218
 21
69.31592568682248
 31
0
  0
LINE
  8
1
 62
1
 10
-7.6245114803218
 20
78.91592568682248
 30
0
 11
-7.6245114803218
 21
80.91592568682248
 31
0
  0
LINE
  8
1
 62
1
 10
0
 20
80.91592568682248
 30
0
 11
-8.424511480321801
 21
80.91592568682248
 31
0
  0
LINE
  8
1
 62
1
 10
0
 20
78.91592568682248
 30
0
 11
-8.424511480321801
 21
78.91592568682248
 31
0
  0
SOLID
  8
1
 62
1
 10
-7.6245114803218
 20
78.91592568682248
 30
0
 11
-7.000511480321801
 21
74.11592568682248
 31
0
 12
-8.248511480321801
 22
74.11592568682248
 32
0
 13
-8.248511480321801
 23
74.11592568682248
 33
0
  0
SOLID
  8
1
 62
1
 10
-7.6245114803218
 20
80.91592568682248
 30
0
 11
-8.248511480321801
 21
85.71592568682247
 31
0
 12
-7.000511480321802
 22
85.71592568682247
 32
0
 13
-7.000511480321802
 23
85.71592568682247
 33
0
  0
TEXT
  8
1
 62
3
 10
-8.424511480321801
 20
78.95592568682248
 30
0
 40
3.2
  1
2
 50
90
 41
0.9
  0
ENDBLK
  8
0
  0
BLOCK
  8
1
  2
*D1
 70
1
 10
0
 20
0
 30
0
  0
LINE
  8
1
 62
1
 10
-6.816696553393898
 20
100.9159256868225
 30
0
 11
-6.816696553393898
 21
180.9159256868225
 31
0
  0
LINE
  8
1
 62
1
 10
0
 20
180.9159256868225
 30
0
 11
-7.616696553393898
 21
180.9159256868225
 31
0
  0
LINE
  8
1
 62
1
 10
0
 20
100.9159256868225
 30
0
 11
-7.616696553393898
 21
100.9159256868225
 31
0
  0
SOLID
  8
1
 62
1
 10
-6.816696553393898
 20
100.9159256868225
 30
0
 11
-7.4406965533939
 21
105.7159256868225
 31
0
 12
-6.1926965533939
 22
105.7159256868225
 32
0
 13
-6.1926965533939
 23
105.7159256868225
 33
0
  0
SOLID
  8
1
 62
1
 10
-6.816696553393898
 20
180.9159256868225
 30
0
 11
-6.192696553393899
 21
176.1159256868225
 31
0
 12
-7.440696553393899
 22
176.1159256868225
 32
0
 13
-7.440696553393899
 23
176.1159256868225
 33
0
  0
TEXT
  8
1
 62
3
 10
-8.7960780811839
 20
139.0645304884322
 30
0
 40
3.2
  1
80
 50
90
 41
0.9
  0
ENDBLK
  8
0
  0
BLOCK
  8
1
  2
*D2
 70
1
 10
0
 20
0
 30
0
  0
LINE
  8
1
 62
1
 10
36.0757566015238
 20
100.9159256868225
 30
0
 11
36.0757566015238
 21
120.9159256868225
 31
0
  0
LINE
  8
1
 62
1
 10
16
 20
120.9159256868225
 30
0
 11
36.8757566015238
 21
120.9159256868225
 31
0
  0
LINE
  8
1
 62
1
 10
24
 20
100.9159256868225
 30
0
 11
36.8757566015238
 21
100.9159256868225
 31
0
  0
SOLID
  8
1
 62
1
 10
36.0757566015238
 20
100.9159256868225
 30
0
 11
35.4517566015238
 21
105.7159256868225
 31
0
 12
36.6997566015238
 22
105.7159256868225
 32
0
 13
36.6997566015238
 23
105.7159256868225
 33
0
  0
SOLID
  8
1
 62
1
 10
36.0757566015238
 20
120.9159256868225
 30
0
 11
36.6997566015238
 21
116.1159256868225
 31
0
 12
35.4517566015238
 22
116.1159256868225
 32
0
 13
35.4517566015238
 23
116.1159256868225
 33
0
  0
TEXT
  8
1
 62
3
 10
34.491430919244
 20
108.4102859173142
 30
0
 40
3.2
  1
20
 50
90
 41
0.9
  0
ENDBLK
  8
0
  0
BLOCK
  8
1
  2
*D3
 70
1
 10
0
 20
0
 30
0
  0
LINE
  8
1
 62
1
 10
36.0750132323889
 20
120.9159256868224
 30
0
 11
36.0750132323889
 21
160.9159256868224
 31
0
  0
LINE
  8
1
 62
1
 10
16
 20
160.9159256868224
 30
0
 11
36.8750132323889
 21
160.9159256868224
 31
0
  0
LINE
  8
1
 62
1
 10
16
 20
120.9159256868224
 30
0
 11
36.8750132323889
 21
120.9159256868224
 31
0
  0
SOLID
  8
1
 62
1
 10
36.0750132323889
 20
120.9159256868224
 30
0
 11
35.4510132323889
 21
125.7159256868224
 31
0
 12
36.6990132323889
 22
125.7159256868224
 32
0
 13
36.6990132323889
 23
125.7159256868224
 33
0
  0
SOLID
  8
1
 62
1
 10
36.0750132323889
 20
160.9159256868224
 30
0
 11
36.6990132323889
 21
156.1159256868224
 31
0
 12
35.4510132323889
 22
156.1159256868224
 32
0
 13
35.4510132323889
 23
156.1159256868224
 33
0
  0
TEXT
  8
1
 62
3
 10
34.305647618813
 20
137.5782640849841
 30
0
 40
3.2
  1
40
 50
90
 41
0.9
  0
ENDBLK
  8
0
  0
BLOCK
  8
1
  2
*D4
 70
1
 10
0
 20
0
 30
0
  0
LINE
  8
1
 62
1
 10
36.0723759436514
 20
160.9159256868225
 30
0
 11
36.0723759436514
 21
180.9159256868225
 31
0
  0
LINE
  8
1
 62
1
 10
24
 20
180.9159256868225
 30
0
 11
36.8723759436514
 21
180.9159256868225
 31
0
  0
LINE
  8
1
 62
1
 10
16
 20
160.9159256868225
 30
0
 11
36.8723759436514
 21
160.9159256868225
 31
0
  0
SOLID
  8
1
 62
1
 10
36.0723759436514
 20
160.9159256868225
 30
0
 11
35.4483759436514
 21
165.7159256868225
 31
0
 12
36.6963759436514
 22
165.7159256868225
 32
0
 13
36.6963759436514
 23
165.7159256868225
 33
0
  0
SOLID
  8
1
 62
1
 10
36.0723759436514
 20
180.9159256868225
 30
0
 11
36.6963759436514
 21
176.1159256868225
 31
0
 12
35.4483759436514
 22
176.1159256868225
 32
0
 13
35.4483759436514
 23
176.1159256868225
 33
0
  0
TEXT
  8
1
 62
3
 10
33.93408101795101
 20
168.0467253556716
 30
0
 40
3.2
  1
20
 50
90
 41
0.9
  0
ENDBLK
  8
0
  0
BLOCK
  8
1
  2
*D5
 70
1
 10
0
 20
0
 30
0
  0
LINE
  8
1
 62
1
 10
16
 20
135.2184258819017
 30
0
 11
25.6
 21
135.2184258819017
 31
0
  0
LINE
  8
1
 62
1
 10
8
 20
135.2184258819017
 30
0
 11
-1.6
 21
135.2184258819017
 31
0
  0
LINE
  8
1
 62
1
 10
8
 20
135.2184258819017
 30
0
 11
16
 21
135.2184258819017
 31
0
  0
LINE
  8
1
 62
1
 10
16
 20
120.9159256868225
 30
0
 11
16
 21
136.0184258819017
 31
0
  0
LINE
  8
1
 62
1
 10
8
 20
120.9159256868225
 30
0
 11
8
 21
136.0184258819017
 31
0
  0
SOLID
  8
1
 62
1
 10
8
 20
135.2184258819017
 30
0
 11
3.2
 21
134.5944258819017
 31
0
 12
3.2
 22
135.8424258819017
 32
0
 13
3.2
 23
135.8424258819017
 33
0
  0
SOLID
  8
1
 62
1
 10
16
 20
135.2184258819017
 30
0
 11
20.8
 21
135.8424258819017
 31
0
 12
20.8
 22
134.5944258819017
 32
0
 13
20.8
 23
134.5944258819017
 33
0
  0
TEXT
  8
1
 62
3
 10
11.04
 20
139.2184258819017
 30
0
 40
3.2
  1
8
 41
0.9
  0
ENDBLK
  8
0
  0
BLOCK
  8
0
  2
KLEINER
 70
0
 10
-11.9960780811839
 20
69.31592568682248
 30
0
  0
LINE
  8
1
 62
7
 10
0
 20
180.9159256868225
 30
0
 11
24
 21
180.9159256868225
 31
0
  0
LINE
  8
1
 62
7
 10
24
 20
100.9159256868225
 30
0
 11
0
 21
100.9159256868225
 31
0
  0
LINE
  8
1
 62
7
 10
8
 20
160.9159256868225
 30
0
 11
16
 21
160.9159256868225
 31
0
  0
LINE
  8
1
 62
7
 10
16
 20
160.9159256868225
 30
0
 11
16
 21
120.9159256868225
 31
0
  0
LINE
  8
1
 62
7
 10
8
 20
120.9159256868225
 30
0
 11
8
 21
160.9159256868225
 31
0
  0
LINE
  8
1
 62
7
 10
8
 20
120.9159256868225
 30
0
 11
16
 21
120.9159256868225
 31
0
  0
LINE
  8
1
 62
2
  6
DASHDOT
 10
16
 20
80.91592568682248
 30
0
 11
16
 21
78.91592568682248
 31
0
  0
LINE
  8
1
 62
2
  6
DASHDOT
 10
8
 20
80.91592568682248
 30
0
 11
8
 21
78.91592568682248
 31
0
  0
LINE
  8
1
 62
2
  6
DASHDOT
 10
12
 20
83.03918647345347
 30
0
 11
12
 21
75.73279591743298
 31
0
  0
LINE
  8
1
 62
7
 10
0
 20
80.91592568682248
 30
0
 11
0
 21
78.91592568682248
 31
0
  0
LINE
  8
1
 62
7
 10
24
 20
80.91592568682248
 30
0
 11
0
 21
80.91592568682248
 31
0
  0
LINE
  8
1
 62
7
 10
24
 20
78.91592568682248
 30
0
 11
24
 21
80.91592568682248
 31
0
  0
LINE
  8
1
 62
7
 10
0
 20
78.91592568682248
 30
0
 11
24
 21
78.91592568682248
 31
0
  0
LINE
  8
1
 62
2
  6
DASHDOT
 10
12
 20
106.1159256868225
 30
0
 11
12
 21
95.56442742663143
 31
0
  0
LINE
  8
1
 62
2
  6
DASHDOT
 10
12
 20
175.7159256868225
 30
0
 11
12
 21
187.068271056793
 31
0
  0
LINE
  8
1
 62
2
  6
DASHDOT
 10
12
 20
166.1159256868225
 30
0
 11
12
 21
144.621621159912
 31
0
  0
LINE
  8
1
 62
2
  6
DASHDOT
 10
12
 20
115.7159256868225
 30
0
 11
12
 21
136.27146052446
 31
0
  0
LINE
  8
1
 62
2
  6
DASHDOT
 10
12
 20
106.1159256868225
 30
0
 11
12
 21
115.7159256868225
 31
0
  0
LINE
  8
1
 62
2
  6
DASHDOT
 10
7.199999999999999
 20
110.9159256868225
 30
0
 11
16.8
 21
110.9159256868225
 31
0
  0
LINE
  8
1
 62
2
  6
DASHDOT
 10
12
 20
166.1159256868225
 30
0
 11
12
 21
175.7159256868225
 31
0
  0
LINE
  8
1
 62
2
  6
DASHDOT
 10
7.199999999999999
 20
170.9159256868225
 30
0
 11
16.8
 21
170.9159256868225
 31
0
  0
LINE
  8
1
 62
7
 10
0
 20
100.9159256868225
 30
0
 11
0
 21
180.9159256868225
 31
0
  0
LINE
  8
1
 62
7
 10
24
 20
180.9159256868225
 30
0
 11
24
 21
100.9159256868225
 31
0
  0
ARC
  8
1
 62
7
 10
12
 20
170.9159256868225
 30
0
 40
2
 50
0
 51
90
  0
ARC
  8
1
 62
7
 10
12
 20
170.9159256868225
 30
0
 40
2
 50
270
 51
0
  0
ARC
  8
1
 62
7
 10
12
 20
170.9159256868225
 30
0
 40
2
 50
90
 51
270
  0
ARC
  8
1
 62
7
 10
12
 20
170.9159256868225
 30
0
 40
3
 50
90
 51
270
  0
ARC
  8
1
 62
7
 10
12
 20
170.9159256868225
 30
0
 40
3
 50
270
 51
0
  0
ARC
  8
1
 62
7
 10
12
 20
170.9159256868225
 30
0
 40
3
 50
0
 51
90
  0
CIRCLE
  8
1
 62
7
 10
12
 20
110.9159256868225
 30
0
 40
2
  0
CIRCLE
  8
1
 62
7
 10
12
 20
110.9159256868225
 30
0
 40
3
  0
TEXT
  8
1
 62
7
 10
-3.022780155125588
 20
202.225812542698
 30
0
 40
14
  1
(1:4)
 41
0.9
  0
DIMENSION
  8
1
  6
CONTINUOUS
 62
1
  2
*D0
  3
DMST_1
 10
-7.6245114803218
 20
80.91592568682248
 30
0
 11
-10.0245114803218
 21
79.91592568682248
 31
0
 12
0
 22
0
 32
0
 70
0
 13
0
 23
78.91592568682248
 33
0
 14
0
 24
80.91592568682248
 34
0
 50
90
 53
0
  0
DIMENSION
  8
1
  6
CONTINUOUS
 62
1
  2
*D1
  3
DMST_1
 10
-6.816696553393898
 20
180.9159256868225
 30
0
 11
-10.3960780811839
 21
141.4645304884322
 31
0
 12
0
 22
0
 32
0
 70
0
 13
0
 23
100.9159256868225
 33
0
 14
0
 24
180.9159256868225
 34
0
 50
90
 53
0
  0
DIMENSION
  8
1
  6
CONTINUOUS
 62
1
  2
*D2
  3
DMST_2
 10
36.0757566015238
 20
100.9159256868225
 30
0
 11
32.891430919244
 21
110.8102859173142
 31
0
 12
0
 22
0
 32
0
 70
0
 13
16
 23
120.9159256868225
 33
0
 14
24
 24
100.9159256868225
 34
0
 50
90
 53
0
  0
DIMENSION
  8
1
  6
CONTINUOUS
 62
1
  2
*D3
  3
DMST_2
 10
36.0750132323889
 20
120.9159256868224
 30
0
 11
32.705647618813
 21
139.9782640849841
 31
0
 12
0
 22
0
 32
0
 70
0
 13
16
 23
160.9159256868225
 33
0
 14
16
 24
120.9159256868225
 34
0
 50
90
 53
0
  0
DIMENSION
  8
1
  6
CONTINUOUS
 62
1
  2
*D4
  3
DMST_2
 10
36.0723759436514
 20
160.9159256868225
 30
0
 11
32.33408101795101
 21
170.4467253556716
 31
0
 12
0
 22
0
 32
0
 70
0
 13
24
 23
180.9159256868225
 33
0
 14
16
 24
160.9159256868225
 34
0
 50
90
 53
0
  0
DIMENSION
  8
1
  6
CONTINUOUS
 62
1
  2
*D5
  3
DMST_2
 10
16
 20
135.2184258819017
 30
0
 11
12
 21
140.8184258819017
 31
0
 12
0
 22
0
 32
0
 70
0
 13
8
 23
120.9159256868225
 33
0
 14
16
 24
120.9159256868225
 34
0
 53
0
  0
ENDBLK
  8
0
  0
BLOCK
  8
1
  2
*D6
 70
1
 10
0
 20
0
 30
0
  0
LINE
  8
1
 62
1
 10
39.7055320366133
 20
60
 30
0
 11
39.7055320366133
 21
80
 31
0
  0
LINE
  8
1
 62
1
 10
24
 20
80
 30
0
 11
40.2055320366133
 21
80
 31
0
  0
LINE
  8
1
 62
1
 10
16
 20
60
 30
0
 11
40.2055320366133
 21
60
 31
0
  0
LINE
  8
1
 62
1
 10
39.7055320366133
 20
60
 30
0
 11
39.3870320366133
 21
62.45
 31
0
  0
LINE
  8
1
 62
1
 10
39.3870320366133
 20
62.45
 30
0
 11
40.0240320366133
 21
62.45
 31
0
  0
LINE
  8
1
 62
1
 10
40.0240320366133
 20
62.45
 30
0
 11
39.7055320366133
 21
60
 31
0
  0
LINE
  8
1
 62
1
 10
39.7055320366133
 20
80
 30
0
 11
40.0240320366133
 21
77.55
 31
0
  0
LINE
  8
1
 62
1
 10
40.0240320366133
 20
77.55
 30
0
 11
39.3870320366133
 21
77.55
 31
0
  0
LINE
  8
1
 62
1
 10
39.3870320366133
 20
77.55
 30
0
 11
39.7055320366133
 21
80
 31
0
  0
TEXT
  8
1
 62
3
 10
38.7055320366133
 20
67.375
 30
0
 40
3.500000000000001
  1
20
 50
90
 41
0.9
  0
ENDBLK
  8
0
  0
BLOCK
  8
1
  2
*D7
 70
1
 10
0
 20
0
 30
0
  0
LINE
  8
1
 62
1
 10
39.7055320366133
 20
20
 30
0
 11
39.7055320366133
 21
60
 31
0
  0
LINE
  8
1
 62
1
 10
16
 20
60
 30
0
 11
40.2055320366133
 21
60
 31
0
  0
LINE
  8
1
 62
1
 10
16
 20
20
 30
0
 11
40.2055320366133
 21
20
 31
0
  0
LINE
  8
1
 62
1
 10
39.7055320366133
 20
20
 30
0
 11
39.3870320366133
 21
22.45
 31
0
  0
LINE
  8
1
 62
1
 10
39.3870320366133
 20
22.45
 30
0
 11
40.0240320366133
 21
22.45
 31
0
  0
LINE
  8
1
 62
1
 10
40.0240320366133
 20
22.45
 30
0
 11
39.7055320366133
 21
20
 31
0
  0
LINE
  8
1
 62
1
 10
39.7055320366133
 20
60
 30
0
 11
40.0240320366133
 21
57.55
 31
0
  0
LINE
  8
1
 62
1
 10
40.0240320366133
 20
57.55
 30
0
 11
39.3870320366133
 21
57.55
 31
0
  0
LINE
  8
1
 62
1
 10
39.3870320366133
 20
57.55
 30
0
 11
39.7055320366133
 21
60
 31
0
  0
TEXT
  8
1
 62
3
 10
38.7055320366133
 20
37.375
 30
0
 40
3.500000000000001
  1
40
 50
90
 41
0.9
  0
ENDBLK
  8
0
  0
BLOCK
  8
1
  2
*D8
 70
1
 10
0
 20
0
 30
0
  0
LINE
  8
1
 62
1
 10
39.8536670480549
 20
0
 30
0
 11
39.8536670480549
 21
20
 31
0
  0
LINE
  8
1
 62
1
 10
16
 20
20
 30
0
 11
40.3536670480549
 21
20
 31
0
  0
LINE
  8
1
 62
1
 10
24
 20
0
 30
0
 11
40.3536670480549
 21
0
 31
0
  0
LINE
  8
1
 62
1
 10
39.8536670480549
 20
0
 30
0
 11
39.5351670480549
 21
2.450000000000001
 31
0
  0
LINE
  8
1
 62
1
 10
39.5351670480549
 20
2.450000000000001
 30
0
 11
40.1721670480549
 21
2.450000000000001
 31
0
  0
LINE
  8
1
 62
1
 10
40.1721670480549
 20
2.450000000000001
 30
0
 11
39.8536670480549
 21
0
 31
0
  0
LINE
  8
1
 62
1
 10
39.8536670480549
 20
20
 30
0
 11
40.1721670480549
 21
17.55
 31
0
  0
LINE
  8
1
 62
1
 10
40.1721670480549
 20
17.55
 30
0
 11
39.5351670480549
 21
17.55
 31
0
  0
LINE
  8
1
 62
1
 10
39.5351670480549
 20
17.55
 30
0
 11
39.8536670480549
 21
20
 31
0
  0
TEXT
  8
1
 62
3
 10
38.8536670480549
 20
7.374999999999999
 30
0
 40
3.500000000000001
  1
20
 50
90
 41
0.9
  0
ENDBLK
  8
0
  0
BLOCK
  8
1
  2
*D9
 70
1
 10
0
 20
0
 30
0
  0
LINE
  8
1
 62
1
 10
-9.8166965533939
 20
0
 30
0
 11
-9.8166965533939
 21
80
 31
0
  0
LINE
  8
1
 62
1
 10
0
 20
80
 30
0
 11
-10.0166965533939
 21
80
 31
0
  0
LINE
  8
1
 62
1
 10
0
 20
0
 30
0
 11
-10.0166965533939
 21
0
 31
0
  0
LINE
  8
1
 62
1
 10
-9.8166965533939
 20
0
 30
0
 11
-10.1351965533939
 21
2.45
 31
0
  0
LINE
  8
1
 62
1
 10
-10.1351965533939
 20
2.45
 30
0
 11
-9.498196553393901
 21
2.45
 31
0
  0
LINE
  8
1
 62
1
 10
-9.498196553393901
 20
2.45
 30
0
 11
-9.8166965533939
 21
0
 31
0
  0
LINE
  8
1
 62
1
 10
-9.8166965533939
 20
80
 30
0
 11
-9.4981965533939
 21
77.55
 31
0
  0
LINE
  8
1
 62
1
 10
-9.4981965533939
 20
77.55
 30
0
 11
-10.1351965533939
 21
77.55
 31
0
  0
LINE
  8
1
 62
1
 10
-10.1351965533939
 20
77.55
 30
0
 11
-9.8166965533939
 21
80
 31
0
  0
TEXT
  8
1
 62
3
 10
-10.8166965533939
 20
37.375
 30
0
 40
3.5
  1
80
 50
90
 41
0.9
  0
ENDBLK
  8
0
  0
BLOCK
  8
1
  2
*D10
 70
1
 10
0
 20
0
 30
0
  0
LINE
  8
1
 62
1
 10
8
 20
37.3025001950792
 30
0
 11
16
 21
37.3025001950792
 31
0
  0
LINE
  8
1
 62
1
 10
16
 20
20
 30
0
 11
16
 21
37.8025001950792
 31
0
  0
LINE
  8
1
 62
1
 10
8
 20
20
 30
0
 11
8
 21
37.8025001950792
 31
0
  0
LINE
  8
1
 62
1
 10
8
 20
37.3025001950792
 30
0
 11
10.45
 21
37.6210001950792
 31
0
  0
LINE
  8
1
 62
1
 10
10.45
 20
37.6210001950792
 30
0
 11
10.45
 21
36.9840001950792
 31
0
  0
LINE
  8
1
 62
1
 10
10.45
 20
36.9840001950792
 30
0
 11
8
 21
37.3025001950792
 31
0
  0
LINE
  8
1
 62
1
 10
16
 20
37.3025001950792
 30
0
 11
13.55
 21
36.9840001950792
 31
0
  0
LINE
  8
1
 62
1
 10
13.55
 20
36.9840001950792
 30
0
 11
13.55
 21
37.6210001950792
 31
0
  0
LINE
  8
1
 62
1
 10
13.55
 20
37.6210001950792
 30
0
 11
16
 21
37.3025001950792
 31
0
  0
TEXT
  8
1
 62
3
 10
10.95
 20
38.3025001950792
 30
0
 40
3.500000000000001
  1
8
 41
0.9
  0
ENDBLK
  8
0
  0
BLOCK
  8
1
  2
*D11
 70
1
 10
0
 20
0
 30
0
  0
LINE
  8
1
 62
1
 10
0
 20
89.1430808068437
 30
0
 11
24
 21
89.1430808068437
 31
0
  0
LINE
  8
1
 62
1
 10
24
 20
80
 30
0
 11
24
 21
89.6430808068437
 31
0
  0
LINE
  8
1
 62
1
 10
0
 20
80
 30
0
 11
0
 21
89.6430808068437
 31
0
  0
LINE
  8
1
 62
1
 10
0
 20
89.1430808068437
 30
0
 11
2.450000000000001
 21
89.4615808068437
 31
0
  0
LINE
  8
1
 62
1
 10
2.450000000000001
 20
89.4615808068437
 30
0
 11
2.450000000000001
 21
88.8245808068437
 31
0
  0
LINE
  8
1
 62
1
 10
2.450000000000001
 20
88.8245808068437
 30
0
 11
0
 21
89.1430808068437
 31
0
  0
LINE
  8
1
 62
1
 10
24
 20
89.1430808068437
 30
0
 11
21.55
 21
88.8245808068437
 31
0
  0
LINE
  8
1
 62
1
 10
21.55
 20
88.8245808068437
 30
0
 11
21.55
 21
89.4615808068437
 31
0
  0
LINE
  8
1
 62
1
 10
21.55
 20
89.4615808068437
 30
0
 11
24
 21
89.1430808068437
 31
0
  0
TEXT
  8
1
 62
3
 10
9.375
 20
90.1430808068437
 30
0
 40
3.500000000000001
  1
24
 41
0.9
  0
ENDBLK
  8
0
  0
BLOCK
  8
1
  2
*D12
 70
1
 10
0
 20
0
 30
0
  0
LINE
  8
1
 62
1
 10
0
 20
99.04782608695599
 30
0
 11
24
 21
99.04782608695599
 31
0
  0
LINE
  8
1
 62
1
 10
24
 20
80
 30
0
 11
24
 21
99.54782608695599
 31
0
  0
LINE
  8
1
 62
1
 10
0
 20
80
 30
0
 11
0
 21
99.54782608695599
 31
0
  0
LINE
  8
1
 62
1
 10
24
 20
99.04782608695599
 30
0
 11
21.55
 21
98.72932608695599
 31
0
  0
LINE
  8
1
 62
1
 10
21.55
 20
98.72932608695599
 30
0
 11
21.55
 21
99.36632608695599
 31
0
  0
LINE
  8
1
 62
1
 10
21.55
 20
99.36632608695599
 30
0
 11
24
 21
99.04782608695599
 31
0
  0
LINE
  8
1
 62
1
 10
0
 20
99.04782608695599
 30
0
 11
2.450000000000001
 21
99.36632608695599
 31
0
  0
LINE
  8
1
 62
1
 10
2.450000000000001
 20
99.36632608695599
 30
0
 11
2.450000000000001
 21
98.72932608695599
 31
0
  0
LINE
  8
1
 62
1
 10
2.450000000000001
 20
98.72932608695599
 30
0
 11
0
 21
99.04782608695599
 31
0
  0
TEXT
  8
1
 62
3
 10
9.375
 20
100.047826086956
 30
0
 40
3.500000000000001
  1
24
 41
0.9
  0
ENDBLK
  8
0
  0
ENDSEC
  0
SECTION
  2
ENTITIES
  0
LINE
  8
1
 62
2
  6
DASHDOT
 10
16
 20
-20
 30
0
 11
16
 21
-22
 31
0
  0
LINE
  8
1
 62
2
  6
DASHDOT
 10
8
 20
-20
 30
0
 11
8
 21
-22
 31
0
  0
LINE
  8
1
 62
2
  6
DASHDOT
 10
12
 20
-17.876739213369
 30
0
 11
12
 21
-25.1831297693895
 31
0
  0
LINE
  8
1
 62
7
 10
0
 20
-20
 30
0
 11
0
 21
-22
 31
0
  0
LINE
  8
1
 62
7
 10
24
 20
-20
 30
0
 11
0
 21
-20
 31
0
  0
LINE
  8
1
 62
7
 10
24
 20
-22
 30
0
 11
24
 21
-20
 31
0
  0
LINE
  8
1
 62
7
 10
0
 20
-22
 30
0
 11
24
 21
-22
 31
0
  0
LINE
  8
1
 62
2
  6
DASHDOT
 10
12
 20
5.199999999999999
 30
0
 11
12
 21
-5.35149826019104
 31
0
  0
LINE
  8
1
 62
2
  6
DASHDOT
 10
12
 20
74.8
 30
0
 11
12
 21
86.1523453699705
 31
0
  0
LINE
  8
1
 62
2
  6
DASHDOT
 10
12
 20
65.2
 30
0
 11
12
 21
43.7056954730895
 31
0
  0
LINE
  8
1
 62
2
  6
DASHDOT
 10
12
 20
14.8
 30
0
 11
12
 21
35.3555348376375
 31
0
  0
LINE
  8
1
 62
7
 10
8
 20
20
 30
0
 11
16
 21
20
 31
0
  0
LINE
  8
1
 62
2
  6
DASHDOT
 10
12
 20
5.199999999999999
 30
0
 11
12
 21
14.8
 31
0
  0
LINE
  8
1
 62
2
  6
DASHDOT
 10
7.199999999999999
 20
10
 30
0
 11
16.8
 21
10
 31
0
  0
LINE
  8
1
 62
2
  6
DASHDOT
 10
12
 20
65.2
 30
0
 11
12
 21
74.8
 31
0
  0
LINE
  8
1
 62
2
  6
DASHDOT
 10
7.199999999999999
 20
70
 30
0
 11
16.8
 21
70
 31
0
  0
LINE
  8
1
 62
7
 10
8
 20
20
 30
0
 11
8
 21
60
 31
0
  0
LINE
  8
1
 62
7
 10
16
 20
60
 30
0
 11
16
 21
20
 31
0
  0
LINE
  8
1
 62
7
 10
8
 20
60
 30
0
 11
16
 21
60
 31
0
  0
LINE
  8
1
 62
7
 10
0
 20
0
 30
0
 11
0
 21
80
 31
0
  0
LINE
  8
1
 62
7
 10
24
 20
0
 30
0
 11
0
 21
0
 31
0
  0
LINE
  8
1
 62
7
 10
24
 20
80
 30
0
 11
24
 21
0
 31
0
  0
LINE
  8
1
 62
7
 10
0
 20
80
 30
0
 11
24
 21
80
 31
0
  0
ARC
  8
1
 62
7
 10
12
 20
70
 30
0
 40
2
 50
0
 51
90
  0
ARC
  8
1
 62
7
 10
12
 20
70
 30
0
 40
2
 50
270
 51
0
  0
ARC
  8
1
 62
7
 10
12
 20
70
 30
0
 40
2
 50
90
 51
270
  0
ARC
  8
1
 62
7
 10
12
 20
70
 30
0
 40
3
 50
90
 51
270
  0
ARC
  8
1
 62
7
 10
12
 20
70
 30
0
 40
3
 50
270
 51
0
  0
ARC
  8
1
 62
7
 10
12
 20
70
 30
0
 40
3
 50
0
 51
90
  0
CIRCLE
  8
1
 62
7
 10
12
 20
10
 30
0
 40
2
  0
CIRCLE
  8
1
 62
7
 10
12
 20
10
 30
0
 40
3
  0
TEXT
  8
1
 62
7
 10
47.6240446938226
 20
-14.7454289750745
 30
0
 40
3.5
  1
0-B-2305E
 41
0.9
  0
DIMENSION
  8
1
  6
CONTINUOUS
 62
1
  2
*D6
  3
DMST_3
 10
39.7055320366133
 20
80
 30
0
 11
36.9555320366133
 21
70
 31
0
 12
0
 22
0
 32
0
 70
0
 13
16
 23
60
 33
0
 14
24
 24
80
 34
0
 50
90
 53
0
  0
DIMENSION
  8
1
  6
CONTINUOUS
 62
1
  2
*D7
  3
DMST_3
 10
39.7055320366133
 20
60
 30
0
 11
36.9555320366133
 21
40
 31
0
 12
0
 22
0
 32
0
 70
0
 13
16
 23
20
 33
0
 14
16
 24
60
 34
0
 50
90
 53
0
  0
DIMENSION
  8
1
  6
CONTINUOUS
 62
1
  2
*D8
  3
DMST_3
 10
39.8536670480549
 20
20
 30
0
 11
37.1036670480549
 21
10
 31
0
 12
0
 22
0
 32
0
 70
0
 13
24
 23
0
 33
0
 14
16
 24
20
 34
0
 50
90
 53
0
  0
DIMENSION
  8
1
  6
CONTINUOUS
 62
1
  2
*D9
  3
DMST_4
 10
-9.8166965533939
 20
80
 30
0
 11
-12.5666965533939
 21
40
 31
0
 12
0
 22
0
 32
0
 70
0
 13
0
 23
0
 33
0
 14
0
 24
80
 34
0
 50
90
 53
0
  0
DIMENSION
  8
1
  6
CONTINUOUS
 62
1
  2
*D10
  3
DMST_3
 10
16
 20
37.3025001950792
 30
0
 11
12
 21
40.0525001950792
 31
0
 12
0
 22
0
 32
0
 70
0
 13
8
 23
20
 33
0
 14
16
 24
20
 34
0
 53
0
  0
DIMENSION
  8
1
  6
CONTINUOUS
 62
1
  2
*D11
  3
DMST_3
 10
24
 20
89.1430808068437
 30
0
 11
12
 21
91.8930808068437
 31
0
 12
0
 22
0
 32
0
 70
0
 13
0
 23
80
 33
0
 14
24
 24
80
 34
0
 53
0
  0
DIMENSION
  8
1
  6
CONTINUOUS
 62
1
  2
*D12
  3
DMST_3
 10
24
 20
99.04782608695599
 30
0
 11
12
 21
101.797826086956
 31
0
 12
0
 22
0
 32
0
 70
0
 13
0
 23
80
 33
0
 14
24
 24
80
 34
0
 53
0
  0
INSERT
  8
0
  2
KLEINER
 10
6.000980479704025
 20
-66.41036949072902
 30
0
 41
0.25
 42
0.25
 43
0.25
  0
ENDSEC
  0
EOF
