  0
SECTION
  2
HEADER
  9
$ACADVER
  1
AC1009
  9
$INSBASE
 10
0
 20
0
  9
$EXTMIN
 10
16.5
 20
-43.62947916194017
  9
$EXTMAX
 10
190
 20
248.3742088206886
  9
$LIMMIN
 10
16.5
 20
-43.62947916194017
  9
$LIMMAX
 10
190
 20
248.3742088206886
  9
$VIEWCTR
 10
10
 20
10
  9
$VIEWSIZE
 40
10
  9
$SNAPMODE
 70
0
  9
$SNAPUNIT
 10
1
 20
1
  9
$SNAPBASE
 10
0
 20
0
  9
$SNAPANG
 50
0
  9
$SNAPSTYLE
 70
0
  9
$SNAPISOPAIR
 70
0
  9
$GRIDMODE
 70
0
  9
$GRIDUNIT
 10
0
 20
0
  9
$ORTHOMODE
 70
0
  9
$REGENMODE
 70
1
  9
$FILLMODE
 70
1
  9
$QTEXTMODE
 70
0
  9
$DRAGMODE
 70
2
  9
$LTSCALE
 40
1
  9
$OSMODE
 70
0
  9
$ATTMODE
 70
1
  9
$TEXTSIZE
 40
3.5
  9
$TRACEWID
 40
0.5
  9
$TEXTSTYLE
  7
STANDARD
  9
$CLAYER
  8
0
  9
$CELTYPE
  6
BYLAYER
  9
$CECOLOR
 62
256
  9
$DIMSCALE
 40
1
  9
$DIMASZ
 40
0.18
  9
$DIMEXO
 40
0.0625
  9
$DIMDLI
 40
0.38
  9
$DIMRND
 40
0
  9
$DIMDLE
 40
0
  9
$DIMEXE
 40
0.18
  9
$DIMTP
 40
0
  9
$DIMTM
 40
0
  9
$DIMTXT
 40
0.18
  9
$DIMCEN
 40
0.09
  9
$DIMTSZ
 40
0
  9
$DIMTOL
 70
0
  9
$DIMLIM
 70
0
  9
$DIMTIH
 70
1
  9
$DIMTOH
 70
1
  9
$DIMSE1
 70
0
  9
$DIMSE2
 70
0
  9
$DIMTAD
 70
0
  9
$DIMZIN
 70
0
  9
$DIMBLK
  1

  9
$DIMASO
 70
1
  9
$DIMSHO
 70
1
  9
$DIMPOST
  1

  9
$DIMAPOST
  1

  9
$DIMALT
 70
0
  9
$DIMALTD
 70
2
  9
$DIMALTF
 40
25.4
  9
$DIMLFAC
 40
1
  9
$DIMTOFL
 70
0
  9
$DIMTVP
 40
0
  9
$DIMTIX
 70
0
  9
$DIMSOXD
 70
0
  9
$DIMSAH
 70
0
  9
$DIMBLK1
  1

  9
$DIMBLK2
  1

  9
$DIMSTYLE
  2
*UNNAMED
  9
$DIMCLRD
 70
0
  9
$DIMCLRE
 70
0
  9
$DIMCLRT
 70
0
  9
$DIMTFAC
 40
1
  9
$DIMGAP
 40
0.09
  9
$LUNITS
 70
2
  9
$LUPREC
 70
4
  9
$AXISMODE
 70
0
  9
$AXISUNIT
 10
0
 20
0
  9
$SKETCHINC
 40
0.1
  9
$FILLETRAD
 40
2
  9
$AUNITS
 70
0
  9
$AUPREC
 70
0
  9
$MENU
  1
ACAD
  9
$ELEVATION
 40
0
  9
$THICKNESS
 40
0
  9
$VIEWDIR
 10
0
 20
0
 30
1
  9
$LIMCHECK
 70
0
  9
$BLIPMODE
 70
1
  9
$CHAMFERA
 40
0
  9
$CHAMFERB
 40
0
  9
$FASTZOOM
 70
1
  9
$SKPOLY
 70
0
  9
$ANGBASE
 50
0
  9
$ANGDIR
 70
0
  9
$PDMODE
 70
0
  9
$PDSIZE
 40
0
  9
$PLINEWID
 40
0
  9
$COORDS
 70
2
  0
ENDSEC
  0
SECTION
  2
TABLES
  0
TABLE
  2
DIMSTYLE
 70
3
  0
DIMSTYLE
  2
DMST_1
 70
0
  3

  4

  5

  6

  7

 40
1
 41
5
 42
0
 43
7
 44
1.5
 45
0
 46
0
 47
0
 48
0
140
5
141
0
142
0
143
25.4
144
1
145
0
146
1
147
0.09
 71
0
 72
0
 73
0
 74
0
 75
0
 76
0
 77
1
 78
1
170
0
171
2
172
0
173
0
174
0
175
0
176
1
177
1
178
7
  0
DIMSTYLE
  2
DMST_2
 70
0
  3

  4

  5

  6

  7

 40
1
 41
5
 42
0
 43
7
 44
2
 45
0
 46
0
 47
0
 48
0
140
5
141
0
142
0
143
25.4
144
1
145
0
146
1
147
0.09
 71
0
 72
0
 73
0
 74
0
 75
0
 76
0
 77
1
 78
9
170
0
171
2
172
0
173
0
174
0
175
0
176
1
177
1
178
7
  0
DIMSTYLE
  2
DMST_3
 70
0
  3
x90%%d
  4

  5

  6

  7

 40
1
 41
5
 42
0
 43
7
 44
2
 45
0
 46
0
 47
0
 48
0
140
5
141
0
142
0
143
25.4
144
1
145
0
146
1
147
0.09
 71
0
 72
0
 73
0
 74
0
 75
0
 76
0
 77
1
 78
9
170
0
171
2
172
0
173
0
174
0
175
0
176
1
177
1
178
7
  0
ENDTAB
  0
TABLE
  2
LTYPE
 70
9
  0
LTYPE
  2
CONTINUOUS
 70
64
  3
Solid line
 72
65
 73
0
 40
0
  0
LTYPE
  2
BORDER
 70
64
  3
__ __ . __ __ .
 72
65
 73
6
 40
13.4475382623579
 49
3.842153789245116
 49
-1.921076894622558
 49
3.842153789245116
 49
-1.921076894622558
 49
0
 49
-1.921076894622558
  0
LTYPE
  2
CENTER
 70
64
  3
____ _ ____ _
 72
65
 73
4
 40
15.36861515698046
 49
9.605384473112789
 49
-1.921076894622558
 49
1.921076894622558
 49
-1.921076894622558
  0
LTYPE
  2
DASHDOT
 70
64
  3
__ . __ . __ .
 72
65
 73
4
 40
7.684307578490231
 49
3.842153789245116
 49
-1.921076894622558
 49
0
 49
-1.921076894622558
  0
LTYPE
  2
DASHED
 70
64
  3
__ __ __ __ __
 72
65
 73
2
 40
5.763230683867674
 49
3.842153789245116
 49
-1.921076894622558
  0
LTYPE
  2
DIVIDE
 70
64
  3
__ . . __ . . 
 72
65
 73
6
 40
9.605384473112789
 49
3.842153789245116
 49
-1.921076894622558
 49
0
 49
-1.921076894622558
 49
0
 49
-1.921076894622558
  0
LTYPE
  2
DOT
 70
64
  3
..............
 72
65
 73
4
 40
3.842153789245116
 49
0
 49
-1.921076894622558
 49
0
 49
-1.921076894622558
  0
LTYPE
  2
HIDDEN
 70
64
  3
_ _ _ _ _ _ _
 72
65
 73
2
 40
2.881615341933837
 49
1.921076894622558
 49
-0.9605384473112789
  0
LTYPE
  2
PHANTOM
 70
64
  3
_____ _ _ _____ _ _ 
 72
65
 73
6
 40
19.21076894622558
 49
9.605384473112789
 49
-1.921076894622558
 49
1.921076894622558
 49
-1.921076894622558
 49
1.921076894622558
 49
-1.921076894622558
  0
ENDTAB
  0
TABLE
  2
LAYER
 70
3
  0
LAYER
  2
1
 70
0
 62
7
  6
CONTINUOUS
  0
LAYER
  2
0
 70
0
 62
7
  6
CONTINUOUS
  0
ENDTAB
  0
TABLE
  2
STYLE
 70
4
  0
STYLE
  2
STANDARD
 70
0
 40
0
 41
1
 50
0
 71
0
 42
3.5
  3
txt
  4

  0
STYLE
  2
SIMPLEX
 70
0
 40
0
 41
1
 50
0
 71
0
 42
3.5
  3
simplex
  4

  0
STYLE
  2
COMPLEX
 70
0
 40
0
 41
1
 50
0
 71
0
 42
3.5
  3
complex
  4

  0
STYLE
  2
ITALIC
 70
0
 40
0
 41
1
 50
0
 71
0
 42
3.5
  3
italic
  4

  0
ENDTAB
  0
TABLE
  2
VIEW
 70
0
  0
ENDTAB
  0
ENDSEC
  0
SECTION
  2
BLOCKS
  0
BLOCK
  8
1
  2
*X0
 70
1
 10
0
 20
0
 30
0
  0
LINE
  8
1
 62
1
 10
118.906843679226
 20
32.11538461539999
 30
0
 11
118.9068436792261
 21
32.5
 31
0
  0
LINE
  8
1
 62
1
 10
119.006843679226
 20
31.34615384616921
 30
0
 11
119.0068436792261
 21
32.5
 31
0
  0
LINE
  8
1
 62
1
 10
119.106843679226
 20
30.57692307693843
 30
0
 11
119.1068436792261
 21
32.5
 31
0
  0
LINE
  8
1
 62
1
 10
119.206843679226
 20
29.80769230770765
 30
0
 11
119.2068436792261
 21
32.5
 31
0
  0
LINE
  8
1
 62
1
 10
119.306843679226
 20
29.03846153847687
 30
0
 11
119.3068436792261
 21
32.5
 31
0
  0
LINE
  8
1
 62
1
 10
119.406843679226
 20
28.26923076924609
 30
0
 11
119.4068436792261
 21
32.5
 31
0
  0
LINE
  8
1
 62
1
 10
119.506843679226
 20
27.50000000001531
 30
0
 11
119.5068436792261
 21
32.5
 31
0
  0
LINE
  8
1
 62
1
 10
119.6068436792261
 20
28.26923076921552
 30
0
 11
119.6068436792261
 21
32.5
 31
0
  0
LINE
  8
1
 62
1
 10
119.706843679226
 20
29.03846153844629
 30
0
 11
119.706843679226
 21
32.5
 31
0
  0
LINE
  8
1
 62
1
 10
119.806843679226
 20
29.80769230767705
 30
0
 11
119.806843679226
 21
32.5
 31
0
  0
LINE
  8
1
 62
1
 10
119.906843679226
 20
30.57692307690781
 30
0
 11
119.906843679226
 21
32.5
 31
0
  0
LINE
  8
1
 62
1
 10
120.006843679226
 20
31.34615384613857
 30
0
 11
120.006843679226
 21
32.5
 31
0
  0
LINE
  8
1
 62
1
 10
120.106843679226
 20
32.11538461536934
 30
0
 11
120.106843679226
 21
32.5
 31
0
  0
ENDBLK
  8
0
  0
BLOCK
  8
1
  2
*X1
 70
1
 10
0
 20
0
 30
0
  0
LINE
  8
1
 62
1
 10
118.906843679226
 20
108.1153846154
 30
0
 11
118.9068436792261
 21
108.5
 31
0
  0
LINE
  8
1
 62
1
 10
119.006843679226
 20
107.3461538461692
 30
0
 11
119.0068436792261
 21
108.5
 31
0
  0
LINE
  8
1
 62
1
 10
119.106843679226
 20
106.5769230769384
 30
0
 11
119.1068436792261
 21
108.5
 31
0
  0
LINE
  8
1
 62
1
 10
119.206843679226
 20
105.8076923077076
 30
0
 11
119.2068436792261
 21
108.5
 31
0
  0
LINE
  8
1
 62
1
 10
119.306843679226
 20
105.0384615384769
 30
0
 11
119.3068436792261
 21
108.5
 31
0
  0
LINE
  8
1
 62
1
 10
119.406843679226
 20
104.2692307692461
 30
0
 11
119.4068436792261
 21
108.5
 31
0
  0
LINE
  8
1
 62
1
 10
119.506843679226
 20
103.5000000000153
 30
0
 11
119.5068436792261
 21
108.5
 31
0
  0
LINE
  8
1
 62
1
 10
119.6068436792261
 20
104.2692307692155
 30
0
 11
119.6068436792261
 21
108.5
 31
0
  0
LINE
  8
1
 62
1
 10
119.706843679226
 20
105.0384615384463
 30
0
 11
119.706843679226
 21
108.5
 31
0
  0
LINE
  8
1
 62
1
 10
119.806843679226
 20
105.8076923076771
 30
0
 11
119.806843679226
 21
108.5
 31
0
  0
LINE
  8
1
 62
1
 10
119.906843679226
 20
106.5769230769078
 30
0
 11
119.906843679226
 21
108.5
 31
0
  0
LINE
  8
1
 62
1
 10
120.006843679226
 20
107.3461538461386
 30
0
 11
120.006843679226
 21
108.5
 31
0
  0
LINE
  8
1
 62
1
 10
120.106843679226
 20
108.1153846153693
 30
0
 11
120.106843679226
 21
108.5
 31
0
  0
ENDBLK
  8
0
  0
BLOCK
  8
1
  2
*X2
 70
1
 10
0
 20
0
 30
0
  0
LINE
  8
1
 62
1
 10
118.9068436792261
 20
156.5
 30
0
 11
118.906843679226
 21
156.8846153846001
 31
0
  0
LINE
  8
1
 62
1
 10
119.0068436792261
 20
156.5
 30
0
 11
119.006843679226
 21
157.6538461538308
 31
0
  0
LINE
  8
1
 62
1
 10
119.1068436792261
 20
156.5
 30
0
 11
119.106843679226
 21
158.4230769230616
 31
0
  0
LINE
  8
1
 62
1
 10
119.2068436792261
 20
156.5
 30
0
 11
119.206843679226
 21
159.1923076922924
 31
0
  0
LINE
  8
1
 62
1
 10
119.3068436792261
 20
156.5
 30
0
 11
119.306843679226
 21
159.9615384615232
 31
0
  0
LINE
  8
1
 62
1
 10
119.4068436792261
 20
156.5
 30
0
 11
119.406843679226
 21
160.7307692307539
 31
0
  0
LINE
  8
1
 62
1
 10
119.5068436792261
 20
156.5
 30
0
 11
119.506843679226
 21
161.4999999999847
 31
0
  0
LINE
  8
1
 62
1
 10
119.6068436792261
 20
156.5
 30
0
 11
119.6068436792261
 21
160.7307692307846
 31
0
  0
LINE
  8
1
 62
1
 10
119.706843679226
 20
156.5
 30
0
 11
119.706843679226
 21
159.9615384615538
 31
0
  0
LINE
  8
1
 62
1
 10
119.806843679226
 20
156.5
 30
0
 11
119.806843679226
 21
159.192307692323
 31
0
  0
LINE
  8
1
 62
1
 10
119.906843679226
 20
156.5
 30
0
 11
119.906843679226
 21
158.4230769230922
 31
0
  0
LINE
  8
1
 62
1
 10
120.006843679226
 20
156.5
 30
0
 11
120.006843679226
 21
157.6538461538615
 31
0
  0
LINE
  8
1
 62
1
 10
120.106843679226
 20
156.5
 30
0
 11
120.106843679226
 21
156.8846153846307
 31
0
  0
ENDBLK
  8
0
  0
BLOCK
  8
1
  2
*X3
 70
1
 10
0
 20
0
 30
0
  0
LINE
  8
1
 62
1
 10
118.9068436792261
 20
98.5
 30
0
 11
118.906843679226
 21
98.88461538460005
 31
0
  0
LINE
  8
1
 62
1
 10
119.0068436792261
 20
98.5
 30
0
 11
119.006843679226
 21
99.65384615383083
 31
0
  0
LINE
  8
1
 62
1
 10
119.1068436792261
 20
98.5
 30
0
 11
119.106843679226
 21
100.4230769230616
 31
0
  0
LINE
  8
1
 62
1
 10
119.2068436792261
 20
98.5
 30
0
 11
119.206843679226
 21
101.1923076922924
 31
0
  0
LINE
  8
1
 62
1
 10
119.3068436792261
 20
98.5
 30
0
 11
119.306843679226
 21
101.9615384615232
 31
0
  0
LINE
  8
1
 62
1
 10
119.4068436792261
 20
98.5
 30
0
 11
119.406843679226
 21
102.7307692307539
 31
0
  0
LINE
  8
1
 62
1
 10
119.5068436792261
 20
98.5
 30
0
 11
119.506843679226
 21
103.4999999999847
 31
0
  0
LINE
  8
1
 62
1
 10
119.6068436792261
 20
98.5
 30
0
 11
119.6068436792261
 21
102.7307692307845
 31
0
  0
LINE
  8
1
 62
1
 10
119.706843679226
 20
98.5
 30
0
 11
119.706843679226
 21
101.9615384615537
 31
0
  0
LINE
  8
1
 62
1
 10
119.806843679226
 20
98.5
 30
0
 11
119.806843679226
 21
101.1923076923229
 31
0
  0
LINE
  8
1
 62
1
 10
119.906843679226
 20
98.5
 30
0
 11
119.906843679226
 21
100.4230769230922
 31
0
  0
LINE
  8
1
 62
1
 10
120.006843679226
 20
98.5
 30
0
 11
120.006843679226
 21
99.65384615386142
 31
0
  0
LINE
  8
1
 62
1
 10
120.106843679226
 20
98.5
 30
0
 11
120.106843679226
 21
98.88461538463066
 31
0
  0
ENDBLK
  8
0
  0
BLOCK
  8
1
  2
*D0
 70
1
 10
0
 20
0
 30
0
  0
LINE
  8
1
 62
1
 10
21.59
 20
27.5
 30
0
 11
21.59
 21
227.5
 31
0
  0
LINE
  8
1
 62
1
 10
49
 20
227.5
 30
0
 11
21.59
 21
227.5
 31
0
  0
LINE
  8
1
 62
1
 10
49
 20
27.5
 30
0
 11
21.59
 21
27.5
 31
0
  0
SOLID
  8
1
 62
1
 10
21.59
 20
27.5
 30
0
 11
20.94
 21
32.5
 31
0
 12
22.24
 22
32.5
 32
0
 13
22.24
 23
32.5
 33
0
  0
SOLID
  8
1
 62
1
 10
21.59
 20
227.5
 30
0
 11
22.24
 21
222.5
 31
0
 12
20.94
 22
222.5
 32
0
 13
20.94
 23
222.5
 33
0
  0
TEXT
  8
1
 62
7
 10
21.5
 20
121.6194
 30
0
 40
5
  1
200
 50
90
 41
0.88209
  0
ENDBLK
  8
0
  0
BLOCK
  8
1
  2
*D1
 70
1
 10
0
 20
0
 30
0
  0
LINE
  8
1
 62
1
 10
57
 20
13.5516122644286
 30
0
 11
67
 21
13.5516122644286
 31
0
  0
LINE
  8
1
 62
1
 10
49
 20
13.5516122644286
 30
0
 11
39
 21
13.5516122644286
 31
0
  0
LINE
  8
1
 62
1
 10
49
 20
13.5516122644286
 30
0
 11
57
 21
13.5516122644286
 31
0
  0
LINE
  8
1
 62
1
 10
57
 20
30.3
 30
0
 11
57
 21
11.5516122644286
 31
0
  0
LINE
  8
1
 62
1
 10
49
 20
27.5
 30
0
 11
49
 21
11.5516122644286
 31
0
  0
SOLID
  8
1
 62
1
 10
57
 20
13.5516122644286
 30
0
 11
62
 21
14.2016122644286
 31
0
 12
62
 22
12.9016122644286
 32
0
 13
62
 23
12.9016122644286
 33
0
  0
SOLID
  8
1
 62
1
 10
49
 20
13.5516122644286
 30
0
 11
44
 21
12.9016122644286
 31
0
 12
44
 22
14.2016122644286
 32
0
 13
44
 23
14.2016122644286
 33
0
  0
TEXT
  8
1
 62
7
 10
51.5
 20
15.5516122644286
 30
0
 40
5
  1
8
 41
0.9
  0
ENDBLK
  8
0
  0
BLOCK
  8
1
  2
*D2
 70
1
 10
0
 20
0
 30
0
  0
LINE
  8
1
 62
1
 10
57
 20
13.5516122644286
 30
0
 11
91
 21
13.5516122644286
 31
0
  0
LINE
  8
1
 62
1
 10
91
 20
30.3
 30
0
 11
91
 21
11.5516122644286
 31
0
  0
LINE
  8
1
 62
1
 10
57
 20
30.3
 30
0
 11
57
 21
11.5516122644286
 31
0
  0
SOLID
  8
1
 62
1
 10
57
 20
13.5516122644286
 30
0
 11
62
 21
14.2016122644286
 31
0
 12
62
 22
12.9016122644286
 32
0
 13
62
 23
12.9016122644286
 33
0
  0
SOLID
  8
1
 62
1
 10
91
 20
13.5516122644286
 30
0
 11
86
 21
12.9016122644286
 31
0
 12
86
 22
14.2016122644286
 32
0
 13
86
 23
14.2016122644286
 33
0
  0
TEXT
  8
1
 62
7
 10
70.25
 20
15.5516122644286
 30
0
 40
5
  1
34
 41
0.9
  0
ENDBLK
  8
0
  0
BLOCK
  8
1
  2
*D3
 70
1
 10
0
 20
0
 30
0
  0
LINE
  8
1
 62
1
 10
99
 20
13.5516122644286
 30
0
 11
109
 21
13.5516122644286
 31
0
  0
LINE
  8
1
 62
1
 10
91
 20
13.5516122644286
 30
0
 11
99
 21
13.5516122644286
 31
0
  0
LINE
  8
1
 62
1
 10
81
 20
13.5516122644286
 30
0
 11
91
 21
13.5516122644286
 31
0
  0
LINE
  8
1
 62
1
 10
99
 20
27.5
 30
0
 11
99
 21
11.5516122644286
 31
0
  0
LINE
  8
1
 62
1
 10
91
 20
30.3
 30
0
 11
91
 21
11.5516122644286
 31
0
  0
SOLID
  8
1
 62
1
 10
91
 20
13.5516122644286
 30
0
 11
86
 21
12.9016122644286
 31
0
 12
86
 22
14.2016122644286
 32
0
 13
86
 23
14.2016122644286
 33
0
  0
SOLID
  8
1
 62
1
 10
99
 20
13.5516122644286
 30
0
 11
104
 21
14.2016122644286
 31
0
 12
104
 22
12.9016122644286
 32
0
 13
104
 23
12.9016122644286
 33
0
  0
TEXT
  8
1
 62
7
 10
103.728751545503
 20
15.5516122644286
 30
0
 40
5
  1
8
 41
0.9
  0
ENDBLK
  8
0
  0
BLOCK
  8
1
  2
*D4
 70
1
 10
0
 20
0
 30
0
  0
LINE
  8
1
 62
1
 10
49
 20
1.47694877986493
 30
0
 11
99
 21
1.47694877986493
 31
0
  0
LINE
  8
1
 62
1
 10
99
 20
27.5
 30
0
 11
99
 21
-0.5230512201350699
 31
0
  0
LINE
  8
1
 62
1
 10
49
 20
27.5
 30
0
 11
49
 21
-0.5230512201350699
 31
0
  0
SOLID
  8
1
 62
1
 10
49
 20
1.47694877986493
 30
0
 11
54
 21
2.126948779864931
 31
0
 12
54
 22
0.82694877986493
 32
0
 13
54
 23
0.82694877986493
 33
0
  0
SOLID
  8
1
 62
1
 10
99
 20
1.47694877986493
 30
0
 11
94
 21
0.8269487798649311
 31
0
 12
94
 22
2.126948779864931
 32
0
 13
94
 23
2.126948779864931
 33
0
  0
TEXT
  8
1
 62
7
 10
70.25
 20
3.47694877986493
 30
0
 40
5
  1
50
 41
0.9
  0
ENDBLK
  8
0
  0
BLOCK
  8
1
  2
*D5
 70
1
 10
0
 20
0
 30
0
  0
LINE
  8
1
 62
1
 10
89
 20
238.043012555632
 30
0
 11
79
 21
238.043012555632
 31
0
  0
LINE
  8
1
 62
1
 10
89
 20
238.043012555632
 30
0
 11
93
 21
238.043012555632
 31
0
  0
LINE
  8
1
 62
1
 10
103
 20
238.043012555632
 30
0
 11
93
 21
238.043012555632
 31
0
  0
LINE
  8
1
 62
1
 10
93
 20
219.5
 30
0
 11
93
 21
240.043012555632
 31
0
  0
LINE
  8
1
 62
1
 10
89
 20
219.5
 30
0
 11
89
 21
240.043012555632
 31
0
  0
SOLID
  8
1
 62
1
 10
89
 20
238.043012555632
 30
0
 11
84
 21
237.393012555632
 31
0
 12
84
 22
238.693012555632
 32
0
 13
84
 23
238.693012555632
 33
0
  0
SOLID
  8
1
 62
1
 10
93
 20
238.043012555632
 30
0
 11
98
 21
238.693012555632
 31
0
 12
98
 22
237.393012555632
 32
0
 13
98
 23
237.393012555632
 33
0
  0
TEXT
  8
1
 62
7
 10
80.1890045582893
 20
240.043012555632
 30
0
 40
5
  1
4
 41
0.9
  0
ENDBLK
  8
0
  0
BLOCK
  8
1
  2
*D6
 70
1
 10
0
 20
0
 30
0
  0
LINE
  8
1
 62
1
 10
35.5309532252284
 20
35.5
 30
0
 11
35.5309532252284
 21
219.5
 31
0
  0
LINE
  8
1
 62
1
 10
47.3
 20
219.5
 30
0
 11
33.5309532252284
 21
219.5
 31
0
  0
LINE
  8
1
 62
1
 10
51.8
 20
35.5
 30
0
 11
33.5309532252284
 21
35.5
 31
0
  0
SOLID
  8
1
 62
1
 10
35.5309532252284
 20
219.5
 30
0
 11
36.1809532252284
 21
214.5
 31
0
 12
34.8809532252284
 22
214.5
 32
0
 13
34.8809532252284
 23
214.5
 33
0
  0
SOLID
  8
1
 62
1
 10
35.5309532252284
 20
35.5
 30
0
 11
34.8809532252284
 21
40.5
 31
0
 12
36.1809532252284
 22
40.5
 32
0
 13
36.1809532252284
 23
40.5
 33
0
  0
TEXT
  8
1
 62
7
 10
33.5309532252284
 20
122.450860940596
 30
0
 40
5
  1
184
 50
90
 41
0.9
  0
ENDBLK
  8
0
  0
BLOCK
  8
1
  2
*D7
 70
1
 10
0
 20
0
 30
0
  0
LINE
  8
1
 62
1
 10
35.5309532252284
 20
227.5
 30
0
 11
35.5309532252284
 21
238.794784361471
 31
0
  0
LINE
  8
1
 62
1
 10
35.5309532252284
 20
219.5
 30
0
 11
35.5309532252284
 21
227.5
 31
0
  0
LINE
  8
1
 62
1
 10
35.5309532252284
 20
209.5
 30
0
 11
35.5309532252284
 21
219.5
 31
0
  0
LINE
  8
1
 62
1
 10
49
 20
227.5
 30
0
 11
33.5309532252284
 21
227.5
 31
0
  0
LINE
  8
1
 62
1
 10
47.3
 20
219.5
 30
0
 11
33.5309532252284
 21
219.5
 31
0
  0
SOLID
  8
1
 62
1
 10
35.5309532252284
 20
219.5
 30
0
 11
36.1809532252284
 21
214.5
 31
0
 12
34.8809532252284
 22
214.5
 32
0
 13
34.8809532252284
 23
214.5
 33
0
  0
SOLID
  8
1
 62
1
 10
35.5309532252284
 20
227.5
 30
0
 11
34.8809532252284
 21
232.5
 31
0
 12
36.1809532252284
 22
232.5
 32
0
 13
36.1809532252284
 23
232.5
 33
0
  0
TEXT
  8
1
 62
7
 10
33.5309532252284
 20
235.794784361471
 30
0
 40
5
  1
8
 50
90
 41
0.9
  0
ENDBLK
  8
0
  0
BLOCK
  8
1
  2
*D8
 70
1
 10
0
 20
0
 30
0
  0
LINE
  8
1
 62
1
 10
35.5309532252284
 20
27.5
 30
0
 11
35.5309532252284
 21
17.5
 31
0
  0
LINE
  8
1
 62
1
 10
35.5309532252284
 20
27.5
 30
0
 11
35.5309532252284
 21
35.5
 31
0
  0
LINE
  8
1
 62
1
 10
35.5309532252284
 20
45.5
 30
0
 11
35.5309532252284
 21
35.5
 31
0
  0
LINE
  8
1
 62
1
 10
51.8
 20
35.5
 30
0
 11
33.5309532252284
 21
35.5
 31
0
  0
LINE
  8
1
 62
1
 10
49
 20
27.5
 30
0
 11
33.5309532252284
 21
27.5
 31
0
  0
SOLID
  8
1
 62
1
 10
35.5309532252284
 20
35.5
 30
0
 11
34.8809532252284
 21
40.5
 31
0
 12
36.1809532252284
 22
40.5
 32
0
 13
36.1809532252284
 23
40.5
 33
0
  0
SOLID
  8
1
 62
1
 10
35.5309532252284
 20
27.5
 30
0
 11
36.1809532252284
 21
22.5
 31
0
 12
34.8809532252284
 22
22.5
 32
0
 13
34.8809532252284
 23
22.5
 33
0
  0
TEXT
  8
1
 62
7
 10
33.5309532252284
 20
19.6596930467645
 30
0
 40
5
  1
8
 50
90
 41
0.9
  0
ENDBLK
  8
0
  0
BLOCK
  8
1
  2
*D9
 70
1
 10
0
 20
0
 30
0
  0
LINE
  8
1
 62
1
 10
62.75
 20
122.620195840641
 30
0
 11
85.25
 21
122.620195840641
 31
0
  0
LINE
  8
1
 62
1
 10
85.25
 20
103.5
 30
0
 11
85.25
 21
124.620195840641
 31
0
  0
LINE
  8
1
 62
1
 10
62.75
 20
103.5
 30
0
 11
62.75
 21
124.620195840641
 31
0
  0
SOLID
  8
1
 62
1
 10
85.25
 20
122.620195840641
 30
0
 11
80.25
 21
121.970195840641
 31
0
 12
80.25
 22
123.270195840641
 32
0
 13
80.25
 23
123.270195840641
 33
0
  0
SOLID
  8
1
 62
1
 10
62.75
 20
122.620195840641
 30
0
 11
67.75
 21
123.270195840641
 31
0
 12
67.75
 22
121.970195840641
 32
0
 13
67.75
 23
121.970195840641
 33
0
  0
TEXT
  8
1
 62
7
 10
67.125
 20
125.120195840641
 30
0
 40
5
  1
22,5
 41
0.9
  0
ENDBLK
  8
0
  0
BLOCK
  8
1
  2
*D10
 70
1
 10
0
 20
0
 30
0
  0
LINE
  8
1
 62
1
 10
119.508161974239
 20
161.5
 30
0
 11
119.508161974239
 21
227.5
 31
0
  0
LINE
  8
1
 62
1
 10
86.62338012958961
 20
161.5
 30
0
 11
121.508161974239
 21
161.5
 31
0
  0
LINE
  8
1
 62
1
 10
99
 20
227.5
 30
0
 11
121.508161974239
 21
227.5
 31
0
  0
SOLID
  8
1
 62
1
 10
119.508161974239
 20
161.5
 30
0
 11
118.858161974239
 21
166.5
 31
0
 12
120.158161974239
 22
166.5
 32
0
 13
120.158161974239
 23
166.5
 33
0
  0
SOLID
  8
1
 62
1
 10
119.508161974239
 20
227.5
 30
0
 11
120.158161974239
 21
222.5
 31
0
 12
118.858161974239
 22
222.5
 32
0
 13
118.858161974239
 23
222.5
 33
0
  0
TEXT
  8
1
 62
7
 10
117.508161974239
 20
190.75
 30
0
 40
5
  1
66
 50
90
 41
0.9
  0
ENDBLK
  8
0
  0
BLOCK
  8
1
  2
*D11
 70
1
 10
0
 20
0
 30
0
  0
LINE
  8
1
 62
1
 10
180
 20
238.118711823185
 30
0
 11
190
 21
238.118711823185
 31
0
  0
LINE
  8
1
 62
1
 10
171
 20
238.118711823185
 30
0
 11
161
 21
238.118711823185
 31
0
  0
LINE
  8
1
 62
1
 10
171
 20
238.118711823185
 30
0
 11
180
 21
238.118711823185
 31
0
  0
LINE
  8
1
 62
1
 10
180
 20
173.5
 30
0
 11
180
 21
240.118711823185
 31
0
  0
LINE
  8
1
 62
1
 10
171
 20
227.5
 30
0
 11
171
 21
240.118711823185
 31
0
  0
SOLID
  8
1
 62
1
 10
171
 20
238.118711823185
 30
0
 11
166
 21
237.468711823185
 31
0
 12
166
 22
238.768711823185
 32
0
 13
166
 23
238.768711823185
 33
0
  0
SOLID
  8
1
 62
1
 10
180
 20
238.118711823185
 30
0
 11
185
 21
238.768711823185
 31
0
 12
185
 22
237.468711823185
 32
0
 13
185
 23
237.468711823185
 33
0
  0
TEXT
  8
1
 62
7
 10
174
 20
240.118711823185
 30
0
 40
5
  1
9
 41
0.9
  0
ENDBLK
  8
0
  0
BLOCK
  8
1
  2
*D12
 70
1
 10
0
 20
0
 30
0
  0
LINE
  8
1
 62
1
 10
171
 20
13.5856475721166
 30
0
 11
157.087921235112
 21
13.5856475721166
 31
0
  0
LINE
  8
1
 62
1
 10
171
 20
13.5856475721166
 30
0
 11
173
 21
13.5856475721166
 31
0
  0
LINE
  8
1
 62
1
 10
183
 20
13.5856475721166
 30
0
 11
173
 21
13.5856475721166
 31
0
  0
LINE
  8
1
 62
1
 10
173
 20
27.5
 30
0
 11
173
 21
11.5856475721166
 31
0
  0
LINE
  8
1
 62
1
 10
171
 20
27.5
 30
0
 11
171
 21
11.5856475721166
 31
0
  0
SOLID
  8
1
 62
1
 10
171
 20
13.5856475721166
 30
0
 11
166
 21
12.9356475721166
 31
0
 12
166
 22
14.2356475721166
 32
0
 13
166
 23
14.2356475721166
 33
0
  0
SOLID
  8
1
 62
1
 10
173
 20
13.5856475721166
 30
0
 11
178
 21
14.2356475721166
 31
0
 12
178
 22
12.9356475721166
 32
0
 13
178
 23
12.9356475721166
 33
0
  0
TEXT
  8
1
 62
7
 10
157.087921235112
 20
15.5856475721166
 30
0
 40
5
  1
2
 41
0.9
  0
ENDBLK
  8
0
  0
BLOCK
  8
1
  2
*D13
 70
1
 10
0
 20
0
 30
0
  0
LINE
  8
1
 62
1
 10
65
 20
182.142683634029
 30
0
 11
83
 21
182.142683634029
 31
0
  0
LINE
  8
1
 62
1
 10
83
 20
161.5
 30
0
 11
83
 21
184.142683634029
 31
0
  0
LINE
  8
1
 62
1
 10
65
 20
161.5
 30
0
 11
65
 21
184.142683634029
 31
0
  0
SOLID
  8
1
 62
1
 10
65
 20
182.142683634029
 30
0
 11
70
 21
182.792683634029
 31
0
 12
70
 22
181.492683634029
 32
0
 13
70
 23
181.492683634029
 33
0
  0
SOLID
  8
1
 62
1
 10
83
 20
182.142683634029
 30
0
 11
78
 21
181.492683634029
 31
0
 12
78
 22
182.792683634029
 32
0
 13
78
 23
182.792683634029
 33
0
  0
TEXT
  8
1
 62
7
 10
71
 20
184.142683634029
 30
0
 40
5
  1
18
 41
0.9
  0
ENDBLK
  8
0
  0
BLOCK
  8
1
  2
*D14
 70
1
 10
0
 20
0
 30
0
  0
LINE
  8
1
 62
1
 10
91
 20
219.5
 30
0
 11
80.89267938279293
 21
213.8792625042868
 31
0
  0
SOLID
  8
1
 62
1
 10
88.15965233941776
 20
217.9204667882488
 30
0
 11
84.105793350103
 21
214.9223461611306
 31
0
 12
83.47398006540254
 22
216.0584852253635
 32
0
 13
83.47398006540254
 23
216.0584852253635
 33
0
  0
TEXT
  8
1
 62
7
 10
79.92065894479221
 20
215.6271687569528
 30
0
 40
5
  1
 
 50
29.07868042939638
 41
0.9
  0
ENDBLK
  8
0
  0
BLOCK
  8
1
  2
*D15
 70
1
 10
0
 20
0
 30
0
  0
LINE
  8
1
 62
1
 10
91
 20
219.5
 30
0
 11
129.7448337528443
 21
241.8797758649593
 31
0
  0
SOLID
  8
1
 62
1
 10
93.814254280816
 20
221.1255684676164
 30
0
 11
97.81876255777887
 21
224.1892938893434
 31
0
 12
98.46898994482544
 22
223.063592177017
 32
0
 13
98.46898994482544
 23
223.063592177017
 33
0
  0
TEXT
  8
1
 62
7
 10
104.8979567309129
 20
230.4148204678801
 30
0
 40
5
  1
6,5
 50
30.01157283325426
 41
0.9
  0
TEXT
  8
1
 62
7
 10
115.0725683615554
 20
236.2918756969548
 30
0
 40
5
  1
x90%%d
 50
30.01157283325426
 41
0.9
  0
ENDBLK
  8
0
  0
ENDSEC
  0
SECTION
  2
ENTITIES
  0
INSERT
  8
1
  2
*X0
 10
0
 20
0
 30
0
  0
INSERT
  8
1
  2
*X1
 10
0
 20
0
 30
0
  0
INSERT
  8
1
  2
*X2
 10
0
 20
0
 30
0
  0
INSERT
  8
1
  2
*X3
 10
0
 20
0
 30
0
  0
LINE
  8
1
 62
1
 10
99
 20
27.5
 30
0
 11
121.006843679228
 21
27.5
 31
0
  0
LINE
  8
1
 62
1
 10
89.1514164472184
 20
103.5
 30
0
 11
121.006843679228
 21
103.5
 31
0
  0
LINE
  8
1
 62
1
 10
89.1514164472184
 20
103.5
 30
0
 11
121.006843679228
 21
103.5
 31
0
  0
LINE
  8
1
 62
1
 10
86.62338012958961
 20
161.5
 30
0
 11
87.5
 21
161.5
 31
0
  0
LINE
  8
1
 62
1
 10
119.506843679228
 20
27.5
 30
0
 11
119.506843679228
 21
103.5
 31
0
  0
LINE
  8
1
 62
1
 10
119.506843679228
 20
103.5
 30
0
 11
119.506843679228
 21
161.5
 31
0
  0
LINE
  8
1
 62
2
  6
PHANTOM
 10
84.00000000000006
 20
105.5
 30
0
 11
63.99999999999994
 21
105.5
 31
0
  0
LINE
  8
1
 62
2
  6
PHANTOM
 10
74.00000000000006
 20
23.10696099674971
 30
0
 11
74
 21
120.082096944023
 31
0
  0
LINE
  8
1
 62
2
  6
PHANTOM
 10
79.10000000000002
 20
85.49999999999996
 30
0
 11
79.10000000000002
 21
98.57540614909433
 31
0
  0
LINE
  8
1
 62
2
  6
PHANTOM
 10
68.89999999999992
 20
85.49999999999996
 30
0
 11
68.89999999999992
 21
98.57540614909433
 31
0
  0
LINE
  8
1
 62
2
  6
PHANTOM
 10
60.33485763464978
 20
103.5
 30
0
 11
89.1514164472184
 21
103.5
 31
0
  0
LINE
  8
1
 62
2
  6
PHANTOM
 10
66.88147948164146
 20
101.5
 30
0
 11
81.88147948164146
 21
101.5
 31
0
  0
LINE
  8
1
 62
2
  6
PHANTOM
 10
74
 20
177.7590272680638
 30
0
 11
74
 21
133.488599852616
 31
0
  0
LINE
  8
1
 62
2
  6
PHANTOM
 10
91
 20
30.3
 30
0
 11
91
 21
40.7
 31
0
  0
LINE
  8
1
 62
2
  6
PHANTOM
 10
85.8
 20
35.5
 30
0
 11
96.2
 21
35.5
 31
0
  0
LINE
  8
1
 62
2
  6
PHANTOM
 10
57
 20
30.3
 30
0
 11
57
 21
40.7
 31
0
  0
LINE
  8
1
 62
2
  6
PHANTOM
 10
51.8
 20
35.5
 30
0
 11
62.2
 21
35.5
 31
0
  0
LINE
  8
1
 62
2
  6
PHANTOM
 10
91
 20
214.3
 30
0
 11
91
 21
224.2
 31
0
  0
LINE
  8
1
 62
2
  6
PHANTOM
 10
85.8
 20
219.5
 30
0
 11
96.2
 21
219.5
 31
0
  0
LINE
  8
1
 62
2
  6
PHANTOM
 10
57
 20
214.3
 30
0
 11
57
 21
224.2
 31
0
  0
LINE
  8
1
 62
2
  6
PHANTOM
 10
47.3
 20
219.5
 30
0
 11
62.2
 21
219.5
 31
0
  0
LINE
  8
1
 62
2
  6
PHANTOM
 10
59.6233801295896
 20
161.5
 30
0
 11
83
 21
161.5
 31
0
  0
LINE
  8
1
 62
2
  6
DASHDOT
 10
74
 20
229.433585313175
 30
0
 11
74
 21
193.2009188566794
 31
0
  0
LINE
  8
1
 62
7
 10
99
 20
27.5
 30
0
 11
99
 21
227.5
 31
0
  0
LINE
  8
1
 62
7
 10
49
 20
227.5
 30
0
 11
49
 21
27.5
 31
0
  0
LINE
  8
1
 62
7
 10
49
 20
227.5
 30
0
 11
99
 21
227.5
 31
0
  0
LINE
  8
1
 62
7
 10
49
 20
27.5
 30
0
 11
99
 21
27.5
 31
0
  0
LINE
  8
1
 62
2
  6
PHANTOM
 10
74
 20
133.488599852616
 30
0
 11
74
 21
132.1069609967497
 31
0
  0
LINE
  8
1
 62
7
 10
171
 20
27.5
 30
0
 11
171
 21
150.1
 31
0
  0
LINE
  8
1
 62
7
 10
173
 20
27.5
 30
0
 11
173
 21
148
 31
0
  0
LINE
  8
1
 62
7
 10
171
 20
227.5
 30
0
 11
173
 21
227.5
 31
0
  0
LINE
  8
1
 62
7
 10
171
 20
27.5
 30
0
 11
173
 21
27.5
 31
0
  0
LINE
  8
1
 62
2
  6
PHANTOM
 10
167.002014939942
 20
105.5
 30
0
 11
177.002014939942
 21
105.5
 31
0
  0
LINE
  8
1
 62
2
  6
PHANTOM
 10
167.002014939942
 20
103.5
 30
0
 11
177.002014939942
 21
103.5
 31
0
  0
LINE
  8
1
 62
2
  6
PHANTOM
 10
167.002014939942
 20
101.5
 30
0
 11
177.002014939942
 21
101.5
 31
0
  0
LINE
  8
1
 62
2
  6
PHANTOM
 10
167.002014939942
 20
161.5
 30
0
 11
184.329638248607
 21
161.5
 31
0
  0
LINE
  8
1
 62
2
  6
PHANTOM
 10
167.002014939942
 20
219.5
 30
0
 11
177.002014939942
 21
219.5
 31
0
  0
LINE
  8
1
 62
2
  6
PHANTOM
 10
167.002014939942
 20
35.5
 30
0
 11
177.002014939942
 21
35.5
 31
0
  0
LINE
  8
1
 62
7
 10
173
 20
175
 30
0
 11
180
 21
173.5
 31
0
  0
LINE
  8
1
 62
7
 10
173
 20
175
 30
0
 11
173
 21
227.5
 31
0
  0
LINE
  8
1
 62
7
 10
173
 20
148
 30
0
 11
180
 21
149.5
 31
0
  0
LINE
  8
1
 62
7
 10
173
 20
148
 30
0
 11
173
 21
175
 31
0
  0
LINE
  8
1
 62
7
 10
180
 20
149.5
 30
0
 11
180
 21
152.5
 31
0
  0
LINE
  8
1
 62
7
 10
171
 20
172.9
 30
0
 11
170
 21
172.9
 31
0
  0
LINE
  8
1
 62
7
 10
171
 20
172.9
 30
0
 11
171
 21
227.5
 31
0
  0
LINE
  8
1
 62
7
 10
171
 20
150.1
 30
0
 11
170
 21
150.1
 31
0
  0
LINE
  8
1
 62
7
 10
171
 20
150.1
 30
0
 11
171
 21
172.9
 31
0
  0
LINE
  8
1
 62
7
 10
170
 20
172.9
 30
0
 11
170
 21
170.5
 31
0
  0
LINE
  8
1
 62
3
  6
DASHED
 10
170
 20
170.5
 30
0
 11
180
 21
170.5
 31
0
  0
LINE
  8
1
 62
7
 10
180
 20
170.5
 30
0
 11
180
 21
173.5
 31
0
  0
LINE
  8
1
 62
7
 10
170
 20
170.5
 30
0
 11
170
 21
152.5
 31
0
  0
LINE
  8
1
 62
3
  6
DASHED
 10
170
 20
152.5
 30
0
 11
180
 21
152.5
 31
0
  0
LINE
  8
1
 62
7
 10
180
 20
152.5
 30
0
 11
180
 21
170.5
 31
0
  0
LINE
  8
1
 62
7
 10
170
 20
152.5
 30
0
 11
170
 21
150.1
 31
0
  0
LINE
  8
1
 62
2
  6
PHANTOM
 10
83
 20
161.5
 30
0
 11
86
 21
161.5
 31
0
  0
LINE
  8
1
 62
2
  6
PHANTOM
 10
86
 20
161.5
 30
0
 11
86.62338012958961
 21
161.5
 31
0
  0
LINE
  8
1
 62
1
 10
87.5
 20
161.5
 30
0
 11
121.006843679228
 21
161.5
 31
0
  0
ARC
  8
1
 62
7
 10
91
 20
219.5
 30
0
 40
2
 50
180
 51
270
  0
ARC
  8
1
 62
7
 10
91
 20
219.5
 30
0
 40
2
 50
270
 51
0
  0
ARC
  8
1
 62
7
 10
91
 20
219.5
 30
0
 40
2
 50
0
 51
90
  0
ARC
  8
1
 62
7
 10
91
 20
219.5
 30
0
 40
3.25
 50
90
 51
270
  0
ARC
  8
1
 62
7
 10
91
 20
219.5
 30
0
 40
3.25
 50
270
 51
0
  0
ARC
  8
1
 62
7
 10
91
 20
219.5
 30
0
 40
3.25
 50
0
 51
90
  0
ARC
  8
1
 62
2
  6
PHANTOM
 10
74.00000000000006
 20
105.5
 30
0
 40
8.600000000000009
 50
180
 51
233.6281575900651
  0
ARC
  8
1
 62
2
  6
PHANTOM
 10
73.99999999999994
 20
85.49999999999996
 30
0
 40
5.100000000000023
 50
180
 51
0
  0
ARC
  8
1
 62
2
  6
PHANTOM
 10
74.00000000000006
 20
105.5
 30
0
 40
8.600000000000012
 50
306.3718424099341
 51
0
  0
ARC
  8
1
 62
2
  6
PHANTOM
 10
74.00000000000006
 20
105.5
 30
0
 40
8.600000000000009
 50
0
 51
180
  0
ARC
  8
1
 62
7
 10
91
 20
219.5
 30
0
 40
2
 50
90
 51
180
  0
ARC
  8
1
 62
7
 10
74
 20
103.5
 30
0
 40
11.25
 50
0
 51
180
  0
ARC
  8
1
 62
7
 10
74
 20
103.5
 30
0
 40
11.25
 50
180
 51
0
  0
ARC
  8
1
 62
7
 10
74
 20
161.5
 30
0
 40
9
 50
0
 51
180
  0
ARC
  8
1
 62
7
 10
74
 20
161.5
 30
0
 40
9
 50
180
 51
0
  0
CIRCLE
  8
1
 62
7
 10
91
 20
35.5
 30
0
 40
2
  0
CIRCLE
  8
1
 62
7
 10
91
 20
35.5
 30
0
 40
3.25
  0
CIRCLE
  8
1
 62
7
 10
57
 20
35.5
 30
0
 40
2
  0
CIRCLE
  8
1
 62
7
 10
57
 20
35.5
 30
0
 40
3.25
  0
CIRCLE
  8
1
 62
7
 10
57
 20
219.5
 30
0
 40
2
  0
CIRCLE
  8
1
 62
7
 10
57
 20
219.5
 30
0
 40
3.25
  0
CIRCLE
  8
1
 62
7
 10
74
 20
161.5
 30
0
 40
12
  0
CIRCLE
  8
1
 62
2
 10
74
 20
161.5
 30
0
 40
13.5
  0
TEXT
  8
1
 62
7
 10
127.407049231194
 20
56.15108206933897
 30
0
 40
5
  1
3 = 78
 50
90
 41
0.8558910449100008
  0
TEXT
  8
1
 62
7
 10
127.407049231194
 20
123.151082069339
 30
0
 40
5
  1
3 = 56
 50
90
 41
0.8558910449100008
  0
TEXT
  8
1
 62
7
 10
116.228946960238
 20
56.15108206933897
 30
0
 40
5
  1
2 = 76
 50
90
 41
0.8558910449100008
  0
TEXT
  8
1
 62
7
 10
116.228946960238
 20
123.151082069339
 30
0
 40
5
  1
2 = 58
 50
90
 41
0.8558910449100008
  0
TEXT
  8
1
 62
7
 10
88.10823504342091
 20
-29.62947916194017
 30
0
 40
7
  1
5404.209.407
 41
0.838858813116292
  0
TEXT
  8
1
 62
7
 10
88.10823504342091
 20
-36.62947916194017
 30
0
 40
7
  1
 
 41
0.838858813116292
  0
TEXT
  8
1
 62
7
 10
88.10823504342091
 20
-43.62947916194017
 30
0
 40
7
  1
5404.309.407
 41
0.838858813116292
  0
DIMENSION
  8
1
  6
CONTINUOUS
 62
1
  2
*D0
  3
DMST_1
 10
21.59
 20
227.5
 30
0
 11
19
 21
127.5
 31
0
 12
0
 22
0
 32
0
 70
0
 13
49
 23
27.5
 33
0
 14
49
 24
227.5
 34
0
 50
90
 53
0
  0
DIMENSION
  8
1
  6
CONTINUOUS
 62
1
  2
*D1
  3
DMST_2
 10
57
 20
13.5516122644286
 30
0
 11
53
 21
18.0516122644286
 31
0
 12
0
 22
0
 32
0
 70
0
 13
49
 23
27.5
 33
0
 14
57
 24
30.3
 34
0
 53
0
  0
DIMENSION
  8
1
  6
CONTINUOUS
 62
1
  2
*D2
  3
DMST_2
 10
91
 20
13.5516122644286
 30
0
 11
74
 21
18.0516122644286
 31
0
 12
0
 22
0
 32
0
 70
0
 13
57
 23
30.3
 33
0
 14
91
 24
30.3
 34
0
 53
0
  0
DIMENSION
  8
1
  6
CONTINUOUS
 62
1
  2
*D3
  3
DMST_2
 10
99
 20
13.5516122644286
 30
0
 11
105.228751545503
 21
18.0516122644286
 31
0
 12
0
 22
0
 32
0
 70
0
 13
91
 23
30.3
 33
0
 14
99
 24
27.5
 34
0
 53
0
  0
DIMENSION
  8
1
  6
CONTINUOUS
 62
1
  2
*D4
  3
DMST_2
 10
99
 20
1.47694877986493
 30
0
 11
74
 21
5.97694877986493
 31
0
 12
0
 22
0
 32
0
 70
0
 13
49
 23
27.5
 33
0
 14
99
 24
27.5
 34
0
 53
0
  0
DIMENSION
  8
1
  6
CONTINUOUS
 62
1
  2
*D5
  3
DMST_2
 10
89
 20
238.043012555632
 30
0
 11
81.6890045582893
 21
242.543012555632
 31
0
 12
0
 22
0
 32
0
 70
0
 13
93
 23
219.5
 33
0
 14
89
 24
219.5
 34
0
 53
0
  0
DIMENSION
  8
1
  6
CONTINUOUS
 62
1
  2
*D6
  3
DMST_2
 10
35.5309532252284
 20
219.5
 30
0
 11
31.0309532252284
 21
127.700860940596
 31
0
 12
0
 22
0
 32
0
 70
0
 13
51.8
 23
35.5
 33
0
 14
47.3
 24
219.5
 34
0
 50
90
 53
0
  0
DIMENSION
  8
1
  6
CONTINUOUS
 62
1
  2
*D7
  3
DMST_2
 10
35.5309532252284
 20
227.5
 30
0
 11
31.0309532252284
 21
237.294784361471
 31
0
 12
0
 22
0
 32
0
 70
0
 13
47.3
 23
219.5
 33
0
 14
49
 24
227.5
 34
0
 50
90
 53
0
  0
DIMENSION
  8
1
  6
CONTINUOUS
 62
1
  2
*D8
  3
DMST_2
 10
35.5309532252284
 20
27.5
 30
0
 11
31.0309532252284
 21
21.1596930467645
 31
0
 12
0
 22
0
 32
0
 70
0
 13
51.8
 23
35.5
 33
0
 14
49
 24
27.5
 34
0
 50
90
 53
0
  0
DIMENSION
  8
1
  6
CONTINUOUS
 62
1
  2
*D9
  3
DMST_2
 10
85.25
 20
122.620195840641
 30
0
 11
74
 21
127.370195840641
 31
0
 12
0
 22
0
 32
0
 70
0
 13
62.75
 23
103.5
 33
0
 14
85.25
 24
103.5
 34
0
 53
0
  0
DIMENSION
  8
1
  6
CONTINUOUS
 62
1
  2
*D10
  3
DMST_2
 10
119.508161974239
 20
161.5
 30
0
 11
115.008161974239
 21
194.5
 31
0
 12
0
 22
0
 32
0
 70
0
 13
99
 23
227.5
 33
0
 14
86.62338012958961
 24
161.5
 34
0
 50
90
 53
0
  0
DIMENSION
  8
1
  6
CONTINUOUS
 62
1
  2
*D11
  3
DMST_2
 10
180
 20
238.118711823185
 30
0
 11
175.5
 21
242.618711823185
 31
0
 12
0
 22
0
 32
0
 70
0
 13
171
 23
227.5
 33
0
 14
180
 24
173.5
 34
0
 53
0
  0
DIMENSION
  8
1
  6
CONTINUOUS
 62
1
  2
*D12
  3
DMST_2
 10
171
 20
13.5856475721166
 30
0
 11
158.587921235112
 21
18.0856475721166
 31
0
 12
0
 22
0
 32
0
 70
0
 13
173
 23
27.5
 33
0
 14
171
 24
27.5
 34
0
 53
0
  0
DIMENSION
  8
1
  6
CONTINUOUS
 62
1
  2
*D13
  3
DMST_2
 10
83
 20
182.142683634029
 30
0
 11
74
 21
186.642683634029
 31
0
 12
0
 22
0
 32
0
 70
0
 13
65
 23
161.5
 33
0
 14
83
 24
161.5
 34
0
 53
0
  0
DIMENSION
  8
1
  6
CONTINUOUS
 62
1
  2
*D14
  3
DMST_2
 10
93.84034766058224
 20
221.0795332117512
 30
0
 11
80.45353964995731
 21
218.784072010786
 31
0
 12
0
 22
0
 32
0
 70
3
  1
 
 15
88.15965233941776
 25
217.9204667882488
 35
0
 40
0
 53
0
  0
DIMENSION
  8
1
  6
CONTINUOUS
 62
1
  2
*D15
  3
DMST_3
 10
88.185745719184
 20
217.8744315323836
 30
0
 11
115.570783045984
 21
239.17803354576
 31
0
 12
0
 22
0
 32
0
 70
3
 15
93.814254280816
 25
221.1255684676164
 35
0
 40
0
 53
0
  0
ENDSEC
  0
EOF
