  0
SECTION
  2
HEADER
  9
$ACADVER
  1
AC1009
  9
$INSBASE
 10
0
 20
0
  9
$EXTMIN
 10
5.828282177954051
 20
-77.7599330020663
  9
$EXTMAX
 10
145.4384403311121
 20
202.3390788499835
  9
$LIMMIN
 10
5.828282177954051
 20
-77.7599330020663
  9
$LIMMAX
 10
145.4384403311121
 20
202.3390788499835
  9
$VIEWCTR
 10
10
 20
10
  9
$VIEWSIZE
 40
10
  9
$SNAPMODE
 70
0
  9
$SNAPUNIT
 10
1
 20
1
  9
$SNAPBASE
 10
0
 20
0
  9
$SNAPANG
 50
0
  9
$SNAPSTYLE
 70
0
  9
$SNAPISOPAIR
 70
0
  9
$GRIDMODE
 70
0
  9
$GRIDUNIT
 10
0
 20
0
  9
$ORTHOMODE
 70
0
  9
$REGENMODE
 70
1
  9
$FILLMODE
 70
1
  9
$QTEXTMODE
 70
0
  9
$DRAGMODE
 70
2
  9
$LTSCALE
 40
1
  9
$OSMODE
 70
0
  9
$ATTMODE
 70
1
  9
$TEXTSIZE
 40
3.5
  9
$TRACEWID
 40
0.5
  9
$TEXTSTYLE
  7
STANDARD
  9
$CLAYER
  8
0
  9
$CELTYPE
  6
BYLAYER
  9
$CECOLOR
 62
256
  9
$DIMSCALE
 40
1
  9
$DIMASZ
 40
0.18
  9
$DIMEXO
 40
0.0625
  9
$DIMDLI
 40
0.38
  9
$DIMRND
 40
0
  9
$DIMDLE
 40
0
  9
$DIMEXE
 40
0.18
  9
$DIMTP
 40
0
  9
$DIMTM
 40
0
  9
$DIMTXT
 40
0.18
  9
$DIMCEN
 40
0.09
  9
$DIMTSZ
 40
0
  9
$DIMTOL
 70
0
  9
$DIMLIM
 70
0
  9
$DIMTIH
 70
1
  9
$DIMTOH
 70
1
  9
$DIMSE1
 70
0
  9
$DIMSE2
 70
0
  9
$DIMTAD
 70
0
  9
$DIMZIN
 70
0
  9
$DIMBLK
  1

  9
$DIMASO
 70
1
  9
$DIMSHO
 70
1
  9
$DIMPOST
  1

  9
$DIMAPOST
  1

  9
$DIMALT
 70
0
  9
$DIMALTD
 70
2
  9
$DIMALTF
 40
25.4
  9
$DIMLFAC
 40
1
  9
$DIMTOFL
 70
0
  9
$DIMTVP
 40
0
  9
$DIMTIX
 70
0
  9
$DIMSOXD
 70
0
  9
$DIMSAH
 70
0
  9
$DIMBLK1
  1

  9
$DIMBLK2
  1

  9
$DIMSTYLE
  2
*UNNAMED
  9
$DIMCLRD
 70
0
  9
$DIMCLRE
 70
0
  9
$DIMCLRT
 70
0
  9
$DIMTFAC
 40
1
  9
$DIMGAP
 40
0.09
  9
$LUNITS
 70
2
  9
$LUPREC
 70
4
  9
$AXISMODE
 70
0
  9
$AXISUNIT
 10
0
 20
0
  9
$SKETCHINC
 40
0.1
  9
$FILLETRAD
 40
2
  9
$AUNITS
 70
0
  9
$AUPREC
 70
0
  9
$MENU
  1
ACAD
  9
$ELEVATION
 40
0
  9
$THICKNESS
 40
0
  9
$VIEWDIR
 10
0
 20
0
 30
1
  9
$LIMCHECK
 70
0
  9
$BLIPMODE
 70
1
  9
$CHAMFERA
 40
0
  9
$CHAMFERB
 40
0
  9
$FASTZOOM
 70
1
  9
$SKPOLY
 70
0
  9
$ANGBASE
 50
0
  9
$ANGDIR
 70
0
  9
$PDMODE
 70
0
  9
$PDSIZE
 40
0
  9
$PLINEWID
 40
0
  9
$COORDS
 70
2
  0
ENDSEC
  0
SECTION
  2
TABLES
  0
TABLE
  2
DIMSTYLE
 70
3
  0
DIMSTYLE
  2
DMST_1
 70
0
  3

  4

  5

  6

  7

 40
1
 41
5
 42
0
 43
7
 44
2
 45
0
 46
0
 47
0
 48
0
140
5
141
0
142
0
143
25.4
144
1
145
0
146
1
147
0.09
 71
0
 72
0
 73
0
 74
0
 75
0
 76
0
 77
1
 78
9
170
0
171
2
172
0
173
0
174
0
175
0
176
1
177
1
178
7
  0
DIMSTYLE
  2
DMST_2
 70
0
  3

  4

  5

  6

  7

 40
1
 41
5
 42
0
 43
7
 44
2
 45
0
 46
0
 47
0
 48
0
140
5
141
-1.5
142
0
143
25.4
144
1
145
0
146
1
147
0.09
 71
0
 72
0
 73
0
 74
0
 75
0
 76
0
 77
1
 78
9
170
0
171
2
172
0
173
0
174
0
175
0
176
1
177
1
178
7
  0
DIMSTYLE
  2
DMST_3
 70
0
  3
x90%%d
  4

  5

  6

  7

 40
1
 41
5
 42
0
 43
7
 44
2
 45
0
 46
0
 47
0
 48
0
140
5
141
-1.5
142
0
143
25.4
144
1
145
0
146
1
147
0.09
 71
0
 72
0
 73
0
 74
0
 75
0
 76
0
 77
1
 78
9
170
0
171
2
172
0
173
0
174
0
175
0
176
1
177
1
178
7
  0
ENDTAB
  0
TABLE
  2
LTYPE
 70
9
  0
LTYPE
  2
CONTINUOUS
 70
64
  3
Solid line
 72
65
 73
0
 40
0
  0
LTYPE
  2
BORDER
 70
64
  3
__ __ . __ __ .
 72
65
 73
6
 40
12.89929659844966
 49
3.68551331384276
 49
-1.84275665692138
 49
3.68551331384276
 49
-1.84275665692138
 49
0
 49
-1.84275665692138
  0
LTYPE
  2
CENTER
 70
64
  3
____ _ ____ _
 72
65
 73
4
 40
14.74205325537104
 49
9.213783284606901
 49
-1.84275665692138
 49
1.84275665692138
 49
-1.84275665692138
  0
LTYPE
  2
DASHDOT
 70
64
  3
__ . __ . __ .
 72
65
 73
4
 40
7.371026627685521
 49
3.68551331384276
 49
-1.84275665692138
 49
0
 49
-1.84275665692138
  0
LTYPE
  2
DASHED
 70
64
  3
__ __ __ __ __
 72
65
 73
2
 40
5.528269970764141
 49
3.68551331384276
 49
-1.84275665692138
  0
LTYPE
  2
DIVIDE
 70
64
  3
__ . . __ . . 
 72
65
 73
6
 40
9.213783284606901
 49
3.68551331384276
 49
-1.84275665692138
 49
0
 49
-1.84275665692138
 49
0
 49
-1.84275665692138
  0
LTYPE
  2
DOT
 70
64
  3
..............
 72
65
 73
4
 40
3.68551331384276
 49
0
 49
-1.84275665692138
 49
0
 49
-1.84275665692138
  0
LTYPE
  2
HIDDEN
 70
64
  3
_ _ _ _ _ _ _
 72
65
 73
2
 40
2.76413498538207
 49
1.84275665692138
 49
-0.9213783284606901
  0
LTYPE
  2
PHANTOM
 70
64
  3
_____ _ _ _____ _ _ 
 72
65
 73
6
 40
18.4275665692138
 49
9.213783284606901
 49
-1.84275665692138
 49
1.84275665692138
 49
-1.84275665692138
 49
1.84275665692138
 49
-1.84275665692138
  0
ENDTAB
  0
TABLE
  2
LAYER
 70
3
  0
LAYER
  2
1
 70
0
 62
7
  6
CONTINUOUS
  0
LAYER
  2
0
 70
0
 62
7
  6
CONTINUOUS
  0
ENDTAB
  0
TABLE
  2
STYLE
 70
4
  0
STYLE
  2
STANDARD
 70
0
 40
0
 41
1
 50
0
 71
0
 42
3.5
  3
txt
  4

  0
STYLE
  2
SIMPLEX
 70
0
 40
0
 41
1
 50
0
 71
0
 42
3.5
  3
simplex
  4

  0
STYLE
  2
COMPLEX
 70
0
 40
0
 41
1
 50
0
 71
0
 42
3.5
  3
complex
  4

  0
STYLE
  2
ITALIC
 70
0
 40
0
 41
1
 50
0
 71
0
 42
3.5
  3
italic
  4

  0
ENDTAB
  0
TABLE
  2
VIEW
 70
0
  0
ENDTAB
  0
ENDSEC
  0
SECTION
  2
BLOCKS
  0
BLOCK
  8
1
  2
*D0
 70
1
 10
0
 20
0
 30
0
  0
LINE
  8
1
 62
1
 10
138.4384403311122
 20
-21.0969695844668
 30
0
 11
128.4384403311122
 21
-21.0969695844668
 31
0
  0
LINE
  8
1
 62
1
 10
126.9384403311122
 20
-21.0969695844668
 30
0
 11
128.4384403311122
 21
-21.0969695844668
 31
0
  0
LINE
  8
1
 62
1
 10
126.9384403311122
 20
-21.0969695844668
 30
0
 11
113.209515039857
 21
-21.0969695844668
 31
0
  0
LINE
  8
1
 62
1
 10
126.9384403311122
 20
8.676794778374557
 30
0
 11
126.9384403311122
 21
-23.0969695844668
 31
0
  0
LINE
  8
1
 62
1
 10
128.4384403311122
 20
8.676794778374529
 30
0
 11
128.4384403311122
 21
-23.0969695844668
 31
0
  0
SOLID
  8
1
 62
1
 10
126.9384403311122
 20
-21.0969695844668
 30
0
 11
121.9384403311122
 21
-21.7469695844668
 31
0
 12
121.9384403311122
 22
-20.4469695844668
 32
0
 13
121.9384403311122
 23
-20.4469695844668
 33
0
  0
SOLID
  8
1
 62
1
 10
128.4384403311122
 20
-21.0969695844668
 30
0
 11
133.4384403311122
 21
-20.4469695844668
 31
0
 12
133.4384403311122
 22
-21.7469695844668
 32
0
 13
133.4384403311122
 23
-21.7469695844668
 33
0
  0
TEXT
  8
1
 62
7
 10
113.209515039857
 20
-18.5969695844668
 30
0
 40
5
  1
1,5
 41
0.9
  0
ENDBLK
  8
0
  0
BLOCK
  8
1
  2
*D1
 70
1
 10
0
 20
0
 30
0
  0
LINE
  8
1
 62
1
 10
145.4384403311121
 20
192.998705711274
 30
0
 11
135.4384403311121
 21
192.998705711274
 31
0
  0
LINE
  8
1
 62
1
 10
126.9384403311122
 20
192.998705711274
 30
0
 11
135.4384403311121
 21
192.998705711274
 31
0
  0
LINE
  8
1
 62
1
 10
126.9384403311122
 20
192.998705711274
 30
0
 11
107.039748380735
 21
192.998705711274
 31
0
  0
LINE
  8
1
 62
1
 10
126.9384403311122
 20
178.6767947783745
 30
0
 11
126.9384403311122
 21
194.998705711274
 31
0
  0
LINE
  8
1
 62
1
 10
135.4384403311121
 20
131.9767947783745
 30
0
 11
135.4384403311121
 21
194.998705711274
 31
0
  0
SOLID
  8
1
 62
1
 10
126.9384403311122
 20
192.998705711274
 30
0
 11
121.9384403311122
 21
192.348705711274
 31
0
 12
121.9384403311122
 22
193.648705711274
 32
0
 13
121.9384403311122
 23
193.648705711274
 33
0
  0
SOLID
  8
1
 62
1
 10
135.4384403311121
 20
192.998705711274
 30
0
 11
140.4384403311121
 21
193.648705711274
 31
0
 12
140.4384403311121
 22
192.348705711274
 32
0
 13
140.4384403311121
 23
192.348705711274
 33
0
  0
TEXT
  8
1
 62
7
 10
107.039748380735
 20
195.498705711274
 30
0
 40
5
  1
8,5
 41
0.9
  0
ENDBLK
  8
0
  0
BLOCK
  8
1
  2
*D2
 70
1
 10
0
 20
0
 30
0
  0
LINE
  8
1
 62
1
 10
93.00274926929561
 20
8.676794778374529
 30
0
 11
93.00274926929561
 21
68.67679477837453
 31
0
  0
LINE
  8
1
 62
1
 10
76.69977942398461
 20
8.676794778374529
 30
0
 11
95.00274926929561
 21
8.676794778374529
 31
0
  0
LINE
  8
1
 62
1
 10
66.29977942398463
 20
68.67679477837453
 30
0
 11
95.00274926929561
 21
68.67679477837453
 31
0
  0
SOLID
  8
1
 62
1
 10
93.00274926929561
 20
68.67679477837453
 30
0
 11
93.65274926929561
 21
63.67679477837453
 31
0
 12
92.3527492692956
 22
63.67679477837453
 32
0
 13
92.3527492692956
 23
63.67679477837453
 33
0
  0
SOLID
  8
1
 62
1
 10
93.00274926929561
 20
8.676794778374529
 30
0
 11
92.3527492692956
 21
13.67679477837453
 31
0
 12
93.6527492692956
 22
13.67679477837453
 32
0
 13
93.6527492692956
 23
13.67679477837453
 33
0
  0
TEXT
  8
1
 62
7
 10
91.00274926929561
 20
41.67679477837453
 30
0
 40
5
  1
60
 50
90
 41
0.9
  0
TEXT
  8
1
 62
7
 10
91.00274926929561
 20
28.17679477837453
 30
0
 40
5
  1
1= 
 50
90
 41
0.9
  0
ENDBLK
  8
0
  0
BLOCK
  8
1
  2
*D3
 70
1
 10
0
 20
0
 30
0
  0
LINE
  8
1
 62
1
 10
81.69977942398461
 20
193.018841327599
 30
0
 11
71.69977942398461
 21
193.018841327599
 31
0
  0
LINE
  8
1
 62
1
 10
67.69977942398461
 20
193.018841327599
 30
0
 11
71.69977942398461
 21
193.018841327599
 31
0
  0
LINE
  8
1
 62
1
 10
67.69977942398461
 20
193.018841327599
 30
0
 11
57.69977942398461
 21
193.018841327599
 31
0
  0
LINE
  8
1
 62
1
 10
67.69977942398461
 20
171.6767947783745
 30
0
 11
67.69977942398461
 21
195.018841327599
 31
0
  0
LINE
  8
1
 62
1
 10
71.69977942398461
 20
171.6767947783745
 30
0
 11
71.69977942398461
 21
195.018841327599
 31
0
  0
SOLID
  8
1
 62
1
 10
67.69977942398461
 20
193.018841327599
 30
0
 11
62.69977942398461
 21
192.368841327599
 31
0
 12
62.69977942398461
 22
193.668841327599
 32
0
 13
62.69977942398461
 23
193.668841327599
 33
0
  0
SOLID
  8
1
 62
1
 10
71.69977942398461
 20
193.018841327599
 30
0
 11
76.69977942398461
 21
193.668841327599
 31
0
 12
76.69977942398461
 22
192.368841327599
 32
0
 13
76.69977942398461
 23
192.368841327599
 33
0
  0
TEXT
  8
1
 62
7
 10
58.1598135216659
 20
195.018841327599
 30
0
 40
5
  1
4
 41
0.9
  0
ENDBLK
  8
0
  0
BLOCK
  8
1
  2
*D4
 70
1
 10
0
 20
0
 30
0
  0
LINE
  8
1
 62
1
 10
42.69977942398461
 20
-21.1026306085024
 30
0
 11
76.69977942398461
 21
-21.1026306085024
 31
0
  0
LINE
  8
1
 62
1
 10
42.69977942398461
 20
8.676794778374532
 30
0
 11
42.69977942398461
 21
-23.1026306085024
 31
0
  0
LINE
  8
1
 62
1
 10
76.69977942398461
 20
8.676794778374532
 30
0
 11
76.69977942398461
 21
-23.1026306085024
 31
0
  0
SOLID
  8
1
 62
1
 10
42.69977942398461
 20
-21.1026306085024
 30
0
 11
47.69977942398461
 21
-20.4526306085024
 31
0
 12
47.69977942398461
 22
-21.7526306085024
 32
0
 13
47.69977942398461
 23
-21.7526306085024
 33
0
  0
SOLID
  8
1
 62
1
 10
76.69977942398461
 20
-21.1026306085024
 30
0
 11
71.69977942398461
 21
-21.7526306085024
 31
0
 12
71.69977942398461
 22
-20.4526306085024
 32
0
 13
71.69977942398461
 23
-20.4526306085024
 33
0
  0
TEXT
  8
1
 62
7
 10
55.94977942398461
 20
-19.1026306085024
 30
0
 40
5
  1
34
 41
0.9
  0
ENDBLK
  8
0
  0
BLOCK
  8
1
  2
*D5
 70
1
 10
0
 20
0
 30
0
  0
LINE
  8
1
 62
1
 10
12.82828217795405
 20
8.676794778374529
 30
0
 11
12.82828217795405
 21
178.6767947783745
 31
0
  0
LINE
  8
1
 62
1
 10
42.69977942398461
 20
8.676794778374529
 30
0
 11
10.82828217795405
 21
8.676794778374529
 31
0
  0
LINE
  8
1
 62
1
 10
42.69977942398461
 20
178.6767947783745
 30
0
 11
10.82828217795405
 21
178.6767947783745
 31
0
  0
SOLID
  8
1
 62
1
 10
12.82828217795405
 20
178.6767947783745
 30
0
 11
13.47828217795405
 21
173.6767947783745
 31
0
 12
12.17828217795405
 22
173.6767947783745
 32
0
 13
12.17828217795405
 23
173.6767947783745
 33
0
  0
SOLID
  8
1
 62
1
 10
12.82828217795405
 20
8.676794778374529
 30
0
 11
12.17828217795405
 21
13.67679477837453
 31
0
 12
13.47828217795405
 22
13.67679477837453
 32
0
 13
13.47828217795405
 23
13.67679477837453
 33
0
  0
TEXT
  8
1
 62
7
 10
10.82828217795405
 20
88.42679477837453
 30
0
 40
5
  1
170
 50
90
 41
0.9
  0
ENDBLK
  8
0
  0
BLOCK
  8
1
  2
*D6
 70
1
 10
0
 20
0
 30
0
  0
LINE
  8
1
 62
1
 10
27.1471102694922
 20
8.676794778374529
 30
0
 11
27.1471102694922
 21
15.67679477837453
 31
0
  0
LINE
  8
1
 62
1
 10
27.1471102694922
 20
8.676794778374529
 30
0
 11
27.1471102694922
 21
-1.32320522162547
 31
0
  0
LINE
  8
1
 62
1
 10
27.1471102694922
 20
15.67679477837453
 30
0
 11
27.1471102694922
 21
25.67679477837453
 31
0
  0
LINE
  8
1
 62
1
 10
42.69977942398461
 20
8.676794778374529
 30
0
 11
25.1471102694922
 21
8.676794778374529
 31
0
  0
LINE
  8
1
 62
1
 10
52.51889389482696
 20
15.67679477837453
 30
0
 11
25.1471102694922
 21
15.67679477837453
 31
0
  0
SOLID
  8
1
 62
1
 10
27.1471102694922
 20
15.67679477837453
 30
0
 11
26.4971102694922
 21
20.67679477837453
 31
0
 12
27.7971102694922
 22
20.67679477837453
 32
0
 13
27.7971102694922
 23
20.67679477837453
 33
0
  0
SOLID
  8
1
 62
1
 10
27.1471102694922
 20
8.676794778374529
 30
0
 11
27.7971102694922
 21
3.676794778374529
 31
0
 12
26.4971102694922
 22
3.676794778374529
 32
0
 13
26.4971102694922
 23
3.676794778374529
 33
0
  0
TEXT
  8
1
 62
7
 10
25.1471102694922
 20
10.67679477837453
 30
0
 40
5
  1
7
 50
90
 41
0.9
  0
ENDBLK
  8
0
  0
BLOCK
  8
1
  2
*D7
 70
1
 10
0
 20
0
 30
0
  0
LINE
  8
1
 62
1
 10
27.1471102694922
 20
171.6767947783745
 30
0
 11
27.1471102694922
 21
178.6767947783745
 31
0
  0
LINE
  8
1
 62
1
 10
27.1471102694922
 20
171.6767947783745
 30
0
 11
27.1471102694922
 21
161.6767947783745
 31
0
  0
LINE
  8
1
 62
1
 10
27.1471102694922
 20
178.6767947783745
 30
0
 11
27.1471102694922
 21
188.6767947783745
 31
0
  0
LINE
  8
1
 62
1
 10
53.13660447798028
 20
171.6767947783745
 30
0
 11
25.1471102694922
 21
171.6767947783745
 31
0
  0
LINE
  8
1
 62
1
 10
42.69977942398461
 20
178.6767947783745
 30
0
 11
25.1471102694922
 21
178.6767947783745
 31
0
  0
SOLID
  8
1
 62
1
 10
27.1471102694922
 20
178.6767947783745
 30
0
 11
26.4971102694922
 21
183.6767947783745
 31
0
 12
27.7971102694922
 22
183.6767947783745
 32
0
 13
27.7971102694922
 23
183.6767947783745
 33
0
  0
SOLID
  8
1
 62
1
 10
27.1471102694922
 20
171.6767947783745
 30
0
 11
27.7971102694922
 21
166.6767947783745
 31
0
 12
26.4971102694922
 22
166.6767947783745
 32
0
 13
26.4971102694922
 23
166.6767947783745
 33
0
  0
TEXT
  8
1
 62
7
 10
25.1471102694922
 20
173.6767947783745
 30
0
 40
5
  1
7
 50
90
 41
0.9
  0
ENDBLK
  8
0
  0
BLOCK
  8
1
  2
*D8
 70
1
 10
0
 20
0
 30
0
  0
LINE
  8
1
 62
1
 10
92.9600802284068
 20
123.6767947783745
 30
0
 11
92.9600802284068
 21
178.6767947783745
 31
0
  0
LINE
  8
1
 62
1
 10
76.69977942398461
 20
123.6767947783745
 30
0
 11
94.9600802284068
 21
123.6767947783745
 31
0
  0
LINE
  8
1
 62
1
 10
76.69977942398461
 20
178.6767947783745
 30
0
 11
94.9600802284068
 21
178.6767947783745
 31
0
  0
SOLID
  8
1
 62
1
 10
92.9600802284068
 20
178.6767947783745
 30
0
 11
93.6100802284068
 21
173.6767947783745
 31
0
 12
92.31008022840679
 22
173.6767947783745
 32
0
 13
92.31008022840679
 23
173.6767947783745
 33
0
  0
SOLID
  8
1
 62
1
 10
92.9600802284068
 20
123.6767947783745
 30
0
 11
92.31008022840679
 21
128.6767947783745
 31
0
 12
93.61008022840679
 22
128.6767947783745
 32
0
 13
93.61008022840679
 23
128.6767947783745
 33
0
  0
TEXT
  8
1
 62
7
 10
90.9600802284068
 20
147.4267947783745
 30
0
 40
5
  1
55
 50
90
 41
0.9
  0
ENDBLK
  8
0
  0
BLOCK
  8
1
  2
*D9
 70
1
 10
0
 20
0
 30
0
  0
LINE
  8
1
 62
1
 10
92.9317443683989
 20
68.67679477837453
 30
0
 11
92.9317443683989
 21
123.6767947783745
 31
0
  0
LINE
  8
1
 62
1
 10
66.29977942398463
 20
68.67679477837453
 30
0
 11
94.9317443683989
 21
68.67679477837453
 31
0
  0
LINE
  8
1
 62
1
 10
76.69977942398461
 20
123.6767947783745
 30
0
 11
94.9317443683989
 21
123.6767947783745
 31
0
  0
SOLID
  8
1
 62
1
 10
92.9317443683989
 20
123.6767947783745
 30
0
 11
93.5817443683989
 21
118.6767947783745
 31
0
 12
92.28174436839889
 22
118.6767947783745
 32
0
 13
92.28174436839889
 23
118.6767947783745
 33
0
  0
SOLID
  8
1
 62
1
 10
92.9317443683989
 20
68.67679477837453
 30
0
 11
92.28174436839889
 21
73.67679477837453
 31
0
 12
93.58174436839889
 22
73.67679477837453
 32
0
 13
93.58174436839889
 23
73.67679477837453
 33
0
  0
TEXT
  8
1
 62
7
 10
90.9317443683989
 20
99.17679477837453
 30
0
 40
5
  1
55
 50
90
 41
0.9
  0
TEXT
  8
1
 62
7
 10
90.9317443683989
 20
85.67679477837453
 30
0
 40
5
  1
1= 
 50
90
 41
0.9
  0
ENDBLK
  8
0
  0
BLOCK
  8
1
  2
*D10
 70
1
 10
0
 20
0
 30
0
  0
LINE
  8
1
 62
1
 10
116.51774532021
 20
115.6267947783744
 30
0
 11
116.51774532021
 21
131.7267947783745
 31
0
  0
LINE
  8
1
 62
1
 10
125.7384403311122
 20
115.6267947783744
 30
0
 11
114.51774532021
 21
115.6267947783744
 31
0
  0
LINE
  8
1
 62
1
 10
125.7384403311122
 20
131.7267947783745
 30
0
 11
114.51774532021
 21
131.7267947783745
 31
0
  0
SOLID
  8
1
 62
1
 10
116.51774532021
 20
131.7267947783745
 30
0
 11
117.16774532021
 21
126.7267947783745
 31
0
 12
115.86774532021
 22
126.7267947783745
 32
0
 13
115.86774532021
 23
126.7267947783745
 33
0
  0
SOLID
  8
1
 62
1
 10
116.51774532021
 20
115.6267947783744
 30
0
 11
115.86774532021
 21
120.6267947783744
 31
0
 12
117.16774532021
 22
120.6267947783744
 32
0
 13
117.16774532021
 23
120.6267947783744
 33
0
  0
TEXT
  8
1
 62
7
 10
113.797771247601
 20
123.698145723912
 30
0
 40
5
  1
16
 50
90
 41
0.9
  0
TEXT
  8
1
 62
7
 10
113.797771247601
 20
118.198145723912
 30
0
 40
5
  1
Ö
 50
90
 41
0.9
  0
ENDBLK
  8
0
  0
BLOCK
  8
1
  2
*D11
 70
1
 10
0
 20
0
 30
0
  0
LINE
  8
1
 62
1
 10
27.073765864404
 20
15.67679477837453
 30
0
 11
27.073765864404
 21
171.6767947783745
 31
0
  0
LINE
  8
1
 62
1
 10
46.39977942398458
 20
15.67679477837453
 30
0
 11
25.073765864404
 21
15.67679477837453
 31
0
  0
LINE
  8
1
 62
1
 10
46.39977942398457
 20
171.6767947783745
 30
0
 11
25.073765864404
 21
171.6767947783745
 31
0
  0
SOLID
  8
1
 62
1
 10
27.073765864404
 20
171.6767947783745
 30
0
 11
27.723765864404
 21
166.6767947783745
 31
0
 12
26.423765864404
 22
166.6767947783745
 32
0
 13
26.423765864404
 23
166.6767947783745
 33
0
  0
SOLID
  8
1
 62
1
 10
27.073765864404
 20
15.67679477837453
 30
0
 11
26.423765864404
 21
20.67679477837453
 31
0
 12
27.723765864404
 22
20.67679477837453
 32
0
 13
27.723765864404
 23
20.67679477837453
 33
0
  0
TEXT
  8
1
 62
7
 10
25.073765864404
 20
88.42679477837451
 30
0
 40
5
  1
156
 50
90
 41
0.9
  0
ENDBLK
  8
0
  0
BLOCK
  8
1
  2
*D12
 70
1
 10
0
 20
0
 30
0
  0
LINE
  8
1
 62
1
 10
49.69977942398461
 20
-6.52995223847324
 30
0
 11
69.69977942398461
 21
-6.52995223847324
 31
0
  0
LINE
  8
1
 62
1
 10
49.69977942398461
 20
12.3767947783745
 30
0
 11
49.69977942398461
 21
-8.529952238473239
 31
0
  0
LINE
  8
1
 62
1
 10
69.69977942398461
 20
12.37679477837448
 30
0
 11
69.69977942398461
 21
-8.529952238473239
 31
0
  0
SOLID
  8
1
 62
1
 10
49.69977942398461
 20
-6.52995223847324
 30
0
 11
54.69977942398461
 21
-5.87995223847324
 31
0
 12
54.69977942398461
 22
-7.17995223847324
 32
0
 13
54.69977942398461
 23
-7.17995223847324
 33
0
  0
SOLID
  8
1
 62
1
 10
69.69977942398461
 20
-6.52995223847324
 30
0
 11
64.69977942398461
 21
-7.179952238473239
 31
0
 12
64.69977942398461
 22
-5.87995223847324
 32
0
 13
64.69977942398461
 23
-5.87995223847324
 33
0
  0
TEXT
  8
1
 62
7
 10
55.94977942398461
 20
-4.52995223847324
 30
0
 40
5
  1
20
 41
0.9
  0
ENDBLK
  8
0
  0
BLOCK
  8
1
  2
*D13
 70
1
 10
0
 20
0
 30
0
  0
LINE
  8
1
 62
1
 10
59.69977942398461
 20
-6.46984558385166
 30
0
 11
69.69977942398461
 21
-6.46984558385166
 31
0
  0
LINE
  8
1
 62
1
 10
69.69977942398461
 20
-6.46984558385166
 30
0
 11
76.69977942398461
 21
-6.46984558385166
 31
0
  0
LINE
  8
1
 62
1
 10
76.69977942398461
 20
-6.46984558385166
 30
0
 11
86.69977942398461
 21
-6.46984558385166
 31
0
  0
LINE
  8
1
 62
1
 10
69.69977942398461
 20
12.37679477837448
 30
0
 11
69.69977942398461
 21
-8.46984558385166
 31
0
  0
LINE
  8
1
 62
1
 10
76.69977942398461
 20
8.67679477837453
 30
0
 11
76.69977942398461
 21
-8.46984558385166
 31
0
  0
SOLID
  8
1
 62
1
 10
69.69977942398461
 20
-6.46984558385166
 30
0
 11
64.69977942398461
 21
-7.119845583851658
 31
0
 12
64.69977942398461
 22
-5.819845583851659
 32
0
 13
64.69977942398461
 23
-5.819845583851659
 33
0
  0
SOLID
  8
1
 62
1
 10
76.69977942398461
 20
-6.46984558385166
 30
0
 11
81.69977942398461
 21
-5.819845583851659
 31
0
 12
81.69977942398461
 22
-7.11984558385166
 32
0
 13
81.69977942398461
 23
-7.11984558385166
 33
0
  0
TEXT
  8
1
 62
7
 10
83.0337146811578
 20
-4.46984558385166
 30
0
 40
5
  1
7
 41
0.9
  0
ENDBLK
  8
0
  0
BLOCK
  8
1
  2
*D14
 70
1
 10
0
 20
0
 30
0
  0
LINE
  8
1
 62
1
 10
59.69977942398461
 20
-6.46984558385166
 30
0
 11
49.69977942398461
 21
-6.46984558385166
 31
0
  0
LINE
  8
1
 62
1
 10
42.69977942398461
 20
-6.46984558385166
 30
0
 11
49.69977942398461
 21
-6.46984558385166
 31
0
  0
LINE
  8
1
 62
1
 10
42.69977942398461
 20
-6.46984558385166
 30
0
 11
32.69977942398461
 21
-6.46984558385166
 31
0
  0
LINE
  8
1
 62
1
 10
42.69977942398461
 20
8.67679477837453
 30
0
 11
42.69977942398461
 21
-8.46984558385166
 31
0
  0
LINE
  8
1
 62
1
 10
49.69977942398461
 20
12.3767947783745
 30
0
 11
49.69977942398461
 21
-8.46984558385166
 31
0
  0
SOLID
  8
1
 62
1
 10
49.69977942398461
 20
-6.46984558385166
 30
0
 11
54.69977942398461
 21
-5.819845583851659
 31
0
 12
54.69977942398461
 22
-7.11984558385166
 32
0
 13
54.69977942398461
 23
-7.11984558385166
 33
0
  0
SOLID
  8
1
 62
1
 10
42.69977942398461
 20
-6.46984558385166
 30
0
 11
37.69977942398461
 21
-7.119845583851658
 31
0
 12
37.69977942398461
 22
-5.819845583851659
 32
0
 13
37.69977942398461
 23
-5.819845583851659
 33
0
  0
TEXT
  8
1
 62
7
 10
33.0643105012336
 20
-4.46984558385166
 30
0
 40
5
  1
7
 41
0.9
  0
ENDBLK
  8
0
  0
BLOCK
  8
1
  2
*D15
 70
1
 10
0
 20
0
 30
0
  0
LINE
  8
1
 62
1
 10
72.99977942398463
 20
171.6767947783745
 30
0
 11
66.39977942398458
 21
171.6767947783745
 31
0
  0
LINE
  8
1
 62
1
 10
69.69977942398461
 20
174.9767947783745
 30
0
 11
69.69977942398461
 21
168.3767947783745
 31
0
  0
LINE
  8
1
 62
1
 10
69.69977942398461
 20
171.6767947783745
 30
0
 11
56.1758298884568
 21
160.5740424194892
 31
0
  0
SOLID
  8
1
 62
1
 10
67.38107884758372
 20
169.773211936206
 30
0
 11
63.92902083605213
 21
166.0981887410383
 31
0
 12
63.10413493777911
 22
167.102958990812
 32
0
 13
63.10413493777911
 23
167.102958990812
 33
0
  0
TEXT
  8
1
 62
7
 10
54.90677466034447
 20
162.1198428037564
 30
0
 40
5
  1
 
 50
39.38495728428033
 41
0.9
  0
ENDBLK
  8
0
  0
BLOCK
  8
1
  2
*D16
 70
1
 10
0
 20
0
 30
0
  0
LINE
  8
1
 62
1
 10
72.99977942398463
 20
171.6767947783745
 30
0
 11
66.39977942398458
 21
171.6767947783745
 31
0
  0
LINE
  8
1
 62
1
 10
69.69977942398461
 20
174.9767947783745
 30
0
 11
69.69977942398461
 21
168.3767947783745
 31
0
  0
LINE
  8
1
 62
1
 10
69.69977942398461
 20
171.6767947783745
 30
0
 11
100.8084144272613
 21
196.9019546867987
 31
0
  0
SOLID
  8
1
 62
1
 10
72.029975493921
 20
173.5662884342657
 30
0
 11
75.50424531837186
 21
177.2203203425706
 31
0
 12
76.32302590259138
 22
176.2105687122648
 32
0
 13
76.32302590259138
 23
176.2105687122648
 33
0
  0
TEXT
  8
1
 62
7
 10
83.23737950044593
 20
185.2289631421845
 30
0
 40
5
  1
6
 50
39.03767125045559
 41
0.9
  0
TEXT
  8
1
 62
7
 10
87.50940562866259
 20
188.6930348446517
 30
0
 40
5
  1
x90%%d
 50
39.03767125045559
 41
0.9
  0
ENDBLK
  8
0
  0
ENDSEC
  0
SECTION
  2
ENTITIES
  0
LINE
  8
1
 62
2
  6
PHANTOM
 10
59.69977942398461
 20
75.27679477837452
 30
0
 11
59.69977942398461
 21
62.07679477837451
 31
0
  0
LINE
  8
1
 62
2
  6
PHANTOM
 10
66.29977942398463
 20
68.67679477837453
 30
0
 11
53.09977942398459
 21
68.67679477837453
 31
0
  0
LINE
  8
1
 62
2
  6
PHANTOM
 10
124.1905246343461
 20
74.97679477837451
 30
0
 11
132.1042808211084
 21
74.97679477837451
 31
0
  0
LINE
  8
1
 62
2
  6
PHANTOM
 10
69.69977942398461
 20
75.37679477837452
 30
0
 11
49.69977942398461
 21
75.37679477837452
 31
0
  0
LINE
  8
1
 62
2
  6
DASHED
 10
64.79977942398463
 20
55.37679477837451
 30
0
 11
64.79977942398463
 21
68.45220092746894
 31
0
  0
LINE
  8
1
 62
2
  6
DASHED
 10
54.59977942398459
 20
55.37679477837451
 30
0
 11
54.59977942398459
 21
68.45220092746894
 31
0
  0
LINE
  8
1
 62
2
  6
PHANTOM
 10
121.3274684088659
 20
73.37679477837463
 30
0
 11
134.1568420589739
 21
73.37679477837463
 31
0
  0
LINE
  8
1
 62
2
  6
PHANTOM
 10
46.19977942398461
 20
73.37679477837463
 30
0
 11
73.19977942398461
 21
73.37679477837463
 31
0
  0
LINE
  8
1
 62
2
  6
PHANTOM
 10
121.3261293159934
 20
68.67679477837453
 30
0
 11
134.1555029661014
 21
68.67679477837453
 31
0
  0
LINE
  8
1
 62
2
  6
PHANTOM
 10
59.69977942398461
 20
181.1665672618028
 30
0
 11
59.69977942398461
 21
4.525425119048895
 31
0
  0
LINE
  8
1
 62
2
  6
PHANTOM
 10
42.69977942398461
 20
123.6767947783745
 30
0
 11
76.69977942398461
 21
123.6767947783745
 31
0
  0
LINE
  8
1
 62
7
 10
126.9384403311122
 20
178.6767947783745
 30
0
 11
126.9384403311122
 21
8.676794778374559
 31
0
  0
LINE
  8
1
 62
7
 10
128.4384403311122
 20
178.6767947783745
 30
0
 11
126.9384403311122
 21
178.6767947783745
 31
0
  0
LINE
  8
1
 62
7
 10
128.4384403311122
 20
8.676794778374529
 30
0
 11
128.4384403311122
 21
178.6767947783745
 31
0
  0
LINE
  8
1
 62
7
 10
126.9384403311122
 20
8.676794778374559
 30
0
 11
128.4384403311122
 21
8.676794778374529
 31
0
  0
LINE
  8
1
 62
2
  6
PHANTOM
 10
71.69977942398461
 20
15.67679477837453
 30
0
 11
72.69977942398465
 21
15.67679477837453
 31
0
  0
LINE
  8
1
 62
2
  6
PHANTOM
 10
67.69977942398461
 20
15.67679477837453
 30
0
 11
71.69977942398461
 21
15.67679477837453
 31
0
  0
LINE
  8
1
 62
2
  6
PHANTOM
 10
71.69977942398461
 20
171.6767947783745
 30
0
 11
72.69977942398464
 21
171.6767947783745
 31
0
  0
LINE
  8
1
 62
2
  6
PHANTOM
 10
67.69977942398461
 20
171.6767947783745
 30
0
 11
71.69977942398461
 21
171.6767947783745
 31
0
  0
LINE
  8
1
 62
2
  6
PHANTOM
 10
66.69977942398458
 20
171.6767947783745
 30
0
 11
67.69977942398461
 21
171.6767947783745
 31
0
  0
LINE
  8
1
 62
2
  6
PHANTOM
 10
66.69977942398458
 20
15.67679477837453
 30
0
 11
67.69977942398461
 21
15.67679477837453
 31
0
  0
LINE
  8
1
 62
2
  6
PHANTOM
 10
56.69977942398459
 20
171.6767947783745
 30
0
 11
66.26295436998893
 21
171.6767947783745
 31
0
  0
LINE
  8
1
 62
7
 10
55.19977942398461
 20
62.6331119406511
 30
0
 11
56.29977942398463
 21
63.73311194065121
 31
0
  0
LINE
  8
1
 62
7
 10
64.19977942398461
 20
62.6331119406511
 30
0
 11
64.19977942398461
 21
50.87679477837452
 31
0
  0
LINE
  8
1
 62
7
 10
63.09977942398459
 20
63.73311194065121
 30
0
 11
64.19977942398461
 21
62.6331119406511
 31
0
  0
LINE
  8
1
 62
7
 10
42.69977942398461
 20
8.676794778374529
 30
0
 11
76.69977942398461
 21
8.676794778374529
 31
0
  0
LINE
  8
1
 62
7
 10
76.69977942398461
 20
8.676794778374529
 30
0
 11
76.69977942398461
 21
178.6767947783745
 31
0
  0
LINE
  8
1
 62
7
 10
76.69977942398461
 20
178.6767947783745
 30
0
 11
42.69977942398461
 21
178.6767947783745
 31
0
  0
LINE
  8
1
 62
7
 10
42.69977942398461
 20
178.6767947783745
 30
0
 11
42.69977942398461
 21
8.676794778374529
 31
0
  0
LINE
  8
1
 62
2
  6
PHANTOM
 10
53.13660447798028
 20
171.6767947783745
 30
0
 11
56.69977942398459
 21
171.6767947783745
 31
0
  0
LINE
  8
1
 62
2
  6
PHANTOM
 10
52.51889389482696
 20
15.67679477837453
 30
0
 11
66.69977942398458
 21
15.67679477837453
 31
0
  0
LINE
  8
1
 62
7
 10
64.19977942398461
 20
50.87679477837452
 30
0
 11
61.93584740148444
 21
50.87679477837452
 31
0
  0
LINE
  8
1
 62
7
 10
57.46371144648492
 20
50.87679477837452
 30
0
 11
55.19977942398461
 21
50.87679477837452
 31
0
  0
LINE
  8
1
 62
7
 10
55.19977942398461
 20
50.87679477837452
 30
0
 11
55.19977942398461
 21
62.6331119406511
 31
0
  0
LINE
  8
1
 62
7
 10
126.9384403311122
 20
113.7767947783746
 30
0
 11
125.7384403311122
 21
113.7767947783746
 31
0
  0
LINE
  8
1
 62
2
  6
DASHED
 10
126.9384403311122
 20
133.5767947783744
 30
0
 11
128.4384403311122
 21
133.5767947783744
 31
0
  0
LINE
  8
1
 62
7
 10
125.7384403311122
 20
131.7267947783745
 30
0
 11
125.7384403311122
 21
123.6767947783745
 31
0
  0
LINE
  8
1
 62
2
  6
DASHED
 10
135.1884403311121
 20
131.7267947783745
 30
0
 11
125.7384403311122
 21
131.7267947783745
 31
0
  0
LINE
  8
1
 62
2
  6
DASHED
 10
135.4384403311121
 20
131.9767947783745
 30
0
 11
135.1884403311121
 21
131.7267947783745
 31
0
  0
LINE
  8
1
 62
7
 10
135.4384403311121
 20
133.6767947783744
 30
0
 11
135.4384403311121
 21
131.9767947783745
 31
0
  0
LINE
  8
1
 62
7
 10
129.9384403311122
 20
137.1767947783744
 30
0
 11
135.4384403311121
 21
133.6767947783744
 31
0
  0
LINE
  8
1
 62
7
 10
128.4384403311122
 20
137.1767947783744
 30
0
 11
129.9384403311122
 21
137.1767947783744
 31
0
  0
LINE
  8
1
 62
7
 10
128.4384403311122
 20
133.5767947783744
 30
0
 11
128.4384403311122
 21
137.1767947783744
 31
0
  0
LINE
  8
1
 62
7
 10
125.7384403311122
 20
133.5767947783744
 30
0
 11
126.9384403311122
 21
133.5767947783744
 31
0
  0
LINE
  8
1
 62
7
 10
125.7384403311122
 20
131.7267947783745
 30
0
 11
125.7384403311122
 21
133.5767947783744
 31
0
  0
LINE
  8
1
 62
2
  6
DASHED
 10
135.1884403311121
 20
123.6767947783745
 30
0
 11
135.1884403311121
 21
131.7267947783745
 31
0
  0
LINE
  8
1
 62
7
 10
135.4384403311121
 20
123.6767947783745
 30
0
 11
135.4384403311121
 21
131.9767947783745
 31
0
  0
LINE
  8
1
 62
2
  6
PHANTOM
 10
135.4384403311121
 20
123.6767947783745
 30
0
 11
137.2174965751541
 21
123.6767947783745
 31
0
  0
LINE
  8
1
 62
2
  6
DASHDOT
 10
128.4384403311122
 20
131.7267947783745
 30
0
 11
128.4384403311122
 21
133.5767947783744
 31
0
  0
LINE
  8
1
 62
7
 10
129.9384403311122
 20
131.7267947783745
 30
0
 11
129.9384403311122
 21
137.1767947783744
 31
0
  0
LINE
  8
1
 62
7
 10
125.7384403311122
 20
123.6767947783745
 30
0
 11
125.7384403311122
 21
115.6267947783744
 31
0
  0
LINE
  8
1
 62
2
  6
DASHED
 10
135.1884403311121
 20
115.6267947783744
 30
0
 11
135.4384403311121
 21
115.3767947783744
 31
0
  0
LINE
  8
1
 62
7
 10
135.4384403311121
 20
115.3767947783744
 30
0
 11
135.4384403311121
 21
113.6767947783745
 31
0
  0
LINE
  8
1
 62
7
 10
135.4384403311121
 20
113.6767947783745
 30
0
 11
129.9384403311122
 21
110.1767947783745
 31
0
  0
LINE
  8
1
 62
7
 10
129.9384403311122
 20
110.1767947783745
 30
0
 11
128.4384403311122
 21
110.1767947783745
 31
0
  0
LINE
  8
1
 62
7
 10
128.4384403311122
 20
110.1767947783745
 30
0
 11
128.4384403311122
 21
113.7767947783746
 31
0
  0
LINE
  8
1
 62
2
  6
DASHED
 10
128.4384403311122
 20
113.7767947783746
 30
0
 11
126.9384403311122
 21
113.7767947783746
 31
0
  0
LINE
  8
1
 62
7
 10
125.7384403311122
 20
113.7767947783746
 30
0
 11
125.7384403311122
 21
115.6267947783744
 31
0
  0
LINE
  8
1
 62
2
  6
DASHED
 10
135.1884403311121
 20
115.6267947783744
 30
0
 11
135.1884403311121
 21
123.6767947783745
 31
0
  0
LINE
  8
1
 62
7
 10
135.4384403311121
 20
115.3767947783744
 30
0
 11
135.4384403311121
 21
123.6767947783745
 31
0
  0
LINE
  8
1
 62
2
  6
DASHDOT
 10
128.4384403311122
 20
115.6267947783744
 30
0
 11
128.4384403311122
 21
123.6767947783745
 31
0
  0
LINE
  8
1
 62
7
 10
129.9384403311122
 20
115.6267947783744
 30
0
 11
129.9384403311122
 21
123.6767947783745
 31
0
  0
LINE
  8
1
 62
7
 10
129.9384403311122
 20
110.1767947783745
 30
0
 11
129.9384403311122
 21
115.6267947783744
 31
0
  0
LINE
  8
1
 62
2
  6
DASHED
 10
125.7384403311122
 20
115.6267947783744
 30
0
 11
135.1884403311121
 21
115.6267947783744
 31
0
  0
LINE
  8
1
 62
2
  6
DASHDOT
 10
128.4384403311122
 20
113.7767947783746
 30
0
 11
128.4384403311122
 21
115.6267947783744
 31
0
  0
LINE
  8
1
 62
2
  6
PHANTOM
 10
128.4384403311122
 20
123.6767947783745
 30
0
 11
129.9384403311122
 21
123.6767947783745
 31
0
  0
LINE
  8
1
 62
2
  6
PHANTOM
 10
125.7384403311122
 20
123.6767947783745
 30
0
 11
128.4384403311122
 21
123.6767947783745
 31
0
  0
LINE
  8
1
 62
2
  6
DASHDOT
 10
135.1884403311121
 20
123.6767947783745
 30
0
 11
135.4384403311121
 21
123.6767947783745
 31
0
  0
LINE
  8
1
 62
2
  6
PHANTOM
 10
129.9384403311122
 20
123.6767947783745
 30
0
 11
135.1884403311121
 21
123.6767947783745
 31
0
  0
LINE
  8
1
 62
2
  6
PHANTOM
 10
124.0492601595202
 20
123.6767947783745
 30
0
 11
125.7384403311122
 21
123.6767947783745
 31
0
  0
LINE
  8
1
 62
7
 10
129.9384403311122
 20
123.6767947783745
 30
0
 11
129.9384403311122
 21
131.7267947783745
 31
0
  0
LINE
  8
1
 62
2
  6
DASHDOT
 10
128.4384403311122
 20
123.6767947783745
 30
0
 11
128.4384403311122
 21
131.7267947783745
 31
0
  0
LINE
  8
1
 62
2
  6
PHANTOM
 10
125.5599265301428
 20
17.67679477837453
 30
0
 11
129.5082441519372
 21
17.67679477837453
 31
0
  0
LINE
  8
1
 62
7
 10
126.9384403311122
 20
176.3481877751145
 30
0
 11
126.9384403311149
 21
176.3481877751129
 31
0
  0
LINE
  8
1
 62
2
  6
DASHED
 10
127.438440331112
 20
15.67679477837453
 30
0
 11
128.4384403311122
 21
14.6767947783745
 31
0
  0
LINE
  8
1
 62
2
  6
DASHED
 10
127.438440331112
 20
19.67679477837453
 30
0
 11
126.9384403311122
 21
19.67679477837453
 31
0
  0
LINE
  8
1
 62
2
  6
DASHED
 10
128.4384403311122
 20
20.67679477837454
 30
0
 11
127.438440331112
 21
19.67679477837453
 31
0
  0
LINE
  8
1
 62
7
 10
126.9384403311122
 20
24.34818777511452
 30
0
 11
126.9384403311149
 21
24.3481877751129
 31
0
  0
LINE
  8
1
 62
2
  6
DASHED
 10
126.9384403311122
 20
15.67679477837453
 30
0
 11
127.438440331112
 21
15.67679477837453
 31
0
  0
LINE
  8
1
 62
2
  6
DASHED
 10
127.438440331112
 20
15.67679477837453
 30
0
 11
127.438440331112
 21
19.67679477837453
 31
0
  0
LINE
  8
1
 62
2
  6
PHANTOM
 10
125.5599265301428
 20
169.6767947783745
 30
0
 11
129.5082441519372
 21
169.6767947783745
 31
0
  0
LINE
  8
1
 62
2
  6
DASHED
 10
127.438440331112
 20
167.6767947783745
 30
0
 11
128.4384403311122
 21
166.6767947783745
 31
0
  0
LINE
  8
1
 62
2
  6
DASHED
 10
127.438440331112
 20
171.6767947783745
 30
0
 11
126.9384403311122
 21
171.6767947783745
 31
0
  0
LINE
  8
1
 62
2
  6
DASHED
 10
128.4384403311122
 20
172.6767947783745
 30
0
 11
127.438440331112
 21
171.6767947783745
 31
0
  0
LINE
  8
1
 62
7
 10
126.9384403311122
 20
176.3481877751145
 30
0
 11
126.9384403311149
 21
176.3481877751129
 31
0
  0
LINE
  8
1
 62
2
  6
DASHED
 10
126.9384403311122
 20
167.6767947783745
 30
0
 11
127.438440331112
 21
167.6767947783745
 31
0
  0
LINE
  8
1
 62
2
  6
DASHED
 10
127.438440331112
 20
167.6767947783745
 30
0
 11
127.438440331112
 21
171.6767947783745
 31
0
  0
LINE
  8
1
 62
2
  6
PHANTOM
 10
51.69977942398461
 20
171.6767947783745
 30
0
 11
52.69977942398464
 21
171.6767947783745
 31
0
  0
LINE
  8
1
 62
2
  6
PHANTOM
 10
47.69977942398461
 20
171.6767947783745
 30
0
 11
51.69977942398461
 21
171.6767947783745
 31
0
  0
LINE
  8
1
 62
2
  6
PHANTOM
 10
46.69977942398459
 20
171.6767947783745
 30
0
 11
47.69977942398461
 21
171.6767947783745
 31
0
  0
LINE
  8
1
 62
2
  6
DIVIDE
 10
52.99977942398465
 20
171.6767947783745
 30
0
 11
46.39977942398457
 21
171.6767947783745
 31
0
  0
LINE
  8
1
 62
2
  6
DIVIDE
 10
49.69977942398461
 20
174.9767947783745
 30
0
 11
49.69977942398461
 21
168.3767947783745
 31
0
  0
LINE
  8
1
 62
2
  6
PHANTOM
 10
52.51889389482696
 20
15.67679477837453
 30
0
 11
46.69977942398459
 21
15.67679477837453
 31
0
  0
LINE
  8
1
 62
2
  6
PHANTOM
 10
51.69977942398461
 20
15.67679477837453
 30
0
 11
52.69977942398464
 21
15.67679477837453
 31
0
  0
LINE
  8
1
 62
2
  6
PHANTOM
 10
47.69977942398461
 20
15.67679477837453
 30
0
 11
52.69977942398464
 21
15.67679477837453
 31
0
  0
LINE
  8
1
 62
2
  6
PHANTOM
 10
46.69977942398459
 20
15.67679477837453
 30
0
 11
47.69977942398461
 21
15.67679477837453
 31
0
  0
LINE
  8
1
 62
2
  6
DIVIDE
 10
72.99977942398465
 20
15.67679477837453
 30
0
 11
66.39977942398457
 21
15.67679477837453
 31
0
  0
LINE
  8
1
 62
2
  6
DIVIDE
 10
69.69977942398461
 20
18.97679477837458
 30
0
 11
69.69977942398461
 21
12.37679477837448
 31
0
  0
LINE
  8
1
 62
2
  6
DIVIDE
 10
52.99977942398464
 20
15.67679477837453
 30
0
 11
46.39977942398458
 21
15.67679477837453
 31
0
  0
LINE
  8
1
 62
2
  6
DIVIDE
 10
49.69977942398461
 20
18.97679477837456
 30
0
 11
49.69977942398461
 21
12.3767947783745
 31
0
  0
ARC
  8
1
 62
2
  6
DASHED
 10
59.69977942398461
 20
75.37679477837452
 30
0
 40
8.599999999999977
 50
306.3718424099347
 51
233.6281575900653
  0
ARC
  8
1
 62
2
  6
DASHED
 10
59.69977942398461
 20
55.37679477837451
 30
0
 40
5.100000000000016
 50
180
 51
0
  0
ARC
  8
1
 62
7
 10
69.69977942398461
 20
15.67679477837453
 30
0
 40
2
 50
180
 51
0
  0
ARC
  8
1
 62
7
 10
69.69977942398461
 20
15.67679477837453
 30
0
 40
2
 50
0
 51
180
  0
ARC
  8
1
 62
7
 10
69.69977942398461
 20
171.6767947783745
 30
0
 40
2
 50
180
 51
0
  0
ARC
  8
1
 62
7
 10
69.69977942398461
 20
171.6767947783745
 30
0
 40
2
 50
0
 51
180
  0
ARC
  8
1
 62
7
 10
69.69977942398461
 20
171.6767947783745
 30
0
 40
3.000000000000028
 50
180
 51
0
  0
ARC
  8
1
 62
7
 10
69.69977942398461
 20
171.6767947783745
 30
0
 40
3.000000000000028
 50
0
 51
180
  0
ARC
  8
1
 62
7
 10
69.69977942398461
 20
15.67679477837453
 30
0
 40
3.000000000000028
 50
180
 51
0
  0
ARC
  8
1
 62
7
 10
69.69977942398461
 20
15.67679477837453
 30
0
 40
3.000000000000043
 50
0
 51
180
  0
ARC
  8
1
 62
7
 10
59.69977942398461
 20
68.67679477837453
 30
0
 40
5.999999999999996
 50
304.5181078410611
 51
235.4818921589389
  0
ARC
  8
1
 62
7
 10
59.69977942398461
 20
52.87679477837452
 30
0
 40
2.999999999999923
 50
221.8103148957799
 51
318.1896851042219
  0
ARC
  8
1
 62
7
 10
49.69977942398461
 20
171.6767947783745
 30
0
 40
2
 50
180
 51
0
  0
ARC
  8
1
 62
7
 10
49.69977942398461
 20
171.6767947783745
 30
0
 40
2
 50
0
 51
180
  0
ARC
  8
1
 62
7
 10
49.69977942398461
 20
171.6767947783745
 30
0
 40
3.000000000000021
 50
180
 51
0
  0
ARC
  8
1
 62
7
 10
49.69977942398461
 20
171.6767947783745
 30
0
 40
3.000000000000028
 50
0
 51
180
  0
ARC
  8
1
 62
7
 10
49.69977942398461
 20
15.67679477837453
 30
0
 40
2
 50
180
 51
0
  0
ARC
  8
1
 62
7
 10
49.69977942398461
 20
15.67679477837453
 30
0
 40
2
 50
0
 51
180
  0
ARC
  8
1
 62
7
 10
49.69977942398461
 20
15.67679477837453
 30
0
 40
3.000000000000021
 50
180
 51
0
  0
ARC
  8
1
 62
7
 10
49.69977942398461
 20
15.67679477837453
 30
0
 40
3.000000000000028
 50
0
 51
180
  0
CIRCLE
  8
1
 62
2
  6
DASHED
 10
59.69977942398461
 20
73.37679477837463
 30
0
 40
11.25
  0
CIRCLE
  8
1
 62
7
 10
59.69977942398461
 20
123.6767947783745
 30
0
 40
8.050000000000068
  0
CIRCLE
  8
1
 62
7
 10
59.69977942398461
 20
123.6767947783745
 30
0
 40
10
  0
CIRCLE
  8
1
 62
7
 10
59.69977942398461
 20
123.6767947783745
 30
0
 40
13.5
  0
TEXT
  8
1
 62
7
 10
106.7447593948178
 20
25.41940688326881
 30
0
 40
5
  1
3= 66,7
 50
90
 41
0.9
  0
TEXT
  8
1
 62
7
 10
99.74475939481781
 20
25.41940688326881
 30
0
 40
5
  1
2= 64,7
 50
90
 41
0.9
  0
TEXT
  8
1
 62
7
 10
106.7447593948178
 20
85.41940688326881
 30
0
 40
5
  1
3= 48,3
 50
90
 41
0.9
  0
TEXT
  8
1
 62
7
 10
99.74475939481781
 20
85.41940688326881
 30
0
 40
5
  1
2= 50,3
 50
90
 41
0.9
  0
TEXT
  8
1
 62
7
 10
30.03725220037401
 20
-46.9599330020663
 30
0
 40
7
  1
5313.104.407
 41
0.9
  0
TEXT
  8
1
 62
7
 10
30.03725220037401
 20
-62.3599330020663
 30
0
 40
7
  1
5313.204.407
 41
0.9
  0
TEXT
  8
1
 62
7
 10
30.03725220037401
 20
-77.7599330020663
 30
0
 40
7
  1
5313.304.407
 41
0.9
  0
DIMENSION
  8
1
  6
CONTINUOUS
 62
1
  2
*D0
  3
DMST_1
 10
126.9384403311122
 20
-21.0969695844668
 30
0
 11
117.084515039857
 21
-16.3469695844668
 31
0
 12
0
 22
0
 32
0
 70
0
 13
128.4384403311122
 23
8.676794778374529
 33
0
 14
126.9384403311122
 24
8.676794778374559
 34
0
 53
0
  0
DIMENSION
  8
1
  6
CONTINUOUS
 62
1
  2
*D1
  3
DMST_1
 10
126.9384403311122
 20
192.998705711274
 30
0
 11
111.664748380735
 21
197.748705711274
 31
0
 12
0
 22
0
 32
0
 70
0
 13
135.4384403311121
 23
131.9767947783745
 33
0
 14
126.9384403311122
 24
178.6767947783745
 34
0
 53
0
  0
DIMENSION
  8
1
  6
CONTINUOUS
 62
1
  2
*D2
  3
DMST_1
 10
93.00274926929561
 20
8.676794778374529
 30
0
 11
88.50274926929561
 21
38.67679477837453
 31
0
 12
0
 22
0
 32
0
 70
0
  1
1= <>
 13
66.29977942398463
 23
68.67679477837453
 33
0
 14
76.69977942398461
 24
8.676794778374529
 34
0
 50
90
 53
0
  0
DIMENSION
  8
1
  6
CONTINUOUS
 62
1
  2
*D3
  3
DMST_1
 10
67.69977942398461
 20
193.018841327599
 30
0
 11
59.6598135216659
 21
197.518841327599
 31
0
 12
0
 22
0
 32
0
 70
0
 13
71.69977942398461
 23
171.6767947783745
 33
0
 14
67.69977942398461
 24
171.6767947783745
 34
0
 53
0
  0
DIMENSION
  8
1
  6
CONTINUOUS
 62
1
  2
*D4
  3
DMST_1
 10
42.69977942398461
 20
-21.1026306085024
 30
0
 11
59.69977942398461
 21
-16.6026306085024
 31
0
 12
0
 22
0
 32
0
 70
0
 13
76.69977942398461
 23
8.676794778374529
 33
0
 14
42.69977942398461
 24
8.676794778374529
 34
0
 53
0
  0
DIMENSION
  8
1
  6
CONTINUOUS
 62
1
  2
*D5
  3
DMST_1
 10
12.82828217795405
 20
178.6767947783745
 30
0
 11
8.328282177954051
 21
93.67679477837453
 31
0
 12
0
 22
0
 32
0
 70
0
 13
42.69977942398461
 23
8.676794778374529
 33
0
 14
42.69977942398461
 24
178.6767947783745
 34
0
 50
90
 53
0
  0
DIMENSION
  8
1
  6
CONTINUOUS
 62
1
  2
*D6
  3
DMST_1
 10
27.1471102694922
 20
15.67679477837453
 30
0
 11
22.6471102694922
 21
12.17679477837453
 31
0
 12
0
 22
0
 32
0
 70
0
 13
42.69977942398461
 23
8.676794778374529
 33
0
 14
52.51889389482696
 24
15.67679477837453
 34
0
 50
90
 53
0
  0
DIMENSION
  8
1
  6
CONTINUOUS
 62
1
  2
*D7
  3
DMST_1
 10
27.1471102694922
 20
171.6767947783745
 30
0
 11
22.6471102694922
 21
175.1767947783745
 31
0
 12
0
 22
0
 32
0
 70
0
 13
42.69977942398461
 23
178.6767947783745
 33
0
 14
53.13660447798028
 24
171.6767947783745
 34
0
 50
90
 53
0
  0
DIMENSION
  8
1
  6
CONTINUOUS
 62
1
  2
*D8
  3
DMST_1
 10
92.9600802284068
 20
123.6767947783745
 30
0
 11
88.4600802284068
 21
151.1767947783745
 31
0
 12
0
 22
0
 32
0
 70
0
 13
76.69977942398461
 23
178.6767947783745
 33
0
 14
76.69977942398461
 24
123.6767947783745
 34
0
 50
90
 53
0
  0
DIMENSION
  8
1
  6
CONTINUOUS
 62
1
  2
*D9
  3
DMST_1
 10
92.9317443683989
 20
123.6767947783745
 30
0
 11
88.4317443683989
 21
96.17679477837453
 31
0
 12
0
 22
0
 32
0
 70
0
  1
1= <>
 13
66.29977942398463
 23
68.67679477837453
 33
0
 14
76.69977942398461
 24
123.6767947783745
 34
0
 50
90
 53
0
  0
DIMENSION
  8
1
  6
CONTINUOUS
 62
1
  2
*D10
  3
DMST_1
 10
116.51774532021
 20
131.7267947783745
 30
0
 11
111.297771247601
 21
123.948145723912
 31
0
 12
0
 22
0
 32
0
 70
0
  1
Ö<>
 13
125.7384403311122
 23
115.6267947783744
 33
0
 14
125.7384403311122
 24
131.7267947783745
 34
0
 50
90
 53
0
  0
DIMENSION
  8
1
  6
CONTINUOUS
 62
1
  2
*D11
  3
DMST_1
 10
27.073765864404
 20
15.67679477837453
 30
0
 11
22.573765864404
 21
93.67679477837451
 31
0
 12
0
 22
0
 32
0
 70
0
 13
46.39977942398457
 23
171.6767947783745
 33
0
 14
46.39977942398458
 24
15.67679477837453
 34
0
 50
90
 53
0
  0
DIMENSION
  8
1
  6
CONTINUOUS
 62
1
  2
*D12
  3
DMST_1
 10
49.69977942398461
 20
-6.52995223847324
 30
0
 11
59.69977942398461
 21
-2.02995223847324
 31
0
 12
0
 22
0
 32
0
 70
0
 13
69.69977942398461
 23
12.37679477837448
 33
0
 14
49.69977942398461
 24
12.3767947783745
 34
0
 53
0
  0
DIMENSION
  8
1
  6
CONTINUOUS
 62
1
  2
*D13
  3
DMST_1
 10
76.69977942398461
 20
-6.46984558385166
 30
0
 11
84.5337146811578
 21
-1.96984558385166
 31
0
 12
0
 22
0
 32
0
 70
0
 13
69.69977942398461
 23
12.37679477837448
 33
0
 14
76.69977942398461
 24
8.676794778374529
 34
0
 53
0
  0
DIMENSION
  8
1
  6
CONTINUOUS
 62
1
  2
*D14
  3
DMST_1
 10
42.69977942398461
 20
-6.46984558385166
 30
0
 11
34.5643105012336
 21
-1.96984558385166
 31
0
 12
0
 22
0
 32
0
 70
0
 13
49.69977942398461
 23
12.3767947783745
 33
0
 14
42.69977942398461
 24
8.676794778374529
 34
0
 53
0
  0
DIMENSION
  8
1
  6
CONTINUOUS
 62
1
  2
*D15
  3
DMST_2
 10
72.01848000038549
 20
173.580377620543
 30
0
 11
54.86625600947129
 21
165.3211485122028
 31
0
 12
0
 22
0
 32
0
 70
3
  1
 
 15
67.38107884758372
 25
169.773211936206
 35
0
 40
0
 53
0
  0
DIMENSION
  8
1
  6
CONTINUOUS
 62
1
  2
*D16
  3
DMST_3
 10
67.36958335404822
 20
169.7873011224833
 30
0
 11
89.8184876986472
 21
193.784020996084
 31
0
 12
0
 22
0
 32
0
 70
3
 15
72.029975493921
 25
173.5662884342657
 35
0
 40
0
 53
0
  0
ENDSEC
  0
EOF
