  0
SECTION
  2
HEADER
  9
$ACADVER
  1
AC1009
  9
$INSBASE
 10
0
 20
0
  9
$EXTMIN
 10
304.969334790848
 20
18.9637869404863
  9
$EXTMAX
 10
483.5591895213533
 20
260.187139087643
  9
$LIMMIN
 10
304.969334790848
 20
18.9637869404863
  9
$LIMMAX
 10
483.5591895213533
 20
260.187139087643
  9
$VIEWCTR
 10
10
 20
10
  9
$VIEWSIZE
 40
10
  9
$SNAPMODE
 70
0
  9
$SNAPUNIT
 10
1
 20
1
  9
$SNAPBASE
 10
0
 20
0
  9
$SNAPANG
 50
0
  9
$SNAPSTYLE
 70
0
  9
$SNAPISOPAIR
 70
0
  9
$GRIDMODE
 70
0
  9
$GRIDUNIT
 10
0
 20
0
  9
$ORTHOMODE
 70
0
  9
$REGENMODE
 70
1
  9
$FILLMODE
 70
1
  9
$QTEXTMODE
 70
0
  9
$DRAGMODE
 70
2
  9
$LTSCALE
 40
1
  9
$OSMODE
 70
0
  9
$ATTMODE
 70
1
  9
$TEXTSIZE
 40
3.5
  9
$TRACEWID
 40
0.5
  9
$TEXTSTYLE
  7
STANDARD
  9
$CLAYER
  8
0
  9
$CELTYPE
  6
BYLAYER
  9
$CECOLOR
 62
256
  9
$DIMSCALE
 40
1
  9
$DIMASZ
 40
0.18
  9
$DIMEXO
 40
0.0625
  9
$DIMDLI
 40
0.38
  9
$DIMRND
 40
0
  9
$DIMDLE
 40
0
  9
$DIMEXE
 40
0.18
  9
$DIMTP
 40
0
  9
$DIMTM
 40
0
  9
$DIMTXT
 40
0.18
  9
$DIMCEN
 40
0.09
  9
$DIMTSZ
 40
0
  9
$DIMTOL
 70
0
  9
$DIMLIM
 70
0
  9
$DIMTIH
 70
1
  9
$DIMTOH
 70
1
  9
$DIMSE1
 70
0
  9
$DIMSE2
 70
0
  9
$DIMTAD
 70
0
  9
$DIMZIN
 70
0
  9
$DIMBLK
  1

  9
$DIMASO
 70
1
  9
$DIMSHO
 70
1
  9
$DIMPOST
  1

  9
$DIMAPOST
  1

  9
$DIMALT
 70
0
  9
$DIMALTD
 70
2
  9
$DIMALTF
 40
25.4
  9
$DIMLFAC
 40
1
  9
$DIMTOFL
 70
0
  9
$DIMTVP
 40
0
  9
$DIMTIX
 70
0
  9
$DIMSOXD
 70
0
  9
$DIMSAH
 70
0
  9
$DIMBLK1
  1

  9
$DIMBLK2
  1

  9
$DIMSTYLE
  2
*UNNAMED
  9
$DIMCLRD
 70
0
  9
$DIMCLRE
 70
0
  9
$DIMCLRT
 70
0
  9
$DIMTFAC
 40
1
  9
$DIMGAP
 40
0.09
  9
$LUNITS
 70
2
  9
$LUPREC
 70
4
  9
$AXISMODE
 70
0
  9
$AXISUNIT
 10
0
 20
0
  9
$SKETCHINC
 40
0.1
  9
$FILLETRAD
 40
2
  9
$AUNITS
 70
0
  9
$AUPREC
 70
0
  9
$MENU
  1
ACAD
  9
$ELEVATION
 40
0
  9
$THICKNESS
 40
0
  9
$VIEWDIR
 10
0
 20
0
 30
1
  9
$LIMCHECK
 70
0
  9
$BLIPMODE
 70
1
  9
$CHAMFERA
 40
0
  9
$CHAMFERB
 40
0
  9
$FASTZOOM
 70
1
  9
$SKPOLY
 70
0
  9
$ANGBASE
 50
0
  9
$ANGDIR
 70
0
  9
$PDMODE
 70
0
  9
$PDSIZE
 40
0
  9
$PLINEWID
 40
0
  9
$COORDS
 70
2
  0
ENDSEC
  0
SECTION
  2
TABLES
  0
TABLE
  2
DIMSTYLE
 70
2
  0
DIMSTYLE
  2
DMST_1
 70
0
  3

  4

  5

  6

  7

 40
1
 41
5
 42
0
 43
7
 44
2
 45
0
 46
0
 47
0
 48
0
140
5
141
0
142
0
143
25.4
144
1
145
0
146
1
147
0.09
 71
0
 72
0
 73
0
 74
0
 75
0
 76
0
 77
1
 78
9
170
0
171
2
172
0
173
0
174
0
175
0
176
1
177
1
178
3
  0
DIMSTYLE
  2
DMST_2
 70
0
  3

  4

  5

  6

  7

 40
1
 41
0
 42
0
 43
7
 44
2
 45
0
 46
0
 47
0
 48
0
140
5
141
0
142
0
143
25.4
144
1
145
0
146
1
147
0.09
 71
0
 72
0
 73
0
 74
0
 75
0
 76
0
 77
1
 78
9
170
0
171
2
172
0
173
0
174
0
175
0
176
1
177
1
178
3
  0
ENDTAB
  0
TABLE
  2
LTYPE
 70
9
  0
LTYPE
  2
CONTINUOUS
 70
64
  3
Solid line
 72
65
 73
0
 40
0
  0
LTYPE
  2
BORDER
 70
64
  3
__ __ . __ __ .
 72
65
 73
6
 40
11.10897016467169
 49
3.173991475620483
 49
-1.586995737810242
 49
3.173991475620483
 49
-1.586995737810242
 49
0
 49
-1.586995737810242
  0
LTYPE
  2
CENTER
 70
64
  3
____ _ ____ _
 72
65
 73
4
 40
12.69596590248193
 49
7.934978689051207
 49
-1.586995737810242
 49
1.586995737810242
 49
-1.586995737810242
  0
LTYPE
  2
DASHDOT
 70
64
  3
__ . __ . __ .
 72
65
 73
4
 40
6.347982951240966
 49
3.173991475620483
 49
-1.586995737810242
 49
0
 49
-1.586995737810242
  0
LTYPE
  2
DASHED
 70
64
  3
__ __ __ __ __
 72
65
 73
2
 40
4.760987213430725
 49
3.173991475620483
 49
-1.586995737810242
  0
LTYPE
  2
DIVIDE
 70
64
  3
__ . . __ . . 
 72
65
 73
6
 40
7.934978689051207
 49
3.173991475620483
 49
-1.586995737810242
 49
0
 49
-1.586995737810242
 49
0
 49
-1.586995737810242
  0
LTYPE
  2
DOT
 70
64
  3
..............
 72
65
 73
4
 40
3.173991475620483
 49
0
 49
-1.586995737810242
 49
0
 49
-1.586995737810242
  0
LTYPE
  2
HIDDEN
 70
64
  3
_ _ _ _ _ _ _
 72
65
 73
2
 40
2.380493606715362
 49
1.586995737810242
 49
-0.7934978689051208
  0
LTYPE
  2
PHANTOM
 70
64
  3
_____ _ _ _____ _ _ 
 72
65
 73
6
 40
15.86995737810241
 49
7.934978689051207
 49
-1.586995737810242
 49
1.586995737810242
 49
-1.586995737810242
 49
1.586995737810242
 49
-1.586995737810242
  0
ENDTAB
  0
TABLE
  2
LAYER
 70
3
  0
LAYER
  2
1
 70
0
 62
7
  6
CONTINUOUS
  0
LAYER
  2
0
 70
0
 62
7
  6
CONTINUOUS
  0
ENDTAB
  0
TABLE
  2
STYLE
 70
4
  0
STYLE
  2
STANDARD
 70
0
 40
0
 41
1
 50
0
 71
0
 42
3.5
  3
txt
  4

  0
STYLE
  2
SIMPLEX
 70
0
 40
0
 41
1
 50
0
 71
0
 42
3.5
  3
simplex
  4

  0
STYLE
  2
COMPLEX
 70
0
 40
0
 41
1
 50
0
 71
0
 42
3.5
  3
complex
  4

  0
STYLE
  2
ITALIC
 70
0
 40
0
 41
1
 50
0
 71
0
 42
3.5
  3
italic
  4

  0
ENDTAB
  0
TABLE
  2
VIEW
 70
0
  0
ENDTAB
  0
ENDSEC
  0
SECTION
  2
BLOCKS
  0
BLOCK
  8
1
  2
*D0
 70
1
 10
0
 20
0
 30
0
  0
LINE
  8
1
 62
1
 10
342.7591895213533
 20
100.849830076005
 30
0
 11
395.2591895213533
 21
100.849830076005
 31
0
  0
LINE
  8
1
 62
1
 10
395.2591895213533
 20
48.19184210526396
 30
0
 11
395.2591895213533
 21
102.849830076005
 31
0
  0
LINE
  8
1
 62
1
 10
342.7591895213533
 20
85.491842105264
 30
0
 11
342.7591895213533
 21
102.849830076005
 31
0
  0
SOLID
  8
1
 62
1
 10
342.7591895213533
 20
100.849830076005
 30
0
 11
347.7591895213533
 21
101.499830076005
 31
0
 12
347.7591895213533
 22
100.199830076005
 32
0
 13
347.7591895213533
 23
100.199830076005
 33
0
  0
SOLID
  8
1
 62
1
 10
395.2591895213533
 20
100.849830076005
 30
0
 11
390.2591895213533
 21
100.199830076005
 31
0
 12
390.2591895213533
 22
101.499830076005
 32
0
 13
390.2591895213533
 23
101.499830076005
 33
0
  0
TEXT
  8
1
 62
3
 10
362.1341895213533
 20
102.349830076005
 30
0
 40
5
  1
52,5
 41
0.9
  0
ENDBLK
  8
0
  0
BLOCK
  8
1
  2
*D1
 70
1
 10
0
 20
0
 30
0
  0
LINE
  8
1
 62
1
 10
327.467798171167
 20
48.19184210526396
 30
0
 11
327.467798171167
 21
85.491842105264
 31
0
  0
LINE
  8
1
 62
1
 10
342.7591895213532
 20
85.491842105264
 30
0
 11
325.467798171167
 21
85.491842105264
 31
0
  0
LINE
  8
1
 62
1
 10
345.7591895213532
 20
48.19184210526396
 30
0
 11
325.467798171167
 21
48.19184210526396
 31
0
  0
SOLID
  8
1
 62
1
 10
327.467798171167
 20
48.19184210526396
 30
0
 11
326.817798171167
 21
53.19184210526396
 31
0
 12
328.117798171167
 22
53.19184210526396
 32
0
 13
328.117798171167
 23
53.19184210526396
 33
0
  0
SOLID
  8
1
 62
1
 10
327.467798171167
 20
85.491842105264
 30
0
 11
328.117798171167
 21
80.491842105264
 31
0
 12
326.817798171167
 22
80.491842105264
 32
0
 13
326.817798171167
 23
80.491842105264
 33
0
  0
TEXT
  8
1
 62
3
 10
325.967798171167
 20
59.96684210526398
 30
0
 40
5
  1
37,3
 50
90
 41
0.9
  0
ENDBLK
  8
0
  0
BLOCK
  8
1
  2
*D2
 70
1
 10
0
 20
0
 30
0
  0
LINE
  8
1
 62
1
 10
431.696803456002
 20
136.6918421052639
 30
0
 11
431.696803456002
 21
238.691842105264
 31
0
  0
LINE
  8
1
 62
1
 10
446.2591895213533
 20
238.691842105264
 30
0
 11
429.696803456002
 21
238.691842105264
 31
0
  0
LINE
  8
1
 62
1
 10
446.2591895213533
 20
136.6918421052639
 30
0
 11
429.696803456002
 21
136.6918421052639
 31
0
  0
SOLID
  8
1
 62
1
 10
431.696803456002
 20
136.6918421052639
 30
0
 11
431.046803456002
 21
141.6918421052639
 31
0
 12
432.346803456002
 22
141.6918421052639
 32
0
 13
432.346803456002
 23
141.6918421052639
 33
0
  0
SOLID
  8
1
 62
1
 10
431.696803456002
 20
238.691842105264
 30
0
 11
432.346803456002
 21
233.691842105264
 31
0
 12
431.046803456002
 22
233.691842105264
 32
0
 13
431.046803456002
 23
233.691842105264
 33
0
  0
TEXT
  8
1
 62
3
 10
430.696803456002
 20
182.441842105264
 30
0
 40
5
  1
102
 50
90
 41
0.9
  0
ENDBLK
  8
0
  0
BLOCK
  8
1
  2
*D3
 70
1
 10
0
 20
0
 30
0
  0
LINE
  8
1
 62
1
 10
342.7591895213533
 20
253.687139087643
 30
0
 11
332.7591895213533
 21
253.687139087643
 31
0
  0
LINE
  8
1
 62
1
 10
342.7591895213533
 20
253.687139087643
 30
0
 11
353.2591895213533
 21
253.687139087643
 31
0
  0
LINE
  8
1
 62
1
 10
353.2591895213533
 20
221.191842105264
 30
0
 11
353.2591895213533
 21
255.687139087643
 31
0
  0
LINE
  8
1
 62
1
 10
342.7591895213533
 20
238.6918421052641
 30
0
 11
342.7591895213533
 21
255.687139087643
 31
0
  0
SOLID
  8
1
 62
1
 10
342.7591895213533
 20
253.687139087643
 30
0
 11
337.7591895213533
 21
253.037139087643
 31
0
 12
337.7591895213533
 22
254.337139087643
 32
0
 13
337.7591895213533
 23
254.337139087643
 33
0
  0
LINE
  8
1
 62
1
 10
355.0269564743197
 20
255.4549060406094
 30
0
 11
351.4914225683869
 21
251.9193721346766
 31
0
  0
TEXT
  8
1
 62
3
 10
341.8841895213533
 20
255.187139087643
 30
0
 40
5
  1
10,5
 41
0.9
  0
ENDBLK
  8
0
  0
BLOCK
  8
1
  2
*D4
 70
1
 10
0
 20
0
 30
0
  0
LINE
  8
1
 62
1
 10
363.2591895213533
 20
253.687139087643
 30
0
 11
373.2591895213533
 21
253.687139087643
 31
0
  0
LINE
  8
1
 62
1
 10
353.2591895213533
 20
253.687139087643
 30
0
 11
363.2591895213533
 21
253.687139087643
 31
0
  0
LINE
  8
1
 62
1
 10
363.2591895213533
 20
221.191842105264
 30
0
 11
363.2591895213533
 21
255.687139087643
 31
0
  0
LINE
  8
1
 62
1
 10
353.2591895213533
 20
221.191842105264
 30
0
 11
353.2591895213533
 21
255.687139087643
 31
0
  0
LINE
  8
1
 62
1
 10
351.4914225683869
 20
251.9193721346766
 30
0
 11
355.0269564743197
 21
255.4549060406094
 31
0
  0
SOLID
  8
1
 62
1
 10
363.2591895213533
 20
253.687139087643
 30
0
 11
368.2591895213533
 21
254.337139087643
 31
0
 12
368.2591895213533
 22
253.037139087643
 32
0
 13
368.2591895213533
 23
253.037139087643
 33
0
  0
TEXT
  8
1
 62
3
 10
355.2591895213533
 20
254.687139087643
 30
0
 40
5
  1
10
 41
0.9
  0
ENDBLK
  8
0
  0
BLOCK
  8
1
  2
*D5
 70
1
 10
0
 20
0
 30
0
  0
LINE
  8
1
 62
1
 10
342.7591895213533
 20
121.204379822705
 30
0
 11
332.7591895213533
 21
121.204379822705
 31
0
  0
LINE
  8
1
 62
1
 10
342.7591895213533
 20
121.204379822705
 30
0
 11
344.7591895213533
 21
121.204379822705
 31
0
  0
LINE
  8
1
 62
1
 10
354.7591895213533
 20
121.204379822705
 30
0
 11
344.7591895213533
 21
121.204379822705
 31
0
  0
LINE
  8
1
 62
1
 10
344.7591895213533
 20
143.691842105264
 30
0
 11
344.7591895213533
 21
119.204379822705
 31
0
  0
LINE
  8
1
 62
1
 10
342.7591895213533
 20
136.691842105264
 30
0
 11
342.7591895213533
 21
119.204379822705
 31
0
  0
SOLID
  8
1
 62
1
 10
342.7591895213533
 20
121.204379822705
 30
0
 11
337.7591895213533
 21
120.554379822705
 31
0
 12
337.7591895213533
 22
121.854379822705
 32
0
 13
337.7591895213533
 23
121.854379822705
 33
0
  0
SOLID
  8
1
 62
1
 10
344.7591895213533
 20
121.204379822705
 30
0
 11
349.7591895213533
 21
121.854379822705
 31
0
 12
349.7591895213533
 22
120.554379822705
 32
0
 13
349.7591895213533
 23
120.554379822705
 33
0
  0
TEXT
  8
1
 62
3
 10
333.704853635073
 20
122.204379822705
 30
0
 40
5
  1
2
 41
0.9
  0
ENDBLK
  8
0
  0
BLOCK
  8
1
  2
*D6
 70
1
 10
0
 20
0
 30
0
  0
LINE
  8
1
 62
1
 10
344.7591895213532
 20
121.204379822705
 30
0
 11
369.4591895213532
 21
121.204379822705
 31
0
  0
LINE
  8
1
 62
1
 10
369.4591895213532
 20
143.691842105264
 30
0
 11
369.4591895213532
 21
119.204379822705
 31
0
  0
LINE
  8
1
 62
1
 10
344.7591895213532
 20
143.691842105264
 30
0
 11
344.7591895213532
 21
119.204379822705
 31
0
  0
SOLID
  8
1
 62
1
 10
344.7591895213532
 20
121.204379822705
 30
0
 11
349.7591895213532
 21
121.854379822705
 31
0
 12
349.7591895213532
 22
120.554379822705
 32
0
 13
349.7591895213532
 23
120.554379822705
 33
0
  0
SOLID
  8
1
 62
1
 10
369.4591895213532
 20
121.204379822705
 30
0
 11
364.4591895213532
 21
120.554379822705
 31
0
 12
364.4591895213532
 22
121.854379822705
 32
0
 13
364.4591895213532
 23
121.854379822705
 33
0
  0
TEXT
  8
1
 62
3
 10
350.2341895213532
 20
122.704379822705
 30
0
 40
5
  1
24,7
 41
0.9
  0
ENDBLK
  8
0
  0
BLOCK
  8
1
  2
*D7
 70
1
 10
0
 20
0
 30
0
  0
LINE
  8
1
 62
1
 10
342.7591895213533
 20
173.651724360944
 30
0
 11
330.528618169289
 21
173.651724360944
 31
0
  0
LINE
  8
1
 62
1
 10
342.7591895213533
 20
173.651724360944
 30
0
 11
354.2591895213533
 21
173.651724360944
 31
0
  0
LINE
  8
1
 62
1
 10
354.2591895213533
 20
182.691842105264
 30
0
 11
354.2591895213533
 21
171.651724360944
 31
0
  0
LINE
  8
1
 62
1
 10
342.7591895213533
 20
238.6918421052641
 30
0
 11
342.7591895213533
 21
171.651724360944
 31
0
  0
SOLID
  8
1
 62
1
 10
342.7591895213533
 20
173.651724360944
 30
0
 11
337.7591895213533
 21
173.001724360944
 31
0
 12
337.7591895213533
 22
174.301724360944
 32
0
 13
337.7591895213533
 23
174.301724360944
 33
0
  0
LINE
  8
1
 62
1
 10
356.0269564743197
 20
175.4194913139104
 30
0
 11
352.4914225683869
 21
171.8839574079776
 31
0
  0
TEXT
  8
1
 62
3
 10
330.528618169289
 20
175.151724360944
 30
0
 40
5
  1
11,5
 41
0.9
  0
ENDBLK
  8
0
  0
BLOCK
  8
1
  2
*D8
 70
1
 10
0
 20
0
 30
0
  0
LINE
  8
1
 62
1
 10
364.2591895213533
 20
173.651724360944
 30
0
 11
374.2591895213533
 21
173.651724360944
 31
0
  0
LINE
  8
1
 62
1
 10
354.2591895213533
 20
173.651724360944
 30
0
 11
364.2591895213533
 21
173.651724360944
 31
0
  0
LINE
  8
1
 62
1
 10
364.2591895213533
 20
182.691842105264
 30
0
 11
364.2591895213533
 21
171.651724360944
 31
0
  0
LINE
  8
1
 62
1
 10
354.2591895213533
 20
182.691842105264
 30
0
 11
354.2591895213533
 21
171.651724360944
 31
0
  0
LINE
  8
1
 62
1
 10
352.4914225683869
 20
171.8839574079776
 30
0
 11
356.0269564743197
 21
175.4194913139104
 31
0
  0
SOLID
  8
1
 62
1
 10
364.2591895213533
 20
173.651724360944
 30
0
 11
369.2591895213533
 21
174.301724360944
 31
0
 12
369.2591895213533
 22
173.001724360944
 32
0
 13
369.2591895213533
 23
173.001724360944
 33
0
  0
TEXT
  8
1
 62
3
 10
356.2591895213533
 20
174.651724360944
 30
0
 40
5
  1
10
 41
0.9
  0
ENDBLK
  8
0
  0
BLOCK
  8
1
  2
*D9
 70
1
 10
0
 20
0
 30
0
  0
LINE
  8
1
 62
1
 10
311.469334790848
 20
143.691842105264
 30
0
 11
311.469334790848
 21
153.691842105264
 31
0
  0
LINE
  8
1
 62
1
 10
311.469334790848
 20
136.691842105264
 30
0
 11
311.469334790848
 21
126.691842105264
 31
0
  0
LINE
  8
1
 62
1
 10
311.469334790848
 20
136.691842105264
 30
0
 11
311.469334790848
 21
143.691842105264
 31
0
  0
LINE
  8
1
 62
1
 10
369.4591895213532
 20
143.691842105264
 30
0
 11
309.469334790848
 21
143.691842105264
 31
0
  0
LINE
  8
1
 62
1
 10
342.7591895213533
 20
136.691842105264
 30
0
 11
309.469334790848
 21
136.691842105264
 31
0
  0
SOLID
  8
1
 62
1
 10
311.469334790848
 20
136.691842105264
 30
0
 11
312.119334790848
 21
131.691842105264
 31
0
 12
310.819334790848
 22
131.691842105264
 32
0
 13
310.819334790848
 23
131.691842105264
 33
0
  0
SOLID
  8
1
 62
1
 10
311.469334790848
 20
143.691842105264
 30
0
 11
310.819334790848
 21
148.691842105264
 31
0
 12
312.119334790848
 22
148.691842105264
 32
0
 13
312.119334790848
 23
148.691842105264
 33
0
  0
TEXT
  8
1
 62
3
 10
310.469334790848
 20
138.691842105264
 30
0
 40
5
  1
7
 50
90
 41
0.9
  0
ENDBLK
  8
0
  0
BLOCK
  8
1
  2
*D10
 70
1
 10
0
 20
0
 30
0
  0
LINE
  8
1
 62
1
 10
311.469334790848
 20
232.191842105264
 30
0
 11
311.469334790848
 21
242.191842105264
 31
0
  0
LINE
  8
1
 62
1
 10
311.469334790848
 20
221.191842105264
 30
0
 11
311.469334790848
 21
232.191842105264
 31
0
  0
LINE
  8
1
 62
1
 10
363.2591895213533
 20
232.191842105264
 30
0
 11
309.469334790848
 21
232.191842105264
 31
0
  0
LINE
  8
1
 62
1
 10
363.2591895213533
 20
221.191842105264
 30
0
 11
309.469334790848
 21
221.191842105264
 31
0
  0
LINE
  8
1
 62
1
 10
313.2371017438144
 20
219.4240751522976
 30
0
 11
309.7015678378816
 21
222.9596090582304
 31
0
  0
SOLID
  8
1
 62
1
 10
311.469334790848
 20
232.191842105264
 30
0
 11
310.819334790848
 21
237.191842105264
 31
0
 12
312.119334790848
 22
237.191842105264
 32
0
 13
312.119334790848
 23
237.191842105264
 33
0
  0
TEXT
  8
1
 62
3
 10
310.469334790848
 20
224.441842105264
 30
0
 40
5
  1
11
 50
90
 41
0.9
  0
ENDBLK
  8
0
  0
BLOCK
  8
1
  2
*D11
 70
1
 10
0
 20
0
 30
0
  0
LINE
  8
1
 62
1
 10
311.469334790848
 20
212.691842105264
 30
0
 11
311.469334790848
 21
221.191842105264
 31
0
  0
LINE
  8
1
 62
1
 10
363.2591895213533
 20
221.191842105264
 30
0
 11
309.469334790848
 21
221.191842105264
 31
0
  0
LINE
  8
1
 62
1
 10
354.2591895213533
 20
212.691842105264
 30
0
 11
309.469334790848
 21
212.691842105264
 31
0
  0
TEXT
  8
1
 62
3
 10
309.969334790848
 20
212.316842105264
 30
0
 40
5
  1
8,5
 50
90
 41
0.9
  0
ENDBLK
  8
0
  0
BLOCK
  8
1
  2
*D12
 70
1
 10
0
 20
0
 30
0
  0
LINE
  8
1
 62
1
 10
311.469334790848
 20
182.691842105264
 30
0
 11
311.469334790848
 21
212.691842105264
 31
0
  0
LINE
  8
1
 62
1
 10
354.2591895213533
 20
212.691842105264
 30
0
 11
309.469334790848
 21
212.691842105264
 31
0
  0
LINE
  8
1
 62
1
 10
354.2591895213533
 20
182.691842105264
 30
0
 11
309.469334790848
 21
182.691842105264
 31
0
  0
SOLID
  8
1
 62
1
 10
311.469334790848
 20
182.691842105264
 30
0
 11
310.819334790848
 21
187.691842105264
 31
0
 12
312.119334790848
 22
187.691842105264
 32
0
 13
312.119334790848
 23
187.691842105264
 33
0
  0
SOLID
  8
1
 62
1
 10
311.469334790848
 20
212.691842105264
 30
0
 11
312.119334790848
 21
207.691842105264
 31
0
 12
310.819334790848
 22
207.691842105264
 32
0
 13
310.819334790848
 23
207.691842105264
 33
0
  0
TEXT
  8
1
 62
3
 10
310.469334790848
 20
193.941842105264
 30
0
 40
5
  1
30
 50
90
 41
0.9
  0
ENDBLK
  8
0
  0
BLOCK
  8
1
  2
*D13
 70
1
 10
0
 20
0
 30
0
  0
LINE
  8
1
 62
1
 10
311.469334790848
 20
165.191842105264
 30
0
 11
311.469334790848
 21
182.691842105264
 31
0
  0
LINE
  8
1
 62
1
 10
354.2591895213533
 20
182.691842105264
 30
0
 11
309.469334790848
 21
182.691842105264
 31
0
  0
LINE
  8
1
 62
1
 10
342.7591895213533
 20
165.191842105264
 30
0
 11
309.469334790848
 21
165.191842105264
 31
0
  0
SOLID
  8
1
 62
1
 10
311.469334790848
 20
165.191842105264
 30
0
 11
310.819334790848
 21
170.191842105264
 31
0
 12
312.119334790848
 22
170.191842105264
 32
0
 13
312.119334790848
 23
170.191842105264
 33
0
  0
SOLID
  8
1
 62
1
 10
311.469334790848
 20
182.691842105264
 30
0
 11
312.119334790848
 21
177.691842105264
 31
0
 12
310.819334790848
 22
177.691842105264
 32
0
 13
310.819334790848
 23
177.691842105264
 33
0
  0
TEXT
  8
1
 62
3
 10
309.969334790848
 20
167.816842105264
 30
0
 40
5
  1
17,5
 50
90
 41
0.9
  0
ENDBLK
  8
0
  0
BLOCK
  8
1
  2
*D14
 70
1
 10
0
 20
0
 30
0
  0
LINE
  8
1
 62
1
 10
311.469334790848
 20
143.691842105264
 30
0
 11
311.469334790848
 21
165.191842105264
 31
0
  0
LINE
  8
1
 62
1
 10
342.7591895213533
 20
165.191842105264
 30
0
 11
309.469334790848
 21
165.191842105264
 31
0
  0
LINE
  8
1
 62
1
 10
369.4591895213532
 20
143.691842105264
 30
0
 11
309.469334790848
 21
143.691842105264
 31
0
  0
SOLID
  8
1
 62
1
 10
311.469334790848
 20
143.691842105264
 30
0
 11
310.819334790848
 21
148.691842105264
 31
0
 12
312.119334790848
 22
148.691842105264
 32
0
 13
312.119334790848
 23
148.691842105264
 33
0
  0
SOLID
  8
1
 62
1
 10
311.469334790848
 20
165.191842105264
 30
0
 11
312.119334790848
 21
160.191842105264
 31
0
 12
310.819334790848
 22
160.191842105264
 32
0
 13
310.819334790848
 23
160.191842105264
 33
0
  0
TEXT
  8
1
 62
3
 10
309.969334790848
 20
148.316842105264
 30
0
 40
5
  1
21,5
 50
90
 41
0.9
  0
ENDBLK
  8
0
  0
ENDSEC
  0
SECTION
  2
ENTITIES
  0
LINE
  8
1
 62
2
  6
DIVIDE
 10
456.2591895213533
 20
231.591842105264
 30
0
 11
456.2591895213533
 21
222.791842105264
 31
0
  0
LINE
  8
1
 62
2
  6
DIVIDE
 10
460.6591895213534
 20
227.191842105264
 30
0
 11
451.8591895213532
 21
227.191842105264
 31
0
  0
LINE
  8
1
 62
2
  6
DIVIDE
 10
456.2591895213533
 20
151.091842105264
 30
0
 11
456.2591895213533
 21
142.291842105264
 31
0
  0
LINE
  8
1
 62
2
  6
DIVIDE
 10
460.6591895213534
 20
146.691842105264
 30
0
 11
451.8591895213532
 21
146.691842105264
 31
0
  0
LINE
  8
1
 62
3
  6
DASHED
 10
481.5591895213533
 20
136.691842105264
 30
0
 11
481.5591895213533
 21
238.6918421052641
 31
0
  0
LINE
  8
1
 62
7
 10
446.2591895213533
 20
238.6918421052641
 30
0
 11
446.2591895213533
 21
136.691842105264
 31
0
  0
LINE
  8
1
 62
7
 10
483.5591895213533
 20
238.6918421052641
 30
0
 11
446.2591895213533
 21
238.6918421052641
 31
0
  0
LINE
  8
1
 62
7
 10
483.5591895213533
 20
136.691842105264
 30
0
 11
483.5591895213533
 21
238.6918421052641
 31
0
  0
LINE
  8
1
 62
7
 10
446.2591895213533
 20
136.691842105264
 30
0
 11
483.5591895213533
 21
136.691842105264
 31
0
  0
LINE
  8
1
 62
7
 10
342.7591895213533
 20
85.491842105264
 30
0
 11
344.7591895213533
 21
85.491842105264
 31
0
  0
LINE
  8
1
 62
2
  6
PHANTOM
 10
339.717078821456
 20
75.491842105264
 30
0
 11
347.717078821456
 21
75.491842105264
 31
0
  0
LINE
  8
1
 62
7
 10
369.4591895213532
 20
165.191842105264
 30
0
 11
369.4591895213532
 21
143.691842105264
 31
0
  0
LINE
  8
1
 62
7
 10
344.7591895213533
 20
165.191842105264
 30
0
 11
344.7591895213533
 21
143.691842105264
 31
0
  0
LINE
  8
1
 62
7
 10
342.7591895213533
 20
165.191842105264
 30
0
 11
369.4591895213532
 21
165.191842105264
 31
0
  0
LINE
  8
1
 62
7
 10
342.7591895213533
 20
143.691842105264
 30
0
 11
369.4591895213532
 21
143.691842105264
 31
0
  0
LINE
  8
1
 62
7
 10
363.2591895213533
 20
232.191842105264
 30
0
 11
353.2591895213533
 21
232.191842105264
 31
0
  0
LINE
  8
1
 62
7
 10
353.2591895213533
 20
221.191842105264
 30
0
 11
353.2591895213533
 21
232.191842105264
 31
0
  0
LINE
  8
1
 62
7
 10
363.2591895213533
 20
221.191842105264
 30
0
 11
363.2591895213533
 21
232.191842105264
 31
0
  0
LINE
  8
1
 62
7
 10
353.2591895213533
 20
221.191842105264
 30
0
 11
363.2591895213533
 21
221.191842105264
 31
0
  0
LINE
  8
1
 62
7
 10
364.2591895213533
 20
212.691842105264
 30
0
 11
364.2591895213533
 21
182.691842105264
 31
0
  0
LINE
  8
1
 62
7
 10
354.2591895213533
 20
212.691842105264
 30
0
 11
354.2591895213533
 21
182.691842105264
 31
0
  0
LINE
  8
1
 62
7
 10
354.2591895213533
 20
212.691842105264
 30
0
 11
364.2591895213533
 21
212.691842105264
 31
0
  0
LINE
  8
1
 62
7
 10
354.2591895213533
 20
182.691842105264
 30
0
 11
364.2591895213533
 21
182.691842105264
 31
0
  0
LINE
  8
1
 62
2
  6
DIVIDE
 10
387.2591895213533
 20
235.091842105264
 30
0
 11
387.2591895213533
 21
226.291842105264
 31
0
  0
LINE
  8
1
 62
2
  6
DIVIDE
 10
391.6591895213534
 20
230.691842105264
 30
0
 11
382.8591895213532
 21
230.691842105264
 31
0
  0
LINE
  8
1
 62
2
  6
DIVIDE
 10
387.2591895213533
 20
149.0918421052639
 30
0
 11
387.2591895213533
 21
140.2918421052639
 31
0
  0
LINE
  8
1
 62
2
  6
DIVIDE
 10
391.6591895213534
 20
144.6918421052639
 30
0
 11
382.8591895213532
 21
144.6918421052639
 31
0
  0
LINE
  8
1
 62
7
 10
395.2591895213533
 20
136.691842105264
 30
0
 11
395.2591895213533
 21
238.6918421052641
 31
0
  0
LINE
  8
1
 62
7
 10
342.7591895213533
 20
238.6918421052641
 30
0
 11
395.2591895213533
 21
238.6918421052641
 31
0
  0
LINE
  8
1
 62
7
 10
342.7591895213533
 20
136.691842105264
 30
0
 11
395.2591895213533
 21
136.691842105264
 31
0
  0
LINE
  8
1
 62
7
 10
342.7591895213533
 20
136.691842105264
 30
0
 11
342.7591895213533
 21
238.6918421052641
 31
0
  0
LINE
  8
1
 62
3
  6
DASHED
 10
344.7591895213533
 20
165.191842105264
 30
0
 11
344.7591895213533
 21
238.6918421052641
 31
0
  0
LINE
  8
1
 62
3
  6
DASHED
 10
344.7591895213533
 20
136.691842105264
 30
0
 11
344.7591895213533
 21
143.691842105264
 31
0
  0
LINE
  8
1
 62
2
  6
PHANTOM
 10
340.971123909449
 20
227.1918421052639
 30
0
 11
346.971123909449
 21
227.1918421052639
 31
0
  0
LINE
  8
1
 62
2
  6
PHANTOM
 10
340.786713805098
 20
146.6918421052639
 30
0
 11
346.786713805098
 21
146.6918421052639
 31
0
  0
LINE
  8
1
 62
7
 10
342.7591895213533
 20
85.491842105264
 30
0
 11
342.7591895213533
 21
51.19184210526396
 31
0
  0
LINE
  8
1
 62
7
 10
344.7591895213533
 20
85.491842105264
 30
0
 11
344.7591895213533
 21
50.69184210526396
 31
0
  0
LINE
  8
1
 62
7
 10
342.7591895213533
 20
85.491842105264
 30
0
 11
344.7591895213533
 21
85.491842105264
 31
0
  0
LINE
  8
1
 62
2
  6
PHANTOM
 10
339.717078821456
 20
75.491842105264
 30
0
 11
347.717078821456
 21
75.491842105264
 31
0
  0
LINE
  8
1
 62
7
 10
345.7591895213533
 20
48.19184210526396
 30
0
 11
395.2591895213533
 21
48.19184210526396
 31
0
  0
LINE
  8
1
 62
7
 10
345.2591895213533
 20
50.19184210526396
 30
0
 11
395.2591895213533
 21
50.19184210526396
 31
0
  0
LINE
  8
1
 62
7
 10
395.2591895213533
 20
50.19184210526396
 30
0
 11
395.2591895213533
 21
48.19184210526396
 31
0
  0
LINE
  8
1
 62
2
  6
PHANTOM
 10
387.2591895213533
 20
46.4550742885922
 30
0
 11
387.2591895213533
 21
52.4550742885922
 31
0
  0
CIRCLE
  8
1
 62
7
 10
456.2591895213533
 20
227.191842105264
 30
0
 40
2
  0
CIRCLE
  8
1
 62
7
 10
456.2591895213533
 20
227.191842105264
 30
0
 40
4
  0
CIRCLE
  8
1
 62
7
 10
456.2591895213533
 20
146.691842105264
 30
0
 40
2
  0
CIRCLE
  8
1
 62
7
 10
456.2591895213533
 20
146.691842105264
 30
0
 40
4
  0
CIRCLE
  8
1
 62
7
 10
387.2591895213533
 20
230.691842105264
 30
0
 40
2
  0
CIRCLE
  8
1
 62
7
 10
387.2591895213533
 20
230.691842105264
 30
0
 40
4
  0
CIRCLE
  8
1
 62
7
 10
387.2591895213533
 20
144.6918421052639
 30
0
 40
2
  0
CIRCLE
  8
1
 62
7
 10
387.2591895213533
 20
144.6918421052639
 30
0
 40
4
  0
ARC
  8
1
 62
7
 10
345.2591895213533
 20
50.69184210526396
 30
0
 40
0.5
 50
180
 51
270
  0
ARC
  8
1
 62
7
 10
345.7591895213533
 20
51.19184210526396
 30
0
 40
3
 50
180
 51
270
  0
ARC
  8
1
 62
7
 10
345.7591895213533
 20
51.19184210526396
 30
0
 40
3
 50
180
 51
270
  0
TEXT
  8
1
 62
4
 10
335.3205929444821
 20
18.9637869404863
 30
0
 40
6
  1
0-B-2005.005
 41
0.9
 72
1
 73
3
 11
367.7205929444821
 21
24.9637869404863
 31
0
  0
DIMENSION
  8
1
  6
CONTINUOUS
 62
1
  2
*D0
  3
DMST_1
 10
395.2591895213533
 20
100.849830076005
 30
0
 11
369.0091895213533
 21
104.599830076005
 31
0
 12
0
 22
0
 32
0
 70
0
 13
342.7591895213533
 23
85.491842105264
 33
0
 14
395.2591895213533
 24
48.19184210526396
 34
0
 53
0
  0
DIMENSION
  8
1
  6
CONTINUOUS
 62
1
  2
*D1
  3
DMST_1
 10
327.467798171167
 20
85.491842105264
 30
0
 11
323.717798171167
 21
66.84184210526398
 31
0
 12
0
 22
0
 32
0
 70
0
 13
345.7591895213533
 23
48.19184210526396
 33
0
 14
342.7591895213533
 24
85.491842105264
 34
0
 50
90
 53
0
  0
DIMENSION
  8
1
  6
CONTINUOUS
 62
1
  2
*D2
  3
DMST_1
 10
431.696803456002
 20
238.691842105264
 30
0
 11
428.196803456002
 21
187.691842105264
 31
0
 12
0
 22
0
 32
0
 70
0
 13
446.2591895213533
 23
136.691842105264
 33
0
 14
446.2591895213533
 24
238.6918421052641
 34
0
 50
90
 53
0
  0
DIMENSION
  8
1
  6
CONTINUOUS
 62
1
  2
*D5
  3
DMST_1
 10
342.7591895213533
 20
121.204379822705
 30
0
 11
335.204853635073
 21
124.704379822705
 31
0
 12
0
 22
0
 32
0
 70
0
 13
344.7591895213533
 23
143.691842105264
 33
0
 14
342.7591895213533
 24
136.691842105264
 34
0
 53
0
  0
DIMENSION
  8
1
  6
CONTINUOUS
 62
1
  2
*D6
  3
DMST_1
 10
369.4591895213532
 20
121.204379822705
 30
0
 11
357.1091895213532
 21
124.954379822705
 31
0
 12
0
 22
0
 32
0
 70
0
 13
344.7591895213533
 23
143.691842105264
 33
0
 14
369.4591895213532
 24
143.691842105264
 34
0
 53
0
  0
DIMENSION
  8
1
  6
CONTINUOUS
 62
1
  2
*D9
  3
DMST_1
 10
311.469334790848
 20
143.691842105264
 30
0
 11
307.969334790848
 21
140.191842105264
 31
0
 12
0
 22
0
 32
0
 70
0
 13
342.7591895213533
 23
136.691842105264
 33
0
 14
369.4591895213532
 24
143.691842105264
 34
0
 50
90
 53
0
  0
DIMENSION
  8
1
  6
CONTINUOUS
 62
1
  2
*D11
  3
DMST_2
 10
311.469334790848
 20
221.191842105264
 30
0
 11
307.719334790848
 21
216.941842105264
 31
0
 12
0
 22
0
 32
0
 70
0
 13
354.2591895213533
 23
212.691842105264
 33
0
 14
363.2591895213533
 24
221.191842105264
 34
0
 50
90
 53
0
  0
DIMENSION
  8
1
  6
CONTINUOUS
 62
1
  2
*D12
  3
DMST_1
 10
311.469334790848
 20
212.691842105264
 30
0
 11
307.969334790848
 21
197.691842105264
 31
0
 12
0
 22
0
 32
0
 70
0
 13
354.2591895213533
 23
182.691842105264
 33
0
 14
354.2591895213533
 24
212.691842105264
 34
0
 50
90
 53
0
  0
DIMENSION
  8
1
  6
CONTINUOUS
 62
1
  2
*D13
  3
DMST_1
 10
311.469334790848
 20
182.691842105264
 30
0
 11
307.719334790848
 21
173.941842105264
 31
0
 12
0
 22
0
 32
0
 70
0
 13
342.7591895213533
 23
165.191842105264
 33
0
 14
354.2591895213533
 24
182.691842105264
 34
0
 50
90
 53
0
  0
DIMENSION
  8
1
  6
CONTINUOUS
 62
1
  2
*D14
  3
DMST_1
 10
311.469334790848
 20
165.191842105264
 30
0
 11
307.719334790848
 21
154.441842105264
 31
0
 12
0
 22
0
 32
0
 70
0
 13
369.4591895213532
 23
143.691842105264
 33
0
 14
342.7591895213533
 24
165.191842105264
 34
0
 50
90
 53
0
  0
INSERT
  8
1
  2
*D3
 10
0
 20
0
 30
0
  0
INSERT
  8
1
  2
*D4
 10
0
 20
0
 30
0
  0
INSERT
  8
1
  2
*D7
 10
0
 20
0
 30
0
  0
INSERT
  8
1
  2
*D8
 10
0
 20
0
 30
0
  0
INSERT
  8
1
  2
*D10
 10
0
 20
0
 30
0
  0
ENDSEC
  0
EOF
