  0
SECTION
  2
HEADER
  9
$ACADVER
  1
AC1009
  9
$INSBASE
 10
0
 20
0
  9
$EXTMIN
 10
178.647345883481
 20
-120.625442997802
  9
$EXTMAX
 10
357.566856566858
 20
137.652789355819
  9
$LIMMIN
 10
178.647345883481
 20
-120.625442997802
  9
$LIMMAX
 10
357.566856566858
 20
137.652789355819
  9
$VIEWCTR
 10
10
 20
10
  9
$VIEWSIZE
 40
10
  9
$SNAPMODE
 70
0
  9
$SNAPUNIT
 10
1
 20
1
  9
$SNAPBASE
 10
0
 20
0
  9
$SNAPANG
 50
0
  9
$SNAPSTYLE
 70
0
  9
$SNAPISOPAIR
 70
0
  9
$GRIDMODE
 70
0
  9
$GRIDUNIT
 10
0
 20
0
  9
$ORTHOMODE
 70
0
  9
$REGENMODE
 70
1
  9
$FILLMODE
 70
1
  9
$QTEXTMODE
 70
0
  9
$DRAGMODE
 70
2
  9
$LTSCALE
 40
1
  9
$OSMODE
 70
0
  9
$ATTMODE
 70
1
  9
$TEXTSIZE
 40
3.5
  9
$TRACEWID
 40
0.5
  9
$TEXTSTYLE
  7
STANDARD
  9
$CLAYER
  8
0
  9
$CELTYPE
  6
BYLAYER
  9
$CECOLOR
 62
256
  9
$DIMSCALE
 40
1
  9
$DIMASZ
 40
0.18
  9
$DIMEXO
 40
0.0625
  9
$DIMDLI
 40
0.38
  9
$DIMRND
 40
0
  9
$DIMDLE
 40
0
  9
$DIMEXE
 40
0.18
  9
$DIMTP
 40
0
  9
$DIMTM
 40
0
  9
$DIMTXT
 40
0.18
  9
$DIMCEN
 40
0.09
  9
$DIMTSZ
 40
0
  9
$DIMTOL
 70
0
  9
$DIMLIM
 70
0
  9
$DIMTIH
 70
1
  9
$DIMTOH
 70
1
  9
$DIMSE1
 70
0
  9
$DIMSE2
 70
0
  9
$DIMTAD
 70
0
  9
$DIMZIN
 70
0
  9
$DIMBLK
  1

  9
$DIMASO
 70
1
  9
$DIMSHO
 70
1
  9
$DIMPOST
  1

  9
$DIMAPOST
  1

  9
$DIMALT
 70
0
  9
$DIMALTD
 70
2
  9
$DIMALTF
 40
25.4
  9
$DIMLFAC
 40
1
  9
$DIMTOFL
 70
0
  9
$DIMTVP
 40
0
  9
$DIMTIX
 70
0
  9
$DIMSOXD
 70
0
  9
$DIMSAH
 70
0
  9
$DIMBLK1
  1

  9
$DIMBLK2
  1

  9
$DIMSTYLE
  2
*UNNAMED
  9
$DIMCLRD
 70
0
  9
$DIMCLRE
 70
0
  9
$DIMCLRT
 70
0
  9
$DIMTFAC
 40
1
  9
$DIMGAP
 40
0.09
  9
$LUNITS
 70
2
  9
$LUPREC
 70
4
  9
$AXISMODE
 70
0
  9
$AXISUNIT
 10
0
 20
0
  9
$SKETCHINC
 40
0.1
  9
$FILLETRAD
 40
2
  9
$AUNITS
 70
0
  9
$AUPREC
 70
0
  9
$MENU
  1
ACAD
  9
$ELEVATION
 40
0
  9
$THICKNESS
 40
0
  9
$VIEWDIR
 10
0
 20
0
 30
1
  9
$LIMCHECK
 70
0
  9
$BLIPMODE
 70
1
  9
$CHAMFERA
 40
0
  9
$CHAMFERB
 40
0
  9
$FASTZOOM
 70
1
  9
$SKPOLY
 70
0
  9
$ANGBASE
 50
0
  9
$ANGDIR
 70
0
  9
$PDMODE
 70
0
  9
$PDSIZE
 40
0
  9
$PLINEWID
 40
0
  9
$COORDS
 70
2
  0
ENDSEC
  0
SECTION
  2
TABLES
  0
TABLE
  2
DIMSTYLE
 70
1
  0
DIMSTYLE
  2
DMST_1
 70
0
  3

  4

  5

  6

  7

 40
1
 41
5
 42
0
 43
7
 44
2
 45
0
 46
0
 47
0
 48
0
140
5
141
0
142
0
143
25.4
144
1
145
0
146
1
147
0.09
 71
0
 72
0
 73
0
 74
0
 75
0
 76
0
 77
1
 78
9
170
0
171
2
172
0
173
0
174
0
175
0
176
1
177
1
178
3
  0
ENDTAB
  0
TABLE
  2
LTYPE
 70
9
  0
LTYPE
  2
CONTINUOUS
 70
64
  3
Solid line
 72
65
 73
0
 40
0
  0
LTYPE
  2
BORDER
 70
64
  3
__ __ . __ __ .
 72
65
 73
6
 40
11.89439227944307
 49
3.398397794126592
 49
-1.699198897063296
 49
3.398397794126592
 49
-1.699198897063296
 49
0
 49
-1.699198897063296
  0
LTYPE
  2
CENTER
 70
64
  3
____ _ ____ _
 72
65
 73
4
 40
13.59359117650637
 49
8.49599448531648
 49
-1.699198897063296
 49
1.699198897063296
 49
-1.699198897063296
  0
LTYPE
  2
DASHDOT
 70
64
  3
__ . __ . __ .
 72
65
 73
4
 40
6.796795588253183
 49
3.398397794126592
 49
-1.699198897063296
 49
0
 49
-1.699198897063296
  0
LTYPE
  2
DASHED
 70
64
  3
__ __ __ __ __
 72
65
 73
2
 40
5.097596691189888
 49
3.398397794126592
 49
-1.699198897063296
  0
LTYPE
  2
DIVIDE
 70
64
  3
__ . . __ . . 
 72
65
 73
6
 40
8.49599448531648
 49
3.398397794126592
 49
-1.699198897063296
 49
0
 49
-1.699198897063296
 49
0
 49
-1.699198897063296
  0
LTYPE
  2
DOT
 70
64
  3
..............
 72
65
 73
4
 40
3.398397794126592
 49
0
 49
-1.699198897063296
 49
0
 49
-1.699198897063296
  0
LTYPE
  2
HIDDEN
 70
64
  3
_ _ _ _ _ _ _
 72
65
 73
2
 40
2.548798345594944
 49
1.699198897063296
 49
-0.8495994485316479
  0
LTYPE
  2
PHANTOM
 70
64
  3
_____ _ _ _____ _ _ 
 72
65
 73
6
 40
16.99198897063296
 49
8.49599448531648
 49
-1.699198897063296
 49
1.699198897063296
 49
-1.699198897063296
 49
1.699198897063296
 49
-1.699198897063296
  0
ENDTAB
  0
TABLE
  2
LAYER
 70
3
  0
LAYER
  2
1
 70
0
 62
7
  6
CONTINUOUS
  0
LAYER
  2
0
 70
0
 62
7
  6
CONTINUOUS
  0
ENDTAB
  0
TABLE
  2
STYLE
 70
4
  0
STYLE
  2
STANDARD
 70
0
 40
0
 41
1
 50
0
 71
0
 42
3.5
  3
txt
  4

  0
STYLE
  2
SIMPLEX
 70
0
 40
0
 41
1
 50
0
 71
0
 42
3.5
  3
simplex
  4

  0
STYLE
  2
COMPLEX
 70
0
 40
0
 41
1
 50
0
 71
0
 42
3.5
  3
complex
  4

  0
STYLE
  2
ITALIC
 70
0
 40
0
 41
1
 50
0
 71
0
 42
3.5
  3
italic
  4

  0
ENDTAB
  0
TABLE
  2
VIEW
 70
0
  0
ENDTAB
  0
ENDSEC
  0
SECTION
  2
BLOCKS
  0
BLOCK
  8
1
  2
*D0
 70
1
 10
0
 20
0
 30
0
  0
LINE
  8
1
 62
1
 10
229.693097449865
 20
-1.499999999999986
 30
0
 11
229.693097449865
 21
100.5
 31
0
  0
LINE
  8
1
 62
1
 10
214.647345883481
 20
-1.499999999999986
 30
0
 11
231.693097449865
 21
-1.499999999999986
 31
0
  0
LINE
  8
1
 62
1
 10
214.647345883481
 20
100.5
 30
0
 11
231.693097449865
 21
100.5
 31
0
  0
SOLID
  8
1
 62
1
 10
229.693097449865
 20
-1.499999999999986
 30
0
 11
229.043097449865
 21
3.500000000000014
 31
0
 12
230.343097449865
 22
3.500000000000014
 32
0
 13
230.343097449865
 23
3.500000000000014
 33
0
  0
SOLID
  8
1
 62
1
 10
229.693097449865
 20
100.5
 30
0
 11
230.343097449865
 21
95.5
 31
0
 12
229.043097449865
 22
95.5
 32
0
 13
229.043097449865
 23
95.5
 33
0
  0
TEXT
  8
1
 62
3
 10
228.693097449865
 20
44.25000000000001
 30
0
 40
5
  1
102
 50
90
 41
0.9
  0
ENDBLK
  8
0
  0
BLOCK
  8
1
  2
*D1
 70
1
 10
0
 20
0
 30
0
  0
LINE
  8
1
 62
1
 10
340.128435816938
 20
-98
 30
0
 11
340.128435816938
 21
-62
 31
0
  0
LINE
  8
1
 62
1
 10
323.147345883481
 20
-98
 30
0
 11
342.128435816938
 21
-98
 31
0
  0
LINE
  8
1
 62
1
 10
323.147345883481
 20
-62
 30
0
 11
342.128435816938
 21
-62
 31
0
  0
SOLID
  8
1
 62
1
 10
340.128435816938
 20
-98
 30
0
 11
339.478435816938
 21
-93
 31
0
 12
340.778435816938
 22
-93
 32
0
 13
340.778435816938
 23
-93
 33
0
  0
SOLID
  8
1
 62
1
 10
340.128435816938
 20
-62
 30
0
 11
340.778435816938
 21
-67
 31
0
 12
339.478435816938
 22
-67
 32
0
 13
339.478435816938
 23
-67
 33
0
  0
TEXT
  8
1
 62
3
 10
339.128435816938
 20
-83.75
 30
0
 40
5
  1
36
 50
90
 41
0.9
  0
ENDBLK
  8
0
  0
BLOCK
  8
1
  2
*D2
 70
1
 10
0
 20
0
 30
0
  0
LINE
  8
1
 62
1
 10
267.647345883481
 20
131.152789355819
 30
0
 11
325.147345883481
 21
131.152789355819
 31
0
  0
LINE
  8
1
 62
1
 10
267.647345883481
 20
100.5
 30
0
 11
267.647345883481
 21
133.152789355819
 31
0
  0
LINE
  8
1
 62
1
 10
325.147345883481
 20
98.50000000000003
 30
0
 11
325.147345883481
 21
133.152789355819
 31
0
  0
SOLID
  8
1
 62
1
 10
325.147345883481
 20
131.152789355819
 30
0
 11
320.147345883481
 21
130.502789355819
 31
0
 12
320.147345883481
 22
131.802789355819
 32
0
 13
320.147345883481
 23
131.802789355819
 33
0
  0
SOLID
  8
1
 62
1
 10
267.647345883481
 20
131.152789355819
 30
0
 11
272.647345883481
 21
131.802789355819
 31
0
 12
272.647345883481
 22
130.502789355819
 32
0
 13
272.647345883481
 23
130.502789355819
 33
0
  0
TEXT
  8
1
 62
3
 10
289.522345883481
 20
132.652789355819
 30
0
 40
5
  1
57,5
 41
0.9
  0
ENDBLK
  8
0
  0
BLOCK
  8
1
  2
*D3
 70
1
 10
0
 20
0
 30
0
  0
LINE
  8
1
 62
1
 10
284.6473458834811
 20
-46.32188720698279
 30
0
 11
325.147345883481
 21
-46.32188720698279
 31
0
  0
LINE
  8
1
 62
1
 10
284.6473458834811
 20
-62
 30
0
 11
284.6473458834811
 21
-44.32188720698279
 31
0
  0
LINE
  8
1
 62
1
 10
325.147345883481
 20
-64
 30
0
 11
325.147345883481
 21
-44.32188720698279
 31
0
  0
SOLID
  8
1
 62
1
 10
284.6473458834811
 20
-46.32188720698279
 30
0
 11
289.6473458834811
 21
-45.67188720698279
 31
0
 12
289.6473458834811
 22
-46.97188720698279
 32
0
 13
289.6473458834811
 23
-46.97188720698279
 33
0
  0
SOLID
  8
1
 62
1
 10
325.147345883481
 20
-46.32188720698279
 30
0
 11
320.147345883481
 21
-46.97188720698279
 31
0
 12
320.147345883481
 22
-45.67188720698279
 32
0
 13
320.147345883481
 23
-45.67188720698279
 33
0
  0
TEXT
  8
1
 62
3
 10
298.0223458834811
 20
-44.82188720698279
 30
0
 40
5
  1
40,5
 41
0.9
  0
ENDBLK
  8
0
  0
BLOCK
  8
1
  2
*D4
 70
1
 10
0
 20
0
 30
0
  0
LINE
  8
1
 62
1
 10
355.566856566858
 20
15.00000000000001
 30
0
 11
355.566856566858
 21
5.000000000000009
 31
0
  0
LINE
  8
1
 62
1
 10
355.566856566858
 20
-1.499999999999993
 30
0
 11
355.566856566858
 21
5.000000000000009
 31
0
  0
LINE
  8
1
 62
1
 10
355.566856566858
 20
-1.499999999999993
 30
0
 11
355.566856566858
 21
-13.90365258951329
 31
0
  0
LINE
  8
1
 62
1
 10
323.147345883481
 20
-1.499999999999993
 30
0
 11
357.566856566858
 21
-1.499999999999993
 31
0
  0
LINE
  8
1
 62
1
 10
310.847345883481
 20
5.000000000000009
 30
0
 11
357.566856566858
 21
5.000000000000009
 31
0
  0
SOLID
  8
1
 62
1
 10
355.566856566858
 20
-1.499999999999993
 30
0
 11
356.216856566858
 21
-6.499999999999993
 31
0
 12
354.916856566858
 22
-6.499999999999993
 32
0
 13
354.916856566858
 23
-6.499999999999993
 33
0
  0
SOLID
  8
1
 62
1
 10
355.566856566858
 20
5.000000000000009
 30
0
 11
354.916856566858
 21
10.00000000000001
 31
0
 12
356.216856566858
 22
10.00000000000001
 32
0
 13
356.216856566858
 23
10.00000000000001
 33
0
  0
TEXT
  8
1
 62
3
 10
354.066856566858
 20
-13.90365258951329
 30
0
 40
5
  1
6,5
 50
90
 41
0.9
  0
ENDBLK
  8
0
  0
BLOCK
  8
1
  2
*D5
 70
1
 10
0
 20
0
 30
0
  0
LINE
  8
1
 62
1
 10
355.391856566858
 20
70.5
 30
0
 11
355.391856566858
 21
94.5
 31
0
  0
LINE
  8
1
 62
1
 10
317.647345883481
 20
70.5
 30
0
 11
357.391856566858
 21
70.5
 31
0
  0
LINE
  8
1
 62
1
 10
317.647345883481
 20
94.5
 30
0
 11
357.391856566858
 21
94.5
 31
0
  0
SOLID
  8
1
 62
1
 10
355.391856566858
 20
70.5
 30
0
 11
354.741856566858
 21
75.5
 31
0
 12
356.041856566858
 22
75.5
 32
0
 13
356.041856566858
 23
75.5
 33
0
  0
SOLID
  8
1
 62
1
 10
355.391856566858
 20
94.5
 30
0
 11
356.041856566858
 21
89.5
 31
0
 12
354.741856566858
 22
89.5
 32
0
 13
354.741856566858
 23
89.5
 33
0
  0
TEXT
  8
1
 62
3
 10
354.391856566858
 20
78.75
 30
0
 40
5
  1
24
 50
90
 41
0.9
  0
ENDBLK
  8
0
  0
BLOCK
  8
1
  2
*D6
 70
1
 10
0
 20
0
 30
0
  0
LINE
  8
1
 62
1
 10
355.391856566858
 20
54.50000000000001
 30
0
 11
355.391856566858
 21
70.5
 31
0
  0
LINE
  8
1
 62
1
 10
312.147345883481
 20
54.50000000000001
 30
0
 11
357.391856566858
 21
54.50000000000001
 31
0
  0
LINE
  8
1
 62
1
 10
317.647345883481
 20
70.5
 30
0
 11
357.391856566858
 21
70.5
 31
0
  0
SOLID
  8
1
 62
1
 10
355.391856566858
 20
54.50000000000001
 30
0
 11
354.741856566858
 21
59.50000000000001
 31
0
 12
356.041856566858
 22
59.50000000000001
 32
0
 13
356.041856566858
 23
59.50000000000001
 33
0
  0
SOLID
  8
1
 62
1
 10
355.391856566858
 20
70.5
 30
0
 11
356.041856566858
 21
65.5
 31
0
 12
354.741856566858
 22
65.5
 32
0
 13
354.741856566858
 23
65.5
 33
0
  0
TEXT
  8
1
 62
3
 10
354.391856566858
 20
59.5
 30
0
 40
5
  1
16
 50
90
 41
0.9
  0
ENDBLK
  8
0
  0
BLOCK
  8
1
  2
*D7
 70
1
 10
0
 20
0
 30
0
  0
LINE
  8
1
 62
1
 10
355.391856566858
 20
24.50000000000001
 30
0
 11
355.391856566858
 21
54.50000000000001
 31
0
  0
LINE
  8
1
 62
1
 10
312.147345883481
 20
24.50000000000001
 30
0
 11
357.391856566858
 21
24.50000000000001
 31
0
  0
LINE
  8
1
 62
1
 10
312.147345883481
 20
54.50000000000001
 30
0
 11
357.391856566858
 21
54.50000000000001
 31
0
  0
SOLID
  8
1
 62
1
 10
355.391856566858
 20
24.50000000000001
 30
0
 11
354.741856566858
 21
29.50000000000001
 31
0
 12
356.041856566858
 22
29.50000000000001
 32
0
 13
356.041856566858
 23
29.50000000000001
 33
0
  0
SOLID
  8
1
 62
1
 10
355.391856566858
 20
54.50000000000001
 30
0
 11
356.041856566858
 21
49.50000000000001
 31
0
 12
354.741856566858
 22
49.50000000000001
 32
0
 13
354.741856566858
 23
49.50000000000001
 33
0
  0
TEXT
  8
1
 62
3
 10
354.391856566858
 20
35.75000000000001
 30
0
 40
5
  1
30
 50
90
 41
0.9
  0
ENDBLK
  8
0
  0
BLOCK
  8
1
  2
*D8
 70
1
 10
0
 20
0
 30
0
  0
LINE
  8
1
 62
1
 10
355.267573807056
 20
16.00000000000001
 30
0
 11
355.267573807056
 21
24.50000000000001
 31
0
  0
LINE
  8
1
 62
1
 10
355.267573807056
 20
16.00000000000001
 30
0
 11
355.267573807056
 21
6.000000000000011
 31
0
  0
LINE
  8
1
 62
1
 10
355.267573807056
 20
24.50000000000001
 30
0
 11
355.267573807056
 21
34.50000000000001
 31
0
  0
LINE
  8
1
 62
1
 10
310.847345883481
 20
16.00000000000001
 30
0
 11
357.267573807056
 21
16.00000000000001
 31
0
  0
LINE
  8
1
 62
1
 10
312.147345883481
 20
24.50000000000001
 30
0
 11
357.267573807056
 21
24.50000000000001
 31
0
  0
SOLID
  8
1
 62
1
 10
355.267573807056
 20
16.00000000000001
 30
0
 11
355.917573807056
 21
11.00000000000001
 31
0
 12
354.617573807056
 22
11.00000000000001
 32
0
 13
354.617573807056
 23
11.00000000000001
 33
0
  0
SOLID
  8
1
 62
1
 10
355.267573807056
 20
24.50000000000001
 30
0
 11
354.617573807056
 21
29.50000000000001
 31
0
 12
355.917573807056
 22
29.50000000000001
 32
0
 13
355.917573807056
 23
29.50000000000001
 33
0
  0
TEXT
  8
1
 62
3
 10
353.767573807056
 20
15.62500000000001
 30
0
 40
5
  1
8,5
 50
90
 41
0.9
  0
ENDBLK
  8
0
  0
BLOCK
  8
1
  2
*D9
 70
1
 10
0
 20
0
 30
0
  0
LINE
  8
1
 62
1
 10
355.391856566858
 20
5.000000000000012
 30
0
 11
355.391856566858
 21
16.00000000000001
 31
0
  0
LINE
  8
1
 62
1
 10
355.391856566858
 20
5.000000000000012
 30
0
 11
355.391856566858
 21
-4.999999999999989
 31
0
  0
LINE
  8
1
 62
1
 10
355.391856566858
 20
16.00000000000001
 30
0
 11
355.391856566858
 21
26.00000000000001
 31
0
  0
LINE
  8
1
 62
1
 10
310.847345883481
 20
5.000000000000012
 30
0
 11
357.391856566858
 21
5.000000000000012
 31
0
  0
LINE
  8
1
 62
1
 10
310.847345883481
 20
16.00000000000001
 30
0
 11
357.391856566858
 21
16.00000000000001
 31
0
  0
SOLID
  8
1
 62
1
 10
355.391856566858
 20
5.000000000000012
 30
0
 11
356.041856566858
 21
1.243449787580175e-14
 31
0
 12
354.741856566858
 22
1.243449787580175e-14
 32
0
 13
354.741856566858
 23
1.243449787580175e-14
 33
0
  0
SOLID
  8
1
 62
1
 10
355.391856566858
 20
16.00000000000001
 30
0
 11
354.741856566858
 21
21.00000000000001
 31
0
 12
356.041856566858
 22
21.00000000000001
 32
0
 13
356.041856566858
 23
21.00000000000001
 33
0
  0
TEXT
  8
1
 62
3
 10
354.391856566858
 20
8.250000000000011
 30
0
 40
5
  1
11
 50
90
 41
0.9
  0
ENDBLK
  8
0
  0
BLOCK
  8
1
  2
*D10
 70
1
 10
0
 20
0
 30
0
  0
LINE
  8
1
 62
1
 10
313.147345883481
 20
116.064368605899
 30
0
 11
323.147345883481
 21
116.064368605899
 31
0
  0
LINE
  8
1
 62
1
 10
323.147345883481
 20
116.064368605899
 30
0
 11
325.147345883481
 21
116.064368605899
 31
0
  0
LINE
  8
1
 62
1
 10
325.147345883481
 20
116.064368605899
 30
0
 11
335.147345883481
 21
116.064368605899
 31
0
  0
LINE
  8
1
 62
1
 10
323.147345883481
 20
94.5
 30
0
 11
323.147345883481
 21
118.064368605899
 31
0
  0
LINE
  8
1
 62
1
 10
325.147345883481
 20
98.5
 30
0
 11
325.147345883481
 21
118.064368605899
 31
0
  0
SOLID
  8
1
 62
1
 10
325.147345883481
 20
116.064368605899
 30
0
 11
330.147345883481
 21
116.714368605899
 31
0
 12
330.147345883481
 22
115.414368605899
 32
0
 13
330.147345883481
 23
115.414368605899
 33
0
  0
SOLID
  8
1
 62
1
 10
323.147345883481
 20
116.064368605899
 30
0
 11
318.147345883481
 21
115.414368605899
 31
0
 12
318.147345883481
 22
116.714368605899
 32
0
 13
318.147345883481
 23
116.714368605899
 33
0
  0
TEXT
  8
1
 62
3
 10
331.389194419902
 20
117.064368605899
 30
0
 40
5
  1
2
 41
0.9
  0
ENDBLK
  8
0
  0
BLOCK
  8
1
  2
*D11
 70
1
 10
0
 20
0
 30
0
  0
LINE
  8
1
 62
1
 10
301.147345883481
 20
116.064368605899
 30
0
 11
323.147345883481
 21
116.064368605899
 31
0
  0
LINE
  8
1
 62
1
 10
301.147345883481
 20
73.5
 30
0
 11
301.147345883481
 21
118.064368605899
 31
0
  0
LINE
  8
1
 62
1
 10
323.147345883481
 20
94.5
 30
0
 11
323.147345883481
 21
118.064368605899
 31
0
  0
SOLID
  8
1
 62
1
 10
323.147345883481
 20
116.064368605899
 30
0
 11
318.147345883481
 21
115.414368605899
 31
0
 12
318.147345883481
 22
116.714368605899
 32
0
 13
318.147345883481
 23
116.714368605899
 33
0
  0
SOLID
  8
1
 62
1
 10
301.147345883481
 20
116.064368605899
 30
0
 11
306.147345883481
 21
116.714368605899
 31
0
 12
306.147345883481
 22
115.414368605899
 32
0
 13
306.147345883481
 23
115.414368605899
 33
0
  0
TEXT
  8
1
 62
3
 10
308.397345883481
 20
117.064368605899
 30
0
 40
5
  1
22
 41
0.9
  0
ENDBLK
  8
0
  0
BLOCK
  8
1
  2
*D12
 70
1
 10
0
 20
0
 30
0
  0
LINE
  8
1
 62
1
 10
310.847345883481
 20
-19.42499999999999
 30
0
 11
320.847345883481
 21
-19.42499999999999
 31
0
  0
LINE
  8
1
 62
1
 10
320.847345883481
 20
-19.42499999999999
 30
0
 11
325.147345883481
 21
-19.42499999999999
 31
0
  0
LINE
  8
1
 62
1
 10
325.147345883481
 20
-19.42499999999999
 30
0
 11
336.01778062089
 21
-19.42499999999999
 31
0
  0
LINE
  8
1
 62
1
 10
320.847345883481
 20
16.00000000000002
 30
0
 11
320.847345883481
 21
-21.42499999999999
 31
0
  0
LINE
  8
1
 62
1
 10
325.147345883481
 20
0.5000000000000391
 30
0
 11
325.147345883481
 21
-21.42499999999999
 31
0
  0
SOLID
  8
1
 62
1
 10
325.147345883481
 20
-19.42499999999999
 30
0
 11
330.147345883481
 21
-18.77499999999999
 31
0
 12
330.147345883481
 22
-20.07499999999999
 32
0
 13
330.147345883481
 23
-20.07499999999999
 33
0
  0
SOLID
  8
1
 62
1
 10
320.847345883481
 20
-19.42499999999999
 30
0
 11
315.847345883481
 21
-20.07499999999999
 31
0
 12
315.847345883481
 22
-18.77499999999999
 32
0
 13
315.847345883481
 23
-18.77499999999999
 33
0
  0
TEXT
  8
1
 62
3
 10
326.76778062089
 20
-17.92499999999999
 30
0
 40
5
  1
4,3
 41
0.9
  0
ENDBLK
  8
0
  0
BLOCK
  8
1
  2
*D13
 70
1
 10
0
 20
0
 30
0
  0
LINE
  8
1
 62
1
 10
310.847345883481
 20
-19.42499999999999
 30
0
 11
320.847345883481
 21
-19.42499999999999
 31
0
  0
LINE
  8
1
 62
1
 10
310.847345883481
 20
-19.42499999999999
 30
0
 11
300.847345883481
 21
-19.42499999999999
 31
0
  0
LINE
  8
1
 62
1
 10
320.847345883481
 20
-19.42499999999999
 30
0
 11
330.847345883481
 21
-19.42499999999999
 31
0
  0
LINE
  8
1
 62
1
 10
310.847345883481
 20
5.000000000000011
 30
0
 11
310.847345883481
 21
-21.42499999999999
 31
0
  0
LINE
  8
1
 62
1
 10
320.847345883481
 20
16.00000000000002
 30
0
 11
320.847345883481
 21
-21.42499999999999
 31
0
  0
SOLID
  8
1
 62
1
 10
320.847345883481
 20
-19.42499999999999
 30
0
 11
325.847345883481
 21
-18.77499999999999
 31
0
 12
325.847345883481
 22
-20.07499999999999
 32
0
 13
325.847345883481
 23
-20.07499999999999
 33
0
  0
SOLID
  8
1
 62
1
 10
310.847345883481
 20
-19.42499999999999
 30
0
 11
305.847345883481
 21
-20.07499999999999
 31
0
 12
305.847345883481
 22
-18.77499999999999
 32
0
 13
305.847345883481
 23
-18.77499999999999
 33
0
  0
TEXT
  8
1
 62
3
 10
312.847345883481
 20
-18.42499999999999
 30
0
 40
5
  1
10
 41
0.9
  0
ENDBLK
  8
0
  0
BLOCK
  8
1
  2
*D14
 70
1
 10
0
 20
0
 30
0
  0
LINE
  8
1
 62
1
 10
312.147345883481
 20
60.0984925228565
 30
0
 11
323.147345883481
 21
60.0984925228565
 31
0
  0
LINE
  8
1
 62
1
 10
312.147345883481
 20
60.0984925228565
 30
0
 11
302.147345883481
 21
60.0984925228565
 31
0
  0
LINE
  8
1
 62
1
 10
312.147345883481
 20
54.50000000000001
 30
0
 11
312.147345883481
 21
62.0984925228565
 31
0
  0
LINE
  8
1
 62
1
 10
323.147345883481
 20
54.50000000000001
 30
0
 11
323.147345883481
 21
62.0984925228565
 31
0
  0
SOLID
  8
1
 62
1
 10
312.147345883481
 20
60.0984925228565
 30
0
 11
307.147345883481
 21
59.4484925228565
 31
0
 12
307.147345883481
 22
60.7484925228565
 32
0
 13
307.147345883481
 23
60.7484925228565
 33
0
  0
LINE
  8
1
 62
1
 10
324.3847827505575
 20
61.33592938993296
 30
0
 11
321.9099090164046
 21
58.86105565578004
 31
0
  0
TEXT
  8
1
 62
3
 10
315.397345883481
 20
61.0984925228565
 30
0
 40
5
  1
11
 41
0.9
  0
ENDBLK
  8
0
  0
BLOCK
  8
1
  2
*D15
 70
1
 10
0
 20
0
 30
0
  0
LINE
  8
1
 62
1
 10
323.147345883481
 20
60.0984925228565
 30
0
 11
325.147345883481
 21
60.0984925228565
 31
0
  0
LINE
  8
1
 62
1
 10
325.147345883481
 20
60.0984925228565
 30
0
 11
335.147345883481
 21
60.0984925228565
 31
0
  0
LINE
  8
1
 62
1
 10
323.147345883481
 20
54.50000000000001
 30
0
 11
323.147345883481
 21
62.0984925228565
 31
0
  0
LINE
  8
1
 62
1
 10
325.147345883481
 20
98.5
 30
0
 11
325.147345883481
 21
58.0984925228565
 31
0
  0
LINE
  8
1
 62
1
 10
321.3795789305146
 20
58.33072556989013
 30
0
 11
324.9151128364474
 21
61.86625947582287
 31
0
  0
SOLID
  8
1
 62
1
 10
325.147345883481
 20
60.0984925228565
 30
0
 11
330.147345883481
 21
60.7484925228565
 31
0
 12
330.147345883481
 22
59.4484925228565
 32
0
 13
330.147345883481
 23
59.4484925228565
 33
0
  0
TEXT
  8
1
 62
3
 10
329.294215101286
 20
61.0984925228565
 30
0
 40
5
  1
2
 41
0.9
  0
ENDBLK
  8
0
  0
ENDSEC
  0
SECTION
  2
ENTITIES
  0
LINE
  8
1
 62
7
 10
267.647345883481
 20
-1.499999999999983
 30
0
 11
323.147345883481
 21
-1.499999999999993
 31
0
  0
LINE
  8
1
 62
7
 10
267.647345883481
 20
100.5
 30
0
 11
267.647345883481
 21
-1.499999999999983
 31
0
  0
LINE
  8
1
 62
7
 10
323.147345883481
 20
100.5
 30
0
 11
267.647345883481
 21
100.5
 31
0
  0
LINE
  8
1
 62
7
 10
325.147345883481
 20
0.5000000000000331
 30
0
 11
325.147345883481
 21
98.5
 31
0
  0
LINE
  8
1
 62
7
 10
312.147345883481
 20
54.50000000000001
 30
0
 11
312.147345883481
 21
24.50000000000001
 31
0
  0
LINE
  8
1
 62
7
 10
325.147345883481
 20
54.50000000000001
 30
0
 11
312.147345883481
 21
54.50000000000001
 31
0
  0
LINE
  8
1
 62
7
 10
323.147345883481
 20
24.50000000000002
 30
0
 11
323.147345883481
 21
54.50000000000001
 31
0
  0
LINE
  8
1
 62
7
 10
312.147345883481
 20
24.50000000000001
 30
0
 11
325.147345883481
 21
24.50000000000002
 31
0
  0
LINE
  8
1
 62
7
 10
310.847345883481
 20
16.00000000000001
 30
0
 11
310.847345883481
 21
5.000000000000012
 31
0
  0
LINE
  8
1
 62
7
 10
320.847345883481
 20
16.00000000000002
 30
0
 11
310.847345883481
 21
16.00000000000001
 31
0
  0
LINE
  8
1
 62
7
 10
320.847345883481
 20
5.000000000000012
 30
0
 11
320.847345883481
 21
16.00000000000002
 31
0
  0
LINE
  8
1
 62
7
 10
310.847345883481
 20
5.000000000000012
 30
0
 11
320.847345883481
 21
5.000000000000012
 31
0
  0
LINE
  8
1
 62
3
  6
DASHED
 10
323.147345883481
 20
93.5
 30
0
 11
323.147345883481
 21
98.5
 31
0
  0
LINE
  8
1
 62
3
  6
DASHED
 10
323.147345883481
 20
53.50000000000001
 30
0
 11
323.147345883481
 21
69.50000000000003
 31
0
  0
LINE
  8
1
 62
3
  6
DASHED
 10
323.147345883481
 20
0.5000000000000129
 30
0
 11
323.147345883481
 21
23.50000000000002
 31
0
  0
LINE
  8
1
 62
3
  6
DASHED
 10
284.6473458834811
 20
98.5
 30
0
 11
323.147345883481
 21
98.5
 31
0
  0
LINE
  8
1
 62
3
  6
DASHED
 10
284.6473458834811
 20
0.5000000000000129
 30
0
 11
323.147345883481
 21
0.5000000000000129
 31
0
  0
LINE
  8
1
 62
3
  6
DASHED
 10
284.6473458834811
 20
100.5
 30
0
 11
284.6473458834811
 21
-1.500000000000004
 31
0
  0
LINE
  8
1
 62
7
 10
178.647345883481
 20
-1.499999999999983
 30
0
 11
214.647345883481
 21
-1.499999999999975
 31
0
  0
LINE
  8
1
 62
7
 10
178.647345883481
 20
100.5
 30
0
 11
178.647345883481
 21
-1.499999999999983
 31
0
  0
LINE
  8
1
 62
7
 10
214.647345883481
 20
100.5
 30
0
 11
178.647345883481
 21
100.5
 31
0
  0
LINE
  8
1
 62
7
 10
214.647345883481
 20
-1.499999999999975
 30
0
 11
214.647345883481
 21
100.5
 31
0
  0
LINE
  8
1
 62
3
  6
DASHED
 10
180.647345883481
 20
0.5000000000000124
 30
0
 11
214.647345883481
 21
0.500000000000007
 31
0
  0
LINE
  8
1
 62
3
  6
DASHED
 10
214.647345883481
 20
98.5
 30
0
 11
180.647345883481
 21
98.5
 31
0
  0
LINE
  8
1
 62
3
  6
DASHED
 10
180.647345883481
 20
100.5
 30
0
 11
180.647345883481
 21
-1.499999999999983
 31
0
  0
LINE
  8
1
 62
2
  6
PHANTOM
 10
205.647345883481
 20
95
 30
0
 11
205.647345883481
 21
89
 31
0
  0
LINE
  8
1
 62
2
  6
PHANTOM
 10
202.647345883481
 20
92
 30
0
 11
208.647345883481
 21
92
 31
0
  0
LINE
  8
1
 62
2
  6
CENTER
 10
205.647345883481
 20
10.4
 30
0
 11
205.647345883481
 21
4.400000000000009
 31
0
  0
LINE
  8
1
 62
2
  6
PHANTOM
 10
202.647345883481
 20
7.400000000000003
 30
0
 11
208.647345883481
 21
7.40000000000001
 31
0
  0
LINE
  8
1
 62
7
 10
323.147345883481
 20
70.50000000000003
 30
0
 11
323.147345883481
 21
94.5
 31
0
  0
LINE
  8
1
 62
7
 10
325.147345883481
 20
94.5
 30
0
 11
317.647345883481
 21
94.5
 31
0
  0
LINE
  8
1
 62
7
 10
301.147345883481
 20
91.5
 30
0
 11
301.147345883481
 21
73.5
 31
0
  0
LINE
  8
1
 62
7
 10
317.647345883481
 20
70.5
 30
0
 11
325.147345883481
 21
70.50000000000004
 31
0
  0
LINE
  8
1
 62
7
 10
317.647345883481
 20
91.5
 30
0
 11
317.647345883481
 21
94.5
 31
0
  0
LINE
  8
1
 62
7
 10
317.647345883481
 20
91.5
 30
0
 11
301.147345883481
 21
91.5
 31
0
  0
LINE
  8
1
 62
7
 10
301.147345883481
 20
73.5
 30
0
 11
317.647345883481
 21
73.5
 31
0
  0
LINE
  8
1
 62
7
 10
317.647345883481
 20
70.5
 30
0
 11
317.647345883481
 21
73.5
 31
0
  0
LINE
  8
1
 62
7
 10
284.6473458834811
 20
-98
 30
0
 11
323.147345883481
 21
-98
 31
0
  0
LINE
  8
1
 62
7
 10
284.6473458834811
 20
-62
 30
0
 11
284.6473458834811
 21
-96
 31
0
  0
LINE
  8
1
 62
7
 10
323.147345883481
 20
-62
 30
0
 11
284.6473458834811
 21
-62
 31
0
  0
LINE
  8
1
 62
7
 10
325.147345883481
 20
-96
 30
0
 11
325.147345883481
 21
-64
 31
0
  0
LINE
  8
1
 62
7
 10
267.647345883481
 20
-98
 30
0
 11
284.6473458834811
 21
-98
 31
0
  0
LINE
  8
1
 62
3
  6
DASHED
 10
323.147345883481
 20
-64
 30
0
 11
323.147345883481
 21
-96
 31
0
  0
LINE
  8
1
 62
3
  6
DASHED
 10
284.6473458834811
 20
-64
 30
0
 11
323.147345883481
 21
-64
 31
0
  0
LINE
  8
1
 62
7
 10
267.647345883481
 20
-96
 30
0
 11
323.147345883481
 21
-96
 31
0
  0
LINE
  8
1
 62
7
 10
267.647345883481
 20
-98
 30
0
 11
267.647345883481
 21
-96
 31
0
  0
LINE
  8
1
 62
2
  6
PHANTOM
 10
274.847345883481
 20
-101
 30
0
 11
274.847345883481
 21
-93
 31
0
  0
LINE
  8
1
 62
2
  6
PHANTOM
 10
320.147345883481
 20
-71
 30
0
 11
328.147345883481
 21
-71
 31
0
  0
LINE
  8
1
 62
2
  6
DASHDOT
 10
268.447345883481
 20
86.5
 30
0
 11
281.247345883481
 21
86.5
 31
0
  0
LINE
  8
1
 62
2
  6
DASHDOT
 10
274.847345883481
 20
80.09999999999999
 30
0
 11
274.847345883481
 21
92.90000000000001
 31
0
  0
LINE
  8
1
 62
2
  6
DASHDOT
 10
268.447345883481
 20
12.50000000000001
 30
0
 11
281.247345883481
 21
12.50000000000001
 31
0
  0
LINE
  8
1
 62
2
  6
DASHDOT
 10
274.847345883481
 20
6.100000000000009
 30
0
 11
274.847345883481
 21
18.90000000000002
 31
0
  0
CIRCLE
  8
1
 62
7
 10
205.647345883481
 20
92
 30
0
 40
2.5
  0
CIRCLE
  8
1
 62
7
 10
205.647345883481
 20
7.40000000000001
 30
0
 40
2.500000000000001
  0
CIRCLE
  8
1
 62
7
 10
274.847345883481
 20
86.5
 30
0
 40
4
  0
CIRCLE
  8
1
 62
7
 10
274.847345883481
 20
86.5
 30
0
 40
2
  0
CIRCLE
  8
1
 62
7
 10
274.847345883481
 20
12.50000000000001
 30
0
 40
4
  0
CIRCLE
  8
1
 62
7
 10
274.847345883481
 20
12.50000000000001
 30
0
 40
2
  0
ARC
  8
1
 62
7
 10
323.147345883481
 20
0.5000000000000129
 30
0
 40
2.000000000000006
 50
270
 51
5.7886095202636e-13
  0
ARC
  8
1
 62
7
 10
323.147345883481
 20
98.5
 30
0
 40
2
 50
0
 51
90
  0
ARC
  8
1
 62
7
 10
323.147345883481
 20
-96
 30
0
 40
2
 50
270
 51
0
  0
ARC
  8
1
 62
7
 10
323.147345883481
 20
-64
 30
0
 40
2
 50
0
 51
90
  0
TEXT
  8
1
 62
4
 10
206.3163154787036
 20
-120.625442997802
 30
0
 40
7
  1
0-B-2005.403
 41
0.9
  0
DIMENSION
  8
1
  6
CONTINUOUS
 62
1
  2
*D0
  3
DMST_1
 10
229.693097449865
 20
-1.499999999999986
 30
0
 11
226.193097449865
 21
49.50000000000001
 31
0
 12
0
 22
0
 32
0
 70
0
 13
214.647345883481
 23
100.5
 33
0
 14
214.647345883481
 24
-1.499999999999975
 34
0
 50
90
 53
0
  0
DIMENSION
  8
1
  6
CONTINUOUS
 62
1
  2
*D1
  3
DMST_1
 10
340.128435816938
 20
-98
 30
0
 11
336.628435816938
 21
-80
 31
0
 12
0
 22
0
 32
0
 70
0
 13
323.147345883481
 23
-62
 33
0
 14
323.147345883481
 24
-98
 34
0
 50
90
 53
0
  0
DIMENSION
  8
1
  6
CONTINUOUS
 62
1
  2
*D2
  3
DMST_1
 10
267.647345883481
 20
131.152789355819
 30
0
 11
296.397345883481
 21
134.902789355819
 31
0
 12
0
 22
0
 32
0
 70
0
 13
325.147345883481
 23
98.5
 33
0
 14
267.647345883481
 24
100.5
 34
0
 53
0
  0
DIMENSION
  8
1
  6
CONTINUOUS
 62
1
  2
*D3
  3
DMST_1
 10
325.147345883481
 20
-46.32188720698279
 30
0
 11
304.8973458834811
 21
-42.57188720698279
 31
0
 12
0
 22
0
 32
0
 70
0
 13
284.6473458834811
 23
-62
 33
0
 14
325.147345883481
 24
-64
 34
0
 53
0
  0
DIMENSION
  8
1
  6
CONTINUOUS
 62
1
  2
*D4
  3
DMST_1
 10
355.566856566858
 20
-1.499999999999991
 30
0
 11
351.816856566858
 21
-9.278652589513291
 31
0
 12
0
 22
0
 32
0
 70
0
 13
310.847345883481
 23
5.000000000000012
 33
0
 14
323.147345883481
 24
-1.499999999999993
 34
0
 50
90
 53
0
  0
DIMENSION
  8
1
  6
CONTINUOUS
 62
1
  2
*D5
  3
DMST_1
 10
355.391856566858
 20
70.5
 30
0
 11
351.891856566858
 21
82.5
 31
0
 12
0
 22
0
 32
0
 70
0
 13
317.647345883481
 23
94.5
 33
0
 14
317.647345883481
 24
70.5
 34
0
 50
90
 53
0
  0
DIMENSION
  8
1
  6
CONTINUOUS
 62
1
  2
*D6
  3
DMST_1
 10
355.391856566858
 20
54.50000000000001
 30
0
 11
351.891856566858
 21
62.5
 31
0
 12
0
 22
0
 32
0
 70
0
 13
317.647345883481
 23
70.5
 33
0
 14
312.147345883481
 24
54.50000000000001
 34
0
 50
90
 53
0
  0
DIMENSION
  8
1
  6
CONTINUOUS
 62
1
  2
*D7
  3
DMST_1
 10
355.391856566858
 20
24.50000000000001
 30
0
 11
351.891856566858
 21
39.50000000000001
 31
0
 12
0
 22
0
 32
0
 70
0
 13
312.147345883481
 23
54.50000000000001
 33
0
 14
312.147345883481
 24
24.50000000000001
 34
0
 50
90
 53
0
  0
DIMENSION
  8
1
  6
CONTINUOUS
 62
1
  2
*D8
  3
DMST_1
 10
355.267573807056
 20
16.00000000000001
 30
0
 11
351.517573807056
 21
20.25000000000001
 31
0
 12
0
 22
0
 32
0
 70
0
 13
312.147345883481
 23
24.50000000000001
 33
0
 14
310.847345883481
 24
16.00000000000001
 34
0
 50
90
 53
0
  0
DIMENSION
  8
1
  6
CONTINUOUS
 62
1
  2
*D9
  3
DMST_1
 10
355.391856566858
 20
5.000000000000012
 30
0
 11
351.891856566858
 21
10.50000000000001
 31
0
 12
0
 22
0
 32
0
 70
0
 13
310.847345883481
 23
16.00000000000001
 33
0
 14
310.847345883481
 24
5.000000000000012
 34
0
 50
90
 53
0
  0
DIMENSION
  8
1
  6
CONTINUOUS
 62
1
  2
*D10
  3
DMST_1
 10
325.147345883481
 20
116.064368605899
 30
0
 11
332.889194419902
 21
119.564368605899
 31
0
 12
0
 22
0
 32
0
 70
0
 13
323.147345883481
 23
94.5
 33
0
 14
325.147345883481
 24
98.5
 34
0
 53
0
  0
DIMENSION
  8
1
  6
CONTINUOUS
 62
1
  2
*D11
  3
DMST_1
 10
301.147345883481
 20
116.064368605899
 30
0
 11
312.147345883481
 21
119.564368605899
 31
0
 12
0
 22
0
 32
0
 70
0
 13
323.147345883481
 23
94.5
 33
0
 14
301.147345883481
 24
73.5
 34
0
 53
0
  0
DIMENSION
  8
1
  6
CONTINUOUS
 62
1
  2
*D12
  3
DMST_1
 10
325.147345883481
 20
-19.42499999999999
 30
0
 11
331.39278062089
 21
-15.67499999999999
 31
0
 12
0
 22
0
 32
0
 70
0
 13
320.847345883481
 23
16.00000000000002
 33
0
 14
325.147345883481
 24
0.5000000000000331
 34
0
 53
0
  0
DIMENSION
  8
1
  6
CONTINUOUS
 62
1
  2
*D13
  3
DMST_1
 10
310.847345883481
 20
-19.42499999999999
 30
0
 11
315.847345883481
 21
-15.92499999999999
 31
0
 12
0
 22
0
 32
0
 70
0
 13
320.847345883481
 23
16.00000000000002
 33
0
 14
310.847345883481
 24
5.000000000000012
 34
0
 53
0
  0
INSERT
  8
1
  2
*D14
 10
0
 20
0
 30
0
  0
INSERT
  8
1
  2
*D15
 10
0
 20
0
 30
0
  0
ENDSEC
  0
EOF
