  0
SECTION
  2
HEADER
  9
$ACADVER
  1
AC1009
  9
$INSBASE
 10
0
 20
0
  9
$EXTMIN
 10
-53.9736779801398
 20
-100.9164624566822
  9
$EXTMAX
 10
160.75
 20
141.6610851430315
  9
$LIMMIN
 10
-53.9736779801398
 20
-100.9164624566822
  9
$LIMMAX
 10
160.75
 20
141.6610851430315
  9
$VIEWCTR
 10
10
 20
10
  9
$VIEWSIZE
 40
10
  9
$SNAPMODE
 70
0
  9
$SNAPUNIT
 10
1
 20
1
  9
$SNAPBASE
 10
0
 20
0
  9
$SNAPANG
 50
0
  9
$SNAPSTYLE
 70
0
  9
$SNAPISOPAIR
 70
0
  9
$GRIDMODE
 70
0
  9
$GRIDUNIT
 10
0
 20
0
  9
$ORTHOMODE
 70
0
  9
$REGENMODE
 70
1
  9
$FILLMODE
 70
1
  9
$QTEXTMODE
 70
0
  9
$DRAGMODE
 70
2
  9
$LTSCALE
 40
1
  9
$OSMODE
 70
0
  9
$ATTMODE
 70
1
  9
$TEXTSIZE
 40
3.5
  9
$TRACEWID
 40
0.5
  9
$TEXTSTYLE
  7
STANDARD
  9
$CLAYER
  8
0
  9
$CELTYPE
  6
BYLAYER
  9
$CECOLOR
 62
256
  9
$DIMSCALE
 40
1
  9
$DIMASZ
 40
0.18
  9
$DIMEXO
 40
0.0625
  9
$DIMDLI
 40
0.38
  9
$DIMRND
 40
0
  9
$DIMDLE
 40
0
  9
$DIMEXE
 40
0.18
  9
$DIMTP
 40
0
  9
$DIMTM
 40
0
  9
$DIMTXT
 40
0.18
  9
$DIMCEN
 40
0.09
  9
$DIMTSZ
 40
0
  9
$DIMTOL
 70
0
  9
$DIMLIM
 70
0
  9
$DIMTIH
 70
1
  9
$DIMTOH
 70
1
  9
$DIMSE1
 70
0
  9
$DIMSE2
 70
0
  9
$DIMTAD
 70
0
  9
$DIMZIN
 70
0
  9
$DIMBLK
  1

  9
$DIMASO
 70
1
  9
$DIMSHO
 70
1
  9
$DIMPOST
  1

  9
$DIMAPOST
  1

  9
$DIMALT
 70
0
  9
$DIMALTD
 70
2
  9
$DIMALTF
 40
25.4
  9
$DIMLFAC
 40
1
  9
$DIMTOFL
 70
0
  9
$DIMTVP
 40
0
  9
$DIMTIX
 70
0
  9
$DIMSOXD
 70
0
  9
$DIMSAH
 70
0
  9
$DIMBLK1
  1

  9
$DIMBLK2
  1

  9
$DIMSTYLE
  2
*UNNAMED
  9
$DIMCLRD
 70
0
  9
$DIMCLRE
 70
0
  9
$DIMCLRT
 70
0
  9
$DIMTFAC
 40
1
  9
$DIMGAP
 40
0.09
  9
$LUNITS
 70
2
  9
$LUPREC
 70
4
  9
$AXISMODE
 70
0
  9
$AXISUNIT
 10
0
 20
0
  9
$SKETCHINC
 40
0.1
  9
$FILLETRAD
 40
2
  9
$AUNITS
 70
0
  9
$AUPREC
 70
0
  9
$MENU
  1
ACAD
  9
$ELEVATION
 40
0
  9
$THICKNESS
 40
0
  9
$VIEWDIR
 10
0
 20
0
 30
1
  9
$LIMCHECK
 70
0
  9
$BLIPMODE
 70
1
  9
$CHAMFERA
 40
0
  9
$CHAMFERB
 40
0
  9
$FASTZOOM
 70
1
  9
$SKPOLY
 70
0
  9
$ANGBASE
 50
0
  9
$ANGDIR
 70
0
  9
$PDMODE
 70
0
  9
$PDSIZE
 40
0
  9
$PLINEWID
 40
0
  9
$COORDS
 70
2
  0
ENDSEC
  0
SECTION
  2
TABLES
  0
TABLE
  2
DIMSTYLE
 70
3
  0
DIMSTYLE
  2
DMST_1
 70
0
  3

  4

  5

  6

  7

 40
1
 41
5
 42
0
 43
7
 44
2
 45
0
 46
0
 47
0
 48
0
140
5
141
0
142
0
143
25.4
144
1
145
0
146
1
147
0.09
 71
0
 72
0
 73
0
 74
0
 75
0
 76
0
 77
1
 78
9
170
0
171
2
172
0
173
0
174
0
175
0
176
1
177
1
178
7
  0
DIMSTYLE
  2
DMST_2
 70
0
  3

  4

  5

  6

  7

 40
1
 41
0
 42
0
 43
7
 44
2
 45
0
 46
0
 47
0
 48
0
140
5
141
0
142
0
143
25.4
144
1
145
0
146
1
147
0.09
 71
0
 72
0
 73
0
 74
0
 75
0
 76
0
 77
1
 78
9
170
0
171
2
172
0
173
0
174
0
175
0
176
1
177
1
178
7
  0
DIMSTYLE
  2
DMST_3
 70
0
  3

  4

  5

  6

  7

 40
1
 41
5
 42
0
 43
7
 44
2
 45
0
 46
0
 47
0
 48
0
140
5
141
0
142
0
143
25.4
144
1
145
0
146
1
147
0.09
 71
0
 72
0
 73
0
 74
0
 75
0
 76
0
 77
1
 78
9
170
0
171
2
172
0
173
0
174
0
175
0
176
7
177
7
178
7
  0
ENDTAB
  0
TABLE
  2
LTYPE
 70
9
  0
LTYPE
  2
CONTINUOUS
 70
64
  3
Solid line
 72
65
 73
0
 40
0
  0
LTYPE
  2
BORDER
 70
64
  3
__ __ . __ __ .
 72
65
 73
6
 40
11.17133442893418
 49
3.191809836838338
 49
-1.595904918419169
 49
3.191809836838338
 49
-1.595904918419169
 49
0
 49
-1.595904918419169
  0
LTYPE
  2
CENTER
 70
64
  3
____ _ ____ _
 72
65
 73
4
 40
12.76723934735335
 49
7.979524592095845
 49
-1.595904918419169
 49
1.595904918419169
 49
-1.595904918419169
  0
LTYPE
  2
DASHDOT
 70
64
  3
__ . __ . __ .
 72
65
 73
4
 40
6.383619673676676
 49
3.191809836838338
 49
-1.595904918419169
 49
0
 49
-1.595904918419169
  0
LTYPE
  2
DASHED
 70
64
  3
__ __ __ __ __
 72
65
 73
2
 40
4.787714755257507
 49
3.191809836838338
 49
-1.595904918419169
  0
LTYPE
  2
DIVIDE
 70
64
  3
__ . . __ . . 
 72
65
 73
6
 40
7.979524592095845
 49
3.191809836838338
 49
-1.595904918419169
 49
0
 49
-1.595904918419169
 49
0
 49
-1.595904918419169
  0
LTYPE
  2
DOT
 70
64
  3
..............
 72
65
 73
4
 40
3.191809836838338
 49
0
 49
-1.595904918419169
 49
0
 49
-1.595904918419169
  0
LTYPE
  2
HIDDEN
 70
64
  3
_ _ _ _ _ _ _
 72
65
 73
2
 40
2.393857377628753
 49
1.595904918419169
 49
-0.7979524592095845
  0
LTYPE
  2
PHANTOM
 70
64
  3
_____ _ _ _____ _ _ 
 72
65
 73
6
 40
15.95904918419169
 49
7.979524592095845
 49
-1.595904918419169
 49
1.595904918419169
 49
-1.595904918419169
 49
1.595904918419169
 49
-1.595904918419169
  0
ENDTAB
  0
TABLE
  2
LAYER
 70
4
  0
LAYER
  2
1
 70
0
 62
7
  6
CONTINUOUS
  0
LAYER
  2
3
 70
0
 62
7
  6
CONTINUOUS
  0
LAYER
  2
0
 70
0
 62
7
  6
CONTINUOUS
  0
ENDTAB
  0
TABLE
  2
STYLE
 70
4
  0
STYLE
  2
STANDARD
 70
0
 40
0
 41
1
 50
0
 71
0
 42
3.5
  3
txt
  4

  0
STYLE
  2
SIMPLEX
 70
0
 40
0
 41
1
 50
0
 71
0
 42
3.5
  3
simplex
  4

  0
STYLE
  2
COMPLEX
 70
0
 40
0
 41
1
 50
0
 71
0
 42
3.5
  3
complex
  4

  0
STYLE
  2
ITALIC
 70
0
 40
0
 41
1
 50
0
 71
0
 42
3.5
  3
italic
  4

  0
ENDTAB
  0
TABLE
  2
VIEW
 70
0
  0
ENDTAB
  0
ENDSEC
  0
SECTION
  2
BLOCKS
  0
BLOCK
  8
1
  2
*D0
 70
1
 10
0
 20
0
 30
0
  0
LINE
  8
1
 62
1
 10
79
 20
55.2170668267496
 30
0
 11
89
 21
55.2170668267496
 31
0
  0
LINE
  8
1
 62
1
 10
71
 20
55.2170668267496
 30
0
 11
61
 21
55.2170668267496
 31
0
  0
LINE
  8
1
 62
1
 10
71
 20
55.2170668267496
 30
0
 11
79
 21
55.2170668267496
 31
0
  0
LINE
  8
1
 62
1
 10
79
 20
72
 30
0
 11
79
 21
53.2170668267496
 31
0
  0
LINE
  8
1
 62
1
 10
71
 20
72
 30
0
 11
71
 21
53.2170668267496
 31
0
  0
SOLID
  8
1
 62
1
 10
71
 20
55.2170668267496
 30
0
 11
66
 21
54.5670668267496
 31
0
 12
66
 22
55.8670668267496
 32
0
 13
66
 23
55.8670668267496
 33
0
  0
SOLID
  8
1
 62
1
 10
79
 20
55.2170668267496
 30
0
 11
84
 21
55.8670668267496
 31
0
 12
84
 22
54.5670668267496
 32
0
 13
84
 23
54.5670668267496
 33
0
  0
TEXT
  8
1
 62
7
 10
73.5
 20
56.2170668267496
 30
0
 40
5
  1
8
 41
0.9
  0
ENDBLK
  8
0
  0
BLOCK
  8
1
  2
*D1
 70
1
 10
0
 20
0
 30
0
  0
LINE
  8
1
 62
1
 10
10
 20
116.322895102445
 30
0
 11
20
 21
116.322895102445
 31
0
  0
LINE
  8
1
 62
1
 10
-2
 20
116.322895102445
 30
0
 11
-12
 21
116.322895102445
 31
0
  0
LINE
  8
1
 62
1
 10
-2
 20
116.322895102445
 30
0
 11
10
 21
116.322895102445
 31
0
  0
LINE
  8
1
 62
1
 10
10
 20
102
 30
0
 11
10
 21
118.322895102445
 31
0
  0
LINE
  8
1
 62
1
 10
-2
 20
74
 30
0
 11
-2
 21
118.322895102445
 31
0
  0
SOLID
  8
1
 62
1
 10
-2
 20
116.322895102445
 30
0
 11
-7
 21
115.672895102445
 31
0
 12
-7
 22
116.972895102445
 32
0
 13
-7
 23
116.972895102445
 33
0
  0
SOLID
  8
1
 62
1
 10
10
 20
116.322895102445
 30
0
 11
15
 21
116.972895102445
 31
0
 12
15
 22
115.672895102445
 32
0
 13
15
 23
115.672895102445
 33
0
  0
TEXT
  8
1
 62
7
 10
1
 20
117.322895102445
 30
0
 40
5
  1
12
 41
0.9
  0
ENDBLK
  8
0
  0
BLOCK
  8
1
  2
*D2
 70
1
 10
0
 20
0
 30
0
  0
LINE
  8
1
 62
1
 10
10
 20
-47.75
 30
0
 11
120
 21
-47.75
 31
0
  0
LINE
  8
1
 62
1
 10
120
 20
1.75
 30
0
 11
120
 21
-49.75
 31
0
  0
LINE
  8
1
 62
1
 10
10
 20
0
 30
0
 11
10
 21
-49.75
 31
0
  0
SOLID
  8
1
 62
1
 10
10
 20
-47.75
 30
0
 11
15
 21
-47.1
 31
0
 12
15
 22
-48.4
 32
0
 13
15
 23
-48.4
 33
0
  0
SOLID
  8
1
 62
1
 10
120
 20
-47.75
 30
0
 11
115
 21
-48.4
 31
0
 12
115
 22
-47.1
 32
0
 13
115
 23
-47.1
 33
0
  0
TEXT
  8
1
 62
7
 10
60.5
 20
-46.75
 30
0
 40
5
  1
110
 41
0.9
  0
ENDBLK
  8
0
  0
BLOCK
  8
1
  2
*D3
 70
1
 10
0
 20
0
 30
0
  0
LINE
  8
1
 62
1
 10
10
 20
-35.75
 30
0
 11
75
 21
-35.75
 31
0
  0
LINE
  8
1
 62
1
 10
75
 20
2.363219494061212
 30
0
 11
75
 21
-37.75
 31
0
  0
LINE
  8
1
 62
1
 10
10
 20
0
 30
0
 11
10
 21
-37.75
 31
0
  0
SOLID
  8
1
 62
1
 10
10
 20
-35.75
 30
0
 11
15
 21
-35.1
 31
0
 12
15
 22
-36.4
 32
0
 13
15
 23
-36.4
 33
0
  0
SOLID
  8
1
 62
1
 10
75
 20
-35.75
 30
0
 11
70
 21
-36.4
 31
0
 12
70
 22
-35.1
 32
0
 13
70
 23
-35.1
 33
0
  0
TEXT
  8
1
 62
7
 10
38.75
 20
-34.75
 30
0
 40
5
  1
65
 41
0.9
  0
ENDBLK
  8
0
  0
BLOCK
  8
1
  2
*D4
 70
1
 10
0
 20
0
 30
0
  0
LINE
  8
1
 62
1
 10
10
 20
-14.75
 30
0
 11
20
 21
-14.75
 31
0
  0
LINE
  8
1
 62
1
 10
-3
 20
-14.75
 30
0
 11
-13
 21
-14.75
 31
0
  0
LINE
  8
1
 62
1
 10
-3
 20
-14.75
 30
0
 11
10
 21
-14.75
 31
0
  0
LINE
  8
1
 62
1
 10
10
 20
0
 30
0
 11
10
 21
-16.75
 31
0
  0
LINE
  8
1
 62
1
 10
-3
 20
8
 30
0
 11
-3
 21
-16.75
 31
0
  0
SOLID
  8
1
 62
1
 10
-3
 20
-14.75
 30
0
 11
-8
 21
-15.4
 31
0
 12
-8
 22
-14.1
 32
0
 13
-8
 23
-14.1
 33
0
  0
SOLID
  8
1
 62
1
 10
10
 20
-14.75
 30
0
 11
15
 21
-14.1
 31
0
 12
15
 22
-15.4
 32
0
 13
15
 23
-15.4
 33
0
  0
TEXT
  8
1
 62
7
 10
0.5
 20
-13.75
 30
0
 40
5
  1
13
 41
0.9
  0
ENDBLK
  8
0
  0
BLOCK
  8
1
  2
*D5
 70
1
 10
0
 20
0
 30
0
  0
LINE
  8
1
 62
1
 10
-47.9736779801398
 20
-65.50000000000001
 30
0
 11
-47.9736779801398
 21
-55.50000000000001
 31
0
  0
LINE
  8
1
 62
1
 10
-47.9736779801398
 20
-73.50000000000001
 30
0
 11
-47.9736779801398
 21
-83.50000000000001
 31
0
  0
LINE
  8
1
 62
1
 10
-47.9736779801398
 20
-73.50000000000001
 30
0
 11
-47.9736779801398
 21
-65.50000000000001
 31
0
  0
LINE
  8
1
 62
1
 10
-18
 20
-65.50000000000001
 30
0
 11
-49.9736779801398
 21
-65.50000000000001
 31
0
  0
LINE
  8
1
 62
1
 10
-18
 20
-73.50000000000001
 30
0
 11
-29.9740647575268
 21
-73.50000000000001
 31
0
  0
LINE
  8
1
 62
1
 10
-40.3645441726608
 20
-73.50000000000001
 30
0
 11
-49.9736779801398
 21
-73.50000000000001
 31
0
  0
SOLID
  8
1
 62
1
 10
-47.9736779801398
 20
-65.50000000000001
 30
0
 11
-48.6236779801398
 21
-60.50000000000001
 31
0
 12
-47.3236779801398
 22
-60.50000000000001
 32
0
 13
-47.3236779801398
 23
-60.50000000000001
 33
0
  0
SOLID
  8
1
 62
1
 10
-47.9736779801398
 20
-73.50000000000001
 30
0
 11
-47.3236779801398
 21
-78.50000000000001
 31
0
 12
-48.6236779801398
 22
-78.50000000000001
 32
0
 13
-48.6236779801398
 23
-78.50000000000001
 33
0
  0
TEXT
  8
1
 62
7
 10
-48.9736779801398
 20
-71.00000000000001
 30
0
 40
5
  1
8
 50
90
 41
0.9
  0
ENDBLK
  8
0
  0
BLOCK
  8
1
  2
*D6
 70
1
 10
0
 20
0
 30
0
  0
LINE
  8
1
 62
1
 10
32.19710697442301
 20
-98.00000000000001
 30
0
 11
32.19710697442301
 21
-63
 31
0
  0
LINE
  8
1
 62
1
 10
11.75
 20
-63
 30
0
 11
34.19710697442301
 21
-63
 31
0
  0
LINE
  8
1
 62
1
 10
11.75
 20
-98.00000000000001
 30
0
 11
34.19710697442301
 21
-98.00000000000001
 31
0
  0
SOLID
  8
1
 62
1
 10
32.19710697442301
 20
-98.00000000000001
 30
0
 11
31.54710697442301
 21
-93.00000000000001
 31
0
 12
32.84710697442301
 22
-93.00000000000001
 32
0
 13
32.84710697442301
 23
-93.00000000000001
 33
0
  0
SOLID
  8
1
 62
1
 10
32.19710697442301
 20
-63
 30
0
 11
32.84710697442301
 21
-68
 31
0
 12
31.54710697442301
 22
-68
 32
0
 13
31.54710697442301
 23
-68
 33
0
  0
TEXT
  8
1
 62
7
 10
31.19710697442301
 20
-84.25000000000001
 30
0
 40
5
  1
35
 50
90
 41
0.9
  0
ENDBLK
  8
0
  0
BLOCK
  8
1
  2
*D7
 70
1
 10
0
 20
0
 30
0
  0
LINE
  8
1
 62
1
 10
130.75
 20
-87.00000000000001
 30
0
 11
130.75
 21
-63
 31
0
  0
LINE
  8
1
 62
1
 10
118.25
 20
-63
 30
0
 11
132.75
 21
-63
 31
0
  0
LINE
  8
1
 62
1
 10
120
 20
-87.00000000000001
 30
0
 11
132.75
 21
-87.00000000000001
 31
0
  0
SOLID
  8
1
 62
1
 10
130.75
 20
-87.00000000000001
 30
0
 11
130.1
 21
-82.00000000000001
 31
0
 12
131.4
 22
-82.00000000000001
 32
0
 13
131.4
 23
-82.00000000000001
 33
0
  0
SOLID
  8
1
 62
1
 10
130.75
 20
-63
 30
0
 11
131.4
 21
-68
 31
0
 12
130.1
 22
-68
 32
0
 13
130.1
 23
-68
 33
0
  0
TEXT
  8
1
 62
7
 10
129.75
 20
-78.75000000000001
 30
0
 40
5
  1
24
 50
90
 41
0.9
  0
ENDBLK
  8
0
  0
BLOCK
  8
1
  2
*D8
 70
1
 10
0
 20
0
 30
0
  0
LINE
  8
1
 62
1
 10
158.75
 20
0
 30
0
 11
158.75
 21
102
 31
0
  0
LINE
  8
1
 62
1
 10
120
 20
102
 30
0
 11
160.75
 21
102
 31
0
  0
LINE
  8
1
 62
1
 10
120
 20
0
 30
0
 11
160.75
 21
0
 31
0
  0
SOLID
  8
1
 62
1
 10
158.75
 20
0
 30
0
 11
158.1
 21
5
 31
0
 12
159.4
 22
5
 32
0
 13
159.4
 23
5
 33
0
  0
SOLID
  8
1
 62
1
 10
158.75
 20
102
 30
0
 11
159.4
 21
97
 31
0
 12
158.1
 22
97
 32
0
 13
158.1
 23
97
 33
0
  0
TEXT
  8
1
 62
7
 10
157.75
 20
45.75
 30
0
 40
5
  1
102
 50
90
 41
0.9
  0
ENDBLK
  8
0
  0
BLOCK
  8
1
  2
*D9
 70
1
 10
0
 20
0
 30
0
  0
LINE
  8
1
 62
1
 10
146.717763913779
 20
21
 30
0
 11
146.717763913779
 21
76
 31
0
  0
LINE
  8
1
 62
1
 10
83.56030962971602
 20
76
 30
0
 11
148.717763913779
 21
76
 31
0
  0
LINE
  8
1
 62
1
 10
79.63678050593882
 20
21
 30
0
 11
148.717763913779
 21
21
 31
0
  0
SOLID
  8
1
 62
1
 10
146.717763913779
 20
76
 30
0
 11
147.367763913779
 21
71
 31
0
 12
146.067763913779
 22
71
 32
0
 13
146.067763913779
 23
71
 33
0
  0
SOLID
  8
1
 62
1
 10
146.717763913779
 20
21
 30
0
 11
146.067763913779
 21
26
 31
0
 12
147.367763913779
 22
26
 32
0
 13
147.367763913779
 23
26
 33
0
  0
TEXT
  8
1
 62
7
 10
145.217763913779
 20
46.3395449620802
 30
0
 40
5
  1
48,3
 50
90
 41
0.9
  0
TEXT
  8
1
 62
7
 10
145.217763913779
 20
36.8395449620802
 30
0
 40
5
  1
3=
 50
90
 41
0.9
  0
ENDBLK
  8
0
  0
BLOCK
  8
1
  2
*D10
 70
1
 10
0
 20
0
 30
0
  0
LINE
  8
1
 62
1
 10
-18
 20
20.1923094797239
 30
0
 11
9.999999999999998
 21
20.1923094797239
 31
0
  0
LINE
  8
1
 62
1
 10
9.999999999999998
 20
0
 30
0
 11
9.999999999999998
 21
22.1923094797239
 31
0
  0
LINE
  8
1
 62
1
 10
-18
 20
28
 30
0
 11
-18
 21
18.1923094797239
 31
0
  0
SOLID
  8
1
 62
1
 10
-18
 20
20.1923094797239
 30
0
 11
-13
 21
20.8423094797239
 31
0
 12
-13
 22
19.5423094797239
 32
0
 13
-13
 23
19.5423094797239
 33
0
  0
SOLID
  8
1
 62
1
 10
9.999999999999998
 20
20.1923094797239
 30
0
 11
4.999999999999998
 21
19.5423094797239
 31
0
 12
4.999999999999998
 22
20.8423094797239
 32
0
 13
4.999999999999998
 23
20.8423094797239
 33
0
  0
TEXT
  8
1
 62
7
 10
-15.93520307053142
 20
21.3712165905064
 30
0
 40
5
  1
2x14
 41
0.9
  0
ENDBLK
  8
0
  0
BLOCK
  8
1
  2
*D11
 70
1
 10
0
 20
0
 30
0
  0
LINE
  8
1
 62
1
 10
-32.9968294111231
 20
102
 30
0
 11
-32.9968294111231
 21
112
 31
0
  0
LINE
  8
1
 62
1
 10
-32.9968294111231
 20
94
 30
0
 11
-32.9968294111231
 21
84
 31
0
  0
LINE
  8
1
 62
1
 10
-32.9968294111231
 20
94
 30
0
 11
-32.9968294111231
 21
102
 31
0
  0
LINE
  8
1
 62
1
 10
10
 20
102
 30
0
 11
-34.9968294111231
 21
102
 31
0
  0
LINE
  8
1
 62
1
 10
0
 20
94
 30
0
 11
-34.9968294111231
 21
94
 31
0
  0
SOLID
  8
1
 62
1
 10
-32.9968294111231
 20
102
 30
0
 11
-33.6468294111231
 21
107
 31
0
 12
-32.3468294111231
 22
107
 32
0
 13
-32.3468294111231
 23
107
 33
0
  0
SOLID
  8
1
 62
1
 10
-32.9968294111231
 20
94
 30
0
 11
-32.3468294111231
 21
89
 31
0
 12
-33.6468294111231
 22
89
 32
0
 13
-33.6468294111231
 23
89
 33
0
  0
TEXT
  8
1
 62
7
 10
-33.9968294111231
 20
96.5
 30
0
 40
5
  1
8
 50
90
 41
0.9
  0
ENDBLK
  8
0
  0
BLOCK
  8
1
  2
*D12
 70
1
 10
0
 20
0
 30
0
  0
LINE
  8
1
 62
1
 10
-32.9372582321458
 20
0
 30
0
 11
-32.9372582321458
 21
-10
 31
0
  0
LINE
  8
1
 62
1
 10
-32.9372582321458
 20
0
 30
0
 11
-32.9372582321458
 21
8
 31
0
  0
LINE
  8
1
 62
1
 10
-3
 20
8
 30
0
 11
-34.9372582321458
 21
8
 31
0
  0
LINE
  8
1
 62
1
 10
10
 20
0
 30
0
 11
-34.9372582321458
 21
0
 31
0
  0
LINE
  8
1
 62
1
 10
-34.70502518511217
 20
9.767766952966369
 30
0
 11
-31.16949127917943
 21
6.232233047033632
 31
0
  0
SOLID
  8
1
 62
1
 10
-32.9372582321458
 20
0
 30
0
 11
-32.2872582321458
 21
-5
 31
0
 12
-33.5872582321458
 22
-5
 32
0
 13
-33.5872582321458
 23
-5
 33
0
  0
TEXT
  8
1
 62
7
 10
-33.9372582321458
 20
2.5
 30
0
 40
5
  1
8
 50
90
 41
0.9
  0
ENDBLK
  8
0
  0
BLOCK
  8
1
  2
*D13
 70
1
 10
0
 20
0
 30
0
  0
LINE
  8
1
 62
1
 10
-32.9372582321458
 20
8
 30
0
 11
-32.9372582321458
 21
16
 31
0
  0
LINE
  8
1
 62
1
 10
-3
 20
16
 30
0
 11
-34.9372582321458
 21
16
 31
0
  0
LINE
  8
1
 62
1
 10
-3
 20
8
 30
0
 11
-34.9372582321458
 21
8
 31
0
  0
TEXT
  8
1
 62
7
 10
-33.9372582321458
 20
10.5
 30
0
 40
5
  1
8
 50
90
 41
0.9
  0
ENDBLK
  8
0
  0
BLOCK
  8
1
  2
*D14
 70
1
 10
0
 20
0
 30
0
  0
LINE
  8
1
 62
1
 10
-32.9372582321458
 20
28
 30
0
 11
-32.9372582321458
 21
38
 31
0
  0
LINE
  8
1
 62
1
 10
-32.9372582321458
 20
16
 30
0
 11
-32.9372582321458
 21
28
 31
0
  0
LINE
  8
1
 62
1
 10
-18
 20
28
 30
0
 11
-34.9372582321458
 21
28
 31
0
  0
LINE
  8
1
 62
1
 10
-3
 20
16
 30
0
 11
-34.9372582321458
 21
16
 31
0
  0
SOLID
  8
1
 62
1
 10
-32.9372582321458
 20
28
 30
0
 11
-33.5872582321458
 21
33
 31
0
 12
-32.2872582321458
 22
33
 32
0
 13
-32.2872582321458
 23
33
 33
0
  0
LINE
  8
1
 62
1
 10
-31.16949127917943
 20
14.23223304703363
 30
0
 11
-34.70502518511217
 21
17.76776695296637
 31
0
  0
TEXT
  8
1
 62
7
 10
-33.9372582321458
 20
19
 30
0
 40
5
  1
12
 50
90
 41
0.9
  0
ENDBLK
  8
0
  0
BLOCK
  8
1
  2
*D15
 70
1
 10
0
 20
0
 30
0
  0
LINE
  8
1
 62
1
 10
-32.9968294111231
 20
28
 30
0
 11
-32.9968294111231
 21
55.00000000000001
 31
0
  0
LINE
  8
1
 62
1
 10
-18
 20
55.00000000000001
 30
0
 11
-34.9968294111231
 21
55.00000000000001
 31
0
  0
LINE
  8
1
 62
1
 10
-18
 20
28
 30
0
 11
-34.9968294111231
 21
28
 31
0
  0
SOLID
  8
1
 62
1
 10
-32.9968294111231
 20
55.00000000000001
 30
0
 11
-32.3468294111231
 21
50.00000000000001
 31
0
 12
-33.6468294111231
 22
50.00000000000001
 32
0
 13
-33.6468294111231
 23
50.00000000000001
 33
0
  0
SOLID
  8
1
 62
1
 10
-32.9968294111231
 20
28
 30
0
 11
-33.6468294111231
 21
33
 31
0
 12
-32.3468294111231
 22
33
 32
0
 13
-32.3468294111231
 23
33
 33
0
  0
TEXT
  8
1
 62
7
 10
-33.9968294111231
 20
37.75
 30
0
 40
5
  1
27
 50
90
 41
0.9
  0
ENDBLK
  8
0
  0
BLOCK
  8
1
  2
*D16
 70
1
 10
0
 20
0
 30
0
  0
LINE
  8
1
 62
1
 10
-32.9968294111231
 20
55.00000000000001
 30
0
 11
-32.9968294111231
 21
74
 31
0
  0
LINE
  8
1
 62
1
 10
10
 20
74
 30
0
 11
-34.9968294111231
 21
74
 31
0
  0
LINE
  8
1
 62
1
 10
-18
 20
55.00000000000001
 30
0
 11
-34.9968294111231
 21
55.00000000000001
 31
0
  0
SOLID
  8
1
 62
1
 10
-32.9968294111231
 20
74
 30
0
 11
-32.3468294111231
 21
69
 31
0
 12
-33.6468294111231
 22
69
 32
0
 13
-33.6468294111231
 23
69
 33
0
  0
SOLID
  8
1
 62
1
 10
-32.9968294111231
 20
55.00000000000001
 30
0
 11
-33.6468294111231
 21
60.00000000000001
 31
0
 12
-32.3468294111231
 22
60.00000000000001
 32
0
 13
-32.3468294111231
 23
60.00000000000001
 33
0
  0
TEXT
  8
1
 62
7
 10
-33.9968294111231
 20
61.5
 30
0
 40
5
  1
19
 50
90
 41
0.9
  0
ENDBLK
  8
0
  0
BLOCK
  8
1
  2
*D17
 70
1
 10
0
 20
0
 30
0
  0
LINE
  8
1
 62
1
 10
-32.9968294111231
 20
74
 30
0
 11
-32.9968294111231
 21
94
 31
0
  0
LINE
  8
1
 62
1
 10
0
 20
94
 30
0
 11
-34.9968294111231
 21
94
 31
0
  0
LINE
  8
1
 62
1
 10
10
 20
74
 30
0
 11
-34.9968294111231
 21
74
 31
0
  0
SOLID
  8
1
 62
1
 10
-32.9968294111231
 20
94
 30
0
 11
-32.3468294111231
 21
89
 31
0
 12
-33.6468294111231
 22
89
 32
0
 13
-33.6468294111231
 23
89
 33
0
  0
SOLID
  8
1
 62
1
 10
-32.9968294111231
 20
74
 30
0
 11
-33.6468294111231
 21
79
 31
0
 12
-32.3468294111231
 22
79
 32
0
 13
-32.3468294111231
 23
79
 33
0
  0
TEXT
  8
1
 62
7
 10
-33.9968294111231
 20
80.25
 30
0
 40
5
  1
20
 50
90
 41
0.9
  0
ENDBLK
  8
0
  0
BLOCK
  8
1
  2
*D18
 70
1
 10
0
 20
0
 30
0
  0
LINE
  8
1
 62
1
 10
-32.9583489038134
 20
-85.50000000000001
 30
0
 11
-32.9583489038134
 21
-65.50000000000001
 31
0
  0
LINE
  8
1
 62
1
 10
-18
 20
-65.50000000000001
 30
0
 11
-34.9583489038134
 21
-65.50000000000001
 31
0
  0
LINE
  8
1
 62
1
 10
10
 20
-85.50000000000001
 30
0
 11
-34.9583489038134
 21
-85.50000000000001
 31
0
  0
SOLID
  8
1
 62
1
 10
-32.9583489038134
 20
-65.50000000000001
 30
0
 11
-32.3083489038134
 21
-70.50000000000001
 31
0
 12
-33.6083489038134
 22
-70.50000000000001
 32
0
 13
-33.6083489038134
 23
-70.50000000000001
 33
0
  0
SOLID
  8
1
 62
1
 10
-32.9583489038134
 20
-85.50000000000001
 30
0
 11
-33.6083489038134
 21
-80.50000000000001
 31
0
 12
-32.3083489038134
 22
-80.50000000000001
 32
0
 13
-32.3083489038134
 23
-80.50000000000001
 33
0
  0
TEXT
  8
1
 62
7
 10
-33.9583489038134
 20
-79.25000000000001
 30
0
 40
5
  1
20
 50
90
 41
0.9
  0
ENDBLK
  8
0
  0
BLOCK
  8
1
  2
*D19
 70
1
 10
0
 20
0
 30
0
  0
LINE
  8
1
 62
1
 10
-32.9427206199442
 20
-87.00000000000001
 30
0
 11
-32.9427206199442
 21
-100.9164624566822
 31
0
  0
LINE
  8
1
 62
1
 10
-32.9427206199442
 20
-87.00000000000001
 30
0
 11
-32.9427206199442
 21
-85.50000000000001
 31
0
  0
LINE
  8
1
 62
1
 10
-32.9427206199442
 20
-75.50000000000001
 30
0
 11
-32.9427206199442
 21
-85.50000000000001
 31
0
  0
LINE
  8
1
 62
1
 10
10
 20
-85.50000000000001
 30
0
 11
-34.9427206199442
 21
-85.50000000000001
 31
0
  0
LINE
  8
1
 62
1
 10
11.75
 20
-87.00000000000001
 30
0
 11
-34.9427206199442
 21
-87.00000000000001
 31
0
  0
SOLID
  8
1
 62
1
 10
-32.9427206199442
 20
-85.50000000000001
 30
0
 11
-33.5927206199442
 21
-80.50000000000001
 31
0
 12
-32.2927206199442
 22
-80.50000000000001
 32
0
 13
-32.2927206199442
 23
-80.50000000000001
 33
0
  0
SOLID
  8
1
 62
1
 10
-32.9427206199442
 20
-87.00000000000001
 30
0
 11
-32.2927206199442
 21
-92.00000000000001
 31
0
 12
-33.5927206199442
 22
-92.00000000000001
 32
0
 13
-33.5927206199442
 23
-92.00000000000001
 33
0
  0
TEXT
  8
1
 62
7
 10
-34.4427206199442
 20
-100.9164624566822
 30
0
 40
5
  1
1,5
 50
90
 41
0.9
  0
ENDBLK
  8
0
  0
BLOCK
  8
1
  2
*D20
 70
1
 10
0
 20
0
 30
0
  0
LINE
  8
1
 62
1
 10
146.75
 20
0
 30
0
 11
146.75
 21
21
 31
0
  0
LINE
  8
1
 62
1
 10
79.63678050593882
 20
21
 30
0
 11
148.75
 21
21
 31
0
  0
LINE
  8
1
 62
1
 10
120
 20
0
 30
0
 11
148.75
 21
0
 31
0
  0
SOLID
  8
1
 62
1
 10
146.75
 20
0
 30
0
 11
146.1
 21
5
 31
0
 12
147.4
 22
5
 32
0
 13
147.4
 23
5
 33
0
  0
SOLID
  8
1
 62
1
 10
146.75
 20
21
 30
0
 11
147.4
 21
16
 31
0
 12
146.1
 22
16
 32
0
 13
146.1
 23
16
 33
0
  0
TEXT
  8
1
 62
7
 10
145.25
 20
3.625
 30
0
 40
5
  1
27,7
 50
90
 41
0.9
  0
ENDBLK
  8
0
  0
BLOCK
  8
1
  2
*D21
 70
1
 10
0
 20
0
 30
0
  0
LINE
  8
1
 62
7
 10
138.75
 20
0
 30
0
 11
138.75
 21
21
 31
0
  0
LINE
  8
1
 62
7
 10
79.63678050593882
 20
21
 30
0
 11
140.75
 21
21
 31
0
  0
LINE
  8
1
 62
7
 10
120
 20
0
 30
0
 11
140.75
 21
0
 31
0
  0
SOLID
  8
1
 62
7
 10
138.75
 20
0
 30
0
 11
138.1
 21
5
 31
0
 12
139.4
 22
5
 32
0
 13
139.4
 23
5
 33
0
  0
SOLID
  8
1
 62
7
 10
138.75
 20
21
 30
0
 11
139.4
 21
16
 31
0
 12
138.1
 22
16
 32
0
 13
138.1
 23
16
 33
0
  0
TEXT
  8
1
 62
7
 10
137.25
 20
3.625
 30
0
 40
5
  1
25,7
 50
90
 41
0.9
  0
ENDBLK
  8
0
  0
BLOCK
  8
1
  2
*D22
 70
1
 10
0
 20
0
 30
0
  0
LINE
  8
1
 62
7
 10
138.75
 20
21
 30
0
 11
138.75
 21
76
 31
0
  0
LINE
  8
1
 62
7
 10
82.5
 20
76
 30
0
 11
140.75
 21
76
 31
0
  0
LINE
  8
1
 62
7
 10
79.63678050593882
 20
21
 30
0
 11
140.75
 21
21
 31
0
  0
SOLID
  8
1
 62
7
 10
138.75
 20
21
 30
0
 11
138.1
 21
26
 31
0
 12
139.4
 22
26
 32
0
 13
139.4
 23
26
 33
0
  0
SOLID
  8
1
 62
7
 10
138.75
 20
76
 30
0
 11
139.4
 21
71
 31
0
 12
138.1
 22
71
 32
0
 13
138.1
 23
71
 33
0
  0
TEXT
  8
1
 62
7
 10
137.25
 20
37.375
 30
0
 40
5
  1
2=50,3
 50
90
 41
0.9
  0
ENDBLK
  8
0
  0
BLOCK
  8
1
  2
*D23
 70
1
 10
0
 20
0
 30
0
  0
LINE
  8
1
 62
7
 10
130.925
 20
0
 30
0
 11
130.925
 21
21
 31
0
  0
LINE
  8
1
 62
7
 10
79.63678050593882
 20
21
 30
0
 11
132.925
 21
21
 31
0
  0
LINE
  8
1
 62
7
 10
120
 20
0
 30
0
 11
132.925
 21
0
 31
0
  0
SOLID
  8
1
 62
7
 10
130.925
 20
0
 30
0
 11
130.275
 21
5
 31
0
 12
131.575
 22
5
 32
0
 13
131.575
 23
5
 33
0
  0
SOLID
  8
1
 62
7
 10
130.925
 20
21
 30
0
 11
131.575
 21
16
 31
0
 12
130.275
 22
16
 32
0
 13
130.275
 23
16
 33
0
  0
TEXT
  8
1
 62
7
 10
129.75
 20
4.999906061510799
 30
0
 40
5
  1
21
 50
90
 41
0.9
  0
ENDBLK
  8
0
  0
BLOCK
  8
1
  2
*D24
 70
1
 10
0
 20
0
 30
0
  0
LINE
  8
1
 62
7
 10
130.925
 20
21
 30
0
 11
130.925
 21
76
 31
0
  0
LINE
  8
1
 62
7
 10
83.56030962971602
 20
76
 30
0
 11
132.925
 21
76
 31
0
  0
LINE
  8
1
 62
7
 10
79.63678050593882
 20
21
 30
0
 11
132.925
 21
21
 31
0
  0
SOLID
  8
1
 62
7
 10
130.925
 20
21
 30
0
 11
130.275
 21
26
 31
0
 12
131.575
 22
26
 32
0
 13
131.575
 23
26
 33
0
  0
SOLID
  8
1
 62
7
 10
130.925
 20
76
 30
0
 11
131.575
 21
71
 31
0
 12
130.275
 22
71
 32
0
 13
130.275
 23
71
 33
0
  0
TEXT
  8
1
 62
7
 10
129.75
 20
39.5232954624969
 30
0
 40
5
  1
1=55
 50
90
 41
0.9
  0
ENDBLK
  8
0
  0
ENDSEC
  0
SECTION
  2
ENTITIES
  0
LINE
  8
1
 62
7
 10
71
 20
72
 30
0
 11
71
 21
80
 31
0
  0
LINE
  8
1
 62
7
 10
79
 20
72
 30
0
 11
71
 21
72
 31
0
  0
LINE
  8
1
 62
7
 10
79
 20
80
 30
0
 11
79
 21
72
 31
0
  0
LINE
  8
1
 62
7
 10
71
 20
80
 30
0
 11
79
 21
80
 31
0
  0
LINE
  8
1
 62
1
 10
120
 20
0
 30
0
 11
141.21448066768
 21
0
 31
0
  0
LINE
  8
1
 62
1
 10
79.63678050593882
 20
21
 30
0
 11
141.604151340678
 21
21
 31
0
  0
LINE
  8
1
 62
1
 10
82.5
 20
76
 30
0
 11
141.328459403896
 21
76
 31
0
  0
LINE
  8
3
 62
7
 10
10
 20
-85.50000000000001
 30
0
 11
10
 21
-98.50000000000001
 31
0
  0
LINE
  8
1
 62
7
 10
53
 20
0
 30
0
 11
53
 21
-21
 31
0
  0
LINE
  8
1
 62
7
 10
51
 20
0
 30
0
 11
51
 21
-21
 31
0
  0
LINE
  8
1
 62
7
 10
53.35364768226799
 20
0
 30
0
 11
51
 21
0
 31
0
  0
LINE
  8
1
 62
7
 10
51
 20
-21
 30
0
 11
53
 21
-21
 31
0
  0
LINE
  8
1
 62
7
 10
55
 20
-61.00000000000001
 30
0
 11
55
 21
-63.00000000000001
 31
0
  0
LINE
  8
1
 62
7
 10
95
 20
-61.00000000000001
 30
0
 11
55
 21
-61.00000000000001
 31
0
  0
LINE
  8
1
 62
7
 10
95
 20
-63.00000000000001
 30
0
 11
95
 21
-61.00000000000001
 31
0
  0
LINE
  8
1
 62
7
 10
55
 20
-63.00000000000001
 30
0
 11
95
 21
-63.00000000000001
 31
0
  0
LINE
  8
1
 62
7
 10
0
 20
94
 30
0
 11
0
 21
97.89999999999999
 31
0
  0
LINE
  8
1
 62
7
 10
10
 20
0.9999999999999858
 30
0
 11
3
 21
0.9999999999999858
 31
0
  0
LINE
  8
1
 62
7
 10
0
 20
3.999999999999986
 30
0
 11
0
 21
74.10000000000001
 31
0
  0
LINE
  8
1
 62
7
 10
3
 20
101
 30
0
 11
10
 21
101
 31
0
  0
LINE
  8
1
 62
7
 10
25
 20
-62.00000000000001
 30
0
 11
25
 21
-61.00000000000001
 31
0
  0
LINE
  8
1
 62
7
 10
25
 20
-61.00000000000001
 30
0
 11
12
 21
-61.00000000000001
 31
0
  0
LINE
  8
1
 62
7
 10
12
 20
-61.00000000000001
 30
0
 11
9
 21
-60.00000000000001
 31
0
  0
LINE
  8
1
 62
7
 10
25
 20
-62.00000000000001
 30
0
 11
25
 21
-63.00000000000001
 31
0
  0
LINE
  8
1
 62
7
 10
25
 20
-63.00000000000001
 30
0
 11
12
 21
-63.00000000000001
 31
0
  0
LINE
  8
1
 62
7
 10
9
 20
-62.00000000000001
 30
0
 11
0
 21
-62.00000000000001
 31
0
  0
LINE
  8
1
 62
7
 10
0
 20
-62.00000000000001
 30
0
 11
0
 21
-60.00000000000001
 31
0
  0
LINE
  8
1
 62
7
 10
0
 20
-60.00000000000001
 30
0
 11
9
 21
-60.00000000000001
 31
0
  0
LINE
  8
1
 62
7
 10
9
 20
-62.00000000000001
 30
0
 11
12
 21
-63.00000000000001
 31
0
  0
LINE
  8
1
 62
7
 10
11.75
 20
8
 30
0
 11
49
 21
8
 31
0
  0
LINE
  8
1
 62
7
 10
11.75
 20
16
 30
0
 11
49
 21
16
 31
0
  0
LINE
  8
1
 62
7
 10
40.75
 20
55.00000000000001
 30
0
 11
40.75
 21
28
 31
0
  0
LINE
  8
1
 62
7
 10
11.75
 20
28
 30
0
 11
49
 21
28
 31
0
  0
LINE
  8
1
 62
7
 10
11.75
 20
55.00000000000001
 30
0
 11
49
 21
55.00000000000001
 31
0
  0
LINE
  8
1
 62
7
 10
22
 20
82.50000000000001
 30
0
 11
49
 21
82.50000000000001
 31
0
  0
LINE
  8
1
 62
7
 10
22
 20
85.50000000000001
 30
0
 11
49
 21
85.50000000000001
 31
0
  0
LINE
  8
1
 62
7
 10
78.80000000000001
 20
4.85672529350245
 30
0
 11
78.80000000000001
 21
6.099999999999994
 31
0
  0
LINE
  8
1
 62
7
 10
78.30000000000001
 20
6.599999999999994
 30
0
 11
75.5
 21
6.599999999999994
 31
0
  0
LINE
  8
1
 62
7
 10
78.37821723252011
 20
9.233196172434162
 30
0
 11
75.4217827674799
 21
8.764942954332611
 31
0
  0
LINE
  8
1
 62
7
 10
78.36093467170258
 20
11.05391044354269
 30
0
 11
75.43906532829737
 21
11.41267088788834
 31
0
  0
LINE
  8
1
 62
7
 10
78.33487823687199
 20
13.56747551793892
 30
0
 11
75.46512176312802
 21
13.36680259667574
 31
0
  0
LINE
  8
1
 62
7
 10
78.36958655047999
 20
15.66049066546267
 30
0
 11
77.23041344951997
 21
15.8205910039421
 31
0
  0
LINE
  8
1
 62
7
 10
71.63041344952001
 20
15.66049066546267
 30
0
 11
72.76958655048003
 21
15.8205910039421
 31
0
  0
LINE
  8
1
 62
7
 10
71.19999999999999
 20
15.1653566310919
 30
0
 11
71.19999999999999
 21
4.85672529350245
 31
0
  0
LINE
  8
1
 62
7
 10
75
 20
8.271098784035019
 30
0
 11
75
 21
7.099999999999994
 31
0
  0
LINE
  8
1
 62
7
 10
75
 20
12.86802057154583
 30
0
 11
75
 21
11.90894396370902
 31
0
  0
LINE
  8
1
 62
7
 10
78.80000000000001
 20
9.727040342731726
 30
0
 11
78.80000000000001
 21
10.55763736772204
 31
0
  0
LINE
  8
1
 62
7
 10
78.80000000000001
 20
14.06625754306885
 30
0
 11
78.80000000000001
 21
15.1653566310919
 31
0
  0
LINE
  8
1
 62
7
 10
76.80000000000001
 20
16.31572503831291
 30
0
 11
76.80000000000001
 21
17.36681957508301
 31
0
  0
LINE
  8
1
 62
7
 10
73.19999999999999
 20
16.31572503831291
 30
0
 11
73.19999999999999
 21
17.36681957508301
 31
0
  0
LINE
  8
1
 62
2
  6
PHANTOM
 10
70.36321949406118
 20
21
 30
0
 11
79.63678050593882
 21
21
 31
0
  0
LINE
  8
1
 62
2
  6
PHANTOM
 10
75
 20
2.363219494061212
 30
0
 11
75
 21
25.63678050593878
 31
0
  0
LINE
  8
1
 62
7
 10
91
 20
19
 30
0
 11
91
 21
23
 31
0
  0
LINE
  8
1
 62
7
 10
94.5
 20
19
 30
0
 11
91
 21
19
 31
0
  0
LINE
  8
1
 62
7
 10
94.5
 20
23
 30
0
 11
94.5
 21
19
 31
0
  0
LINE
  8
1
 62
7
 10
91
 20
23
 30
0
 11
94.5
 21
23
 31
0
  0
LINE
  8
1
 62
7
 10
55.5
 20
19
 30
0
 11
55.5
 21
23
 31
0
  0
LINE
  8
1
 62
7
 10
59
 20
19
 30
0
 11
55.5
 21
19
 31
0
  0
LINE
  8
1
 62
7
 10
59
 20
23
 30
0
 11
59
 21
19
 31
0
  0
LINE
  8
1
 62
7
 10
55.5
 20
23
 30
0
 11
59
 21
23
 31
0
  0
LINE
  8
0
 62
7
 10
106
 20
100.25
 30
0
 11
106
 21
1.75
 31
0
  0
LINE
  8
0
 62
7
 10
49
 20
1.75
 30
0
 11
49
 21
100.25
 31
0
  0
LINE
  8
0
 62
2
  6
PHANTOM
 10
75
 20
84.56030962971602
 30
0
 11
75
 21
67.43969037028398
 31
0
  0
LINE
  8
1
 62
3
  6
PHANTOM
 10
-18
 20
-73.50000000000001
 30
0
 11
1.080913168122692
 21
-73.50000000000001
 31
0
  0
LINE
  8
1
 62
3
  6
PHANTOM
 10
-18
 20
-65.50000000000001
 30
0
 11
-18
 21
-73.50000000000001
 31
0
  0
LINE
  8
1
 62
3
  6
PHANTOM
 10
-2
 20
-65.50000000000001
 30
0
 11
-18
 21
-65.50000000000001
 31
0
  0
LINE
  8
1
 62
3
  6
PHANTOM
 10
-3
 20
8
 30
0
 11
10
 21
8
 31
0
  0
LINE
  8
1
 62
3
  6
PHANTOM
 10
-3
 20
16
 30
0
 11
-3
 21
8
 31
0
  0
LINE
  8
1
 62
3
  6
PHANTOM
 10
10
 20
16
 30
0
 11
-3
 21
16
 31
0
  0
LINE
  8
1
 62
3
  6
PHANTOM
 10
-4
 20
28
 30
0
 11
-4
 21
55
 31
0
  0
LINE
  8
1
 62
3
  6
PHANTOM
 10
-18
 20
28
 30
0
 11
10
 21
28
 31
0
  0
LINE
  8
1
 62
3
  6
PHANTOM
 10
-18
 20
55.00000000000001
 30
0
 11
-18
 21
28
 31
0
  0
LINE
  8
1
 62
3
  6
PHANTOM
 10
10
 20
55.00000000000001
 30
0
 11
-18
 21
55.00000000000001
 31
0
  0
LINE
  8
1
 62
7
 10
10
 20
74
 30
0
 11
-2
 21
74
 31
0
  0
LINE
  8
1
 62
7
 10
10
 20
76.60000000000001
 30
0
 11
-2
 21
76.60000000000001
 31
0
  0
LINE
  8
1
 62
7
 10
10
 20
91.5
 30
0
 11
-2
 21
91.5
 31
0
  0
LINE
  8
1
 62
7
 10
11.75
 20
93.90000000000001
 30
0
 11
23
 21
93.90000000000001
 31
0
  0
LINE
  8
1
 62
7
 10
23
 20
91.39999999999999
 30
0
 11
11.75
 21
91.39999999999999
 31
0
  0
LINE
  8
1
 62
7
 10
23
 20
76.5
 30
0
 11
11.75
 21
76.5
 31
0
  0
LINE
  8
1
 62
7
 10
22
 20
85.50000000000001
 30
0
 11
23
 21
86.5
 31
0
  0
LINE
  8
1
 62
7
 10
23
 20
81.50000000000001
 30
0
 11
22
 21
82.50000000000001
 31
0
  0
LINE
  8
1
 62
7
 10
23
 20
81.50000000000001
 30
0
 11
23
 21
74
 31
0
  0
LINE
  8
1
 62
7
 10
14
 20
85.50000000000001
 30
0
 11
22
 21
85.50000000000001
 31
0
  0
LINE
  8
1
 62
7
 10
14
 20
82.50000000000001
 30
0
 11
14
 21
85.50000000000001
 31
0
  0
LINE
  8
1
 62
7
 10
22
 20
82.50000000000001
 30
0
 11
14
 21
82.50000000000001
 31
0
  0
LINE
  8
1
 62
7
 10
23
 20
93.90000000000001
 30
0
 11
23
 21
86.40000000000001
 31
0
  0
LINE
  8
1
 62
7
 10
-2
 20
94
 30
0
 11
10
 21
94
 31
0
  0
LINE
  8
1
 62
7
 10
-2
 20
74
 30
0
 11
-2
 21
94
 31
0
  0
LINE
  8
1
 62
7
 10
23
 20
74
 30
0
 11
11.75
 21
74
 31
0
  0
LINE
  8
1
 62
7
 10
10
 20
-69.10000000000001
 30
0
 11
-2
 21
-69.10000000000001
 31
0
  0
LINE
  8
1
 62
7
 10
9.324860140543905
 20
-85.27357643635109
 30
0
 11
-2
 21
-69.10000000000001
 31
0
  0
LINE
  8
1
 62
7
 10
-2
 20
-65.50000000000001
 30
0
 11
-2
 21
-69.10000000000001
 31
0
  0
LINE
  8
1
 62
7
 10
10
 20
-65.50000000000001
 30
0
 11
-2
 21
-65.50000000000001
 31
0
  0
LINE
  8
3
 62
7
 10
118.25
 20
-63.00000000000001
 30
0
 11
11.75
 21
-63.00000000000001
 31
0
  0
LINE
  8
3
 62
7
 10
120
 20
-87.00000000000001
 30
0
 11
120
 21
-64.75000000000001
 31
0
  0
LINE
  8
3
 62
7
 10
11.75
 20
-87.00000000000001
 30
0
 11
120
 21
-87.00000000000001
 31
0
  0
LINE
  8
3
 62
7
 10
11.75
 20
-98.00000000000001
 30
0
 11
11.75
 21
-64.75000000000001
 31
0
  0
LINE
  8
3
 62
7
 10
10
 20
-98.00000000000001
 30
0
 11
11.75
 21
-98.00000000000001
 31
0
  0
LINE
  8
3
 62
7
 10
10
 20
-65.75000000000001
 30
0
 11
10
 21
-86.00000000000001
 31
0
  0
LINE
  8
3
 62
2
  6
PHANTOM
 10
66.43969037028398
 20
76
 30
0
 11
83.56030962971602
 21
76
 31
0
  0
LINE
  8
3
 62
7
 10
11.75
 20
1.75
 30
0
 11
120
 21
1.75
 31
0
  0
LINE
  8
3
 62
7
 10
120
 20
100.25
 30
0
 11
11.75
 21
100.25
 31
0
  0
LINE
  8
3
 62
7
 10
118.25
 20
1.75
 30
0
 11
118.25
 21
100.25
 31
0
  0
LINE
  8
3
 62
7
 10
11.75
 20
102
 30
0
 11
11.75
 21
0
 31
0
  0
LINE
  8
3
 62
7
 10
120
 20
102
 30
0
 11
10
 21
102
 31
0
  0
LINE
  8
3
 62
7
 10
120
 20
0
 30
0
 11
120
 21
102
 31
0
  0
LINE
  8
3
 62
7
 10
10
 20
0
 30
0
 11
120
 21
0
 31
0
  0
LINE
  8
3
 62
7
 10
10
 20
102
 30
0
 11
10
 21
0
 31
0
  0
LINE
  8
3
 62
2
  6
PHANTOM
 10
112.7
 20
11.3
 30
0
 11
112.7
 21
5.299999999999997
 31
0
  0
LINE
  8
3
 62
2
  6
PHANTOM
 10
109.7
 20
8.299999999999997
 30
0
 11
115.7
 21
8.299999999999997
 31
0
  0
LINE
  8
3
 62
2
  6
PHANTOM
 10
112.7
 20
96.3
 30
0
 11
112.7
 21
90.8
 31
0
  0
LINE
  8
3
 62
2
  6
PHANTOM
 10
109.7
 20
93.3
 30
0
 11
115.7
 21
93.3
 31
0
  0
LINE
  8
3
 62
2
  6
PHANTOM
 10
37.5
 20
96.3
 30
0
 11
37.5
 21
90.8
 31
0
  0
LINE
  8
3
 62
2
  6
PHANTOM
 10
34.5
 20
93.3
 30
0
 11
40
 21
93.3
 31
0
  0
LINE
  8
3
 62
2
  6
PHANTOM
 10
37.5
 20
22.4
 30
0
 11
37.5
 21
16.4
 31
0
  0
LINE
  8
3
 62
2
  6
PHANTOM
 10
34.5
 20
19.4
 30
0
 11
40.5
 21
19.4
 31
0
  0
ARC
  8
1
 62
7
 10
75
 20
21
 30
0
 40
3.800000000000022
 50
302.3360259975578
 51
237.6639740024422
  0
ARC
  8
1
 62
7
 10
75
 20
9.5
 30
0
 40
6
 50
230.7035197608124
 51
309.2964802391876
  0
ARC
  8
1
 62
7
 10
80.17449898600961
 20
84.05000000000004
 30
0
 40
70.94331328313801
 50
173.9720602186085
 51
180.0403813845202
  0
ARC
  8
1
 62
7
 10
80.17449898600961
 20
84.05000000000004
 30
0
 40
70.94331328313814
 50
179.9596186154798
 51
186.0279397813916
  0
CIRCLE
  8
0
 62
7
 10
75
 20
76
 30
0
 40
7.5
  0
CIRCLE
  8
3
 62
7
 10
112.7
 20
93.3
 30
0
 40
2.5
  0
CIRCLE
  8
3
 62
7
 10
37.5
 20
93.3
 30
0
 40
2.5
  0
CIRCLE
  8
3
 62
7
 10
37.5
 20
19.4
 30
0
 40
2.5
  0
CIRCLE
  8
3
 62
7
 10
112.7
 20
8.299999999999997
 30
0
 40
2.500000000000004
  0
CIRCLE
  8
3
 62
7
 10
75
 20
76
 30
0
 40
7.5
  0
ARC
  8
1
 62
7
 10
3
 20
3.999999999999986
 30
0
 40
3
 50
180
 51
270
  0
ARC
  8
1
 62
7
 10
3
 20
98
 30
0
 40
3
 50
90
 51
180
  0
ARC
  8
1
 62
7
 10
72.69999999999999
 20
17.36681957508301
 30
0
 40
0.5
 50
0
 51
57.66397400244168
  0
ARC
  8
1
 62
7
 10
72.69999999999999
 20
16.31572503831291
 30
0
 40
0.5000000000000241
 50
278.0000000000005
 51
0
  0
ARC
  8
1
 62
7
 10
71.69999999999999
 20
15.1653566310919
 30
0
 40
0.4999999999999776
 50
97.99999999999457
 51
180
  0
ARC
  8
1
 62
7
 10
77.30000000000001
 20
17.36681957508301
 30
0
 40
0.4999999999999848
 50
122.3360259975583
 51
180
  0
ARC
  8
1
 62
7
 10
77.30000000000001
 20
16.31572503831291
 30
0
 40
0.5
 50
180
 51
261.9999999999996
  0
ARC
  8
1
 62
7
 10
78.30000000000001
 20
15.1653566310919
 30
0
 40
0.5
 50
0
 51
82.00000000000544
  0
ARC
  8
1
 62
7
 10
78.30000000000001
 20
14.06625754306885
 30
0
 40
0.5000000000000122
 50
273.9999999999899
 51
0
  0
ARC
  8
1
 62
7
 10
75.5
 20
12.86802057154583
 30
0
 40
0.499999999999991
 50
93.99999999999004
 51
180
  0
ARC
  8
1
 62
7
 10
75.5
 20
11.90894396370902
 30
0
 40
0.5
 50
180
 51
262.9999999999944
  0
ARC
  8
1
 62
7
 10
78.30000000000001
 20
10.55763736772204
 30
0
 40
0.5
 50
0
 51
83.00000000000044
  0
ARC
  8
1
 62
7
 10
78.30000000000001
 20
9.727040342731726
 30
0
 40
0.4999999999999931
 50
278.9999999999987
 51
0
  0
ARC
  8
1
 62
7
 10
75.5
 20
8.271098784035019
 30
0
 40
0.5000000000000211
 50
98.9999999999982
 51
180
  0
ARC
  8
1
 62
7
 10
75.5
 20
7.099999999999994
 30
0
 40
0.5
 50
180
 51
270
  0
ARC
  8
1
 62
7
 10
78.30000000000001
 20
6.099999999999994
 30
0
 40
0.5
 50
0
 51
90
  0
ARC
  8
1
 62
7
 10
10.14401218483289
 20
-84.7
 30
0
 40
1.00000000000002
 50
215.0000000000022
 51
261.719918808903
  0
ARC
  8
3
 62
7
 10
118.25
 20
-64.75000000000001
 30
0
 40
1.75
 50
0
 51
90
  0
ARC
  8
3
 62
7
 10
11.75
 20
-64.75000000000001
 30
0
 40
1.750000000000007
 50
90
 51
180
  0
TEXT
  8
1
 62
7
 10
27.07412088628871
 20
136.6610851430315
 30
0
 40
5
  1
2005.BB_RZ_PZ.DM65
 41
0.9
  0
DIMENSION
  8
1
  6
CONTINUOUS
 62
1
  2
*D0
  3
DMST_1
 10
79
 20
55.2170668267496
 30
0
 11
75
 21
58.7170668267496
 31
0
 12
0
 22
0
 32
0
 70
0
 13
71
 23
72
 33
0
 14
79
 24
72
 34
0
 53
0
  0
DIMENSION
  8
1
  6
CONTINUOUS
 62
1
  2
*D1
  3
DMST_1
 10
10
 20
116.322895102445
 30
0
 11
4
 21
119.822895102445
 31
0
 12
0
 22
0
 32
0
 70
0
 13
-2
 23
74
 33
0
 14
10
 24
102
 34
0
 53
0
  0
DIMENSION
  8
1
  6
CONTINUOUS
 62
1
  2
*D2
  3
DMST_1
 10
120
 20
-47.75
 30
0
 11
65
 21
-44.25
 31
0
 12
0
 22
0
 32
0
 70
0
 13
10
 23
0
 33
0
 14
120
 24
1.75
 34
0
 53
0
  0
DIMENSION
  8
1
  6
CONTINUOUS
 62
1
  2
*D3
  3
DMST_1
 10
75
 20
-35.75
 30
0
 11
42.5
 21
-32.25
 31
0
 12
0
 22
0
 32
0
 70
0
 13
10
 23
0
 33
0
 14
75
 24
2.363219494061212
 34
0
 53
0
  0
DIMENSION
  8
1
  6
CONTINUOUS
 62
1
  2
*D4
  3
DMST_1
 10
10
 20
-14.75
 30
0
 11
3.5
 21
-11.25
 31
0
 12
0
 22
0
 32
0
 70
0
 13
-3
 23
8
 33
0
 14
10
 24
0
 34
0
 53
0
  0
DIMENSION
  8
1
  6
CONTINUOUS
 62
1
  2
*D5
  3
DMST_1
 10
-47.9736779801398
 20
-65.50000000000001
 30
0
 11
-51.4736779801398
 21
-69.50000000000001
 31
0
 12
0
 22
0
 32
0
 70
0
 13
-18
 23
-73.50000000000001
 33
0
 14
-18
 24
-65.50000000000001
 34
0
 50
90
 53
0
  0
DIMENSION
  8
1
  6
CONTINUOUS
 62
1
  2
*D6
  3
DMST_1
 10
32.19710697442301
 20
-98.00000000000001
 30
0
 11
28.69710697442301
 21
-80.50000000000001
 31
0
 12
0
 22
0
 32
0
 70
0
 13
11.75
 23
-63.00000000000001
 33
0
 14
11.75
 24
-98.00000000000001
 34
0
 50
90
 53
0
  0
DIMENSION
  8
1
  6
CONTINUOUS
 62
1
  2
*D7
  3
DMST_1
 10
130.75
 20
-87.00000000000001
 30
0
 11
127.25
 21
-75.00000000000001
 31
0
 12
0
 22
0
 32
0
 70
0
 13
118.25
 23
-63.00000000000001
 33
0
 14
120
 24
-87.00000000000001
 34
0
 50
90
 53
0
  0
DIMENSION
  8
1
  6
CONTINUOUS
 62
1
  2
*D8
  3
DMST_1
 10
158.75
 20
102
 30
0
 11
155.25
 21
51
 31
0
 12
0
 22
0
 32
0
 70
0
 13
120
 23
0
 33
0
 14
120
 24
102
 34
0
 50
90
 53
0
  0
DIMENSION
  8
1
  6
CONTINUOUS
 62
1
  2
*D9
  3
DMST_1
 10
146.717763913779
 20
21
 30
0
 11
142.967763913779
 21
48.4645449620802
 31
0
 12
0
 22
0
 32
0
 70
0
  1
48,3
 13
83.56030962971602
 23
76
 33
0
 14
79.63678050593882
 24
21
 34
0
 50
90
 53
0
  0
DIMENSION
  8
1
  6
CONTINUOUS
 62
1
  2
*D10
  3
DMST_1
 10
-18
 20
20.1923094797239
 30
0
 11
-8.43520307053142
 21
23.8712165905064
 31
0
 12
0
 22
0
 32
0
 70
0
  1
2x14
 13
10
 23
0
 33
0
 14
-18
 24
28
 34
0
 53
0
  0
DIMENSION
  8
1
  6
CONTINUOUS
 62
1
  2
*D11
  3
DMST_1
 10
-32.9968294111231
 20
102
 30
0
 11
-36.4968294111231
 21
98
 31
0
 12
0
 22
0
 32
0
 70
0
 13
0
 23
94
 33
0
 14
10
 24
102
 34
0
 50
90
 53
0
  0
DIMENSION
  8
1
  6
CONTINUOUS
 62
1
  2
*D13
  3
DMST_2
 10
-32.9372582321458
 20
16
 30
0
 11
-36.4372582321458
 21
12
 31
0
 12
0
 22
0
 32
0
 70
0
 13
-3
 23
8
 33
0
 14
-3
 24
16
 34
0
 50
90
 53
0
  0
DIMENSION
  8
1
  6
CONTINUOUS
 62
1
  2
*D15
  3
DMST_1
 10
-32.9968294111231
 20
28
 30
0
 11
-36.4968294111231
 21
41.5
 31
0
 12
0
 22
0
 32
0
 70
0
 13
-18
 23
55.00000000000001
 33
0
 14
-18
 24
28
 34
0
 50
90
 53
0
  0
DIMENSION
  8
1
  6
CONTINUOUS
 62
1
  2
*D16
  3
DMST_1
 10
-32.9968294111231
 20
55.00000000000001
 30
0
 11
-36.4968294111231
 21
64.5
 31
0
 12
0
 22
0
 32
0
 70
0
 13
10
 23
74
 33
0
 14
-18
 24
55.00000000000001
 34
0
 50
90
 53
0
  0
DIMENSION
  8
1
  6
CONTINUOUS
 62
1
  2
*D17
  3
DMST_1
 10
-32.9968294111231
 20
94
 30
0
 11
-36.4968294111231
 21
84
 31
0
 12
0
 22
0
 32
0
 70
0
 13
10
 23
74
 33
0
 14
0
 24
94
 34
0
 50
90
 53
0
  0
DIMENSION
  8
1
  6
CONTINUOUS
 62
1
  2
*D18
  3
DMST_1
 10
-32.9583489038134
 20
-65.50000000000001
 30
0
 11
-36.4583489038134
 21
-75.50000000000001
 31
0
 12
0
 22
0
 32
0
 70
0
 13
10
 23
-85.50000000000001
 33
0
 14
-18
 24
-65.50000000000001
 34
0
 50
90
 53
0
  0
DIMENSION
  8
1
  6
CONTINUOUS
 62
1
  2
*D19
  3
DMST_1
 10
-32.9427206199442
 20
-87.00000000000001
 30
0
 11
-36.6927206199442
 21
-97.0414624566822
 31
0
 12
0
 22
0
 32
0
 70
0
 13
10
 23
-85.50000000000001
 33
0
 14
11.75
 24
-87.00000000000001
 34
0
 50
90
 53
0
  0
DIMENSION
  8
1
  6
CONTINUOUS
 62
1
  2
*D20
  3
DMST_1
 10
146.75
 20
21
 30
0
 11
143
 21
10.5
 31
0
 12
0
 22
0
 32
0
 70
0
  1
27,7
 13
120
 23
0
 33
0
 14
79.63678050593882
 24
21
 34
0
 50
90
 53
0
  0
DIMENSION
  8
1
  6
CONTINUOUS
 62
7
  2
*D21
  3
DMST_3
 10
138.75
 20
21
 30
0
 11
135
 21
10.5
 31
0
 12
0
 22
0
 32
0
 70
0
  1
25,7
 13
120
 23
0
 33
0
 14
79.63678050593882
 24
21
 34
0
 50
90
 53
0
  0
DIMENSION
  8
1
  6
CONTINUOUS
 62
7
  2
*D22
  3
DMST_3
 10
138.75
 20
76
 30
0
 11
135
 21
48.5
 31
0
 12
0
 22
0
 32
0
 70
0
  1
2=50,3
 13
79.63678050593882
 23
21
 33
0
 14
82.5
 24
76
 34
0
 50
90
 53
0
  0
DIMENSION
  8
1
  6
CONTINUOUS
 62
7
  2
*D23
  3
DMST_3
 10
130.925
 20
0
 30
0
 11
127.25
 21
7.999906061510799
 31
0
 12
0
 22
0
 32
0
 70
0
 13
79.63678050593882
 23
21
 33
0
 14
120
 24
0
 34
0
 50
90
 53
0
  0
DIMENSION
  8
1
  6
CONTINUOUS
 62
7
  2
*D24
  3
DMST_3
 10
130.925
 20
21
 30
0
 11
127.25
 21
46.7732954624969
 31
0
 12
0
 22
0
 32
0
 70
0
  1
1=55
 13
83.56030962971602
 23
76
 33
0
 14
79.63678050593882
 24
21
 34
0
 50
90
 53
0
  0
INSERT
  8
1
  2
*D12
 10
0
 20
0
 30
0
  0
INSERT
  8
1
  2
*D14
 10
0
 20
0
 30
0
  0
ENDSEC
  0
EOF
