  0
SECTION
  2
HEADER
  9
$ACADVER
  1
AC1009
  9
$INSBASE
 10
0
 20
0
  9
$EXTMIN
 10
101.827347730459
 20
-168.507430467624
  9
$EXTMAX
 10
225
 20
21.4160482279912
  9
$LIMMIN
 10
101.827347730459
 20
-168.507430467624
  9
$LIMMAX
 10
225
 20
21.4160482279912
  9
$VIEWCTR
 10
10
 20
10
  9
$VIEWSIZE
 40
10
  9
$SNAPMODE
 70
0
  9
$SNAPUNIT
 10
1
 20
1
  9
$SNAPBASE
 10
0
 20
0
  9
$SNAPANG
 50
0
  9
$SNAPSTYLE
 70
0
  9
$SNAPISOPAIR
 70
0
  9
$GRIDMODE
 70
0
  9
$GRIDUNIT
 10
0
 20
0
  9
$ORTHOMODE
 70
0
  9
$REGENMODE
 70
1
  9
$FILLMODE
 70
1
  9
$QTEXTMODE
 70
0
  9
$DRAGMODE
 70
2
  9
$LTSCALE
 40
1
  9
$OSMODE
 70
0
  9
$ATTMODE
 70
1
  9
$TEXTSIZE
 40
3.5
  9
$TRACEWID
 40
0.5
  9
$TEXTSTYLE
  7
STANDARD
  9
$CLAYER
  8
0
  9
$CELTYPE
  6
BYLAYER
  9
$CECOLOR
 62
256
  9
$DIMSCALE
 40
1
  9
$DIMASZ
 40
0.18
  9
$DIMEXO
 40
0.0625
  9
$DIMDLI
 40
0.38
  9
$DIMRND
 40
0
  9
$DIMDLE
 40
0
  9
$DIMEXE
 40
0.18
  9
$DIMTP
 40
0
  9
$DIMTM
 40
0
  9
$DIMTXT
 40
0.18
  9
$DIMCEN
 40
0.09
  9
$DIMTSZ
 40
0
  9
$DIMTOL
 70
0
  9
$DIMLIM
 70
0
  9
$DIMTIH
 70
1
  9
$DIMTOH
 70
1
  9
$DIMSE1
 70
0
  9
$DIMSE2
 70
0
  9
$DIMTAD
 70
0
  9
$DIMZIN
 70
0
  9
$DIMBLK
  1

  9
$DIMASO
 70
1
  9
$DIMSHO
 70
1
  9
$DIMPOST
  1

  9
$DIMAPOST
  1

  9
$DIMALT
 70
0
  9
$DIMALTD
 70
2
  9
$DIMALTF
 40
25.4
  9
$DIMLFAC
 40
1
  9
$DIMTOFL
 70
0
  9
$DIMTVP
 40
0
  9
$DIMTIX
 70
0
  9
$DIMSOXD
 70
0
  9
$DIMSAH
 70
0
  9
$DIMBLK1
  1

  9
$DIMBLK2
  1

  9
$DIMSTYLE
  2
*UNNAMED
  9
$DIMCLRD
 70
0
  9
$DIMCLRE
 70
0
  9
$DIMCLRT
 70
0
  9
$DIMTFAC
 40
1
  9
$DIMGAP
 40
0.09
  9
$LUNITS
 70
2
  9
$LUPREC
 70
4
  9
$AXISMODE
 70
0
  9
$AXISUNIT
 10
0
 20
0
  9
$SKETCHINC
 40
0.1
  9
$FILLETRAD
 40
2
  9
$AUNITS
 70
0
  9
$AUPREC
 70
0
  9
$MENU
  1
ACAD
  9
$ELEVATION
 40
0
  9
$THICKNESS
 40
0
  9
$VIEWDIR
 10
0
 20
0
 30
1
  9
$LIMCHECK
 70
0
  9
$BLIPMODE
 70
1
  9
$CHAMFERA
 40
0
  9
$CHAMFERB
 40
0
  9
$FASTZOOM
 70
1
  9
$SKPOLY
 70
0
  9
$ANGBASE
 50
0
  9
$ANGDIR
 70
0
  9
$PDMODE
 70
0
  9
$PDSIZE
 40
0
  9
$PLINEWID
 40
0
  9
$COORDS
 70
2
  0
ENDSEC
  0
SECTION
  2
TABLES
  0
TABLE
  2
DIMSTYLE
 70
1
  0
DIMSTYLE
  2
DMST_1
 70
0
  3

  4

  5

  6

  7

 40
1
 41
5
 42
0
 43
7
 44
2
 45
0
 46
0
 47
0
 48
0
140
5
141
0
142
0
143
25.4
144
1
145
0
146
1
147
0.09
 71
0
 72
0
 73
0
 74
0
 75
0
 76
0
 77
1
 78
9
170
0
171
2
172
0
173
0
174
0
175
0
176
1
177
1
178
3
  0
ENDTAB
  0
TABLE
  2
LTYPE
 70
9
  0
LTYPE
  2
CONTINUOUS
 70
64
  3
Solid line
 72
65
 73
0
 40
0
  0
LTYPE
  2
BORDER
 70
64
  3
__ __ . __ __ .
 72
65
 73
6
 40
8.746475992561226
 49
2.498993140731779
 49
-1.24949657036589
 49
2.498993140731779
 49
-1.24949657036589
 49
0
 49
-1.24949657036589
  0
LTYPE
  2
CENTER
 70
64
  3
____ _ ____ _
 72
65
 73
4
 40
9.995972562927117
 49
6.247482851829448
 49
-1.24949657036589
 49
1.24949657036589
 49
-1.24949657036589
  0
LTYPE
  2
DASHDOT
 70
64
  3
__ . __ . __ .
 72
65
 73
4
 40
4.997986281463558
 49
2.498993140731779
 49
-1.24949657036589
 49
0
 49
-1.24949657036589
  0
LTYPE
  2
DASHED
 70
64
  3
__ __ __ __ __
 72
65
 73
2
 40
3.748489711097669
 49
2.498993140731779
 49
-1.24949657036589
  0
LTYPE
  2
DIVIDE
 70
64
  3
__ . . __ . . 
 72
65
 73
6
 40
6.247482851829448
 49
2.498993140731779
 49
-1.24949657036589
 49
0
 49
-1.24949657036589
 49
0
 49
-1.24949657036589
  0
LTYPE
  2
DOT
 70
64
  3
..............
 72
65
 73
4
 40
2.498993140731779
 49
0
 49
-1.24949657036589
 49
0
 49
-1.24949657036589
  0
LTYPE
  2
HIDDEN
 70
64
  3
_ _ _ _ _ _ _
 72
65
 73
2
 40
1.874244855548834
 49
1.24949657036589
 49
-0.6247482851829448
  0
LTYPE
  2
PHANTOM
 70
64
  3
_____ _ _ _____ _ _ 
 72
65
 73
6
 40
12.4949657036589
 49
6.247482851829448
 49
-1.24949657036589
 49
1.24949657036589
 49
-1.24949657036589
 49
1.24949657036589
 49
-1.24949657036589
  0
ENDTAB
  0
TABLE
  2
LAYER
 70
3
  0
LAYER
  2
1
 70
0
 62
7
  6
CONTINUOUS
  0
LAYER
  2
0
 70
0
 62
7
  6
CONTINUOUS
  0
ENDTAB
  0
TABLE
  2
STYLE
 70
4
  0
STYLE
  2
STANDARD
 70
0
 40
0
 41
1
 50
0
 71
0
 42
3.5
  3
txt
  4

  0
STYLE
  2
SIMPLEX
 70
0
 40
0
 41
1
 50
0
 71
0
 42
3.5
  3
simplex
  4

  0
STYLE
  2
COMPLEX
 70
0
 40
0
 41
1
 50
0
 71
0
 42
3.5
  3
complex
  4

  0
STYLE
  2
ITALIC
 70
0
 40
0
 41
1
 50
0
 71
0
 42
3.5
  3
italic
  4

  0
ENDTAB
  0
TABLE
  2
VIEW
 70
0
  0
ENDTAB
  0
ENDSEC
  0
SECTION
  2
BLOCKS
  0
BLOCK
  8
1
  2
*D0
 70
1
 10
0
 20
0
 30
0
  0
LINE
  8
1
 62
1
 10
107.827347730459
 20
-131
 30
0
 11
107.827347730459
 21
-121
 31
0
  0
LINE
  8
1
 62
1
 10
107.827347730459
 20
-137
 30
0
 11
107.827347730459
 21
-147
 31
0
  0
LINE
  8
1
 62
1
 10
107.827347730459
 20
-137
 30
0
 11
107.827347730459
 21
-131
 31
0
  0
LINE
  8
1
 62
1
 10
139.8
 20
-131
 30
0
 11
105.827347730459
 21
-131
 31
0
  0
LINE
  8
1
 62
1
 10
122.8
 20
-137
 30
0
 11
105.827347730459
 21
-137
 31
0
  0
SOLID
  8
1
 62
1
 10
107.827347730459
 20
-137
 30
0
 11
108.477347730459
 21
-142
 31
0
 12
107.177347730459
 22
-142
 32
0
 13
107.177347730459
 23
-142
 33
0
  0
SOLID
  8
1
 62
1
 10
107.827347730459
 20
-131
 30
0
 11
107.177347730459
 21
-126
 31
0
 12
108.477347730459
 22
-126
 32
0
 13
108.477347730459
 23
-126
 33
0
  0
TEXT
  8
1
 62
3
 10
106.827347730459
 20
-135.5
 30
0
 40
5
  1
6
 50
90
 41
0.9
  0
ENDBLK
  8
0
  0
BLOCK
  8
1
  2
*D1
 70
1
 10
0
 20
0
 30
0
  0
LINE
  8
1
 62
1
 10
107.827347730459
 20
-33
 30
0
 11
107.827347730459
 21
-6
 31
0
  0
LINE
  8
1
 62
1
 10
139.8
 20
-6
 30
0
 11
105.827347730459
 21
-6
 31
0
  0
LINE
  8
1
 62
1
 10
130.3
 20
-33
 30
0
 11
105.827347730459
 21
-33
 31
0
  0
SOLID
  8
1
 62
1
 10
107.827347730459
 20
-33
 30
0
 11
107.177347730459
 21
-28
 31
0
 12
108.477347730459
 22
-28
 32
0
 13
108.477347730459
 23
-28
 33
0
  0
SOLID
  8
1
 62
1
 10
107.827347730459
 20
-6
 30
0
 11
108.477347730459
 21
-11
 31
0
 12
107.177347730459
 22
-11
 32
0
 13
107.177347730459
 23
-11
 33
0
  0
TEXT
  8
1
 62
3
 10
106.827347730459
 20
-23.25
 30
0
 40
5
  1
27
 50
90
 41
0.9
  0
ENDBLK
  8
0
  0
BLOCK
  8
1
  2
*D2
 70
1
 10
0
 20
0
 30
0
  0
LINE
  8
1
 62
1
 10
107.827347730459
 20
-33
 30
0
 11
107.827347730459
 21
-23
 31
0
  0
LINE
  8
1
 62
1
 10
107.827347730459
 20
-42
 30
0
 11
107.827347730459
 21
-52
 31
0
  0
LINE
  8
1
 62
1
 10
107.827347730459
 20
-42
 30
0
 11
107.827347730459
 21
-33
 31
0
  0
LINE
  8
1
 62
1
 10
130.3
 20
-33
 30
0
 11
105.827347730459
 21
-33
 31
0
  0
LINE
  8
1
 62
1
 10
142.3
 20
-42
 30
0
 11
105.827347730459
 21
-42
 31
0
  0
SOLID
  8
1
 62
1
 10
107.827347730459
 20
-42
 30
0
 11
108.477347730459
 21
-47
 31
0
 12
107.177347730459
 22
-47
 32
0
 13
107.177347730459
 23
-47
 33
0
  0
SOLID
  8
1
 62
1
 10
107.827347730459
 20
-33
 30
0
 11
107.177347730459
 21
-28
 31
0
 12
108.477347730459
 22
-28
 32
0
 13
108.477347730459
 23
-28
 33
0
  0
TEXT
  8
1
 62
3
 10
106.827347730459
 20
-39
 30
0
 40
5
  1
9
 50
90
 41
0.9
  0
ENDBLK
  8
0
  0
BLOCK
  8
1
  2
*D3
 70
1
 10
0
 20
0
 30
0
  0
LINE
  8
1
 62
1
 10
107.827347730459
 20
-95
 30
0
 11
107.827347730459
 21
-42
 31
0
  0
LINE
  8
1
 62
1
 10
142.3
 20
-42
 30
0
 11
105.827347730459
 21
-42
 31
0
  0
LINE
  8
1
 62
1
 10
142.3
 20
-95
 30
0
 11
105.827347730459
 21
-95
 31
0
  0
SOLID
  8
1
 62
1
 10
107.827347730459
 20
-95
 30
0
 11
107.177347730459
 21
-90
 31
0
 12
108.477347730459
 22
-90
 32
0
 13
108.477347730459
 23
-90
 33
0
  0
SOLID
  8
1
 62
1
 10
107.827347730459
 20
-42
 30
0
 11
108.477347730459
 21
-47
 31
0
 12
107.177347730459
 22
-47
 32
0
 13
107.177347730459
 23
-47
 33
0
  0
TEXT
  8
1
 62
3
 10
106.827347730459
 20
-72.25
 30
0
 40
5
  1
53
 50
90
 41
0.9
  0
ENDBLK
  8
0
  0
BLOCK
  8
1
  2
*D4
 70
1
 10
0
 20
0
 30
0
  0
LINE
  8
1
 62
1
 10
107.827347730459
 20
-95
 30
0
 11
107.827347730459
 21
-85
 31
0
  0
LINE
  8
1
 62
1
 10
107.827347730459
 20
-104
 30
0
 11
107.827347730459
 21
-114
 31
0
  0
LINE
  8
1
 62
1
 10
107.827347730459
 20
-104
 30
0
 11
107.827347730459
 21
-95
 31
0
  0
LINE
  8
1
 62
1
 10
142.3
 20
-95
 30
0
 11
105.827347730459
 21
-95
 31
0
  0
LINE
  8
1
 62
1
 10
139.8
 20
-104
 30
0
 11
105.827347730459
 21
-104
 31
0
  0
SOLID
  8
1
 62
1
 10
107.827347730459
 20
-104
 30
0
 11
108.477347730459
 21
-109
 31
0
 12
107.177347730459
 22
-109
 32
0
 13
107.177347730459
 23
-109
 33
0
  0
SOLID
  8
1
 62
1
 10
107.827347730459
 20
-95
 30
0
 11
107.177347730459
 21
-90
 31
0
 12
108.477347730459
 22
-90
 32
0
 13
108.477347730459
 23
-90
 33
0
  0
TEXT
  8
1
 62
3
 10
106.827347730459
 20
-101
 30
0
 40
5
  1
9
 50
90
 41
0.9
  0
ENDBLK
  8
0
  0
BLOCK
  8
1
  2
*D5
 70
1
 10
0
 20
0
 30
0
  0
LINE
  8
1
 62
1
 10
107.827347730459
 20
-131
 30
0
 11
107.827347730459
 21
-104
 31
0
  0
LINE
  8
1
 62
1
 10
139.8
 20
-104
 30
0
 11
105.827347730459
 21
-104
 31
0
  0
LINE
  8
1
 62
1
 10
139.8
 20
-131
 30
0
 11
105.827347730459
 21
-131
 31
0
  0
SOLID
  8
1
 62
1
 10
107.827347730459
 20
-131
 30
0
 11
107.177347730459
 21
-126
 31
0
 12
108.477347730459
 22
-126
 32
0
 13
108.477347730459
 23
-126
 33
0
  0
SOLID
  8
1
 62
1
 10
107.827347730459
 20
-104
 30
0
 11
108.477347730459
 21
-109
 31
0
 12
107.177347730459
 22
-109
 32
0
 13
107.177347730459
 23
-109
 33
0
  0
TEXT
  8
1
 62
3
 10
106.827347730459
 20
-121.25
 30
0
 40
5
  1
27
 50
90
 41
0.9
  0
ENDBLK
  8
0
  0
BLOCK
  8
1
  2
*D6
 70
1
 10
0
 20
0
 30
0
  0
LINE
  8
1
 62
1
 10
122.8
 20
14.9160482279912
 30
0
 11
105.263731741827
 21
14.9160482279912
 31
0
  0
LINE
  8
1
 62
1
 10
122.8
 20
14.9160482279912
 30
0
 11
124.55
 21
14.9160482279912
 31
0
  0
LINE
  8
1
 62
1
 10
134.55
 20
14.9160482279912
 30
0
 11
124.55
 21
14.9160482279912
 31
0
  0
LINE
  8
1
 62
1
 10
124.55
 20
-6
 30
0
 11
124.55
 21
16.9160482279912
 31
0
  0
LINE
  8
1
 62
1
 10
122.8
 20
0
 30
0
 11
122.8
 21
16.9160482279912
 31
0
  0
SOLID
  8
1
 62
1
 10
122.8
 20
14.9160482279912
 30
0
 11
117.8
 21
14.2660482279912
 31
0
 12
117.8
 22
15.5660482279912
 32
0
 13
117.8
 23
15.5660482279912
 33
0
  0
SOLID
  8
1
 62
1
 10
124.55
 20
14.9160482279912
 30
0
 11
129.55
 21
15.5660482279912
 31
0
 12
129.55
 22
14.2660482279912
 32
0
 13
129.55
 23
14.2660482279912
 33
0
  0
TEXT
  8
1
 62
3
 10
105.263731741827
 20
16.4160482279912
 30
0
 40
5
  1
1,75
 41
0.9
  0
ENDBLK
  8
0
  0
BLOCK
  8
1
  2
*D7
 70
1
 10
0
 20
0
 30
0
  0
LINE
  8
1
 62
1
 10
124.55
 20
14.9160482279912
 30
0
 11
139.8
 21
14.9160482279912
 31
0
  0
LINE
  8
1
 62
1
 10
139.8
 20
-6
 30
0
 11
139.8
 21
16.9160482279912
 31
0
  0
LINE
  8
1
 62
1
 10
124.55
 20
-6
 30
0
 11
124.55
 21
16.9160482279912
 31
0
  0
SOLID
  8
1
 62
1
 10
124.55
 20
14.9160482279912
 30
0
 11
129.55
 21
15.5660482279912
 31
0
 12
129.55
 22
14.2660482279912
 32
0
 13
129.55
 23
14.2660482279912
 33
0
  0
SOLID
  8
1
 62
1
 10
139.8
 20
14.9160482279912
 30
0
 11
134.8
 21
14.2660482279912
 31
0
 12
134.8
 22
15.5660482279912
 32
0
 13
134.8
 23
15.5660482279912
 33
0
  0
TEXT
  8
1
 62
3
 10
123.8
 20
16.4160482279912
 30
0
 40
5
  1
15,25
 41
0.9
  0
ENDBLK
  8
0
  0
BLOCK
  8
1
  2
*D8
 70
1
 10
0
 20
0
 30
0
  0
LINE
  8
1
 62
1
 10
200
 20
-152.262424589573
 30
0
 11
225
 21
-152.262424589573
 31
0
  0
LINE
  8
1
 62
1
 10
225
 20
-137
 30
0
 11
225
 21
-154.262424589573
 31
0
  0
LINE
  8
1
 62
1
 10
200
 20
-137
 30
0
 11
200
 21
-154.262424589573
 31
0
  0
SOLID
  8
1
 62
1
 10
200
 20
-152.262424589573
 30
0
 11
205
 21
-151.612424589573
 31
0
 12
205
 22
-152.912424589573
 32
0
 13
205
 23
-152.912424589573
 33
0
  0
SOLID
  8
1
 62
1
 10
225
 20
-152.262424589573
 30
0
 11
220
 21
-152.912424589573
 31
0
 12
220
 22
-151.612424589573
 32
0
 13
220
 23
-151.612424589573
 33
0
  0
TEXT
  8
1
 62
3
 10
208.75
 20
-151.262424589573
 30
0
 40
5
  1
25
 41
0.9
  0
ENDBLK
  8
0
  0
BLOCK
  8
1
  2
*D9
 70
1
 10
0
 20
0
 30
0
  0
LINE
  8
1
 62
1
 10
122.8
 20
-151.244459426449
 30
0
 11
160.8
 21
-151.244459426449
 31
0
  0
LINE
  8
1
 62
1
 10
160.8
 20
-137
 30
0
 11
160.8
 21
-153.244459426449
 31
0
  0
LINE
  8
1
 62
1
 10
122.8
 20
-137
 30
0
 11
122.8
 21
-153.244459426449
 31
0
  0
SOLID
  8
1
 62
1
 10
122.8
 20
-151.244459426449
 30
0
 11
127.8
 21
-150.594459426449
 31
0
 12
127.8
 22
-151.894459426449
 32
0
 13
127.8
 23
-151.894459426449
 33
0
  0
SOLID
  8
1
 62
1
 10
160.8
 20
-151.244459426449
 30
0
 11
155.8
 21
-151.894459426449
 31
0
 12
155.8
 22
-150.594459426449
 32
0
 13
155.8
 23
-150.594459426449
 33
0
  0
TEXT
  8
1
 62
3
 10
138.05
 20
-150.244459426449
 30
0
 40
5
  1
38
 41
0.9
  0
ENDBLK
  8
0
  0
ENDSEC
  0
SECTION
  2
ENTITIES
  0
LINE
  8
1
 62
7
 10
223
 20
-26.4999170145831
 30
0
 11
225
 21
-26.4999170145831
 31
0
  0
LINE
  8
1
 62
7
 10
223
 20
-104
 30
0
 11
223
 21
-131
 31
0
  0
LINE
  8
1
 62
7
 10
225
 20
-137
 30
0
 11
225
 21
-3.552713678800501e-15
 31
0
  0
LINE
  8
1
 62
7
 10
223
 20
-33
 30
0
 11
223
 21
-6
 31
0
  0
LINE
  8
1
 62
7
 10
225
 20
-110.5000829854169
 30
0
 11
217
 21
-110.5000829854169
 31
0
  0
LINE
  8
1
 62
7
 10
217
 20
-110.5000829854169
 30
0
 11
217
 21
-104
 31
0
  0
LINE
  8
1
 62
7
 10
217
 20
-104
 30
0
 11
206.5
 21
-104
 31
0
  0
LINE
  8
1
 62
7
 10
206.5
 20
-104
 30
0
 11
206.5
 21
-131
 31
0
  0
LINE
  8
1
 62
7
 10
225
 20
-131
 30
0
 11
206.5
 21
-131
 31
0
  0
LINE
  8
1
 62
2
  6
DASHDOT
 10
212.5
 20
-105.36
 30
0
 11
212.5
 21
-90.64000000000003
 31
0
  0
LINE
  8
1
 62
2
  6
DASHDOT
 10
219.86
 20
-98.00000000000003
 30
0
 11
205.14
 21
-98.00000000000003
 31
0
  0
LINE
  8
1
 62
2
  6
DASHDOT
 10
212.5
 20
-46.36
 30
0
 11
212.5
 21
-31.64
 31
0
  0
LINE
  8
1
 62
2
  6
DASHDOT
 10
205.14
 20
-39
 30
0
 11
219.86
 21
-39
 31
0
  0
LINE
  8
1
 62
7
 10
217
 20
-26.4999170145831
 30
0
 11
223
 21
-26.4999170145831
 31
0
  0
LINE
  8
1
 62
7
 10
217
 20
-33
 30
0
 11
217
 21
-26.4999170145831
 31
0
  0
LINE
  8
1
 62
7
 10
206.5
 20
-33
 30
0
 11
217
 21
-33
 31
0
  0
LINE
  8
1
 62
7
 10
206.5
 20
-6
 30
0
 11
206.5
 21
-33
 31
0
  0
LINE
  8
1
 62
7
 10
206.5
 20
-6
 30
0
 11
225
 21
-6.000000000000004
 31
0
  0
LINE
  8
1
 62
7
 10
200
 20
-137
 30
0
 11
200
 21
0
 31
0
  0
LINE
  8
1
 62
7
 10
225
 20
-137
 30
0
 11
200
 21
-137
 31
0
  0
LINE
  8
1
 62
7
 10
200
 20
0
 30
0
 11
225
 21
-3.552713678800501e-15
 31
0
  0
LINE
  8
1
 62
7
 10
124.55
 20
-105.5982772037722
 30
0
 11
124.55
 21
-131
 31
0
  0
LINE
  8
1
 62
7
 10
122.8
 20
-103.7937706833843
 30
0
 11
122.8
 21
-137
 31
0
  0
LINE
  8
1
 62
7
 10
124.55
 20
-31.76872995297165
 30
0
 11
124.55
 21
-6
 31
0
  0
LINE
  8
1
 62
7
 10
122.8
 20
-33.71230185392275
 30
0
 11
122.8
 21
0
 31
0
  0
LINE
  8
1
 62
3
  6
DASHED
 10
124.55
 20
-103.0845660465144
 30
0
 11
130.3
 21
-109.0136588992174
 31
0
  0
LINE
  8
1
 62
3
  6
DASHED
 10
124.55
 20
-31.76872995297165
 30
0
 11
124.55
 21
-105.5982772037722
 31
0
  0
LINE
  8
1
 62
3
  6
DASHED
 10
130.3
 20
-27.99804195496685
 30
0
 11
124.55
 21
-34.38406391523473
 31
0
  0
LINE
  8
1
 62
7
 10
122.8
 20
-33.71230185392275
 30
0
 11
122.8
 21
-103.7937706833843
 31
0
  0
LINE
  8
1
 62
7
 10
129.1345009723135
 20
-26.67712579887367
 30
0
 11
122.8
 21
-33.71230185392275
 31
0
  0
LINE
  8
1
 62
7
 10
122.8
 20
-103.7937706833843
 30
0
 11
129.0974941489899
 21
-110.2874102570738
 31
0
  0
LINE
  8
1
 62
7
 10
139.8
 20
-131
 30
0
 11
139.8
 21
-104
 31
0
  0
LINE
  8
1
 62
7
 10
139.8
 20
-104
 30
0
 11
130.3
 21
-104
 31
0
  0
LINE
  8
1
 62
7
 10
130.3
 20
-104
 30
0
 11
130.3
 21
-109.8000829854169
 31
0
  0
LINE
  8
1
 62
7
 10
139.8
 20
-131
 30
0
 11
122.8
 21
-131
 31
0
  0
LINE
  8
1
 62
2
  6
DASHDOT
 10
151.8
 20
-116.36
 30
0
 11
151.8
 21
-101.64
 31
0
  0
LINE
  8
1
 62
2
  6
DASHDOT
 10
159.16
 20
-109
 30
0
 11
144.44
 21
-109
 31
0
  0
LINE
  8
1
 62
7
 10
127.8
 20
-95
 30
0
 11
127.8
 21
-42
 31
0
  0
LINE
  8
1
 62
7
 10
142.3
 20
-95
 30
0
 11
127.8
 21
-95
 31
0
  0
LINE
  8
1
 62
7
 10
142.3
 20
-42
 30
0
 11
142.3
 21
-95
 31
0
  0
LINE
  8
1
 62
7
 10
127.8
 20
-42
 30
0
 11
142.3
 21
-42
 31
0
  0
LINE
  8
1
 62
2
  6
DASHDOT
 10
151.8
 20
-35.36
 30
0
 11
151.8
 21
-20.64
 31
0
  0
LINE
  8
1
 62
2
  6
DASHDOT
 10
144.44
 20
-28
 30
0
 11
159.16
 21
-28
 31
0
  0
LINE
  8
1
 62
7
 10
139.8
 20
-33
 30
0
 11
139.8
 21
-6
 31
0
  0
LINE
  8
1
 62
7
 10
130.3
 20
-33
 30
0
 11
139.8
 21
-33
 31
0
  0
LINE
  8
1
 62
7
 10
130.3
 20
-27.1999170145831
 30
0
 11
130.3
 21
-33
 31
0
  0
LINE
  8
1
 62
7
 10
122.8
 20
-6
 30
0
 11
139.8
 21
-6
 31
0
  0
LINE
  8
1
 62
7
 10
160.8
 20
-137
 30
0
 11
122.8
 21
-137
 31
0
  0
LINE
  8
1
 62
7
 10
160.8
 20
0
 30
0
 11
160.8
 21
-137
 31
0
  0
LINE
  8
1
 62
7
 10
122.8
 20
0
 30
0
 11
160.8
 21
0
 31
0
  0
LINE
  8
1
 62
3
  6
DASHED
 10
124.55
 20
-6
 30
0
 11
124.55
 21
0
 31
0
  0
LINE
  8
1
 62
3
  6
DASHED
 10
124.55
 20
-131
 30
0
 11
124.55
 21
-137
 31
0
  0
LINE
  8
1
 62
3
 10
217.882554223958
 20
-33
 30
0
 11
222.202119154344
 21
-33
 31
0
  0
LINE
  8
1
 62
7
 10
223
 20
-33
 30
0
 11
225
 21
-33
 31
0
  0
LINE
  8
1
 62
3
 10
217.882554223958
 20
-104
 30
0
 11
222.202119154344
 21
-104
 31
0
  0
LINE
  8
1
 62
7
 10
223
 20
-104
 30
0
 11
225
 21
-104
 31
0
  0
LINE
  8
1
 62
3
  6
DASHED
 10
223
 20
-104
 30
0
 11
223
 21
-33
 31
0
  0
LINE
  8
1
 62
3
  6
DASHED
 10
223
 20
-6
 30
0
 11
223
 21
0
 31
0
  0
LINE
  8
1
 62
3
  6
DASHED
 10
223
 20
-131
 30
0
 11
223
 21
-137
 31
0
  0
ARC
  8
1
 62
7
 10
129.6
 20
-27.1999170145831
 30
0
 40
0.7000000000000171
 50
0
 51
90
  0
ARC
  8
1
 62
7
 10
129.6
 20
-109.8000829854169
 30
0
 40
0.7000000000000528
 50
228.3177811683373
 51
0
  0
ARC
  8
1
 62
7
 10
129.6
 20
-27.1999170145831
 30
0
 40
0.6999999999999993
 50
90
 51
131.6822188316659
  0
CIRCLE
  8
1
 62
7
 10
212.5
 20
-98.00000000000003
 30
0
 40
4.599999999999994
  0
CIRCLE
  8
1
 62
7
 10
212.5
 20
-98.00000000000003
 30
0
 40
2.5
  0
CIRCLE
  8
1
 62
7
 10
212.5
 20
-39
 30
0
 40
2.5
  0
CIRCLE
  8
1
 62
7
 10
212.5
 20
-39
 30
0
 40
4.599999999999994
  0
CIRCLE
  8
1
 62
7
 10
151.8
 20
-109
 30
0
 40
2.5
  0
CIRCLE
  8
1
 62
7
 10
151.8
 20
-109
 30
0
 40
4.599999999999994
  0
CIRCLE
  8
1
 62
7
 10
151.8
 20
-28
 30
0
 40
2.5
  0
CIRCLE
  8
1
 62
7
 10
151.8
 20
-28
 30
0
 40
4.599999999999994
  0
TEXT
  8
1
 62
3
 10
167.299179634341
 20
-168.507430467624
 30
0
 40
3.5
  1
O-B-2003.000
 41
0.8910000000000003
  0
DIMENSION
  8
1
  6
CONTINUOUS
 62
1
  2
*D0
  3
DMST_1
 10
107.827347730459
 20
-131
 30
0
 11
104.327347730459
 21
-134
 31
0
 12
0
 22
0
 32
0
 70
0
 13
122.8
 23
-137
 33
0
 14
139.8
 24
-131
 34
0
 50
90
 53
0
  0
DIMENSION
  8
1
  6
CONTINUOUS
 62
1
  2
*D1
  3
DMST_1
 10
107.827347730459
 20
-6
 30
0
 11
104.327347730459
 21
-19.5
 31
0
 12
0
 22
0
 32
0
 70
0
 13
130.3
 23
-33
 33
0
 14
139.8
 24
-6
 34
0
 50
90
 53
0
  0
DIMENSION
  8
1
  6
CONTINUOUS
 62
1
  2
*D2
  3
DMST_1
 10
107.827347730459
 20
-33
 30
0
 11
104.327347730459
 21
-37.5
 31
0
 12
0
 22
0
 32
0
 70
0
 13
142.3
 23
-42
 33
0
 14
130.3
 24
-33
 34
0
 50
90
 53
0
  0
DIMENSION
  8
1
  6
CONTINUOUS
 62
1
  2
*D3
  3
DMST_1
 10
107.827347730459
 20
-42
 30
0
 11
104.327347730459
 21
-68.5
 31
0
 12
0
 22
0
 32
0
 70
0
 13
142.3
 23
-95
 33
0
 14
142.3
 24
-42
 34
0
 50
90
 53
0
  0
DIMENSION
  8
1
  6
CONTINUOUS
 62
1
  2
*D4
  3
DMST_1
 10
107.827347730459
 20
-95
 30
0
 11
104.327347730459
 21
-99.5
 31
0
 12
0
 22
0
 32
0
 70
0
 13
139.8
 23
-104
 33
0
 14
142.3
 24
-95
 34
0
 50
90
 53
0
  0
DIMENSION
  8
1
  6
CONTINUOUS
 62
1
  2
*D5
  3
DMST_1
 10
107.827347730459
 20
-104
 30
0
 11
104.327347730459
 21
-117.5
 31
0
 12
0
 22
0
 32
0
 70
0
 13
139.8
 23
-131
 33
0
 14
139.8
 24
-104
 34
0
 50
90
 53
0
  0
DIMENSION
  8
1
  6
CONTINUOUS
 62
1
  2
*D6
  3
DMST_1
 10
122.8
 20
14.9160482279912
 30
0
 11
111.388731741827
 21
18.6660482279912
 31
0
 12
0
 22
0
 32
0
 70
0
 13
124.55
 23
-6
 33
0
 14
122.8
 24
0
 34
0
 53
0
  0
DIMENSION
  8
1
  6
CONTINUOUS
 62
1
  2
*D7
  3
DMST_1
 10
139.8
 20
14.9160482279912
 30
0
 11
132.175
 21
18.6660482279912
 31
0
 12
0
 22
0
 32
0
 70
0
 13
124.55
 23
-6
 33
0
 14
139.8
 24
-6
 34
0
 53
0
  0
DIMENSION
  8
1
  6
CONTINUOUS
 62
1
  2
*D8
  3
DMST_1
 10
225
 20
-152.262424589573
 30
0
 11
212.5
 21
-148.762424589573
 31
0
 12
0
 22
0
 32
0
 70
0
 13
200
 23
-137
 33
0
 14
225
 24
-137
 34
0
 53
0
  0
DIMENSION
  8
1
  6
CONTINUOUS
 62
1
  2
*D9
  3
DMST_1
 10
160.8
 20
-151.244459426449
 30
0
 11
141.8
 21
-147.744459426449
 31
0
 12
0
 22
0
 32
0
 70
0
 13
122.8
 23
-137
 33
0
 14
160.8
 24
-137
 34
0
 53
0
  0
ENDSEC
  0
EOF
