  0
SECTION
  2
HEADER
  9
$ACADVER
  1
AC1009
  9
$INSBASE
 10
0
 20
0
  9
$EXTMIN
 10
36.595994764539
 20
55.3029324736915
  9
$EXTMAX
 10
188.116113941137
 20
272.708811801664
  9
$LIMMIN
 10
36.595994764539
 20
55.3029324736915
  9
$LIMMAX
 10
188.116113941137
 20
272.708811801664
  9
$VIEWCTR
 10
10
 20
10
  9
$VIEWSIZE
 40
10
  9
$SNAPMODE
 70
0
  9
$SNAPUNIT
 10
1
 20
1
  9
$SNAPBASE
 10
0
 20
0
  9
$SNAPANG
 50
0
  9
$SNAPSTYLE
 70
0
  9
$SNAPISOPAIR
 70
0
  9
$GRIDMODE
 70
0
  9
$GRIDUNIT
 10
0
 20
0
  9
$ORTHOMODE
 70
0
  9
$REGENMODE
 70
1
  9
$FILLMODE
 70
1
  9
$QTEXTMODE
 70
0
  9
$DRAGMODE
 70
2
  9
$LTSCALE
 40
1
  9
$OSMODE
 70
0
  9
$ATTMODE
 70
1
  9
$TEXTSIZE
 40
3.5
  9
$TRACEWID
 40
0.5
  9
$TEXTSTYLE
  7
STANDARD
  9
$CLAYER
  8
0
  9
$CELTYPE
  6
BYLAYER
  9
$CECOLOR
 62
256
  9
$DIMSCALE
 40
1
  9
$DIMASZ
 40
0.18
  9
$DIMEXO
 40
0.0625
  9
$DIMDLI
 40
0.38
  9
$DIMRND
 40
0
  9
$DIMDLE
 40
0
  9
$DIMEXE
 40
0.18
  9
$DIMTP
 40
0
  9
$DIMTM
 40
0
  9
$DIMTXT
 40
0.18
  9
$DIMCEN
 40
0.09
  9
$DIMTSZ
 40
0
  9
$DIMTOL
 70
0
  9
$DIMLIM
 70
0
  9
$DIMTIH
 70
1
  9
$DIMTOH
 70
1
  9
$DIMSE1
 70
0
  9
$DIMSE2
 70
0
  9
$DIMTAD
 70
0
  9
$DIMZIN
 70
0
  9
$DIMBLK
  1

  9
$DIMASO
 70
1
  9
$DIMSHO
 70
1
  9
$DIMPOST
  1

  9
$DIMAPOST
  1

  9
$DIMALT
 70
0
  9
$DIMALTD
 70
2
  9
$DIMALTF
 40
25.4
  9
$DIMLFAC
 40
1
  9
$DIMTOFL
 70
0
  9
$DIMTVP
 40
0
  9
$DIMTIX
 70
0
  9
$DIMSOXD
 70
0
  9
$DIMSAH
 70
0
  9
$DIMBLK1
  1

  9
$DIMBLK2
  1

  9
$DIMSTYLE
  2
*UNNAMED
  9
$DIMCLRD
 70
0
  9
$DIMCLRE
 70
0
  9
$DIMCLRT
 70
0
  9
$DIMTFAC
 40
1
  9
$DIMGAP
 40
0.09
  9
$LUNITS
 70
2
  9
$LUPREC
 70
4
  9
$AXISMODE
 70
0
  9
$AXISUNIT
 10
0
 20
0
  9
$SKETCHINC
 40
0.1
  9
$FILLETRAD
 40
2
  9
$AUNITS
 70
0
  9
$AUPREC
 70
0
  9
$MENU
  1
ACAD
  9
$ELEVATION
 40
0
  9
$THICKNESS
 40
0
  9
$VIEWDIR
 10
0
 20
0
 30
1
  9
$LIMCHECK
 70
0
  9
$BLIPMODE
 70
1
  9
$CHAMFERA
 40
0
  9
$CHAMFERB
 40
0
  9
$FASTZOOM
 70
1
  9
$SKPOLY
 70
0
  9
$ANGBASE
 50
0
  9
$ANGDIR
 70
0
  9
$PDMODE
 70
0
  9
$PDSIZE
 40
0
  9
$PLINEWID
 40
0
  9
$COORDS
 70
2
  0
ENDSEC
  0
SECTION
  2
TABLES
  0
TABLE
  2
DIMSTYLE
 70
1
  0
DIMSTYLE
  2
DMST_1
 70
0
  3

  4

  5

  6

  7

 40
1
 41
5
 42
0
 43
7
 44
2
 45
0
 46
0
 47
0
 48
0
140
5
141
0
142
0
143
25.4
144
1
145
0
146
1
147
0.09
 71
0
 72
0
 73
0
 74
0
 75
0
 76
0
 77
1
 78
9
170
0
171
2
172
0
173
0
174
0
175
0
176
1
177
1
178
7
  0
ENDTAB
  0
TABLE
  2
LTYPE
 70
9
  0
LTYPE
  2
CONTINUOUS
 70
64
  3
Solid line
 72
65
 73
0
 40
0
  0
LTYPE
  2
BORDER
 70
64
  3
__ __ . __ __ .
 72
65
 73
6
 40
10.01211286378821
 49
2.860603675368059
 49
-1.43030183768403
 49
2.860603675368059
 49
-1.43030183768403
 49
0
 49
-1.43030183768403
  0
LTYPE
  2
CENTER
 70
64
  3
____ _ ____ _
 72
65
 73
4
 40
11.44241470147224
 49
7.151509188420149
 49
-1.43030183768403
 49
1.43030183768403
 49
-1.43030183768403
  0
LTYPE
  2
DASHDOT
 70
64
  3
__ . __ . __ .
 72
65
 73
4
 40
5.721207350736119
 49
2.860603675368059
 49
-1.43030183768403
 49
0
 49
-1.43030183768403
  0
LTYPE
  2
DASHED
 70
64
  3
__ __ __ __ __
 72
65
 73
2
 40
4.290905513052089
 49
2.860603675368059
 49
-1.43030183768403
  0
LTYPE
  2
DIVIDE
 70
64
  3
__ . . __ . . 
 72
65
 73
6
 40
7.151509188420149
 49
2.860603675368059
 49
-1.43030183768403
 49
0
 49
-1.43030183768403
 49
0
 49
-1.43030183768403
  0
LTYPE
  2
DOT
 70
64
  3
..............
 72
65
 73
4
 40
2.860603675368059
 49
0
 49
-1.43030183768403
 49
0
 49
-1.43030183768403
  0
LTYPE
  2
HIDDEN
 70
64
  3
_ _ _ _ _ _ _
 72
65
 73
2
 40
2.145452756526045
 49
1.43030183768403
 49
-0.7151509188420149
  0
LTYPE
  2
PHANTOM
 70
64
  3
_____ _ _ _____ _ _ 
 72
65
 73
6
 40
14.3030183768403
 49
7.151509188420149
 49
-1.43030183768403
 49
1.43030183768403
 49
-1.43030183768403
 49
1.43030183768403
 49
-1.43030183768403
  0
ENDTAB
  0
TABLE
  2
LAYER
 70
3
  0
LAYER
  2
1
 70
0
 62
7
  6
CONTINUOUS
  0
LAYER
  2
0
 70
0
 62
7
  6
CONTINUOUS
  0
ENDTAB
  0
TABLE
  2
STYLE
 70
4
  0
STYLE
  2
STANDARD
 70
0
 40
0
 41
1
 50
0
 71
0
 42
3.5
  3
txt
  4

  0
STYLE
  2
SIMPLEX
 70
0
 40
0
 41
1
 50
0
 71
0
 42
3.5
  3
simplex
  4

  0
STYLE
  2
COMPLEX
 70
0
 40
0
 41
1
 50
0
 71
0
 42
3.5
  3
complex
  4

  0
STYLE
  2
ITALIC
 70
0
 40
0
 41
1
 50
0
 71
0
 42
3.5
  3
italic
  4

  0
ENDTAB
  0
TABLE
  2
VIEW
 70
0
  0
ENDTAB
  0
ENDSEC
  0
SECTION
  2
BLOCKS
  0
BLOCK
  8
1
  2
*D0
 70
1
 10
0
 20
0
 30
0
  0
LINE
  8
1
 62
1
 10
99.8257423726143
 20
158.392668789746
 30
0
 11
99.8257423726143
 21
251.392668789746
 31
0
  0
LINE
  8
1
 62
1
 10
125.335994764539
 20
251.392668789746
 30
0
 11
97.8257423726143
 21
251.392668789746
 31
0
  0
LINE
  8
1
 62
1
 10
125.335994764539
 20
158.392668789746
 30
0
 11
97.8257423726143
 21
158.392668789746
 31
0
  0
SOLID
  8
1
 62
1
 10
99.8257423726143
 20
251.392668789746
 30
0
 11
100.4757423726143
 21
246.392668789746
 31
0
 12
99.17574237261429
 22
246.392668789746
 32
0
 13
99.17574237261429
 23
246.392668789746
 33
0
  0
SOLID
  8
1
 62
1
 10
99.8257423726143
 20
158.392668789746
 30
0
 11
99.17574237261429
 21
163.392668789746
 31
0
 12
100.4757423726143
 22
163.392668789746
 32
0
 13
100.4757423726143
 23
163.392668789746
 33
0
  0
TEXT
  8
1
 62
7
 10
98.8257423726143
 20
201.142668789746
 30
0
 40
5
  1
93
 50
90
 41
0.9
  0
ENDBLK
  8
0
  0
BLOCK
  8
1
  2
*D1
 70
1
 10
0
 20
0
 30
0
  0
LINE
  8
1
 62
1
 10
67.035994764539
 20
57.3029324736915
 30
0
 11
77.03599476453898
 21
57.3029324736915
 31
0
  0
LINE
  8
1
 62
1
 10
54.835994764539
 20
57.3029324736915
 30
0
 11
44.83599476453901
 21
57.3029324736915
 31
0
  0
LINE
  8
1
 62
1
 10
54.835994764539
 20
57.3029324736915
 30
0
 11
67.035994764539
 21
57.3029324736915
 31
0
  0
LINE
  8
1
 62
1
 10
67.035994764539
 20
77.29266878974602
 30
0
 11
67.035994764539
 21
55.3029324736915
 31
0
  0
LINE
  8
1
 62
1
 10
54.835994764539
 20
72.79266878974602
 30
0
 11
54.835994764539
 21
55.3029324736915
 31
0
  0
SOLID
  8
1
 62
1
 10
54.835994764539
 20
57.3029324736915
 30
0
 11
49.835994764539
 21
56.6529324736915
 31
0
 12
49.835994764539
 22
57.9529324736915
 32
0
 13
49.835994764539
 23
57.9529324736915
 33
0
  0
SOLID
  8
1
 62
1
 10
67.035994764539
 20
57.3029324736915
 30
0
 11
72.035994764539
 21
57.9529324736915
 31
0
 12
72.035994764539
 22
56.6529324736915
 32
0
 13
72.035994764539
 23
56.6529324736915
 33
0
  0
TEXT
  8
1
 62
7
 10
57.935994764539
 20
58.3029324736915
 30
0
 40
5
  1
12
 41
0.9
  0
ENDBLK
  8
0
  0
BLOCK
  8
1
  2
*D2
 70
1
 10
0
 20
0
 30
0
  0
LINE
  8
1
 62
1
 10
37.035994764539
 20
133.356781920066
 30
0
 11
67.035994764539
 21
133.356781920066
 31
0
  0
LINE
  8
1
 62
1
 10
67.035994764539
 20
106.192668789746
 30
0
 11
67.035994764539
 21
135.356781920066
 31
0
  0
LINE
  8
1
 62
1
 10
37.035994764539
 20
115.392668789746
 30
0
 11
37.035994764539
 21
135.356781920066
 31
0
  0
SOLID
  8
1
 62
1
 10
37.035994764539
 20
133.356781920066
 30
0
 11
42.035994764539
 21
134.006781920066
 31
0
 12
42.035994764539
 22
132.706781920066
 32
0
 13
42.035994764539
 23
132.706781920066
 33
0
  0
SOLID
  8
1
 62
1
 10
67.035994764539
 20
133.356781920066
 30
0
 11
62.035994764539
 21
132.706781920066
 31
0
 12
62.035994764539
 22
134.006781920066
 32
0
 13
62.035994764539
 23
134.006781920066
 33
0
  0
TEXT
  8
1
 62
7
 10
48.285994764539
 20
134.356781920066
 30
0
 40
5
  1
30
 41
0.9
  0
ENDBLK
  8
0
  0
BLOCK
  8
1
  2
*D3
 70
1
 10
0
 20
0
 30
0
  0
LINE
  8
1
 62
1
 10
125.335994764539
 20
143.424206359191
 30
0
 11
170.935994764539
 21
143.424206359191
 31
0
  0
LINE
  8
1
 62
1
 10
170.935994764539
 20
175.392668789746
 30
0
 11
170.935994764539
 21
141.424206359191
 31
0
  0
LINE
  8
1
 62
1
 10
125.335994764539
 20
158.392668789746
 30
0
 11
125.335994764539
 21
141.424206359191
 31
0
  0
SOLID
  8
1
 62
1
 10
125.335994764539
 20
143.424206359191
 30
0
 11
130.335994764539
 21
144.074206359191
 31
0
 12
130.335994764539
 22
142.774206359191
 32
0
 13
130.335994764539
 23
142.774206359191
 33
0
  0
SOLID
  8
1
 62
1
 10
170.935994764539
 20
143.424206359191
 30
0
 11
165.935994764539
 21
142.774206359191
 31
0
 12
165.935994764539
 22
144.074206359191
 32
0
 13
165.935994764539
 23
144.074206359191
 33
0
  0
TEXT
  8
1
 62
7
 10
141.260994764539
 20
144.924206359191
 30
0
 40
5
  1
45,5
 41
0.9
  0
ENDBLK
  8
0
  0
BLOCK
  8
1
  2
*D4
 70
1
 10
0
 20
0
 30
0
  0
LINE
  8
1
 62
1
 10
81.94930106705949
 20
164.8850365442934
 30
0
 11
81.94930106705949
 21
244.9003010351986
 31
0
  0
LINE
  8
1
 62
1
 10
54.83599476453901
 20
244.9003010351986
 30
0
 11
83.94930106705949
 21
244.9003010351986
 31
0
  0
LINE
  8
1
 62
1
 10
54.83599476453901
 20
164.8850365442934
 30
0
 11
83.94930106705949
 21
164.8850365442934
 31
0
  0
SOLID
  8
1
 62
1
 10
81.94930106705949
 20
244.9003010351986
 30
0
 11
82.5993010670595
 21
239.9003010351986
 31
0
 12
81.29930106705949
 22
239.9003010351986
 32
0
 13
81.29930106705949
 23
239.9003010351986
 33
0
  0
SOLID
  8
1
 62
1
 10
81.94930106705949
 20
164.8850365442934
 30
0
 11
81.29930106705949
 21
169.8850365442934
 31
0
 12
82.59930106705949
 22
169.8850365442934
 32
0
 13
82.59930106705949
 23
169.8850365442934
 33
0
  0
TEXT
  8
1
 62
7
 10
80.94930106705949
 20
201.142668789746
 30
0
 40
5
  1
83
 50
90
 41
0.9
  0
ENDBLK
  8
0
  0
BLOCK
  8
1
  2
*D5
 70
1
 10
0
 20
0
 30
0
  0
LINE
  8
1
 62
1
 10
186.116113941137
 20
178.392668789746
 30
0
 11
186.116113941137
 21
231.392668789746
 31
0
  0
LINE
  8
1
 62
1
 10
140.035994764539
 20
231.392668789746
 30
0
 11
188.116113941137
 21
231.392668789746
 31
0
  0
LINE
  8
1
 62
1
 10
156.435994764539
 20
178.392668789746
 30
0
 11
188.116113941137
 21
178.392668789746
 31
0
  0
SOLID
  8
1
 62
1
 10
186.116113941137
 20
231.392668789746
 30
0
 11
186.766113941137
 21
226.392668789746
 31
0
 12
185.466113941137
 22
226.392668789746
 32
0
 13
185.466113941137
 23
226.392668789746
 33
0
  0
SOLID
  8
1
 62
1
 10
186.116113941137
 20
178.392668789746
 30
0
 11
185.466113941137
 21
183.392668789746
 31
0
 12
186.766113941137
 22
183.392668789746
 32
0
 13
186.766113941137
 23
183.392668789746
 33
0
  0
TEXT
  8
1
 62
7
 10
185.116113941137
 20
201.142668789746
 30
0
 40
5
  1
53
 50
90
 41
0.9
  0
ENDBLK
  8
0
  0
BLOCK
  8
1
  2
*D6
 70
1
 10
0
 20
0
 30
0
  0
LINE
  8
1
 62
1
 10
137.535994764539
 20
208.151531605779
 30
0
 11
158.935994764539
 21
208.151531605779
 31
0
  0
LINE
  8
1
 62
1
 10
158.935994764539
 20
180.892668789746
 30
0
 11
158.935994764539
 21
210.151531605779
 31
0
  0
LINE
  8
1
 62
1
 10
137.535994764539
 20
180.892668789746
 30
0
 11
137.535994764539
 21
210.151531605779
 31
0
  0
SOLID
  8
1
 62
1
 10
158.935994764539
 20
208.151531605779
 30
0
 11
153.935994764539
 21
207.501531605779
 31
0
 12
153.935994764539
 22
208.801531605779
 32
0
 13
153.935994764539
 23
208.801531605779
 33
0
  0
SOLID
  8
1
 62
1
 10
137.535994764539
 20
208.151531605779
 30
0
 11
142.535994764539
 21
208.801531605779
 31
0
 12
142.535994764539
 22
207.501531605779
 32
0
 13
142.535994764539
 23
207.501531605779
 33
0
  0
TEXT
  8
1
 62
7
 10
142.110994764539
 20
209.651531605779
 30
0
 40
5
  1
21,4
 41
0.9
  0
ENDBLK
  8
0
  0
BLOCK
  8
1
  2
*D7
 70
1
 10
0
 20
0
 30
0
  0
LINE
  8
1
 62
1
 10
128.335994764539
 20
208.151531605779
 30
0
 11
113.761366333062
 21
208.151531605779
 31
0
  0
LINE
  8
1
 62
1
 10
128.335994764539
 20
208.151531605779
 30
0
 11
137.535994764539
 21
208.151531605779
 31
0
  0
LINE
  8
1
 62
1
 10
147.535994764539
 20
208.151531605779
 30
0
 11
137.535994764539
 21
208.151531605779
 31
0
  0
LINE
  8
1
 62
1
 10
137.535994764539
 20
180.892668789746
 30
0
 11
137.535994764539
 21
210.151531605779
 31
0
  0
LINE
  8
1
 62
1
 10
128.335994764539
 20
241.0710314364972
 30
0
 11
128.335994764539
 21
206.151531605779
 31
0
  0
SOLID
  8
1
 62
1
 10
137.535994764539
 20
208.151531605779
 30
0
 11
142.535994764539
 21
208.801531605779
 31
0
 12
142.535994764539
 22
207.501531605779
 32
0
 13
142.535994764539
 23
207.501531605779
 33
0
  0
SOLID
  8
1
 62
1
 10
128.335994764539
 20
208.151531605779
 30
0
 11
123.335994764539
 21
207.501531605779
 31
0
 12
123.335994764539
 22
208.801531605779
 32
0
 13
123.335994764539
 23
208.801531605779
 33
0
  0
TEXT
  8
1
 62
7
 10
113.761366333062
 20
212.462898192666
 30
0
 40
5
  1
9,2
 41
0.9
  0
ENDBLK
  8
0
  0
BLOCK
  8
1
  2
*D8
 70
1
 10
0
 20
0
 30
0
  0
LINE
  8
1
 62
1
 10
125.335994764539
 20
266.708811801664
 30
0
 11
114.647652402675
 21
266.708811801664
 31
0
  0
LINE
  8
1
 62
1
 10
125.335994764539
 20
266.708811801664
 30
0
 11
128.335994764539
 21
266.708811801664
 31
0
  0
LINE
  8
1
 62
1
 10
138.335994764539
 20
266.708811801664
 30
0
 11
128.335994764539
 21
266.708811801664
 31
0
  0
LINE
  8
1
 62
1
 10
128.335994764539
 20
241.0710314364972
 30
0
 11
128.335994764539
 21
268.708811801664
 31
0
  0
LINE
  8
1
 62
1
 10
125.335994764539
 20
251.392668789746
 30
0
 11
125.335994764539
 21
268.708811801664
 31
0
  0
SOLID
  8
1
 62
1
 10
125.335994764539
 20
266.708811801664
 30
0
 11
120.335994764539
 21
266.058811801664
 31
0
 12
120.335994764539
 22
267.358811801664
 32
0
 13
120.335994764539
 23
267.358811801664
 33
0
  0
SOLID
  8
1
 62
1
 10
128.335994764539
 20
266.708811801664
 30
0
 11
133.335994764539
 21
267.358811801664
 31
0
 12
133.335994764539
 22
266.058811801664
 32
0
 13
133.335994764539
 23
266.058811801664
 33
0
  0
TEXT
  8
1
 62
7
 10
114.647652402675
 20
267.708811801664
 30
0
 40
5
  1
3
 41
0.9
  0
ENDBLK
  8
0
  0
BLOCK
  8
1
  2
*D9
 70
1
 10
0
 20
0
 30
0
  0
LINE
  8
1
 62
1
 10
128.335994764539
 20
266.708811801664
 30
0
 11
158.335994764539
 21
266.708811801664
 31
0
  0
LINE
  8
1
 62
1
 10
158.335994764539
 20
243.9781622914849
 30
0
 11
158.335994764539
 21
268.708811801664
 31
0
  0
LINE
  8
1
 62
1
 10
128.335994764539
 20
241.0710314364972
 30
0
 11
128.335994764539
 21
268.708811801664
 31
0
  0
SOLID
  8
1
 62
1
 10
128.335994764539
 20
266.708811801664
 30
0
 11
133.335994764539
 21
267.358811801664
 31
0
 12
133.335994764539
 22
266.058811801664
 32
0
 13
133.335994764539
 23
266.058811801664
 33
0
  0
SOLID
  8
1
 62
1
 10
158.335994764539
 20
266.708811801664
 30
0
 11
153.335994764539
 21
266.058811801664
 31
0
 12
153.335994764539
 22
267.358811801664
 32
0
 13
153.335994764539
 23
267.358811801664
 33
0
  0
TEXT
  8
1
 62
7
 10
139.585994764539
 20
267.708811801664
 30
0
 40
5
  1
30
 41
0.9
  0
ENDBLK
  8
0
  0
ENDSEC
  0
SECTION
  2
ENTITIES
  0
LINE
  8
1
 62
2
 10
56.35049901588599
 20
175.392668789746
 30
0
 11
64.32106984480799
 21
175.392668789746
 31
0
  0
LINE
  8
1
 62
2
 10
56.70739024703099
 20
234.392668789746
 30
0
 11
65.27277979453001
 21
234.392668789746
 31
0
  0
LINE
  8
1
 62
7
 10
54.83599476453901
 20
164.8850365442934
 30
0
 11
54.83599476453901
 21
244.9003010351986
 31
0
  0
LINE
  8
1
 62
7
 10
64.535994764539
 20
164.8850365442934
 30
0
 11
54.83599476453901
 21
164.8850365442934
 31
0
  0
LINE
  8
1
 62
7
 10
67.035994764539
 20
242.4003010351986
 30
0
 11
67.035994764539
 21
167.3850365442934
 31
0
  0
LINE
  8
1
 62
7
 10
54.83599476453901
 20
244.9003010351986
 30
0
 11
64.535994764539
 21
244.9003010351986
 31
0
  0
LINE
  8
1
 62
7
 10
67.035994764539
 20
106.192668789746
 30
0
 11
67.035994764539
 21
84.79266878974602
 31
0
  0
LINE
  8
1
 62
7
 10
67.035994764539
 20
84.79266878974602
 30
0
 11
67.035994764539
 21
77.29266878974602
 31
0
  0
LINE
  8
1
 62
7
 10
64.035994764539
 20
106.192668789746
 30
0
 11
64.035994764539
 21
114.692668789746
 31
0
  0
LINE
  8
1
 62
7
 10
64.035994764539
 20
84.79266878974602
 30
0
 11
64.035994764539
 21
106.192668789746
 31
0
  0
LINE
  8
1
 62
7
  6
DASHED
 10
64.035994764539
 20
84.79266878974602
 30
0
 11
67.035994764539
 21
84.79266878974602
 31
0
  0
LINE
  8
1
 62
7
  6
DASHED
 10
64.035994764539
 20
106.192668789746
 30
0
 11
67.035994764539
 21
106.192668789746
 31
0
  0
LINE
  8
1
 62
7
 10
64.035994764539
 20
77.29266878974602
 30
0
 11
64.035994764539
 21
84.79266878974602
 31
0
  0
LINE
  8
1
 62
7
 10
54.83599476453901
 20
75.79266878974602
 30
0
 11
62.535994764539
 21
75.79266878974602
 31
0
  0
LINE
  8
1
 62
7
 10
54.83599476453901
 20
72.79266878974602
 30
0
 11
54.83599476453901
 21
75.79266878974602
 31
0
  0
LINE
  8
1
 62
7
 10
62.535994764539
 20
72.79266878974602
 30
0
 11
54.83599476453901
 21
72.79266878974602
 31
0
  0
LINE
  8
1
 62
7
 10
67.035994764539
 20
114.692668789746
 30
0
 11
67.035994764539
 21
106.192668789746
 31
0
  0
LINE
  8
1
 62
3
  6
DASHED
 10
44.035994764539
 20
118.392668789746
 30
0
 11
44.035994764539
 21
117.542668789746
 31
0
  0
LINE
  8
1
 62
7
 10
44.035994764539
 20
118.392668789746
 30
0
 11
47.035994764539
 21
118.392668789746
 31
0
  0
LINE
  8
1
 62
7
 10
47.035994764539
 20
118.392668789746
 30
0
 11
63.33599476453901
 21
118.392668789746
 31
0
  0
LINE
  8
1
 62
7
 10
41.035994764539
 20
118.392668789746
 30
0
 11
44.035994764539
 21
118.392668789746
 31
0
  0
LINE
  8
1
 62
2
  6
DASHDOT
 10
44.035994764539
 20
115.392668789746
 30
0
 11
44.035994764539
 21
108.742668789746
 31
0
  0
LINE
  8
1
 62
7
 10
44.035994764539
 20
115.392668789746
 30
0
 11
39.38599476453899
 21
115.392668789746
 31
0
  0
LINE
  8
1
 62
7
 10
63.33599476453901
 20
115.392668789746
 30
0
 11
48.685994764539
 21
115.392668789746
 31
0
  0
LINE
  8
1
 62
7
 10
48.685994764539
 20
115.392668789746
 30
0
 11
44.035994764539
 21
115.392668789746
 31
0
  0
LINE
  8
1
 62
7
 10
39.38599476453899
 20
115.392668789746
 30
0
 11
37.035994764539
 21
115.392668789746
 31
0
  0
LINE
  8
1
 62
3
  6
DASHED
 10
44.035994764539
 20
115.892668789746
 30
0
 11
48.685994764539
 21
115.892668789746
 31
0
  0
LINE
  8
1
 62
3
  6
DASHED
 10
44.035994764539
 20
115.892668789746
 30
0
 11
44.035994764539
 21
115.392668789746
 31
0
  0
LINE
  8
1
 62
3
  6
DASHED
 10
44.035994764539
 20
117.542668789746
 30
0
 11
47.035994764539
 21
117.542668789746
 31
0
  0
LINE
  8
1
 62
3
  6
DASHED
 10
44.035994764539
 20
117.542668789746
 30
0
 11
44.035994764539
 21
115.892668789746
 31
0
  0
LINE
  8
1
 62
3
  6
DASHED
 10
41.035994764539
 20
117.542668789746
 30
0
 11
41.035994764539
 21
118.392668789746
 31
0
  0
LINE
  8
1
 62
3
  6
DASHED
 10
47.035994764539
 20
117.542668789746
 30
0
 11
47.035994764539
 21
118.392668789746
 31
0
  0
LINE
  8
1
 62
3
  6
DASHED
 10
41.035994764539
 20
117.542668789746
 30
0
 11
44.035994764539
 21
117.542668789746
 31
0
  0
LINE
  8
1
 62
3
  6
DASHED
 10
39.38599476453899
 20
115.892668789746
 30
0
 11
41.035994764539
 21
117.542668789746
 31
0
  0
LINE
  8
1
 62
3
  6
DASHED
 10
48.685994764539
 20
115.892668789746
 30
0
 11
47.035994764539
 21
117.542668789746
 31
0
  0
LINE
  8
1
 62
3
  6
DASHED
 10
39.38599476453899
 20
115.892668789746
 30
0
 11
44.035994764539
 21
115.892668789746
 31
0
  0
LINE
  8
1
 62
3
  6
DASHED
 10
39.38599476453899
 20
115.392668789746
 30
0
 11
39.38599476453899
 21
115.892668789746
 31
0
  0
LINE
  8
1
 62
3
  6
DASHED
 10
48.685994764539
 20
115.392668789746
 30
0
 11
48.685994764539
 21
115.892668789746
 31
0
  0
LINE
  8
1
 62
2
  6
DASHDOT
 10
44.035994764539
 20
125.586418789746
 30
0
 11
44.035994764539
 21
118.392668789746
 31
0
  0
LINE
  8
1
 62
7
 10
37.035994764539
 20
115.392668789746
 30
0
 11
37.035994764539
 21
118.392668789746
 31
0
  0
LINE
  8
1
 62
7
 10
37.035994764539
 20
118.392668789746
 30
0
 11
41.035994764539
 21
118.392668789746
 31
0
  0
LINE
  8
1
 62
7
 10
158.335994764539
 20
165.8071752880071
 30
0
 11
160.1622790515652
 21
163.4271152671334
 31
0
  0
LINE
  8
1
 62
7
 10
158.335994764539
 20
243.9781622914849
 30
0
 11
166.1754211950782
 21
237.9627588210566
 31
0
  0
LINE
  8
1
 62
7
 10
160.1622790515652
 20
163.4271152671334
 30
0
 11
168.0017054821044
 21
169.4425187375617
 31
0
  0
LINE
  8
1
 62
7
 10
158.335994764539
 20
165.8071752880071
 30
0
 11
166.1754211950782
 21
171.8225787584354
 31
0
  0
LINE
  8
1
 62
7
 10
170.935994764539
 20
175.392668789746
 30
0
 11
170.935994764539
 21
234.392668789746
 31
0
  0
LINE
  8
1
 62
7
 10
167.935994764539
 20
234.392668789746
 30
0
 11
167.935994764539
 21
175.392668789746
 31
0
  0
LINE
  8
1
 62
7
 10
160.1622790515651
 20
246.3582223123586
 30
0
 11
158.335994764539
 21
243.9781622914849
 31
0
  0
LINE
  8
1
 62
7
 10
168.0017054821044
 20
240.3428188419303
 30
0
 11
160.1622790515651
 21
246.3582223123586
 31
0
  0
LINE
  8
1
 62
7
 10
128.335994764539
 20
241.0710314364972
 30
0
 11
128.335994764539
 21
168.7143061429948
 31
0
  0
LINE
  8
1
 62
7
 10
125.335994764539
 20
158.392668789746
 30
0
 11
125.335994764539
 21
251.392668789746
 31
0
  0
LINE
  8
1
 62
7
 10
128.335994764539
 20
168.7143061429948
 30
0
 11
128.335994764539
 21
158.392668789746
 31
0
  0
LINE
  8
1
 62
7
 10
128.335994764539
 20
241.0710314364972
 30
0
 11
128.335994764539
 21
251.392668789746
 31
0
  0
LINE
  8
1
 62
7
 10
160.235994764539
 20
167.2650965651671
 30
0
 11
160.235994764539
 21
169.392668789746
 31
0
  0
LINE
  8
1
 62
7
 10
137.535994764539
 20
180.892668789746
 30
0
 11
137.535994764539
 21
228.892668789746
 31
0
  0
LINE
  8
1
 62
7
 10
156.435994764539
 20
178.392668789746
 30
0
 11
140.035994764539
 21
178.392668789746
 31
0
  0
LINE
  8
1
 62
7
 10
158.935994764539
 20
228.892668789746
 30
0
 11
158.935994764539
 21
180.892668789746
 31
0
  0
LINE
  8
1
 62
7
 10
140.035994764539
 20
231.392668789746
 30
0
 11
156.435994764539
 21
231.392668789746
 31
0
  0
LINE
  8
1
 62
7
 10
128.335994764539
 20
158.392668789746
 30
0
 11
125.335994764539
 21
158.392668789746
 31
0
  0
LINE
  8
1
 62
7
 10
160.235994764539
 20
169.392668789746
 30
0
 11
130.235994764539
 21
169.392668789746
 31
0
  0
LINE
  8
1
 62
7
 10
160.235994764539
 20
240.392668789746
 30
0
 11
160.235994764539
 21
242.5202410143249
 31
0
  0
LINE
  8
1
 62
7
 10
130.235994764539
 20
240.392668789746
 30
0
 11
160.235994764539
 21
240.392668789746
 31
0
  0
LINE
  8
1
 62
7
 10
125.335994764539
 20
251.392668789746
 30
0
 11
128.335994764539
 21
251.392668789746
 31
0
  0
LINE
  8
1
 62
2
  6
DASHDOT
 10
50.535994764539
 20
159.852668789746
 30
0
 11
50.535994764539
 21
174.732668789746
 31
0
  0
LINE
  8
1
 62
2
  6
DASHDOT
 10
43.095994764539
 20
167.292668789746
 30
0
 11
57.975994764539
 21
167.292668789746
 31
0
  0
LINE
  8
1
 62
2
  6
DASHDOT
 10
44.035994764539
 20
197.452668789746
 30
0
 11
44.035994764539
 21
212.332668789746
 31
0
  0
LINE
  8
1
 62
2
  6
DASHDOT
 10
36.595994764539
 20
204.892668789746
 30
0
 11
51.475994764539
 21
204.892668789746
 31
0
  0
LINE
  8
1
 62
2
  6
DASHDOT
 10
50.535994764539
 20
235.052668789746
 30
0
 11
50.535994764539
 21
249.932668789746
 31
0
  0
LINE
  8
1
 62
2
  6
DASHDOT
 10
43.095994764539
 20
242.492668789746
 30
0
 11
57.975994764539
 21
242.492668789746
 31
0
  0
LINE
  8
1
 62
7
 10
64.23599476453899
 20
158.392668789746
 30
0
 11
37.035994764539
 21
158.392668789746
 31
0
  0
LINE
  8
1
 62
7
 10
64.23599476453899
 20
164.8850365442934
 30
0
 11
64.23599476453899
 21
158.392668789746
 31
0
  0
LINE
  8
1
 62
7
 10
64.23599476453899
 20
251.392668789746
 30
0
 11
64.23599476453899
 21
244.9003010351986
 31
0
  0
LINE
  8
1
 62
7
 10
37.035994764539
 20
158.392668789746
 30
0
 11
37.035994764539
 21
251.392668789746
 31
0
  0
LINE
  8
1
 62
7
 10
37.035994764539
 20
251.392668789746
 30
0
 11
64.23599476453899
 21
251.392668789746
 31
0
  0
ARC
  8
1
 62
7
 10
50.535994764539
 20
167.292668789746
 30
0
 40
4.650000000000024
 50
22.37214549396434
 51
337.627854506036
  0
ARC
  8
1
 62
3
  6
DASHED
 10
50.535994764539
 20
167.292668789746
 30
0
 40
4.650000000000014
 50
337.627854506036
 51
0
  0
ARC
  8
1
 62
3
  6
DASHED
 10
50.535994764539
 20
167.292668789746
 30
0
 40
4.649999999999999
 50
0
 51
22.37214549396434
  0
ARC
  8
1
 62
3
  6
DASHED
 10
50.535994764539
 20
242.492668789746
 30
0
 40
4.649999999999999
 50
0
 51
22.37214549396401
  0
ARC
  8
1
 62
3
  6
DASHED
 10
50.535994764539
 20
242.492668789746
 30
0
 40
4.650000000000014
 50
337.627854506036
 51
0
  0
ARC
  8
1
 62
7
 10
50.535994764539
 20
242.492668789746
 30
0
 40
4.650000000000014
 50
22.37214549396401
 51
337.627854506036
  0
ARC
  8
1
 62
7
 10
163.435994764539
 20
175.392668789746
 30
0
 40
4.500000000000004
 50
307.4999999999992
 51
0
  0
ARC
  8
1
 62
7
 10
163.435994764539
 20
175.392668789746
 30
0
 40
7.500000000000033
 50
307.4999999999997
 51
0
  0
ARC
  8
1
 62
7
 10
163.435994764539
 20
234.392668789746
 30
0
 40
7.5
 50
0
 51
52.50000000000016
  0
ARC
  8
1
 62
7
 10
163.435994764539
 20
234.392668789746
 30
0
 40
4.5
 50
0
 51
52.50000000000078
  0
CIRCLE
  8
1
 62
7
 10
50.535994764539
 20
167.292668789746
 30
0
 40
3
  0
CIRCLE
  8
1
 62
7
 10
44.035994764539
 20
204.892668789746
 30
0
 40
3
  0
CIRCLE
  8
1
 62
7
 10
44.035994764539
 20
204.892668789746
 30
0
 40
4.649999999999999
  0
CIRCLE
  8
1
 62
7
 10
50.535994764539
 20
242.492668789746
 30
0
 40
3
  0
ARC
  8
1
 62
7
 10
64.535994764539
 20
167.3850365442934
 30
0
 40
2.5
 50
270
 51
0
  0
ARC
  8
1
 62
7
 10
64.535994764539
 20
242.4003010351986
 30
0
 40
2.5
 50
0
 51
90
  0
ARC
  8
1
 62
7
 10
62.535994764539
 20
77.29266878974602
 30
0
 40
4.5
 50
270
 51
0
  0
ARC
  8
1
 62
7
 10
62.535994764539
 20
77.29266878974602
 30
0
 40
1.5
 50
270
 51
0
  0
ARC
  8
1
 62
7
 10
63.33599476453901
 20
114.692668789746
 30
0
 40
3.699999999999989
 50
0
 51
90
  0
ARC
  8
1
 62
7
 10
63.33599476453901
 20
114.692668789746
 30
0
 40
0.6999999999999886
 50
0
 51
90
  0
ARC
  8
1
 62
7
 10
130.235994764539
 20
166.392668789746
 30
0
 40
3
 50
90
 51
129.2964802391872
  0
ARC
  8
1
 62
7
 10
130.235994764539
 20
243.392668789746
 30
0
 40
3.000000000000004
 50
230.7035197608131
 51
270
  0
ARC
  8
1
 62
7
 10
140.035994764539
 20
180.892668789746
 30
0
 40
2.5
 50
180
 51
270
  0
ARC
  8
1
 62
7
 10
156.435994764539
 20
180.892668789746
 30
0
 40
2.5
 50
270
 51
0
  0
ARC
  8
1
 62
7
 10
156.435994764539
 20
228.892668789746
 30
0
 40
2.5
 50
0
 51
90
  0
ARC
  8
1
 62
7
 10
140.035994764539
 20
228.892668789746
 30
0
 40
2.5
 50
90
 51
180
  0
DIMENSION
  8
1
  6
CONTINUOUS
 62
1
  2
*D0
  3
DMST_1
 10
99.8257423726143
 20
251.392668789746
 30
0
 11
96.3257423726143
 21
204.892668789746
 31
0
 12
0
 22
0
 32
0
 70
0
 13
125.335994764539
 23
158.392668789746
 33
0
 14
125.335994764539
 24
251.392668789746
 34
0
 50
90
 53
0
  0
DIMENSION
  8
1
  6
CONTINUOUS
 62
1
  2
*D1
  3
DMST_1
 10
67.035994764539
 20
57.3029324736915
 30
0
 11
60.935994764539
 21
60.8029324736915
 31
0
 12
0
 22
0
 32
0
 70
0
  1
12
 13
54.83599476453901
 23
72.79266878974602
 33
0
 14
67.035994764539
 24
77.29266878974602
 34
0
 53
0
  0
DIMENSION
  8
1
  6
CONTINUOUS
 62
1
  2
*D2
  3
DMST_1
 10
67.035994764539
 20
133.356781920066
 30
0
 11
52.035994764539
 21
136.856781920066
 31
0
 12
0
 22
0
 32
0
 70
0
 13
37.035994764539
 23
115.392668789746
 33
0
 14
67.035994764539
 24
106.192668789746
 34
0
 53
0
  0
DIMENSION
  8
1
  6
CONTINUOUS
 62
1
  2
*D3
  3
DMST_1
 10
125.335994764539
 20
143.424206359191
 30
0
 11
148.135994764539
 21
147.174206359191
 31
0
 12
0
 22
0
 32
0
 70
0
  1
45,5
 13
170.935994764539
 23
175.392668789746
 33
0
 14
125.335994764539
 24
158.392668789746
 34
0
 53
0
  0
DIMENSION
  8
1
  6
CONTINUOUS
 62
1
  2
*D4
  3
DMST_1
 10
81.94930106705949
 20
164.8850365442934
 30
0
 11
78.44930106705949
 21
204.892668789746
 31
0
 12
0
 22
0
 32
0
 70
0
  1
83
 13
54.83599476453901
 23
244.9003010351986
 33
0
 14
54.83599476453901
 24
164.8850365442934
 34
0
 50
90
 53
0
  0
DIMENSION
  8
1
  6
CONTINUOUS
 62
1
  2
*D5
  3
DMST_1
 10
186.116113941137
 20
231.392668789746
 30
0
 11
182.616113941137
 21
204.892668789746
 31
0
 12
0
 22
0
 32
0
 70
0
 13
156.435994764539
 23
178.392668789746
 33
0
 14
140.035994764539
 24
231.392668789746
 34
0
 50
90
 53
0
  0
DIMENSION
  8
1
  6
CONTINUOUS
 62
1
  2
*D6
  3
DMST_1
 10
137.535994764539
 20
208.151531605779
 30
0
 11
148.235994764539
 21
211.901531605779
 31
0
 12
0
 22
0
 32
0
 70
0
 13
158.935994764539
 23
180.892668789746
 33
0
 14
137.535994764539
 24
180.892668789746
 34
0
 53
0
  0
DIMENSION
  8
1
  6
CONTINUOUS
 62
1
  2
*D7
  3
DMST_1
 10
128.335994764539
 20
208.151531605779
 30
0
 11
118.386366333062
 21
214.712898192666
 31
0
 12
0
 22
0
 32
0
 70
0
 13
137.535994764539
 23
180.892668789746
 33
0
 14
128.335994764539
 24
241.0710314364972
 34
0
 53
0
  0
DIMENSION
  8
1
  6
CONTINUOUS
 62
1
  2
*D8
  3
DMST_1
 10
125.335994764539
 20
266.708811801664
 30
0
 11
116.147652402675
 21
270.208811801664
 31
0
 12
0
 22
0
 32
0
 70
0
 13
128.335994764539
 23
241.0710314364972
 33
0
 14
125.335994764539
 24
251.392668789746
 34
0
 53
0
  0
DIMENSION
  8
1
  6
CONTINUOUS
 62
1
  2
*D9
  3
DMST_1
 10
158.335994764539
 20
266.708811801664
 30
0
 11
143.335994764539
 21
270.208811801664
 31
0
 12
0
 22
0
 32
0
 70
0
 13
128.335994764539
 23
241.0710314364972
 33
0
 14
158.335994764539
 24
243.9781622914849
 34
0
 53
0
  0
ENDSEC
  0
EOF
