  0
SECTION
  2
HEADER
  9
$ACADVER
  1
AC1009
  9
$INSBASE
 10
0
 20
0
  9
$EXTMIN
 10
-64.1447893845189
 20
-77
  9
$EXTMAX
 10
148.806597345554
 20
127.8247779843855
  9
$LIMMIN
 10
-64.1447893845189
 20
-77
  9
$LIMMAX
 10
148.806597345554
 20
127.8247779843855
  9
$VIEWCTR
 10
10
 20
10
  9
$VIEWSIZE
 40
10
  9
$SNAPMODE
 70
0
  9
$SNAPUNIT
 10
1
 20
1
  9
$SNAPBASE
 10
0
 20
0
  9
$SNAPANG
 50
0
  9
$SNAPSTYLE
 70
0
  9
$SNAPISOPAIR
 70
0
  9
$GRIDMODE
 70
0
  9
$GRIDUNIT
 10
0
 20
0
  9
$ORTHOMODE
 70
0
  9
$REGENMODE
 70
1
  9
$FILLMODE
 70
1
  9
$QTEXTMODE
 70
0
  9
$DRAGMODE
 70
2
  9
$LTSCALE
 40
1
  9
$OSMODE
 70
0
  9
$ATTMODE
 70
1
  9
$TEXTSIZE
 40
3.5
  9
$TRACEWID
 40
0.5
  9
$TEXTSTYLE
  7
STANDARD
  9
$CLAYER
  8
0
  9
$CELTYPE
  6
BYLAYER
  9
$CECOLOR
 62
256
  9
$DIMSCALE
 40
1
  9
$DIMASZ
 40
0.18
  9
$DIMEXO
 40
0.0625
  9
$DIMDLI
 40
0.38
  9
$DIMRND
 40
0
  9
$DIMDLE
 40
0
  9
$DIMEXE
 40
0.18
  9
$DIMTP
 40
0
  9
$DIMTM
 40
0
  9
$DIMTXT
 40
0.18
  9
$DIMCEN
 40
0.09
  9
$DIMTSZ
 40
0
  9
$DIMTOL
 70
0
  9
$DIMLIM
 70
0
  9
$DIMTIH
 70
1
  9
$DIMTOH
 70
1
  9
$DIMSE1
 70
0
  9
$DIMSE2
 70
0
  9
$DIMTAD
 70
0
  9
$DIMZIN
 70
0
  9
$DIMBLK
  1

  9
$DIMASO
 70
1
  9
$DIMSHO
 70
1
  9
$DIMPOST
  1

  9
$DIMAPOST
  1

  9
$DIMALT
 70
0
  9
$DIMALTD
 70
2
  9
$DIMALTF
 40
25.4
  9
$DIMLFAC
 40
1
  9
$DIMTOFL
 70
0
  9
$DIMTVP
 40
0
  9
$DIMTIX
 70
0
  9
$DIMSOXD
 70
0
  9
$DIMSAH
 70
0
  9
$DIMBLK1
  1

  9
$DIMBLK2
  1

  9
$DIMSTYLE
  2
*UNNAMED
  9
$DIMCLRD
 70
0
  9
$DIMCLRE
 70
0
  9
$DIMCLRT
 70
0
  9
$DIMTFAC
 40
1
  9
$DIMGAP
 40
0.09
  9
$LUNITS
 70
2
  9
$LUPREC
 70
4
  9
$AXISMODE
 70
0
  9
$AXISUNIT
 10
0
 20
0
  9
$SKETCHINC
 40
0.1
  9
$FILLETRAD
 40
2
  9
$AUNITS
 70
0
  9
$AUPREC
 70
0
  9
$MENU
  1
ACAD
  9
$ELEVATION
 40
0
  9
$THICKNESS
 40
0
  9
$VIEWDIR
 10
0
 20
0
 30
1
  9
$LIMCHECK
 70
0
  9
$BLIPMODE
 70
1
  9
$CHAMFERA
 40
0
  9
$CHAMFERB
 40
0
  9
$FASTZOOM
 70
1
  9
$SKPOLY
 70
0
  9
$ANGBASE
 50
0
  9
$ANGDIR
 70
0
  9
$PDMODE
 70
0
  9
$PDSIZE
 40
0
  9
$PLINEWID
 40
0
  9
$COORDS
 70
2
  0
ENDSEC
  0
SECTION
  2
TABLES
  0
TABLE
  2
DIMSTYLE
 70
1
  0
DIMSTYLE
  2
DMST_1
 70
0
  3

  4

  5

  6

  7

 40
1
 41
5
 42
0
 43
7
 44
1.5
 45
0
 46
0
 47
0
 48
0
140
5
141
0
142
0
143
25.4
144
1
145
0
146
1
147
0.09
 71
0
 72
0
 73
0
 74
0
 75
0
 76
0
 77
1
 78
1
170
0
171
2
172
0
173
0
174
0
175
0
176
1
177
1
178
7
  0
ENDTAB
  0
TABLE
  2
LTYPE
 70
9
  0
LTYPE
  2
CONTINUOUS
 70
64
  3
Solid line
 72
65
 73
0
 40
0
  0
LTYPE
  2
BORDER
 70
64
  3
__ __ . __ __ .
 72
65
 73
6
 40
9.806971757305989
 49
2.801991930658854
 49
-1.400995965329427
 49
2.801991930658854
 49
-1.400995965329427
 49
0
 49
-1.400995965329427
  0
LTYPE
  2
CENTER
 70
64
  3
____ _ ____ _
 72
65
 73
4
 40
11.20796772263542
 49
7.004979826647135
 49
-1.400995965329427
 49
1.400995965329427
 49
-1.400995965329427
  0
LTYPE
  2
DASHDOT
 70
64
  3
__ . __ . __ .
 72
65
 73
4
 40
5.603983861317708
 49
2.801991930658854
 49
-1.400995965329427
 49
0
 49
-1.400995965329427
  0
LTYPE
  2
DASHED
 70
64
  3
__ __ __ __ __
 72
65
 73
2
 40
4.202987895988281
 49
2.801991930658854
 49
-1.400995965329427
  0
LTYPE
  2
DIVIDE
 70
64
  3
__ . . __ . . 
 72
65
 73
6
 40
7.004979826647135
 49
2.801991930658854
 49
-1.400995965329427
 49
0
 49
-1.400995965329427
 49
0
 49
-1.400995965329427
  0
LTYPE
  2
DOT
 70
64
  3
..............
 72
65
 73
4
 40
2.801991930658854
 49
0
 49
-1.400995965329427
 49
0
 49
-1.400995965329427
  0
LTYPE
  2
HIDDEN
 70
64
  3
_ _ _ _ _ _ _
 72
65
 73
2
 40
2.101493947994141
 49
1.400995965329427
 49
-0.7004979826647135
  0
LTYPE
  2
PHANTOM
 70
64
  3
_____ _ _ _____ _ _ 
 72
65
 73
6
 40
14.00995965329427
 49
7.004979826647135
 49
-1.400995965329427
 49
1.400995965329427
 49
-1.400995965329427
 49
1.400995965329427
 49
-1.400995965329427
  0
ENDTAB
  0
TABLE
  2
LAYER
 70
4
  0
LAYER
  2
1
 70
0
 62
7
  6
CONTINUOUS
  0
LAYER
  2
3
 70
0
 62
7
  6
CONTINUOUS
  0
LAYER
  2
0
 70
0
 62
7
  6
CONTINUOUS
  0
ENDTAB
  0
TABLE
  2
STYLE
 70
4
  0
STYLE
  2
STANDARD
 70
0
 40
0
 41
1
 50
0
 71
0
 42
3.5
  3
txt
  4

  0
STYLE
  2
SIMPLEX
 70
0
 40
0
 41
1
 50
0
 71
0
 42
3.5
  3
simplex
  4

  0
STYLE
  2
COMPLEX
 70
0
 40
0
 41
1
 50
0
 71
0
 42
3.5
  3
complex
  4

  0
STYLE
  2
ITALIC
 70
0
 40
0
 41
1
 50
0
 71
0
 42
3.5
  3
italic
  4

  0
ENDTAB
  0
TABLE
  2
VIEW
 70
0
  0
ENDTAB
  0
ENDSEC
  0
SECTION
  2
BLOCKS
  0
BLOCK
  8
1
  2
*X0
 70
1
 10
0
 20
0
 30
0
  0
LINE
  8
1
 62
1
 10
134.6302178467931
 20
16
 30
0
 11
134.630217846793
 21
16.38461538461538
 31
0
  0
LINE
  8
1
 62
1
 10
134.7302178467931
 20
16
 30
0
 11
134.730217846793
 21
17.15384615384614
 31
0
  0
LINE
  8
1
 62
1
 10
134.8302178467931
 20
16
 30
0
 11
134.830217846793
 21
17.92307692307691
 31
0
  0
LINE
  8
1
 62
1
 10
134.9302178467931
 20
16
 30
0
 11
134.930217846793
 21
18.69230769230767
 31
0
  0
LINE
  8
1
 62
1
 10
135.0302178467931
 20
16
 30
0
 11
135.030217846793
 21
19.46153846153843
 31
0
  0
LINE
  8
1
 62
1
 10
135.130217846793
 20
16
 30
0
 11
135.130217846793
 21
20.23076923076919
 31
0
  0
LINE
  8
1
 62
1
 10
135.230217846793
 20
16
 30
0
 11
135.230217846793
 21
20.99999999999996
 31
0
  0
LINE
  8
1
 62
1
 10
135.330217846793
 20
16
 30
0
 11
135.330217846793
 21
20.23076923076929
 31
0
  0
LINE
  8
1
 62
1
 10
135.430217846793
 20
16
 30
0
 11
135.430217846793
 21
19.4615384615385
 31
0
  0
LINE
  8
1
 62
1
 10
135.530217846793
 20
16
 30
0
 11
135.530217846793
 21
18.6923076923077
 31
0
  0
LINE
  8
1
 62
1
 10
135.630217846793
 20
16
 30
0
 11
135.630217846793
 21
17.92307692307691
 31
0
  0
LINE
  8
1
 62
1
 10
135.730217846793
 20
16
 30
0
 11
135.730217846793
 21
17.15384615384611
 31
0
  0
LINE
  8
1
 62
1
 10
135.830217846793
 20
16
 30
0
 11
135.830217846793
 21
16.38461538461532
 31
0
  0
ENDBLK
  8
0
  0
BLOCK
  8
1
  2
*X1
 70
1
 10
0
 20
0
 30
0
  0
LINE
  8
1
 62
1
 10
134.630217846793
 20
4.615384615384616
 30
0
 11
134.6302178467931
 21
5
 31
0
  0
LINE
  8
1
 62
1
 10
134.730217846793
 20
3.846153846153853
 30
0
 11
134.7302178467931
 21
5
 31
0
  0
LINE
  8
1
 62
1
 10
134.830217846793
 20
3.076923076923091
 30
0
 11
134.8302178467931
 21
5
 31
0
  0
LINE
  8
1
 62
1
 10
134.930217846793
 20
2.307692307692329
 30
0
 11
134.9302178467931
 21
5
 31
0
  0
LINE
  8
1
 62
1
 10
135.030217846793
 20
1.538461538461567
 30
0
 11
135.0302178467931
 21
5
 31
0
  0
LINE
  8
1
 62
1
 10
135.130217846793
 20
0.7692307692308048
 30
0
 11
135.130217846793
 21
5
 31
0
  0
LINE
  8
1
 62
1
 10
135.230217846793
 20
4.263256414560601e-14
 30
0
 11
135.230217846793
 21
5
 31
0
  0
LINE
  8
1
 62
1
 10
135.330217846793
 20
0.7692307692307009
 30
0
 11
135.330217846793
 21
5
 31
0
  0
LINE
  8
1
 62
1
 10
135.430217846793
 20
1.538461538461497
 30
0
 11
135.430217846793
 21
5
 31
0
  0
LINE
  8
1
 62
1
 10
135.530217846793
 20
2.307692307692294
 30
0
 11
135.530217846793
 21
5
 31
0
  0
LINE
  8
1
 62
1
 10
135.630217846793
 20
3.076923076923091
 30
0
 11
135.630217846793
 21
5
 31
0
  0
LINE
  8
1
 62
1
 10
135.730217846793
 20
3.846153846153888
 30
0
 11
135.730217846793
 21
5
 31
0
  0
LINE
  8
1
 62
1
 10
135.830217846793
 20
4.615384615384684
 30
0
 11
135.830217846793
 21
5
 31
0
  0
ENDBLK
  8
0
  0
BLOCK
  8
1
  2
*X2
 70
1
 10
0
 20
0
 30
0
  0
LINE
  8
1
 62
1
 10
134.6302178467931
 20
95
 30
0
 11
134.630217846793
 21
95.3846153846154
 31
0
  0
LINE
  8
1
 62
1
 10
134.7302178467931
 20
95
 30
0
 11
134.730217846793
 21
96.15384615384616
 31
0
  0
LINE
  8
1
 62
1
 10
134.8302178467931
 20
95
 30
0
 11
134.830217846793
 21
96.92307692307692
 31
0
  0
LINE
  8
1
 62
1
 10
134.9302178467931
 20
95
 30
0
 11
134.930217846793
 21
97.69230769230768
 31
0
  0
LINE
  8
1
 62
1
 10
135.0302178467931
 20
95
 30
0
 11
135.030217846793
 21
98.46153846153844
 31
0
  0
LINE
  8
1
 62
1
 10
135.130217846793
 20
95
 30
0
 11
135.130217846793
 21
99.2307692307692
 31
0
  0
LINE
  8
1
 62
1
 10
135.230217846793
 20
95
 30
0
 11
135.230217846793
 21
99.99999999999996
 31
0
  0
LINE
  8
1
 62
1
 10
135.330217846793
 20
95
 30
0
 11
135.330217846793
 21
99.23076923076933
 31
0
  0
LINE
  8
1
 62
1
 10
135.430217846793
 20
95
 30
0
 11
135.430217846793
 21
98.46153846153852
 31
0
  0
LINE
  8
1
 62
1
 10
135.530217846793
 20
95
 30
0
 11
135.530217846793
 21
97.69230769230772
 31
0
  0
LINE
  8
1
 62
1
 10
135.630217846793
 20
95
 30
0
 11
135.630217846793
 21
96.92307692307692
 31
0
  0
LINE
  8
1
 62
1
 10
135.730217846793
 20
95
 30
0
 11
135.730217846793
 21
96.15384615384612
 31
0
  0
LINE
  8
1
 62
1
 10
135.830217846793
 20
95
 30
0
 11
135.830217846793
 21
95.38461538461532
 31
0
  0
ENDBLK
  8
0
  0
BLOCK
  8
1
  2
*X3
 70
1
 10
0
 20
0
 30
0
  0
LINE
  8
1
 62
1
 10
134.630217846793
 20
25.61538461538462
 30
0
 11
134.6302178467931
 21
26
 31
0
  0
LINE
  8
1
 62
1
 10
134.730217846793
 20
24.84615384615386
 30
0
 11
134.7302178467931
 21
26
 31
0
  0
LINE
  8
1
 62
1
 10
134.830217846793
 20
24.07692307692309
 30
0
 11
134.8302178467931
 21
26
 31
0
  0
LINE
  8
1
 62
1
 10
134.930217846793
 20
23.30769230769233
 30
0
 11
134.9302178467931
 21
26
 31
0
  0
LINE
  8
1
 62
1
 10
135.030217846793
 20
22.53846153846157
 30
0
 11
135.0302178467931
 21
26
 31
0
  0
LINE
  8
1
 62
1
 10
135.130217846793
 20
21.76923076923081
 30
0
 11
135.130217846793
 21
26
 31
0
  0
LINE
  8
1
 62
1
 10
135.230217846793
 20
21.00000000000004
 30
0
 11
135.230217846793
 21
26
 31
0
  0
LINE
  8
1
 62
1
 10
135.330217846793
 20
21.76923076923071
 30
0
 11
135.330217846793
 21
26
 31
0
  0
LINE
  8
1
 62
1
 10
135.430217846793
 20
22.5384615384615
 30
0
 11
135.430217846793
 21
26
 31
0
  0
LINE
  8
1
 62
1
 10
135.530217846793
 20
23.3076923076923
 30
0
 11
135.530217846793
 21
26
 31
0
  0
LINE
  8
1
 62
1
 10
135.630217846793
 20
24.07692307692309
 30
0
 11
135.630217846793
 21
26
 31
0
  0
LINE
  8
1
 62
1
 10
135.730217846793
 20
24.84615384615389
 30
0
 11
135.730217846793
 21
26
 31
0
  0
LINE
  8
1
 62
1
 10
135.830217846793
 20
25.61538461538468
 30
0
 11
135.830217846793
 21
26
 31
0
  0
ENDBLK
  8
0
  0
BLOCK
  8
1
  2
*D0
 70
1
 10
0
 20
0
 30
0
  0
LINE
  8
1
 62
1
 10
-43.15850956807621
 20
27
 30
0
 11
-43.15850956807621
 21
54
 31
0
  0
LINE
  8
1
 62
1
 10
-28
 20
54
 30
0
 11
-44.65850956807621
 21
54
 31
0
  0
LINE
  8
1
 62
1
 10
-28
 20
27
 30
0
 11
-44.65850956807621
 21
27
 31
0
  0
SOLID
  8
1
 62
1
 10
-43.15850956807621
 20
54
 30
0
 11
-42.50850956807621
 21
49
 31
0
 12
-43.8085095680762
 22
49
 32
0
 13
-43.8085095680762
 23
49
 33
0
  0
SOLID
  8
1
 62
1
 10
-43.15850956807621
 20
27
 30
0
 11
-43.8085095680762
 21
32
 31
0
 12
-42.50850956807621
 22
32
 32
0
 13
-42.50850956807621
 23
32
 33
0
  0
TEXT
  8
1
 62
7
 10
-45.0940153093299
 20
37.5070398234573
 30
0
 40
5
  1
27
 50
90
 41
0.88209
  0
ENDBLK
  8
0
  0
BLOCK
  8
1
  2
*D1
 70
1
 10
0
 20
0
 30
0
  0
LINE
  8
1
 62
1
 10
-43.15850956807621
 20
66
 30
0
 11
-43.15850956807621
 21
76
 31
0
  0
LINE
  8
1
 62
1
 10
-43.15850956807621
 20
54
 30
0
 11
-43.15850956807621
 21
44
 31
0
  0
LINE
  8
1
 62
1
 10
-43.15850956807621
 20
54
 30
0
 11
-43.15850956807621
 21
66
 31
0
  0
LINE
  8
1
 62
1
 10
-26.38083151964686
 20
66
 30
0
 11
-44.65850956807621
 21
66
 31
0
  0
LINE
  8
1
 62
1
 10
-28
 20
54
 30
0
 11
-44.65850956807621
 21
54
 31
0
  0
SOLID
  8
1
 62
1
 10
-43.15850956807621
 20
54
 30
0
 11
-42.50850956807621
 21
49
 31
0
 12
-43.8085095680762
 22
49
 32
0
 13
-43.8085095680762
 23
49
 33
0
  0
SOLID
  8
1
 62
1
 10
-43.15850956807621
 20
66
 30
0
 11
-43.8085095680762
 21
71
 31
0
 12
-42.50850956807621
 22
71
 32
0
 13
-42.50850956807621
 23
71
 33
0
  0
TEXT
  8
1
 62
7
 10
-45.0545373568719
 20
58.2482936413448
 30
0
 40
5
  1
12
 50
90
 41
0.88209
  0
ENDBLK
  8
0
  0
BLOCK
  8
1
  2
*D2
 70
1
 10
0
 20
0
 30
0
  0
LINE
  8
1
 62
1
 10
-43.15850956807621
 20
66
 30
0
 11
-43.15850956807621
 21
84
 31
0
  0
LINE
  8
1
 62
1
 10
-26.38083151964685
 20
84
 30
0
 11
-44.65850956807621
 21
84
 31
0
  0
LINE
  8
1
 62
1
 10
-26.38083151964686
 20
66
 30
0
 11
-44.65850956807621
 21
66
 31
0
  0
SOLID
  8
1
 62
1
 10
-43.15850956807621
 20
84
 30
0
 11
-42.50850956807621
 21
79
 31
0
 12
-43.8085095680762
 22
79
 32
0
 13
-43.8085095680762
 23
79
 33
0
  0
SOLID
  8
1
 62
1
 10
-43.15850956807621
 20
66
 30
0
 11
-43.8085095680762
 21
71
 31
0
 12
-42.50850956807621
 22
71
 32
0
 13
-42.50850956807621
 23
71
 33
0
  0
TEXT
  8
1
 62
7
 10
-44.983019888533
 20
72.69482224580931
 30
0
 40
5
  1
18
 50
90
 41
0.88209
  0
ENDBLK
  8
0
  0
BLOCK
  8
1
  2
*D3
 70
1
 10
0
 20
0
 30
0
  0
LINE
  8
1
 62
1
 10
-43.1585095680762
 20
84
 30
0
 11
-43.1585095680762
 21
100
 31
0
  0
LINE
  8
1
 62
1
 10
0
 20
100
 30
0
 11
-44.6585095680762
 21
100
 31
0
  0
LINE
  8
1
 62
1
 10
-26.38083151964685
 20
84
 30
0
 11
-44.6585095680762
 21
84
 31
0
  0
SOLID
  8
1
 62
1
 10
-43.1585095680762
 20
84
 30
0
 11
-43.8085095680762
 21
89
 31
0
 12
-42.5085095680762
 22
89
 32
0
 13
-42.5085095680762
 23
89
 33
0
  0
SOLID
  8
1
 62
1
 10
-43.1585095680762
 20
100
 30
0
 11
-42.5085095680762
 21
95
 31
0
 12
-43.8085095680762
 22
95
 32
0
 13
-43.8085095680762
 23
95
 33
0
  0
TEXT
  8
1
 62
7
 10
-45.1260548252109
 20
88.78625262206941
 30
0
 40
5
  1
16
 50
90
 41
0.88209
  0
ENDBLK
  8
0
  0
BLOCK
  8
1
  2
*D4
 70
1
 10
0
 20
0
 30
0
  0
LINE
  8
1
 62
1
 10
-43.15850956807621
 20
0
 30
0
 11
-43.15850956807621
 21
27
 31
0
  0
LINE
  8
1
 62
1
 10
-28
 20
27
 30
0
 11
-44.65850956807621
 21
27
 31
0
  0
LINE
  8
1
 62
1
 10
1.5
 20
0
 30
0
 11
-44.65850956807621
 21
0
 31
0
  0
SOLID
  8
1
 62
1
 10
-43.15850956807621
 20
0
 30
0
 11
-43.8085095680762
 21
5
 31
0
 12
-42.50850956807621
 22
5
 32
0
 13
-42.50850956807621
 23
5
 33
0
  0
SOLID
  8
1
 62
1
 10
-43.15850956807621
 20
27
 30
0
 11
-42.50850956807621
 21
22
 31
0
 12
-43.8085095680762
 22
22
 32
0
 13
-43.8085095680762
 23
22
 33
0
  0
TEXT
  8
1
 62
7
 10
-45.1854460922551
 20
11.7235590385564
 30
0
 40
5
  1
27
 50
90
 41
0.88209
  0
ENDBLK
  8
0
  0
BLOCK
  8
1
  2
*D5
 70
1
 10
0
 20
0
 30
0
  0
LINE
  8
1
 62
1
 10
147.306597345554
 20
0
 30
0
 11
147.306597345554
 21
100
 31
0
  0
LINE
  8
1
 62
1
 10
110
 20
100
 30
0
 11
148.806597345554
 21
100
 31
0
  0
LINE
  8
1
 62
1
 10
110
 20
0
 30
0
 11
148.806597345554
 21
0
 31
0
  0
SOLID
  8
1
 62
1
 10
147.306597345554
 20
100
 30
0
 11
147.956597345554
 21
95
 31
0
 12
146.656597345554
 22
95
 32
0
 13
146.656597345554
 23
95
 33
0
  0
SOLID
  8
1
 62
1
 10
147.306597345554
 20
0
 30
0
 11
146.656597345554
 21
5
 31
0
 12
147.956597345554
 22
5
 32
0
 13
147.956597345554
 23
5
 33
0
  0
TEXT
  8
1
 62
7
 10
145.91659379999
 20
44.4229042164446
 30
0
 40
5
  1
100
 50
90
 41
0.88209
  0
ENDBLK
  8
0
  0
BLOCK
  8
1
  2
*D6
 70
1
 10
0
 20
0
 30
0
  0
LINE
  8
1
 62
1
 10
127.59
 20
-74
 30
0
 11
127.59
 21
-52
 31
0
  0
LINE
  8
1
 62
1
 10
108.5
 20
-52
 30
0
 11
129.09
 21
-52
 31
0
  0
LINE
  8
1
 62
1
 10
108.5
 20
-74
 30
0
 11
129.09
 21
-74
 31
0
  0
SOLID
  8
1
 62
1
 10
127.59
 20
-74
 30
0
 11
126.94
 21
-69
 31
0
 12
128.24
 22
-69
 32
0
 13
128.24
 23
-69
 33
0
  0
SOLID
  8
1
 62
1
 10
127.59
 20
-52
 30
0
 11
128.24
 21
-57
 31
0
 12
126.94
 22
-57
 32
0
 13
126.94
 23
-57
 33
0
  0
TEXT
  8
1
 62
7
 10
126.521025540519
 20
-66.5326339714679
 30
0
 40
5
  1
22
 50
90
 41
0.88209
  0
ENDBLK
  8
0
  0
BLOCK
  8
1
  2
*D7
 70
1
 10
0
 20
0
 30
0
  0
LINE
  8
1
 62
1
 10
-42.9656650017323
 20
-60
 30
0
 11
-42.9656650017323
 21
-50
 31
0
  0
LINE
  8
1
 62
1
 10
-42.9656650017323
 20
-66
 30
0
 11
-42.9656650017323
 21
-76
 31
0
  0
LINE
  8
1
 62
1
 10
-42.9656650017323
 20
-66
 30
0
 11
-42.9656650017323
 21
-60
 31
0
  0
LINE
  8
1
 62
1
 10
-30
 20
-60
 30
0
 11
-44.4656650017323
 21
-60
 31
0
  0
LINE
  8
1
 62
1
 10
-29.99999999999999
 20
-66
 30
0
 11
-44.4656650017323
 21
-66
 31
0
  0
SOLID
  8
1
 62
1
 10
-42.9656650017323
 20
-66
 30
0
 11
-42.31566500173231
 21
-71
 31
0
 12
-43.6156650017323
 22
-71
 32
0
 13
-43.6156650017323
 23
-71
 33
0
  0
SOLID
  8
1
 62
1
 10
-42.9656650017323
 20
-60
 30
0
 11
-43.6156650017323
 21
-55
 31
0
 12
-42.31566500173231
 22
-55
 32
0
 13
-42.31566500173231
 23
-55
 33
0
  0
TEXT
  8
1
 62
7
 10
-43.9059599314349
 20
-64.4610829140388
 30
0
 40
5
  1
6
 50
90
 41
0.88209
  0
ENDBLK
  8
0
  0
BLOCK
  8
1
  2
*D8
 70
1
 10
0
 20
0
 30
0
  0
LINE
  8
1
 62
1
 10
-58.2744959755675
 20
-59
 30
0
 11
-58.2744959755675
 21
-49
 31
0
  0
LINE
  8
1
 62
1
 10
-58.2744959755675
 20
-67
 30
0
 11
-58.2744959755675
 21
-77
 31
0
  0
LINE
  8
1
 62
1
 10
-58.2744959755675
 20
-67
 30
0
 11
-58.2744959755675
 21
-59
 31
0
  0
LINE
  8
1
 62
1
 10
-28
 20
-59
 30
0
 11
-59.7744959755675
 21
-59
 31
0
  0
LINE
  8
1
 62
1
 10
-28
 20
-67
 30
0
 11
-59.7744959755675
 21
-67
 31
0
  0
SOLID
  8
1
 62
1
 10
-58.2744959755675
 20
-59
 30
0
 11
-58.9244959755675
 21
-54
 31
0
 12
-57.6244959755675
 22
-54
 32
0
 13
-57.6244959755675
 23
-54
 33
0
  0
SOLID
  8
1
 62
1
 10
-58.2744959755675
 20
-67
 30
0
 11
-57.6244959755675
 21
-72
 31
0
 12
-58.9244959755675
 22
-72
 32
0
 13
-58.9244959755675
 23
-72
 33
0
  0
TEXT
  8
1
 62
7
 10
-59.1447893845189
 20
-64.51455249106711
 30
0
 40
5
  1
8
 50
90
 41
0.88209
  0
ENDBLK
  8
0
  0
BLOCK
  8
1
  2
*D9
 70
1
 10
0
 20
0
 30
0
  0
LINE
  8
1
 62
1
 10
-29.99999999999999
 20
91.73320700433999
 30
0
 11
0
 21
91.73320700433999
 31
0
  0
LINE
  8
1
 62
1
 10
0
 20
100
 30
0
 11
0
 21
90.23320700433999
 31
0
  0
LINE
  8
1
 62
1
 10
-29.99999999999999
 20
75
 30
0
 11
-29.99999999999999
 21
93.23320700433999
 31
0
  0
SOLID
  8
1
 62
1
 10
0
 20
91.73320700433999
 30
0
 11
-5
 21
91.08320700433998
 31
0
 12
-5
 22
92.38320700433999
 32
0
 13
-5
 23
92.38320700433999
 33
0
  0
SOLID
  8
1
 62
1
 10
-29.99999999999999
 20
91.73320700433999
 30
0
 11
-24.99999999999999
 21
92.38320700433999
 31
0
 12
-24.99999999999999
 22
91.08320700433998
 32
0
 13
-24.99999999999999
 23
91.08320700433998
 33
0
  0
TEXT
  8
1
 62
7
 10
-18.0984655693271
 20
93.5802660768381
 30
0
 40
5
  1
30
 41
0.88209
  0
ENDBLK
  8
0
  0
BLOCK
  8
1
  2
*D10
 70
1
 10
0
 20
0
 30
0
  0
LINE
  8
1
 62
1
 10
-28
 20
14.10966006556901
 30
0
 11
0
 21
14.10966006556901
 31
0
  0
LINE
  8
1
 62
1
 10
0
 20
0
 30
0
 11
0
 21
15.60966006556901
 31
0
  0
LINE
  8
1
 62
1
 10
-28
 20
27
 30
0
 11
-28
 21
12.60966006556901
 31
0
  0
SOLID
  8
1
 62
1
 10
-28
 20
14.10966006556901
 30
0
 11
-23
 21
14.75966006556901
 31
0
 12
-23
 22
13.45966006556901
 32
0
 13
-23
 23
13.45966006556901
 33
0
  0
SOLID
  8
1
 62
1
 10
0
 20
14.10966006556901
 30
0
 11
-5
 21
13.45966006556901
 31
0
 12
-5
 22
14.75966006556901
 32
0
 13
-5
 23
14.75966006556901
 33
0
  0
TEXT
  8
1
 62
7
 10
-21.3896679757886
 20
16.0990114409377
 30
0
 40
5
  1
2x14
 41
0.88209
  0
ENDBLK
  8
0
  0
BLOCK
  8
1
  2
*D11
 70
1
 10
0
 20
0
 30
0
  0
LINE
  8
1
 62
1
 10
0
 20
-17.59
 30
0
 11
65
 21
-17.59
 31
0
  0
LINE
  8
1
 62
1
 10
65
 20
2.83940365769001
 30
0
 11
65
 21
-17.59
 31
0
  0
LINE
  8
1
 62
1
 10
0
 20
0
 30
0
 11
0
 21
-17.59
 31
0
  0
SOLID
  8
1
 62
1
 10
0
 20
-17.59
 30
0
 11
5.000000000000001
 21
-16.94
 31
0
 12
5.000000000000001
 22
-18.24
 32
0
 13
5.000000000000001
 23
-18.24
 33
0
  0
SOLID
  8
1
 62
1
 10
65
 20
-17.59
 30
0
 11
60
 21
-18.24
 31
0
 12
60
 22
-16.94
 32
0
 13
60
 23
-16.94
 33
0
  0
TEXT
  8
1
 62
7
 10
27.66177069681069
 20
-15.52019786182341
 30
0
 40
5
  1
65
 41
0.88209
  0
ENDBLK
  8
0
  0
BLOCK
  8
1
  2
*D12
 70
1
 10
0
 20
0
 30
0
  0
LINE
  8
1
 62
1
 10
0
 20
-32.59
 30
0
 11
110
 21
-32.59
 31
0
  0
LINE
  8
1
 62
1
 10
110
 20
0
 30
0
 11
110
 21
-34.09
 31
0
  0
LINE
  8
1
 62
1
 10
0
 20
0
 30
0
 11
0
 21
-34.09
 31
0
  0
SOLID
  8
1
 62
1
 10
110
 20
-32.59
 30
0
 11
105
 21
-33.24
 31
0
 12
105
 22
-31.94
 32
0
 13
105
 23
-31.94
 33
0
  0
SOLID
  8
1
 62
1
 10
0
 20
-32.59
 30
0
 11
5.000000000000001
 21
-31.94
 31
0
 12
5.000000000000001
 22
-33.24
 32
0
 13
5.000000000000001
 23
-33.24
 33
0
  0
TEXT
  8
1
 62
7
 10
50.3344965599467
 20
-30.5084155815334
 30
0
 40
5
  1
110
 41
0.88209
  0
ENDBLK
  8
0
  0
BLOCK
  8
1
  2
*D13
 70
1
 10
0
 20
0
 30
0
  0
LINE
  8
1
 62
1
 10
69
 20
53.24220373382801
 30
0
 11
79
 21
53.24220373382801
 31
0
  0
LINE
  8
1
 62
1
 10
61
 20
53.24220373382801
 30
0
 11
50.99999999999999
 21
53.24220373382801
 31
0
  0
LINE
  8
1
 62
1
 10
61
 20
53.24220373382801
 30
0
 11
69
 21
53.24220373382801
 31
0
  0
LINE
  8
1
 62
1
 10
69
 20
72
 30
0
 11
69
 21
51.74220373382801
 31
0
  0
LINE
  8
1
 62
1
 10
61
 20
72
 30
0
 11
61
 21
51.74220373382801
 31
0
  0
SOLID
  8
1
 62
1
 10
61
 20
53.24220373382801
 30
0
 11
56
 21
52.59220373382801
 31
0
 12
56
 22
53.89220373382801
 32
0
 13
56
 23
53.89220373382801
 33
0
  0
SOLID
  8
1
 62
1
 10
69
 20
53.24220373382801
 30
0
 11
74
 21
53.89220373382801
 31
0
 12
74
 22
52.59220373382801
 32
0
 13
74
 23
52.59220373382801
 33
0
  0
TEXT
  8
1
 62
7
 10
63.56174580969701
 20
54.556283160954
 30
0
 40
5
  1
8
 41
0.88209
  0
ENDBLK
  8
0
  0
ENDSEC
  0
SECTION
  2
ENTITIES
  0
INSERT
  8
1
  2
*X0
 10
0
 20
0
 30
0
  0
INSERT
  8
1
  2
*X1
 10
0
 20
0
 30
0
  0
INSERT
  8
1
  2
*X2
 10
0
 20
0
 30
0
  0
INSERT
  8
1
  2
*X3
 10
0
 20
0
 30
0
  0
LINE
  8
1
 62
1
 10
110
 20
100
 30
0
 11
136.730217846793
 21
100
 31
0
  0
LINE
  8
1
 62
1
 10
90.14569392281101
 20
21
 30
0
 11
136.730217846793
 21
21
 31
0
  0
LINE
  8
1
 62
1
 10
135.230217846793
 20
21
 30
0
 11
135.230217846793
 21
100
 31
0
  0
LINE
  8
1
 62
1
 10
90.14569392281101
 20
21
 30
0
 11
136.730217846793
 21
21
 31
0
  0
LINE
  8
1
 62
1
 10
110
 20
0
 30
0
 11
136.730217846793
 21
0
 31
0
  0
LINE
  8
1
 62
1
 10
135.230217846793
 20
0
 30
0
 11
135.230217846793
 21
21
 31
0
  0
LINE
  8
1
 62
7
 10
-26.38083151964685
 20
-66
 30
0
 11
-26.38083151964685
 21
-60
 31
0
  0
LINE
  8
1
 62
7
 10
-26.38083151964686
 20
66
 30
0
 11
0
 21
66
 31
0
  0
LINE
  8
3
 62
7
 10
68.72961123979431
 20
4.799999999999983
 30
0
 11
73.30000000000001
 21
4.799999999999983
 31
0
  0
LINE
  8
1
 62
7
 10
68.80000000000001
 20
4.85672529350245
 30
0
 11
68.80000000000001
 21
6.09999999999998
 31
0
  0
LINE
  8
1
 62
7
 10
68.30000000000001
 20
6.59999999999998
 30
0
 11
65.5
 21
6.59999999999998
 31
0
  0
LINE
  8
1
 62
7
 10
68.37821723252009
 20
9.233196172434205
 30
0
 11
65.4217827674799
 21
8.764942954332597
 31
0
  0
LINE
  8
1
 62
7
 10
68.36093467170261
 20
11.0539104435427
 30
0
 11
65.4390653282974
 21
11.4126708878883
 31
0
  0
LINE
  8
1
 62
7
 10
68.33487823687199
 20
13.5674755179389
 30
0
 11
65.4651217631279
 21
13.3668025966757
 31
0
  0
LINE
  8
1
 62
7
 10
68.36958655048011
 20
15.6604906654627
 30
0
 11
67.23041344952
 21
15.8205910039421
 31
0
  0
LINE
  8
1
 62
7
 10
61.63041344951991
 20
15.6604906654627
 30
0
 11
62.76958655048
 21
15.8205910039421
 31
0
  0
LINE
  8
1
 62
7
 10
61.2
 20
15.1653566310919
 30
0
 11
61.2
 21
4.85672529350245
 31
0
  0
LINE
  8
1
 62
7
 10
65
 20
8.271098784035004
 30
0
 11
65
 21
7.09999999999998
 31
0
  0
LINE
  8
1
 62
7
 10
65
 20
12.8680205715458
 30
0
 11
65
 21
11.90894396370901
 31
0
  0
LINE
  8
1
 62
7
 10
68.80000000000001
 20
9.727040342731698
 30
0
 11
68.80000000000001
 21
10.55763736772199
 31
0
  0
LINE
  8
1
 62
7
 10
68.80000000000001
 20
14.0662575430688
 30
0
 11
68.80000000000001
 21
15.1653566310919
 31
0
  0
LINE
  8
1
 62
7
 10
66.8
 20
16.31572503831291
 30
0
 11
66.8
 21
17.366819575083
 31
0
  0
LINE
  8
1
 62
7
 10
63.2
 20
16.31572503831291
 30
0
 11
63.2
 21
17.366819575083
 31
0
  0
LINE
  8
3
 62
2
  6
PHANTOM
 10
65
 20
2.839403657690013
 30
0
 11
65
 21
26.16059634231
 31
0
  0
LINE
  8
3
 62
2
  6
PHANTOM
 10
59.83940365769
 20
21
 30
0
 11
70.16059634230999
 21
21
 31
0
  0
LINE
  8
3
 62
7
 10
81
 20
19
 30
0
 11
81
 21
23
 31
0
  0
LINE
  8
3
 62
7
 10
84.5
 20
19
 30
0
 11
81
 21
19
 31
0
  0
LINE
  8
3
 62
7
 10
84.5
 20
23
 30
0
 11
84.5
 21
19
 31
0
  0
LINE
  8
3
 62
7
 10
81
 20
23
 30
0
 11
84.5
 21
23
 31
0
  0
LINE
  8
3
 62
7
 10
45.5
 20
19
 30
0
 11
45.5
 21
23
 31
0
  0
LINE
  8
3
 62
7
 10
49
 20
19
 30
0
 11
45.5
 21
19
 31
0
  0
LINE
  8
3
 62
7
 10
49
 20
23
 30
0
 11
49
 21
19
 31
0
  0
LINE
  8
3
 62
7
 10
45.5
 20
23
 30
0
 11
49
 21
23
 31
0
  0
LINE
  8
3
 62
7
 10
23.90000000000001
 20
-62.90000000000001
 30
0
 11
108.5
 21
-62.90000000000001
 31
0
  0
LINE
  8
3
 62
7
 10
23.90000000000001
 20
-64.40000000000001
 30
0
 11
23.90000000000001
 21
-62.90000000000001
 31
0
  0
LINE
  8
3
 62
7
 10
9.900000000000006
 20
-64.40000000000001
 30
0
 11
23.90000000000001
 21
-64.40000000000001
 31
0
  0
LINE
  8
3
 62
7
 10
9.900000000000006
 20
-62.90000000000001
 30
0
 11
9.900000000000006
 21
-64.40000000000001
 31
0
  0
LINE
  8
3
 62
7
 10
1.5
 20
-62.90000000000001
 30
0
 11
9.900000000000006
 21
-62.90000000000001
 31
0
  0
LINE
  8
3
 62
7
 10
108.5
 20
-64.40000000000001
 30
0
 11
108.5
 21
-53.5
 31
0
  0
LINE
  8
3
 62
7
 10
110
 20
-62.90000000000001
 30
0
 11
108.5
 21
-62.90000000000001
 31
0
  0
LINE
  8
3
 62
7
 10
110
 20
-53.5
 30
0
 11
110
 21
-64.40000000000001
 31
0
  0
LINE
  8
3
 62
7
 10
1.5
 20
-52
 30
0
 11
108.5
 21
-52
 31
0
  0
LINE
  8
3
 62
7
 10
0
 20
-74
 30
0
 11
0
 21
-53.5
 31
0
  0
LINE
  8
3
 62
7
 10
1.5
 20
-74
 30
0
 11
0
 21
-74
 31
0
  0
LINE
  8
3
 62
7
 10
1.5
 20
-53.5
 30
0
 11
1.5
 21
-74
 31
0
  0
LINE
  8
3
 62
7
 10
0
 20
0
 30
0
 11
108.5
 21
0
 31
0
  0
LINE
  8
3
 62
7
 10
0
 20
100
 30
0
 11
0
 21
0
 31
0
  0
LINE
  8
3
 62
7
 10
110
 20
0
 30
0
 11
110
 21
100
 31
0
  0
LINE
  8
3
 62
7
 10
108.5
 20
0
 30
0
 11
110
 21
0
 31
0
  0
LINE
  8
3
 62
7
 10
0
 20
100
 30
0
 11
110
 21
100
 31
0
  0
LINE
  8
3
 62
7
 10
55.5
 20
34.65000000000001
 30
0
 11
74.5
 21
34.65000000000001
 31
0
  0
LINE
  8
3
 62
7
 10
56.7
 20
4.799999999999983
 30
0
 11
61.27038876020571
 21
4.799999999999983
 31
0
  0
LINE
  8
3
 62
7
 10
74.5
 20
6.198564258829123
 30
0
 11
74.5
 21
6
 31
0
  0
LINE
  8
3
 62
7
 10
55.5
 20
6.198564258829663
 30
0
 11
55.5
 21
6
 31
0
  0
LINE
  8
3
 62
3
  6
DASHED
 10
58.65000000000001
 20
9.150000000000006
 30
0
 11
58.65000000000001
 21
9.299999999999997
 31
0
  0
LINE
  8
3
 62
2
  6
PHANTOM
 10
39.97828263093899
 20
21
 30
0
 11
59.83940365769
 21
21
 31
0
  0
LINE
  8
3
 62
2
  6
PHANTOM
 10
70.16059634230999
 20
21
 30
0
 11
90.14569392281101
 21
21
 31
0
  0
LINE
  8
1
 62
2
  6
PHANTOM
 10
21.69029114419
 20
20.2
 30
0
 11
33.30970885581
 21
20.2
 31
0
  0
LINE
  8
1
 62
2
  6
PHANTOM
 10
27.5
 20
14.39029114419
 30
0
 11
27.5
 21
26.00970885581
 31
0
  0
LINE
  8
1
 62
2
  6
PHANTOM
 10
96.49099051485501
 20
8.400000000000006
 30
0
 11
108.509009485145
 21
8.400000000000006
 31
0
  0
LINE
  8
1
 62
2
  6
PHANTOM
 10
102.5
 20
2.390990514855019
 30
0
 11
102.5
 21
14.40900948514501
 31
0
  0
LINE
  8
1
 62
2
  6
PHANTOM
 10
97.00007089481099
 20
91.80000000000001
 30
0
 11
107.999929105189
 21
91.80000000000001
 31
0
  0
LINE
  8
1
 62
2
  6
PHANTOM
 10
102.5
 20
86.300070894811
 30
0
 11
102.5
 21
97.29992910518899
 31
0
  0
LINE
  8
1
 62
2
  6
PHANTOM
 10
21.65234478397301
 20
91.80000000000001
 30
0
 11
33.34765521602699
 21
91.80000000000001
 31
0
  0
LINE
  8
1
 62
2
  6
PHANTOM
 10
27.5
 20
85.95234478397299
 30
0
 11
27.5
 21
97.647655216027
 31
0
  0
LINE
  8
1
 62
7
 10
0
 20
84
 30
0
 11
-26.38083151964685
 21
84
 31
0
  0
LINE
  8
1
 62
7
 10
-30
 20
-60
 30
0
 11
-29.99999999999999
 21
-66
 31
0
  0
LINE
  8
1
 62
7
 10
-30
 20
-60
 30
0
 11
0
 21
-60
 31
0
  0
LINE
  8
1
 62
7
 10
0
 20
-66
 30
0
 11
-29.99999999999999
 21
-66
 31
0
  0
LINE
  8
1
 62
3
  6
PHANTOM
 10
0
 20
27
 30
0
 11
-28
 21
27
 31
0
  0
LINE
  8
1
 62
3
  6
PHANTOM
 10
-28
 20
27
 30
0
 11
-28
 21
54
 31
0
  0
LINE
  8
1
 62
3
  6
PHANTOM
 10
-28
 20
54
 30
0
 11
0
 21
54
 31
0
  0
LINE
  8
1
 62
3
  6
PHANTOM
 10
-14
 20
27
 30
0
 11
-14
 21
54
 31
0
  0
LINE
  8
1
 62
3
  6
PHANTOM
 10
0
 20
-67
 30
0
 11
-28
 21
-67
 31
0
  0
LINE
  8
1
 62
3
  6
PHANTOM
 10
-28
 20
-67
 30
0
 11
-28
 21
-59
 31
0
  0
LINE
  8
1
 62
3
  6
PHANTOM
 10
-28
 20
-59
 30
0
 11
0
 21
-59
 31
0
  0
LINE
  8
1
 62
7
 10
1.5
 20
0
 30
0
 11
1.5
 21
100
 31
0
  0
LINE
  8
1
 62
7
 10
1.5
 20
-74
 30
0
 11
108.5
 21
-74
 31
0
  0
LINE
  8
1
 62
7
 10
110
 20
-72.5
 30
0
 11
110
 21
-64.40000000000001
 31
0
  0
LINE
  8
1
 62
7
 10
108.5
 20
-64.40000000000001
 30
0
 11
108.5
 21
-72
 31
0
  0
LINE
  8
1
 62
7
 10
43
 20
0
 30
0
 11
40
 21
0
 31
0
  0
LINE
  8
1
 62
7
 10
61
 20
72
 30
0
 11
69
 21
72
 31
0
  0
LINE
  8
1
 62
7
 10
69
 20
72
 30
0
 11
69
 21
80
 31
0
  0
LINE
  8
1
 62
7
 10
69
 20
80
 30
0
 11
61
 21
80
 31
0
  0
LINE
  8
1
 62
7
 10
61
 20
80
 30
0
 11
61
 21
72
 31
0
  0
LINE
  8
1
 62
2
  6
PHANTOM
 10
50.053863755286
 20
76
 30
0
 11
79.94613624471401
 21
76
 31
0
  0
LINE
  8
1
 62
2
  6
PHANTOM
 10
65
 20
61.05386375528599
 30
0
 11
65
 21
90.94613624471401
 31
0
  0
LINE
  8
1
 62
3
  6
PHANTOM
 10
-14
 20
-67
 30
0
 11
-14
 21
-59
 31
0
  0
ARC
  8
1
 62
7
 10
-17
 20
75
 30
0
 40
12.99999999999999
 50
136.1869385395968
 51
180
  0
ARC
  8
1
 62
7
 10
-17
 20
75
 30
0
 40
12.99999999999999
 50
180
 51
223.8130614604032
  0
ARC
  8
1
 62
7
 10
65
 20
21
 30
0
 40
3.800000000000039
 50
302.3360259975577
 51
237.6639740024423
  0
ARC
  8
1
 62
7
 10
65
 20
9.5
 30
0
 40
5.99999999999999
 50
230.7035197608125
 51
309.2964802391876
  0
ARC
  8
3
 62
7
 10
55.5
 20
21
 30
0
 40
13.65000000000001
 50
90
 51
265.3649842544231
  0
ARC
  8
3
 62
7
 10
74.5
 20
21
 30
0
 40
13.65000000000034
 50
274.6350157455768
 51
90
  0
ARC
  8
1
 62
7
 10
62.7
 20
17.366819575083
 30
0
 40
0.5
 50
0
 51
57.66397400244239
  0
ARC
  8
1
 62
7
 10
62.7
 20
16.31572503831291
 30
0
 40
0.5000000000000183
 50
277.9999999999956
 51
0
  0
ARC
  8
1
 62
7
 10
61.7
 20
15.1653566310919
 30
0
 40
0.5000000000000233
 50
98.00000000000698
 51
180
  0
ARC
  8
1
 62
7
 10
67.3
 20
17.366819575083
 30
0
 40
0.4999999999999682
 50
122.3360259975576
 51
180
  0
ARC
  8
1
 62
7
 10
67.3
 20
16.31572503831291
 30
0
 40
0.5
 50
180
 51
262.0000000000045
  0
ARC
  8
1
 62
7
 10
68.30000000000001
 20
15.1653566310919
 30
0
 40
0.5
 50
0
 51
81.99999999999301
  0
ARC
  8
1
 62
7
 10
68.30000000000001
 20
14.0662575430688
 30
0
 40
0.499999999999982
 50
273.9999999999901
 51
0
  0
ARC
  8
1
 62
7
 10
65.5
 20
12.8680205715458
 30
0
 40
0.499999999999991
 50
94.00000000000473
 51
180
  0
ARC
  8
1
 62
7
 10
65.5
 20
11.90894396370901
 30
0
 40
0.5
 50
180
 51
262.9999999999981
  0
ARC
  8
1
 62
7
 10
68.30000000000001
 20
10.55763736772199
 30
0
 40
0.5
 50
0
 51
82.99999999999804
  0
ARC
  8
1
 62
7
 10
68.30000000000001
 20
9.727040342731698
 30
0
 40
0.4999999999999185
 50
278.9999999999968
 51
0
  0
ARC
  8
1
 62
7
 10
65.5
 20
8.271098784035004
 30
0
 40
0.5000000000000211
 50
98.9999999999982
 51
180
  0
ARC
  8
1
 62
7
 10
65.5
 20
7.09999999999998
 30
0
 40
0.5
 50
180
 51
270
  0
ARC
  8
1
 62
7
 10
68.30000000000001
 20
6.09999999999998
 30
0
 40
0.5
 50
0
 51
90
  0
ARC
  8
3
 62
7
 10
54.3
 20
6.198564258829663
 30
0
 40
1.200000000000003
 50
0
 51
85.36498425442217
  0
ARC
  8
3
 62
7
 10
56.7
 20
6
 30
0
 40
1.200000000000003
 50
180
 51
270
  0
ARC
  8
3
 62
7
 10
75.69999999999999
 20
6.198564258829123
 30
0
 40
1.200000000000014
 50
94.63501574557678
 51
180
  0
ARC
  8
3
 62
7
 10
73.30000000000001
 20
6
 30
0
 40
1.200000000000017
 50
270
 51
0
  0
ARC
  8
3
 62
7
 10
1.5
 20
-53.5
 30
0
 40
1.5
 50
90
 51
180
  0
ARC
  8
3
 62
7
 10
108.5
 20
-53.5
 30
0
 40
1.5
 50
0
 51
90
  0
ARC
  8
1
 62
7
 10
108.5
 20
-72.5
 30
0
 40
1.5
 50
270
 51
0
  0
CIRCLE
  8
1
 62
7
 10
65
 20
76
 30
0
 40
7.5
  0
CIRCLE
  8
3
 62
7
 10
27.5
 20
20.2
 30
0
 40
5.200000000000003
  0
CIRCLE
  8
3
 62
7
 10
102.5
 20
8.400000000000006
 30
0
 40
5.200000000000003
  0
CIRCLE
  8
3
 62
7
 10
102.5
 20
91.80000000000001
 30
0
 40
5.200000000000003
  0
CIRCLE
  8
3
 62
7
 10
102.5
 20
8.400000000000006
 30
0
 40
2.400000000000006
  0
CIRCLE
  8
3
 62
7
 10
27.5
 20
20.2
 30
0
 40
2.400000000000009
  0
CIRCLE
  8
3
 62
7
 10
102.5
 20
91.80000000000001
 30
0
 40
2.400000000000006
  0
CIRCLE
  8
3
 62
7
 10
27.5
 20
91.80000000000001
 30
0
 40
5.200000000000003
  0
CIRCLE
  8
3
 62
7
 10
65
 20
76
 30
0
 40
13.80000000000001
  0
CIRCLE
  8
3
 62
7
 10
27.5
 20
91.80000000000001
 30
0
 40
2.400000000000009
  0
TEXT
  8
1
 62
3
 10
133.230217846793
 20
60.49875
 30
0
 40
0.1
  1
.
 50
90
 41
0.8910000000000001
  0
TEXT
  8
1
 62
3
 10
133.230217846793
 20
10.49875
 30
0
 40
0.1
  1
.
 50
90
 41
0.8910000000000001
  0
TEXT
  8
1
 62
7
 10
8.367349942337398
 20
121.8247779843855
 30
0
 40
6
  1
2003G.BB_RZ_PZ.DM65
 41
0.8732691000000001
  0
TEXT
  8
1
 62
7
 10
116.796592157328
 20
3.841090246856979
 30
0
 40
5
  1
21
 50
90
 41
0.88209
  0
TEXT
  8
1
 62
7
 10
124.796592157328
 20
3.841090246856979
 30
0
 40
5
  1
25,7
 50
90
 41
0.88209
  0
TEXT
  8
1
 62
7
 10
132.796592157328
 20
3.841090246856979
 30
0
 40
5
  1
27,7
 50
90
 41
0.88209
  0
TEXT
  8
1
 62
7
 10
132.796592157328
 20
38.18935634307519
 30
0
 40
5
  1
3=48,3
 50
90
 41
0.88209
  0
TEXT
  8
1
 62
7
 10
124.796592157328
 20
38.18935634307519
 30
0
 40
5
  1
2=50,3
 50
90
 41
0.88209
  0
TEXT
  8
1
 62
7
 10
116.796592157328
 20
38.18935634307519
 30
0
 40
5
  1
1=55
 50
90
 41
0.88209
  0
DIMENSION
  8
1
  6
CONTINUOUS
 62
1
  2
*D0
  3
DMST_1
 10
-43.15850956807621
 20
54
 30
0
 11
-47.5940153093299
 21
41.1824148234573
 31
0
 12
0
 22
0
 32
0
 70
0
 13
-28
 23
27
 33
0
 14
-28
 24
54
 34
0
 50
90
 53
0
  0
DIMENSION
  8
1
  6
CONTINUOUS
 62
1
  2
*D1
  3
DMST_1
 10
-43.15850956807621
 20
66
 30
0
 11
-47.5545373568719
 21
61.1885936413448
 31
0
 12
0
 22
0
 32
0
 70
0
 13
-28
 23
54
 33
0
 14
-26.38083151964686
 24
66
 34
0
 50
90
 53
0
  0
DIMENSION
  8
1
  6
CONTINUOUS
 62
1
  2
*D2
  3
DMST_1
 10
-43.15850956807621
 20
84
 30
0
 11
-47.483019888533
 21
75.6351222458093
 31
0
 12
0
 22
0
 32
0
 70
0
 13
-26.38083151964686
 23
66
 33
0
 14
-26.38083151964685
 24
84
 34
0
 50
90
 53
0
  0
DIMENSION
  8
1
  6
CONTINUOUS
 62
1
  2
*D3
  3
DMST_1
 10
-43.1585095680762
 20
84
 30
0
 11
-47.6260548252109
 21
91.72655262206941
 31
0
 12
0
 22
0
 32
0
 70
0
 13
0
 23
100
 33
0
 14
-26.38083151964685
 24
84
 34
0
 50
90
 53
0
  0
DIMENSION
  8
1
  6
CONTINUOUS
 62
1
  2
*D4
  3
DMST_1
 10
-43.15850956807621
 20
27
 30
0
 11
-47.6854460922551
 21
15.3989340385564
 31
0
 12
0
 22
0
 32
0
 70
0
 13
1.5
 23
0
 33
0
 14
-28
 24
27
 34
0
 50
90
 53
0
  0
DIMENSION
  8
1
  6
CONTINUOUS
 62
1
  2
*D5
  3
DMST_1
 10
147.306597345554
 20
0
 30
0
 11
143.41659379999
 21
49.5684292164446
 31
0
 12
0
 22
0
 32
0
 70
0
 13
110
 23
100
 33
0
 14
110
 24
0
 34
0
 50
90
 53
0
  0
DIMENSION
  8
1
  6
CONTINUOUS
 62
1
  2
*D6
  3
DMST_1
 10
127.59
 20
-52
 30
0
 11
124.021025540519
 21
-62.8572589714679
 31
0
 12
0
 22
0
 32
0
 70
0
 13
108.5
 23
-74
 33
0
 14
108.5
 24
-52
 34
0
 50
90
 53
0
  0
DIMENSION
  8
1
  6
CONTINUOUS
 62
1
  2
*D7
  3
DMST_1
 10
-42.9656650017323
 20
-60
 30
0
 11
-46.4059599314349
 21
-62.9909329140388
 31
0
 12
0
 22
0
 32
0
 70
0
 13
-29.99999999999999
 23
-66
 33
0
 14
-30
 24
-60
 34
0
 50
90
 53
0
  0
DIMENSION
  8
1
  6
CONTINUOUS
 62
1
  2
*D8
  3
DMST_1
 10
-58.2744959755675
 20
-67
 30
0
 11
-61.6447893845189
 21
-63.0444024910671
 31
0
 12
0
 22
0
 32
0
 70
0
 13
-28
 23
-59
 33
0
 14
-28
 24
-67
 34
0
 50
90
 53
0
  0
DIMENSION
  8
1
  6
CONTINUOUS
 62
1
  2
*D9
  3
DMST_1
 10
0
 20
91.73320700433999
 30
0
 11
-14.4230905693271
 21
96.0802660768381
 31
0
 12
0
 22
0
 32
0
 70
0
 13
-29.99999999999999
 23
75
 33
0
 14
0
 24
100
 34
0
 53
0
  0
DIMENSION
  8
1
  6
CONTINUOUS
 62
1
  2
*D10
  3
DMST_1
 10
-28
 20
14.10966006556901
 30
0
 11
-14.0389179757886
 21
18.5990114409377
 31
0
 12
0
 22
0
 32
0
 70
0
  1
2x14
 13
0
 23
0
 33
0
 14
-28
 24
27
 34
0
 53
0
  0
DIMENSION
  8
1
  6
CONTINUOUS
 62
1
  2
*D11
  3
DMST_1
 10
0
 20
-17.59
 30
0
 11
31.33714569681069
 21
-13.02019786182341
 31
0
 12
0
 22
0
 32
0
 70
0
 13
65
 23
2.839403657690013
 33
0
 14
0
 24
0
 34
0
 53
0
  0
DIMENSION
  8
1
  6
CONTINUOUS
 62
1
  2
*D12
  3
DMST_1
 10
0
 20
-32.59
 30
0
 11
54.7449465599467
 21
-28.0084155815334
 31
0
 12
0
 22
0
 32
0
 70
0
 13
110
 23
0
 33
0
 14
0
 24
0
 34
0
 53
0
  0
DIMENSION
  8
1
  6
CONTINUOUS
 62
1
  2
*D13
  3
DMST_1
 10
69
 20
53.24220373382801
 30
0
 11
65.03189580969701
 21
57.056283160954
 31
0
 12
0
 22
0
 32
0
 70
0
 13
61
 23
72
 33
0
 14
69
 24
72
 34
0
 53
0
  0
ENDSEC
  0
EOF
