  0
SECTION
  2
HEADER
  9
$ACADVER
  1
AC1009
  9
$INSBASE
 10
0
 20
0
  9
$EXTMIN
 10
-53.75
 20
-114
  9
$EXTMAX
 10
173.861172806067
 20
100
  9
$LIMMIN
 10
-53.75
 20
-114
  9
$LIMMAX
 10
173.861172806067
 20
100
  9
$VIEWCTR
 10
10
 20
10
  9
$VIEWSIZE
 40
10
  9
$SNAPMODE
 70
0
  9
$SNAPUNIT
 10
1
 20
1
  9
$SNAPBASE
 10
0
 20
0
  9
$SNAPANG
 50
0
  9
$SNAPSTYLE
 70
0
  9
$SNAPISOPAIR
 70
0
  9
$GRIDMODE
 70
0
  9
$GRIDUNIT
 10
0
 20
0
  9
$ORTHOMODE
 70
0
  9
$REGENMODE
 70
1
  9
$FILLMODE
 70
1
  9
$QTEXTMODE
 70
0
  9
$DRAGMODE
 70
2
  9
$LTSCALE
 40
1
  9
$OSMODE
 70
0
  9
$ATTMODE
 70
1
  9
$TEXTSIZE
 40
3.5
  9
$TRACEWID
 40
0.5
  9
$TEXTSTYLE
  7
STANDARD
  9
$CLAYER
  8
0
  9
$CELTYPE
  6
BYLAYER
  9
$CECOLOR
 62
256
  9
$DIMSCALE
 40
1
  9
$DIMASZ
 40
0.18
  9
$DIMEXO
 40
0.0625
  9
$DIMDLI
 40
0.38
  9
$DIMRND
 40
0
  9
$DIMDLE
 40
0
  9
$DIMEXE
 40
0.18
  9
$DIMTP
 40
0
  9
$DIMTM
 40
0
  9
$DIMTXT
 40
0.18
  9
$DIMCEN
 40
0.09
  9
$DIMTSZ
 40
0
  9
$DIMTOL
 70
0
  9
$DIMLIM
 70
0
  9
$DIMTIH
 70
1
  9
$DIMTOH
 70
1
  9
$DIMSE1
 70
0
  9
$DIMSE2
 70
0
  9
$DIMTAD
 70
0
  9
$DIMZIN
 70
0
  9
$DIMBLK
  1

  9
$DIMASO
 70
1
  9
$DIMSHO
 70
1
  9
$DIMPOST
  1

  9
$DIMAPOST
  1

  9
$DIMALT
 70
0
  9
$DIMALTD
 70
2
  9
$DIMALTF
 40
25.4
  9
$DIMLFAC
 40
1
  9
$DIMTOFL
 70
0
  9
$DIMTVP
 40
0
  9
$DIMTIX
 70
0
  9
$DIMSOXD
 70
0
  9
$DIMSAH
 70
0
  9
$DIMBLK1
  1

  9
$DIMBLK2
  1

  9
$DIMSTYLE
  2
*UNNAMED
  9
$DIMCLRD
 70
0
  9
$DIMCLRE
 70
0
  9
$DIMCLRT
 70
0
  9
$DIMTFAC
 40
1
  9
$DIMGAP
 40
0.09
  9
$LUNITS
 70
2
  9
$LUPREC
 70
4
  9
$AXISMODE
 70
0
  9
$AXISUNIT
 10
0
 20
0
  9
$SKETCHINC
 40
0.1
  9
$FILLETRAD
 40
2
  9
$AUNITS
 70
0
  9
$AUPREC
 70
0
  9
$MENU
  1
ACAD
  9
$ELEVATION
 40
0
  9
$THICKNESS
 40
0
  9
$VIEWDIR
 10
0
 20
0
 30
1
  9
$LIMCHECK
 70
0
  9
$BLIPMODE
 70
1
  9
$CHAMFERA
 40
0
  9
$CHAMFERB
 40
0
  9
$FASTZOOM
 70
1
  9
$SKPOLY
 70
0
  9
$ANGBASE
 50
0
  9
$ANGDIR
 70
0
  9
$PDMODE
 70
0
  9
$PDSIZE
 40
0
  9
$PLINEWID
 40
0
  9
$COORDS
 70
2
  0
ENDSEC
  0
SECTION
  2
TABLES
  0
TABLE
  2
DIMSTYLE
 70
2
  0
DIMSTYLE
  2
DMST_1
 70
0
  3

  4

  5

  6

  7

 40
1
 41
2.45
 42
0
 43
7
 44
2
 45
0
 46
0
 47
0
 48
0
140
3.5
141
0
142
0
143
25.4
144
1
145
0
146
1
147
0.09
 71
0
 72
0
 73
0
 74
0
 75
0
 76
0
 77
1
 78
9
170
0
171
2
172
0
173
0
174
0
175
0
176
1
177
1
178
3
  0
DIMSTYLE
  2
DMST_2
 70
0
  3

  4

  5

  6

  7

 40
1
 41
2.45
 42
0
 43
7
 44
2
 45
0
 46
0
 47
0
 48
0
140
3.5
141
0
142
0
143
25.4
144
1
145
0
146
1
147
0.09
 71
0
 72
0
 73
0
 74
0
 75
0
 76
0
 77
1
 78
9
170
0
171
2
172
0
173
0
174
0
175
0
176
7
177
7
178
3
  0
ENDTAB
  0
TABLE
  2
LTYPE
 70
9
  0
LTYPE
  2
CONTINUOUS
 70
64
  3
Solid line
 72
65
 73
0
 40
0
  0
LTYPE
  2
BORDER
 70
64
  3
__ __ . __ __ .
 72
65
 73
6
 40
10.48209348448993
 49
2.994883852711408
 49
-1.497441926355704
 49
2.994883852711408
 49
-1.497441926355704
 49
0
 49
-1.497441926355704
  0
LTYPE
  2
CENTER
 70
64
  3
____ _ ____ _
 72
65
 73
4
 40
11.97953541084563
 49
7.487209631778519
 49
-1.497441926355704
 49
1.497441926355704
 49
-1.497441926355704
  0
LTYPE
  2
DASHDOT
 70
64
  3
__ . __ . __ .
 72
65
 73
4
 40
5.989767705422816
 49
2.994883852711408
 49
-1.497441926355704
 49
0
 49
-1.497441926355704
  0
LTYPE
  2
DASHED
 70
64
  3
__ __ __ __ __
 72
65
 73
2
 40
4.492325779067112
 49
2.994883852711408
 49
-1.497441926355704
  0
LTYPE
  2
DIVIDE
 70
64
  3
__ . . __ . . 
 72
65
 73
6
 40
7.487209631778519
 49
2.994883852711408
 49
-1.497441926355704
 49
0
 49
-1.497441926355704
 49
0
 49
-1.497441926355704
  0
LTYPE
  2
DOT
 70
64
  3
..............
 72
65
 73
4
 40
2.994883852711408
 49
0
 49
-1.497441926355704
 49
0
 49
-1.497441926355704
  0
LTYPE
  2
HIDDEN
 70
64
  3
_ _ _ _ _ _ _
 72
65
 73
2
 40
2.246162889533556
 49
1.497441926355704
 49
-0.748720963177852
  0
LTYPE
  2
PHANTOM
 70
64
  3
_____ _ _ _____ _ _ 
 72
65
 73
6
 40
14.97441926355704
 49
7.487209631778519
 49
-1.497441926355704
 49
1.497441926355704
 49
-1.497441926355704
 49
1.497441926355704
 49
-1.497441926355704
  0
ENDTAB
  0
TABLE
  2
LAYER
 70
4
  0
LAYER
  2
1
 70
0
 62
7
  6
CONTINUOUS
  0
LAYER
  2
3
 70
0
 62
7
  6
CONTINUOUS
  0
LAYER
  2
0
 70
0
 62
7
  6
CONTINUOUS
  0
ENDTAB
  0
TABLE
  2
STYLE
 70
4
  0
STYLE
  2
STANDARD
 70
0
 40
0
 41
1
 50
0
 71
0
 42
3.5
  3
txt
  4

  0
STYLE
  2
SIMPLEX
 70
0
 40
0
 41
1
 50
0
 71
0
 42
3.5
  3
simplex
  4

  0
STYLE
  2
COMPLEX
 70
0
 40
0
 41
1
 50
0
 71
0
 42
3.5
  3
complex
  4

  0
STYLE
  2
ITALIC
 70
0
 40
0
 41
1
 50
0
 71
0
 42
3.5
  3
italic
  4

  0
ENDTAB
  0
TABLE
  2
VIEW
 70
0
  0
ENDTAB
  0
ENDSEC
  0
SECTION
  2
BLOCKS
  0
BLOCK
  8
1
  2
*D0
 70
1
 10
0
 20
0
 30
0
  0
LINE
  8
1
 62
1
 10
148.925
 20
0
 30
0
 11
148.925
 21
100
 31
0
  0
LINE
  8
1
 62
1
 10
108.5
 20
0
 30
0
 11
150.925
 21
0
 31
0
  0
LINE
  8
1
 62
1
 10
110
 20
100
 30
0
 11
150.925
 21
100
 31
0
  0
LINE
  8
1
 62
1
 10
148.925
 20
0
 30
0
 11
148.6065
 21
2.45
 31
0
  0
LINE
  8
1
 62
1
 10
148.6065
 20
2.45
 30
0
 11
149.2435
 21
2.45
 31
0
  0
LINE
  8
1
 62
1
 10
149.2435
 20
2.45
 30
0
 11
148.925
 21
0
 31
0
  0
LINE
  8
1
 62
1
 10
148.925
 20
100
 30
0
 11
149.2435
 21
97.55
 31
0
  0
LINE
  8
1
 62
1
 10
149.2435
 20
97.55
 30
0
 11
148.6065
 21
97.55
 31
0
  0
LINE
  8
1
 62
1
 10
148.6065
 20
97.55
 30
0
 11
148.925
 21
100
 31
0
  0
TEXT
  8
1
 62
3
 10
147.925
 20
46.325
 30
0
 40
3.5
  1
100
 50
90
 41
0.9
  0
ENDBLK
  8
0
  0
BLOCK
  8
1
  2
*D1
 70
1
 10
0
 20
0
 30
0
  0
LINE
  8
1
 62
1
 10
120.75
 20
-114
 30
0
 11
120.75
 21
-92
 31
0
  0
LINE
  8
1
 62
1
 10
108.5
 20
-114
 30
0
 11
122.75
 21
-114
 31
0
  0
LINE
  8
1
 62
1
 10
108.5
 20
-92
 30
0
 11
122.75
 21
-92
 31
0
  0
LINE
  8
1
 62
1
 10
120.75
 20
-114
 30
0
 11
120.4315
 21
-111.55
 31
0
  0
LINE
  8
1
 62
1
 10
120.4315
 20
-111.55
 30
0
 11
121.0685
 21
-111.55
 31
0
  0
LINE
  8
1
 62
1
 10
121.0685
 20
-111.55
 30
0
 11
120.75
 21
-114
 31
0
  0
LINE
  8
1
 62
1
 10
120.75
 20
-92
 30
0
 11
121.0685
 21
-94.45
 31
0
  0
LINE
  8
1
 62
1
 10
121.0685
 20
-94.45
 30
0
 11
120.4315
 21
-94.45
 31
0
  0
LINE
  8
1
 62
1
 10
120.4315
 20
-94.45
 30
0
 11
120.75
 21
-92
 31
0
  0
TEXT
  8
1
 62
3
 10
119.75
 20
-105.625
 30
0
 40
3.5
  1
22
 50
90
 41
0.9
  0
ENDBLK
  8
0
  0
BLOCK
  8
1
  2
*D2
 70
1
 10
0
 20
0
 30
0
  0
LINE
  8
1
 62
1
 10
0
 20
-35.74999999999999
 30
0
 11
65
 21
-35.74999999999999
 31
0
  0
LINE
  8
1
 62
1
 10
0
 20
0
 30
0
 11
0
 21
-37.74999999999999
 31
0
  0
LINE
  8
1
 62
1
 10
65
 20
2.839403657690021
 30
0
 11
65
 21
-37.74999999999999
 31
0
  0
LINE
  8
1
 62
1
 10
0
 20
-35.74999999999999
 30
0
 11
2.45
 21
-35.43149999999999
 31
0
  0
LINE
  8
1
 62
1
 10
2.45
 20
-35.43149999999999
 30
0
 11
2.45
 21
-36.06849999999999
 31
0
  0
LINE
  8
1
 62
1
 10
2.45
 20
-36.06849999999999
 30
0
 11
0
 21
-35.74999999999999
 31
0
  0
LINE
  8
1
 62
1
 10
65
 20
-35.74999999999999
 30
0
 11
62.55
 21
-36.06849999999999
 31
0
  0
LINE
  8
1
 62
1
 10
62.55
 20
-36.06849999999999
 30
0
 11
62.55
 21
-35.43149999999999
 31
0
  0
LINE
  8
1
 62
1
 10
62.55
 20
-35.43149999999999
 30
0
 11
65
 21
-35.74999999999999
 31
0
  0
TEXT
  8
1
 62
3
 10
29.875
 20
-34.74999999999999
 30
0
 40
3.5
  1
65
 41
0.9
  0
ENDBLK
  8
0
  0
BLOCK
  8
1
  2
*D3
 70
1
 10
0
 20
0
 30
0
  0
LINE
  8
1
 62
1
 10
0
 20
-47.92499999999999
 30
0
 11
110
 21
-47.92499999999999
 31
0
  0
LINE
  8
1
 62
1
 10
0
 20
0
 30
0
 11
0
 21
-49.92499999999999
 31
0
  0
LINE
  8
1
 62
1
 10
110
 20
0
 30
0
 11
110
 21
-49.92499999999999
 31
0
  0
LINE
  8
1
 62
1
 10
0
 20
-47.92499999999999
 30
0
 11
2.45
 21
-47.60649999999999
 31
0
  0
LINE
  8
1
 62
1
 10
2.45
 20
-47.60649999999999
 30
0
 11
2.45
 21
-48.24349999999999
 31
0
  0
LINE
  8
1
 62
1
 10
2.45
 20
-48.24349999999999
 30
0
 11
0
 21
-47.92499999999999
 31
0
  0
LINE
  8
1
 62
1
 10
110
 20
-47.92499999999999
 30
0
 11
107.55
 21
-48.24349999999999
 31
0
  0
LINE
  8
1
 62
1
 10
107.55
 20
-48.24349999999999
 30
0
 11
107.55
 21
-47.60649999999999
 31
0
  0
LINE
  8
1
 62
1
 10
107.55
 20
-47.60649999999999
 30
0
 11
110
 21
-47.92499999999999
 31
0
  0
TEXT
  8
1
 62
3
 10
51.85
 20
-46.92499999999999
 30
0
 40
3.5
  1
110
 41
0.9
  0
ENDBLK
  8
0
  0
BLOCK
  8
1
  2
*D4
 70
1
 10
0
 20
0
 30
0
  0
LINE
  8
1
 62
1
 10
-13
 20
-14.74999999999999
 30
0
 11
0
 21
-14.74999999999999
 31
0
  0
LINE
  8
1
 62
1
 10
-13
 20
8
 30
0
 11
-13
 21
-16.74999999999999
 31
0
  0
LINE
  8
1
 62
1
 10
0
 20
0
 30
0
 11
0
 21
-16.74999999999999
 31
0
  0
LINE
  8
1
 62
1
 10
-13
 20
-14.74999999999999
 30
0
 11
-10.55
 21
-14.43149999999999
 31
0
  0
LINE
  8
1
 62
1
 10
-10.55
 20
-14.43149999999999
 30
0
 11
-10.55
 21
-15.06849999999999
 31
0
  0
LINE
  8
1
 62
1
 10
-10.55
 20
-15.06849999999999
 30
0
 11
-13
 21
-14.74999999999999
 31
0
  0
LINE
  8
1
 62
1
 10
0
 20
-14.74999999999999
 30
0
 11
-2.45
 21
-15.06849999999999
 31
0
  0
LINE
  8
1
 62
1
 10
-2.45
 20
-15.06849999999999
 30
0
 11
-2.45
 21
-14.43149999999999
 31
0
  0
LINE
  8
1
 62
1
 10
-2.45
 20
-14.43149999999999
 30
0
 11
0
 21
-14.74999999999999
 31
0
  0
TEXT
  8
1
 62
3
 10
-8.6
 20
-13.75
 30
0
 40
3.5
  1
13
 41
0.9
  0
ENDBLK
  8
0
  0
BLOCK
  8
1
  2
*D5
 70
1
 10
0
 20
0
 30
0
  0
LINE
  8
1
 62
1
 10
-19
 20
93.55000000000003
 30
0
 11
0
 21
93.55000000000003
 31
0
  0
LINE
  8
1
 62
1
 10
-19
 20
72.00000000000001
 30
0
 11
-19
 21
95.55000000000003
 31
0
  0
LINE
  8
1
 62
1
 10
0
 20
100
 30
0
 11
0
 21
91.55000000000003
 31
0
  0
LINE
  8
1
 62
1
 10
-19
 20
93.55000000000003
 30
0
 11
-16.55
 21
93.86850000000003
 31
0
  0
LINE
  8
1
 62
1
 10
-16.55
 20
93.86850000000003
 30
0
 11
-16.55
 21
93.23150000000003
 31
0
  0
LINE
  8
1
 62
1
 10
-16.55
 20
93.23150000000003
 30
0
 11
-19
 21
93.55000000000003
 31
0
  0
LINE
  8
1
 62
1
 10
0
 20
93.55000000000003
 30
0
 11
-2.45
 21
93.23150000000003
 31
0
  0
LINE
  8
1
 62
1
 10
-2.45
 20
93.23150000000003
 30
0
 11
-2.45
 21
93.86850000000003
 31
0
  0
LINE
  8
1
 62
1
 10
-2.45
 20
93.86850000000003
 30
0
 11
0
 21
93.55000000000003
 31
0
  0
TEXT
  8
1
 62
3
 10
-11.6
 20
94.55000000000003
 30
0
 40
3.5
  1
19
 41
0.9
  0
ENDBLK
  8
0
  0
BLOCK
  8
1
  2
*D6
 70
1
 10
0
 20
0
 30
0
  0
LINE
  8
1
 62
1
 10
-28
 20
38.16591221608681
 30
0
 11
0
 21
38.16591221608681
 31
0
  0
LINE
  8
1
 62
1
 10
-28
 20
27
 30
0
 11
-28
 21
40.16591221608681
 31
0
  0
LINE
  8
1
 62
1
 10
0
 20
0
 30
0
 11
0
 21
40.16591221608681
 31
0
  0
LINE
  8
1
 62
1
 10
-28
 20
38.16591221608681
 30
0
 11
-25.55
 21
38.48441221608681
 31
0
  0
LINE
  8
1
 62
1
 10
-25.55
 20
38.48441221608681
 30
0
 11
-25.55
 21
37.84741221608681
 31
0
  0
LINE
  8
1
 62
1
 10
-25.55
 20
37.84741221608681
 30
0
 11
-28
 21
38.16591221608681
 31
0
  0
LINE
  8
1
 62
1
 10
0
 20
38.16591221608681
 30
0
 11
-2.45
 21
37.84741221608681
 31
0
  0
LINE
  8
1
 62
1
 10
-2.45
 20
37.84741221608681
 30
0
 11
-2.45
 21
38.48441221608681
 31
0
  0
LINE
  8
1
 62
1
 10
-2.45
 20
38.48441221608681
 30
0
 11
0
 21
38.16591221608681
 31
0
  0
TEXT
  8
1
 62
3
 10
-19.25
 20
39.16591221608681
 30
0
 40
3.5
  1
2x14
 41
0.9
  0
ENDBLK
  8
0
  0
BLOCK
  8
1
  2
*D7
 70
1
 10
0
 20
0
 30
0
  0
LINE
  8
1
 62
1
 10
61
 20
53.71396913732865
 30
0
 11
69
 21
53.71396913732865
 31
0
  0
LINE
  8
1
 62
1
 10
61
 20
72
 30
0
 11
61
 21
51.71396913732865
 31
0
  0
LINE
  8
1
 62
1
 10
69
 20
72
 30
0
 11
69
 21
51.71396913732865
 31
0
  0
LINE
  8
1
 62
1
 10
61
 20
53.71396913732865
 30
0
 11
63.45
 21
54.03246913732865
 31
0
  0
LINE
  8
1
 62
1
 10
63.45
 20
54.03246913732865
 30
0
 11
63.45
 21
53.39546913732865
 31
0
  0
LINE
  8
1
 62
1
 10
63.45
 20
53.39546913732865
 30
0
 11
61
 21
53.71396913732865
 31
0
  0
LINE
  8
1
 62
1
 10
69
 20
53.71396913732865
 30
0
 11
66.55
 21
53.39546913732865
 31
0
  0
LINE
  8
1
 62
1
 10
66.55
 20
53.39546913732865
 30
0
 11
66.55
 21
54.03246913732865
 31
0
  0
LINE
  8
1
 62
1
 10
66.55
 20
54.03246913732865
 30
0
 11
69
 21
53.71396913732865
 31
0
  0
TEXT
  8
1
 62
3
 10
63.95
 20
54.71396913732865
 30
0
 40
3.5
  1
8
 41
0.9
  0
ENDBLK
  8
0
  0
BLOCK
  8
1
  2
*D8
 70
1
 10
0
 20
0
 30
0
  0
LINE
  8
1
 62
1
 10
-37.25
 20
-106
 30
0
 11
-37.25
 21
-100
 31
0
  0
LINE
  8
1
 62
1
 10
-37.25
 20
-106
 30
0
 11
-37.25
 21
-110.9
 31
0
  0
LINE
  8
1
 62
1
 10
-37.25
 20
-100
 30
0
 11
-37.25
 21
-95.09999999999999
 31
0
  0
LINE
  8
1
 62
1
 10
-19
 20
-106
 30
0
 11
-39.25
 21
-106
 31
0
  0
LINE
  8
1
 62
1
 10
-19
 20
-100
 30
0
 11
-39.25
 21
-100
 31
0
  0
LINE
  8
1
 62
1
 10
-37.25
 20
-106
 30
0
 11
-36.9315
 21
-108.45
 31
0
  0
LINE
  8
1
 62
1
 10
-36.9315
 20
-108.45
 30
0
 11
-37.5685
 21
-108.45
 31
0
  0
LINE
  8
1
 62
1
 10
-37.5685
 20
-108.45
 30
0
 11
-37.25
 21
-106
 31
0
  0
LINE
  8
1
 62
1
 10
-37.25
 20
-100
 30
0
 11
-37.5685
 21
-97.55
 31
0
  0
LINE
  8
1
 62
1
 10
-37.5685
 20
-97.55
 30
0
 11
-36.9315
 21
-97.55
 31
0
  0
LINE
  8
1
 62
1
 10
-36.9315
 20
-97.55
 30
0
 11
-37.25
 21
-100
 31
0
  0
TEXT
  8
1
 62
3
 10
-38.25
 20
-104.05
 30
0
 40
3.5
  1
6
 50
90
 41
0.9
  0
ENDBLK
  8
0
  0
BLOCK
  8
1
  2
*D9
 70
1
 10
0
 20
0
 30
0
  0
LINE
  8
1
 62
1
 10
-49.25
 20
-107
 30
0
 11
-49.25
 21
-99
 31
0
  0
LINE
  8
1
 62
1
 10
-28
 20
-107
 30
0
 11
-51.25
 21
-107
 31
0
  0
LINE
  8
1
 62
1
 10
-28
 20
-99
 30
0
 11
-51.25
 21
-99
 31
0
  0
LINE
  8
1
 62
1
 10
-49.25
 20
-107
 30
0
 11
-49.5685
 21
-104.55
 31
0
  0
LINE
  8
1
 62
1
 10
-49.5685
 20
-104.55
 30
0
 11
-48.9315
 21
-104.55
 31
0
  0
LINE
  8
1
 62
1
 10
-48.9315
 20
-104.55
 30
0
 11
-49.25
 21
-107
 31
0
  0
LINE
  8
1
 62
1
 10
-49.25
 20
-99
 30
0
 11
-48.9315
 21
-101.45
 31
0
  0
LINE
  8
1
 62
1
 10
-48.9315
 20
-101.45
 30
0
 11
-49.5685
 21
-101.45
 31
0
  0
LINE
  8
1
 62
1
 10
-49.5685
 20
-101.45
 30
0
 11
-49.25
 21
-99
 31
0
  0
TEXT
  8
1
 62
3
 10
-50.25
 20
-104.05
 30
0
 40
3.5
  1
8
 50
90
 41
0.9
  0
ENDBLK
  8
0
  0
BLOCK
  8
1
  2
*D10
 70
1
 10
0
 20
0
 30
0
  0
LINE
  8
1
 62
1
 10
-37.25
 20
0
 30
0
 11
-37.25
 21
8
 31
0
  0
LINE
  8
1
 62
1
 10
0
 20
0
 30
0
 11
-39.25
 21
0
 31
0
  0
LINE
  8
1
 62
1
 10
-13
 20
8
 30
0
 11
-39.25
 21
8
 31
0
  0
LINE
  8
1
 62
1
 10
-37.25
 20
0
 30
0
 11
-37.5685
 21
2.45
 31
0
  0
LINE
  8
1
 62
1
 10
-37.5685
 20
2.45
 30
0
 11
-36.9315
 21
2.45
 31
0
  0
LINE
  8
1
 62
1
 10
-36.9315
 20
2.45
 30
0
 11
-37.25
 21
0
 31
0
  0
LINE
  8
1
 62
1
 10
-37.25
 20
8
 30
0
 11
-36.9315
 21
5.550000000000001
 31
0
  0
LINE
  8
1
 62
1
 10
-36.9315
 20
5.550000000000001
 30
0
 11
-37.5685
 21
5.550000000000001
 31
0
  0
LINE
  8
1
 62
1
 10
-37.5685
 20
5.550000000000001
 30
0
 11
-37.25
 21
8
 31
0
  0
TEXT
  8
1
 62
3
 10
-38.25
 20
2.95
 30
0
 40
3.5
  1
8
 50
90
 41
0.9
  0
ENDBLK
  8
0
  0
BLOCK
  8
1
  2
*D11
 70
1
 10
0
 20
0
 30
0
  0
LINE
  8
1
 62
1
 10
-37.25
 20
84.00000000000001
 30
0
 11
-37.25
 21
100
 31
0
  0
LINE
  8
1
 62
1
 10
-4.698956888869468
 20
84.00000000000001
 30
0
 11
-39.25
 21
84.00000000000001
 31
0
  0
LINE
  8
1
 62
1
 10
0
 20
100
 30
0
 11
-39.25
 21
100
 31
0
  0
LINE
  8
1
 62
1
 10
-37.25
 20
84.00000000000001
 30
0
 11
-37.5685
 21
86.45000000000002
 31
0
  0
LINE
  8
1
 62
1
 10
-37.5685
 20
86.45000000000002
 30
0
 11
-36.9315
 21
86.45000000000002
 31
0
  0
LINE
  8
1
 62
1
 10
-36.9315
 20
86.45000000000002
 30
0
 11
-37.25
 21
84.00000000000001
 31
0
  0
LINE
  8
1
 62
1
 10
-37.25
 20
100
 30
0
 11
-36.9315
 21
97.55
 31
0
  0
LINE
  8
1
 62
1
 10
-36.9315
 20
97.55
 30
0
 11
-37.5685
 21
97.55
 31
0
  0
LINE
  8
1
 62
1
 10
-37.5685
 20
97.55
 30
0
 11
-37.25
 21
100
 31
0
  0
TEXT
  8
1
 62
3
 10
-38.25
 20
89.90000000000002
 30
0
 40
3.5
  1
16
 50
90
 41
0.9
  0
ENDBLK
  8
0
  0
BLOCK
  8
1
  2
*D12
 70
1
 10
0
 20
0
 30
0
  0
LINE
  8
1
 62
1
 10
-37.25
 20
66.00000000000001
 30
0
 11
-37.25
 21
84.00000000000001
 31
0
  0
LINE
  8
1
 62
1
 10
-19
 20
66.00000000000001
 30
0
 11
-39.25
 21
66.00000000000001
 31
0
  0
LINE
  8
1
 62
1
 10
-4.698956888869468
 20
84.00000000000001
 30
0
 11
-39.25
 21
84.00000000000001
 31
0
  0
LINE
  8
1
 62
1
 10
-37.25
 20
66.00000000000001
 30
0
 11
-37.5685
 21
68.45000000000002
 31
0
  0
LINE
  8
1
 62
1
 10
-37.5685
 20
68.45000000000002
 30
0
 11
-36.9315
 21
68.45000000000002
 31
0
  0
LINE
  8
1
 62
1
 10
-36.9315
 20
68.45000000000002
 30
0
 11
-37.25
 21
66.00000000000001
 31
0
  0
LINE
  8
1
 62
1
 10
-37.25
 20
84.00000000000001
 30
0
 11
-36.9315
 21
81.55000000000001
 31
0
  0
LINE
  8
1
 62
1
 10
-36.9315
 20
81.55000000000001
 30
0
 11
-37.5685
 21
81.55000000000001
 31
0
  0
LINE
  8
1
 62
1
 10
-37.5685
 20
81.55000000000001
 30
0
 11
-37.25
 21
84.00000000000001
 31
0
  0
TEXT
  8
1
 62
3
 10
-38.25
 20
72.90000000000002
 30
0
 40
3.5
  1
18
 50
90
 41
0.9
  0
ENDBLK
  8
0
  0
BLOCK
  8
1
  2
*D13
 70
1
 10
0
 20
0
 30
0
  0
LINE
  8
1
 62
1
 10
-37.25
 20
54
 30
0
 11
-37.25
 21
66.00000000000001
 31
0
  0
LINE
  8
1
 62
1
 10
-28
 20
54
 30
0
 11
-39.25
 21
54
 31
0
  0
LINE
  8
1
 62
1
 10
-19
 20
66.00000000000001
 30
0
 11
-39.25
 21
66.00000000000001
 31
0
  0
LINE
  8
1
 62
1
 10
-37.25
 20
54
 30
0
 11
-37.5685
 21
56.45
 31
0
  0
LINE
  8
1
 62
1
 10
-37.5685
 20
56.45
 30
0
 11
-36.9315
 21
56.45
 31
0
  0
LINE
  8
1
 62
1
 10
-36.9315
 20
56.45
 30
0
 11
-37.25
 21
54
 31
0
  0
LINE
  8
1
 62
1
 10
-37.25
 20
66.00000000000001
 30
0
 11
-36.9315
 21
63.55000000000001
 31
0
  0
LINE
  8
1
 62
1
 10
-36.9315
 20
63.55000000000001
 30
0
 11
-37.5685
 21
63.55000000000001
 31
0
  0
LINE
  8
1
 62
1
 10
-37.5685
 20
63.55000000000001
 30
0
 11
-37.25
 21
66.00000000000001
 31
0
  0
TEXT
  8
1
 62
3
 10
-38.25
 20
57.90000000000001
 30
0
 40
3.5
  1
12
 50
90
 41
0.9
  0
ENDBLK
  8
0
  0
BLOCK
  8
1
  2
*D14
 70
1
 10
0
 20
0
 30
0
  0
LINE
  8
1
 62
1
 10
-37.25
 20
27.00000000000001
 30
0
 11
-37.25
 21
54.00000000000001
 31
0
  0
LINE
  8
1
 62
1
 10
-28
 20
27.00000000000001
 30
0
 11
-39.25
 21
27.00000000000001
 31
0
  0
LINE
  8
1
 62
1
 10
-28
 20
54.00000000000001
 30
0
 11
-39.25
 21
54.00000000000001
 31
0
  0
LINE
  8
1
 62
1
 10
-37.25
 20
27.00000000000001
 30
0
 11
-37.5685
 21
29.45000000000001
 31
0
  0
LINE
  8
1
 62
1
 10
-37.5685
 20
29.45000000000001
 30
0
 11
-36.9315
 21
29.45000000000001
 31
0
  0
LINE
  8
1
 62
1
 10
-36.9315
 20
29.45000000000001
 30
0
 11
-37.25
 21
27.00000000000001
 31
0
  0
LINE
  8
1
 62
1
 10
-37.25
 20
54.00000000000001
 30
0
 11
-36.9315
 21
51.55
 31
0
  0
LINE
  8
1
 62
1
 10
-36.9315
 20
51.55
 30
0
 11
-37.5685
 21
51.55
 31
0
  0
LINE
  8
1
 62
1
 10
-37.5685
 20
51.55
 30
0
 11
-37.25
 21
54.00000000000001
 31
0
  0
TEXT
  8
1
 62
3
 10
-38.25
 20
37.87500000000001
 30
0
 40
3.5
  1
27
 50
90
 41
0.9
  0
ENDBLK
  8
0
  0
BLOCK
  8
1
  2
*D15
 70
1
 10
0
 20
0
 30
0
  0
LINE
  8
1
 62
1
 10
-37.25
 20
16
 30
0
 11
-37.25
 21
27
 31
0
  0
LINE
  8
1
 62
1
 10
-13
 20
16
 30
0
 11
-39.25
 21
16
 31
0
  0
LINE
  8
1
 62
1
 10
-28
 20
27
 30
0
 11
-39.25
 21
27
 31
0
  0
LINE
  8
1
 62
1
 10
-37.25
 20
16
 30
0
 11
-37.5685
 21
18.45
 31
0
  0
LINE
  8
1
 62
1
 10
-37.5685
 20
18.45
 30
0
 11
-36.9315
 21
18.45
 31
0
  0
LINE
  8
1
 62
1
 10
-36.9315
 20
18.45
 30
0
 11
-37.25
 21
16
 31
0
  0
LINE
  8
1
 62
1
 10
-37.25
 20
27
 30
0
 11
-36.9315
 21
24.55
 31
0
  0
LINE
  8
1
 62
1
 10
-36.9315
 20
24.55
 30
0
 11
-37.5685
 21
24.55
 31
0
  0
LINE
  8
1
 62
1
 10
-37.5685
 20
24.55
 30
0
 11
-37.25
 21
27
 31
0
  0
TEXT
  8
1
 62
3
 10
-38.25
 20
19.925
 30
0
 40
3.5
  1
11
 50
90
 41
0.9
  0
ENDBLK
  8
0
  0
BLOCK
  8
1
  2
*D16
 70
1
 10
0
 20
0
 30
0
  0
LINE
  8
1
 62
1
 10
-37.25
 20
8
 30
0
 11
-37.25
 21
16
 31
0
  0
LINE
  8
1
 62
1
 10
-13
 20
8
 30
0
 11
-39.25
 21
8
 31
0
  0
LINE
  8
1
 62
1
 10
-13
 20
16
 30
0
 11
-39.25
 21
16
 31
0
  0
LINE
  8
1
 62
1
 10
-37.25
 20
8
 30
0
 11
-37.5685
 21
10.45
 31
0
  0
LINE
  8
1
 62
1
 10
-37.5685
 20
10.45
 30
0
 11
-36.9315
 21
10.45
 31
0
  0
LINE
  8
1
 62
1
 10
-36.9315
 20
10.45
 30
0
 11
-37.25
 21
8
 31
0
  0
LINE
  8
1
 62
1
 10
-37.25
 20
16
 30
0
 11
-36.9315
 21
13.55
 31
0
  0
LINE
  8
1
 62
1
 10
-36.9315
 20
13.55
 30
0
 11
-37.5685
 21
13.55
 31
0
  0
LINE
  8
1
 62
1
 10
-37.5685
 20
13.55
 30
0
 11
-37.25
 21
16
 31
0
  0
TEXT
  8
1
 62
3
 10
-38.25
 20
10.95
 30
0
 40
3.5
  1
8
 50
90
 41
0.9
  0
ENDBLK
  8
0
  0
BLOCK
  8
1
  2
*D17
 70
1
 10
0
 20
0
 30
0
  0
LINE
  8
1
 62
7
 10
122.75
 20
0
 30
0
 11
122.75
 21
21
 31
0
  0
LINE
  8
1
 62
7
 10
110
 20
0
 30
0
 11
124.75
 21
0
 31
0
  0
LINE
  8
1
 62
7
 10
90.14569392281102
 20
21
 30
0
 11
124.75
 21
21
 31
0
  0
LINE
  8
1
 62
7
 10
122.75
 20
0
 30
0
 11
122.4315
 21
2.45
 31
0
  0
LINE
  8
1
 62
7
 10
122.4315
 20
2.45
 30
0
 11
123.0685
 21
2.45
 31
0
  0
LINE
  8
1
 62
7
 10
123.0685
 20
2.45
 30
0
 11
122.75
 21
0
 31
0
  0
LINE
  8
1
 62
7
 10
122.75
 20
21
 30
0
 11
123.0685
 21
18.55
 31
0
  0
LINE
  8
1
 62
7
 10
123.0685
 20
18.55
 30
0
 11
122.4315
 21
18.55
 31
0
  0
LINE
  8
1
 62
7
 10
122.4315
 20
18.55
 30
0
 11
122.75
 21
21
 31
0
  0
TEXT
  8
1
 62
3
 10
121.716851676979
 20
5.614978421116406
 30
0
 40
3.5
  1
21
 50
90
 41
0.9
  0
ENDBLK
  8
0
  0
BLOCK
  8
1
  2
*D18
 70
1
 10
0
 20
0
 30
0
  0
LINE
  8
1
 62
7
 10
122.75
 20
21
 30
0
 11
122.75
 21
76.00000000000001
 31
0
  0
LINE
  8
1
 62
7
 10
90.14569392281099
 20
21
 30
0
 11
124.75
 21
21
 31
0
  0
LINE
  8
1
 62
7
 10
79.946136244714
 20
76.00000000000001
 30
0
 11
124.75
 21
76.00000000000001
 31
0
  0
LINE
  8
1
 62
7
 10
122.75
 20
21
 30
0
 11
122.4315
 21
23.45
 31
0
  0
LINE
  8
1
 62
7
 10
122.4315
 20
23.45
 30
0
 11
123.0685
 21
23.45
 31
0
  0
LINE
  8
1
 62
7
 10
123.0685
 20
23.45
 30
0
 11
122.75
 21
21
 31
0
  0
LINE
  8
1
 62
7
 10
122.75
 20
76.00000000000001
 30
0
 11
123.0685
 21
73.55000000000001
 31
0
  0
LINE
  8
1
 62
7
 10
123.0685
 20
73.55000000000001
 30
0
 11
122.4315
 21
73.55000000000001
 31
0
  0
LINE
  8
1
 62
7
 10
122.4315
 20
73.55000000000001
 30
0
 11
122.75
 21
76.00000000000001
 31
0
  0
TEXT
  8
1
 62
3
 10
121.661798341428
 20
41.73228440101732
 30
0
 40
3.5
  1
1=55
 50
90
 41
0.9
  0
ENDBLK
  8
0
  0
BLOCK
  8
1
  2
*D19
 70
1
 10
0
 20
0
 30
0
  0
LINE
  8
1
 62
7
 10
129.75
 20
0
 30
0
 11
129.75
 21
21
 31
0
  0
LINE
  8
1
 62
7
 10
110
 20
0
 30
0
 11
131.75
 21
0
 31
0
  0
LINE
  8
1
 62
7
 10
90.14569392281102
 20
21
 30
0
 11
131.75
 21
21
 31
0
  0
LINE
  8
1
 62
7
 10
129.75
 20
0
 30
0
 11
129.4315
 21
2.45
 31
0
  0
LINE
  8
1
 62
7
 10
129.4315
 20
2.45
 30
0
 11
130.0685
 21
2.45
 31
0
  0
LINE
  8
1
 62
7
 10
130.0685
 20
2.45
 30
0
 11
129.75
 21
0
 31
0
  0
LINE
  8
1
 62
7
 10
129.75
 20
21
 30
0
 11
130.0685
 21
18.55
 31
0
  0
LINE
  8
1
 62
7
 10
130.0685
 20
18.55
 30
0
 11
129.4315
 21
18.55
 31
0
  0
LINE
  8
1
 62
7
 10
129.4315
 20
18.55
 30
0
 11
129.75
 21
21
 31
0
  0
TEXT
  8
1
 62
3
 10
128.4
 20
5.6875
 30
0
 40
3.5
  1
25,7
 50
90
 41
0.9
  0
ENDBLK
  8
0
  0
BLOCK
  8
1
  2
*D20
 70
1
 10
0
 20
0
 30
0
  0
LINE
  8
1
 62
7
 10
129.75
 20
21
 30
0
 11
129.75
 21
76.00000000000001
 31
0
  0
LINE
  8
1
 62
7
 10
90.14569392281102
 20
21
 30
0
 11
131.75
 21
21
 31
0
  0
LINE
  8
1
 62
7
 10
79.94613624471403
 20
76
 30
0
 11
131.75
 21
76.00000000000001
 31
0
  0
LINE
  8
1
 62
7
 10
129.75
 20
21
 30
0
 11
129.4315
 21
23.45
 31
0
  0
LINE
  8
1
 62
7
 10
129.4315
 20
23.45
 30
0
 11
130.0685
 21
23.45
 31
0
  0
LINE
  8
1
 62
7
 10
130.0685
 20
23.45
 30
0
 11
129.75
 21
21
 31
0
  0
LINE
  8
1
 62
7
 10
129.75
 20
76.00000000000001
 30
0
 11
130.0685
 21
73.55000000000001
 31
0
  0
LINE
  8
1
 62
7
 10
130.0685
 20
73.55000000000001
 30
0
 11
129.4315
 21
73.55000000000001
 31
0
  0
LINE
  8
1
 62
7
 10
129.4315
 20
73.55000000000001
 30
0
 11
129.75
 21
76.00000000000001
 31
0
  0
TEXT
  8
1
 62
3
 10
128.4
 20
40.71250000000001
 30
0
 40
3.5
  1
2=50,3
 50
90
 41
0.9
  0
ENDBLK
  8
0
  0
BLOCK
  8
1
  2
*D21
 70
1
 10
0
 20
0
 30
0
  0
LINE
  8
1
 62
1
 10
138.75
 20
0
 30
0
 11
138.75
 21
21
 31
0
  0
LINE
  8
1
 62
1
 10
108.5
 20
0
 30
0
 11
140.75
 21
0
 31
0
  0
LINE
  8
1
 62
1
 10
90.14569392281101
 20
21
 30
0
 11
140.75
 21
21
 31
0
  0
LINE
  8
1
 62
1
 10
138.75
 20
0
 30
0
 11
138.4315
 21
2.45
 31
0
  0
LINE
  8
1
 62
1
 10
138.4315
 20
2.45
 30
0
 11
139.0685
 21
2.45
 31
0
  0
LINE
  8
1
 62
1
 10
139.0685
 20
2.45
 30
0
 11
138.75
 21
0
 31
0
  0
LINE
  8
1
 62
1
 10
138.75
 20
21
 30
0
 11
139.0685
 21
18.55
 31
0
  0
LINE
  8
1
 62
1
 10
139.0685
 20
18.55
 30
0
 11
138.4315
 21
18.55
 31
0
  0
LINE
  8
1
 62
1
 10
138.4315
 20
18.55
 30
0
 11
138.75
 21
21
 31
0
  0
TEXT
  8
1
 62
3
 10
137.4
 20
5.6875
 30
0
 40
3.5
  1
27,7
 50
90
 41
0.9
  0
ENDBLK
  8
0
  0
BLOCK
  8
1
  2
*D22
 70
1
 10
0
 20
0
 30
0
  0
LINE
  8
1
 62
1
 10
138.75
 20
76
 30
0
 11
138.75
 21
100
 31
0
  0
LINE
  8
1
 62
1
 10
79.94613624471401
 20
76
 30
0
 11
140.75
 21
76
 31
0
  0
LINE
  8
1
 62
1
 10
110
 20
100
 30
0
 11
140.75
 21
100
 31
0
  0
LINE
  8
1
 62
1
 10
138.75
 20
76
 30
0
 11
138.4315
 21
78.45
 31
0
  0
LINE
  8
1
 62
1
 10
138.4315
 20
78.45
 30
0
 11
139.0685
 21
78.45
 31
0
  0
LINE
  8
1
 62
1
 10
139.0685
 20
78.45
 30
0
 11
138.75
 21
76
 31
0
  0
LINE
  8
1
 62
1
 10
138.75
 20
100
 30
0
 11
139.0685
 21
97.55
 31
0
  0
LINE
  8
1
 62
1
 10
139.0685
 20
97.55
 30
0
 11
138.4315
 21
97.55
 31
0
  0
LINE
  8
1
 62
1
 10
138.4315
 20
97.55
 30
0
 11
138.75
 21
100
 31
0
  0
TEXT
  8
1
 62
3
 10
137.75
 20
85.375
 30
0
 40
3.5
  1
24
 50
90
 41
0.9
  0
ENDBLK
  8
0
  0
BLOCK
  8
1
  2
*D23
 70
1
 10
0
 20
0
 30
0
  0
LINE
  8
1
 62
1
 10
138.75
 20
21
 30
0
 11
138.75
 21
76.00000000000001
 31
0
  0
LINE
  8
1
 62
1
 10
90.14569392281101
 20
21
 30
0
 11
140.75
 21
21
 31
0
  0
LINE
  8
1
 62
1
 10
79.94613624471401
 20
76
 30
0
 11
140.75
 21
76.00000000000001
 31
0
  0
LINE
  8
1
 62
1
 10
138.75
 20
21
 30
0
 11
138.4315
 21
23.45
 31
0
  0
LINE
  8
1
 62
1
 10
138.4315
 20
23.45
 30
0
 11
139.0685
 21
23.45
 31
0
  0
LINE
  8
1
 62
1
 10
139.0685
 20
23.45
 30
0
 11
138.75
 21
21
 31
0
  0
LINE
  8
1
 62
1
 10
138.75
 20
76.00000000000001
 30
0
 11
139.0685
 21
73.55000000000001
 31
0
  0
LINE
  8
1
 62
1
 10
139.0685
 20
73.55000000000001
 30
0
 11
138.4315
 21
73.55000000000001
 31
0
  0
LINE
  8
1
 62
1
 10
138.4315
 20
73.55000000000001
 30
0
 11
138.75
 21
76.00000000000001
 31
0
  0
TEXT
  8
1
 62
3
 10
137.4
 20
40.71250000000001
 30
0
 40
3.5
  1
3=48,3
 50
90
 41
0.9
  0
ENDBLK
  8
0
  0
ENDSEC
  0
SECTION
  2
ENTITIES
  0
LINE
  8
3
 62
7
 10
68.72961123979431
 20
4.799999999999997
 30
0
 11
73.30000000000001
 21
4.799999999999997
 31
0
  0
LINE
  8
1
 62
7
 10
68.80000000000001
 20
4.85672529350245
 30
0
 11
68.80000000000001
 21
6.099999999999987
 31
0
  0
LINE
  8
1
 62
7
 10
68.30000000000001
 20
6.599999999999987
 30
0
 11
65.5
 21
6.599999999999987
 31
0
  0
LINE
  8
1
 62
7
 10
68.37821723252009
 20
9.23319617243417
 30
0
 11
65.4217827674799
 21
8.764942954332597
 31
0
  0
LINE
  8
1
 62
7
 10
68.36093467170261
 20
11.05391044354268
 30
0
 11
65.4390653282974
 21
11.41267088788832
 31
0
  0
LINE
  8
1
 62
7
 10
68.33487823687199
 20
13.56747551793892
 30
0
 11
65.46512176312791
 21
13.36680259667574
 31
0
  0
LINE
  8
1
 62
7
 10
68.36958655048011
 20
15.66049066546267
 30
0
 11
67.23041344952
 21
15.82059100394208
 31
0
  0
LINE
  8
1
 62
7
 10
61.63041344951989
 20
15.66049066546267
 30
0
 11
62.76958655048
 21
15.82059100394208
 31
0
  0
LINE
  8
1
 62
7
 10
61.19999999999999
 20
15.16535663109189
 30
0
 11
61.19999999999999
 21
4.85672529350245
 31
0
  0
LINE
  8
1
 62
7
 10
65
 20
8.271098784035004
 30
0
 11
65
 21
7.099999999999987
 31
0
  0
LINE
  8
1
 62
7
 10
65
 20
12.86802057154582
 30
0
 11
65
 21
11.90894396370901
 31
0
  0
LINE
  8
1
 62
7
 10
68.80000000000001
 20
9.727040342731719
 30
0
 11
68.80000000000001
 21
10.55763736772203
 31
0
  0
LINE
  8
1
 62
7
 10
68.80000000000001
 20
14.06625754306885
 30
0
 11
68.80000000000001
 21
15.16535663109189
 31
0
  0
LINE
  8
1
 62
7
 10
66.80000000000001
 20
16.3157250383129
 30
0
 11
66.80000000000001
 21
17.36681957508301
 31
0
  0
LINE
  8
1
 62
7
 10
63.19999999999999
 20
16.3157250383129
 30
0
 11
63.19999999999999
 21
17.36681957508301
 31
0
  0
LINE
  8
3
 62
2
  6
PHANTOM
 10
65
 20
2.839403657690021
 30
0
 11
65
 21
26.16059634230999
 31
0
  0
LINE
  8
3
 62
2
  6
PHANTOM
 10
59.83940365769001
 20
21
 30
0
 11
70.16059634230999
 21
21
 31
0
  0
LINE
  8
3
 62
7
 10
81
 20
19
 30
0
 11
81
 21
23
 31
0
  0
LINE
  8
3
 62
7
 10
84.5
 20
19
 30
0
 11
81
 21
19
 31
0
  0
LINE
  8
3
 62
7
 10
84.5
 20
23
 30
0
 11
84.5
 21
19
 31
0
  0
LINE
  8
3
 62
7
 10
81
 20
23
 30
0
 11
84.5
 21
23
 31
0
  0
LINE
  8
3
 62
7
 10
45.5
 20
19
 30
0
 11
45.5
 21
23
 31
0
  0
LINE
  8
3
 62
7
 10
49
 20
19
 30
0
 11
45.5
 21
19
 31
0
  0
LINE
  8
3
 62
7
 10
49
 20
23
 30
0
 11
49
 21
19
 31
0
  0
LINE
  8
3
 62
7
 10
45.5
 20
23
 30
0
 11
49
 21
23
 31
0
  0
LINE
  8
3
 62
7
 10
23.90000000000001
 20
-102.9
 30
0
 11
108.5
 21
-102.9
 31
0
  0
LINE
  8
3
 62
7
 10
23.90000000000001
 20
-104.4
 30
0
 11
23.90000000000001
 21
-102.9
 31
0
  0
LINE
  8
3
 62
7
 10
9.900000000000006
 20
-104.4
 30
0
 11
23.90000000000001
 21
-104.4
 31
0
  0
LINE
  8
3
 62
7
 10
9.900000000000006
 20
-102.9
 30
0
 11
9.900000000000006
 21
-104.4
 31
0
  0
LINE
  8
3
 62
7
 10
1.5
 20
-102.9
 30
0
 11
9.900000000000006
 21
-102.9
 31
0
  0
LINE
  8
3
 62
7
 10
108.5
 20
-104.4
 30
0
 11
108.5
 21
-93.5
 31
0
  0
LINE
  8
3
 62
7
 10
110
 20
-102.9
 30
0
 11
108.5
 21
-102.9
 31
0
  0
LINE
  8
3
 62
7
 10
110
 20
-93.5
 30
0
 11
110
 21
-104.4
 31
0
  0
LINE
  8
3
 62
7
 10
1.5
 20
-92
 30
0
 11
108.5
 21
-92
 31
0
  0
LINE
  8
3
 62
7
 10
0
 20
-114
 30
0
 11
0
 21
-93.5
 31
0
  0
LINE
  8
3
 62
7
 10
1.5
 20
-114
 30
0
 11
0
 21
-114
 31
0
  0
LINE
  8
3
 62
7
 10
1.5
 20
-93.5
 30
0
 11
1.5
 21
-114
 31
0
  0
LINE
  8
3
 62
7
 10
0
 20
0
 30
0
 11
108.5
 21
0
 31
0
  0
LINE
  8
3
 62
7
 10
0
 20
100
 30
0
 11
0
 21
0
 31
0
  0
LINE
  8
3
 62
7
 10
110
 20
0
 30
0
 11
110
 21
100
 31
0
  0
LINE
  8
3
 62
7
 10
108.5
 20
0
 30
0
 11
110
 21
0
 31
0
  0
LINE
  8
3
 62
7
 10
0
 20
100
 30
0
 11
110
 21
100
 31
0
  0
LINE
  8
3
 62
7
 10
55.5
 20
34.65000000000001
 30
0
 11
74.5
 21
34.65000000000001
 31
0
  0
LINE
  8
3
 62
7
 10
56.69999999999999
 20
4.799999999999997
 30
0
 11
61.27038876020569
 21
4.799999999999997
 31
0
  0
LINE
  8
3
 62
7
 10
74.5
 20
6.198564258829137
 30
0
 11
74.5
 21
6.000000000000007
 31
0
  0
LINE
  8
3
 62
7
 10
55.5
 20
6.19856425882967
 30
0
 11
55.5
 21
6.000000000000007
 31
0
  0
LINE
  8
3
 62
2
  6
PHANTOM
 10
39.97828263093899
 20
21
 30
0
 11
59.83940365769001
 21
21
 31
0
  0
LINE
  8
3
 62
2
  6
PHANTOM
 10
70.16059634230999
 20
21
 30
0
 11
90.14569392281101
 21
21
 31
0
  0
LINE
  8
1
 62
2
  6
PHANTOM
 10
21.69029114419
 20
20.20000000000001
 30
0
 11
33.30970885581
 21
20.20000000000001
 31
0
  0
LINE
  8
1
 62
2
  6
PHANTOM
 10
27.5
 20
14.39029114419001
 30
0
 11
27.5
 21
26.00970885581001
 31
0
  0
LINE
  8
1
 62
2
  6
PHANTOM
 10
96.49099051485501
 20
8.40000000000002
 30
0
 11
108.509009485145
 21
8.40000000000002
 31
0
  0
LINE
  8
1
 62
2
  6
PHANTOM
 10
102.5
 20
2.390990514855034
 30
0
 11
102.5
 21
14.40900948514501
 31
0
  0
LINE
  8
1
 62
2
  6
PHANTOM
 10
97.00007089481099
 20
91.80000000000001
 30
0
 11
107.999929105189
 21
91.80000000000001
 31
0
  0
LINE
  8
1
 62
2
  6
PHANTOM
 10
102.5
 20
86.300070894811
 30
0
 11
102.5
 21
97.29992910518902
 31
0
  0
LINE
  8
1
 62
2
  6
PHANTOM
 10
21.65234478397301
 20
91.80000000000001
 30
0
 11
33.34765521602699
 21
91.80000000000001
 31
0
  0
LINE
  8
1
 62
2
  6
PHANTOM
 10
27.5
 20
85.952344783973
 30
0
 11
27.5
 21
97.647655216027
 31
0
  0
LINE
  8
1
 62
7
 10
-19
 20
72.00000000000001
 30
0
 11
-4.698956888869475
 21
84.00000000000001
 31
0
  0
LINE
  8
1
 62
7
 10
-19
 20
66.00000000000001
 30
0
 11
-19
 21
72.00000000000001
 31
0
  0
LINE
  8
1
 62
7
 10
-19
 20
66.00000000000001
 30
0
 11
0
 21
66
 31
0
  0
LINE
  8
1
 62
7
 10
0
 20
84
 30
0
 11
-4.698956888869475
 21
84.00000000000001
 31
0
  0
LINE
  8
1
 62
7
 10
-4.698956888869475
 20
-100
 30
0
 11
-4.698956888869475
 21
-106
 31
0
  0
LINE
  8
1
 62
7
 10
-19
 20
-100
 30
0
 11
-19
 21
-106
 31
0
  0
LINE
  8
1
 62
7
 10
-19
 20
-100
 30
0
 11
0
 21
-100
 31
0
  0
LINE
  8
1
 62
7
 10
0
 20
-106
 30
0
 11
-19
 21
-106
 31
0
  0
LINE
  8
1
 62
3
  6
PHANTOM
 10
0
 20
27.00000000000001
 30
0
 11
-28
 21
27.00000000000001
 31
0
  0
LINE
  8
1
 62
3
  6
PHANTOM
 10
-28
 20
27.00000000000001
 30
0
 11
-28
 21
54.00000000000001
 31
0
  0
LINE
  8
1
 62
3
  6
PHANTOM
 10
-28
 20
54.00000000000001
 30
0
 11
0
 21
54.00000000000001
 31
0
  0
LINE
  8
1
 62
3
  6
PHANTOM
 10
-14
 20
27.00000000000001
 30
0
 11
-14
 21
54.00000000000001
 31
0
  0
LINE
  8
1
 62
3
  6
PHANTOM
 10
0
 20
-107
 30
0
 11
-28
 21
-107
 31
0
  0
LINE
  8
1
 62
3
  6
PHANTOM
 10
-28
 20
-107
 30
0
 11
-28
 21
-99
 31
0
  0
LINE
  8
1
 62
3
  6
PHANTOM
 10
-28
 20
-99
 30
0
 11
0
 21
-99
 31
0
  0
LINE
  8
1
 62
7
 10
1.5
 20
0
 30
0
 11
1.5
 21
100
 31
0
  0
LINE
  8
1
 62
7
 10
1.5
 20
-114
 30
0
 11
108.5
 21
-114
 31
0
  0
LINE
  8
1
 62
7
 10
110
 20
-112.5
 30
0
 11
110
 21
-104.4
 31
0
  0
LINE
  8
1
 62
7
 10
108.5
 20
-104.4
 30
0
 11
108.5
 21
-112
 31
0
  0
LINE
  8
1
 62
3
  6
PHANTOM
 10
0
 20
8
 30
0
 11
-13
 21
8
 31
0
  0
LINE
  8
1
 62
3
  6
PHANTOM
 10
-13
 20
8
 30
0
 11
-13
 21
16
 31
0
  0
LINE
  8
1
 62
3
  6
PHANTOM
 10
-13
 20
16
 30
0
 11
0
 21
16
 31
0
  0
LINE
  8
1
 62
7
 10
40
 20
-20.99999999999999
 30
0
 11
43
 21
-20.99999999999999
 31
0
  0
LINE
  8
1
 62
7
 10
43
 20
-20.99999999999999
 30
0
 11
43
 21
0
 31
0
  0
LINE
  8
1
 62
7
 10
43
 20
0
 30
0
 11
40
 21
0
 31
0
  0
LINE
  8
1
 62
7
 10
40
 20
0
 30
0
 11
40
 21
-20.99999999999999
 31
0
  0
LINE
  8
1
 62
7
 10
61
 20
72
 30
0
 11
69
 21
72
 31
0
  0
LINE
  8
1
 62
7
 10
69
 20
72
 30
0
 11
69
 21
80
 31
0
  0
LINE
  8
1
 62
7
 10
69
 20
80
 30
0
 11
61
 21
80
 31
0
  0
LINE
  8
1
 62
7
 10
61
 20
80
 30
0
 11
61
 21
72
 31
0
  0
LINE
  8
1
 62
2
  6
PHANTOM
 10
50.05386375528599
 20
76
 30
0
 11
79.94613624471401
 21
76
 31
0
  0
LINE
  8
1
 62
2
  6
PHANTOM
 10
65
 20
61.053863755286
 30
0
 11
65
 21
90.94613624471401
 31
0
  0
LINE
  8
1
 62
1
 10
79.94613624471401
 20
76
 30
0
 11
131.946136244714
 21
76
 31
0
  0
LINE
  8
1
 62
1
 10
90.14569392281101
 20
21
 30
0
 11
133.145693922811
 21
21
 31
0
  0
LINE
  8
1
 62
1
 10
110
 20
0
 30
0
 11
132
 21
0
 31
0
  0
ARC
  8
1
 62
7
 10
65
 20
20.99999999999999
 30
0
 40
3.800000000000013
 50
302.336025997558
 51
237.6639740024421
  0
ARC
  8
1
 62
7
 10
65
 20
9.5
 30
0
 40
6
 50
230.7035197608124
 51
309.2964802391876
  0
ARC
  8
3
 62
7
 10
55.5
 20
21
 30
0
 40
13.65000000000001
 50
90
 51
265.3649842544231
  0
ARC
  8
3
 62
7
 10
74.5
 20
21
 30
0
 40
13.65000000000034
 50
274.6350157455768
 51
90
  0
CIRCLE
  8
1
 62
7
 10
65
 20
76
 30
0
 40
7.5
  0
CIRCLE
  8
3
 62
7
 10
27.5
 20
20.20000000000001
 30
0
 40
5.200000000000003
  0
CIRCLE
  8
3
 62
7
 10
102.5
 20
8.40000000000002
 30
0
 40
5.200000000000003
  0
CIRCLE
  8
3
 62
7
 10
102.5
 20
91.80000000000001
 30
0
 40
5.200000000000003
  0
CIRCLE
  8
3
 62
7
 10
102.5
 20
8.40000000000002
 30
0
 40
2.400000000000006
  0
CIRCLE
  8
3
 62
7
 10
27.5
 20
20.20000000000001
 30
0
 40
2.400000000000009
  0
CIRCLE
  8
3
 62
7
 10
102.5
 20
91.80000000000001
 30
0
 40
2.400000000000006
  0
CIRCLE
  8
3
 62
7
 10
27.5
 20
91.80000000000001
 30
0
 40
5.200000000000003
  0
CIRCLE
  8
3
 62
7
 10
65
 20
76
 30
0
 40
13.80000000000001
  0
CIRCLE
  8
3
 62
7
 10
27.5
 20
91.80000000000001
 30
0
 40
2.400000000000009
  0
ARC
  8
1
 62
7
 10
62.69999999999999
 20
17.36681957508301
 30
0
 40
0.5
 50
0
 51
57.66397400244168
  0
ARC
  8
1
 62
7
 10
62.69999999999999
 20
16.3157250383129
 30
0
 40
0.5000000000000325
 50
277.9999999999969
 51
0
  0
ARC
  8
1
 62
7
 10
61.69999999999999
 20
15.16535663109189
 30
0
 40
0.5000000000000022
 50
98.00000000000732
 51
180
  0
ARC
  8
1
 62
7
 10
67.30000000000001
 20
17.36681957508301
 30
0
 40
0.4999999999999848
 50
122.3360259975583
 51
180
  0
ARC
  8
1
 62
7
 10
67.30000000000001
 20
16.3157250383129
 30
0
 40
0.5
 50
180
 51
262.0000000000031
  0
ARC
  8
1
 62
7
 10
68.30000000000001
 20
15.16535663109189
 30
0
 40
0.5
 50
0
 51
81.99999999999267
  0
ARC
  8
1
 62
7
 10
68.30000000000001
 20
14.06625754306885
 30
0
 40
0.5000000000000122
 50
273.9999999999899
 51
0
  0
ARC
  8
1
 62
7
 10
65.5
 20
12.86802057154582
 30
0
 40
0.5000000000000094
 50
94.00000000000294
 51
180
  0
ARC
  8
1
 62
7
 10
65.5
 20
11.90894396370901
 30
0
 40
0.5
 50
180
 51
262.9999999999977
  0
ARC
  8
1
 62
7
 10
68.30000000000001
 20
10.55763736772203
 30
0
 40
0.5
 50
0
 51
82.99999999999719
  0
ARC
  8
1
 62
7
 10
68.30000000000001
 20
9.727040342731719
 30
0
 40
0.4999999999999746
 50
278.9999999999957
 51
0
  0
ARC
  8
1
 62
7
 10
65.5
 20
8.271098784035004
 30
0
 40
0.5000000000000211
 50
98.9999999999982
 51
180
  0
ARC
  8
1
 62
7
 10
65.5
 20
7.099999999999987
 30
0
 40
0.5
 50
180
 51
270
  0
ARC
  8
1
 62
7
 10
68.30000000000001
 20
6.099999999999987
 30
0
 40
0.5
 50
0
 51
90
  0
ARC
  8
3
 62
7
 10
54.30000000000001
 20
6.19856425882967
 30
0
 40
1.199999999999989
 50
0
 51
85.36498425442289
  0
ARC
  8
3
 62
7
 10
56.69999999999999
 20
6.000000000000007
 30
0
 40
1.199999999999989
 50
180
 51
270
  0
ARC
  8
3
 62
7
 10
75.69999999999999
 20
6.198564258829137
 30
0
 40
1.200000000000008
 50
94.63501574557679
 51
180
  0
ARC
  8
3
 62
7
 10
73.30000000000001
 20
6.000000000000007
 30
0
 40
1.20000000000001
 50
270
 51
0
  0
ARC
  8
3
 62
7
 10
1.5
 20
-93.5
 30
0
 40
1.5
 50
90
 51
180
  0
ARC
  8
3
 62
7
 10
108.5
 20
-93.5
 30
0
 40
1.5
 50
0
 51
90
  0
ARC
  8
1
 62
7
 10
108.5
 20
-112.5
 30
0
 40
1.5
 50
270
 51
0
  0
TEXT
  8
1
 62
7
 10
157.361172806067
 20
-112.713217768147
 30
0
 40
5
  1
2003
 41
0.9
  0
DIMENSION
  8
1
  6
CONTINUOUS
 62
1
  2
*D0
  3
DMST_1
 10
148.925
 20
99.99999999999999
 30
0
 11
146.175
 21
50
 31
0
 12
0
 22
0
 32
0
 70
0
 13
108.5
 23
0
 33
0
 14
110
 24
100
 34
0
 50
90
 53
0
  0
DIMENSION
  8
1
  6
CONTINUOUS
 62
1
  2
*D1
  3
DMST_1
 10
120.75
 20
-114
 30
0
 11
118
 21
-103
 31
0
 12
0
 22
0
 32
0
 70
0
 13
108.5
 23
-92
 33
0
 14
108.5
 24
-114
 34
0
 50
90
 53
0
  0
DIMENSION
  8
1
  6
CONTINUOUS
 62
1
  2
*D2
  3
DMST_1
 10
0
 20
-35.74999999999999
 30
0
 11
32.5
 21
-32.99999999999999
 31
0
 12
0
 22
0
 32
0
 70
0
 13
65
 23
2.839403657690021
 33
0
 14
0
 24
0
 34
0
 53
0
  0
DIMENSION
  8
1
  6
CONTINUOUS
 62
1
  2
*D3
  3
DMST_1
 10
0
 20
-47.92499999999999
 30
0
 11
55
 21
-45.17499999999999
 31
0
 12
0
 22
0
 32
0
 70
0
 13
110
 23
0
 33
0
 14
0
 24
0
 34
0
 53
0
  0
DIMENSION
  8
1
  6
CONTINUOUS
 62
1
  2
*D4
  3
DMST_1
 10
-13
 20
-14.74999999999999
 30
0
 11
-6.5
 21
-12
 31
0
 12
0
 22
0
 32
0
 70
0
 13
0
 23
0
 33
0
 14
-13
 24
8
 34
0
 53
0
  0
DIMENSION
  8
1
  6
CONTINUOUS
 62
1
  2
*D5
  3
DMST_1
 10
-19
 20
93.55000000000003
 30
0
 11
-9.5
 21
96.30000000000003
 31
0
 12
0
 22
0
 32
0
 70
0
 13
0
 23
100
 33
0
 14
-19
 24
72.00000000000001
 34
0
 53
0
  0
DIMENSION
  8
1
  6
CONTINUOUS
 62
1
  2
*D6
  3
DMST_1
 10
-28
 20
38.16591221608681
 30
0
 11
-14
 21
40.91591221608681
 31
0
 12
0
 22
0
 32
0
 70
0
  1
2x14
 13
0
 23
0
 33
0
 14
-28
 24
27.00000000000001
 34
0
 53
0
  0
DIMENSION
  8
1
  6
CONTINUOUS
 62
1
  2
*D7
  3
DMST_1
 10
61
 20
53.71396913732865
 30
0
 11
65
 21
56.46396913732865
 31
0
 12
0
 22
0
 32
0
 70
0
 13
69
 23
72
 33
0
 14
61
 24
72
 34
0
 53
0
  0
DIMENSION
  8
1
  6
CONTINUOUS
 62
1
  2
*D8
  3
DMST_1
 10
-37.25
 20
-106
 30
0
 11
-40
 21
-103
 31
0
 12
0
 22
0
 32
0
 70
0
 13
-19
 23
-100
 33
0
 14
-19
 24
-106
 34
0
 50
90
 53
0
  0
DIMENSION
  8
1
  6
CONTINUOUS
 62
1
  2
*D9
  3
DMST_1
 10
-49.25
 20
-107
 30
0
 11
-52
 21
-103
 31
0
 12
0
 22
0
 32
0
 70
0
 13
-28
 23
-99
 33
0
 14
-28
 24
-107
 34
0
 50
90
 53
0
  0
DIMENSION
  8
1
  6
CONTINUOUS
 62
1
  2
*D10
  3
DMST_1
 10
-37.25
 20
0
 30
0
 11
-40
 21
4
 31
0
 12
0
 22
0
 32
0
 70
0
 13
-13
 23
8
 33
0
 14
0
 24
0
 34
0
 50
90
 53
0
  0
DIMENSION
  8
1
  6
CONTINUOUS
 62
1
  2
*D11
  3
DMST_1
 10
-37.25
 20
100
 30
0
 11
-40
 21
92.00000000000001
 31
0
 12
0
 22
0
 32
0
 70
0
 13
-4.698956888869475
 23
84.00000000000001
 33
0
 14
0
 24
100
 34
0
 50
90
 53
0
  0
DIMENSION
  8
1
  6
CONTINUOUS
 62
1
  2
*D12
  3
DMST_1
 10
-37.25
 20
84.00000000000001
 30
0
 11
-40
 21
75.00000000000001
 31
0
 12
0
 22
0
 32
0
 70
0
 13
-19
 23
66.00000000000001
 33
0
 14
-4.698956888869475
 24
84.00000000000001
 34
0
 50
90
 53
0
  0
DIMENSION
  8
1
  6
CONTINUOUS
 62
1
  2
*D13
  3
DMST_1
 10
-37.25
 20
66.00000000000001
 30
0
 11
-40
 21
60.00000000000001
 31
0
 12
0
 22
0
 32
0
 70
0
 13
-28
 23
54.00000000000001
 33
0
 14
-19
 24
66.00000000000001
 34
0
 50
90
 53
0
  0
DIMENSION
  8
1
  6
CONTINUOUS
 62
1
  2
*D14
  3
DMST_1
 10
-37.25
 20
27.00000000000001
 30
0
 11
-40
 21
40.50000000000001
 31
0
 12
0
 22
0
 32
0
 70
0
 13
-28
 23
54.00000000000001
 33
0
 14
-28
 24
27.00000000000001
 34
0
 50
90
 53
0
  0
DIMENSION
  8
1
  6
CONTINUOUS
 62
1
  2
*D15
  3
DMST_1
 10
-37.25
 20
16
 30
0
 11
-40
 21
21.5
 31
0
 12
0
 22
0
 32
0
 70
0
 13
-28
 23
27.00000000000001
 33
0
 14
-13
 24
16
 34
0
 50
90
 53
0
  0
DIMENSION
  8
1
  6
CONTINUOUS
 62
1
  2
*D16
  3
DMST_1
 10
-37.25
 20
8
 30
0
 11
-40
 21
12
 31
0
 12
0
 22
0
 32
0
 70
0
 13
-13
 23
16
 33
0
 14
-13
 24
8
 34
0
 50
90
 53
0
  0
DIMENSION
  8
1
  6
CONTINUOUS
 62
7
  2
*D17
  3
DMST_2
 10
122.75
 20
0
 30
0
 11
119.966851676979
 21
7.714978421116406
 31
0
 12
0
 22
0
 32
0
 70
0
 13
90.14569392281101
 23
21
 33
0
 14
110
 24
0
 34
0
 50
90
 53
0
  0
DIMENSION
  8
1
  6
CONTINUOUS
 62
7
  2
*D18
  3
DMST_2
 10
122.75
 20
21
 30
0
 11
119.911798341428
 21
46.80728440101732
 31
0
 12
0
 22
0
 32
0
 70
0
  1
1=55
 13
79.94613624471401
 23
76
 33
0
 14
90.14569392281101
 24
21
 34
0
 50
90
 53
0
  0
DIMENSION
  8
1
  6
CONTINUOUS
 62
7
  2
*D19
  3
DMST_2
 10
129.75
 20
0
 30
0
 11
126.825
 21
10.5
 31
0
 12
0
 22
0
 32
0
 70
0
  1
25,7
 13
90.14569392281101
 23
21
 33
0
 14
110
 24
0
 34
0
 50
90
 53
0
  0
DIMENSION
  8
1
  6
CONTINUOUS
 62
7
  2
*D20
  3
DMST_2
 10
129.75
 20
21
 30
0
 11
126.825
 21
48.50000000000001
 31
0
 12
0
 22
0
 32
0
 70
0
  1
2=50,3
 13
79.94613624471401
 23
76
 33
0
 14
90.14569392281101
 24
21
 34
0
 50
90
 53
0
  0
DIMENSION
  8
1
  6
CONTINUOUS
 62
1
  2
*D21
  3
DMST_1
 10
138.75
 20
0
 30
0
 11
135.825
 21
10.5
 31
0
 12
0
 22
0
 32
0
 70
0
  1
27,7
 13
90.14569392281101
 23
21
 33
0
 14
108.5
 24
0
 34
0
 50
90
 53
0
  0
DIMENSION
  8
1
  6
CONTINUOUS
 62
1
  2
*D22
  3
DMST_1
 10
138.75
 20
76
 30
0
 11
136
 21
88
 31
0
 12
0
 22
0
 32
0
 70
0
  1
24
 13
110
 23
100
 33
0
 14
79.94613624471401
 24
76
 34
0
 50
90
 53
0
  0
DIMENSION
  8
1
  6
CONTINUOUS
 62
1
  2
*D23
  3
DMST_1
 10
138.75
 20
21
 30
0
 11
135.825
 21
48.50000000000001
 31
0
 12
0
 22
0
 32
0
 70
0
  1
3=48,3
 13
79.94613624471401
 23
76
 33
0
 14
90.14569392281101
 24
21
 34
0
 50
90
 53
0
  0
ENDSEC
  0
EOF
