  0
SECTION
  2
HEADER
  9
$ACADVER
  1
AC1009
  9
$INSBASE
 10
0
 20
0
  9
$EXTMIN
 10
-47.9057718466343
 20
-118
  9
$EXTMAX
 10
286.373619281788
 20
125
  9
$LIMMIN
 10
-47.9057718466343
 20
-118
  9
$LIMMAX
 10
286.373619281788
 20
125
  9
$VIEWCTR
 10
10
 20
10
  9
$VIEWSIZE
 40
10
  9
$SNAPMODE
 70
0
  9
$SNAPUNIT
 10
1
 20
1
  9
$SNAPBASE
 10
0
 20
0
  9
$SNAPANG
 50
0
  9
$SNAPSTYLE
 70
0
  9
$SNAPISOPAIR
 70
0
  9
$GRIDMODE
 70
0
  9
$GRIDUNIT
 10
0
 20
0
  9
$ORTHOMODE
 70
0
  9
$REGENMODE
 70
1
  9
$FILLMODE
 70
1
  9
$QTEXTMODE
 70
0
  9
$DRAGMODE
 70
2
  9
$LTSCALE
 40
1
  9
$OSMODE
 70
0
  9
$ATTMODE
 70
1
  9
$TEXTSIZE
 40
3.5
  9
$TRACEWID
 40
0.5
  9
$TEXTSTYLE
  7
STANDARD
  9
$CLAYER
  8
0
  9
$CELTYPE
  6
BYLAYER
  9
$CECOLOR
 62
256
  9
$DIMSCALE
 40
1
  9
$DIMASZ
 40
0.18
  9
$DIMEXO
 40
0.0625
  9
$DIMDLI
 40
0.38
  9
$DIMRND
 40
0
  9
$DIMDLE
 40
0
  9
$DIMEXE
 40
0.18
  9
$DIMTP
 40
0
  9
$DIMTM
 40
0
  9
$DIMTXT
 40
0.18
  9
$DIMCEN
 40
0.09
  9
$DIMTSZ
 40
0
  9
$DIMTOL
 70
0
  9
$DIMLIM
 70
0
  9
$DIMTIH
 70
1
  9
$DIMTOH
 70
1
  9
$DIMSE1
 70
0
  9
$DIMSE2
 70
0
  9
$DIMTAD
 70
0
  9
$DIMZIN
 70
0
  9
$DIMBLK
  1

  9
$DIMASO
 70
1
  9
$DIMSHO
 70
1
  9
$DIMPOST
  1

  9
$DIMAPOST
  1

  9
$DIMALT
 70
0
  9
$DIMALTD
 70
2
  9
$DIMALTF
 40
25.4
  9
$DIMLFAC
 40
1
  9
$DIMTOFL
 70
0
  9
$DIMTVP
 40
0
  9
$DIMTIX
 70
0
  9
$DIMSOXD
 70
0
  9
$DIMSAH
 70
0
  9
$DIMBLK1
  1

  9
$DIMBLK2
  1

  9
$DIMSTYLE
  2
*UNNAMED
  9
$DIMCLRD
 70
0
  9
$DIMCLRE
 70
0
  9
$DIMCLRT
 70
0
  9
$DIMTFAC
 40
1
  9
$DIMGAP
 40
0.09
  9
$LUNITS
 70
2
  9
$LUPREC
 70
4
  9
$AXISMODE
 70
0
  9
$AXISUNIT
 10
0
 20
0
  9
$SKETCHINC
 40
0.1
  9
$FILLETRAD
 40
2
  9
$AUNITS
 70
0
  9
$AUPREC
 70
0
  9
$MENU
  1
ACAD
  9
$ELEVATION
 40
0
  9
$THICKNESS
 40
0
  9
$VIEWDIR
 10
0
 20
0
 30
1
  9
$LIMCHECK
 70
0
  9
$BLIPMODE
 70
1
  9
$CHAMFERA
 40
0
  9
$CHAMFERB
 40
0
  9
$FASTZOOM
 70
1
  9
$SKPOLY
 70
0
  9
$ANGBASE
 50
0
  9
$ANGDIR
 70
0
  9
$PDMODE
 70
0
  9
$PDSIZE
 40
0
  9
$PLINEWID
 40
0
  9
$COORDS
 70
2
  0
ENDSEC
  0
SECTION
  2
TABLES
  0
TABLE
  2
DIMSTYLE
 70
2
  0
DIMSTYLE
  2
DMST_1
 70
0
  3

  4

  5

  6

  7

 40
1
 41
5
 42
0
 43
7
 44
2
 45
0
 46
0
 47
0
 48
0
140
5
141
0
142
0
143
25.4
144
1
145
0
146
1
147
0.09
 71
0
 72
0
 73
0
 74
0
 75
0
 76
0
 77
1
 78
9
170
0
171
2
172
0
173
0
174
0
175
0
176
1
177
1
178
7
  0
DIMSTYLE
  2
DMST_2
 70
0
  3

  4

  5

  6

  7

 40
1
 41
5
 42
0
 43
7
 44
2
 45
0
 46
0
 47
0
 48
0
140
5
141
0
142
0
143
25.4
144
1
145
0
146
1
147
0.09
 71
0
 72
0
 73
0
 74
0
 75
0
 76
0
 77
1
 78
9
170
0
171
2
172
0
173
0
174
0
175
0
176
7
177
7
178
7
  0
ENDTAB
  0
TABLE
  2
LTYPE
 70
9
  0
LTYPE
  2
CONTINUOUS
 70
64
  3
Solid line
 72
65
 73
0
 40
0
  0
LTYPE
  2
BORDER
 70
64
  3
__ __ . __ __ .
 72
65
 73
6
 40
15.39444564407208
 49
4.398413041163452
 49
-2.199206520581726
 49
4.398413041163452
 49
-2.199206520581726
 49
0
 49
-2.199206520581726
  0
LTYPE
  2
CENTER
 70
64
  3
____ _ ____ _
 72
65
 73
4
 40
17.59365216465381
 49
10.99603260290863
 49
-2.199206520581726
 49
2.199206520581726
 49
-2.199206520581726
  0
LTYPE
  2
DASHDOT
 70
64
  3
__ . __ . __ .
 72
65
 73
4
 40
8.796826082326904
 49
4.398413041163452
 49
-2.199206520581726
 49
0
 49
-2.199206520581726
  0
LTYPE
  2
DASHED
 70
64
  3
__ __ __ __ __
 72
65
 73
2
 40
6.597619561745178
 49
4.398413041163452
 49
-2.199206520581726
  0
LTYPE
  2
DIVIDE
 70
64
  3
__ . . __ . . 
 72
65
 73
6
 40
10.99603260290863
 49
4.398413041163452
 49
-2.199206520581726
 49
0
 49
-2.199206520581726
 49
0
 49
-2.199206520581726
  0
LTYPE
  2
DOT
 70
64
  3
..............
 72
65
 73
4
 40
4.398413041163452
 49
0
 49
-2.199206520581726
 49
0
 49
-2.199206520581726
  0
LTYPE
  2
HIDDEN
 70
64
  3
_ _ _ _ _ _ _
 72
65
 73
2
 40
3.298809780872589
 49
2.199206520581726
 49
-1.099603260290863
  0
LTYPE
  2
PHANTOM
 70
64
  3
_____ _ _ _____ _ _ 
 72
65
 73
6
 40
21.99206520581726
 49
10.99603260290863
 49
-2.199206520581726
 49
2.199206520581726
 49
-2.199206520581726
 49
2.199206520581726
 49
-2.199206520581726
  0
ENDTAB
  0
TABLE
  2
LAYER
 70
3
  0
LAYER
  2
1
 70
0
 62
7
  6
CONTINUOUS
  0
LAYER
  2
0
 70
0
 62
7
  6
CONTINUOUS
  0
ENDTAB
  0
TABLE
  2
STYLE
 70
4
  0
STYLE
  2
STANDARD
 70
0
 40
0
 41
1
 50
0
 71
0
 42
3.5
  3
txt
  4

  0
STYLE
  2
SIMPLEX
 70
0
 40
0
 41
1
 50
0
 71
0
 42
3.5
  3
simplex
  4

  0
STYLE
  2
COMPLEX
 70
0
 40
0
 41
1
 50
0
 71
0
 42
3.5
  3
complex
  4

  0
STYLE
  2
ITALIC
 70
0
 40
0
 41
1
 50
0
 71
0
 42
3.5
  3
italic
  4

  0
ENDTAB
  0
TABLE
  2
VIEW
 70
0
  0
ENDTAB
  0
ENDSEC
  0
SECTION
  2
BLOCKS
  0
BLOCK
  8
1
  2
*D0
 70
1
 10
0
 20
0
 30
0
  0
LINE
  8
1
 62
1
 10
284.373619281788
 20
8.750000000000014
 30
0
 11
284.373619281788
 21
25.982165572126
 31
0
  0
LINE
  8
1
 62
1
 10
284.373619281788
 20
-0.2499999999999716
 30
0
 11
284.373619281788
 21
8.750000000000014
 31
0
  0
LINE
  8
1
 62
1
 10
284.373619281788
 20
-10.24999999999997
 30
0
 11
284.373619281788
 21
-0.2499999999999716
 31
0
  0
LINE
  8
1
 62
1
 10
231.5000000000001
 20
8.750000000000014
 30
0
 11
286.373619281788
 21
8.750000000000014
 31
0
  0
LINE
  8
1
 62
1
 10
258.0000000000001
 20
-0.2499999999999716
 30
0
 11
286.373619281788
 21
-0.2499999999999716
 31
0
  0
SOLID
  8
1
 62
1
 10
284.373619281788
 20
-0.2499999999999716
 30
0
 11
285.023619281788
 21
-5.249999999999972
 31
0
 12
283.723619281788
 22
-5.249999999999972
 32
0
 13
283.723619281788
 23
-5.249999999999972
 33
0
  0
SOLID
  8
1
 62
1
 10
284.373619281788
 20
8.750000000000014
 30
0
 11
283.723619281788
 21
13.75000000000001
 31
0
 12
285.023619281788
 22
13.75000000000001
 32
0
 13
285.023619281788
 23
13.75000000000001
 33
0
  0
TEXT
  8
1
 62
7
 10
283.373619281788
 20
11.482165572126
 30
0
 40
5
  1
3=10
 50
90
 41
0.9
  0
ENDBLK
  8
0
  0
BLOCK
  8
1
  2
*D1
 70
1
 10
0
 20
0
 30
0
  0
LINE
  8
1
 62
1
 10
223.5000000000001
 20
-29.9573750075766
 30
0
 11
258.0000000000001
 21
-29.9573750075766
 31
0
  0
LINE
  8
1
 62
1
 10
258.0000000000001
 20
-0.2499999999999716
 30
0
 11
258.0000000000001
 21
-31.9573750075766
 31
0
  0
LINE
  8
1
 62
1
 10
223.5000000000001
 20
16.75000000000002
 30
0
 11
223.5000000000001
 21
-31.9573750075766
 31
0
  0
SOLID
  8
1
 62
1
 10
258.0000000000001
 20
-29.9573750075766
 30
0
 11
253.0000000000001
 21
-30.6073750075766
 31
0
 12
253.0000000000001
 22
-29.3073750075766
 32
0
 13
253.0000000000001
 23
-29.3073750075766
 33
0
  0
SOLID
  8
1
 62
1
 10
223.5000000000001
 20
-29.9573750075766
 30
0
 11
228.5000000000001
 21
-29.3073750075766
 31
0
 12
228.5000000000001
 22
-30.6073750075766
 32
0
 13
228.5000000000001
 23
-30.6073750075766
 33
0
  0
TEXT
  8
1
 62
7
 10
233.8750000000001
 20
-28.4573750075766
 30
0
 40
5
  1
34,5
 41
0.9
  0
ENDBLK
  8
0
  0
BLOCK
  8
1
  2
*D2
 70
1
 10
0
 20
0
 30
0
  0
LINE
  8
1
 62
1
 10
223.5000000000001
 20
-15.3706444066637
 30
0
 11
237.7000000000001
 21
-15.3706444066637
 31
0
  0
LINE
  8
1
 62
1
 10
237.7000000000001
 20
-0.3500000000000103
 30
0
 11
237.7000000000001
 21
-17.3706444066637
 31
0
  0
LINE
  8
1
 62
1
 10
223.5000000000001
 20
0.7500000000000089
 30
0
 11
223.5000000000001
 21
-17.3706444066637
 31
0
  0
SOLID
  8
1
 62
1
 10
237.7000000000001
 20
-15.3706444066637
 30
0
 11
232.7000000000001
 21
-16.0206444066637
 31
0
 12
232.7000000000001
 22
-14.7206444066637
 32
0
 13
232.7000000000001
 23
-14.7206444066637
 33
0
  0
SOLID
  8
1
 62
1
 10
223.5000000000001
 20
-15.3706444066637
 30
0
 11
228.5000000000001
 21
-14.7206444066637
 31
0
 12
228.5000000000001
 22
-16.0206444066637
 32
0
 13
228.5000000000001
 23
-16.0206444066637
 33
0
  0
TEXT
  8
1
 62
7
 10
224.4750000000001
 20
-13.8706444066637
 30
0
 40
5
  1
14,5
 41
0.9
  0
ENDBLK
  8
0
  0
BLOCK
  8
1
  2
*D3
 70
1
 10
0
 20
0
 30
0
  0
LINE
  8
1
 62
1
 10
14
 20
-14.8955781902403
 30
0
 11
24
 21
-14.8955781902403
 31
0
  0
LINE
  8
1
 62
1
 10
0
 20
-14.8955781902403
 30
0
 11
-10
 21
-14.8955781902403
 31
0
  0
LINE
  8
1
 62
1
 10
0
 20
-14.8955781902403
 30
0
 11
14
 21
-14.8955781902403
 31
0
  0
LINE
  8
1
 62
1
 10
14
 20
0
 30
0
 11
14
 21
-16.8955781902403
 31
0
  0
LINE
  8
1
 62
1
 10
0
 20
6
 30
0
 11
0
 21
-16.8955781902403
 31
0
  0
SOLID
  8
1
 62
1
 10
0
 20
-14.8955781902403
 30
0
 11
-5
 21
-15.5455781902403
 31
0
 12
-5
 22
-14.2455781902403
 32
0
 13
-5
 23
-14.2455781902403
 33
0
  0
SOLID
  8
1
 62
1
 10
14
 20
-14.8955781902403
 30
0
 11
19
 21
-14.2455781902403
 31
0
 12
19
 22
-15.5455781902403
 32
0
 13
19
 23
-15.5455781902403
 33
0
  0
TEXT
  8
1
 62
7
 10
4
 20
-13.8955781902403
 30
0
 40
5
  1
15
 41
0.9
  0
ENDBLK
  8
0
  0
BLOCK
  8
1
  2
*D4
 70
1
 10
0
 20
0
 30
0
  0
LINE
  8
1
 62
1
 10
88.5
 20
61.97478929183939
 30
0
 11
98.5
 21
61.97478929183939
 31
0
  0
LINE
  8
1
 62
1
 10
79.5
 20
61.97478929183939
 30
0
 11
69.5
 21
61.97478929183939
 31
0
  0
LINE
  8
1
 62
1
 10
79.5
 20
61.97478929183939
 30
0
 11
88.5
 21
61.97478929183939
 31
0
  0
LINE
  8
1
 62
1
 10
88.5
 20
80.5
 30
0
 11
88.5
 21
59.97478929183939
 31
0
  0
LINE
  8
1
 62
1
 10
79.5
 20
80.5
 30
0
 11
79.5
 21
59.97478929183939
 31
0
  0
SOLID
  8
1
 62
1
 10
79.5
 20
61.97478929183939
 30
0
 11
74.5
 21
61.32478929183939
 31
0
 12
74.5
 22
62.62478929183938
 32
0
 13
74.5
 23
62.62478929183938
 33
0
  0
SOLID
  8
1
 62
1
 10
88.5
 20
61.97478929183939
 30
0
 11
93.5
 21
62.62478929183938
 31
0
 12
93.5
 22
61.32478929183939
 32
0
 13
93.5
 23
61.32478929183939
 33
0
  0
TEXT
  8
1
 62
7
 10
82.5
 20
62.97478929183939
 30
0
 40
5
  1
9
 41
0.9
  0
ENDBLK
  8
0
  0
BLOCK
  8
1
  2
*D5
 70
1
 10
0
 20
0
 30
0
  0
LINE
  8
1
 62
1
 10
172.75
 20
0
 30
0
 11
172.75
 21
115
 31
0
  0
LINE
  8
1
 62
1
 10
134
 20
115
 30
0
 11
174.75
 21
115
 31
0
  0
LINE
  8
1
 62
1
 10
134
 20
0
 30
0
 11
174.75
 21
0
 31
0
  0
SOLID
  8
1
 62
1
 10
172.75
 20
0
 30
0
 11
172.1
 21
5
 31
0
 12
173.4
 22
5
 32
0
 13
173.4
 23
5
 33
0
  0
SOLID
  8
1
 62
1
 10
172.75
 20
115
 30
0
 11
173.4
 21
110
 31
0
 12
172.1
 22
110
 32
0
 13
172.1
 23
110
 33
0
  0
TEXT
  8
1
 62
7
 10
171.75
 20
53
 30
0
 40
5
  1
115
 50
90
 41
0.9
  0
ENDBLK
  8
0
  0
BLOCK
  8
1
  2
*D6
 70
1
 10
0
 20
0
 30
0
  0
LINE
  8
1
 62
1
 10
14
 20
-30.1488087751833
 30
0
 11
84
 21
-30.1488087751833
 31
0
  0
LINE
  8
1
 62
1
 10
84
 20
2
 30
0
 11
84
 21
-32.1488087751833
 31
0
  0
LINE
  8
1
 62
1
 10
14
 20
0
 30
0
 11
14
 21
-32.1488087751833
 31
0
  0
SOLID
  8
1
 62
1
 10
14
 20
-30.1488087751833
 30
0
 11
19
 21
-29.4988087751833
 31
0
 12
19
 22
-30.7988087751833
 32
0
 13
19
 23
-30.7988087751833
 33
0
  0
SOLID
  8
1
 62
1
 10
84
 20
-30.1488087751833
 30
0
 11
79
 21
-30.7988087751833
 31
0
 12
79
 22
-29.4988087751833
 32
0
 13
79
 23
-29.4988087751833
 33
0
  0
TEXT
  8
1
 62
7
 10
45.25
 20
-29.1488087751833
 30
0
 40
5
  1
70
 41
0.9
  0
ENDBLK
  8
0
  0
BLOCK
  8
1
  2
*D7
 70
1
 10
0
 20
0
 30
0
  0
LINE
  8
1
 62
1
 10
14
 20
-44.7483598748665
 30
0
 11
134
 21
-44.7483598748665
 31
0
  0
LINE
  8
1
 62
1
 10
134
 20
0
 30
0
 11
134
 21
-46.7483598748665
 31
0
  0
LINE
  8
1
 62
1
 10
14
 20
0
 30
0
 11
14
 21
-46.7483598748665
 31
0
  0
SOLID
  8
1
 62
1
 10
14
 20
-44.7483598748665
 30
0
 11
19
 21
-44.0983598748665
 31
0
 12
19
 22
-45.3983598748665
 32
0
 13
19
 23
-45.3983598748665
 33
0
  0
SOLID
  8
1
 62
1
 10
134
 20
-44.7483598748665
 30
0
 11
129
 21
-45.3983598748665
 31
0
 12
129
 22
-44.0983598748665
 32
0
 13
129
 23
-44.0983598748665
 33
0
  0
TEXT
  8
1
 62
7
 10
68.75
 20
-43.7483598748665
 30
0
 40
5
  1
120
 41
0.9
  0
ENDBLK
  8
0
  0
BLOCK
  8
1
  2
*D8
 70
1
 10
0
 20
0
 30
0
  0
LINE
  8
1
 62
1
 10
-41.9057718466343
 20
-75
 30
0
 11
-41.9057718466343
 21
-65
 31
0
  0
LINE
  8
1
 62
1
 10
-41.9057718466343
 20
-88
 30
0
 11
-41.9057718466343
 21
-98
 31
0
  0
LINE
  8
1
 62
1
 10
-41.9057718466343
 20
-88
 30
0
 11
-41.9057718466343
 21
-75
 31
0
  0
LINE
  8
1
 62
1
 10
-30.6541907370472
 20
-88
 30
0
 11
-43.9057718466343
 21
-88
 31
0
  0
LINE
  8
1
 62
1
 10
-1
 20
-75
 30
0
 11
-43.9057718466343
 21
-75
 31
0
  0
LINE
  8
1
 62
1
 10
-1
 20
-88
 30
0
 11
-24.6055076977056
 21
-88
 31
0
  0
SOLID
  8
1
 62
1
 10
-41.9057718466343
 20
-88
 30
0
 11
-41.2557718466343
 21
-93
 31
0
 12
-42.5557718466343
 22
-93
 32
0
 13
-42.5557718466343
 23
-93
 33
0
  0
SOLID
  8
1
 62
1
 10
-41.9057718466343
 20
-75
 30
0
 11
-42.5557718466343
 21
-70
 31
0
 12
-41.2557718466343
 22
-70
 32
0
 13
-41.2557718466343
 23
-70
 33
0
  0
TEXT
  8
1
 62
7
 10
-42.9057718466343
 20
-84.5
 30
0
 40
5
  1
13
 50
90
 41
0.9
  0
ENDBLK
  8
0
  0
BLOCK
  8
1
  2
*D9
 70
1
 10
0
 20
0
 30
0
  0
LINE
  8
1
 62
1
 10
14
 20
70.3847215847874
 30
0
 11
24
 21
70.3847215847874
 31
0
  0
LINE
  8
1
 62
1
 10
1
 20
70.3847215847874
 30
0
 11
-9
 21
70.3847215847874
 31
0
  0
LINE
  8
1
 62
1
 10
1
 20
70.3847215847874
 30
0
 11
14
 21
70.3847215847874
 31
0
  0
LINE
  8
1
 62
1
 10
14
 20
115
 30
0
 11
14
 21
68.3847215847874
 31
0
  0
LINE
  8
1
 62
1
 10
1
 20
83
 30
0
 11
1
 21
68.3847215847874
 31
0
  0
SOLID
  8
1
 62
1
 10
1
 20
70.3847215847874
 30
0
 11
-4
 21
69.73472158478739
 31
0
 12
-4
 22
71.03472158478741
 32
0
 13
-4
 23
71.03472158478741
 33
0
  0
SOLID
  8
1
 62
1
 10
14
 20
70.3847215847874
 30
0
 11
19
 21
71.03472158478741
 31
0
 12
19
 22
69.73472158478739
 32
0
 13
19
 23
69.73472158478739
 33
0
  0
TEXT
  8
1
 62
7
 10
4.5
 20
71.3847215847874
 30
0
 40
5
  1
13
 41
0.9
  0
ENDBLK
  8
0
  0
BLOCK
  8
1
  2
*D10
 70
1
 10
0
 20
0
 30
0
  0
LINE
  8
1
 62
1
 10
14
 20
40.5744705079846
 30
0
 11
36.1311898004001
 21
40.5744705079846
 31
0
  0
LINE
  8
1
 62
1
 10
-12
 20
40.5744705079846
 30
0
 11
14
 21
40.5744705079846
 31
0
  0
LINE
  8
1
 62
1
 10
14
 20
0
 30
0
 11
14
 21
42.5744705079846
 31
0
  0
LINE
  8
1
 62
1
 10
-12
 20
30
 30
0
 11
-12
 21
42.5744705079846
 31
0
  0
SOLID
  8
1
 62
1
 10
-12
 20
40.5744705079846
 30
0
 11
-6.999999999999999
 21
41.2244705079846
 31
0
 12
-6.999999999999999
 22
39.9244705079846
 32
0
 13
-6.999999999999999
 23
39.9244705079846
 33
0
  0
SOLID
  8
1
 62
1
 10
14
 20
40.5744705079846
 30
0
 11
9
 21
39.9244705079846
 31
0
 12
9
 22
41.2244705079846
 32
0
 13
9
 23
41.2244705079846
 33
0
  0
TEXT
  8
1
 62
7
 10
21.1311898004001
 20
42.1620933553215
 30
0
 40
5
  1
2x13
 41
0.9
  0
ENDBLK
  8
0
  0
BLOCK
  8
1
  2
*D11
 70
1
 10
0
 20
0
 30
0
  0
LINE
  8
1
 62
1
 10
148.986346481471
 20
-98
 30
0
 11
148.986346481471
 21
-73
 31
0
  0
LINE
  8
1
 62
1
 10
132
 20
-73
 30
0
 11
150.986346481471
 21
-73
 31
0
  0
LINE
  8
1
 62
1
 10
134
 20
-98
 30
0
 11
150.986346481471
 21
-98
 31
0
  0
SOLID
  8
1
 62
1
 10
148.986346481471
 20
-73
 30
0
 11
149.636346481471
 21
-78
 31
0
 12
148.336346481471
 22
-78
 32
0
 13
148.336346481471
 23
-78
 33
0
  0
SOLID
  8
1
 62
1
 10
148.986346481471
 20
-98
 30
0
 11
148.336346481471
 21
-93
 31
0
 12
149.636346481471
 22
-93
 32
0
 13
149.636346481471
 23
-93
 33
0
  0
TEXT
  8
1
 62
7
 10
147.986346481471
 20
-89.25
 30
0
 40
5
  1
25
 50
90
 41
0.9
  0
ENDBLK
  8
0
  0
BLOCK
  8
1
  2
*D12
 70
1
 10
0
 20
0
 30
0
  0
LINE
  8
1
 62
1
 10
63.1357795579591
 20
-118
 30
0
 11
63.1357795579591
 21
-73
 31
0
  0
LINE
  8
1
 62
1
 10
16
 20
-73
 30
0
 11
65.1357795579591
 21
-73
 31
0
  0
LINE
  8
1
 62
1
 10
16
 20
-118
 30
0
 11
65.1357795579591
 21
-118
 31
0
  0
SOLID
  8
1
 62
1
 10
63.1357795579591
 20
-73
 30
0
 11
63.7857795579591
 21
-78
 31
0
 12
62.4857795579591
 22
-78
 32
0
 13
62.4857795579591
 23
-78
 33
0
  0
SOLID
  8
1
 62
1
 10
63.1357795579591
 20
-118
 30
0
 11
62.4857795579591
 21
-113
 31
0
 12
63.7857795579591
 22
-113
 32
0
 13
63.7857795579591
 23
-113
 33
0
  0
TEXT
  8
1
 62
7
 10
62.1357795579591
 20
-90.7126563345108
 30
0
 40
5
  1
45
 50
90
 41
0.9
  0
ENDBLK
  8
0
  0
BLOCK
  8
1
  2
*D13
 70
1
 10
0
 20
0
 30
0
  0
LINE
  8
1
 62
7
 10
152.75
 20
0
 30
0
 11
152.75
 21
27
 31
0
  0
LINE
  8
1
 62
7
 10
97.3341426632968
 20
27
 30
0
 11
154.75
 21
27
 31
0
  0
LINE
  8
1
 62
7
 10
134
 20
0
 30
0
 11
154.75
 21
0
 31
0
  0
SOLID
  8
1
 62
7
 10
152.75
 20
0
 30
0
 11
152.1
 21
5
 31
0
 12
153.4
 22
5
 32
0
 13
153.4
 23
5
 33
0
  0
SOLID
  8
1
 62
7
 10
152.75
 20
27
 30
0
 11
153.4
 21
22
 31
0
 12
152.1
 22
22
 32
0
 13
152.1
 23
22
 33
0
  0
TEXT
  8
1
 62
7
 10
151.75
 20
9.75
 30
0
 40
5
  1
27
 50
90
 41
0.9
  0
ENDBLK
  8
0
  0
BLOCK
  8
1
  2
*D14
 70
1
 10
0
 20
0
 30
0
  0
LINE
  8
1
 62
7
 10
152.75
 20
27
 30
0
 11
152.75
 21
85
 31
0
  0
LINE
  8
1
 62
7
 10
93
 20
85
 30
0
 11
154.75
 21
85
 31
0
  0
LINE
  8
1
 62
7
 10
97.3341426632968
 20
27
 30
0
 11
154.75
 21
27
 31
0
  0
SOLID
  8
1
 62
7
 10
152.75
 20
27
 30
0
 11
152.1
 21
32
 31
0
 12
153.4
 22
32
 32
0
 13
153.4
 23
32
 33
0
  0
SOLID
  8
1
 62
7
 10
152.75
 20
85
 30
0
 11
153.4
 21
80
 31
0
 12
152.1
 22
80
 32
0
 13
152.1
 23
80
 33
0
  0
TEXT
  8
1
 62
7
 10
151.75
 20
48
 30
0
 40
5
  1
2=58
 50
90
 41
0.9
  0
ENDBLK
  8
0
  0
BLOCK
  8
1
  2
*D15
 70
1
 10
0
 20
0
 30
0
  0
LINE
  8
1
 62
1
 10
160.75
 20
0
 30
0
 11
160.75
 21
27
 31
0
  0
LINE
  8
1
 62
1
 10
97.3341426632968
 20
27
 30
0
 11
162.75
 21
27
 31
0
  0
LINE
  8
1
 62
1
 10
134
 20
0
 30
0
 11
162.75
 21
0
 31
0
  0
SOLID
  8
1
 62
1
 10
160.75
 20
0
 30
0
 11
160.1
 21
5
 31
0
 12
161.4
 22
5
 32
0
 13
161.4
 23
5
 33
0
  0
SOLID
  8
1
 62
1
 10
160.75
 20
27
 30
0
 11
161.4
 21
22
 31
0
 12
160.1
 22
22
 32
0
 13
160.1
 23
22
 33
0
  0
TEXT
  8
1
 62
7
 10
159.75
 20
9.75
 30
0
 40
5
  1
29
 50
90
 41
0.9
  0
ENDBLK
  8
0
  0
BLOCK
  8
1
  2
*D16
 70
1
 10
0
 20
0
 30
0
  0
LINE
  8
1
 62
1
 10
160.75
 20
85
 30
0
 11
160.75
 21
115
 31
0
  0
LINE
  8
1
 62
1
 10
134
 20
115
 30
0
 11
162.75
 21
115
 31
0
  0
LINE
  8
1
 62
1
 10
94.8
 20
85
 30
0
 11
162.75
 21
85
 31
0
  0
SOLID
  8
1
 62
1
 10
160.75
 20
85
 30
0
 11
160.1
 21
90
 31
0
 12
161.4
 22
90
 32
0
 13
161.4
 23
90
 33
0
  0
SOLID
  8
1
 62
1
 10
160.75
 20
115
 30
0
 11
161.4
 21
110
 31
0
 12
160.1
 22
110
 32
0
 13
160.1
 23
110
 33
0
  0
TEXT
  8
1
 62
7
 10
159.75
 20
96.25
 30
0
 40
5
  1
30
 50
90
 41
0.9
  0
ENDBLK
  8
0
  0
BLOCK
  8
1
  2
*D17
 70
1
 10
0
 20
0
 30
0
  0
LINE
  8
1
 62
1
 10
160.75
 20
27
 30
0
 11
160.75
 21
85
 31
0
  0
LINE
  8
1
 62
1
 10
94.8
 20
85
 30
0
 11
162.75
 21
85
 31
0
  0
LINE
  8
1
 62
1
 10
97.3341426632968
 20
27
 30
0
 11
162.75
 21
27
 31
0
  0
SOLID
  8
1
 62
1
 10
160.75
 20
27
 30
0
 11
160.1
 21
32
 31
0
 12
161.4
 22
32
 32
0
 13
161.4
 23
32
 33
0
  0
SOLID
  8
1
 62
1
 10
160.75
 20
85
 30
0
 11
161.4
 21
80
 31
0
 12
160.1
 22
80
 32
0
 13
160.1
 23
80
 33
0
  0
TEXT
  8
1
 62
7
 10
159.75
 20
48
 30
0
 40
5
  1
3=56
 50
90
 41
0.9
  0
ENDBLK
  8
0
  0
BLOCK
  8
1
  2
*D18
 70
1
 10
0
 20
0
 30
0
  0
LINE
  8
1
 62
1
 10
-27.3611327132853
 20
115
 30
0
 11
-27.3611327132853
 21
125
 31
0
  0
LINE
  8
1
 62
1
 10
-27.3611327132853
 20
106
 30
0
 11
-27.3611327132853
 21
96
 31
0
  0
LINE
  8
1
 62
1
 10
-27.3611327132853
 20
106
 30
0
 11
-27.3611327132853
 21
115
 31
0
  0
LINE
  8
1
 62
1
 10
6
 20
115
 30
0
 11
-29.3611327132853
 21
115
 31
0
  0
LINE
  8
1
 62
1
 10
1
 20
106
 30
0
 11
-29.3611327132853
 21
106
 31
0
  0
SOLID
  8
1
 62
1
 10
-27.3611327132853
 20
115
 30
0
 11
-28.0111327132853
 21
120
 31
0
 12
-26.7111327132853
 22
120
 32
0
 13
-26.7111327132853
 23
120
 33
0
  0
SOLID
  8
1
 62
1
 10
-27.3611327132853
 20
106
 30
0
 11
-26.7111327132853
 21
101
 31
0
 12
-28.0111327132853
 22
101
 32
0
 13
-28.0111327132853
 23
101
 33
0
  0
TEXT
  8
1
 62
7
 10
-28.3611327132853
 20
109
 30
0
 40
5
  1
9
 50
90
 41
0.9
  0
ENDBLK
  8
0
  0
BLOCK
  8
1
  2
*D19
 70
1
 10
0
 20
0
 30
0
  0
LINE
  8
1
 62
1
 10
-27.4781360247357
 20
30
 30
0
 11
-27.4781360247357
 21
40
 31
0
  0
LINE
  8
1
 62
1
 10
-27.4781360247357
 20
17
 30
0
 11
-27.4781360247357
 21
7
 31
0
  0
LINE
  8
1
 62
1
 10
-27.4781360247357
 20
17
 30
0
 11
-27.4781360247357
 21
30
 31
0
  0
LINE
  8
1
 62
1
 10
-12
 20
30
 30
0
 11
-29.4781360247357
 21
30
 31
0
  0
LINE
  8
1
 62
1
 10
14
 20
17
 30
0
 11
-29.4781360247357
 21
17
 31
0
  0
SOLID
  8
1
 62
1
 10
-27.4781360247357
 20
30
 30
0
 11
-28.1281360247357
 21
35
 31
0
 12
-26.8281360247357
 22
35
 32
0
 13
-26.8281360247357
 23
35
 33
0
  0
SOLID
  8
1
 62
1
 10
-27.4781360247357
 20
17
 30
0
 11
-26.8281360247357
 21
12
 31
0
 12
-28.1281360247357
 22
12
 32
0
 13
-28.1281360247357
 23
12
 33
0
  0
TEXT
  8
1
 62
7
 10
-28.4781360247357
 20
20.5
 30
0
 40
5
  1
13
 50
90
 41
0.9
  0
ENDBLK
  8
0
  0
BLOCK
  8
1
  2
*D20
 70
1
 10
0
 20
0
 30
0
  0
LINE
  8
1
 62
1
 10
-27.4781360247357
 20
30
 30
0
 11
-27.4781360247357
 21
59
 31
0
  0
LINE
  8
1
 62
1
 10
-12
 20
59
 30
0
 11
-29.4781360247357
 21
59
 31
0
  0
LINE
  8
1
 62
1
 10
-12
 20
30
 30
0
 11
-29.4781360247357
 21
30
 31
0
  0
SOLID
  8
1
 62
1
 10
-27.4781360247357
 20
59
 30
0
 11
-26.8281360247357
 21
54
 31
0
 12
-28.1281360247357
 22
54
 32
0
 13
-28.1281360247357
 23
54
 33
0
  0
SOLID
  8
1
 62
1
 10
-27.4781360247357
 20
30
 30
0
 11
-28.1281360247357
 21
35
 31
0
 12
-26.8281360247357
 22
35
 32
0
 13
-26.8281360247357
 23
35
 33
0
  0
TEXT
  8
1
 62
7
 10
-28.4781360247357
 20
40.75
 30
0
 40
5
  1
29
 50
90
 41
0.9
  0
ENDBLK
  8
0
  0
BLOCK
  8
1
  2
*D21
 70
1
 10
0
 20
0
 30
0
  0
LINE
  8
1
 62
1
 10
-27.3611327132853
 20
59
 30
0
 11
-27.3611327132853
 21
83
 31
0
  0
LINE
  8
1
 62
1
 10
14
 20
83
 30
0
 11
-29.3611327132853
 21
83
 31
0
  0
LINE
  8
1
 62
1
 10
-12
 20
59
 30
0
 11
-29.3611327132853
 21
59
 31
0
  0
SOLID
  8
1
 62
1
 10
-27.3611327132853
 20
83
 30
0
 11
-26.7111327132853
 21
78
 31
0
 12
-28.0111327132853
 22
78
 32
0
 13
-28.0111327132853
 23
78
 33
0
  0
SOLID
  8
1
 62
1
 10
-27.3611327132853
 20
59
 30
0
 11
-28.0111327132853
 21
64
 31
0
 12
-26.7111327132853
 22
64
 32
0
 13
-26.7111327132853
 23
64
 33
0
  0
TEXT
  8
1
 62
7
 10
-28.3611327132853
 20
67.25
 30
0
 40
5
  1
24
 50
90
 41
0.9
  0
ENDBLK
  8
0
  0
BLOCK
  8
1
  2
*D22
 70
1
 10
0
 20
0
 30
0
  0
LINE
  8
1
 62
1
 10
-27.3611327132853
 20
83
 30
0
 11
-27.3611327132853
 21
106
 31
0
  0
LINE
  8
1
 62
1
 10
1
 20
106
 30
0
 11
-29.3611327132853
 21
106
 31
0
  0
LINE
  8
1
 62
1
 10
14
 20
83
 30
0
 11
-29.3611327132853
 21
83
 31
0
  0
SOLID
  8
1
 62
1
 10
-27.3611327132853
 20
106
 30
0
 11
-26.7111327132853
 21
101
 31
0
 12
-28.0111327132853
 22
101
 32
0
 13
-28.0111327132853
 23
101
 33
0
  0
SOLID
  8
1
 62
1
 10
-27.3611327132853
 20
83
 30
0
 11
-28.0111327132853
 21
88
 31
0
 12
-26.7111327132853
 22
88
 32
0
 13
-26.7111327132853
 23
88
 33
0
  0
TEXT
  8
1
 62
7
 10
-28.3611327132853
 20
90.75
 30
0
 40
5
  1
23
 50
90
 41
0.9
  0
ENDBLK
  8
0
  0
BLOCK
  8
1
  2
*D23
 70
1
 10
0
 20
0
 30
0
  0
LINE
  8
1
 62
1
 10
-27.0080895460337
 20
-78
 30
0
 11
-27.0080895460337
 21
-68
 31
0
  0
LINE
  8
1
 62
1
 10
-27.0080895460337
 20
-89
 30
0
 11
-27.0080895460337
 21
-99
 31
0
  0
LINE
  8
1
 62
1
 10
-27.0080895460337
 20
-89
 30
0
 11
-27.0080895460337
 21
-78
 31
0
  0
LINE
  8
1
 62
1
 10
-12
 20
-78
 30
0
 11
-29.0080895460337
 21
-78
 31
0
  0
LINE
  8
1
 62
1
 10
-12
 20
-89
 30
0
 11
-29.0080895460337
 21
-89
 31
0
  0
SOLID
  8
1
 62
1
 10
-27.0080895460337
 20
-78
 30
0
 11
-27.6580895460337
 21
-73
 31
0
 12
-26.3580895460337
 22
-73
 32
0
 13
-26.3580895460337
 23
-73
 33
0
  0
SOLID
  8
1
 62
1
 10
-27.0080895460337
 20
-89
 30
0
 11
-26.3580895460337
 21
-94
 31
0
 12
-27.6580895460337
 22
-94
 32
0
 13
-27.6580895460337
 23
-94
 33
0
  0
TEXT
  8
1
 62
7
 10
-28.0080895460337
 20
-85.75
 30
0
 40
5
  1
11
 50
90
 41
0.9
  0
ENDBLK
  8
0
  0
BLOCK
  8
1
  2
*D24
 70
1
 10
0
 20
0
 30
0
  0
LINE
  8
1
 62
1
 10
-27.1201021949103
 20
-89
 30
0
 11
-27.1201021949103
 21
-79
 31
0
  0
LINE
  8
1
 62
1
 10
-27.1201021949103
 20
-98
 30
0
 11
-27.1201021949103
 21
-108
 31
0
  0
LINE
  8
1
 62
1
 10
-27.1201021949103
 20
-98
 30
0
 11
-27.1201021949103
 21
-89
 31
0
  0
LINE
  8
1
 62
1
 10
-12
 20
-89
 30
0
 11
-29.1201021949103
 21
-89
 31
0
  0
LINE
  8
1
 62
1
 10
16
 20
-98
 30
0
 11
-29.1201021949103
 21
-98
 31
0
  0
SOLID
  8
1
 62
1
 10
-27.1201021949103
 20
-89
 30
0
 11
-27.7701021949103
 21
-84
 31
0
 12
-26.4701021949103
 22
-84
 32
0
 13
-26.4701021949103
 23
-84
 33
0
  0
SOLID
  8
1
 62
1
 10
-27.1201021949103
 20
-98
 30
0
 11
-26.4701021949103
 21
-103
 31
0
 12
-27.7701021949103
 22
-103
 32
0
 13
-27.7701021949103
 23
-103
 33
0
  0
TEXT
  8
1
 62
7
 10
-28.1201021949103
 20
-95
 30
0
 40
5
  1
9
 50
90
 41
0.9
  0
ENDBLK
  8
0
  0
BLOCK
  8
1
  2
*D25
 70
1
 10
0
 20
0
 30
0
  0
LINE
  8
1
 62
1
 10
48.4912522949277
 20
-73
 30
0
 11
48.4912522949277
 21
-63
 31
0
  0
LINE
  8
1
 62
1
 10
48.4912522949277
 20
-78
 30
0
 11
48.4912522949277
 21
-73
 31
0
  0
LINE
  8
1
 62
1
 10
48.4912522949277
 20
-88
 30
0
 11
48.4912522949277
 21
-78
 31
0
  0
LINE
  8
1
 62
1
 10
16
 20
-73
 30
0
 11
50.4912522949277
 21
-73
 31
0
  0
LINE
  8
1
 62
1
 10
14
 20
-78
 30
0
 11
50.4912522949277
 21
-78
 31
0
  0
SOLID
  8
1
 62
1
 10
48.4912522949277
 20
-73
 30
0
 11
47.8412522949277
 21
-68
 31
0
 12
49.1412522949277
 22
-68
 32
0
 13
49.1412522949277
 23
-68
 33
0
  0
SOLID
  8
1
 62
1
 10
48.4912522949277
 20
-78
 30
0
 11
49.1412522949277
 21
-83
 31
0
 12
47.8412522949277
 22
-83
 32
0
 13
47.8412522949277
 23
-83
 33
0
  0
TEXT
  8
1
 62
7
 10
47.4912522949277
 20
-68.492846430377
 30
0
 40
5
  1
5
 50
90
 41
0.9
  0
ENDBLK
  8
0
  0
BLOCK
  8
1
  2
*D26
 70
1
 10
0
 20
0
 30
0
  0
LINE
  8
1
 62
1
 10
48.4912522949277
 20
-104
 30
0
 11
48.4912522949277
 21
-78
 31
0
  0
LINE
  8
1
 62
1
 10
14
 20
-78
 30
0
 11
50.4912522949277
 21
-78
 31
0
  0
LINE
  8
1
 62
1
 10
22.5
 20
-104
 30
0
 11
50.4912522949277
 21
-104
 31
0
  0
SOLID
  8
1
 62
1
 10
48.4912522949277
 20
-78
 30
0
 11
49.1412522949277
 21
-83
 31
0
 12
47.8412522949277
 22
-83
 32
0
 13
47.8412522949277
 23
-83
 33
0
  0
SOLID
  8
1
 62
1
 10
48.4912522949277
 20
-104
 30
0
 11
47.8412522949277
 21
-99
 31
0
 12
49.1412522949277
 22
-99
 32
0
 13
49.1412522949277
 23
-99
 33
0
  0
TEXT
  8
1
 62
7
 10
47.4912522949277
 20
-94.75
 30
0
 40
5
  1
26
 50
90
 41
0.9
  0
ENDBLK
  8
0
  0
ENDSEC
  0
SECTION
  2
ENTITIES
  0
LINE
  8
1
 62
3
  6
DASHED
 10
14
 20
13.75000000000001
 30
0
 11
15.80000000000007
 21
11.95000000000003
 31
0
  0
LINE
  8
1
 62
2
  6
DASHDOT
 10
13.0223688074459
 20
8.750000000000014
 30
0
 11
17.0122420363958
 21
8.750000000000014
 31
0
  0
LINE
  8
1
 62
3
  6
DASHED
 10
14
 20
3.750000000000014
 30
0
 11
15.80000000000007
 21
5.550000000000011
 31
0
  0
LINE
  8
1
 62
3
  6
DASHED
 10
15.80000000000007
 20
11.95000000000003
 30
0
 11
16
 21
11.95000000000003
 31
0
  0
LINE
  8
1
 62
3
  6
DASHED
 10
15.80000000000007
 20
5.550000000000011
 30
0
 11
16
 21
5.550000000000011
 31
0
  0
LINE
  8
1
 62
3
  6
DASHED
 10
15.80000000000007
 20
11.95000000000003
 30
0
 11
15.80000000000007
 21
5.550000000000011
 31
0
  0
LINE
  8
1
 62
2
  6
DASHDOT
 10
13.0223688074459
 20
-83.5
 30
0
 11
17.0122420363958
 21
-83.5
 31
0
  0
LINE
  8
1
 62
2
  6
DASHDOT
 10
223.5000000000001
 20
0.7500000000000142
 30
0
 11
223.5000000000001
 21
16.75000000000001
 31
0
  0
LINE
  8
1
 62
2
  6
DASHDOT
 10
215.5
 20
8.750000000000014
 30
0
 11
231.5000000000001
 21
8.750000000000014
 31
0
  0
LINE
  8
1
 62
3
  6
DASHED
 10
14
 20
-88.5
 30
0
 11
15.80000000000007
 21
-86.7
 31
0
  0
LINE
  8
1
 62
3
  6
DASHED
 10
14
 20
-78.5
 30
0
 11
15.80000000000007
 21
-80.29999999999998
 31
0
  0
LINE
  8
1
 62
3
  6
DASHED
 10
15.80000000000007
 20
-80.29999999999998
 30
0
 11
16
 21
-80.29999999999998
 31
0
  0
LINE
  8
1
 62
3
  6
DASHED
 10
15.80000000000007
 20
-86.7
 30
0
 11
16
 21
-86.7
 31
0
  0
LINE
  8
1
 62
3
  6
DASHED
 10
15.80000000000007
 20
-80.29999999999998
 30
0
 11
15.80000000000007
 21
-86.7
 31
0
  0
LINE
  8
1
 62
2
  6
DIVIDE
 10
250.0000000000001
 20
5.925000000000026
 30
0
 11
250.0000000000001
 21
9.77500000000002
 31
0
  0
LINE
  8
1
 62
2
  6
DIVIDE
 10
251.9250000000001
 20
7.850000000000023
 30
0
 11
248.075
 21
7.850000000000023
 31
0
  0
LINE
  8
1
 62
2
  6
DIVIDE
 10
250.0000000000001
 20
105.325
 30
0
 11
250.0000000000001
 21
109.175
 31
0
  0
LINE
  8
1
 62
2
  6
DIVIDE
 10
251.9250000000001
 20
107.25
 30
0
 11
248.075
 21
107.25
 31
0
  0
LINE
  8
1
 62
7
 10
218.5000000000001
 20
58.20000000000003
 30
0
 11
229.6
 21
58.20000000000003
 31
0
  0
LINE
  8
1
 62
7
 10
218.5000000000001
 20
29.20000000000002
 30
0
 11
229.6
 21
29.20000000000002
 31
0
  0
LINE
  8
1
 62
7
 10
218.5000000000001
 20
58.20000000000003
 30
0
 11
218.5000000000001
 21
29.20000000000002
 31
0
  0
LINE
  8
1
 62
7
 10
229.6
 20
58.20000000000003
 30
0
 11
229.6
 21
29.20000000000002
 31
0
  0
LINE
  8
1
 62
7
 10
215.5
 20
-0.2499999999999858
 30
0
 11
258.0000000000001
 21
-0.2499999999999716
 31
0
  0
LINE
  8
1
 62
7
 10
258.0000000000001
 20
115.25
 30
0
 11
215.5
 21
115.25
 31
0
  0
LINE
  8
1
 62
7
 10
258.0000000000001
 20
115.25
 30
0
 11
258.0000000000001
 21
-0.2499999999999716
 31
0
  0
LINE
  8
1
 62
7
 10
213
 20
115
 30
0
 11
213
 21
0
 31
0
  0
LINE
  8
1
 62
3
  6
DASHED
 10
215
 20
112.75
 30
0
 11
215
 21
2.250000000000014
 31
0
  0
LINE
  8
1
 62
3
  6
DASHED
 10
237.7
 20
113.25
 30
0
 11
215.5
 21
113.25
 31
0
  0
LINE
  8
1
 62
3
  6
DASHED
 10
215.5
 20
1.750000000000014
 30
0
 11
237.7
 21
1.750000000000028
 31
0
  0
LINE
  8
1
 62
3
  6
DASHED
 10
237.7
 20
115.25
 30
0
 11
237.7
 21
103.25
 31
0
  0
LINE
  8
1
 62
7
 10
211
 20
115
 30
0
 11
211
 21
0
 31
0
  0
LINE
  8
1
 62
7
 10
209
 20
115
 30
0
 11
209
 21
0
 31
0
  0
LINE
  8
1
 62
7
 10
209
 20
115
 30
0
 11
213
 21
115
 31
0
  0
LINE
  8
1
 62
7
 10
209
 20
0
 30
0
 11
213
 21
0
 31
0
  0
LINE
  8
1
 62
7
 10
222.4000000000002
 20
103.25
 30
0
 11
245.0000000000001
 21
103.25
 31
0
  0
LINE
  8
1
 62
7
 10
222.4000000000002
 20
84.85000000000002
 30
0
 11
245.0000000000001
 21
84.85000000000002
 31
0
  0
LINE
  8
1
 62
7
 10
222.4000000000002
 20
82.05000000000003
 30
0
 11
222.4000000000002
 21
84.85000000000002
 31
0
  0
LINE
  8
1
 62
7
 10
218.1999999999999
 20
82.05000000000003
 30
0
 11
222.4000000000002
 21
82.05000000000003
 31
0
  0
LINE
  8
1
 62
7
 10
218.1999999999999
 20
106.05
 30
0
 11
222.4000000000002
 21
106.05
 31
0
  0
LINE
  8
1
 62
7
 10
218.1999999999999
 20
106.05
 30
0
 11
218.1999999999999
 21
82.05000000000003
 31
0
  0
LINE
  8
1
 62
7
 10
245.0000000000001
 20
103.25
 30
0
 11
245.0000000000001
 21
84.85000000000002
 31
0
  0
LINE
  8
1
 62
7
 10
222.4000000000002
 20
106.05
 30
0
 11
222.4000000000002
 21
103.25
 31
0
  0
LINE
  8
1
 62
3
  6
DASHED
 10
237.7
 20
103.25
 30
0
 11
237.7
 21
-0.3500000000000085
 31
0
  0
LINE
  8
1
 62
7
 10
79.5
 20
80.5
 30
0
 11
79.5
 21
89.5
 31
0
  0
LINE
  8
1
 62
7
 10
88.5
 20
80.5
 30
0
 11
79.5
 21
80.5
 31
0
  0
LINE
  8
1
 62
7
 10
88.5
 20
89.5
 30
0
 11
88.5
 21
80.5
 31
0
  0
LINE
  8
1
 62
7
 10
79.5
 20
89.5
 30
0
 11
88.5
 21
89.5
 31
0
  0
LINE
  8
1
 62
7
 10
14
 20
0
 30
0
 11
134
 21
0
 31
0
  0
LINE
  8
1
 62
7
 10
134
 20
0
 30
0
 11
134
 21
115
 31
0
  0
LINE
  8
1
 62
7
 10
134
 20
115
 30
0
 11
14
 21
115
 31
0
  0
LINE
  8
1
 62
7
 10
14
 20
115
 30
0
 11
14
 21
0
 31
0
  0
LINE
  8
1
 62
7
 10
16
 20
2
 30
0
 11
134
 21
2
 31
0
  0
LINE
  8
1
 62
7
 10
132
 20
2
 30
0
 11
132
 21
113
 31
0
  0
LINE
  8
1
 62
7
 10
134
 20
113
 30
0
 11
16
 21
113
 31
0
  0
LINE
  8
1
 62
7
 10
16
 20
115
 30
0
 11
16
 21
0
 31
0
  0
LINE
  8
1
 62
2
  6
PHANTOM
 10
73.2
 20
85
 30
0
 11
94.8
 21
85
 31
0
  0
LINE
  8
1
 62
2
  6
PHANTOM
 10
84
 20
95.8
 30
0
 11
84
 21
74.2
 31
0
  0
LINE
  8
1
 62
2
  6
PHANTOM
 10
70.51426401143731
 20
27
 30
0
 11
97.3341426632968
 21
27
 31
0
  0
LINE
  8
1
 62
7
 10
46.99999999999999
 20
2
 30
0
 11
47
 21
113
 31
0
  0
LINE
  8
1
 62
7
 10
118
 20
2
 30
0
 11
118
 21
113
 31
0
  0
LINE
  8
1
 62
7
 10
1
 20
106
 30
0
 11
14
 21
106
 31
0
  0
LINE
  8
1
 62
7
 10
16
 20
106
 30
0
 11
22.5
 21
106
 31
0
  0
LINE
  8
1
 62
7
 10
1
 20
103
 30
0
 11
14
 21
103
 31
0
  0
LINE
  8
1
 62
7
 10
16
 20
103
 30
0
 11
22.5
 21
103
 31
0
  0
LINE
  8
1
 62
7
 10
1
 20
86
 30
0
 11
14
 21
86
 31
0
  0
LINE
  8
1
 62
7
 10
16
 20
86
 30
0
 11
22.5
 21
86
 31
0
  0
LINE
  8
1
 62
7
 10
1
 20
83
 30
0
 11
14
 21
83
 31
0
  0
LINE
  8
1
 62
7
 10
16
 20
83
 30
0
 11
22.5
 21
83
 31
0
  0
LINE
  8
1
 62
7
 10
1
 20
83
 30
0
 11
1
 21
106
 31
0
  0
LINE
  8
1
 62
7
 10
22.5
 20
83
 30
0
 11
22.5
 21
90
 31
0
  0
LINE
  8
1
 62
7
 10
25.5
 20
101
 30
0
 11
47
 21
101
 31
0
  0
LINE
  8
1
 62
7
 10
25.5
 20
93
 30
0
 11
47
 21
93
 31
0
  0
LINE
  8
1
 62
7
 10
22.5
 20
104
 30
0
 11
22.5
 21
106
 31
0
  0
LINE
  8
1
 62
7
 10
22.5
 20
90
 30
0
 11
22.5
 21
104
 31
0
  0
LINE
  8
1
 62
7
 10
16
 20
59
 30
0
 11
47
 21
59
 31
0
  0
LINE
  8
1
 62
7
 10
16
 20
30
 30
0
 11
46.99999999999999
 21
30
 31
0
  0
LINE
  8
1
 62
3
  6
PHANTOM
 10
14
 20
30
 30
0
 11
-12
 21
30
 31
0
  0
LINE
  8
1
 62
3
  6
PHANTOM
 10
-12
 20
30
 30
0
 11
-12
 21
59
 31
0
  0
LINE
  8
1
 62
3
  6
PHANTOM
 10
-12
 20
59
 30
0
 11
14
 21
59
 31
0
  0
LINE
  8
1
 62
3
  6
PHANTOM
 10
1
 20
30
 30
0
 11
1
 21
59
 31
0
  0
LINE
  8
1
 62
7
 10
43.99999999999999
 20
30
 30
0
 11
43.99999999999999
 21
59
 31
0
  0
LINE
  8
1
 62
3
  6
PHANTOM
 10
14
 20
17
 30
0
 11
-1
 21
17
 31
0
  0
LINE
  8
1
 62
7
 10
14
 20
0
 30
0
 11
6
 21
0
 31
0
  0
LINE
  8
1
 62
7
 10
0
 20
6
 30
0
 11
0
 21
109
 31
0
  0
LINE
  8
1
 62
7
 10
6
 20
115
 30
0
 11
14
 21
115
 31
0
  0
LINE
  8
1
 62
7
 10
14
 20
-118
 30
0
 11
14
 21
-75
 31
0
  0
LINE
  8
1
 62
7
 10
16
 20
-73
 30
0
 11
132
 21
-73
 31
0
  0
LINE
  8
1
 62
7
 10
134
 20
-75
 30
0
 11
134
 21
-98
 31
0
  0
LINE
  8
1
 62
7
 10
134
 20
-98
 30
0
 11
16
 21
-98
 31
0
  0
LINE
  8
1
 62
7
 10
16
 20
-98
 30
0
 11
16
 21
-118
 31
0
  0
LINE
  8
1
 62
7
 10
16
 20
-118
 30
0
 11
14
 21
-118
 31
0
  0
LINE
  8
1
 62
7
 10
16
 20
-98
 30
0
 11
16
 21
-75
 31
0
  0
LINE
  8
1
 62
2
  6
PHANTOM
 10
38.7
 20
104.8
 30
0
 11
45.3
 21
104.8
 31
0
  0
LINE
  8
1
 62
2
  6
PHANTOM
 10
42
 20
108.1
 30
0
 11
42
 21
101.5
 31
0
  0
LINE
  8
1
 62
2
  6
PHANTOM
 10
119.1
 20
104.8
 30
0
 11
125.7
 21
104.8
 31
0
  0
LINE
  8
1
 62
2
  6
PHANTOM
 10
122.4
 20
108.1
 30
0
 11
122.4
 21
101.5
 31
0
  0
LINE
  8
1
 62
2
  6
PHANTOM
 10
119.1
 20
8.099999999999987
 30
0
 11
125.7
 21
8.099999999999987
 31
0
  0
LINE
  8
1
 62
2
  6
PHANTOM
 10
122.4
 20
11.39999999999999
 30
0
 11
122.4
 21
4.799999999999997
 31
0
  0
LINE
  8
1
 62
2
  6
PHANTOM
 10
38.7
 20
21.3
 30
0
 11
45.29999999999999
 21
21.3
 31
0
  0
LINE
  8
1
 62
2
  6
PHANTOM
 10
41.99999999999999
 20
24.59999999999999
 30
0
 11
41.99999999999999
 21
18
 31
0
  0
LINE
  8
1
 62
7
 10
33.5
 20
-73
 30
0
 11
33.5
 21
-71
 31
0
  0
LINE
  8
1
 62
7
 10
33.5
 20
-71
 30
0
 11
17.5
 21
-71
 31
0
  0
LINE
  8
1
 62
7
 10
17.5
 20
-71
 30
0
 11
14
 21
-69
 31
0
  0
LINE
  8
1
 62
7
 10
14
 20
-69
 30
0
 11
0
 21
-69
 31
0
  0
LINE
  8
1
 62
7
 10
0
 20
-69
 30
0
 11
0
 21
-71
 31
0
  0
LINE
  8
1
 62
7
 10
0
 20
-71
 30
0
 11
13.46887112585074
 21
-71
 31
0
  0
LINE
  8
1
 62
7
 10
13.46887112585074
 20
-71
 30
0
 11
16.96887112585074
 21
-73
 31
0
  0
LINE
  8
1
 62
7
 10
64.5
 20
-73
 30
0
 11
103.5
 21
-73
 31
0
  0
LINE
  8
1
 62
7
 10
103.5
 20
-73
 30
0
 11
103.5
 21
-71
 31
0
  0
LINE
  8
1
 62
7
 10
103.5
 20
-71
 30
0
 11
64.5
 21
-71
 31
0
  0
LINE
  8
1
 62
7
 10
64.5
 20
-71
 30
0
 11
64.5
 21
-73
 31
0
  0
LINE
  8
1
 62
7
 10
14
 20
-78
 30
0
 11
1
 21
-78
 31
0
  0
LINE
  8
1
 62
7
 10
1
 20
-78
 30
0
 11
1
 21
-82
 31
0
  0
LINE
  8
1
 62
7
 10
1
 20
-82
 30
0
 11
14
 21
-104
 31
0
  0
LINE
  8
1
 62
7
 10
1
 20
-82
 30
0
 11
14
 21
-82
 31
0
  0
LINE
  8
1
 62
7
 10
16
 20
-104
 30
0
 11
22.5
 21
-104
 31
0
  0
LINE
  8
1
 62
7
 10
22.5
 20
-104
 30
0
 11
22.5
 21
-98
 31
0
  0
LINE
  8
1
 62
3
  6
PHANTOM
 10
14
 20
-75
 30
0
 11
-1
 21
-75
 31
0
  0
LINE
  8
1
 62
3
  6
PHANTOM
 10
-1
 20
-75
 30
0
 11
-1
 21
-88
 31
0
  0
LINE
  8
1
 62
3
  6
PHANTOM
 10
-1
 20
-88
 30
0
 11
14
 21
-88
 31
0
  0
LINE
  8
1
 62
3
  6
PHANTOM
 10
1
 20
-78
 30
0
 11
-12
 21
-78
 31
0
  0
LINE
  8
1
 62
3
  6
PHANTOM
 10
-12
 20
-78
 30
0
 11
-12
 21
-89
 31
0
  0
LINE
  8
1
 62
3
  6
PHANTOM
 10
-12
 20
-89
 30
0
 11
14
 21
-89
 31
0
  0
LINE
  8
1
 62
7
 10
89.5
 20
-98
 30
0
 11
78.5
 21
-98
 31
0
  0
LINE
  8
1
 62
2
  6
PHANTOM
 10
84
 20
-66
 30
0
 11
84
 21
-109.342795232936
 31
0
  0
LINE
  8
1
 62
2
  6
PHANTOM
 10
84
 20
39.6523642815305
 30
0
 11
84
 21
2
 31
0
  0
LINE
  8
1
 62
7
 10
50
 20
0
 30
0
 11
48
 21
0
 31
0
  0
LINE
  8
1
 62
7
 10
89.11250000000001
 20
7.949999999999992
 30
0
 11
89.11250000000001
 21
17.1333896398003
 31
0
  0
LINE
  8
1
 62
7
 10
78.88749999999999
 20
7.949999999999992
 30
0
 11
78.88749999999999
 21
17.1333896398003
 31
0
  0
ARC
  8
1
 62
7
 10
73
 20
94.5
 30
0
 40
60
 50
171.8556994455376
 51
188.1443005544624
  0
ARC
  8
1
 62
7
 10
84
 20
27
 30
0
 40
11.11250000000001
 50
297.3914626952544
 51
242.6085373047456
  0
ARC
  8
1
 62
7
 10
84
 20
7.949999999999992
 30
0
 40
5.112500000000011
 50
180
 51
0
  0
CIRCLE
  8
1
 62
7
 10
223.5000000000001
 20
8.750000000000014
 30
0
 40
3.199999999999989
  0
CIRCLE
  8
1
 62
7
 10
223.5000000000001
 20
8.750000000000014
 30
0
 40
5
  0
CIRCLE
  8
1
 62
7
 10
250.0000000000001
 20
7.850000000000023
 30
0
 40
1.75
  0
CIRCLE
  8
1
 62
7
 10
250.0000000000001
 20
107.25
 30
0
 40
1.75
  0
CIRCLE
  8
1
 62
7
 10
84
 20
85
 30
0
 40
9
  0
CIRCLE
  8
1
 62
7
 10
42
 20
104.8
 30
0
 40
2.75
  0
CIRCLE
  8
1
 62
7
 10
122.4
 20
104.8
 30
0
 40
2.75
  0
CIRCLE
  8
1
 62
7
 10
122.4
 20
8.099999999999987
 30
0
 40
2.75
  0
CIRCLE
  8
1
 62
7
 10
41.99999999999999
 20
21.3
 30
0
 40
2.75
  0
ARC
  8
1
 62
3
  6
DASHED
 10
215.5
 20
112.75
 30
0
 40
0.5
 50
90
 51
180
  0
ARC
  8
1
 62
3
  6
DASHED
 10
215.5
 20
2.250000000000014
 30
0
 40
0.5
 50
180
 51
270
  0
ARC
  8
1
 62
7
 10
215.5
 20
112.75
 30
0
 40
2.5
 50
90
 51
180
  0
ARC
  8
1
 62
7
 10
215.5
 20
2.250000000000014
 30
0
 40
2.5
 50
180.0000000000007
 51
270
  0
ARC
  8
1
 62
7
 10
25.5
 20
90
 30
0
 40
3
 50
90
 51
180
  0
ARC
  8
1
 62
7
 10
25.5
 20
104
 30
0
 40
3
 50
180
 51
270
  0
ARC
  8
1
 62
7
 10
6
 20
109
 30
0
 40
6
 50
90
 51
180
  0
ARC
  8
1
 62
7
 10
6
 20
6
 30
0
 40
6
 50
180
 51
270
  0
ARC
  8
1
 62
7
 10
132
 20
-75
 30
0
 40
2
 50
0
 51
90
  0
ARC
  8
1
 62
7
 10
16
 20
-75
 30
0
 40
2
 50
90
 51
180
  0
TEXT
  8
1
 62
7
 10
272.8944573419771
 20
11.73993054698359
 30
0
 40
5
  1
2=9
 50
90
 41
0.9
  0
TEXT
  8
1
 62
7
 10
165.247562296858
 20
-97.0723726977248
 30
0
 40
5
  1
2103
 41
0.9
  0
DIMENSION
  8
1
  6
CONTINUOUS
 62
1
  2
*D0
  3
DMST_1
 10
284.373619281788
 20
8.750000000000014
 30
0
 11
280.873619281788
 21
18.732165572126
 31
0
 12
0
 22
0
 32
0
 70
0
  1
3=10
 13
258.0000000000001
 23
-0.2499999999999716
 33
0
 14
231.5000000000001
 24
8.750000000000014
 34
0
 50
90
 53
0
  0
DIMENSION
  8
1
  6
CONTINUOUS
 62
1
  2
*D1
  3
DMST_1
 10
258.0000000000001
 20
-29.9573750075766
 30
0
 11
240.7500000000001
 21
-26.2073750075766
 31
0
 12
0
 22
0
 32
0
 70
0
 13
223.5000000000001
 23
16.75000000000001
 33
0
 14
258.0000000000001
 24
-0.2499999999999716
 34
0
 53
0
  0
DIMENSION
  8
1
  6
CONTINUOUS
 62
1
  2
*D2
  3
DMST_1
 10
237.7000000000001
 20
-15.3706444066637
 30
0
 11
230.6000000000001
 21
-11.6206444066637
 31
0
 12
0
 22
0
 32
0
 70
0
  1
14,5
 13
223.5000000000001
 23
0.7500000000000142
 33
0
 14
237.7
 24
-0.3500000000000085
 34
0
 53
0
  0
DIMENSION
  8
1
  6
CONTINUOUS
 62
1
  2
*D3
  3
DMST_1
 10
14
 20
-14.8955781902403
 30
0
 11
7
 21
-11.3955781902403
 31
0
 12
0
 22
0
 32
0
 70
0
  1
15
 13
0
 23
6
 33
0
 14
14
 24
0
 34
0
 53
0
  0
DIMENSION
  8
1
  6
CONTINUOUS
 62
1
  2
*D4
  3
DMST_1
 10
88.5
 20
61.97478929183939
 30
0
 11
84
 21
65.47478929183939
 31
0
 12
0
 22
0
 32
0
 70
0
 13
79.5
 23
80.5
 33
0
 14
88.5
 24
80.5
 34
0
 53
0
  0
DIMENSION
  8
1
  6
CONTINUOUS
 62
1
  2
*D5
  3
DMST_1
 10
172.75
 20
115
 30
0
 11
169.25
 21
57.5
 31
0
 12
0
 22
0
 32
0
 70
0
 13
134
 23
0
 33
0
 14
134
 24
115
 34
0
 50
90
 53
0
  0
DIMENSION
  8
1
  6
CONTINUOUS
 62
1
  2
*D6
  3
DMST_1
 10
84
 20
-30.1488087751833
 30
0
 11
49
 21
-26.6488087751833
 31
0
 12
0
 22
0
 32
0
 70
0
 13
14
 23
0
 33
0
 14
84
 24
2
 34
0
 53
0
  0
DIMENSION
  8
1
  6
CONTINUOUS
 62
1
  2
*D7
  3
DMST_1
 10
134
 20
-44.7483598748665
 30
0
 11
74
 21
-41.2483598748665
 31
0
 12
0
 22
0
 32
0
 70
0
 13
14
 23
0
 33
0
 14
134
 24
0
 34
0
 53
0
  0
DIMENSION
  8
1
  6
CONTINUOUS
 62
1
  2
*D8
  3
DMST_1
 10
-41.9057718466343
 20
-88
 30
0
 11
-45.4057718466343
 21
-81.5
 31
0
 12
0
 22
0
 32
0
 70
0
 13
-1
 23
-75
 33
0
 14
-1
 24
-88
 34
0
 50
90
 53
0
  0
DIMENSION
  8
1
  6
CONTINUOUS
 62
1
  2
*D9
  3
DMST_1
 10
14
 20
70.3847215847874
 30
0
 11
7.5
 21
73.8847215847874
 31
0
 12
0
 22
0
 32
0
 70
0
 13
1
 23
83
 33
0
 14
14
 24
115
 34
0
 53
0
  0
DIMENSION
  8
1
  6
CONTINUOUS
 62
1
  2
*D10
  3
DMST_1
 10
14
 20
40.5744705079846
 30
0
 11
28.6311898004001
 21
44.6620933553215
 31
0
 12
0
 22
0
 32
0
 70
0
  1
2x13
 13
-12
 23
30
 33
0
 14
14
 24
0
 34
0
 53
0
  0
DIMENSION
  8
1
  6
CONTINUOUS
 62
1
  2
*D11
  3
DMST_1
 10
148.986346481471
 20
-73
 30
0
 11
145.486346481471
 21
-85.5
 31
0
 12
0
 22
0
 32
0
 70
0
 13
134
 23
-98
 33
0
 14
132
 24
-73
 34
0
 50
90
 53
0
  0
DIMENSION
  8
1
  6
CONTINUOUS
 62
1
  2
*D12
  3
DMST_1
 10
63.1357795579591
 20
-73
 30
0
 11
59.6357795579591
 21
-86.9626563345108
 31
0
 12
0
 22
0
 32
0
 70
0
 13
16
 23
-118
 33
0
 14
16
 24
-73
 34
0
 50
90
 53
0
  0
DIMENSION
  8
1
  6
CONTINUOUS
 62
7
  2
*D13
  3
DMST_2
 10
152.75
 20
27
 30
0
 11
149.25
 21
13.5
 31
0
 12
0
 22
0
 32
0
 70
0
  1
27
 13
134
 23
0
 33
0
 14
97.3341426632968
 24
27
 34
0
 50
90
 53
0
  0
DIMENSION
  8
1
  6
CONTINUOUS
 62
7
  2
*D14
  3
DMST_2
 10
152.75
 20
85
 30
0
 11
149.25
 21
56
 31
0
 12
0
 22
0
 32
0
 70
0
  1
2=58
 13
97.3341426632968
 23
27
 33
0
 14
93
 24
85
 34
0
 50
90
 53
0
  0
DIMENSION
  8
1
  6
CONTINUOUS
 62
1
  2
*D15
  3
DMST_1
 10
160.75
 20
27
 30
0
 11
157.25
 21
13.5
 31
0
 12
0
 22
0
 32
0
 70
0
  1
29
 13
134
 23
0
 33
0
 14
97.3341426632968
 24
27
 34
0
 50
90
 53
0
  0
DIMENSION
  8
1
  6
CONTINUOUS
 62
1
  2
*D16
  3
DMST_1
 10
160.75
 20
115
 30
0
 11
157.25
 21
100
 31
0
 12
0
 22
0
 32
0
 70
0
 13
94.8
 23
85
 33
0
 14
134
 24
115
 34
0
 50
90
 53
0
  0
DIMENSION
  8
1
  6
CONTINUOUS
 62
1
  2
*D17
  3
DMST_1
 10
160.75
 20
85
 30
0
 11
157.25
 21
56
 31
0
 12
0
 22
0
 32
0
 70
0
  1
3=56
 13
97.3341426632968
 23
27
 33
0
 14
94.8
 24
85
 34
0
 50
90
 53
0
  0
DIMENSION
  8
1
  6
CONTINUOUS
 62
1
  2
*D18
  3
DMST_1
 10
-27.3611327132853
 20
115
 30
0
 11
-30.8611327132853
 21
110.5
 31
0
 12
0
 22
0
 32
0
 70
0
 13
1
 23
106
 33
0
 14
6
 24
115
 34
0
 50
90
 53
0
  0
DIMENSION
  8
1
  6
CONTINUOUS
 62
1
  2
*D19
  3
DMST_1
 10
-27.4781360247357
 20
17
 30
0
 11
-30.9781360247357
 21
23.5
 31
0
 12
0
 22
0
 32
0
 70
0
 13
-12
 23
30
 33
0
 14
14
 24
17
 34
0
 50
90
 53
0
  0
DIMENSION
  8
1
  6
CONTINUOUS
 62
1
  2
*D20
  3
DMST_1
 10
-27.4781360247357
 20
59
 30
0
 11
-30.9781360247357
 21
44.5
 31
0
 12
0
 22
0
 32
0
 70
0
 13
-12
 23
30
 33
0
 14
-12
 24
59
 34
0
 50
90
 53
0
  0
DIMENSION
  8
1
  6
CONTINUOUS
 62
1
  2
*D21
  3
DMST_1
 10
-27.3611327132853
 20
83
 30
0
 11
-30.8611327132853
 21
71
 31
0
 12
0
 22
0
 32
0
 70
0
 13
-12
 23
59
 33
0
 14
14
 24
83
 34
0
 50
90
 53
0
  0
DIMENSION
  8
1
  6
CONTINUOUS
 62
1
  2
*D22
  3
DMST_1
 10
-27.3611327132853
 20
106
 30
0
 11
-30.8611327132853
 21
94.5
 31
0
 12
0
 22
0
 32
0
 70
0
 13
14
 23
83
 33
0
 14
1
 24
106
 34
0
 50
90
 53
0
  0
DIMENSION
  8
1
  6
CONTINUOUS
 62
1
  2
*D23
  3
DMST_1
 10
-27.0080895460337
 20
-89
 30
0
 11
-30.5080895460337
 21
-83.5
 31
0
 12
0
 22
0
 32
0
 70
0
 13
-12
 23
-78
 33
0
 14
-12
 24
-89
 34
0
 50
90
 53
0
  0
DIMENSION
  8
1
  6
CONTINUOUS
 62
1
  2
*D24
  3
DMST_1
 10
-27.1201021949103
 20
-89
 30
0
 11
-30.6201021949103
 21
-93.5
 31
0
 12
0
 22
0
 32
0
 70
0
 13
16
 23
-98
 33
0
 14
-12
 24
-89
 34
0
 50
90
 53
0
  0
DIMENSION
  8
1
  6
CONTINUOUS
 62
1
  2
*D25
  3
DMST_1
 10
48.4912522949277
 20
-73
 30
0
 11
44.9912522949277
 21
-66.992846430377
 31
0
 12
0
 22
0
 32
0
 70
0
 13
14
 23
-78
 33
0
 14
16
 24
-73
 34
0
 50
90
 53
0
  0
DIMENSION
  8
1
  6
CONTINUOUS
 62
1
  2
*D26
  3
DMST_1
 10
48.4912522949277
 20
-78
 30
0
 11
44.9912522949277
 21
-91
 31
0
 12
0
 22
0
 32
0
 70
0
 13
22.5
 23
-104
 33
0
 14
14
 24
-78
 34
0
 50
90
 53
0
  0
ENDSEC
  0
EOF
