  0
SECTION
  2
HEADER
  9
$ACADVER
  1
AC1015
  9
$ACADMAINTVER
 70
    14
  9
$DWGCODEPAGE
  3
ANSI_1252
  9
$INSBASE
 10
0.0
 20
0.0
 30
0.0
  9
$EXTMIN
 10
33.75
 20
15.23464897184111
 30
0.0
  9
$EXTMAX
 10
915.493805815857
 20
587.25
 30
0.0
  9
$LIMMIN
 10
0.0
 20
0.0
  9
$LIMMAX
 10
500.0
 20
600.0
  9
$ORTHOMODE
 70
     1
  9
$REGENMODE
 70
     1
  9
$FILLMODE
 70
     1
  9
$QTEXTMODE
 70
     0
  9
$MIRRTEXT
 70
     1
  9
$LTSCALE
 40
6.0
  9
$ATTMODE
 70
     1
  9
$TEXTSIZE
 40
5.0
  9
$TRACEWID
 40
1.0
  9
$TEXTSTYLE
  7
NORM1
  9
$CLAYER
  8
BEMASSUNG
  9
$CELTYPE
  6
BYLAYER
  9
$CECOLOR
 62
   256
  9
$CELTSCALE
 40
1.0
  9
$DISPSILH
 70
     0
  9
$DIMSCALE
 40
1.5
  9
$DIMASZ
 40
3.5
  9
$DIMEXO
 40
0.5
  9
$DIMDLI
 40
8.0
  9
$DIMRND
 40
0.0
  9
$DIMDLE
 40
0.0
  9
$DIMEXE
 40
1.3
  9
$DIMTP
 40
0.0
  9
$DIMTM
 40
0.0
  9
$DIMTXT
 40
3.5
  9
$DIMCEN
 40
1.5
  9
$DIMTSZ
 40
0.0
  9
$DIMTOL
 70
     0
  9
$DIMLIM
 70
     0
  9
$DIMTIH
 70
     0
  9
$DIMTOH
 70
     0
  9
$DIMSE1
 70
     0
  9
$DIMSE2
 70
     0
  9
$DIMTAD
 70
     1
  9
$DIMZIN
 70
     8
  9
$DIMBLK
  1

  9
$DIMASO
 70
     1
  9
$DIMSHO
 70
     1
  9
$DIMPOST
  1

  9
$DIMAPOST
  1

  9
$DIMALT
 70
     0
  9
$DIMALTD
 70
     2
  9
$DIMALTF
 40
25.39999999999999
  9
$DIMLFAC
 40
1.0
  9
$DIMTOFL
 70
     1
  9
$DIMTVP
 40
0.0
  9
$DIMTIX
 70
     1
  9
$DIMSOXD
 70
     0
  9
$DIMSAH
 70
     0
  9
$DIMBLK1
  1

  9
$DIMBLK2
  1

  9
$DIMSTYLE
  2
PROSPEKT
  9
$DIMCLRD
 70
     2
  9
$DIMCLRE
 70
     2
  9
$DIMCLRT
 70
     3
  9
$DIMTFAC
 40
0.5
  9
$DIMGAP
 40
1.0
  9
$DIMJUST
 70
     0
  9
$DIMSD1
 70
     0
  9
$DIMSD2
 70
     0
  9
$DIMTOLJ
 70
     1
  9
$DIMTZIN
 70
     8
  9
$DIMALTZ
 70
     8
  9
$DIMALTTZ
 70
     8
  9
$DIMUPT
 70
     0
  9
$DIMDEC
 70
     2
  9
$DIMTDEC
 70
     2
  9
$DIMALTU
 70
     2
  9
$DIMALTTD
 70
     2
  9
$DIMTXSTY
  7
NORM
  9
$DIMAUNIT
 70
     0
  9
$DIMADEC
 70
     0
  9
$DIMALTRND
 40
0.0
  9
$DIMAZIN
 70
     0
  9
$DIMDSEP
 70
    46
  9
$DIMATFIT
 70
     3
  9
$DIMFRAC
 70
     0
  9
$DIMLDRBLK
  1

  9
$DIMLUNIT
 70
     2
  9
$DIMLWD
 70
    -2
  9
$DIMLWE
 70
    -2
  9
$DIMTMOVE
 70
     2
  9
$LUNITS
 70
     2
  9
$LUPREC
 70
     2
  9
$SKETCHINC
 40
1.0
  9
$FILLETRAD
 40
0.0
  9
$AUNITS
 70
     0
  9
$AUPREC
 70
     0
  9
$MENU
  1
CADIM
  9
$ELEVATION
 40
0.0
  9
$PELEVATION
 40
0.0
  9
$THICKNESS
 40
0.0
  9
$LIMCHECK
 70
     0
  9
$CHAMFERA
 40
0.0
  9
$CHAMFERB
 40
0.0
  9
$CHAMFERC
 40
0.0
  9
$CHAMFERD
 40
0.0
  9
$SKPOLY
 70
     0
  9
$TDCREATE
 40
2450378.651628009
  9
$TDUCREATE
 40
2450378.568294676
  9
$TDUPDATE
 40
2451968.603281689
  9
$TDUUPDATE
 40
2451968.519948356
  9
$TDINDWG
 40
0.0468032176
  9
$TDUSRTIMER
 40
0.0468032176
  9
$USRTIMER
 70
     1
  9
$ANGBASE
 50
0.0
  9
$ANGDIR
 70
     0
  9
$PDMODE
 70
     0
  9
$PDSIZE
 40
-1.0
  9
$PLINEWID
 40
0.0
  9
$SPLFRAME
 70
     0
  9
$SPLINETYPE
 70
     6
  9
$SPLINESEGS
 70
     8
  9
$HANDSEED
  5
248
  9
$SURFTAB1
 70
    16
  9
$SURFTAB2
 70
    16
  9
$SURFTYPE
 70
     6
  9
$SURFU
 70
    12
  9
$SURFV
 70
    12
  9
$UCSBASE
  2

  9
$UCSNAME
  2

  9
$UCSORG
 10
0.0
 20
0.0
 30
0.0
  9
$UCSXDIR
 10
1.0
 20
0.0
 30
0.0
  9
$UCSYDIR
 10
0.0
 20
1.0
 30
0.0
  9
$UCSORTHOREF
  2

  9
$UCSORTHOVIEW
 70
     0
  9
$UCSORGTOP
 10
0.0
 20
0.0
 30
0.0
  9
$UCSORGBOTTOM
 10
0.0
 20
0.0
 30
0.0
  9
$UCSORGLEFT
 10
0.0
 20
0.0
 30
0.0
  9
$UCSORGRIGHT
 10
0.0
 20
0.0
 30
0.0
  9
$UCSORGFRONT
 10
0.0
 20
0.0
 30
0.0
  9
$UCSORGBACK
 10
0.0
 20
0.0
 30
0.0
  9
$PUCSBASE
  2

  9
$PUCSNAME
  2

  9
$PUCSORG
 10
0.0
 20
0.0
 30
0.0
  9
$PUCSXDIR
 10
1.0
 20
0.0
 30
0.0
  9
$PUCSYDIR
 10
0.0
 20
1.0
 30
0.0
  9
$PUCSORTHOREF
  2

  9
$PUCSORTHOVIEW
 70
     0
  9
$PUCSORGTOP
 10
0.0
 20
0.0
 30
0.0
  9
$PUCSORGBOTTOM
 10
0.0
 20
0.0
 30
0.0
  9
$PUCSORGLEFT
 10
0.0
 20
0.0
 30
0.0
  9
$PUCSORGRIGHT
 10
0.0
 20
0.0
 30
0.0
  9
$PUCSORGFRONT
 10
0.0
 20
0.0
 30
0.0
  9
$PUCSORGBACK
 10
0.0
 20
0.0
 30
0.0
  9
$USERI1
 70
     0
  9
$USERI2
 70
   100
  9
$USERI3
 70
     0
  9
$USERI4
 70
     0
  9
$USERI5
 70
     0
  9
$USERR1
 40
0.0
  9
$USERR2
 40
0.0
  9
$USERR3
 40
0.0
  9
$USERR4
 40
0.0
  9
$USERR5
 40
0.0
  9
$WORLDVIEW
 70
     1
  9
$SHADEDGE
 70
     3
  9
$SHADEDIF
 70
    70
  9
$TILEMODE
 70
     1
  9
$MAXACTVP
 70
    16
  9
$PINSBASE
 10
0.0
 20
0.0
 30
0.0
  9
$PLIMCHECK
 70
     0
  9
$PEXTMIN
 10
5.0
 20
5.0
 30
0.0
  9
$PEXTMAX
 10
415.0
 20
300.0
 30
0.0
  9
$PLIMMIN
 10
0.0
 20
0.0
  9
$PLIMMAX
 10
420.0
 20
297.0
  9
$UNITMODE
 70
     0
  9
$VISRETAIN
 70
     0
  9
$PLINEGEN
 70
     0
  9
$PSLTSCALE
 70
     0
  9
$TREEDEPTH
 70
  3020
  9
$CMLSTYLE
  2
STANDARD
  9
$CMLJUST
 70
     0
  9
$CMLSCALE
 40
1.0
  9
$PROXYGRAPHICS
 70
     1
  9
$MEASUREMENT
 70
     1
  9
$CELWEIGHT
370
    -1
  9
$ENDCAPS
280
     0
  9
$JOINSTYLE
280
     0
  9
$LWDISPLAY
290
     0
  9
$INSUNITS
 70
     4
  9
$HYPERLINKBASE
  1

  9
$STYLESHEET
  1

  9
$XEDIT
290
     1
  9
$CEPSNTYPE
380
     0
  9
$PSTYLEMODE
290
     1
  9
$FINGERPRINTGUID
  2
{9E99E350-0B6A-453A-BAB3-224ED2FB1144}
  9
$VERSIONGUID
  2
{5C0445AC-D461-452F-AE70-411B62EA0B60}
  9
$EXTNAMES
290
     1
  9
$PSVPSCALE
 40
0.0
  9
$OLESTARTUP
290
     0
  0
ENDSEC
  0
SECTION
  2
CLASSES
  0
CLASS
  1
DICTIONARYVAR
  2
AcDbDictionaryVar
  3
AutoCAD 2000
 90
        0
280
     0
281
     0
  0
CLASS
  1
LWPOLYLINE
  2
AcDbPolyline
  3
AutoCAD 2000
 90
    32768
280
     0
281
     1
  0
CLASS
  1
HATCH
  2
AcDbHatch
  3
AutoCAD 2000
 90
    32768
280
     0
281
     1
  0
CLASS
  1
XRECORD
  2
AcDbXrecord
  3
AutoCAD 2000
 90
    32768
280
     0
281
     0
  0
CLASS
  1
ACDBDICTIONARYWDFLT
  2
AcDbDictionaryWithDefault
  3
AutoCAD 2000
 90
        0
280
     0
281
     0
  0
CLASS
  1
ACDBPLACEHOLDER
  2
AcDbPlaceHolder
  3
AutoCAD 2000
 90
        0
280
     0
281
     0
  0
CLASS
  1
LAYOUT
  2
AcDbLayout
  3
AutoCAD 2000
 90
        0
280
     0
281
     0
  0
CLASS
  1
ACME_DOCUMENT
  2
AcMeDbDoc
  3
AcMeServices
 90
    32768
280
     0
281
     0
  0
CLASS
  1
AMGSETTINGSOBJ
  2
AmgSettingsObj
  3
"AcadM|Product Description: AutoCAD Mechanical 2000|Company: Autodesk"
 90
        0
280
     0
281
     0
  0
CLASS
  1
ACMESCOPE
  2
AcMeScope
  3
AcMeServices
 90
        0
280
     0
281
     0
  0
CLASS
  1
ACMECOMMANDHISTORY
  2
AcMeCommandHistory
  3
AcMeServices
 90
    32768
280
     0
281
     0
  0
CLASS
  1
ACIMSYSVARMAN
  2
AcImSysVarManager
  3
AcMeServices
 90
        0
280
     0
281
     0
  0
CLASS
  1
ACIMREALSYSVAR
  2
AcImRealSysVar
  3
AcMeServices
 90
    32768
280
     0
281
     0
  0
CLASS
  1
ACIMINTSYSVAR
  2
AcImIntSysVar
  3
AcMeServices
 90
    32768
280
     0
281
     0
  0
CLASS
  1
ACMEDRAWINGMAN
  2
AcMeDrawingMan
  3
AcMeServices
 90
    32768
280
     0
281
     0
  0
CLASS
  1
ACMEVIEW
  2
AcMeView
  3
AcMeServices
 90
    32768
280
     0
281
     0
  0
CLASS
  1
ACDBENTITYCACHE
  2
AcMeEntityCache
  3
AcMeServices
 90
    32768
280
     0
281
     0
  0
CLASS
  1
GSMANAGER
  2
AcMeGSManager
  3
AcMeServices
 90
    32768
280
     0
281
     0
  0
CLASS
  1
AMDTINTERNALREACTOR
  2
AmdtInternalReactor
  3
AcMeServices
 90
    32768
280
     0
281
     0
  0
CLASS
  1
ACMESTATEMGR
  2
AcMeStateMgr
  3
AcMeServices
 90
        0
280
     0
281
     0
  0
CLASS
  1
ACGREFMASTER
  2
AcGrefMaster
  3
AcAttribServices
 90
        0
280
     0
281
     0
  0
CLASS
  1
ACME_DATABASE
  2
AcMeDbDatabase
  3
AcMeServices
 90
    32768
280
     0
281
     0
  0
CLASS
  1
ACRFINSADJUSTERMGR
  2
AcRfInsAdjusterMgr
  3
AcMeServices
 90
    32768
280
     0
281
     0
  0
CLASS
  1
ACGREFACADMASTER
  2
AcGrefacadMaster
  3
AcGrefServices
 90
    32768
280
     0
281
     0
  0
CLASS
  1
AMIMASTER
  2
AmiMaster
  3
AmiServices
 90
    32768
280
     0
281
     0
  0
CLASS
  1
ACMDATADICTIONARY
  2
AcmDataDictionary
  3
"AcmSymBB|Product Description: AutoCAD Mechanical 2000|Company: Autodesk"
 90
    32768
280
     0
281
     0
  0
CLASS
  1
ACMDATAENTRYBLOCK
  2
AcmDataEntryBlock
  3
"AcmSymBB|Product Description: AutoCAD Mechanical 2000|Company: Autodesk"
 90
    32768
280
     0
281
     0
  0
CLASS
  1
ACIMSTRSYSVAR
  2
AcImStrSysVar
  3
AcMeServices
 90
        0
280
     0
281
     0
  0
CLASS
  1
ACMSTANDARDDIN
  2
AcmStandardDIN
  3
"Amdt_StdImp|Product Description: AutoCAD Mechanical 2000|Company: Autodesk"
 90
        0
280
     0
281
     0
  0
CLASS
  1
AMGOBJPROPCFG
  2
AmgObjPropCfg
  3
"AmgLay|Product Description: AutoCAD Mechanical 2000|Company: Autodesk"
 90
        1
280
     0
281
     0
  0
CLASS
  1
AMDTEDGESTANDARDDIN
  2
AmdtEdgeStdDIN
  3
"Amdt_StdImp|Product Description: AutoCAD Mechanical 2000|Company: Autodesk"
 90
        0
280
     0
281
     0
  0
CLASS
  1
ACMSURFSTANDARDDIN
  2
AcmSurfTextStdDIN
  3
"Amdt_StdImp|Product Description: AutoCAD Mechanical 2000|Company: Autodesk"
 90
        0
280
     0
281
     0
  0
CLASS
  1
ACMFCFSTANDARDDIN
  2
AcmFCFStdDIN
  3
"Amdt_StdImp|Product Description: AutoCAD Mechanical 2000|Company: Autodesk"
 90
        0
280
     0
281
     0
  0
CLASS
  1
ACMWELDSTANDARDDIN
  2
AcmWeldingStdDIN
  3
"Amdt_StdImp|Product Description: AutoCAD Mechanical 2000|Company: Autodesk"
 90
        0
280
     0
281
     0
  0
CLASS
  1
ACMIDSTANDARDDIN
  2
AcmIdStdDIN
  3
"Amdt_StdImp|Product Description: AutoCAD Mechanical 2000|Company: Autodesk"
 90
        0
280
     0
281
     0
  0
CLASS
  1
ACMDATUMSTANDARDDIN
  2
AcmDatumStdDIN
  3
"Amdt_StdImp|Product Description: AutoCAD Mechanical 2000|Company: Autodesk"
 90
        0
280
     0
281
     0
  0
CLASS
  1
ACMBOMSTANDARDDIN
  2
AcmBOMStdDIN
  3
"Amdt_StdImp|Product Description: AutoCAD Mechanical 2000|Company: Autodesk"
 90
        0
280
     0
281
     0
  0
CLASS
  1
ACMDETAILSTANDARDDIN
  2
AmdtDetailSymStdDIN
  3
"Amdt_StdImp|Product Description: AutoCAD Mechanical 2000|Company: Autodesk"
 90
        0
280
     0
281
     0
  0
CLASS
  1
ACMSECTIONSTANDARDDIN
  2
AmdtSectionSymStdDIN
  3
"Amdt_StdImp|Product Description: AutoCAD Mechanical 2000|Company: Autodesk"
 90
        0
280
     0
281
     0
  0
CLASS
  1
ACMCENTERLINESTANDARDDIN
  2
AmdtCenterLineStdDIN
  3
"Amdt_StdImp|Product Description: AutoCAD Mechanical 2000|Company: Autodesk"
 90
        0
280
     0
281
     0
  0
CLASS
  1
ACMNOTESTANDARDDIN
  2
AmdtNoteStdDIN
  3
"Amdt_StdImp|Product Description: AutoCAD Mechanical 2000|Company: Autodesk"
 90
        0
280
     0
281
     0
  0
CLASS
  1
ACAMGLAYSTD
  2
AcAmgLayStd
  3
"AcAmgLayStd|Product Description: AutoCAD Mechanical 2000|Company: Autodesk"
 90
        0
280
     0
281
     0
  0
CLASS
  1
ACAMGDIMSTD
  2
AcAmgDimStd
  3
"AcAmgDimStd|Product Description: AutoCAD Mechanical 2000|Company: Autodesk"
 90
        0
280
     0
281
     0
  0
CLASS
  1
ACAMGHOLECHARTSTDDIN
  2
AcAmgHoleChartStdDIN
  3
ACMSYMBB_MODULE_NAME
 90
        0
280
     0
281
     0
  0
CLASS
  1
ACAMGTITLESTD
  2
AcAmgTitleStd
  3
"TITLEAPP"
 90
        0
280
     0
281
     0
  0
CLASS
  1
ACAMGFILTERDAT
  2
AcAmgFilterDat
  3
"AcadM|Product Description: AutoCAD Mechanical 2000|Company: Autodesk"
 90
    32768
280
     0
281
     0
  0
ENDSEC
  0
SECTION
  2
TABLES
  0
TABLE
  2
VPORT
  5
19
330
0
100
AcDbSymbolTable
 70
     1
  0
VPORT
  5
1A
330
19
100
AcDbSymbolTableRecord
100
AcDbViewportTableRecord
  2
*Active
 70
     0
 10
0.0
 20
0.0
 11
1.0
 21
1.0
 12
507.3648488168973
 22
315.8260118472633
 13
0.0
 23
0.0
 14
1.0
 24
1.0
 15
10.0
 25
10.0
 16
0.0
 26
0.0
 36
1.0
 17
0.0
 27
0.0
 37
0.0
 40
638.8094433620006
 41
1.712406015037593
 42
50.0
 43
-210.0
 44
-210.0
 50
0.0
 51
0.0
 71
     0
 72
  5000
 73
     1
 74
     2
 75
     0
 76
     0
 77
     0
 78
     0
281
     0
 65
     1
110
0.0
120
0.0
130
0.0
111
1.0
121
0.0
131
0.0
112
0.0
122
1.0
132
0.0
 79
     0
146
0.0
  0
ENDTAB
  0
TABLE
  2
LTYPE
  5
14
330
0
100
AcDbSymbolTable
 70
    13
  0
LTYPE
  5
15
330
14
100
AcDbSymbolTableRecord
100
AcDbLinetypeTableRecord
  2
BYBLOCK
 70
     0
  3

 72
    65
 73
     0
 40
0.0
  0
LTYPE
  5
16
330
14
100
AcDbSymbolTableRecord
100
AcDbLinetypeTableRecord
  2
BYLAYER
 70
     0
  3

 72
    65
 73
     0
 40
0.0
  0
LTYPE
  5
8
330
14
100
AcDbSymbolTableRecord
100
AcDbLinetypeTableRecord
  2
CONTINUOUS
 70
     0
  3
Solid line
 72
    65
 73
     0
 40
0.0
  0
LTYPE
  5
58
330
14
100
AcDbSymbolTableRecord
100
AcDbLinetypeTableRecord
  2
STRICHPUNKT
 70
     0
  3
__ . __ . __ . __ . __ . __ . __ . __ . __ . __
 72
    65
 73
     4
 40
1.0
 49
0.5
 74
     0
 49
-0.25
 74
     0
 49
0.0
 74
     0
 49
-0.25
 74
     0
  0
LTYPE
  5
221
330
14
100
AcDbSymbolTableRecord
100
AcDbLinetypeTableRecord
  2
AM_ISO02W050
 70
     0
  3
__ __ __ __ __ __ __ __ __ __ __ __ __ __ __
 72
    65
 73
     2
 40
7.5
 49
6.0
 74
     0
 49
-1.5
 74
     0
  0
LTYPE
  5
233
330
14
100
AcDbSymbolTableRecord
100
AcDbLinetypeTableRecord
  2
ACDINWELD
 70
     0
  3
_ _ _ _ _
 72
    65
 73
     2
 40
2.0
 49
2.0
 74
     0
 49
-1.0
 74
     0
  0
LTYPE
  5
236
330
14
100
AcDbSymbolTableRecord
100
AcDbLinetypeTableRecord
  2
ACDINTGB
 70
     0
  3
__ . . __ . .
 72
    65
 73
     6
 40
9.0
 49
4.0
 74
     0
 49
-1.0
 74
     0
 49
1.0
 74
     0
 49
-1.0
 74
     0
 49
1.0
 74
     0
 49
-1.0
 74
     0
  0
LTYPE
  5
237
330
14
100
AcDbSymbolTableRecord
100
AcDbLinetypeTableRecord
  2
ACDINTGL
 70
     0
  3
_ _ _ _ _
 72
    65
 73
     2
 40
3.0
 49
2.0
 74
     0
 49
-1.0
 74
     0
  0
LTYPE
  5
23B
330
14
100
AcDbSymbolTableRecord
100
AcDbLinetypeTableRecord
  2
CENTER
 70
     0
  3
__ . __
 72
    65
 73
     4
 40
7.0
 49
4.0
 74
     0
 49
-1.0
 74
     0
 49
1.0
 74
     0
 49
-1.0
 74
     0
  0
LTYPE
  5
21C
330
14
100
AcDbSymbolTableRecord
100
AcDbLinetypeTableRecord
  2
gen3
 70
     0
  3
-- -- -- -- -- -- -- -- -- -- -- -- -- -- --
 72
    65
 73
     2
 40
6.25
 49
4.75
 74
     0
 49
-1.5
 74
     0
  0
LTYPE
  5
21D
330
14
100
AcDbSymbolTableRecord
100
AcDbLinetypeTableRecord
  2
gen7
 70
     0
  3
____ . ____ . ____ . ____ . ____ . ____ . ____
 72
    65
 73
     4
 40
13.75
 49
9.75
 74
     0
 49
-1.5
 74
     0
 49
1.0
 74
     0
 49
-1.5
 74
     0
  0
LTYPE
  5
21E
330
14
100
AcDbSymbolTableRecord
100
AcDbLinetypeTableRecord
  2
gen3a
 70
     0
  3
 - - - - -
 72
    65
 73
     2
 40
3.125
 49
2.25
 74
     0
 49
-0.875
 74
     0
  0
LTYPE
  5
21F
330
14
100
AcDbSymbolTableRecord
100
AcDbLinetypeTableRecord
  2
gen7a
 70
     0
  3
__ . __ . __
 72
    65
 73
     4
 40
6.875
 49
4.75
 74
     0
 49
-0.875
 74
     0
 49
0.375
 74
     0
 49
-0.875
 74
     0
  0
LTYPE
  5
220
330
14
100
AcDbSymbolTableRecord
100
AcDbLinetypeTableRecord
  2
gen4a
 70
     0
  3
_____ . . _____ . . _____ . . ____ .. ____
 72
    65
 73
     6
 40
16.25
 49
9.75
 74
     0
 49
-1.5
 74
     0
 49
1.0
 74
     0
 49
-1.5
 74
     0
 49
1.0
 74
     0
 49
-1.5
 74
     0
  0
LTYPE
  5
222
330
14
100
AcDbSymbolTableRecord
100
AcDbLinetypeTableRecord
  2
genzigzag
 70
     0
  3
/\/-/\/-/\/-/\/-/\/-/\/
 72
    65
 73
     2
 40
12.0001
 49
0.0001
 74
     4
 75
   135
340
223
 46
2.0
 50
0.0
 44
0.0
 45
0.0
 49
-12.0
 74
     0
  0
ENDTAB
  0
TABLE
  2
LAYER
  5
10
330
0
100
AcDbSymbolTable
 70
     6
  0
LAYER
  5
4
330
10
100
AcDbSymbolTableRecord
100
AcDbLayerTableRecord
  2
0
 70
     0
 62
     7
  6
CONTINUOUS
370
    -3
390
5
  0
LAYER
  5
55
330
10
100
AcDbSymbolTableRecord
100
AcDbLayerTableRecord
  2
UMRISS05
 70
     0
 62
     4
  6
CONTINUOUS
370
    -3
390
5
  0
LAYER
  5
22
330
10
100
AcDbSymbolTableRecord
100
AcDbLayerTableRecord
  2
BEMASSUNG
 70
     0
 62
     2
  6
CONTINUOUS
370
    -3
390
5
  0
LAYER
  5
57
330
10
100
AcDbSymbolTableRecord
100
AcDbLayerTableRecord
  2
ACHSEN
 70
     0
 62
    12
  6
STRICHPUNKT
370
    -3
390
5
  0
LAYER
  5
33
330
10
100
AcDbSymbolTableRecord
100
AcDbLayerTableRecord
  2
DEFPOINTS
 70
     0
 62
     7
  6
CONTINUOUS
290
     0
370
    -3
390
5
  0
LAYER
  5
126
330
10
100
AcDbSymbolTableRecord
100
AcDbLayerTableRecord
  2
BEMASSUNG-DEUTSCH
 70
     0
 62
     3
  6
CONTINUOUS
370
    -3
390
5
  0
ENDTAB
  0
TABLE
  2
STYLE
  5
11
330
0
100
AcDbSymbolTable
 70
     6
  0
STYLE
  5
12
330
11
100
AcDbSymbolTableRecord
100
AcDbTextStyleTableRecord
  2
STANDARD
 70
     0
 40
0.0
 41
1.0
 50
0.0
 71
     0
 42
3.5
  3
txt
  4

  0
STYLE
  5
23
330
11
100
AcDbSymbolTableRecord
100
AcDbTextStyleTableRecord
  2
NORM
 70
     0
 40
0.0
 41
1.0
 50
0.0
 71
     0
 42
5.0
  3
SIMPLEX
  4

  0
STYLE
  5
24
330
11
100
AcDbSymbolTableRecord
100
AcDbTextStyleTableRecord
  2
NORM1
 70
     0
 40
0.0
 41
0.8
 50
0.0
 71
     0
 42
5.0
  3
SIMPLEX.shx
  4

  0
STYLE
  5
22D
330
11
100
AcDbSymbolTableRecord
100
AcDbTextStyleTableRecord
  2
ACDINTS
 70
     0
 40
1.0
 41
1.0
 50
0.0
 71
     0
 42
5.0
  3
isocp.shx
  4

  0
STYLE
  5
231
330
11
100
AcDbSymbolTableRecord
100
AcDbTextStyleTableRecord
  2
ACDINGDT
 70
     0
 40
0.0
 41
1.0
 50
0.0
 71
     0
 42
5.0
  3
amgdt.shx
  4

  0
STYLE
  5
223
330
11
100
AcDbSymbolTableRecord
100
AcDbTextStyleTableRecord
  2

 70
     1
 40
0.0
 41
1.0
 50
0.0
 71
     0
 42
5.0
  3
genltshp.shx
  4

  0
ENDTAB
  0
TABLE
  2
VIEW
  5
17
330
0
100
AcDbSymbolTable
 70
     0
  0
ENDTAB
  0
TABLE
  2
UCS
  5
18
330
0
100
AcDbSymbolTable
 70
     0
  0
ENDTAB
  0
TABLE
  2
APPID
  5
1B
330
0
100
AcDbSymbolTable
 70
     1
  0
APPID
  5
1C
330
1B
100
AcDbSymbolTableRecord
100
AcDbRegAppTableRecord
  2
ACAD
 70
     0
  0
ENDTAB
  0
TABLE
  2
DIMSTYLE
  5
1D
330
0
100
AcDbSymbolTable
 70
     1
100
AcDbDimStyleTable
 71
     0
  0
DIMSTYLE
105
26
102
{ACAD_REACTORS
330
5B
330
38
330
27
330
B2
330
18D
330
180
330
173
330
19B
330
92
330
FB
330
EB
330
DE
330
D1
330
164
330
C2
330
1C5
330
1D8
330
14A
330
85
330
1A8
330
78
330
1E6
330
1B6
330
125
330
118
330
109
330
6B
330
1FB
330
20D
330
47
330
A2
330
135
102
}
330
1D
100
AcDbSymbolTableRecord
100
AcDbDimStyleTableRecord
  2
PROSPEKT
 70
     0
 40
1.5
 41
3.5
 42
0.5
 43
8.0
 44
1.3
 73
     0
 74
     0
 77
     1
 78
     8
140
3.5
141
1.5
143
25.39999999999999
146
0.5
147
1.0
172
     1
174
     1
176
     2
177
     2
178
     3
271
     2
272
     2
279
     2
284
     8
285
     8
286
     8
340
23
  0
ENDTAB
  0
TABLE
  2
BLOCK_RECORD
  5
1
330
0
100
AcDbSymbolTable
 70
    32
  0
BLOCK_RECORD
  5
2
330
1
100
AcDbSymbolTableRecord
100
AcDbBlockTableRecord
  2
*MODEL_SPACE
340
A
  0
BLOCK_RECORD
  5
C
330
1
100
AcDbSymbolTableRecord
100
AcDbBlockTableRecord
  2
*PAPER_SPACE
340
F
  0
BLOCK_RECORD
  5
127
330
1
100
AcDbSymbolTableRecord
100
AcDbBlockTableRecord
  2
*D0
340
0
  0
BLOCK_RECORD
  5
93
330
1
100
AcDbSymbolTableRecord
100
AcDbBlockTableRecord
  2
*D1
340
0
  0
BLOCK_RECORD
  5
79
330
1
100
AcDbSymbolTableRecord
100
AcDbBlockTableRecord
  2
*D2
340
0
  0
BLOCK_RECORD
  5
86
330
1
100
AcDbSymbolTableRecord
100
AcDbBlockTableRecord
  2
*D3
340
0
  0
BLOCK_RECORD
  5
A3
330
1
100
AcDbSymbolTableRecord
100
AcDbBlockTableRecord
  2
*D4
340
0
  0
BLOCK_RECORD
  5
119
330
1
100
AcDbSymbolTableRecord
100
AcDbBlockTableRecord
  2
*D5
340
0
  0
BLOCK_RECORD
  5
D2
330
1
100
AcDbSymbolTableRecord
100
AcDbBlockTableRecord
  2
*D6
340
0
  0
BLOCK_RECORD
  5
EC
330
1
100
AcDbSymbolTableRecord
100
AcDbBlockTableRecord
  2
*D7
340
0
  0
BLOCK_RECORD
  5
136
330
1
100
AcDbSymbolTableRecord
100
AcDbBlockTableRecord
  2
*D8
340
0
  0
BLOCK_RECORD
  5
C3
330
1
100
AcDbSymbolTableRecord
100
AcDbBlockTableRecord
  2
*D9
340
0
  0
BLOCK_RECORD
  5
DF
330
1
100
AcDbSymbolTableRecord
100
AcDbBlockTableRecord
  2
*D10
340
0
  0
BLOCK_RECORD
  5
FC
330
1
100
AcDbSymbolTableRecord
100
AcDbBlockTableRecord
  2
*D11
340
0
  0
BLOCK_RECORD
  5
14B
330
1
100
AcDbSymbolTableRecord
100
AcDbBlockTableRecord
  2
*D12
340
0
  0
BLOCK_RECORD
  5
1A9
330
1
100
AcDbSymbolTableRecord
100
AcDbBlockTableRecord
  2
*D13
340
0
  0
BLOCK_RECORD
  5
174
330
1
100
AcDbSymbolTableRecord
100
AcDbBlockTableRecord
  2
*D14
340
0
  0
BLOCK_RECORD
  5
181
330
1
100
AcDbSymbolTableRecord
100
AcDbBlockTableRecord
  2
*D15
340
0
  0
BLOCK_RECORD
  5
1D9
330
1
100
AcDbSymbolTableRecord
100
AcDbBlockTableRecord
  2
*D16
340
0
  0
BLOCK_RECORD
  5
1C6
330
1
100
AcDbSymbolTableRecord
100
AcDbBlockTableRecord
  2
*D17
340
0
  0
BLOCK_RECORD
  5
19C
330
1
100
AcDbSymbolTableRecord
100
AcDbBlockTableRecord
  2
*D18
340
0
  0
BLOCK_RECORD
  5
165
330
1
100
AcDbSymbolTableRecord
100
AcDbBlockTableRecord
  2
*D19
340
0
  0
BLOCK_RECORD
  5
1B7
330
1
100
AcDbSymbolTableRecord
100
AcDbBlockTableRecord
  2
*D20
340
0
  0
BLOCK_RECORD
  5
1E7
330
1
100
AcDbSymbolTableRecord
100
AcDbBlockTableRecord
  2
*D21
340
0
  0
BLOCK_RECORD
  5
18E
330
1
100
AcDbSymbolTableRecord
100
AcDbBlockTableRecord
  2
*D22
340
0
  0
BLOCK_RECORD
  5
20E
330
1
100
AcDbSymbolTableRecord
100
AcDbBlockTableRecord
  2
*D23
340
0
  0
BLOCK_RECORD
  5
6C
330
1
100
AcDbSymbolTableRecord
100
AcDbBlockTableRecord
  2
*D24
340
0
  0
BLOCK_RECORD
  5
10A
330
1
100
AcDbSymbolTableRecord
100
AcDbBlockTableRecord
  2
*D25
340
0
  0
BLOCK_RECORD
  5
48
330
1
100
AcDbSymbolTableRecord
100
AcDbBlockTableRecord
  2
*D26
340
0
  0
BLOCK_RECORD
  5
1FC
330
1
100
AcDbSymbolTableRecord
100
AcDbBlockTableRecord
  2
*D27
340
0
  0
BLOCK_RECORD
  5
5C
330
1
100
AcDbSymbolTableRecord
100
AcDbBlockTableRecord
  2
*D28
340
0
  0
BLOCK_RECORD
  5
39
330
1
100
AcDbSymbolTableRecord
100
AcDbBlockTableRecord
  2
*D29
340
0
  0
BLOCK_RECORD
  5
28
330
1
100
AcDbSymbolTableRecord
100
AcDbBlockTableRecord
  2
*D30
340
0
  0
BLOCK_RECORD
  5
B3
330
1
100
AcDbSymbolTableRecord
100
AcDbBlockTableRecord
  2
*D31
340
0
  0
ENDTAB
  0
ENDSEC
  0
SECTION
  2
BLOCKS
  0
BLOCK
  5
3
330
2
100
AcDbEntity
  8
0
100
AcDbBlockBegin
  2
*MODEL_SPACE
 70
     0
 10
0.0
 20
0.0
 30
0.0
  3
*MODEL_SPACE
  1

  0
ENDBLK
  5
9
330
2
100
AcDbEntity
  8
0
100
AcDbBlockEnd
  0
BLOCK
  5
D
330
C
100
AcDbEntity
 67
     1
  8
0
100
AcDbBlockBegin
  2
*PAPER_SPACE
 70
     0
 10
0.0
 20
0.0
 30
0.0
  3
*PAPER_SPACE
  1

  0
ENDBLK
  5
E
330
C
100
AcDbEntity
 67
     1
  8
0
100
AcDbBlockEnd
  0
BLOCK
  5
131
330
127
100
AcDbEntity
  8
0
100
AcDbBlockBegin
  2
*D0
 70
     1
 10
0.0
 20
0.0
 30
0.0
  3
*D0
  1

  0
LINE
  5
128
330
127
100
AcDbEntity
  8
0
  6
ByBlock
 62
     2
100
AcDbLine
 10
339.3252528211892
 20
206.4759929118838
 30
0.0
 11
339.3252528211892
 21
205.1048092172706
 31
0.0
  0
LINE
  5
129
330
127
100
AcDbEntity
  8
0
  6
ByBlock
 62
     2
100
AcDbLine
 10
369.3252528211892
 20
220.1835316719373
 30
0.0
 11
369.3252528211892
 21
205.1048092172706
 31
0.0
  0
LINE
  5
12A
330
127
100
AcDbEntity
  8
0
  6
ByBlock
 62
     2
100
AcDbLine
 10
344.5752528211892
 20
207.0548092172706
 30
0.0
 11
364.0752528211892
 21
207.0548092172706
 31
0.0
  0
SOLID
  5
12B
330
127
100
AcDbEntity
  8
0
  6
ByBlock
 62
     2
100
AcDbTrace
 10
344.5752528211892
 20
207.9298092172706
 30
0.0
 11
344.5752528211892
 21
206.1798092172706
 31
0.0
 12
339.3252528211892
 22
207.0548092172706
 32
0.0
 13
339.3252528211892
 23
207.0548092172706
 33
0.0
  0
SOLID
  5
12C
330
127
100
AcDbEntity
  8
0
  6
ByBlock
 62
     2
100
AcDbTrace
 10
364.0752528211892
 20
207.9298092172706
 30
0.0
 11
364.0752528211892
 21
206.1798092172706
 31
0.0
 12
369.3252528211892
 22
207.0548092172706
 32
0.0
 13
369.3252528211892
 23
207.0548092172706
 33
0.0
  0
MTEXT
  5
12D
330
127
100
AcDbEntity
  8
0
  6
ByBlock
 62
     3
100
AcDbMText
 10
354.3252528211892
 20
211.1798092172706
 30
0.0
 40
5.25
 41
0.0
 71
     5
 72
     1
  1
\A1;DM
  7
NORM
 73
     1
 44
1.0
  0
POINT
  5
12E
330
127
100
AcDbEntity
  8
DEFPOINTS
  6
ByBlock
 62
     0
100
AcDbPoint
 10
339.3252528211892
 20
207.2259929118838
 30
0.0
  0
POINT
  5
12F
330
127
100
AcDbEntity
  8
DEFPOINTS
  6
ByBlock
 62
     0
100
AcDbPoint
 10
369.3252528211892
 20
220.9335316719373
 30
0.0
  0
POINT
  5
130
330
127
100
AcDbEntity
  8
DEFPOINTS
  6
ByBlock
 62
     0
100
AcDbPoint
 10
369.3252528211892
 20
207.0548092172706
 30
0.0
  0
ENDBLK
  5
132
330
127
100
AcDbEntity
  8
0
100
AcDbBlockEnd
  0
BLOCK
  5
9D
330
93
100
AcDbEntity
  8
0
100
AcDbBlockBegin
  2
*D1
 70
     1
 10
0.0
 20
0.0
 30
0.0
  3
*D1
  1

  0
LINE
  5
94
330
93
100
AcDbEntity
  8
0
  6
ByBlock
 62
     2
100
AcDbLine
 10
319.0664349876424
 20
339.233531671937
 30
0.0
 11
286.9490704219738
 21
339.233531671937
 31
0.0
  0
LINE
  5
95
330
93
100
AcDbEntity
  8
0
  6
ByBlock
 62
     2
100
AcDbLine
 10
317.0664349876424
 20
285.233531671937
 30
0.0
 11
286.9490704219738
 21
285.233531671937
 31
0.0
  0
LINE
  5
96
330
93
100
AcDbEntity
  8
0
  6
ByBlock
 62
     2
100
AcDbLine
 10
288.8990704219738
 20
333.983531671937
 30
0.0
 11
288.8990704219738
 21
290.483531671937
 31
0.0
  0
SOLID
  5
97
330
93
100
AcDbEntity
  8
0
  6
ByBlock
 62
     2
100
AcDbTrace
 10
288.0240704219738
 20
333.983531671937
 30
0.0
 11
289.7740704219738
 21
333.983531671937
 31
0.0
 12
288.8990704219738
 22
339.233531671937
 32
0.0
 13
288.8990704219738
 23
339.233531671937
 33
0.0
  0
SOLID
  5
98
330
93
100
AcDbEntity
  8
0
  6
ByBlock
 62
     2
100
AcDbTrace
 10
288.0240704219738
 20
290.483531671937
 30
0.0
 11
289.7740704219738
 21
290.483531671937
 31
0.0
 12
288.8990704219738
 22
285.233531671937
 32
0.0
 13
288.8990704219738
 23
285.233531671937
 33
0.0
  0
MTEXT
  5
99
330
93
100
AcDbEntity
  8
0
  6
ByBlock
 62
     3
100
AcDbMText
 10
284.7740704219738
 20
312.233531671937
 30
0.0
 40
5.25
 41
0.0
 71
     5
 72
     1
  1
\A1;54
  7
NORM
 11
0.0000000000000001
 21
1.0
 31
0.0
 73
     1
 44
1.0
  0
POINT
  5
9A
330
93
100
AcDbEntity
  8
DEFPOINTS
  6
ByBlock
 62
     0
100
AcDbPoint
 10
319.8164349876424
 20
339.233531671937
 30
0.0
  0
POINT
  5
9B
330
93
100
AcDbEntity
  8
DEFPOINTS
  6
ByBlock
 62
     0
100
AcDbPoint
 10
317.8164349876424
 20
285.233531671937
 30
0.0
  0
POINT
  5
9C
330
93
100
AcDbEntity
  8
DEFPOINTS
  6
ByBlock
 62
     0
100
AcDbPoint
 10
288.8990704219738
 20
285.233531671937
 30
0.0
  0
ENDBLK
  5
9E
330
93
100
AcDbEntity
  8
0
100
AcDbBlockEnd
  0
BLOCK
  5
83
330
79
100
AcDbEntity
  8
0
100
AcDbBlockBegin
  2
*D2
 70
     1
 10
0.0
 20
0.0
 30
0.0
  3
*D2
  1

  0
LINE
  5
7A
330
79
100
AcDbEntity
  8
0
  6
ByBlock
 62
     2
100
AcDbLine
 10
360.0664349876424
 20
221.2335316719375
 30
0.0
 11
404.4822167142207
 21
221.2335316719375
 31
0.0
  0
LINE
  5
7B
330
79
100
AcDbEntity
  8
0
  6
ByBlock
 62
     2
100
AcDbLine
 10
360.0664349876426
 20
401.2335316719375
 30
0.0
 11
404.4822167142207
 21
401.2335316719375
 31
0.0
  0
LINE
  5
7C
330
79
100
AcDbEntity
  8
0
  6
ByBlock
 62
     2
100
AcDbLine
 10
402.5322167142207
 20
226.4835316719374
 30
0.0
 11
402.5322167142207
 21
395.9835316719375
 31
0.0
  0
SOLID
  5
7D
330
79
100
AcDbEntity
  8
0
  6
ByBlock
 62
     2
100
AcDbTrace
 10
401.6572167142207
 20
226.4835316719374
 30
0.0
 11
403.4072167142207
 21
226.4835316719374
 31
0.0
 12
402.5322167142207
 22
221.2335316719375
 32
0.0
 13
402.5322167142207
 23
221.2335316719375
 33
0.0
  0
SOLID
  5
7E
330
79
100
AcDbEntity
  8
0
  6
ByBlock
 62
     2
100
AcDbTrace
 10
401.6572167142207
 20
395.9835316719375
 30
0.0
 11
403.4072167142207
 21
395.9835316719375
 31
0.0
 12
402.5322167142207
 22
401.2335316719375
 32
0.0
 13
402.5322167142207
 23
401.2335316719375
 33
0.0
  0
MTEXT
  5
7F
330
79
100
AcDbEntity
  8
0
  6
ByBlock
 62
     3
100
AcDbMText
 10
398.4072167142207
 20
311.2335316719375
 30
0.0
 40
5.25
 41
0.0
 71
     5
 72
     1
  1
\A1;180
  7
NORM
 11
0.0000000000000001
 21
1.0
 31
0.0
 73
     1
 44
1.0
  0
POINT
  5
80
330
79
100
AcDbEntity
  8
DEFPOINTS
  6
ByBlock
 62
     0
100
AcDbPoint
 10
359.3164349876424
 20
221.2335316719375
 30
0.0
  0
POINT
  5
81
330
79
100
AcDbEntity
  8
DEFPOINTS
  6
ByBlock
 62
     0
100
AcDbPoint
 10
359.3164349876426
 20
401.2335316719375
 30
0.0
  0
POINT
  5
82
330
79
100
AcDbEntity
  8
DEFPOINTS
  6
ByBlock
 62
     0
100
AcDbPoint
 10
402.5322167142207
 20
401.2335316719375
 30
0.0
  0
ENDBLK
  5
84
330
79
100
AcDbEntity
  8
0
100
AcDbBlockEnd
  0
BLOCK
  5
90
330
86
100
AcDbEntity
  8
0
100
AcDbBlockBegin
  2
*D3
 70
     1
 10
0.0
 20
0.0
 30
0.0
  3
*D3
  1

  0
LINE
  5
87
330
86
100
AcDbEntity
  8
0
  6
ByBlock
 62
     2
100
AcDbLine
 10
375.1664349876423
 20
248.2335316719375
 30
0.0
 11
389.4593427897427
 21
248.2335316719375
 31
0.0
  0
LINE
  5
88
330
86
100
AcDbEntity
  8
0
  6
ByBlock
 62
     2
100
AcDbLine
 10
373.0664349876424
 20
326.2335316719374
 30
0.0
 11
389.4593427897427
 21
326.2335316719374
 31
0.0
  0
LINE
  5
89
330
86
100
AcDbEntity
  8
0
  6
ByBlock
 62
     2
100
AcDbLine
 10
387.5093427897427
 20
253.4835316719374
 30
0.0
 11
387.5093427897427
 21
320.9835316719375
 31
0.0
  0
SOLID
  5
8A
330
86
100
AcDbEntity
  8
0
  6
ByBlock
 62
     2
100
AcDbTrace
 10
386.6343427897427
 20
253.4835316719374
 30
0.0
 11
388.3843427897427
 21
253.4835316719374
 31
0.0
 12
387.5093427897427
 22
248.2335316719375
 32
0.0
 13
387.5093427897427
 23
248.2335316719375
 33
0.0
  0
SOLID
  5
8B
330
86
100
AcDbEntity
  8
0
  6
ByBlock
 62
     2
100
AcDbTrace
 10
386.6343427897427
 20
320.9835316719375
 30
0.0
 11
388.3843427897427
 21
320.9835316719375
 31
0.0
 12
387.5093427897427
 22
326.2335316719374
 32
0.0
 13
387.5093427897427
 23
326.2335316719374
 33
0.0
  0
MTEXT
  5
8C
330
86
100
AcDbEntity
  8
0
  6
ByBlock
 62
     3
100
AcDbMText
 10
383.3843427897427
 20
287.2335316719375
 30
0.0
 40
5.25
 41
0.0
 71
     5
 72
     1
  1
\A1;78
  7
NORM
 11
0.0000000000000001
 21
1.0
 31
0.0
 73
     1
 44
1.0
  0
POINT
  5
8D
330
86
100
AcDbEntity
  8
DEFPOINTS
  6
ByBlock
 62
     0
100
AcDbPoint
 10
374.4164349876423
 20
248.2335316719375
 30
0.0
  0
POINT
  5
8E
330
86
100
AcDbEntity
  8
DEFPOINTS
  6
ByBlock
 62
     0
100
AcDbPoint
 10
372.3164349876424
 20
326.2335316719374
 30
0.0
  0
POINT
  5
8F
330
86
100
AcDbEntity
  8
DEFPOINTS
  6
ByBlock
 62
     0
100
AcDbPoint
 10
387.5093427897427
 20
326.2335316719374
 30
0.0
  0
ENDBLK
  5
91
330
86
100
AcDbEntity
  8
0
100
AcDbBlockEnd
  0
BLOCK
  5
AD
330
A3
100
AcDbEntity
  8
0
100
AcDbBlockBegin
  2
*D4
 70
     1
 10
0.0
 20
0.0
 30
0.0
  3
*D4
  1

  0
LINE
  5
A4
330
A3
100
AcDbEntity
  8
0
  6
ByBlock
 62
     2
100
AcDbLine
 10
359.9554121777992
 20
125.4297348501767
 30
0.0
 11
372.0467201353066
 21
125.4297348501767
 31
0.0
  0
LINE
  5
A5
330
A3
100
AcDbEntity
  8
0
  6
ByBlock
 62
     2
100
AcDbLine
 10
359.9554121777992
 20
111.4297348501767
 30
0.0
 11
372.0467201353066
 21
111.4297348501767
 31
0.0
  0
LINE
  5
A6
330
A3
100
AcDbEntity
  8
0
  6
ByBlock
 62
     2
100
AcDbLine
 10
370.0967201353066
 20
120.1797348501767
 30
0.0
 11
370.0967201353066
 21
116.6797348501767
 31
0.0
  0
SOLID
  5
A7
330
A3
100
AcDbEntity
  8
0
  6
ByBlock
 62
     2
100
AcDbTrace
 10
369.2217201353066
 20
120.1797348501767
 30
0.0
 11
370.9717201353066
 21
120.1797348501767
 31
0.0
 12
370.0967201353066
 22
125.4297348501767
 32
0.0
 13
370.0967201353066
 23
125.4297348501767
 33
0.0
  0
SOLID
  5
A8
330
A3
100
AcDbEntity
  8
0
  6
ByBlock
 62
     2
100
AcDbTrace
 10
369.2217201353066
 20
116.6797348501767
 30
0.0
 11
370.9717201353066
 21
116.6797348501767
 31
0.0
 12
370.0967201353066
 22
111.4297348501767
 32
0.0
 13
370.0967201353066
 23
111.4297348501767
 33
0.0
  0
MTEXT
  5
A9
330
A3
100
AcDbEntity
  8
0
  6
ByBlock
 62
     3
100
AcDbMText
 10
365.9717201353066
 20
118.4297348501767
 30
0.0
 40
5.25
 41
0.0
 71
     5
 72
     1
  1
\A1;14
  7
NORM
 11
0.0000000000000001
 21
1.0
 31
0.0
 73
     1
 44
1.0
  0
POINT
  5
AA
330
A3
100
AcDbEntity
  8
DEFPOINTS
  6
ByBlock
 62
     0
100
AcDbPoint
 10
359.2054121777991
 20
125.4297348501767
 30
0.0
  0
POINT
  5
AB
330
A3
100
AcDbEntity
  8
DEFPOINTS
  6
ByBlock
 62
     0
100
AcDbPoint
 10
359.2054121777991
 20
111.4297348501767
 30
0.0
  0
POINT
  5
AC
330
A3
100
AcDbEntity
  8
DEFPOINTS
  6
ByBlock
 62
     0
100
AcDbPoint
 10
370.0967201353066
 20
111.4297348501767
 30
0.0
  0
ENDBLK
  5
AE
330
A3
100
AcDbEntity
  8
0
100
AcDbBlockEnd
  0
BLOCK
  5
123
330
119
100
AcDbEntity
  8
0
100
AcDbBlockBegin
  2
*D5
 70
     1
 10
0.0
 20
0.0
 30
0.0
  3
*D5
  1

  0
LINE
  5
11A
330
119
100
AcDbEntity
  8
0
  6
ByBlock
 62
     2
100
AcDbLine
 10
343.7054121777991
 20
220.1835316719373
 30
0.0
 11
343.7054121777991
 21
205.1048092172706
 31
0.0
  0
LINE
  5
11B
330
119
100
AcDbEntity
  8
0
  6
ByBlock
 62
     2
100
AcDbLine
 10
359.7054121777992
 20
236.4835316719374
 30
0.0
 11
359.7054121777992
 21
205.1048092172706
 31
0.0
  0
LINE
  5
11C
330
119
100
AcDbEntity
  8
0
  6
ByBlock
 62
     2
100
AcDbLine
 10
348.9554121777992
 20
207.0548092172706
 30
0.0
 11
354.4554121777991
 21
207.0548092172706
 31
0.0
  0
SOLID
  5
11D
330
119
100
AcDbEntity
  8
0
  6
ByBlock
 62
     2
100
AcDbTrace
 10
348.9554121777992
 20
207.9298092172706
 30
0.0
 11
348.9554121777992
 21
206.1798092172706
 31
0.0
 12
343.7054121777991
 22
207.0548092172706
 32
0.0
 13
343.7054121777991
 23
207.0548092172706
 33
0.0
  0
SOLID
  5
11E
330
119
100
AcDbEntity
  8
0
  6
ByBlock
 62
     2
100
AcDbTrace
 10
354.4554121777991
 20
207.9298092172706
 30
0.0
 11
354.4554121777991
 21
206.1798092172706
 31
0.0
 12
359.7054121777992
 22
207.0548092172706
 32
0.0
 13
359.7054121777992
 23
207.0548092172706
 33
0.0
  0
MTEXT
  5
11F
330
119
100
AcDbEntity
  8
0
  6
ByBlock
 62
     3
100
AcDbMText
 10
351.7054121777992
 20
211.1798092172706
 30
0.0
 40
5.25
 41
0.0
 71
     5
 72
     1
  1
\A1;16
  7
NORM
 73
     1
 44
1.0
  0
POINT
  5
120
330
119
100
AcDbEntity
  8
DEFPOINTS
  6
ByBlock
 62
     0
100
AcDbPoint
 10
343.7054121777991
 20
220.9335316719373
 30
0.0
  0
POINT
  5
121
330
119
100
AcDbEntity
  8
DEFPOINTS
  6
ByBlock
 62
     0
100
AcDbPoint
 10
359.7054121777992
 20
237.2335316719375
 30
0.0
  0
POINT
  5
122
330
119
100
AcDbEntity
  8
DEFPOINTS
  6
ByBlock
 62
     0
100
AcDbPoint
 10
359.7054121777992
 20
207.0548092172706
 30
0.0
  0
ENDBLK
  5
124
330
119
100
AcDbEntity
  8
0
100
AcDbBlockEnd
  0
BLOCK
  5
DC
330
D2
100
AcDbEntity
  8
0
100
AcDbBlockBegin
  2
*D6
 70
     1
 10
0.0
 20
0.0
 30
0.0
  3
*D6
  1

  0
LINE
  5
D3
330
D2
100
AcDbEntity
  8
0
  6
ByBlock
 62
     2
100
AcDbLine
 10
329.2077723691459
 20
221.2335316719375
 30
0.0
 11
297.9468513223868
 21
221.2335316719375
 31
0.0
  0
LINE
  5
D4
330
D2
100
AcDbEntity
  8
0
  6
ByBlock
 62
     2
100
AcDbLine
 10
326.2077723691459
 20
191.2335316719375
 30
0.0
 11
297.9468513223868
 21
191.2335316719375
 31
0.0
  0
LINE
  5
D5
330
D2
100
AcDbEntity
  8
0
  6
ByBlock
 62
     2
100
AcDbLine
 10
299.8968513223868
 20
215.9835316719374
 30
0.0
 11
299.8968513223868
 21
196.4835316719375
 31
0.0
  0
SOLID
  5
D6
330
D2
100
AcDbEntity
  8
0
  6
ByBlock
 62
     2
100
AcDbTrace
 10
299.0218513223868
 20
215.9835316719374
 30
0.0
 11
300.7718513223868
 21
215.9835316719374
 31
0.0
 12
299.8968513223868
 22
221.2335316719375
 32
0.0
 13
299.8968513223868
 23
221.2335316719375
 33
0.0
  0
SOLID
  5
D7
330
D2
100
AcDbEntity
  8
0
  6
ByBlock
 62
     2
100
AcDbTrace
 10
299.0218513223868
 20
196.4835316719375
 30
0.0
 11
300.7718513223868
 21
196.4835316719375
 31
0.0
 12
299.8968513223868
 22
191.2335316719375
 32
0.0
 13
299.8968513223868
 23
191.2335316719375
 33
0.0
  0
MTEXT
  5
D8
330
D2
100
AcDbEntity
  8
0
  6
ByBlock
 62
     3
100
AcDbMText
 10
295.7718513223868
 20
206.2335316719375
 30
0.0
 40
5.25
 41
0.0
 71
     5
 72
     1
  1
\A1;30
  7
NORM
 11
0.0000000000000001
 21
1.0
 31
0.0
 73
     1
 44
1.0
  0
POINT
  5
D9
330
D2
100
AcDbEntity
  8
DEFPOINTS
  6
ByBlock
 62
     0
100
AcDbPoint
 10
329.9577723691459
 20
221.2335316719375
 30
0.0
  0
POINT
  5
DA
330
D2
100
AcDbEntity
  8
DEFPOINTS
  6
ByBlock
 62
     0
100
AcDbPoint
 10
326.9577723691459
 20
191.2335316719375
 30
0.0
  0
POINT
  5
DB
330
D2
100
AcDbEntity
  8
DEFPOINTS
  6
ByBlock
 62
     0
100
AcDbPoint
 10
299.8968513223868
 20
191.2335316719375
 30
0.0
  0
ENDBLK
  5
DD
330
D2
100
AcDbEntity
  8
0
100
AcDbBlockEnd
  0
BLOCK
  5
F6
330
EC
100
AcDbEntity
  8
0
100
AcDbBlockBegin
  2
*D7
 70
     1
 10
0.0
 20
0.0
 30
0.0
  3
*D7
  1

  0
LINE
  5
ED
330
EC
100
AcDbEntity
  8
0
  6
ByBlock
 62
     2
100
AcDbLine
 10
317.0664349876424
 20
253.233531671937
 30
0.0
 11
286.9490704219738
 21
253.233531671937
 31
0.0
  0
LINE
  5
EE
330
EC
100
AcDbEntity
  8
0
  6
ByBlock
 62
     2
100
AcDbLine
 10
329.0664349876424
 20
191.2335316719375
 30
0.0
 11
286.9490704219738
 21
191.2335316719375
 31
0.0
  0
LINE
  5
EF
330
EC
100
AcDbEntity
  8
0
  6
ByBlock
 62
     2
100
AcDbLine
 10
288.8990704219738
 20
247.983531671937
 30
0.0
 11
288.8990704219738
 21
196.4835316719375
 31
0.0
  0
SOLID
  5
F0
330
EC
100
AcDbEntity
  8
0
  6
ByBlock
 62
     2
100
AcDbTrace
 10
288.0240704219738
 20
247.983531671937
 30
0.0
 11
289.7740704219738
 21
247.983531671937
 31
0.0
 12
288.8990704219738
 22
253.233531671937
 32
0.0
 13
288.8990704219738
 23
253.233531671937
 33
0.0
  0
SOLID
  5
F1
330
EC
100
AcDbEntity
  8
0
  6
ByBlock
 62
     2
100
AcDbTrace
 10
288.0240704219738
 20
196.4835316719375
 30
0.0
 11
289.7740704219738
 21
196.4835316719375
 31
0.0
 12
288.8990704219738
 22
191.2335316719375
 32
0.0
 13
288.8990704219738
 23
191.2335316719375
 33
0.0
  0
MTEXT
  5
F2
330
EC
100
AcDbEntity
  8
0
  6
ByBlock
 62
     3
100
AcDbMText
 10
284.7740704219738
 20
222.2335316719372
 30
0.0
 40
5.25
 41
0.0
 71
     5
 72
     1
  1
\A1;62
  7
NORM
 11
0.0000000000000001
 21
1.0
 31
0.0
 73
     1
 44
1.0
  0
POINT
  5
F3
330
EC
100
AcDbEntity
  8
DEFPOINTS
  6
ByBlock
 62
     0
100
AcDbPoint
 10
317.8164349876424
 20
253.233531671937
 30
0.0
  0
POINT
  5
F4
330
EC
100
AcDbEntity
  8
DEFPOINTS
  6
ByBlock
 62
     0
100
AcDbPoint
 10
329.8164349876424
 20
191.2335316719375
 30
0.0
  0
POINT
  5
F5
330
EC
100
AcDbEntity
  8
DEFPOINTS
  6
ByBlock
 62
     0
100
AcDbPoint
 10
288.8990704219738
 20
191.2335316719375
 30
0.0
  0
ENDBLK
  5
F7
330
EC
100
AcDbEntity
  8
0
100
AcDbBlockEnd
  0
BLOCK
  5
143
330
136
100
AcDbEntity
  8
0
100
AcDbBlockBegin
  2
*D8
 70
     1
 10
0.0
 20
0.0
 30
0.0
  3
*D8
  1

  0
LINE
  5
137
330
136
100
AcDbEntity
  8
0
  6
ByBlock
 62
     2
100
AcDbLine
 10
343.075252821189
 20
127.2297348501765
 30
0.0
 11
358.0674615632603
 21
127.2297348501764
 31
0.0
  0
LINE
  5
138
330
136
100
AcDbEntity
  8
0
  6
ByBlock
 62
     2
100
AcDbLine
 10
355.3674615632603
 20
125.4297348501766
 30
0.0
 11
354.1674615632603
 21
125.4297348501766
 31
0.0
  0
LINE
  5
139
330
136
100
AcDbEntity
  8
0
  6
ByBlock
 62
     2
100
AcDbLine
 10
356.1174615632603
 20
132.4797348501764
 30
0.0
 11
356.1174615632603
 21
137.7297348501764
 31
0.0
  0
LINE
  5
13A
330
136
100
AcDbEntity
  8
0
  6
ByBlock
 62
     2
100
AcDbLine
 10
356.1174615632603
 20
120.1797348501766
 30
0.0
 11
356.1174615632603
 21
114.9297348501766
 31
0.0
  0
MTEXT
  5
13B
330
136
100
AcDbEntity
  8
0
  6
ByBlock
 62
     3
100
AcDbMText
 10
351.9924615632603
 20
137.4451640488373
 30
0.0
 40
5.25
 41
0.0
 71
     5
 72
     1
  1
\A1;1.8
  7
NORM
 11
0.0000000000000001
 21
1.0
 31
0.0
 73
     1
 44
1.0
  0
LINE
  5
13C
330
136
100
AcDbEntity
  8
0
  6
ByBlock
 62
     2
100
AcDbLine
 10
356.1174615632603
 20
127.2297348501764
 30
0.0
 11
356.1174615632603
 21
125.4297348501766
 31
0.0
  0
LINE
  5
13D
330
136
100
AcDbEntity
  8
0
  6
ByBlock
 62
     2
100
AcDbLine
 10
356.1174615632603
 20
127.2297348501764
 30
0.0
 11
356.1174615632603
 21
125.4297348501766
 31
0.0
  0
SOLID
  5
13E
330
136
100
AcDbEntity
  8
0
  6
ByBlock
 62
     2
100
AcDbTrace
 10
355.2424615632603
 20
132.4797348501765
 30
0.0
 11
356.9924615632603
 21
132.4797348501765
 31
0.0
 12
356.1174615632603
 22
127.2297348501764
 32
0.0
 13
356.1174615632603
 23
127.2297348501764
 33
0.0
  0
SOLID
  5
13F
330
136
100
AcDbEntity
  8
0
  6
ByBlock
 62
     2
100
AcDbTrace
 10
355.2424615632603
 20
120.1797348501766
 30
0.0
 11
356.9924615632603
 21
120.1797348501766
 31
0.0
 12
356.1174615632603
 22
125.4297348501766
 32
0.0
 13
356.1174615632603
 23
125.4297348501766
 33
0.0
  0
POINT
  5
140
330
136
100
AcDbEntity
  8
DEFPOINTS
  6
ByBlock
 62
     0
100
AcDbPoint
 10
342.3252528211889
 20
127.2297348501765
 30
0.0
  0
POINT
  5
141
330
136
100
AcDbEntity
  8
DEFPOINTS
  6
ByBlock
 62
     0
100
AcDbPoint
 10
356.1174615632603
 20
125.4297348501766
 30
0.0
  0
POINT
  5
142
330
136
100
AcDbEntity
  8
DEFPOINTS
  6
ByBlock
 62
     0
100
AcDbPoint
 10
356.1174615632603
 20
125.4297348501766
 30
0.0
  0
ENDBLK
  5
144
330
136
100
AcDbEntity
  8
0
100
AcDbBlockEnd
  0
BLOCK
  5
CF
330
C3
100
AcDbEntity
  8
0
100
AcDbBlockBegin
  2
*D9
 70
     1
 10
0.0
 20
0.0
 30
0.0
  3
*D9
  1

  0
LINE
  5
C4
330
C3
100
AcDbEntity
  8
0
  6
ByBlock
 62
     2
100
AcDbLine
 10
301.7054121777992
 20
252.483531671937
 30
0.0
 11
301.7054121777992
 21
235.6472901999862
 31
0.0
  0
LINE
  5
C5
330
C3
100
AcDbEntity
  8
0
  6
ByBlock
 62
     2
100
AcDbLine
 10
313.7054121777992
 20
239.5788846802294
 30
0.0
 11
313.7054121777992
 21
235.6472901999862
 31
0.0
  0
LINE
  5
C6
330
C3
100
AcDbEntity
  8
0
  6
ByBlock
 62
     2
100
AcDbLine
 10
296.4554121777991
 20
237.5972901999862
 30
0.0
 11
291.2054121777991
 21
237.5972901999862
 31
0.0
  0
LINE
  5
C7
330
C3
100
AcDbEntity
  8
0
  6
ByBlock
 62
     2
100
AcDbLine
 10
318.9554121777991
 20
237.5972901999862
 30
0.0
 11
324.2054121777992
 21
237.5972901999862
 31
0.0
  0
LINE
  5
C8
330
C3
100
AcDbEntity
  8
0
  6
ByBlock
 62
     2
100
AcDbLine
 10
301.7054121777992
 20
237.5972901999862
 30
0.0
 11
313.7054121777992
 21
237.5972901999862
 31
0.0
  0
SOLID
  5
C9
330
C3
100
AcDbEntity
  8
0
  6
ByBlock
 62
     2
100
AcDbTrace
 10
296.4554121777991
 20
238.4722901999862
 30
0.0
 11
296.4554121777991
 21
236.7222901999862
 31
0.0
 12
301.7054121777992
 22
237.5972901999862
 32
0.0
 13
301.7054121777992
 23
237.5972901999862
 33
0.0
  0
SOLID
  5
CA
330
C3
100
AcDbEntity
  8
0
  6
ByBlock
 62
     2
100
AcDbTrace
 10
318.9554121777991
 20
238.4722901999862
 30
0.0
 11
318.9554121777991
 21
236.7222901999862
 31
0.0
 12
313.7054121777992
 22
237.5972901999862
 32
0.0
 13
313.7054121777992
 23
237.5972901999862
 33
0.0
  0
MTEXT
  5
CB
330
C3
100
AcDbEntity
  8
0
  6
ByBlock
 62
     3
100
AcDbMText
 10
307.7054121777992
 20
241.7222901999863
 30
0.0
 40
5.25
 41
0.0
 71
     5
 72
     1
  1
\A1;12
  7
NORM
 73
     1
 44
1.0
  0
POINT
  5
CC
330
C3
100
AcDbEntity
  8
DEFPOINTS
  6
ByBlock
 62
     0
100
AcDbPoint
 10
301.7054121777992
 20
253.233531671937
 30
0.0
  0
POINT
  5
CD
330
C3
100
AcDbEntity
  8
DEFPOINTS
  6
ByBlock
 62
     0
100
AcDbPoint
 10
313.7054121777992
 20
240.3288846802294
 30
0.0
  0
POINT
  5
CE
330
C3
100
AcDbEntity
  8
DEFPOINTS
  6
ByBlock
 62
     0
100
AcDbPoint
 10
313.7054121777992
 20
237.5972901999862
 30
0.0
  0
ENDBLK
  5
D0
330
C3
100
AcDbEntity
  8
0
100
AcDbBlockEnd
  0
BLOCK
  5
E9
330
DF
100
AcDbEntity
  8
0
100
AcDbBlockBegin
  2
*D10
 70
     1
 10
0.0
 20
0.0
 30
0.0
  3
*D10
  1

  0
LINE
  5
E0
330
DF
100
AcDbEntity
  8
0
  6
ByBlock
 62
     2
100
AcDbLine
 10
314.2077723691459
 20
253.233531671937
 30
0.0
 11
297.9468513223868
 21
253.233531671937
 31
0.0
  0
LINE
  5
E1
330
DF
100
AcDbEntity
  8
0
  6
ByBlock
 62
     2
100
AcDbLine
 10
329.2077723691459
 20
221.2335316719375
 30
0.0
 11
297.9468513223868
 21
221.2335316719375
 31
0.0
  0
LINE
  5
E2
330
DF
100
AcDbEntity
  8
0
  6
ByBlock
 62
     2
100
AcDbLine
 10
299.8968513223868
 20
247.983531671937
 30
0.0
 11
299.8968513223868
 21
226.4835316719374
 31
0.0
  0
SOLID
  5
E3
330
DF
100
AcDbEntity
  8
0
  6
ByBlock
 62
     2
100
AcDbTrace
 10
299.0218513223868
 20
247.983531671937
 30
0.0
 11
300.7718513223868
 21
247.983531671937
 31
0.0
 12
299.8968513223868
 22
253.233531671937
 32
0.0
 13
299.8968513223868
 23
253.233531671937
 33
0.0
  0
SOLID
  5
E4
330
DF
100
AcDbEntity
  8
0
  6
ByBlock
 62
     2
100
AcDbTrace
 10
299.0218513223868
 20
226.4835316719374
 30
0.0
 11
300.7718513223868
 21
226.4835316719374
 31
0.0
 12
299.8968513223868
 22
221.2335316719375
 32
0.0
 13
299.8968513223868
 23
221.2335316719375
 33
0.0
  0
MTEXT
  5
E5
330
DF
100
AcDbEntity
  8
0
  6
ByBlock
 62
     3
100
AcDbMText
 10
295.7718513223868
 20
237.2335316719372
 30
0.0
 40
5.25
 41
0.0
 71
     5
 72
     1
  1
\A1;32
  7
NORM
 11
0.0000000000000001
 21
1.0
 31
0.0
 73
     1
 44
1.0
  0
POINT
  5
E6
330
DF
100
AcDbEntity
  8
DEFPOINTS
  6
ByBlock
 62
     0
100
AcDbPoint
 10
314.9577723691459
 20
253.233531671937
 30
0.0
  0
POINT
  5
E7
330
DF
100
AcDbEntity
  8
DEFPOINTS
  6
ByBlock
 62
     0
100
AcDbPoint
 10
329.9577723691459
 20
221.2335316719375
 30
0.0
  0
POINT
  5
E8
330
DF
100
AcDbEntity
  8
DEFPOINTS
  6
ByBlock
 62
     0
100
AcDbPoint
 10
299.8968513223868
 20
221.2335316719375
 30
0.0
  0
ENDBLK
  5
EA
330
DF
100
AcDbEntity
  8
0
100
AcDbBlockEnd
  0
BLOCK
  5
106
330
FC
100
AcDbEntity
  8
0
100
AcDbBlockBegin
  2
*D11
 70
     1
 10
0.0
 20
0.0
 30
0.0
  3
*D11
  1

  0
LINE
  5
FD
330
FC
100
AcDbEntity
  8
0
  6
ByBlock
 62
     2
100
AcDbLine
 10
317.0664349876424
 20
285.233531671937
 30
0.0
 11
286.9490704219738
 21
285.233531671937
 31
0.0
  0
LINE
  5
FE
330
FC
100
AcDbEntity
  8
0
  6
ByBlock
 62
     2
100
AcDbLine
 10
317.0664349876424
 20
253.233531671937
 30
0.0
 11
286.9490704219738
 21
253.233531671937
 31
0.0
  0
LINE
  5
FF
330
FC
100
AcDbEntity
  8
0
  6
ByBlock
 62
     2
100
AcDbLine
 10
288.8990704219738
 20
279.983531671937
 30
0.0
 11
288.8990704219738
 21
258.483531671937
 31
0.0
  0
SOLID
  5
100
330
FC
100
AcDbEntity
  8
0
  6
ByBlock
 62
     2
100
AcDbTrace
 10
288.0240704219738
 20
279.983531671937
 30
0.0
 11
289.7740704219738
 21
279.983531671937
 31
0.0
 12
288.8990704219738
 22
285.233531671937
 32
0.0
 13
288.8990704219738
 23
285.233531671937
 33
0.0
  0
SOLID
  5
101
330
FC
100
AcDbEntity
  8
0
  6
ByBlock
 62
     2
100
AcDbTrace
 10
288.0240704219738
 20
258.483531671937
 30
0.0
 11
289.7740704219738
 21
258.483531671937
 31
0.0
 12
288.8990704219738
 22
253.233531671937
 32
0.0
 13
288.8990704219738
 23
253.233531671937
 33
0.0
  0
MTEXT
  5
102
330
FC
100
AcDbEntity
  8
0
  6
ByBlock
 62
     3
100
AcDbMText
 10
284.7740704219738
 20
269.233531671937
 30
0.0
 40
5.25
 41
0.0
 71
     5
 72
     1
  1
\A1;32
  7
NORM
 11
0.0000000000000001
 21
1.0
 31
0.0
 73
     1
 44
1.0
  0
POINT
  5
103
330
FC
100
AcDbEntity
  8
DEFPOINTS
  6
ByBlock
 62
     0
100
AcDbPoint
 10
317.8164349876424
 20
285.233531671937
 30
0.0
  0
POINT
  5
104
330
FC
100
AcDbEntity
  8
DEFPOINTS
  6
ByBlock
 62
     0
100
AcDbPoint
 10
317.8164349876424
 20
253.233531671937
 30
0.0
  0
POINT
  5
105
330
FC
100
AcDbEntity
  8
DEFPOINTS
  6
ByBlock
 62
     0
100
AcDbPoint
 10
288.8990704219738
 20
253.233531671937
 30
0.0
  0
ENDBLK
  5
107
330
FC
100
AcDbEntity
  8
0
100
AcDbBlockEnd
  0
BLOCK
  5
155
330
14B
100
AcDbEntity
  8
0
100
AcDbBlockBegin
  2
*D12
 70
     1
 10
0.0
 20
0.0
 30
0.0
  3
*D12
  1

  0
LINE
  5
14C
330
14B
100
AcDbEntity
  8
0
  6
ByBlock
 62
     2
100
AcDbLine
 10
360.0664349876444
 20
221.2335316719375
 30
0.0
 11
389.4593427897427
 21
221.2335316719375
 31
0.0
  0
LINE
  5
14D
330
14B
100
AcDbEntity
  8
0
  6
ByBlock
 62
     2
100
AcDbLine
 10
375.1664349876423
 20
248.2335316719375
 30
0.0
 11
389.4593427897427
 21
248.2335316719375
 31
0.0
  0
LINE
  5
14E
330
14B
100
AcDbEntity
  8
0
  6
ByBlock
 62
     2
100
AcDbLine
 10
387.5093427897427
 20
226.4835316719374
 30
0.0
 11
387.5093427897427
 21
242.9835316719374
 31
0.0
  0
SOLID
  5
14F
330
14B
100
AcDbEntity
  8
0
  6
ByBlock
 62
     2
100
AcDbTrace
 10
386.6343427897427
 20
226.4835316719374
 30
0.0
 11
388.3843427897427
 21
226.4835316719374
 31
0.0
 12
387.5093427897427
 22
221.2335316719375
 32
0.0
 13
387.5093427897427
 23
221.2335316719375
 33
0.0
  0
SOLID
  5
150
330
14B
100
AcDbEntity
  8
0
  6
ByBlock
 62
     2
100
AcDbTrace
 10
386.6343427897427
 20
242.9835316719374
 30
0.0
 11
388.3843427897427
 21
242.9835316719374
 31
0.0
 12
387.5093427897427
 22
248.2335316719375
 32
0.0
 13
387.5093427897427
 23
248.2335316719375
 33
0.0
  0
MTEXT
  5
151
330
14B
100
AcDbEntity
  8
0
  6
ByBlock
 62
     3
100
AcDbMText
 10
383.3843427897427
 20
234.7335316719374
 30
0.0
 40
5.25
 41
0.0
 71
     5
 72
     1
  1
\A1;27
  7
NORM
 11
0.0000000000000001
 21
1.0
 31
0.0
 73
     1
 44
1.0
  0
POINT
  5
152
330
14B
100
AcDbEntity
  8
DEFPOINTS
  6
ByBlock
 62
     0
100
AcDbPoint
 10
359.3164349876444
 20
221.2335316719375
 30
0.0
  0
POINT
  5
153
330
14B
100
AcDbEntity
  8
DEFPOINTS
  6
ByBlock
 62
     0
100
AcDbPoint
 10
374.4164349876423
 20
248.2335316719375
 30
0.0
  0
POINT
  5
154
330
14B
100
AcDbEntity
  8
DEFPOINTS
  6
ByBlock
 62
     0
100
AcDbPoint
 10
387.5093427897427
 20
248.2335316719375
 30
0.0
  0
ENDBLK
  5
156
330
14B
100
AcDbEntity
  8
0
100
AcDbBlockEnd
  0
BLOCK
  5
1B3
330
1A9
100
AcDbEntity
  8
0
100
AcDbBlockBegin
  2
*D13
 70
     1
 10
0.0
 20
0.0
 30
0.0
  3
*D13
  1

  0
LINE
  5
1AA
330
1A9
100
AcDbEntity
  8
0
  6
ByBlock
 62
     2
100
AcDbLine
 10
373.0664349876424
 20
326.2335316719374
 30
0.0
 11
389.4593427897427
 21
326.2335316719374
 31
0.0
  0
LINE
  5
1AB
330
1A9
100
AcDbEntity
  8
0
  6
ByBlock
 62
     2
100
AcDbLine
 10
360.0664349876396
 20
401.2335316719375
 30
0.0
 11
389.4593427897427
 21
401.2335316719375
 31
0.0
  0
LINE
  5
1AC
330
1A9
100
AcDbEntity
  8
0
  6
ByBlock
 62
     2
100
AcDbLine
 10
387.5093427897427
 20
331.4835316719375
 30
0.0
 11
387.5093427897427
 21
395.9835316719375
 31
0.0
  0
SOLID
  5
1AD
330
1A9
100
AcDbEntity
  8
0
  6
ByBlock
 62
     2
100
AcDbTrace
 10
386.6343427897427
 20
331.4835316719375
 30
0.0
 11
388.3843427897427
 21
331.4835316719375
 31
0.0
 12
387.5093427897427
 22
326.2335316719374
 32
0.0
 13
387.5093427897427
 23
326.2335316719374
 33
0.0
  0
SOLID
  5
1AE
330
1A9
100
AcDbEntity
  8
0
  6
ByBlock
 62
     2
100
AcDbTrace
 10
386.6343427897427
 20
395.9835316719375
 30
0.0
 11
388.3843427897427
 21
395.9835316719375
 31
0.0
 12
387.5093427897427
 22
401.2335316719375
 32
0.0
 13
387.5093427897427
 23
401.2335316719375
 33
0.0
  0
MTEXT
  5
1AF
330
1A9
100
AcDbEntity
  8
0
  6
ByBlock
 62
     3
100
AcDbMText
 10
383.3843427897427
 20
363.7335316719374
 30
0.0
 40
5.25
 41
0.0
 71
     5
 72
     1
  1
\A1;75
  7
NORM
 11
0.0000000000000001
 21
1.0
 31
0.0
 73
     1
 44
1.0
  0
POINT
  5
1B0
330
1A9
100
AcDbEntity
  8
DEFPOINTS
  6
ByBlock
 62
     0
100
AcDbPoint
 10
372.3164349876424
 20
326.2335316719374
 30
0.0
  0
POINT
  5
1B1
330
1A9
100
AcDbEntity
  8
DEFPOINTS
  6
ByBlock
 62
     0
100
AcDbPoint
 10
359.3164349876396
 20
401.2335316719375
 30
0.0
  0
POINT
  5
1B2
330
1A9
100
AcDbEntity
  8
DEFPOINTS
  6
ByBlock
 62
     0
100
AcDbPoint
 10
387.5093427897427
 20
401.2335316719375
 30
0.0
  0
ENDBLK
  5
1B4
330
1A9
100
AcDbEntity
  8
0
100
AcDbBlockEnd
  0
BLOCK
  5
17E
330
174
100
AcDbEntity
  8
0
100
AcDbBlockBegin
  2
*D14
 70
     1
 10
0.0
 20
0.0
 30
0.0
  3
*D14
  1

  0
LINE
  5
175
330
174
100
AcDbEntity
  8
0
  6
ByBlock
 62
     2
100
AcDbLine
 10
329.0664349876424
 20
431.2335316719375
 30
0.0
 11
286.9490704219738
 21
431.2335316719375
 31
0.0
  0
LINE
  5
176
330
174
100
AcDbEntity
  8
0
  6
ByBlock
 62
     2
100
AcDbLine
 10
319.0664349876424
 20
369.2335316719375
 30
0.0
 11
286.9490704219738
 21
369.2335316719375
 31
0.0
  0
LINE
  5
177
330
174
100
AcDbEntity
  8
0
  6
ByBlock
 62
     2
100
AcDbLine
 10
288.8990704219738
 20
425.9835316719374
 30
0.0
 11
288.8990704219738
 21
374.4835316719374
 31
0.0
  0
SOLID
  5
178
330
174
100
AcDbEntity
  8
0
  6
ByBlock
 62
     2
100
AcDbTrace
 10
288.0240704219738
 20
425.9835316719374
 30
0.0
 11
289.7740704219738
 21
425.9835316719374
 31
0.0
 12
288.8990704219738
 22
431.2335316719375
 32
0.0
 13
288.8990704219738
 23
431.2335316719375
 33
0.0
  0
SOLID
  5
179
330
174
100
AcDbEntity
  8
0
  6
ByBlock
 62
     2
100
AcDbTrace
 10
288.0240704219738
 20
374.4835316719374
 30
0.0
 11
289.7740704219738
 21
374.4835316719374
 31
0.0
 12
288.8990704219738
 22
369.2335316719375
 32
0.0
 13
288.8990704219738
 23
369.2335316719375
 33
0.0
  0
MTEXT
  5
17A
330
174
100
AcDbEntity
  8
0
  6
ByBlock
 62
     3
100
AcDbMText
 10
284.7740704219738
 20
400.2335316719374
 30
0.0
 40
5.25
 41
0.0
 71
     5
 72
     1
  1
\A1;62
  7
NORM
 11
0.0000000000000001
 21
1.0
 31
0.0
 73
     1
 44
1.0
  0
POINT
  5
17B
330
174
100
AcDbEntity
  8
DEFPOINTS
  6
ByBlock
 62
     0
100
AcDbPoint
 10
329.8164349876424
 20
431.2335316719375
 30
0.0
  0
POINT
  5
17C
330
174
100
AcDbEntity
  8
DEFPOINTS
  6
ByBlock
 62
     0
100
AcDbPoint
 10
319.8164349876424
 20
369.2335316719375
 30
0.0
  0
POINT
  5
17D
330
174
100
AcDbEntity
  8
DEFPOINTS
  6
ByBlock
 62
     0
100
AcDbPoint
 10
288.8990704219738
 20
369.2335316719375
 30
0.0
  0
ENDBLK
  5
17F
330
174
100
AcDbEntity
  8
0
100
AcDbBlockEnd
  0
BLOCK
  5
18B
330
181
100
AcDbEntity
  8
0
100
AcDbBlockBegin
  2
*D15
 70
     1
 10
0.0
 20
0.0
 30
0.0
  3
*D15
  1

  0
LINE
  5
182
330
181
100
AcDbEntity
  8
0
  6
ByBlock
 62
     2
100
AcDbLine
 10
329.2077723691459
 20
401.2335316719375
 30
0.0
 11
297.9468513223868
 21
401.2335316719375
 31
0.0
  0
LINE
  5
183
330
181
100
AcDbEntity
  8
0
  6
ByBlock
 62
     2
100
AcDbLine
 10
316.2077723691459
 20
369.2335316719375
 30
0.0
 11
297.9468513223868
 21
369.2335316719375
 31
0.0
  0
LINE
  5
184
330
181
100
AcDbEntity
  8
0
  6
ByBlock
 62
     2
100
AcDbLine
 10
299.8968513223868
 20
395.9835316719375
 30
0.0
 11
299.8968513223868
 21
374.4835316719374
 31
0.0
  0
SOLID
  5
185
330
181
100
AcDbEntity
  8
0
  6
ByBlock
 62
     2
100
AcDbTrace
 10
299.0218513223868
 20
395.9835316719375
 30
0.0
 11
300.7718513223868
 21
395.9835316719375
 31
0.0
 12
299.8968513223868
 22
401.2335316719375
 32
0.0
 13
299.8968513223868
 23
401.2335316719375
 33
0.0
  0
SOLID
  5
186
330
181
100
AcDbEntity
  8
0
  6
ByBlock
 62
     2
100
AcDbTrace
 10
299.0218513223868
 20
374.4835316719374
 30
0.0
 11
300.7718513223868
 21
374.4835316719374
 31
0.0
 12
299.8968513223868
 22
369.2335316719375
 32
0.0
 13
299.8968513223868
 23
369.2335316719375
 33
0.0
  0
MTEXT
  5
187
330
181
100
AcDbEntity
  8
0
  6
ByBlock
 62
     3
100
AcDbMText
 10
295.7718513223868
 20
385.2335316719375
 30
0.0
 40
5.25
 41
0.0
 71
     5
 72
     1
  1
\A1;32
  7
NORM
 11
0.0000000000000001
 21
1.0
 31
0.0
 73
     1
 44
1.0
  0
POINT
  5
188
330
181
100
AcDbEntity
  8
DEFPOINTS
  6
ByBlock
 62
     0
100
AcDbPoint
 10
329.9577723691459
 20
401.2335316719375
 30
0.0
  0
POINT
  5
189
330
181
100
AcDbEntity
  8
DEFPOINTS
  6
ByBlock
 62
     0
100
AcDbPoint
 10
316.9577723691459
 20
369.2335316719375
 30
0.0
  0
POINT
  5
18A
330
181
100
AcDbEntity
  8
DEFPOINTS
  6
ByBlock
 62
     0
100
AcDbPoint
 10
299.8968513223868
 20
369.2335316719375
 30
0.0
  0
ENDBLK
  5
18C
330
181
100
AcDbEntity
  8
0
100
AcDbBlockEnd
  0
BLOCK
  5
1E3
330
1D9
100
AcDbEntity
  8
0
100
AcDbBlockBegin
  2
*D16
 70
     1
 10
0.0
 20
0.0
 30
0.0
  3
*D16
  1

  0
LINE
  5
1DA
330
1D9
100
AcDbEntity
  8
0
  6
ByBlock
 62
     2
100
AcDbLine
 10
330.9554121777992
 20
326.2335316719374
 30
0.0
 11
325.4288696193264
 21
326.2335316719374
 31
0.0
  0
LINE
  5
1DB
330
1D9
100
AcDbEntity
  8
0
  6
ByBlock
 62
     2
100
AcDbLine
 10
335.4554121777991
 20
304.7335316719375
 30
0.0
 11
325.4288696193264
 21
304.7335316719375
 31
0.0
  0
LINE
  5
1DC
330
1D9
100
AcDbEntity
  8
0
  6
ByBlock
 62
     2
100
AcDbLine
 10
327.3788696193264
 20
320.9835316719375
 30
0.0
 11
327.3788696193264
 21
309.9835316719374
 31
0.0
  0
SOLID
  5
1DD
330
1D9
100
AcDbEntity
  8
0
  6
ByBlock
 62
     2
100
AcDbTrace
 10
326.5038696193264
 20
320.9835316719375
 30
0.0
 11
328.2538696193264
 21
320.9835316719375
 31
0.0
 12
327.3788696193264
 22
326.2335316719374
 32
0.0
 13
327.3788696193264
 23
326.2335316719374
 33
0.0
  0
SOLID
  5
1DE
330
1D9
100
AcDbEntity
  8
0
  6
ByBlock
 62
     2
100
AcDbTrace
 10
326.5038696193264
 20
309.9835316719374
 30
0.0
 11
328.2538696193264
 21
309.9835316719374
 31
0.0
 12
327.3788696193264
 22
304.7335316719375
 32
0.0
 13
327.3788696193264
 23
304.7335316719375
 33
0.0
  0
MTEXT
  5
1DF
330
1D9
100
AcDbEntity
  8
0
  6
ByBlock
 62
     3
100
AcDbMText
 10
323.2538696193264
 20
315.4835316719375
 30
0.0
 40
5.25
 41
0.0
 71
     5
 72
     1
  1
\A1;21.5
  7
NORM
 11
0.0000000000000001
 21
1.0
 31
0.0
 73
     1
 44
1.0
  0
POINT
  5
1E0
330
1D9
100
AcDbEntity
  8
DEFPOINTS
  6
ByBlock
 62
     0
100
AcDbPoint
 10
331.7054121777991
 20
326.2335316719374
 30
0.0
  0
POINT
  5
1E1
330
1D9
100
AcDbEntity
  8
DEFPOINTS
  6
ByBlock
 62
     0
100
AcDbPoint
 10
336.2054121777991
 20
304.7335316719375
 30
0.0
  0
POINT
  5
1E2
330
1D9
100
AcDbEntity
  8
DEFPOINTS
  6
ByBlock
 62
     0
100
AcDbPoint
 10
327.3788696193264
 20
304.7335316719375
 30
0.0
  0
ENDBLK
  5
1E4
330
1D9
100
AcDbEntity
  8
0
100
AcDbBlockEnd
  0
BLOCK
  5
1D0
330
1C6
100
AcDbEntity
  8
0
100
AcDbBlockBegin
  2
*D17
 70
     1
 10
0.0
 20
0.0
 30
0.0
  3
*D17
  1

  0
LINE
  5
1C7
330
1C6
100
AcDbEntity
  8
0
  6
ByBlock
 62
     2
100
AcDbLine
 10
335.4554121777991
 20
372.2335316719374
 30
0.0
 11
325.4288696193264
 21
372.2335316719374
 31
0.0
  0
LINE
  5
1C8
330
1C6
100
AcDbEntity
  8
0
  6
ByBlock
 62
     2
100
AcDbLine
 10
330.9554121777992
 20
326.2335316719374
 30
0.0
 11
325.4288696193264
 21
326.2335316719374
 31
0.0
  0
LINE
  5
1C9
330
1C6
100
AcDbEntity
  8
0
  6
ByBlock
 62
     2
100
AcDbLine
 10
327.3788696193264
 20
366.9835316719375
 30
0.0
 11
327.3788696193264
 21
331.4835316719375
 31
0.0
  0
SOLID
  5
1CA
330
1C6
100
AcDbEntity
  8
0
  6
ByBlock
 62
     2
100
AcDbTrace
 10
326.5038696193264
 20
366.9835316719375
 30
0.0
 11
328.2538696193264
 21
366.9835316719375
 31
0.0
 12
327.3788696193264
 22
372.2335316719374
 32
0.0
 13
327.3788696193264
 23
372.2335316719374
 33
0.0
  0
SOLID
  5
1CB
330
1C6
100
AcDbEntity
  8
0
  6
ByBlock
 62
     2
100
AcDbTrace
 10
326.5038696193264
 20
331.4835316719375
 30
0.0
 11
328.2538696193264
 21
331.4835316719375
 31
0.0
 12
327.3788696193264
 22
326.2335316719374
 32
0.0
 13
327.3788696193264
 23
326.2335316719374
 33
0.0
  0
MTEXT
  5
1CC
330
1C6
100
AcDbEntity
  8
0
  6
ByBlock
 62
     3
100
AcDbMText
 10
323.2538696193264
 20
349.2335316719374
 30
0.0
 40
5.25
 41
0.0
 71
     5
 72
     1
  1
\A1;46
  7
NORM
 11
0.0000000000000001
 21
1.0
 31
0.0
 73
     1
 44
1.0
  0
POINT
  5
1CD
330
1C6
100
AcDbEntity
  8
DEFPOINTS
  6
ByBlock
 62
     0
100
AcDbPoint
 10
336.2054121777991
 20
372.2335316719374
 30
0.0
  0
POINT
  5
1CE
330
1C6
100
AcDbEntity
  8
DEFPOINTS
  6
ByBlock
 62
     0
100
AcDbPoint
 10
331.7054121777991
 20
326.2335316719374
 30
0.0
  0
POINT
  5
1CF
330
1C6
100
AcDbEntity
  8
DEFPOINTS
  6
ByBlock
 62
     0
100
AcDbPoint
 10
327.3788696193264
 20
326.2335316719374
 30
0.0
  0
ENDBLK
  5
1D1
330
1C6
100
AcDbEntity
  8
0
100
AcDbBlockEnd
  0
BLOCK
  5
1A6
330
19C
100
AcDbEntity
  8
0
100
AcDbBlockBegin
  2
*D18
 70
     1
 10
0.0
 20
0.0
 30
0.0
  3
*D18
  1

  0
LINE
  5
19D
330
19C
100
AcDbEntity
  8
0
  6
ByBlock
 62
     2
100
AcDbLine
 10
319.0664349876424
 20
369.2335316719375
 30
0.0
 11
286.9490704219738
 21
369.2335316719375
 31
0.0
  0
LINE
  5
19E
330
19C
100
AcDbEntity
  8
0
  6
ByBlock
 62
     2
100
AcDbLine
 10
319.0664349876424
 20
339.233531671937
 30
0.0
 11
286.9490704219738
 21
339.233531671937
 31
0.0
  0
LINE
  5
19F
330
19C
100
AcDbEntity
  8
0
  6
ByBlock
 62
     2
100
AcDbLine
 10
288.8990704219738
 20
363.9835316719374
 30
0.0
 11
288.8990704219738
 21
344.483531671937
 31
0.0
  0
SOLID
  5
1A0
330
19C
100
AcDbEntity
  8
0
  6
ByBlock
 62
     2
100
AcDbTrace
 10
288.0240704219738
 20
363.9835316719374
 30
0.0
 11
289.7740704219738
 21
363.9835316719374
 31
0.0
 12
288.8990704219738
 22
369.2335316719375
 32
0.0
 13
288.8990704219738
 23
369.2335316719375
 33
0.0
  0
SOLID
  5
1A1
330
19C
100
AcDbEntity
  8
0
  6
ByBlock
 62
     2
100
AcDbTrace
 10
288.0240704219738
 20
344.483531671937
 30
0.0
 11
289.7740704219738
 21
344.483531671937
 31
0.0
 12
288.8990704219738
 22
339.233531671937
 32
0.0
 13
288.8990704219738
 23
339.233531671937
 33
0.0
  0
MTEXT
  5
1A2
330
19C
100
AcDbEntity
  8
0
  6
ByBlock
 62
     3
100
AcDbMText
 10
284.7740704219738
 20
354.2335316719372
 30
0.0
 40
5.25
 41
0.0
 71
     5
 72
     1
  1
\A1;30
  7
NORM
 11
0.0000000000000001
 21
1.0
 31
0.0
 73
     1
 44
1.0
  0
POINT
  5
1A3
330
19C
100
AcDbEntity
  8
DEFPOINTS
  6
ByBlock
 62
     0
100
AcDbPoint
 10
319.8164349876424
 20
369.2335316719375
 30
0.0
  0
POINT
  5
1A4
330
19C
100
AcDbEntity
  8
DEFPOINTS
  6
ByBlock
 62
     0
100
AcDbPoint
 10
319.8164349876424
 20
339.233531671937
 30
0.0
  0
POINT
  5
1A5
330
19C
100
AcDbEntity
  8
DEFPOINTS
  6
ByBlock
 62
     0
100
AcDbPoint
 10
288.8990704219738
 20
339.233531671937
 30
0.0
  0
ENDBLK
  5
1A7
330
19C
100
AcDbEntity
  8
0
100
AcDbBlockEnd
  0
BLOCK
  5
171
330
165
100
AcDbEntity
  8
0
100
AcDbBlockBegin
  2
*D19
 70
     1
 10
0.0
 20
0.0
 30
0.0
  3
*D19
  1

  0
LINE
  5
166
330
165
100
AcDbEntity
  8
0
  6
ByBlock
 62
     2
100
AcDbLine
 10
303.7054121777992
 20
338.483531671937
 30
0.0
 11
303.7054121777992
 21
323.8772622517354
 31
0.0
  0
LINE
  5
167
330
165
100
AcDbEntity
  8
0
  6
ByBlock
 62
     2
100
AcDbLine
 10
313.7054121777992
 20
326.8248794681248
 30
0.0
 11
313.7054121777992
 21
323.8772622517354
 31
0.0
  0
LINE
  5
168
330
165
100
AcDbEntity
  8
0
  6
ByBlock
 62
     2
100
AcDbLine
 10
298.4554121777991
 20
325.8272622517354
 30
0.0
 11
293.2054121777992
 21
325.8272622517354
 31
0.0
  0
LINE
  5
169
330
165
100
AcDbEntity
  8
0
  6
ByBlock
 62
     2
100
AcDbLine
 10
318.9554121777991
 20
325.8272622517354
 30
0.0
 11
324.2054121777992
 21
325.8272622517354
 31
0.0
  0
LINE
  5
16A
330
165
100
AcDbEntity
  8
0
  6
ByBlock
 62
     2
100
AcDbLine
 10
303.7054121777992
 20
325.8272622517354
 30
0.0
 11
313.7054121777992
 21
325.8272622517354
 31
0.0
  0
SOLID
  5
16B
330
165
100
AcDbEntity
  8
0
  6
ByBlock
 62
     2
100
AcDbTrace
 10
298.4554121777991
 20
326.7022622517354
 30
0.0
 11
298.4554121777991
 21
324.9522622517354
 31
0.0
 12
303.7054121777992
 22
325.8272622517354
 32
0.0
 13
303.7054121777992
 23
325.8272622517354
 33
0.0
  0
SOLID
  5
16C
330
165
100
AcDbEntity
  8
0
  6
ByBlock
 62
     2
100
AcDbTrace
 10
318.9554121777991
 20
326.7022622517354
 30
0.0
 11
318.9554121777991
 21
324.9522622517354
 31
0.0
 12
313.7054121777992
 22
325.8272622517354
 32
0.0
 13
313.7054121777992
 23
325.8272622517354
 33
0.0
  0
MTEXT
  5
16D
330
165
100
AcDbEntity
  8
0
  6
ByBlock
 62
     3
100
AcDbMText
 10
308.7054121777991
 20
329.9522622517354
 30
0.0
 40
5.25
 41
0.0
 71
     5
 72
     1
  1
\A1;10
  7
NORM
 73
     1
 44
1.0
  0
POINT
  5
16E
330
165
100
AcDbEntity
  8
DEFPOINTS
  6
ByBlock
 62
     0
100
AcDbPoint
 10
303.7054121777992
 20
339.233531671937
 30
0.0
  0
POINT
  5
16F
330
165
100
AcDbEntity
  8
DEFPOINTS
  6
ByBlock
 62
     0
100
AcDbPoint
 10
313.7054121777992
 20
327.5748794681248
 30
0.0
  0
POINT
  5
170
330
165
100
AcDbEntity
  8
DEFPOINTS
  6
ByBlock
 62
     0
100
AcDbPoint
 10
313.7054121777992
 20
325.8272622517354
 30
0.0
  0
ENDBLK
  5
172
330
165
100
AcDbEntity
  8
0
100
AcDbBlockEnd
  0
BLOCK
  5
1C3
330
1B7
100
AcDbEntity
  8
0
100
AcDbBlockBegin
  2
*D20
 70
     1
 10
0.0
 20
0.0
 30
0.0
  3
*D20
  1

  0
LINE
  5
1B8
330
1B7
100
AcDbEntity
  8
0
  6
ByBlock
 62
     2
100
AcDbLine
 10
339.1369792500752
 20
331.4239729080834
 30
0.0
 11
338.9658986304693
 21
345.2194476212267
 31
0.0
  0
LINE
  5
1B9
330
1B7
100
AcDbEntity
  8
0
  6
ByBlock
 62
     2
100
AcDbLine
 10
348.1362903495749
 20
331.5355752813936
 30
0.0
 11
347.965209729969
 21
345.331049994537
 31
0.0
  0
LINE
  5
1BA
330
1B7
100
AcDbEntity
  8
0
  6
ByBlock
 62
     2
100
AcDbLine
 10
333.740482788833
 20
343.2044961870785
 30
0.0
 11
328.4908864412419
 21
343.1393948248926
 31
0.0
  0
LINE
  5
1BB
330
1B7
100
AcDbEntity
  8
0
  6
ByBlock
 62
     2
100
AcDbLine
 10
353.2389865835148
 20
343.4463012847605
 30
0.0
 11
358.4885829311058
 21
343.5114026469463
 31
0.0
  0
LINE
  5
1BC
330
1B7
100
AcDbEntity
  8
0
  6
ByBlock
 62
     2
100
AcDbLine
 10
338.9900791364241
 20
343.2695975492644
 30
0.0
 11
347.9893902359238
 21
343.3811999225746
 31
0.0
  0
SOLID
  5
1BD
330
1B7
100
AcDbEntity
  8
0
  6
ByBlock
 62
     2
100
AcDbTrace
 10
333.729632561802
 20
344.079428911677
 30
0.0
 11
333.751333015864
 21
342.32956346248
 31
0.0
 12
338.9900791364241
 22
343.2695975492644
 32
0.0
 13
338.9900791364241
 23
343.2695975492644
 33
0.0
  0
SOLID
  5
1BE
330
1B7
100
AcDbEntity
  8
0
  6
ByBlock
 62
     2
100
AcDbTrace
 10
353.2281363564838
 20
344.321234009359
 30
0.0
 11
353.2498368105458
 21
342.5713685601619
 31
0.0
 12
347.9893902359238
 22
343.3811999225746
 32
0.0
 13
347.9893902359238
 23
343.3811999225746
 33
0.0
  0
MTEXT
  5
1BF
330
1B7
100
AcDbEntity
  8
0
  6
ByBlock
 62
     3
100
AcDbMText
 10
343.438583615885
 20
347.4500815804554
 30
0.0
 40
5.25
 41
0.0
 71
     5
 72
     1
  1
\A1;9
  7
NORM
 11
0.9999231138268712
 21
0.0124002594639763
 31
0.0
 73
     1
 44
1.0
  0
POINT
  5
1C0
330
1B7
100
AcDbEntity
  8
DEFPOINTS
  6
ByBlock
 62
     0
100
AcDbPoint
 10
339.1462794446732
 20
330.6740305727133
 30
0.0
  0
POINT
  5
1C1
330
1B7
100
AcDbEntity
  8
DEFPOINTS
  6
ByBlock
 62
     0
100
AcDbPoint
 10
348.1455905441728
 20
330.7856329460235
 30
0.0
  0
POINT
  5
1C2
330
1B7
100
AcDbEntity
  8
DEFPOINTS
  6
ByBlock
 62
     0
100
AcDbPoint
 10
347.9893902359238
 20
343.3811999225746
 30
0.0
  0
ENDBLK
  5
1C4
330
1B7
100
AcDbEntity
  8
0
100
AcDbBlockEnd
  0
BLOCK
  5
1F3
330
1E7
100
AcDbEntity
  8
0
100
AcDbBlockBegin
  2
*D21
 70
     1
 10
0.0
 20
0.0
 30
0.0
  3
*D21
  1

  0
LINE
  5
1E8
330
1E7
100
AcDbEntity
  8
0
  6
ByBlock
 62
     2
100
AcDbLine
 10
339.2054121777992
 20
372.9835316719375
 30
0.0
 11
339.2054121777992
 21
387.3386732471497
 31
0.0
  0
LINE
  5
1E9
330
1E7
100
AcDbEntity
  8
0
  6
ByBlock
 62
     2
100
AcDbLine
 10
348.2054121777991
 20
372.9835316719375
 30
0.0
 11
348.2054121777991
 21
387.3386732471497
 31
0.0
  0
LINE
  5
1EA
330
1E7
100
AcDbEntity
  8
0
  6
ByBlock
 62
     2
100
AcDbLine
 10
333.9554121777991
 20
385.3886732471497
 30
0.0
 11
328.7054121777992
 21
385.3886732471497
 31
0.0
  0
LINE
  5
1EB
330
1E7
100
AcDbEntity
  8
0
  6
ByBlock
 62
     2
100
AcDbLine
 10
353.4554121777992
 20
385.3886732471497
 30
0.0
 11
358.7054121777991
 21
385.3886732471497
 31
0.0
  0
LINE
  5
1EC
330
1E7
100
AcDbEntity
  8
0
  6
ByBlock
 62
     2
100
AcDbLine
 10
339.2054121777992
 20
385.3886732471497
 30
0.0
 11
348.2054121777991
 21
385.3886732471497
 31
0.0
  0
SOLID
  5
1ED
330
1E7
100
AcDbEntity
  8
0
  6
ByBlock
 62
     2
100
AcDbTrace
 10
333.9554121777991
 20
386.2636732471497
 30
0.0
 11
333.9554121777991
 21
384.5136732471497
 31
0.0
 12
339.2054121777992
 22
385.3886732471497
 32
0.0
 13
339.2054121777992
 23
385.3886732471497
 33
0.0
  0
SOLID
  5
1EE
330
1E7
100
AcDbEntity
  8
0
  6
ByBlock
 62
     2
100
AcDbTrace
 10
353.4554121777992
 20
386.2636732471497
 30
0.0
 11
353.4554121777992
 21
384.5136732471497
 31
0.0
 12
348.2054121777991
 22
385.3886732471497
 32
0.0
 13
348.2054121777991
 23
385.3886732471497
 33
0.0
  0
MTEXT
  5
1EF
330
1E7
100
AcDbEntity
  8
0
  6
ByBlock
 62
     3
100
AcDbMText
 10
343.7054121777991
 20
389.5136732471497
 30
0.0
 40
5.25
 41
0.0
 71
     5
 72
     1
  1
\A1;9
  7
NORM
 73
     1
 44
1.0
  0
POINT
  5
1F0
330
1E7
100
AcDbEntity
  8
DEFPOINTS
  6
ByBlock
 62
     0
100
AcDbPoint
 10
339.2054121777992
 20
372.2335316719374
 30
0.0
  0
POINT
  5
1F1
330
1E7
100
AcDbEntity
  8
DEFPOINTS
  6
ByBlock
 62
     0
100
AcDbPoint
 10
348.2054121777991
 20
372.2335316719374
 30
0.0
  0
POINT
  5
1F2
330
1E7
100
AcDbEntity
  8
DEFPOINTS
  6
ByBlock
 62
     0
100
AcDbPoint
 10
348.2054121777991
 20
385.3886732471497
 30
0.0
  0
ENDBLK
  5
1F4
330
1E7
100
AcDbEntity
  8
0
100
AcDbBlockEnd
  0
BLOCK
  5
198
330
18E
100
AcDbEntity
  8
0
100
AcDbBlockBegin
  2
*D22
 70
     1
 10
0.0
 20
0.0
 30
0.0
  3
*D22
  1

  0
LINE
  5
18F
330
18E
100
AcDbEntity
  8
0
  6
ByBlock
 62
     2
100
AcDbLine
 10
326.2077723691459
 20
431.2335316719375
 30
0.0
 11
297.9468513223868
 21
431.2335316719375
 31
0.0
  0
LINE
  5
190
330
18E
100
AcDbEntity
  8
0
  6
ByBlock
 62
     2
100
AcDbLine
 10
329.2077723691459
 20
401.2335316719375
 30
0.0
 11
297.9468513223868
 21
401.2335316719375
 31
0.0
  0
LINE
  5
191
330
18E
100
AcDbEntity
  8
0
  6
ByBlock
 62
     2
100
AcDbLine
 10
299.8968513223868
 20
425.9835316719374
 30
0.0
 11
299.8968513223868
 21
406.4835316719374
 31
0.0
  0
SOLID
  5
192
330
18E
100
AcDbEntity
  8
0
  6
ByBlock
 62
     2
100
AcDbTrace
 10
299.0218513223868
 20
425.9835316719374
 30
0.0
 11
300.7718513223868
 21
425.9835316719374
 31
0.0
 12
299.8968513223868
 22
431.2335316719375
 32
0.0
 13
299.8968513223868
 23
431.2335316719375
 33
0.0
  0
SOLID
  5
193
330
18E
100
AcDbEntity
  8
0
  6
ByBlock
 62
     2
100
AcDbTrace
 10
299.0218513223868
 20
406.4835316719374
 30
0.0
 11
300.7718513223868
 21
406.4835316719374
 31
0.0
 12
299.8968513223868
 22
401.2335316719375
 32
0.0
 13
299.8968513223868
 23
401.2335316719375
 33
0.0
  0
MTEXT
  5
194
330
18E
100
AcDbEntity
  8
0
  6
ByBlock
 62
     3
100
AcDbMText
 10
295.7718513223868
 20
416.2335316719374
 30
0.0
 40
5.25
 41
0.0
 71
     5
 72
     1
  1
\A1;30
  7
NORM
 11
0.0000000000000001
 21
1.0
 31
0.0
 73
     1
 44
1.0
  0
POINT
  5
195
330
18E
100
AcDbEntity
  8
DEFPOINTS
  6
ByBlock
 62
     0
100
AcDbPoint
 10
326.9577723691459
 20
431.2335316719375
 30
0.0
  0
POINT
  5
196
330
18E
100
AcDbEntity
  8
DEFPOINTS
  6
ByBlock
 62
     0
100
AcDbPoint
 10
329.9577723691459
 20
401.2335316719375
 30
0.0
  0
POINT
  5
197
330
18E
100
AcDbEntity
  8
DEFPOINTS
  6
ByBlock
 62
     0
100
AcDbPoint
 10
299.8968513223868
 20
401.2335316719375
 30
0.0
  0
ENDBLK
  5
199
330
18E
100
AcDbEntity
  8
0
100
AcDbBlockEnd
  0
BLOCK
  5
218
330
20E
100
AcDbEntity
  8
0
100
AcDbBlockBegin
  2
*D23
 70
     1
 10
0.0
 20
0.0
 30
0.0
  3
*D23
  1

  0
LINE
  5
20F
330
20E
100
AcDbEntity
  8
0
  6
ByBlock
 62
     2
100
AcDbLine
 10
462.9315826720112
 20
191.2335316719375
 30
0.0
 11
483.7811682577886
 21
191.2335316719375
 31
0.0
  0
LINE
  5
210
330
20E
100
AcDbEntity
  8
0
  6
ByBlock
 62
     2
100
AcDbLine
 10
462.9315826720112
 20
431.2335316719375
 30
0.0
 11
483.7811682577886
 21
431.2335316719374
 31
0.0
  0
LINE
  5
211
330
20E
100
AcDbEntity
  8
0
  6
ByBlock
 62
     2
100
AcDbLine
 10
481.8311682577887
 20
196.4835316719375
 30
0.0
 11
481.8311682577887
 21
425.9835316719374
 31
0.0
  0
SOLID
  5
212
330
20E
100
AcDbEntity
  8
0
  6
ByBlock
 62
     2
100
AcDbTrace
 10
480.9561682577887
 20
196.4835316719375
 30
0.0
 11
482.7061682577887
 21
196.4835316719375
 31
0.0
 12
481.8311682577887
 22
191.2335316719375
 32
0.0
 13
481.8311682577887
 23
191.2335316719375
 33
0.0
  0
SOLID
  5
213
330
20E
100
AcDbEntity
  8
0
  6
ByBlock
 62
     2
100
AcDbTrace
 10
480.9561682577887
 20
425.9835316719374
 30
0.0
 11
482.7061682577887
 21
425.9835316719374
 31
0.0
 12
481.8311682577887
 22
431.2335316719374
 32
0.0
 13
481.8311682577887
 23
431.2335316719374
 33
0.0
  0
MTEXT
  5
214
330
20E
100
AcDbEntity
  8
0
  6
ByBlock
 62
     3
100
AcDbMText
 10
477.7061682577887
 20
311.2335316719374
 30
0.0
 40
5.25
 41
0.0
 71
     5
 72
     1
  1
\A1;240
  7
NORM
 11
0.0000000000000001
 21
1.0
 31
0.0
 73
     1
 44
1.0
  0
POINT
  5
215
330
20E
100
AcDbEntity
  8
DEFPOINTS
  6
ByBlock
 62
     0
100
AcDbPoint
 10
462.1815826720112
 20
191.2335316719375
 30
0.0
  0
POINT
  5
216
330
20E
100
AcDbEntity
  8
DEFPOINTS
  6
ByBlock
 62
     0
100
AcDbPoint
 10
462.1815826720112
 20
431.2335316719375
 30
0.0
  0
POINT
  5
217
330
20E
100
AcDbEntity
  8
DEFPOINTS
  6
ByBlock
 62
     0
100
AcDbPoint
 10
481.8311682577887
 20
431.2335316719374
 30
0.0
  0
ENDBLK
  5
219
330
20E
100
AcDbEntity
  8
0
100
AcDbBlockEnd
  0
BLOCK
  5
76
330
6C
100
AcDbEntity
  8
0
100
AcDbBlockBegin
  2
*D24
 70
     1
 10
0.0
 20
0.0
 30
0.0
  3
*D24
  1

  0
LINE
  5
6D
330
6C
100
AcDbEntity
  8
0
  6
ByBlock
 62
     2
100
AcDbLine
 10
443.4815826720112
 20
201.2335316719374
 30
0.0
 11
420.8171219731605
 21
201.2335316719374
 31
0.0
  0
LINE
  5
6E
330
6C
100
AcDbEntity
  8
0
  6
ByBlock
 62
     2
100
AcDbLine
 10
443.4815826720112
 20
421.233531671937
 30
0.0
 11
420.8171219731605
 21
421.233531671937
 31
0.0
  0
LINE
  5
6F
330
6C
100
AcDbEntity
  8
0
  6
ByBlock
 62
     2
100
AcDbLine
 10
422.7671219731605
 20
206.4835316719375
 30
0.0
 11
422.7671219731605
 21
415.983531671937
 31
0.0
  0
SOLID
  5
70
330
6C
100
AcDbEntity
  8
0
  6
ByBlock
 62
     2
100
AcDbTrace
 10
421.8921219731605
 20
206.4835316719375
 30
0.0
 11
423.6421219731605
 21
206.4835316719375
 31
0.0
 12
422.7671219731605
 22
201.2335316719374
 32
0.0
 13
422.7671219731605
 23
201.2335316719374
 33
0.0
  0
SOLID
  5
71
330
6C
100
AcDbEntity
  8
0
  6
ByBlock
 62
     2
100
AcDbTrace
 10
421.8921219731605
 20
415.983531671937
 30
0.0
 11
423.6421219731605
 21
415.983531671937
 31
0.0
 12
422.7671219731605
 22
421.233531671937
 32
0.0
 13
422.7671219731605
 23
421.233531671937
 33
0.0
  0
MTEXT
  5
72
330
6C
100
AcDbEntity
  8
0
  6
ByBlock
 62
     3
100
AcDbMText
 10
418.6421219731605
 20
311.2335316719372
 30
0.0
 40
5.25
 41
0.0
 71
     5
 72
     1
  1
\A1;220
  7
NORM
 11
0.0000000000000001
 21
1.0
 31
0.0
 73
     1
 44
1.0
  0
POINT
  5
73
330
6C
100
AcDbEntity
  8
DEFPOINTS
  6
ByBlock
 62
     0
100
AcDbPoint
 10
444.2315826720111
 20
201.2335316719374
 30
0.0
  0
POINT
  5
74
330
6C
100
AcDbEntity
  8
DEFPOINTS
  6
ByBlock
 62
     0
100
AcDbPoint
 10
444.2315826720111
 20
421.233531671937
 30
0.0
  0
POINT
  5
75
330
6C
100
AcDbEntity
  8
DEFPOINTS
  6
ByBlock
 62
     0
100
AcDbPoint
 10
422.7671219731605
 20
421.233531671937
 30
0.0
  0
ENDBLK
  5
77
330
6C
100
AcDbEntity
  8
0
100
AcDbBlockEnd
  0
BLOCK
  5
116
330
10A
100
AcDbEntity
  8
0
100
AcDbBlockBegin
  2
*D25
 70
     1
 10
0.0
 20
0.0
 30
0.0
  3
*D25
  1

  0
LINE
  5
10B
330
10A
100
AcDbEntity
  8
0
  6
ByBlock
 62
     2
100
AcDbLine
 10
441.4315826720112
 20
191.2335316719375
 30
0.0
 11
420.8171219731605
 21
191.2335316719375
 31
0.0
  0
LINE
  5
10C
330
10A
100
AcDbEntity
  8
0
  6
ByBlock
 62
     2
100
AcDbLine
 10
443.4815826720112
 20
201.2335316719374
 30
0.0
 11
420.8171219731605
 21
201.2335316719374
 31
0.0
  0
LINE
  5
10D
330
10A
100
AcDbEntity
  8
0
  6
ByBlock
 62
     2
100
AcDbLine
 10
422.7671219731605
 20
185.9835316719374
 30
0.0
 11
422.7671219731605
 21
180.7335316719375
 31
0.0
  0
LINE
  5
10E
330
10A
100
AcDbEntity
  8
0
  6
ByBlock
 62
     2
100
AcDbLine
 10
422.7671219731605
 20
206.4835316719375
 30
0.0
 11
422.7671219731605
 21
211.7335316719374
 31
0.0
  0
LINE
  5
10F
330
10A
100
AcDbEntity
  8
0
  6
ByBlock
 62
     2
100
AcDbLine
 10
422.7671219731605
 20
191.2335316719375
 30
0.0
 11
422.7671219731605
 21
201.2335316719374
 31
0.0
  0
SOLID
  5
110
330
10A
100
AcDbEntity
  8
0
  6
ByBlock
 62
     2
100
AcDbTrace
 10
421.8921219731605
 20
185.9835316719374
 30
0.0
 11
423.6421219731605
 21
185.9835316719374
 31
0.0
 12
422.7671219731605
 22
191.2335316719375
 32
0.0
 13
422.7671219731605
 23
191.2335316719375
 33
0.0
  0
SOLID
  5
111
330
10A
100
AcDbEntity
  8
0
  6
ByBlock
 62
     2
100
AcDbTrace
 10
421.8921219731605
 20
206.4835316719375
 30
0.0
 11
423.6421219731605
 21
206.4835316719375
 31
0.0
 12
422.7671219731605
 22
201.2335316719374
 32
0.0
 13
422.7671219731605
 23
201.2335316719374
 33
0.0
  0
MTEXT
  5
112
330
10A
100
AcDbEntity
  8
0
  6
ByBlock
 62
     3
100
AcDbMText
 10
418.6421219731605
 20
196.2335316719375
 30
0.0
 40
5.25
 41
0.0
 71
     5
 72
     1
  1
\A1;10
  7
NORM
 11
0.0000000000000001
 21
1.0
 31
0.0
 73
     1
 44
1.0
  0
POINT
  5
113
330
10A
100
AcDbEntity
  8
DEFPOINTS
  6
ByBlock
 62
     0
100
AcDbPoint
 10
442.1815826720112
 20
191.2335316719375
 30
0.0
  0
POINT
  5
114
330
10A
100
AcDbEntity
  8
DEFPOINTS
  6
ByBlock
 62
     0
100
AcDbPoint
 10
444.2315826720111
 20
201.2335316719374
 30
0.0
  0
POINT
  5
115
330
10A
100
AcDbEntity
  8
DEFPOINTS
  6
ByBlock
 62
     0
100
AcDbPoint
 10
422.7671219731605
 20
201.2335316719374
 30
0.0
  0
ENDBLK
  5
117
330
10A
100
AcDbEntity
  8
0
100
AcDbBlockEnd
  0
BLOCK
  5
52
330
48
100
AcDbEntity
  8
0
100
AcDbBlockBegin
  2
*D26
 70
     1
 10
0.0
 20
0.0
 30
0.0
  3
*D26
  1

  0
LINE
  5
49
330
48
100
AcDbEntity
  8
0
  6
ByBlock
 62
     2
100
AcDbLine
 10
442.1815826720112
 20
190.4835316719374
 30
0.0
 11
442.1815826720112
 21
173.2955255795068
 31
0.0
  0
LINE
  5
4A
330
48
100
AcDbEntity
  8
0
  6
ByBlock
 62
     2
100
AcDbLine
 10
462.1815826720112
 20
190.4835316719374
 30
0.0
 11
462.1815826720112
 21
173.2955255795068
 31
0.0
  0
LINE
  5
4B
330
48
100
AcDbEntity
  8
0
  6
ByBlock
 62
     2
100
AcDbLine
 10
447.4315826720112
 20
175.2455255795068
 30
0.0
 11
456.9315826720112
 21
175.2455255795068
 31
0.0
  0
SOLID
  5
4C
330
48
100
AcDbEntity
  8
0
  6
ByBlock
 62
     2
100
AcDbTrace
 10
447.4315826720112
 20
176.1205255795068
 30
0.0
 11
447.4315826720112
 21
174.3705255795068
 31
0.0
 12
442.1815826720112
 22
175.2455255795068
 32
0.0
 13
442.1815826720112
 23
175.2455255795068
 33
0.0
  0
SOLID
  5
4D
330
48
100
AcDbEntity
  8
0
  6
ByBlock
 62
     2
100
AcDbTrace
 10
456.9315826720112
 20
176.1205255795068
 30
0.0
 11
456.9315826720112
 21
174.3705255795068
 31
0.0
 12
462.1815826720112
 22
175.2455255795068
 32
0.0
 13
462.1815826720112
 23
175.2455255795068
 33
0.0
  0
MTEXT
  5
4E
330
48
100
AcDbEntity
  8
0
  6
ByBlock
 62
     3
100
AcDbMText
 10
452.1815826720112
 20
179.3705255795068
 30
0.0
 40
5.25
 41
0.0
 71
     5
 72
     1
  1
\A1;20
  7
NORM
 73
     1
 44
1.0
  0
POINT
  5
4F
330
48
100
AcDbEntity
  8
DEFPOINTS
  6
ByBlock
 62
     0
100
AcDbPoint
 10
442.1815826720112
 20
191.2335316719375
 30
0.0
  0
POINT
  5
50
330
48
100
AcDbEntity
  8
DEFPOINTS
  6
ByBlock
 62
     0
100
AcDbPoint
 10
462.1815826720112
 20
191.2335316719375
 30
0.0
  0
POINT
  5
51
330
48
100
AcDbEntity
  8
DEFPOINTS
  6
ByBlock
 62
     0
100
AcDbPoint
 10
462.1815826720112
 20
175.2455255795068
 30
0.0
  0
ENDBLK
  5
53
330
48
100
AcDbEntity
  8
0
100
AcDbBlockEnd
  0
BLOCK
  5
208
330
1FC
100
AcDbEntity
  8
0
100
AcDbBlockBegin
  2
*D27
 70
     1
 10
0.0
 20
0.0
 30
0.0
  3
*D27
  1

  0
LINE
  5
1FD
330
1FC
100
AcDbEntity
  8
0
  6
ByBlock
 62
     2
100
AcDbLine
 10
443.4815826720112
 20
421.233531671937
 30
0.0
 11
420.8171219731605
 21
421.233531671937
 31
0.0
  0
LINE
  5
1FE
330
1FC
100
AcDbEntity
  8
0
  6
ByBlock
 62
     2
100
AcDbLine
 10
441.4315826720112
 20
431.2335316719375
 30
0.0
 11
420.8171219731605
 21
431.2335316719375
 31
0.0
  0
LINE
  5
1FF
330
1FC
100
AcDbEntity
  8
0
  6
ByBlock
 62
     2
100
AcDbLine
 10
422.7671219731605
 20
415.983531671937
 30
0.0
 11
422.7671219731605
 21
410.733531671937
 31
0.0
  0
LINE
  5
200
330
1FC
100
AcDbEntity
  8
0
  6
ByBlock
 62
     2
100
AcDbLine
 10
422.7671219731605
 20
436.4835316719375
 30
0.0
 11
422.7671219731605
 21
441.7335316719374
 31
0.0
  0
LINE
  5
201
330
1FC
100
AcDbEntity
  8
0
  6
ByBlock
 62
     2
100
AcDbLine
 10
422.7671219731605
 20
421.233531671937
 30
0.0
 11
422.7671219731605
 21
431.2335316719375
 31
0.0
  0
SOLID
  5
202
330
1FC
100
AcDbEntity
  8
0
  6
ByBlock
 62
     2
100
AcDbTrace
 10
421.8921219731605
 20
415.983531671937
 30
0.0
 11
423.6421219731605
 21
415.983531671937
 31
0.0
 12
422.7671219731605
 22
421.233531671937
 32
0.0
 13
422.7671219731605
 23
421.233531671937
 33
0.0
  0
SOLID
  5
203
330
1FC
100
AcDbEntity
  8
0
  6
ByBlock
 62
     2
100
AcDbTrace
 10
421.8921219731605
 20
436.4835316719375
 30
0.0
 11
423.6421219731605
 21
436.4835316719375
 31
0.0
 12
422.7671219731605
 22
431.2335316719375
 32
0.0
 13
422.7671219731605
 23
431.2335316719375
 33
0.0
  0
MTEXT
  5
204
330
1FC
100
AcDbEntity
  8
0
  6
ByBlock
 62
     3
100
AcDbMText
 10
418.6421219731605
 20
426.2335316719372
 30
0.0
 40
5.25
 41
0.0
 71
     5
 72
     1
  1
\A1;10
  7
NORM
 11
0.0000000000000001
 21
1.0
 31
0.0
 73
     1
 44
1.0
  0
POINT
  5
205
330
1FC
100
AcDbEntity
  8
DEFPOINTS
  6
ByBlock
 62
     0
100
AcDbPoint
 10
444.2315826720111
 20
421.233531671937
 30
0.0
  0
POINT
  5
206
330
1FC
100
AcDbEntity
  8
DEFPOINTS
  6
ByBlock
 62
     0
100
AcDbPoint
 10
442.1815826720112
 20
431.2335316719375
 30
0.0
  0
POINT
  5
207
330
1FC
100
AcDbEntity
  8
DEFPOINTS
  6
ByBlock
 62
     0
100
AcDbPoint
 10
422.7671219731605
 20
431.2335316719375
 30
0.0
  0
ENDBLK
  5
209
330
1FC
100
AcDbEntity
  8
0
100
AcDbBlockEnd
  0
BLOCK
  5
69
330
5C
100
AcDbEntity
  8
0
100
AcDbBlockBegin
  2
*D28
 70
     1
 10
0.0
 20
0.0
 30
0.0
  3
*D28
  1

  0
LINE
  5
5D
330
5C
100
AcDbEntity
  8
0
  6
ByBlock
 62
     2
100
AcDbLine
 10
446.1815826720112
 20
285.9835316719374
 30
0.0
 11
446.1815826720112
 21
297.3293704233871
 31
0.0
  0
LINE
  5
5E
330
5C
100
AcDbEntity
  8
0
  6
ByBlock
 62
     2
100
AcDbLine
 10
442.1815826720112
 20
294.6515573066674
 30
0.0
 11
442.1815826720112
 21
297.3293704233871
 31
0.0
  0
LINE
  5
5F
330
5C
100
AcDbEntity
  8
0
  6
ByBlock
 62
     2
100
AcDbLine
 10
451.4315826720112
 20
295.3793704233871
 30
0.0
 11
456.6815826720112
 21
295.3793704233871
 31
0.0
  0
LINE
  5
60
330
5C
100
AcDbEntity
  8
0
  6
ByBlock
 62
     2
100
AcDbLine
 10
436.9315826720112
 20
295.3793704233871
 30
0.0
 11
431.6815826720112
 21
295.3793704233871
 31
0.0
  0
MTEXT
  5
61
330
5C
100
AcDbEntity
  8
0
  6
ByBlock
 62
     3
100
AcDbMText
 10
433.6451981793756
 20
299.5043704233872
 30
0.0
 40
5.25
 41
0.0
 71
     5
 72
     1
  1
\A1;4
  7
NORM
 73
     1
 44
1.0
  0
LINE
  5
62
330
5C
100
AcDbEntity
  8
0
  6
ByBlock
 62
     2
100
AcDbLine
 10
446.1815826720112
 20
295.3793704233871
 30
0.0
 11
442.1815826720112
 21
295.3793704233871
 31
0.0
  0
LINE
  5
63
330
5C
100
AcDbEntity
  8
0
  6
ByBlock
 62
     2
100
AcDbLine
 10
446.1815826720112
 20
295.3793704233871
 30
0.0
 11
442.1815826720112
 21
295.3793704233871
 31
0.0
  0
SOLID
  5
64
330
5C
100
AcDbEntity
  8
0
  6
ByBlock
 62
     2
100
AcDbTrace
 10
451.4315826720112
 20
296.2543704233871
 30
0.0
 11
451.4315826720112
 21
294.5043704233871
 31
0.0
 12
446.1815826720112
 22
295.3793704233871
 32
0.0
 13
446.1815826720112
 23
295.3793704233871
 33
0.0
  0
SOLID
  5
65
330
5C
100
AcDbEntity
  8
0
  6
ByBlock
 62
     2
100
AcDbTrace
 10
436.9315826720112
 20
296.2543704233871
 30
0.0
 11
436.9315826720112
 21
294.5043704233871
 31
0.0
 12
442.1815826720112
 22
295.3793704233871
 32
0.0
 13
442.1815826720112
 23
295.3793704233871
 33
0.0
  0
POINT
  5
66
330
5C
100
AcDbEntity
  8
DEFPOINTS
  6
ByBlock
 62
     0
100
AcDbPoint
 10
446.1815826720112
 20
285.2335316719375
 30
0.0
  0
POINT
  5
67
330
5C
100
AcDbEntity
  8
DEFPOINTS
  6
ByBlock
 62
     0
100
AcDbPoint
 10
442.1815826720112
 20
293.9015573066674
 30
0.0
  0
POINT
  5
68
330
5C
100
AcDbEntity
  8
DEFPOINTS
  6
ByBlock
 62
     0
100
AcDbPoint
 10
442.1815826720112
 20
295.3793704233871
 30
0.0
  0
ENDBLK
  5
6A
330
5C
100
AcDbEntity
  8
0
100
AcDbBlockEnd
  0
BLOCK
  5
45
330
39
100
AcDbEntity
  8
0
100
AcDbBlockBegin
  2
*D29
 70
     1
 10
0.0
 20
0.0
 30
0.0
  3
*D29
  1

  0
LINE
  5
3A
330
39
100
AcDbEntity
  8
0
  6
ByBlock
 62
     2
100
AcDbLine
 10
433.8141022199679
 20
252.4835316719375
 30
0.0
 11
433.8141022199679
 21
238.1592050582565
 31
0.0
  0
LINE
  5
3B
330
39
100
AcDbEntity
  8
0
  6
ByBlock
 62
     2
100
AcDbLine
 10
442.8141022199679
 20
252.4835316719375
 30
0.0
 11
442.8141022199679
 21
238.1592050582565
 31
0.0
  0
LINE
  5
3C
330
39
100
AcDbEntity
  8
0
  6
ByBlock
 62
     2
100
AcDbLine
 10
428.5641022199679
 20
240.1092050582565
 30
0.0
 11
423.3141022199679
 21
240.1092050582565
 31
0.0
  0
LINE
  5
3D
330
39
100
AcDbEntity
  8
0
  6
ByBlock
 62
     2
100
AcDbLine
 10
448.0641022199679
 20
240.1092050582565
 30
0.0
 11
453.3141022199679
 21
240.1092050582565
 31
0.0
  0
LINE
  5
3E
330
39
100
AcDbEntity
  8
0
  6
ByBlock
 62
     2
100
AcDbLine
 10
433.8141022199679
 20
240.1092050582565
 30
0.0
 11
442.8141022199679
 21
240.1092050582565
 31
0.0
  0
SOLID
  5
3F
330
39
100
AcDbEntity
  8
0
  6
ByBlock
 62
     2
100
AcDbTrace
 10
428.5641022199679
 20
240.9842050582565
 30
0.0
 11
428.5641022199679
 21
239.2342050582565
 31
0.0
 12
433.8141022199679
 22
240.1092050582565
 32
0.0
 13
433.8141022199679
 23
240.1092050582565
 33
0.0
  0
SOLID
  5
40
330
39
100
AcDbEntity
  8
0
  6
ByBlock
 62
     2
100
AcDbTrace
 10
448.0641022199679
 20
240.9842050582565
 30
0.0
 11
448.0641022199679
 21
239.2342050582565
 31
0.0
 12
442.8141022199679
 22
240.1092050582565
 32
0.0
 13
442.8141022199679
 23
240.1092050582565
 33
0.0
  0
MTEXT
  5
41
330
39
100
AcDbEntity
  8
0
  6
ByBlock
 62
     3
100
AcDbMText
 10
438.3141022199679
 20
244.2342050582565
 30
0.0
 40
5.25
 41
0.0
 71
     5
 72
     1
  1
\A1;9
  7
NORM
 73
     1
 44
1.0
  0
POINT
  5
42
330
39
100
AcDbEntity
  8
DEFPOINTS
  6
ByBlock
 62
     0
100
AcDbPoint
 10
433.8141022199679
 20
253.2335316719374
 30
0.0
  0
POINT
  5
43
330
39
100
AcDbEntity
  8
DEFPOINTS
  6
ByBlock
 62
     0
100
AcDbPoint
 10
442.8141022199679
 20
253.2335316719374
 30
0.0
  0
POINT
  5
44
330
39
100
AcDbEntity
  8
DEFPOINTS
  6
ByBlock
 62
     0
100
AcDbPoint
 10
442.8141022199679
 20
240.1092050582565
 30
0.0
  0
ENDBLK
  5
46
330
39
100
AcDbEntity
  8
0
100
AcDbBlockEnd
  0
BLOCK
  5
36
330
28
100
AcDbEntity
  8
0
100
AcDbBlockBegin
  2
*D30
 70
     1
 10
0.0
 20
0.0
 30
0.0
  3
*D30
  1

  0
LINE
  5
29
330
28
100
AcDbEntity
  8
0
  6
ByBlock
 62
     2
100
AcDbLine
 10
433.8141022199679
 20
338.4835316719374
 30
0.0
 11
433.8141022199679
 21
325.3501069069221
 31
0.0
  0
LINE
  5
2A
330
28
100
AcDbEntity
  8
0
  6
ByBlock
 62
     2
100
AcDbLine
 10
445.3141022199679
 20
341.0335316719376
 30
0.0
 11
445.3141022199679
 21
325.3501069069221
 31
0.0
  0
LINE
  5
2B
330
28
100
AcDbEntity
  8
0
  6
ByBlock
 62
     2
100
AcDbLine
 10
428.5641022199679
 20
327.3001069069221
 30
0.0
 11
423.3141022199679
 21
327.3001069069221
 31
0.0
  0
LINE
  5
2C
330
28
100
AcDbEntity
  8
0
  6
ByBlock
 62
     2
100
AcDbLine
 10
450.5641022199679
 20
327.3001069069221
 30
0.0
 11
455.8141022199679
 21
327.3001069069221
 31
0.0
  0
MTEXT
  5
2D
330
28
100
AcDbEntity
  8
0
  6
ByBlock
 62
     3
100
AcDbMText
 10
437.6716476132032
 20
331.4251069069221
 30
0.0
 40
5.25
 41
0.0
 71
     5
 72
     1
  1
\A1;11.5
  7
NORM
 73
     1
 44
1.0
  0
LINE
  5
2E
330
28
100
AcDbEntity
  8
0
  6
ByBlock
 62
     2
100
AcDbLine
 10
433.8141022199679
 20
327.3001069069221
 30
0.0
 11
445.3141022199679
 21
327.3001069069221
 31
0.0
  0
LINE
  5
2F
330
28
100
AcDbEntity
  8
0
  6
ByBlock
 62
     2
100
AcDbLine
 10
433.8141022199679
 20
327.3001069069221
 30
0.0
 11
445.3141022199679
 21
327.3001069069221
 31
0.0
  0
SOLID
  5
30
330
28
100
AcDbEntity
  8
0
  6
ByBlock
 62
     2
100
AcDbTrace
 10
428.5641022199679
 20
328.1751069069221
 30
0.0
 11
428.5641022199679
 21
326.4251069069221
 31
0.0
 12
433.8141022199679
 22
327.3001069069221
 32
0.0
 13
433.8141022199679
 23
327.3001069069221
 33
0.0
  0
SOLID
  5
31
330
28
100
AcDbEntity
  8
0
  6
ByBlock
 62
     2
100
AcDbTrace
 10
450.5641022199679
 20
328.1751069069221
 30
0.0
 11
450.5641022199679
 21
326.4251069069221
 31
0.0
 12
445.3141022199679
 22
327.3001069069221
 32
0.0
 13
445.3141022199679
 23
327.3001069069221
 33
0.0
  0
POINT
  5
32
330
28
100
AcDbEntity
  8
DEFPOINTS
  6
ByBlock
 62
     0
100
AcDbPoint
 10
433.8141022199679
 20
339.2335316719375
 30
0.0
  0
POINT
  5
34
330
28
100
AcDbEntity
  8
DEFPOINTS
  6
ByBlock
 62
     0
100
AcDbPoint
 10
445.3141022199679
 20
341.7835316719376
 30
0.0
  0
POINT
  5
35
330
28
100
AcDbEntity
  8
DEFPOINTS
  6
ByBlock
 62
     0
100
AcDbPoint
 10
445.3141022199679
 20
327.3001069069221
 30
0.0
  0
ENDBLK
  5
37
330
28
100
AcDbEntity
  8
0
100
AcDbBlockEnd
  0
BLOCK
  5
C0
330
B3
100
AcDbEntity
  8
0
100
AcDbBlockBegin
  2
*D31
 70
     1
 10
0.0
 20
0.0
 30
0.0
  3
*D31
  1

  0
LINE
  5
B4
330
B3
100
AcDbEntity
  8
0
  6
ByBlock
 62
     2
100
AcDbLine
 10
329.9577723691459
 20
190.4835316719374
 30
0.0
 11
329.9577723691459
 21
173.2955255795068
 31
0.0
  0
LINE
  5
B5
330
B3
100
AcDbEntity
  8
0
  6
ByBlock
 62
     2
100
AcDbLine
 10
326.9577723691459
 20
190.4835316719374
 30
0.0
 11
326.9577723691459
 21
173.2955255795068
 31
0.0
  0
LINE
  5
B6
330
B3
100
AcDbEntity
  8
0
  6
ByBlock
 62
     2
100
AcDbLine
 10
335.2077723691459
 20
175.2455255795068
 30
0.0
 11
340.4577723691459
 21
175.2455255795068
 31
0.0
  0
LINE
  5
B7
330
B3
100
AcDbEntity
  8
0
  6
ByBlock
 62
     2
100
AcDbLine
 10
321.7077723691459
 20
175.2455255795068
 30
0.0
 11
316.4577723691459
 21
175.2455255795068
 31
0.0
  0
MTEXT
  5
B8
330
B3
100
AcDbEntity
  8
0
  6
ByBlock
 62
     3
100
AcDbMText
 10
338.2905814190316
 20
179.3705255795068
 30
0.0
 40
5.25
 41
0.0
 71
     5
 72
     1
  1
\A1;3
  7
NORM
 73
     1
 44
1.0
  0
LINE
  5
B9
330
B3
100
AcDbEntity
  8
0
  6
ByBlock
 62
     2
100
AcDbLine
 10
329.9577723691459
 20
175.2455255795068
 30
0.0
 11
326.9577723691459
 21
175.2455255795068
 31
0.0
  0
LINE
  5
BA
330
B3
100
AcDbEntity
  8
0
  6
ByBlock
 62
     2
100
AcDbLine
 10
329.9577723691459
 20
175.2455255795068
 30
0.0
 11
326.9577723691459
 21
175.2455255795068
 31
0.0
  0
SOLID
  5
BB
330
B3
100
AcDbEntity
  8
0
  6
ByBlock
 62
     2
100
AcDbTrace
 10
335.2077723691459
 20
176.1205255795068
 30
0.0
 11
335.2077723691459
 21
174.3705255795068
 31
0.0
 12
329.9577723691459
 22
175.2455255795068
 32
0.0
 13
329.9577723691459
 23
175.2455255795068
 33
0.0
  0
SOLID
  5
BC
330
B3
100
AcDbEntity
  8
0
  6
ByBlock
 62
     2
100
AcDbTrace
 10
321.7077723691459
 20
176.1205255795068
 30
0.0
 11
321.7077723691459
 21
174.3705255795068
 31
0.0
 12
326.9577723691459
 22
175.2455255795068
 32
0.0
 13
326.9577723691459
 23
175.2455255795068
 33
0.0
  0
POINT
  5
BD
330
B3
100
AcDbEntity
  8
DEFPOINTS
  6
ByBlock
 62
     0
100
AcDbPoint
 10
329.9577723691459
 20
191.2335316719375
 30
0.0
  0
POINT
  5
BE
330
B3
100
AcDbEntity
  8
DEFPOINTS
  6
ByBlock
 62
     0
100
AcDbPoint
 10
326.9577723691459
 20
191.2335316719375
 30
0.0
  0
POINT
  5
BF
330
B3
100
AcDbEntity
  8
DEFPOINTS
  6
ByBlock
 62
     0
100
AcDbPoint
 10
326.9577723691459
 20
175.2455255795068
 30
0.0
  0
ENDBLK
  5
C1
330
B3
100
AcDbEntity
  8
0
100
AcDbBlockEnd
  0
ENDSEC
  0
SECTION
  2
ENTITIES
  0
DIMENSION
  5
27
330
2
100
AcDbEntity
  8
BEMASSUNG
100
AcDbDimension
  2
*D30
 10
457.6815826720112
 20
327.3001069069221
 30
0.0
 11
450.0391280652466
 21
331.4251069069221
 31
0.0
 12
12.36748045204331
 22
0.0
 32
0.0
 70
   128
 71
     5
 42
-1.0
  3
PROSPEKT
100
AcDbAlignedDimension
 13
446.1815826720112
 23
339.2335316719375
 33
0.0
 14
457.6815826720112
 24
341.7835316719376
 34
0.0
100
AcDbRotatedDimension
  0
DIMENSION
  5
38
330
2
100
AcDbEntity
  8
BEMASSUNG
100
AcDbDimension
  2
*D29
 10
455.1815826720112
 20
240.1092050582565
 30
0.0
 11
450.6815826720112
 21
244.2342050582565
 31
0.0
 12
12.36748045204331
 22
0.0
 32
0.0
 71
     5
 42
-1.0
  3
PROSPEKT
100
AcDbAlignedDimension
 13
446.1815826720112
 23
253.2335316719374
 33
0.0
 14
455.1815826720112
 24
253.2335316719374
 34
0.0
100
AcDbRotatedDimension
  0
DIMENSION
  5
47
330
2
100
AcDbEntity
  8
BEMASSUNG
100
AcDbDimension
  2
*D26
 10
462.1815826720112
 20
175.2455255795068
 30
0.0
 11
452.1815826720112
 21
179.3705255795068
 31
0.0
 71
     5
 42
-1.0
  3
PROSPEKT
100
AcDbAlignedDimension
 13
442.1815826720112
 23
191.2335316719375
 33
0.0
 14
462.1815826720112
 24
191.2335316719375
 34
0.0
100
AcDbRotatedDimension
  0
LWPOLYLINE
  5
54
330
2
100
AcDbEntity
  8
UMRISS05
100
AcDbPolyline
 90
        4
 70
     1
 43
0.0
 10
442.1815826720112
 20
191.2335316719375
 10
442.1815826720112
 20
431.2335316719375
 10
462.1815826720112
 20
431.2335316719375
 10
462.1815826720112
 20
191.2335316719375
  0
LINE
  5
56
330
2
100
AcDbEntity
  8
ACHSEN
100
AcDbLine
 10
442.0315826720111
 20
229.8335316719374
 30
0.0
 11
457.9315826720112
 21
229.8335316719374
 31
0.0
  0
LINE
  5
59
330
2
100
AcDbEntity
  8
ACHSEN
100
AcDbLine
 10
444.2315826720111
 20
421.233531671937
 30
0.0
 11
460.131582672011
 21
421.233531671937
 31
0.0
  0
LINE
  5
5A
330
2
100
AcDbEntity
  8
ACHSEN
100
AcDbLine
 10
444.2315826720111
 20
201.2335316719374
 30
0.0
 11
460.131582672011
 21
201.2335316719374
 31
0.0
  0
DIMENSION
  5
5B
330
2
100
AcDbEntity
  8
BEMASSUNG
100
AcDbDimension
  2
*D28
 10
442.1815826720112
 20
295.3793704233871
 30
0.0
 11
433.6451981793756
 21
299.5043704233872
 31
0.0
 70
   128
 71
     5
 42
-1.0
  3
PROSPEKT
100
AcDbAlignedDimension
 13
446.1815826720112
 23
285.2335316719375
 33
0.0
 14
442.1815826720112
 24
293.9015573066674
 34
0.0
100
AcDbRotatedDimension
  0
DIMENSION
  5
6B
330
2
100
AcDbEntity
  8
BEMASSUNG
100
AcDbDimension
  2
*D24
 10
422.7671219731605
 20
421.233531671937
 30
0.0
 11
418.6421219731605
 21
311.2335316719372
 31
0.0
 71
     5
 42
-1.0
  3
PROSPEKT
100
AcDbAlignedDimension
 13
444.2315826720111
 23
201.2335316719374
 33
0.0
 14
444.2315826720111
 24
421.233531671937
 34
0.0
 50
90.0
100
AcDbRotatedDimension
  0
DIMENSION
  5
78
330
2
100
AcDbEntity
  8
BEMASSUNG
100
AcDbDimension
  2
*D2
 10
390.0976082218467
 20
401.2335316719375
 30
0.0
 11
385.9726082218467
 21
311.2335316719375
 31
0.0
 12
-12.43460849237408
 22
0.0
 32
0.0
 71
     5
 42
-1.0
  3
PROSPEKT
100
AcDbAlignedDimension
 13
346.8818264952683
 23
221.2335316719375
 33
0.0
 14
346.8818264952685
 24
401.2335316719375
 34
0.0
 50
90.0
100
AcDbRotatedDimension
  0
DIMENSION
  5
85
330
2
100
AcDbEntity
  8
BEMASSUNG
100
AcDbDimension
  2
*D3
 10
375.0747342973686
 20
326.2335316719374
 30
0.0
 11
370.9497342973686
 21
287.2335316719375
 31
0.0
 12
-12.43460849237408
 22
0.0
 32
0.0
 71
     5
 42
-1.0
  3
PROSPEKT
100
AcDbAlignedDimension
 13
361.9818264952682
 23
248.2335316719375
 33
0.0
 14
359.8818264952683
 24
326.2335316719374
 34
0.0
 50
90.0
100
AcDbRotatedDimension
  0
DIMENSION
  5
92
330
2
100
AcDbEntity
  8
BEMASSUNG
100
AcDbDimension
  2
*D1
 10
276.4644619295997
 20
285.233531671937
 30
0.0
 11
272.3394619295997
 21
312.233531671937
 31
0.0
 12
-12.43460849237408
 22
0.0
 32
0.0
 71
     5
 42
-1.0
  3
PROSPEKT
100
AcDbAlignedDimension
 13
307.3818264952683
 23
339.233531671937
 33
0.0
 14
305.3818264952683
 24
285.233531671937
 34
0.0
 50
90.0
100
AcDbRotatedDimension
  0
LWPOLYLINE
  5
9F
330
2
100
AcDbEntity
  8
UMRISS05
100
AcDbPolyline
 90
        4
 70
     1
 43
0.0
 10
317.3818264952683
 20
431.2335316719375
 10
320.3818264952683
 20
431.2335316719375
 10
320.3818264952683
 20
191.2335316719375
 10
317.3818264952683
 20
191.2335316719375
  0
LWPOLYLINE
  5
A0
330
2
100
AcDbEntity
  8
UMRISS05
100
AcDbPolyline
 90
        6
 70
     0
 43
0.0
 10
320.3818264952685
 20
401.2335316719375
 10
346.8818264952685
 20
401.2335316719375
 42
-0.4077927893824423
 10
363.3818264952683
 20
385.2335316719375
 10
363.3818264952683
 20
237.2335316719375
 42
-0.4077927893824464
 10
346.8818264952683
 20
221.2335316719375
 10
320.3818264952683
 20
221.2335316719375
  0
LINE
  5
A1
330
2
100
AcDbEntity
  8
ACHSEN
100
AcDbLine
 10
347.3818264952683
 20
297.2335316719374
 30
0.0
 11
347.3818264952683
 21
312.2335316719375
 31
0.0
  0
DIMENSION
  5
A2
330
2
100
AcDbEntity
  8
BEMASSUNG
100
AcDbDimension
  2
*D4
 10
373.7731344527758
 20
111.4297348501767
 30
0.0
 11
369.6481344527758
 21
118.4297348501767
 31
0.0
 12
3.676414317469152
 22
0.0
 32
0.0
 71
     5
 42
-1.0
  3
PROSPEKT
100
AcDbAlignedDimension
 13
362.8818264952683
 23
125.4297348501767
 33
0.0
 14
362.8818264952683
 24
111.4297348501767
 34
0.0
 50
90.0
100
AcDbRotatedDimension
  0
LWPOLYLINE
  5
AF
330
2
100
AcDbEntity
  8
UMRISS05
100
AcDbPolyline
 90
        4
 70
     0
 43
0.0
 10
317.3818264952683
 20
111.7297348501767
 10
307.3818264952683
 20
121.229734850176
 10
307.3818264952683
 20
123.2297348501762
 10
317.3818264952683
 20
123.2297348501767
  0
LWPOLYLINE
  5
B0
330
2
100
AcDbEntity
  8
UMRISS05
100
AcDbPolyline
 90
        4
 70
     1
 43
0.0
 10
317.3818264952681
 20
127.2297348501765
 10
320.3818264952681
 20
127.2297348501765
 10
320.3818264952685
 20
107.2297348501765
 10
317.3818264952685
 20
107.2297348501762
  0
LWPOLYLINE
  5
B1
330
2
100
AcDbEntity
  8
UMRISS05
100
AcDbPolyline
 90
        4
 70
     0
 43
0.0
 10
320.3818264952683
 20
125.4297348501765
 10
362.8818264952683
 20
125.4297348501767
 10
362.8818264952683
 20
111.4297348501767
 10
320.3818264952683
 20
111.4297348501763
  0
DIMENSION
  5
B2
330
2
100
AcDbEntity
  8
BEMASSUNG
100
AcDbDimension
  2
*D31
 10
317.3818264952683
 20
175.2455255795068
 30
0.0
 11
328.7146355451541
 21
179.3705255795068
 31
0.0
 12
-9.575945873877572
 22
0.0
 32
0.0
 70
   128
 71
     5
 42
-1.0
  3
PROSPEKT
100
AcDbAlignedDimension
 13
320.3818264952683
 23
191.2335316719375
 33
0.0
 14
317.3818264952683
 24
191.2335316719375
 34
0.0
100
AcDbRotatedDimension
  0
DIMENSION
  5
C2
330
2
100
AcDbEntity
  8
BEMASSUNG
100
AcDbDimension
  2
*D9
 10
317.3818264952683
 20
237.5972901999862
 30
0.0
 11
311.3818264952683
 21
241.7222901999863
 31
0.0
 12
3.676414317469152
 22
0.0
 32
0.0
 71
     5
 42
-1.0
  3
PROSPEKT
100
AcDbAlignedDimension
 13
305.3818264952683
 23
253.233531671937
 33
0.0
 14
317.3818264952683
 24
240.3288846802294
 34
0.0
100
AcDbRotatedDimension
  0
DIMENSION
  5
D1
330
2
100
AcDbEntity
  8
BEMASSUNG
100
AcDbDimension
  2
*D6
 10
290.3209054485092
 20
191.2335316719375
 30
0.0
 11
286.1959054485092
 21
206.2335316719375
 31
0.0
 12
-9.575945873877572
 22
0.0
 32
0.0
 71
     5
 42
-1.0
  3
PROSPEKT
100
AcDbAlignedDimension
 13
320.3818264952683
 23
221.2335316719375
 33
0.0
 14
317.3818264952683
 24
191.2335316719375
 34
0.0
 50
90.0
100
AcDbRotatedDimension
  0
DIMENSION
  5
DE
330
2
100
AcDbEntity
  8
BEMASSUNG
100
AcDbDimension
  2
*D10
 10
290.3209054485092
 20
221.2335316719375
 30
0.0
 11
286.1959054485092
 21
237.2335316719372
 31
0.0
 12
-9.575945873877572
 22
0.0
 32
0.0
 71
     5
 42
-1.0
  3
PROSPEKT
100
AcDbAlignedDimension
 13
305.3818264952683
 23
253.233531671937
 33
0.0
 14
320.3818264952683
 24
221.2335316719375
 34
0.0
 50
90.0
100
AcDbRotatedDimension
  0
DIMENSION
  5
EB
330
2
100
AcDbEntity
  8
BEMASSUNG
100
AcDbDimension
  2
*D7
 10
276.4644619295997
 20
191.2335316719375
 30
0.0
 11
272.3394619295997
 21
222.2335316719372
 31
0.0
 12
-12.43460849237408
 22
0.0
 32
0.0
 71
     5
 42
-1.0
  3
PROSPEKT
100
AcDbAlignedDimension
 13
305.3818264952683
 23
253.233531671937
 33
0.0
 14
317.3818264952683
 24
191.2335316719375
 34
0.0
 50
90.0
100
AcDbRotatedDimension
  0
LWPOLYLINE
  5
F8
330
2
100
AcDbEntity
  8
UMRISS05
100
AcDbPolyline
 90
        4
 70
     0
 43
0.0
 10
314.7502475479
 20
114.2297348501767
 10
306.3818264952694
 20
114.2297348501742
 42
-0.2222222222222713
 10
306.3818264952688
 20
123.2297348501771
 10
307.3818264952683
 20
123.2297348501762
  0
LINE
  5
F9
330
2
100
AcDbEntity
  8
UMRISS05
100
AcDbLine
 10
307.3818264952683
 20
121.2297348501762
 30
0.0
 11
317.3818264952683
 21
121.2297348501767
 31
0.0
  0
LWPOLYLINE
  5
FA
330
2
100
AcDbEntity
  8
UMRISS05
100
AcDbPolyline
 90
        4
 70
     0
 43
0.0
 10
317.3818264952683
 20
285.233531671937
 10
305.3818264952683
 20
285.233531671937
 10
305.3818264952683
 20
253.233531671937
 10
317.3818264952683
 20
253.233531671937
  0
DIMENSION
  5
FB
330
2
100
AcDbEntity
  8
BEMASSUNG
100
AcDbDimension
  2
*D11
 10
276.4644619295997
 20
253.233531671937
 30
0.0
 11
272.3394619295997
 21
269.233531671937
 31
0.0
 12
-12.43460849237408
 22
0.0
 32
0.0
 71
     5
 42
-1.0
  3
PROSPEKT
100
AcDbAlignedDimension
 13
305.3818264952683
 23
285.233531671937
 33
0.0
 14
305.3818264952683
 24
253.233531671937
 34
0.0
 50
90.0
100
AcDbRotatedDimension
  0
LINE
  5
108
330
2
100
AcDbEntity
  8
UMRISS05
100
AcDbLine
 10
306.3818264952683
 20
285.233531671937
 30
0.0
 11
306.3818264952683
 21
253.233531671937
 31
0.0
  0
DIMENSION
  5
109
330
2
100
AcDbEntity
  8
BEMASSUNG
100
AcDbDimension
  2
*D25
 10
422.7671219731605
 20
201.2335316719374
 30
0.0
 11
418.6421219731605
 21
196.2335316719375
 31
0.0
 71
     5
 42
-1.0
  3
PROSPEKT
100
AcDbAlignedDimension
 13
442.1815826720112
 23
191.2335316719375
 33
0.0
 14
444.2315826720111
 24
201.2335316719374
 34
0.0
 50
90.0
100
AcDbRotatedDimension
  0
DIMENSION
  5
118
330
2
100
AcDbEntity
  8
BEMASSUNG
100
AcDbDimension
  2
*D5
 10
363.3818264952683
 20
207.0548092172706
 30
0.0
 11
355.3818264952683
 21
211.1798092172706
 31
0.0
 12
3.676414317469152
 22
0.0
 32
0.0
 71
     5
 42
-1.0
  3
PROSPEKT
100
AcDbAlignedDimension
 13
347.3818264952683
 23
220.9335316719373
 33
0.0
 14
363.3818264952683
 24
237.2335316719375
 34
0.0
100
AcDbRotatedDimension
  0
DIMENSION
  5
125
330
2
100
AcDbEntity
  8
BEMASSUNG-DEUTSCH
100
AcDbDimension
  2
*D0
 10
347.3818264952683
 20
207.0548092172706
 30
0.0
 11
332.3818264952683
 21
211.1798092172706
 31
0.0
 12
-21.94342632592088
 22
0.0
 32
0.0
  1
DM
 71
     5
 42
-1.0
  3
PROSPEKT
100
AcDbAlignedDimension
 13
317.3818264952683
 23
207.2259929118838
 33
0.0
 14
347.3818264952683
 24
220.9335316719373
 34
0.0
100
AcDbRotatedDimension
1001
ACAD
1000
DSTYLE
1002
{
1002
}
  0
LINE
  5
133
330
2
100
AcDbEntity
  8
ACHSEN
100
AcDbLine
 10
452.1815826720112
 20
209.1835316719373
 30
0.0
 11
452.1815826720112
 21
193.2835316719374
 31
0.0
  0
LWPOLYLINE
  5
134
330
2
100
AcDbEntity
  8
UMRISS05
100
AcDbPolyline
 90
        2
 70
     0
 43
0.0
 10
362.8818264952683
 20
112.9297348501767
 10
320.3818264952683
 20
112.9297348501763
  0
DIMENSION
  5
135
330
2
100
AcDbEntity
  8
BEMASSUNG
100
AcDbDimension
  2
*D8
 10
334.1740352373394
 20
125.4297348501766
 30
0.0
 11
330.0490352373394
 21
137.4451640488373
 31
0.0
 12
-21.94342632592088
 22
0.0
 32
0.0
 70
   128
 71
     5
 42
-1.0
  3
PROSPEKT
100
AcDbAlignedDimension
 13
320.3818264952681
 23
127.2297348501765
 33
0.0
 14
334.1740352373394
 24
125.4297348501766
 34
0.0
 50
90.0
100
AcDbRotatedDimension
  0
CIRCLE
  5
145
330
2
100
AcDbEntity
  8
UMRISS05
100
AcDbCircle
 10
452.1815826720112
 20
201.2335316719374
 30
0.0
 40
4.75
  0
CIRCLE
  5
146
330
2
100
AcDbEntity
  8
UMRISS05
100
AcDbCircle
 10
452.1815826720112
 20
201.2335316719374
 30
0.0
 40
2.6
  0
LWPOLYLINE
  5
147
330
2
100
AcDbEntity
  8
ACHSEN
100
AcDbPolyline
 90
        4
 70
     1
 43
0.0
 10
352.4818264952682
 20
228.2335316719374
 10
352.4818264952684
 20
241.308937821032
 42
3.044038009981353
 10
342.2818264952679
 20
241.308937821032
 10
342.2818264952684
 20
228.2335316719374
 42
1.0
  0
LWPOLYLINE
  5
148
330
2
100
AcDbEntity
  8
UMRISS05
100
AcDbPolyline
 90
        4
 70
     1
 43
0.0
 10
352.4818264952682
 20
229.0335316719374
 10
352.4818264952682
 20
238.3745256368445
 42
4.109609026488783
 10
342.2818264952681
 20
238.3745256368445
 10
342.2818264952681
 20
229.0335316719374
 42
1.000000000000002
  0
LINE
  5
149
330
2
100
AcDbEntity
  8
ACHSEN
100
AcDbLine
 10
347.3818264952683
 20
262.3335316719296
 30
0.0
 11
347.3818264952683
 21
220.9335316719373
 31
0.0
  0
DIMENSION
  5
14A
330
2
100
AcDbEntity
  8
BEMASSUNG
100
AcDbDimension
  2
*D12
 10
375.0747342973686
 20
248.2335316719375
 30
0.0
 11
370.9497342973686
 21
234.7335316719374
 31
0.0
 12
-12.43460849237408
 22
0.0
 32
0.0
 71
     5
 42
-1.0
  3
PROSPEKT
100
AcDbAlignedDimension
 13
346.8818264952703
 23
221.2335316719375
 33
0.0
 14
361.9818264952682
 24
248.2335316719375
 34
0.0
 50
90.0
100
AcDbRotatedDimension
  0
LINE
  5
157
330
2
100
AcDbEntity
  8
ACHSEN
100
AcDbLine
 10
334.0237818361783
 20
248.2335316719375
 30
0.0
 11
361.9818264952682
 21
248.2335316719375
 31
0.0
  0
LINE
  5
158
330
2
100
AcDbEntity
  8
ACHSEN
100
AcDbLine
 10
332.7818264952564
 20
235.2335316719375
 30
0.0
 11
341.9818264952682
 21
235.2335316719375
 31
0.0
  0
CIRCLE
  5
159
330
2
100
AcDbEntity
  8
UMRISS05
100
AcDbCircle
 10
337.3818264952683
 20
235.2335316719375
 30
0.0
 40
2.6
  0
LINE
  5
15A
330
2
100
AcDbEntity
  8
ACHSEN
100
AcDbLine
 10
337.3818264952683
 20
239.8335316719374
 30
0.0
 11
337.3818264952683
 21
230.6335316719375
 31
0.0
  0
CIRCLE
  5
15B
330
2
100
AcDbEntity
  8
UMRISS05
100
AcDbCircle
 10
357.3818264952683
 20
235.2335316719375
 30
0.0
 40
2.6
  0
LINE
  5
15C
330
2
100
AcDbEntity
  8
ACHSEN
100
AcDbLine
 10
352.7818264952681
 20
235.2335316719375
 30
0.0
 11
361.9818264952673
 21
235.2335316719377
 31
0.0
  0
LINE
  5
15D
330
2
100
AcDbEntity
  8
ACHSEN
100
AcDbLine
 10
357.3818264952683
 20
239.8335316719374
 30
0.0
 11
357.3818264952683
 21
230.6335316719375
 31
0.0
  0
LINE
  5
15E
330
2
100
AcDbEntity
  8
ACHSEN
100
AcDbLine
 10
449.9815826720111
 20
237.7835316719372
 30
0.0
 11
449.9815826720111
 21
221.8835316719375
 31
0.0
  0
CIRCLE
  5
15F
330
2
100
AcDbEntity
  8
UMRISS05
100
AcDbCircle
 10
449.9815826720111
 20
229.8335316719374
 30
0.0
 40
4.75
  0
CIRCLE
  5
160
330
2
100
AcDbEntity
  8
UMRISS05
100
AcDbCircle
 10
449.9815826720111
 20
229.8335316719374
 30
0.0
 40
2.6
  0
LWPOLYLINE
  5
161
330
2
100
AcDbEntity
  8
UMRISS05
100
AcDbPolyline
 90
        4
 70
     1
 43
0.0
 10
446.1815826720112
 20
285.2335316719375
 10
446.1815826720112
 20
253.2335316719374
 10
455.1815826720112
 20
253.2335316719374
 10
455.1815826720112
 20
285.2335316719375
  0
LINE
  5
162
330
2
100
AcDbEntity
  8
UMRISS05
100
AcDbLine
 10
317.3818264952683
 20
341.7835316719376
 30
0.0
 11
307.3818264952683
 21
341.7835316719376
 31
0.0
  0
LINE
  5
163
330
2
100
AcDbEntity
  8
UMRISS05
100
AcDbLine
 10
317.3818264952683
 20
366.983531671937
 30
0.0
 11
307.3818264952683
 21
366.983531671937
 31
0.0
  0
DIMENSION
  5
164
330
2
100
AcDbEntity
  8
BEMASSUNG
100
AcDbDimension
  2
*D19
 10
317.3818264952683
 20
325.8272622517354
 30
0.0
 11
312.3818264952683
 21
329.9522622517354
 31
0.0
 12
3.676414317469152
 22
0.0
 32
0.0
 71
     5
 42
-1.0
  3
PROSPEKT
100
AcDbAlignedDimension
 13
307.3818264952683
 23
339.233531671937
 33
0.0
 14
317.3818264952683
 24
327.5748794681248
 34
0.0
100
AcDbRotatedDimension
  0
DIMENSION
  5
173
330
2
100
AcDbEntity
  8
BEMASSUNG
100
AcDbDimension
  2
*D14
 10
276.4644619295997
 20
369.2335316719375
 30
0.0
 11
272.3394619295997
 21
400.2335316719374
 31
0.0
 12
-12.43460849237408
 22
0.0
 32
0.0
 71
     5
 42
-1.0
  3
PROSPEKT
100
AcDbAlignedDimension
 13
317.3818264952683
 23
431.2335316719375
 33
0.0
 14
307.3818264952683
 24
369.2335316719375
 34
0.0
 50
90.0
100
AcDbRotatedDimension
  0
DIMENSION
  5
180
330
2
100
AcDbEntity
  8
BEMASSUNG
100
AcDbDimension
  2
*D15
 10
290.3209054485092
 20
369.2335316719375
 30
0.0
 11
286.1959054485092
 21
385.2335316719375
 31
0.0
 12
-9.575945873877572
 22
0.0
 32
0.0
 71
     5
 42
-1.0
  3
PROSPEKT
100
AcDbAlignedDimension
 13
320.3818264952683
 23
401.2335316719375
 33
0.0
 14
307.3818264952683
 24
369.2335316719375
 34
0.0
 50
90.0
100
AcDbRotatedDimension
  0
DIMENSION
  5
18D
330
2
100
AcDbEntity
  8
BEMASSUNG
100
AcDbDimension
  2
*D22
 10
290.3209054485092
 20
401.2335316719375
 30
0.0
 11
286.1959054485092
 21
416.2335316719374
 31
0.0
 12
-9.575945873877572
 22
0.0
 32
0.0
 71
     5
 42
-1.0
  3
PROSPEKT
100
AcDbAlignedDimension
 13
317.3818264952683
 23
431.2335316719375
 33
0.0
 14
320.3818264952683
 24
401.2335316719375
 34
0.0
 50
90.0
100
AcDbRotatedDimension
  0
LWPOLYLINE
  5
19A
330
2
100
AcDbEntity
  8
UMRISS05
100
AcDbPolyline
 90
        4
 70
     0
 43
0.0
 10
317.3818264952683
 20
369.2335316719375
 10
307.3818264952683
 20
369.2335316719375
 10
307.3818264952683
 20
339.233531671937
 10
317.3818264952683
 20
339.233531671937
  0
DIMENSION
  5
19B
330
2
100
AcDbEntity
  8
BEMASSUNG
100
AcDbDimension
  2
*D18
 10
276.4644619295997
 20
339.233531671937
 30
0.0
 11
272.3394619295997
 21
354.2335316719372
 31
0.0
 12
-12.43460849237408
 22
0.0
 32
0.0
 71
     5
 42
-1.0
  3
PROSPEKT
100
AcDbAlignedDimension
 13
307.3818264952683
 23
369.2335316719375
 33
0.0
 14
307.3818264952683
 24
339.233531671937
 34
0.0
 50
90.0
100
AcDbRotatedDimension
  0
DIMENSION
  5
1A8
330
2
100
AcDbEntity
  8
BEMASSUNG
100
AcDbDimension
  2
*D13
 10
375.0747342973686
 20
401.2335316719375
 30
0.0
 11
370.9497342973686
 21
363.7335316719374
 31
0.0
 12
-12.43460849237408
 22
0.0
 32
0.0
 71
     5
 42
-1.0
  3
PROSPEKT
100
AcDbAlignedDimension
 13
359.8818264952683
 23
326.2335316719374
 33
0.0
 14
346.8818264952655
 24
401.2335316719375
 34
0.0
 50
90.0
100
AcDbRotatedDimension
  0
ARC
  5
1B5
330
2
100
AcDbEntity
  8
UMRISS05
100
AcDbCircle
 10
396.261826495267
 20
354.3835316719371
 30
0.0
 40
79.87999999999875
100
AcDbArc
 50
170.9244549841866
 51
189.0755450158133
  0
DIMENSION
  5
1B6
330
2
100
AcDbEntity
  8
BEMASSUNG
100
AcDbDimension
  2
*D20
 10
351.6658045533929
 20
343.3811999225746
 30
0.0
 11
347.1149979333541
 21
347.4500815804554
 31
0.0
 12
3.676414317469152
 22
0.0
 32
0.0
 70
     1
 71
     5
 42
-1.0
  3
PROSPEKT
100
AcDbAlignedDimension
 13
342.8226937621423
 23
330.6740305727132
 33
0.0
 14
351.8220048616419
 24
330.7856329460235
 34
0.0
  0
DIMENSION
  5
1C5
330
2
100
AcDbEntity
  8
BEMASSUNG
100
AcDbDimension
  2
*D17
 10
331.0552839367955
 20
326.2335316719374
 30
0.0
 11
326.9302839367956
 21
349.2335316719374
 31
0.0
 12
3.676414317469152
 22
0.0
 32
0.0
 71
     5
 42
-1.0
  3
PROSPEKT
100
AcDbAlignedDimension
 13
339.8818264952683
 23
372.2335316719374
 33
0.0
 14
335.3818264952683
 24
326.2335316719374
 34
0.0
 50
90.0
100
AcDbRotatedDimension
  0
CIRCLE
  5
1D2
330
2
100
AcDbEntity
  8
UMRISS05
100
AcDbCircle
 10
347.3818264952683
 20
326.2335316719374
 30
0.0
 40
4.500393689408497
  0
CIRCLE
  5
1D3
330
2
100
AcDbEntity
  8
UMRISS05
100
AcDbCircle
 10
347.3818264952683
 20
304.7335316719375
 30
0.0
 40
4.5
  0
LINE
  5
1D4
330
2
100
AcDbEntity
  8
ACHSEN
100
AcDbLine
 10
339.8818264952683
 20
304.7335316719375
 30
0.0
 11
354.8818264952683
 21
304.7335316719377
 31
0.0
  0
LWPOLYLINE
  5
1D5
330
2
100
AcDbEntity
  8
UMRISS05
100
AcDbPolyline
 90
        4
 70
     1
 43
0.0
 10
342.9417356039503
 20
321.6748175409809
 10
351.9410467034501
 20
321.786419914292
 10
351.8220048616419
 20
330.7856329460235
 10
342.8226937621423
 20
330.6740305727132
  0
LINE
  5
1D6
330
2
100
AcDbEntity
  8
ACHSEN
100
AcDbLine
 10
335.3818264952683
 20
326.2335316719374
 30
0.0
 11
359.8818264952683
 21
326.2335316719374
 31
0.0
  0
CIRCLE
  5
1D7
330
2
100
AcDbEntity
  8
UMRISS05
100
AcDbCircle
 10
347.3818264952683
 20
326.2335316719374
 30
0.0
 40
9.0
  0
DIMENSION
  5
1D8
330
2
100
AcDbEntity
  8
BEMASSUNG
100
AcDbDimension
  2
*D16
 10
331.0552839367955
 20
304.7335316719375
 30
0.0
 11
326.9302839367956
 21
315.4835316719375
 31
0.0
 12
3.676414317469152
 22
0.0
 32
0.0
 71
     5
 42
-1.0
  3
PROSPEKT
100
AcDbAlignedDimension
 13
335.3818264952683
 23
326.2335316719374
 33
0.0
 14
339.8818264952683
 24
304.7335316719375
 34
0.0
 50
90.0
100
AcDbRotatedDimension
  0
LINE
  5
1E5
330
2
100
AcDbEntity
  8
ACHSEN
100
AcDbLine
 10
347.3818264952683
 20
314.2335316719375
 30
0.0
 11
347.3818264952683
 21
338.2335316719375
 31
0.0
  0
DIMENSION
  5
1E6
330
2
100
AcDbEntity
  8
BEMASSUNG
100
AcDbDimension
  2
*D21
 10
351.8818264952683
 20
385.3886732471497
 30
0.0
 11
347.3818264952683
 21
389.5136732471497
 31
0.0
 12
3.676414317469152
 22
0.0
 32
0.0
 71
     5
 42
-1.0
  3
PROSPEKT
100
AcDbAlignedDimension
 13
342.8818264952683
 23
372.2335316719374
 33
0.0
 14
351.8818264952683
 24
372.2335316719374
 34
0.0
100
AcDbRotatedDimension
  0
CIRCLE
  5
1F5
330
2
100
AcDbEntity
  8
UMRISS05
100
AcDbCircle
 10
347.3818264952683
 20
372.2335316719374
 30
0.0
 40
4.5
  0
LINE
  5
1F6
330
2
100
AcDbEntity
  8
ACHSEN
100
AcDbLine
 10
339.8818264952683
 20
372.2335316719374
 30
0.0
 11
354.8818264952683
 21
372.2335316719374
 31
0.0
  0
LINE
  5
1F7
330
2
100
AcDbEntity
  8
ACHSEN
100
AcDbLine
 10
347.3818264952683
 20
364.7335316719375
 30
0.0
 11
347.3818264952683
 21
379.7335316719375
 31
0.0
  0
LWPOLYLINE
  5
1F8
330
2
100
AcDbEntity
  8
UMRISS05
100
AcDbPolyline
 90
        4
 70
     1
 43
0.0
 10
448.381582672011
 20
339.2335316719375
 10
448.3815826720128
 20
369.5335316719376
 10
446.1815826720112
 20
369.5335316719376
 10
446.1815826720112
 20
339.2335316719375
  0
LWPOLYLINE
  5
1F9
330
2
100
AcDbEntity
  8
UMRISS05
100
AcDbPolyline
 90
        4
 70
     0
 43
0.0
 10
448.381582672011
 20
341.7835316719376
 10
457.6815826720112
 20
341.7835316719376
 10
457.6815826720112
 20
366.983531671937
 10
448.381582672011
 20
366.9835316719375
  0
ARC
  5
1FA
330
2
100
AcDbEntity
  8
UMRISS05
100
AcDbCircle
 10
369.5015826720125
 20
354.3835316719376
 30
0.0
 40
79.87999999999875
100
AcDbArc
 50
350.9244549841866
 51
9.075545015813375
  0
DIMENSION
  5
1FB
330
2
100
AcDbEntity
  8
BEMASSUNG
100
AcDbDimension
  2
*D27
 10
422.7671219731605
 20
431.2335316719375
 30
0.0
 11
418.6421219731605
 21
426.2335316719372
 31
0.0
 71
     5
 42
-1.0
  3
PROSPEKT
100
AcDbAlignedDimension
 13
444.2315826720111
 23
421.233531671937
 33
0.0
 14
442.1815826720112
 24
431.2335316719375
 34
0.0
 50
90.0
100
AcDbRotatedDimension
  0
CIRCLE
  5
20A
330
2
100
AcDbEntity
  8
UMRISS05
100
AcDbCircle
 10
452.1815826720112
 20
421.233531671937
 30
0.0
 40
4.75
  0
LINE
  5
20B
330
2
100
AcDbEntity
  8
ACHSEN
100
AcDbLine
 10
452.1815826720112
 20
429.1835316719368
 30
0.0
 11
452.1815826720112
 21
413.2835316719372
 31
0.0
  0
CIRCLE
  5
20C
330
2
100
AcDbEntity
  8
UMRISS05
100
AcDbCircle
 10
452.1815826720112
 20
421.233531671937
 30
0.0
 40
2.6
  0
DIMENSION
  5
20D
330
2
100
AcDbEntity
  8
BEMASSUNG
100
AcDbDimension
  2
*D23
 10
481.8311682577887
 20
431.2335316719374
 30
0.0
 11
477.7061682577887
 21
311.2335316719374
 31
0.0
 71
     5
 42
-1.0
  3
PROSPEKT
100
AcDbAlignedDimension
 13
462.1815826720112
 23
191.2335316719375
 33
0.0
 14
462.1815826720112
 24
431.2335316719375
 34
0.0
 50
90.0
100
AcDbRotatedDimension
  0
ENDSEC
  0
SECTION
  2
OBJECTS
  0
DICTIONARY
  5
7
330
0
100
AcDbDictionary
281
     1
  3
ACAD_GROUP
350
1F
  3
ACAD_LAYOUT
350
B
  3
ACAD_MLINESTYLE
350
20
  3
ACAD_PLOTSETTINGS
350
21
  3
ACAD_PLOTSTYLENAME
350
6
  3
AcDbVariableDictionary
350
245
  3
AcmDictionary
350
22A
  3
AMG
350
21B
  3
DWGPROPS
350
244
  0
DICTIONARY
  5
1F
102
{ACAD_REACTORS
330
7
102
}
330
7
100
AcDbDictionary
281
     1
  0
DICTIONARY
  5
B
102
{ACAD_REACTORS
330
7
102
}
330
7
100
AcDbDictionary
281
     1
  3
Layout1
350
F
  3
Model
350
A
  0
DICTIONARY
  5
20
102
{ACAD_REACTORS
330
7
102
}
330
7
100
AcDbDictionary
281
     1
  3
STANDARD
350
25
  0
DICTIONARY
  5
21
102
{ACAD_REACTORS
330
7
102
}
330
7
100
AcDbDictionary
281
     1
  0
ACDBDICTIONARYWDFLT
  5
6
102
{ACAD_REACTORS
330
7
102
}
330
7
100
AcDbDictionary
281
     1
  3
Normal
350
5
100
AcDbDictionaryWithDefault
340
5
  0
DICTIONARY
  5
245
102
{ACAD_REACTORS
330
7
102
}
330
7
100
AcDbDictionary
281
     1
  3
DIMASSOC
350
247
  3
HIDETEXT
350
246
  0
DICTIONARY
  5
22A
102
{ACAD_REACTORS
330
7
102
}
330
7
100
AcDbDictionary
281
     1
  3
AcmStdDictionary
350
22B
  0
DICTIONARY
  5
21B
102
{ACAD_REACTORS
330
7
102
}
330
7
100
AcDbDictionary
281
     1
  3
AcMgSettings
350
225
  3
AMGLAYCFG
350
21A
  0
XRECORD
  5
244
102
{ACAD_REACTORS
330
7
102
}
330
7
100
AcDbXrecord
280
     1
  1
DWGPROPS COOKIE
  2

  3

  4

  6

  7

  8

  9

300
AmdtFileType=84
301
=
302
=
303
=
304
=
305
=
306
=
307
=
308
=
309
=
 40
0.0468032175925926
 41
2450378.651628009
 42
2451968.603281689
  1

 90
        1
  0
LAYOUT
  5
F
102
{ACAD_REACTORS
330
B
102
}
330
B
100
AcDbPlotSettings
  1

  2
G:\VORLAGEN\AutoCAD2002\Plotten\A3hoch-MSL.pc3
  4

  6

 40
0.0
 41
0.0
 42
0.0
 43
0.0
 44
0.0
 45
0.0
 46
0.0
 47
0.0
 48
0.0
 49
0.0
140
0.0
141
0.0
142
1.0
143
1.0
 70
   688
 72
     0
 73
     0
 74
     5
  7
monochrome.ctb
 75
    16
147
1.0
148
0.0
149
0.0
100
AcDbLayout
  1
Layout1
 70
     1
 71
     1
 10
0.0
 20
0.0
 11
12.0
 21
9.0
 12
0.0
 22
0.0
 32
0.0
 14
0.0
 24
0.0
 34
0.0
 15
0.0
 25
0.0
 35
0.0
146
0.0
 13
0.0
 23
0.0
 33
0.0
 16
1.0
 26
0.0
 36
0.0
 17
0.0
 27
1.0
 37
0.0
 76
     0
330
C
  0
LAYOUT
  5
A
102
{ACAD_REACTORS
330
B
102
}
330
B
100
AcDbPlotSettings
  1

  2
G:\VORLAGEN\AutoCAD2002\Plotten\A3hoch-MSL.pc3
  4

  6

 40
0.0
 41
0.0
 42
0.0
 43
0.0
 44
0.0
 45
0.0
 46
0.0
 47
0.0
 48
0.0
 49
0.0
140
0.0
141
0.0
142
1.0
143
1.0
 70
  1712
 72
     0
 73
     0
 74
     0
  7
monochrome.ctb
 75
     0
147
1.0
148
0.0
149
0.0
100
AcDbLayout
  1
Model
 70
     1
 71
     0
 10
0.0
 20
0.0
 11
12.0
 21
9.0
 12
0.0
 22
0.0
 32
0.0
 14
0.0
 24
0.0
 34
0.0
 15
0.0
 25
0.0
 35
0.0
146
0.0
 13
0.0
 23
0.0
 33
0.0
 16
1.0
 26
0.0
 36
0.0
 17
0.0
 27
1.0
 37
0.0
 76
     0
330
2
  0
MLINESTYLE
  5
25
102
{ACAD_REACTORS
330
20
102
}
330
20
100
AcDbMlineStyle
  2
STANDARD
 70
     0
  3

 62
   256
 51
90.0
 52
90.0
 71
     2
 49
0.5
 62
   256
  6
BYLAYER
 49
-0.5
 62
   256
  6
BYLAYER
  0
ACDBPLACEHOLDER
  5
5
102
{ACAD_REACTORS
330
6
102
}
330
6
  0
DICTIONARYVAR
  5
247
102
{ACAD_REACTORS
330
245
102
}
330
245
100
DictionaryVariables
280
     0
  1
1
  0
DICTIONARYVAR
  5
246
102
{ACAD_REACTORS
330
245
102
}
330
245
100
DictionaryVariables
280
     0
  1
1
  0
DICTIONARY
  5
22B
102
{ACAD_REACTORS
330
22A
102
}
330
22A
100
AcDbDictionary
281
     1
  3
DIN
350
22C
  0
DICTIONARY
  5
225
102
{ACAD_REACTORS
330
21B
102
}
330
21B
100
AcDbDictionary
281
     1
  3
DWGSETTINGS
350
224
  3
TRANSSETTINGS
350
226
  0
ENDSEC
  0
EOF
