  0
SECTION
  2
HEADER
  9
$ACADVER
  1
AC1021
  9
$DWGCODEPAGE
  3
ANSI_1252
  9
$EXTMAX
 10
210.0
 20
297.0
 30
0.0
  9
$EXTMIN
 10
0.0
 20
0.0
 30
0.0
  9
$LIMMIN
 10
0.0
 20
0.0
  9
$LIMMAX
 10
210.0
 20
297.0
  9
$VIEWCTR
 10
105.0
 20
148.5
  9
$VIEWSIZE
 40
297.0
  9
$CLAYER
  8
0
  9
$LTSCALE
 40
19.36
  9
$CELTYPE
  6
BYLAYER
  9
$DIMSCALE
 40
1.0
  9
$DIMASZ
 40
3.5
  9
$DIMEXO
 40
0.0
  9
$DIMDLI
 40
13.376
  9
$DIMEXE
 40
1.0
  9
$DIMCEN
 40
3.168
  9
$DIMLFAC
 40
1.0
  9
$DIMBLK
  1
_FILLED
  9
$DIMTXT
 40
2.5
  9
$DIMTOL
 70
1
  9
$DIMLIM
 70
0
  9
$DIMTFAC
 40
1.0
  9
$DIMTP
 40
0.001
  9
$DIMTM
 40
0.001
  9
$DIMGAP
 40
0.625
  9
$DIMDSEP
 70
46
  9
$PDMODE
 70
3
  9
$PDSIZE
 40
2.0
  9
$HANDSEED
  5
432
  9
$TILEMODE
 70
1
  9
$MEASUREMENT
 70
1
  9
$INSUNITS
 70
4
  0
ENDSEC
  0
SECTION
  2
CLASSES
  0
CLASS
  1
ACDBDICTIONARYWDFLT
  2
AcDbDictionaryWithDefault
  3
AutoCAD 2000
 90
0
 91
1
280
0
281
0
  0
CLASS
  1
ACDBPLACEHOLDER
  2
AcDbPlaceHolder
  3
AutoCAD 2000
 90
0
 91
1
280
0
281
0
  0
CLASS
  1
LAYOUT
  2
AcDbLayout
  3
AutoCAD 2000
 90
0
 91
0
280
0
281
0
  0
CLASS
  1
TABLESTYLE
  2
AcDbTableStyle
  3
ObjectDBX Classes
 90
2047
 91
1
280
0
281
0
  0
CLASS
  1
ACAD_TABLE
  2
AcDbTable
  3
ObjectDBX Classes
 90
1025
 91
2
280
0
281
1
  0
ENDSEC
  0
SECTION
  2
TABLES
  0
TABLE
  2
VPORT
  5
8
100
AcDbSymbolTable
 70
2
  0
VPORT
  5
1F4
100
AcDbSymbolTableRecord
100
AcDbViewportTableRecord
  2
*ACTIVE
 70
0
 10
0.0
 20
0.0
 11
1.0
 21
1.0
 12
105.0
 22
148.5
 13
0.0
 23
0.0
 14
1.0
 24
1.0
 15
0.0
 25
0.0
 16
0.0
 26
0.0
 36
1.0
 17
0.0
 27
0.0
 37
0.0
 40
297.0
 41
0.7070707071
 42
50.0
 43
0.0
 44
0.0
 50
0.0
 51
0.0
 71
0
 72
100
 73
1
 74
1
 75
0
 76
0
 77
0
 78
0
  0
ENDTAB
  0
TABLE
  2
LTYPE
  5
5
100
AcDbSymbolTable
 70
6
  0
LTYPE
  5
14
100
AcDbSymbolTableRecord
100
AcDbLinetypeTableRecord
  2
BYBLOCK
 70
0
  3

 72
65
 73
0
 40
0.0
  0
LTYPE
  5
15
100
AcDbSymbolTableRecord
100
AcDbLinetypeTableRecord
  2
BYLAYER
 70
0
  3

 72
65
 73
0
 40
0.0
  0
LTYPE
  5
16
100
AcDbSymbolTableRecord
100
AcDbLinetypeTableRecord
  2
CONTINUOUS
 70
64
  3
Solid line
 72
65
 73
0
 40
0.0
  0
LTYPE
  5
1F5
100
AcDbSymbolTableRecord
100
AcDbLinetypeTableRecord
  2
CENTER
 70
64
  3
____ _ ____ _ ____ _ ____ _ ____ _ ____ _ ____
 72
65
 73
4
 40
0.6
 49
0.375
 74
0
 49
-0.075
 74
0
 49
0.075
 74
0
 49
-0.075
 74
0
  0
LTYPE
  5
1F6
100
AcDbSymbolTableRecord
100
AcDbLinetypeTableRecord
  2
HIDDEN
 70
64
  3
- - - - - - - - - - - - - - - - - - - -
 72
65
 73
2
 40
0.2
 49
0.1
 74
0
 49
-0.1
 74
0
  0
LTYPE
  5
1F7
100
AcDbSymbolTableRecord
100
AcDbLinetypeTableRecord
  2
PHANTOM
 70
64
  3
_____ _ _ _____ _ _ _____ _ _ _____
 72
65
 73
6
 40
0.8
 49
0.45
 74
0
 49
-0.05
 74
0
 49
0.1
 74
0
 49
-0.05
 74
0
 49
0.1
 74
0
 49
-0.05
 74
0
  0
LTYPE
  5
1F8
100
AcDbSymbolTableRecord
100
AcDbLinetypeTableRecord
  2
DOT
 70
64
  3
. . . . . . . . . . . . . . . . . . . .
 72
65
 73
2
 40
0.2
 49
0.1
 74
0
 49
-0.1
 74
0
  0
LTYPE
  5
1F9
100
AcDbSymbolTableRecord
100
AcDbLinetypeTableRecord
  2
DASHED
 70
64
  3
- - - - - - - - - - - - - - - - - - - -
 72
65
 73
2
 40
0.2
 49
0.1
 74
0
 49
-0.1
 74
0
  0
ENDTAB
  0
TABLE
  2
LAYER
  5
2
100
AcDbSymbolTable
 70
36
  0
LAYER
  5
10
100
AcDbSymbolTableRecord
100
AcDbLayerTableRecord
  2
0
 70
0
 62
7
  6
CONTINUOUS
370
-3
390
F
  0
LAYER
  5
1FA
100
AcDbSymbolTableRecord
100
AcDbLayerTableRecord
  2
DEFAULT_1
 70
0
 62
7
  6
CENTER
370
-3
390
F
  0
LAYER
  5
1FB
100
AcDbSymbolTableRecord
100
AcDbLayerTableRecord
  2
DEFAULT_2
 70
0
 62
8
  6
HIDDEN
370
-3
390
F
  0
LAYER
  5
1FC
100
AcDbSymbolTableRecord
100
AcDbLayerTableRecord
  2
DEFAULT_3
 70
0
 62
7
  6
PHANTOM
370
-3
390
F
  0
LAYER
  5
1FD
100
AcDbSymbolTableRecord
100
AcDbLayerTableRecord
  2
AXIS
 70
0
 62
7
  6
CONTINUOUS
370
-3
390
F
  0
LAYER
  5
1FE
100
AcDbSymbolTableRecord
100
AcDbLayerTableRecord
  2
COORDSYS
 70
0
 62
7
  6
CONTINUOUS
370
-3
390
F
  0
LAYER
  5
1FF
100
AcDbSymbolTableRecord
100
AcDbLayerTableRecord
  2
CURVES
 70
0
 62
7
  6
CONTINUOUS
370
-3
390
F
  0
LAYER
  5
200
100
AcDbSymbolTableRecord
100
AcDbLayerTableRecord
  2
PLANES
 70
0
 62
7
  6
CONTINUOUS
370
-3
390
F
  0
LAYER
  5
201
100
AcDbSymbolTableRecord
100
AcDbLayerTableRecord
  2
POINTS
 70
0
 62
7
  6
CONTINUOUS
370
-3
390
F
  0
LAYER
  5
202
100
AcDbSymbolTableRecord
100
AcDbLayerTableRecord
  2
S-AXIS
 70
0
 62
7
  6
CONTINUOUS
370
-3
390
F
  0
LAYER
  5
203
100
AcDbSymbolTableRecord
100
AcDbLayerTableRecord
  2
S-COORDSYS
 70
0
 62
7
  6
CONTINUOUS
370
-3
390
F
  0
LAYER
  5
204
100
AcDbSymbolTableRecord
100
AcDbLayerTableRecord
  2
S-PLANES
 70
0
 62
7
  6
CONTINUOUS
370
-3
390
F
  0
LAYER
  5
205
100
AcDbSymbolTableRecord
100
AcDbLayerTableRecord
  2
THREADS
 70
0
 62
7
  6
CONTINUOUS
370
-3
390
F
  0
ENDTAB
  0
TABLE
  2
STYLE
  5
3
100
AcDbSymbolTable
 70
1
  0
STYLE
  5
11
100
AcDbSymbolTableRecord
100
AcDbTextStyleTableRecord
  2
STANDARD
 70
0
 40
0.0
 41
0.8
 50
0.0
 71
0
 42
0.2
  3
txt
  4

  0
STYLE
  5
206
100
AcDbSymbolTableRecord
100
AcDbTextStyleTableRecord
  2
TEXTSTYLE_1
 70
0
 40
0.0
 41
0.8
 50
0.0
 71
0
 42
0.2
  3
gdt
  4

  0
STYLE
  5
207
100
AcDbSymbolTableRecord
100
AcDbTextStyleTableRecord
  2
TEXTSTYLE_2
 70
0
 40
0.0
 41
1.0
 50
0.0
 71
0
 42
0.2
  3
txt
  4

  0
STYLE
  5
208
100
AcDbSymbolTableRecord
100
AcDbTextStyleTableRecord
  2
TEXTSTYLE_3
 70
0
 40
0.0
 41
0.8
 50
0.0
 71
0
 42
0.2
  3
txt
  4

  0
STYLE
  5
209
100
AcDbSymbolTableRecord
100
AcDbTextStyleTableRecord
  2
TEXTSTYLE_4
 70
0
 40
0.0
 41
0.8
 50
0.0
 71
0
 42
0.2
  3
txt
  4

  0
ENDTAB
  0
TABLE
  2
VIEW
  5
6
100
AcDbSymbolTable
 70
0
  0
ENDTAB
  0
TABLE
  2
UCS
  5
7
100
AcDbSymbolTable
 70
0
  0
ENDTAB
  0
TABLE
  2
APPID
  5
9
100
AcDbSymbolTable
 70
1
  0
APPID
  5
20A
100
AcDbSymbolTableRecord
100
AcDbRegAppTableRecord
  2
ACAD
 70
0
  0
ENDTAB
  0
TABLE
  2
BLOCK_RECORD
  5
1
100
AcDbSymbolTable
 70
0
  0
BLOCK_RECORD
  5
20B
100
AcDbSymbolTableRecord
100
AcDbBlockTableRecord
  2
*Model_Space
  0
BLOCK_RECORD
  5
20C
100
AcDbSymbolTableRecord
100
AcDbBlockTableRecord
  2
*Paper_Space
  0
BLOCK_RECORD
  5
20D
100
AcDbSymbolTableRecord
100
AcDbBlockTableRecord
  2
_FILLED
  0
BLOCK_RECORD
  5
20E
100
AcDbSymbolTableRecord
100
AcDbBlockTableRecord
  2
*D0
  0
BLOCK_RECORD
  5
20F
100
AcDbSymbolTableRecord
100
AcDbBlockTableRecord
  2
*D1
  0
BLOCK_RECORD
  5
210
100
AcDbSymbolTableRecord
100
AcDbBlockTableRecord
  2
*D2
  0
BLOCK_RECORD
  5
211
100
AcDbSymbolTableRecord
100
AcDbBlockTableRecord
  2
*D3
  0
BLOCK_RECORD
  5
212
100
AcDbSymbolTableRecord
100
AcDbBlockTableRecord
  2
*D4
  0
BLOCK_RECORD
  5
213
100
AcDbSymbolTableRecord
100
AcDbBlockTableRecord
  2
*D5
  0
BLOCK_RECORD
  5
214
100
AcDbSymbolTableRecord
100
AcDbBlockTableRecord
  2
*D6
  0
BLOCK_RECORD
  5
215
100
AcDbSymbolTableRecord
100
AcDbBlockTableRecord
  2
SYMBOL_44_BL1
  0
BLOCK_RECORD
  5
216
100
AcDbSymbolTableRecord
100
AcDbBlockTableRecord
  2
SYMBOL_37_BL0
  0
BLOCK_RECORD
  5
217
100
AcDbSymbolTableRecord
100
AcDbBlockTableRecord
  2
*T1
  0
BLOCK_RECORD
  5
218
100
AcDbSymbolTableRecord
100
AcDbBlockTableRecord
  2
*T2
  0
ENDTAB
  0
TABLE
  2
DIMSTYLE
  5
A
100
AcDbSymbolTable
 70
1
100
AcDbDimStyleTable
 71
0
  0
DIMSTYLE
105
219
100
AcDbSymbolTableRecord
100
AcDbDimStyleTableRecord
  2
STANDARD
 70
0
  3

  4

 40
1.0
 41
3.5
 42
0.0
 43
0.38
 44
1.0
 45
0.0
 46
0.0
 47
0.001
 48
0.001
140
2.5
141
0.09
142
0.0
143
25.4
144
1.0
145
0.0
146
1.0
147
0.625
 71
1.0
 72
0.0
 73
0
 74
0
 75
0
 76
0
 77
1
 78
8
170
0
171
2
172
0
173
0
174
0
175
0
176
0
177
0
178
5
270
2
271
3
272
3
273
2
274
2
275
0
280
0
281
0
282
0
283
1
284
8
285
0
286
0
287
3
288
0
340
11
278
46
341
20D
342
20D
343
20D
344
20D
  0
DIMSTYLE
105
21A
100
AcDbSymbolTableRecord
100
AcDbDimStyleTableRecord
  2
DIMSTYLE_1
 70
0
  3

  4

 40
1.0
 41
3.5
 42
0.0
 43
0.38
 44
1.0
 45
0.0
 46
0.0
 47
0.3
 48
0.3
140
2.5
141
0.09
142
0.0
143
25.4
144
1.0
145
0.0
146
1.0
147
0.625
 71
0.0
 72
0.0
 73
0
 74
0
 75
0
 76
0
 77
1
 78
8
170
0
171
2
172
0
173
0
174
0
175
0
176
0
177
0
178
5
270
2
271
3
272
3
273
2
274
2
275
0
280
0
281
0
282
0
283
1
284
8
285
0
286
0
287
3
288
0
340
11
278
46
341
20D
342
20D
343
20D
344
20D
  0
DIMSTYLE
105
21B
100
AcDbSymbolTableRecord
100
AcDbDimStyleTableRecord
  2
DIMSTYLE_2
 70
0
  3

  4

 40
1.0
 41
3.5
 42
0.0
 43
0.38
 44
1.0
 45
0.0
 46
0.0
 47
0.2
 48
0.2
140
2.5
141
0.09
142
0.0
143
25.4
144
1.0
145
0.0
146
1.0
147
0.625
 71
0.0
 72
0.0
 73
0
 74
0
 75
0
 76
0
 77
1
 78
8
170
0
171
2
172
0
173
0
174
0
175
0
176
0
177
0
178
5
270
2
271
3
272
3
273
2
274
2
275
0
280
0
281
0
282
0
283
1
284
8
285
0
286
0
287
3
288
0
340
11
278
46
341
20D
342
20D
343
20D
344
20D
  0
DIMSTYLE
105
21C
100
AcDbSymbolTableRecord
100
AcDbDimStyleTableRecord
  2
DIMSTYLE_3
 70
0
  3

  4

 40
1.0
 41
3.5
 42
0.0
 43
0.38
 44
1.0
 45
0.0
 46
0.0
 47
0.2
 48
0.2
140
2.5
141
0.09
142
0.0
143
25.4
144
1.0
145
0.0
146
1.0
147
0.625
 71
0.0
 72
0.0
 73
0
 74
0
 75
0
 76
0
 77
1
 78
8
170
0
171
2
172
0
173
0
174
0
175
0
176
0
177
0
178
5
270
2
271
1
272
1
273
2
274
2
275
0
280
0
281
0
282
0
283
1
284
8
285
0
286
0
287
3
288
0
340
11
278
46
341
20D
342
20D
343
20D
344
20D
  0
DIMSTYLE
105
21D
100
AcDbSymbolTableRecord
100
AcDbDimStyleTableRecord
  2
DIMSTYLE_4
 70
0
  3

  4

 40
1.0
 41
3.5
 42
0.0
 43
0.38
 44
1.0
 45
0.0
 46
0.0
 47
0.1
 48
0.1
140
2.5
141
0.09
142
0.0
143
25.4
144
1.0
145
0.0
146
1.0
147
0.625
 71
0.0
 72
0.0
 73
0
 74
0
 75
0
 76
0
 77
1
 78
8
170
0
171
2
172
0
173
0
174
0
175
0
176
0
177
0
178
5
270
2
271
3
272
3
273
2
274
2
275
0
280
0
281
0
282
0
283
1
284
8
285
0
286
0
287
3
288
0
340
11
278
46
341
20D
342
20D
343
20D
344
20D
  0
ENDTAB
  0
ENDSEC
  0
SECTION
  2
BLOCKS
  0
BLOCK
  5
20
100
AcDbEntity
  8
0
100
AcDbBlockBegin
  2
*Model_Space
 70
0
 10
0.0
 20
0.0
 30
0.0
  3
*Model_Space
  1

  0
ENDBLK
  5
21
100
AcDbEntity
  8
0
100
AcDbBlockEnd
  0
BLOCK
  5
1C
100
AcDbEntity
  8
0
100
AcDbBlockBegin
  2
*Paper_Space
 70
0
 10
0.0
 20
0.0
 30
0.0
  3
*Paper_Space
  1

  0
ENDBLK
  5
1D
100
AcDbEntity
  8
0
100
AcDbBlockEnd
  0
BLOCK
  5
21E
100
AcDbEntity
  8
0
100
AcDbBlockBegin
 62
2
  6
CONTINUOUS
  2
SYMBOL_44_BL1
 70
64
 10
14.6760682863
 20
285.9565270313
  3
SYMBOL_44_BL1
  1

  0
TEXT
  5
21F
100
AcDbEntity
  8
0
100
AcDbText
 62
5
  6
CONTINUOUS
 10
6.0250051001
 20
279.9582916417
  7
STANDARD
 40
1.5763325545
  1
GRETSCH-UNITAS
 72
5
 11
23.3271314725
 21
279.9582916417
100
AcDbText
  0
LWPOLYLINE
  5
220
100
AcDbEntity
  8
0
100
AcDbPolyline
 62
2
  6
CONTINUOUS
 90
34
 70
0
 10
15.4801156353
 20
286.7085698414
 10
15.4828019239
 20
286.7310241374
 10
15.4882839616
 20
286.7789981092
 10
15.4934148613
 20
286.8269721689
 10
15.4981904662
 20
286.8749284265
 10
15.5026102575
 20
286.9228679315
 10
15.5079499005
 20
286.9867634816
 10
15.5126550138
 20
287.0506068768
 10
15.5167229312
 20
287.1143654607
 10
15.5201516062
 20
287.1780300085
 10
15.5229414705
 20
287.241685019
 10
15.5250935749
 20
287.3054384223
 10
15.526835481
 20
287.382185503
 10
15.5276608055
 20
287.4591831087
 10
15.5275698274
 20
287.5363846594
 10
15.5265628256
 20
287.6137435751
 10
15.5246400792
 20
287.6912132758
 10
15.5223386136
 20
287.7558271111
 10
15.5194024636
 20
287.8204869505
 10
15.5158326847
 20
287.8851942116
 10
15.51163026
 20
287.9499477138
 10
15.5067958814
 20
288.0147358854
 10
15.5013301686
 20
288.0795445568
 10
15.4968168458
 20
288.1281570987
 10
15.4919484207
 20
288.1767738783
 10
15.4867250548
 20
288.2253919966
 10
15.4811488546
 20
288.2739942498
 10
15.4752179338
 20
288.3225905116
 10
15.4689331963
 20
288.3711718509
 10
15.4656717361
 20
288.3953632435
 10
15.4622948389
 20
288.4197340355
 10
15.4613006768
 20
288.4267864074
 10
15.4598926101
 20
288.4366890581
 10
15.4585123173
 20
288.4463017026
  0
LINE
  5
221
100
AcDbEntity
  8
0
100
AcDbLine
 62
2
  6
CONTINUOUS
 10
16.6257546957
 20
291.7417996716
 11
18.7756543471
 21
291.7417996716
  0
LINE
  5
222
100
AcDbEntity
  8
0
100
AcDbLine
 62
2
  6
CONTINUOUS
 10
18.7756543471
 20
291.7417996716
 11
18.7675001076
 21
286.1887625424
  0
LINE
  5
223
100
AcDbEntity
  8
0
100
AcDbLine
 62
2
  6
CONTINUOUS
 10
20.7328380589
 20
291.7408943502
 11
20.7246809285
 21
286.1858885617
  0
LINE
  5
224
100
AcDbEntity
  8
0
100
AcDbLine
 62
2
  6
CONTINUOUS
 10
20.7328380589
 20
291.7408943502
 11
22.8560234527
 21
291.7377766037
  0
LINE
  5
225
100
AcDbEntity
  8
0
100
AcDbLine
 62
2
  6
CONTINUOUS
 10
16.6257546957
 20
291.7417996716
 11
16.6257546957
 21
288.4463017026
  0
LINE
  5
226
100
AcDbEntity
  8
0
100
AcDbLine
 62
2
  6
CONTINUOUS
 10
22.8464682804
 20
286.2121871597
 11
22.8560234527
 21
291.7377766037
  0
LINE
  5
227
100
AcDbEntity
  8
0
100
AcDbLine
 62
2
  6
CONTINUOUS
 10
16.5962635235
 20
286.7097707
 11
16.5962635235
 21
286.206571522
  0
ARC
  5
228
100
AcDbEntity
  8
0
100
AcDbCircle
 62
2
  6
CONTINUOUS
 10
19.7460905181
 20
286.187325552
 40
0.9785914655
100
AcDbArc
 50
179.9158652888
 51
359.9158652888
  0
ARC
  5
229
100
AcDbEntity
  8
0
100
AcDbCircle
 62
2
  6
CONTINUOUS
 10
19.7213585238
 20
286.2175912822
 40
3.1251144292
100
AcDbArc
 50
180.2020364601
 51
359.9009208878
  0
LINE
  5
22A
100
AcDbEntity
  8
0
100
AcDbLine
 62
2
  6
CONTINUOUS
 10
10.6219179927
 20
288.4396050427
 11
14.7006991753
 21
288.4396050427
  0
LINE
  5
22B
100
AcDbEntity
  8
0
100
AcDbLine
 62
2
  6
CONTINUOUS
 10
12.2217882659
 20
288.8789329709
 11
13.9483889974
 21
290.1646806597
  0
ARC
  5
22C
100
AcDbEntity
  8
0
100
AcDbCircle
 62
2
  6
CONTINUOUS
 10
10.4114667665
 20
287.5821675482
 40
4.3761240935
100
AcDbArc
 50
36.126840858
 51
11.344332349
  0
ARC
  5
22D
100
AcDbEntity
  8
0
100
AcDbCircle
 62
2
  6
CONTINUOUS
 10
10.3470540354
 20
287.5511016176
 40
2.3065617406
100
AcDbArc
 50
34.9390168225
 51
338.4896426737
  0
ARC
  5
22E
100
AcDbEntity
  8
0
100
AcDbCircle
 62
2
  6
CONTINUOUS
 10
10.6219179927
 20
287.5714742336
 40
0.8681308092
100
AcDbArc
 50
90.0
 51
270.0681567641
  0
LINE
  5
22F
100
AcDbEntity
  8
0
100
AcDbLine
 62
2
  6
CONTINUOUS
 10
15.4585123173
 20
288.4463017026
 11
16.6257546957
 21
288.4463017026
  0
LINE
  5
230
100
AcDbEntity
  8
0
100
AcDbLine
 62
2
  6
CONTINUOUS
 10
10.6229506861
 20
286.7033440387
 11
12.4929667506
 21
286.7053559808
  0
LINE
  5
231
100
AcDbEntity
  8
0
100
AcDbLine
 62
2
  6
CONTINUOUS
 10
15.4801156353
 20
286.7085698414
 11
16.5962635235
 21
286.7097707
  0
LWPOLYLINE
  5
232
100
AcDbEntity
  8
0
100
AcDbPolyline
 62
2
  6
CONTINUOUS
 90
23
 70
0
 10
10.5871829024
 20
291.954762421
 10
11.2387137148
 20
291.8793904384
 10
11.8716622299
 20
291.7074907222
 10
12.4718106408
 20
291.4429246243
 10
13.0256779232
 20
291.0916350448
 10
13.5208226575
 20
290.6615129372
 10
13.9461224977
 20
290.162220056
 10
12.2217882659
 20
288.8789329709
 10
12.0237458929
 20
289.1350623109
 10
11.7733581523
 20
289.3638022628
 10
11.4921356799
 20
289.5533541218
 10
11.1861581185
 20
289.6996200375
 10
10.8620402817
 20
289.7994379423
 10
10.5267891511
 20
289.8506499105
 10
10.1876523947
 20
289.8521488096
 10
6.7057365377
 20
289.9098328062
 10
7.0952373539
 20
290.4375282198
 10
7.5592300262
 20
290.9010841876
 10
8.0872919719
 20
291.2900879365
 10
8.667561432
 20
291.5958013464
 10
9.2870039194
 20
291.8113572327
 10
9.9317050105
 20
291.9319136028
 10
10.5871829024
 20
291.954762421
  0
HATCH
  5
233
100
AcDbEntity
  8
0
100
AcDbHatch
 62
2
  6
CONTINUOUS
 10
0.0
 20
0.0
 30
0.0
210
0.0
220
0.0
230
1.0
  2
SOLID
 70
1
 71
1
 91
1
 92
1
 93
22
 72
1
 10
10.5871829024
 20
291.954762421
 11
11.2387137148
 21
291.8793904384
 72
1
 10
11.2387137148
 20
291.8793904384
 11
11.8716622299
 21
291.7074907222
 72
1
 10
11.8716622299
 20
291.7074907222
 11
12.4718106408
 21
291.4429246243
 72
1
 10
12.4718106408
 20
291.4429246243
 11
13.0256779232
 21
291.0916350448
 72
1
 10
13.0256779232
 20
291.0916350448
 11
13.5208226575
 21
290.6615129372
 72
1
 10
13.5208226575
 20
290.6615129372
 11
13.9461224977
 21
290.162220056
 72
1
 10
13.9461224977
 20
290.162220056
 11
12.2217882659
 21
288.8789329709
 72
1
 10
12.2217882659
 20
288.8789329709
 11
12.0237458929
 21
289.1350623109
 72
1
 10
12.0237458929
 20
289.1350623109
 11
11.7733581523
 21
289.3638022628
 72
1
 10
11.7733581523
 20
289.3638022628
 11
11.4921356799
 21
289.5533541218
 72
1
 10
11.4921356799
 20
289.5533541218
 11
11.1861581185
 21
289.6996200375
 72
1
 10
11.1861581185
 20
289.6996200375
 11
10.8620402817
 21
289.7994379423
 72
1
 10
10.8620402817
 20
289.7994379423
 11
10.5267891511
 21
289.8506499105
 72
1
 10
10.5267891511
 20
289.8506499105
 11
10.1876523947
 21
289.8521488096
 72
1
 10
10.1876523947
 20
289.8521488096
 11
6.7057365377
 21
289.9098328062
 72
1
 10
6.7057365377
 20
289.9098328062
 11
7.0952373539
 21
290.4375282198
 72
1
 10
7.0952373539
 20
290.4375282198
 11
7.5592300262
 21
290.9010841876
 72
1
 10
7.5592300262
 20
290.9010841876
 11
8.0872919719
 21
291.2900879365
 72
1
 10
8.0872919719
 20
291.2900879365
 11
8.667561432
 21
291.5958013464
 72
1
 10
8.667561432
 20
291.5958013464
 11
9.2870039194
 21
291.8113572327
 72
1
 10
9.2870039194
 20
291.8113572327
 11
9.9317050105
 21
291.9319136028
 72
1
 10
9.9317050105
 20
291.9319136028
 11
10.5871829024
 21
291.954762421
 97
1
330
232
 75
0
 76
1
 98
1
 10
0.0
 20
0.0
  0
LWPOLYLINE
  5
234
100
AcDbEntity
  8
0
100
AcDbPolyline
 62
2
  6
CONTINUOUS
 90
10
 70
0
 10
8.9368286897
 20
289.3763390097
 10
8.6844288245
 20
289.1498212526
 10
6.1833377863
 20
288.7106122342
 10
6.3994768635
 20
289.3298514727
 10
6.7057365377
 20
289.9098328062
 10
10.1876523947
 20
289.8521488096
 10
9.8519616824
 20
289.8039022357
 10
9.5269741853
 20
289.7069532133
 10
9.2197156858
 20
289.5633976467
 10
8.9368286897
 20
289.3763390097
  0
HATCH
  5
235
100
AcDbEntity
  8
0
100
AcDbHatch
 62
2
  6
CONTINUOUS
 10
0.0
 20
0.0
 30
0.0
210
0.0
220
0.0
230
1.0
  2
SOLID
 70
1
 71
1
 91
1
 92
1
 93
9
 72
1
 10
8.9368286897
 20
289.3763390097
 11
8.6844288245
 21
289.1498212526
 72
1
 10
8.6844288245
 20
289.1498212526
 11
6.1833377863
 21
288.7106122342
 72
1
 10
6.1833377863
 20
288.7106122342
 11
6.3994768635
 21
289.3298514727
 72
1
 10
6.3994768635
 20
289.3298514727
 11
6.7057365377
 21
289.9098328062
 72
1
 10
6.7057365377
 20
289.9098328062
 11
10.1876523947
 21
289.8521488096
 72
1
 10
10.1876523947
 20
289.8521488096
 11
9.8519616824
 21
289.8039022357
 72
1
 10
9.8519616824
 20
289.8039022357
 11
9.5269741853
 21
289.7069532133
 72
1
 10
9.5269741853
 20
289.7069532133
 11
9.2197156858
 21
289.5633976467
 72
1
 10
9.2197156858
 20
289.5633976467
 11
8.9368286897
 21
289.3763390097
 97
1
330
234
 75
0
 76
1
 98
1
 10
0.0
 20
0.0
  0
LWPOLYLINE
  5
236
100
AcDbEntity
  8
0
100
AcDbPolyline
 62
2
  6
CONTINUOUS
 90
6
 70
0
 10
8.4679726279
 20
288.8887413775
 10
8.2921395849
 20
288.5987435719
 10
6.062174399
 20
288.0660249485
 10
6.1833377863
 20
288.7106122342
 10
8.6844288245
 20
289.1498212526
 10
8.4679726279
 20
288.8887413775
  0
HATCH
  5
237
100
AcDbEntity
  8
0
100
AcDbHatch
 62
2
  6
CONTINUOUS
 10
0.0
 20
0.0
 30
0.0
210
0.0
220
0.0
230
1.0
  2
SOLID
 70
1
 71
1
 91
1
 92
1
 93
5
 72
1
 10
8.4679726279
 20
288.8887413775
 11
8.2921395849
 21
288.5987435719
 72
1
 10
8.2921395849
 20
288.5987435719
 11
6.062174399
 21
288.0660249485
 72
1
 10
6.062174399
 20
288.0660249485
 11
6.1833377863
 21
288.7106122342
 72
1
 10
6.1833377863
 20
288.7106122342
 11
8.6844288245
 21
289.1498212526
 72
1
 10
8.6844288245
 20
289.1498212526
 11
8.4679726279
 21
288.8887413775
 97
1
330
236
 75
0
 76
1
 98
1
 10
0.0
 20
0.0
  0
LWPOLYLINE
  5
238
100
AcDbEntity
  8
0
100
AcDbPolyline
 62
2
  6
CONTINUOUS
 90
50
 70
0
 10
10.5085615232
 20
288.4321724459
 10
10.6219179927
 20
288.4396084532
 10
14.7006991753
 20
288.4396084532
 10
14.7825548759
 20
287.7920504222
 10
14.7648293565
 20
287.1364139823
 10
14.6493150475
 20
286.4907904235
 10
14.438606726
 20
285.8696822699
 10
14.1374374943
 20
285.2870413606
 10
13.7525724621
 20
284.7559554521
 10
13.2926567823
 20
284.2883542302
 10
12.768021457
 20
283.8947413358
 10
12.1904512736
 20
283.5839584235
 10
11.5729200859
 20
283.3629865532
 10
8.987451348
 20
283.4442161022
 10
8.3850092311
 20
283.7035167597
 10
7.82808706
 20
284.0499428422
 10
7.3291948758
 20
284.4757126437
 10
6.8995392027
 20
284.9712621748
 10
10.3886755226
 20
285.2449154336
 10
10.7263929127
 20
285.2759468801
 10
11.0559095183
 20
285.3561640404
 10
11.3701016442
 20
285.48383273
 10
11.6621768888
 20
285.6561929275
 10
11.9258209876
 20
285.8695184427
 10
12.1553343179
 20
286.1191974716
 10
12.3457551174
 20
286.3998322972
 10
12.4929667506
 20
286.7053559808
 10
10.5095854553
 20
286.710641786
 10
10.398143719
 20
286.7326797556
 10
10.2905337187
 20
286.7690805866
 10
10.1885980837
 20
286.8192209795
 10
10.0940822803
 20
286.8822423694
 10
10.0086047233
 20
286.9570656274
 10
9.9336290636
 20
287.0424095382
 10
9.8704391257
 20
287.1368127396
 10
9.8201169249
 20
287.2386587449
 10
9.7835241392
 20
287.3462036225
 10
9.7612873548
 20
287.4576058581
 10
9.7537873371
 20
287.5709578868
 10
9.7611525105
 20
287.684318757
 10
9.7832567595
 20
287.7957473658
 10
9.8197215883
 20
287.9033356966
 10
9.8699226017
 20
288.0052414911
 10
9.9330001965
 20
288.0997197939
 10
10.0078742816
 20
288.1851528324
 10
10.0932627714
 20
288.260077718
 10
10.1877035402
 20
288.3232114955
 10
10.289579458
 20
288.3734731115
 10
10.3971460813
 20
288.4100019252
 10
10.5085615232
 20
288.4321724459
  0
HATCH
  5
239
100
AcDbEntity
  8
0
100
AcDbHatch
 62
2
  6
CONTINUOUS
 10
0.0
 20
0.0
 30
0.0
210
0.0
220
0.0
230
1.0
  2
SOLID
 70
1
 71
1
 91
1
 92
1
 93
49
 72
1
 10
10.5085615232
 20
288.4321724459
 11
10.6219179927
 21
288.4396084532
 72
1
 10
10.6219179927
 20
288.4396084532
 11
14.7006991753
 21
288.4396084532
 72
1
 10
14.7006991753
 20
288.4396084532
 11
14.7825548759
 21
287.7920504222
 72
1
 10
14.7825548759
 20
287.7920504222
 11
14.7648293565
 21
287.1364139823
 72
1
 10
14.7648293565
 20
287.1364139823
 11
14.6493150475
 21
286.4907904235
 72
1
 10
14.6493150475
 20
286.4907904235
 11
14.438606726
 21
285.8696822699
 72
1
 10
14.438606726
 20
285.8696822699
 11
14.1374374943
 21
285.2870413606
 72
1
 10
14.1374374943
 20
285.2870413606
 11
13.7525724621
 21
284.7559554521
 72
1
 10
13.7525724621
 20
284.7559554521
 11
13.2926567823
 21
284.2883542302
 72
1
 10
13.2926567823
 20
284.2883542302
 11
12.768021457
 21
283.8947413358
 72
1
 10
12.768021457
 20
283.8947413358
 11
12.1904512736
 21
283.5839584235
 72
1
 10
12.1904512736
 20
283.5839584235
 11
11.5729200859
 21
283.3629865532
 72
1
 10
11.5729200859
 20
283.3629865532
 11
8.987451348
 21
283.4442161022
 72
1
 10
8.987451348
 20
283.4442161022
 11
8.3850092311
 21
283.7035167597
 72
1
 10
8.3850092311
 20
283.7035167597
 11
7.82808706
 21
284.0499428422
 72
1
 10
7.82808706
 20
284.0499428422
 11
7.3291948758
 21
284.4757126437
 72
1
 10
7.3291948758
 20
284.4757126437
 11
6.8995392027
 21
284.9712621748
 72
1
 10
6.8995392027
 20
284.9712621748
 11
10.3886755226
 21
285.2449154336
 72
1
 10
10.3886755226
 20
285.2449154336
 11
10.7263929127
 21
285.2759468801
 72
1
 10
10.7263929127
 20
285.2759468801
 11
11.0559095183
 21
285.3561640404
 72
1
 10
11.0559095183
 20
285.3561640404
 11
11.3701016442
 21
285.48383273
 72
1
 10
11.3701016442
 20
285.48383273
 11
11.6621768888
 21
285.6561929275
 72
1
 10
11.6621768888
 20
285.6561929275
 11
11.9258209876
 21
285.8695184427
 72
1
 10
11.9258209876
 20
285.8695184427
 11
12.1553343179
 21
286.1191974716
 72
1
 10
12.1553343179
 20
286.1191974716
 11
12.3457551174
 21
286.3998322972
 72
1
 10
12.3457551174
 20
286.3998322972
 11
12.4929667506
 21
286.7053559808
 72
1
 10
12.4929667506
 20
286.7053559808
 11
10.5095854553
 21
286.710641786
 72
1
 10
10.5095854553
 20
286.710641786
 11
10.398143719
 21
286.7326797556
 72
1
 10
10.398143719
 20
286.7326797556
 11
10.2905337187
 21
286.7690805866
 72
1
 10
10.2905337187
 20
286.7690805866
 11
10.1885980837
 21
286.8192209795
 72
1
 10
10.1885980837
 20
286.8192209795
 11
10.0940822803
 21
286.8822423694
 72
1
 10
10.0940822803
 20
286.8822423694
 11
10.0086047233
 21
286.9570656274
 72
1
 10
10.0086047233
 20
286.9570656274
 11
9.9336290636
 21
287.0424095382
 72
1
 10
9.9336290636
 20
287.0424095382
 11
9.8704391257
 21
287.1368127396
 72
1
 10
9.8704391257
 20
287.1368127396
 11
9.8201169249
 21
287.2386587449
 72
1
 10
9.8201169249
 20
287.2386587449
 11
9.7835241392
 21
287.3462036225
 72
1
 10
9.7835241392
 20
287.3462036225
 11
9.7612873548
 21
287.4576058581
 72
1
 10
9.7612873548
 20
287.4576058581
 11
9.7537873371
 21
287.5709578868
 72
1
 10
9.7537873371
 20
287.5709578868
 11
9.7611525105
 21
287.684318757
 72
1
 10
9.7611525105
 20
287.684318757
 11
9.7832567595
 21
287.7957473658
 72
1
 10
9.7832567595
 20
287.7957473658
 11
9.8197215883
 21
287.9033356966
 72
1
 10
9.8197215883
 20
287.9033356966
 11
9.8699226017
 21
288.0052414911
 72
1
 10
9.8699226017
 20
288.0052414911
 11
9.9330001965
 21
288.0997197939
 72
1
 10
9.9330001965
 20
288.0997197939
 11
10.0078742816
 21
288.1851528324
 72
1
 10
10.0078742816
 20
288.1851528324
 11
10.0932627714
 21
288.260077718
 72
1
 10
10.0932627714
 20
288.260077718
 11
10.1877035402
 21
288.3232114955
 72
1
 10
10.1877035402
 20
288.3232114955
 11
10.289579458
 21
288.3734731115
 72
1
 10
10.289579458
 20
288.3734731115
 11
10.3971460813
 21
288.4100019252
 72
1
 10
10.3971460813
 20
288.4100019252
 11
10.5085615232
 21
288.4321724459
 97
1
330
238
 75
0
 76
1
 98
1
 10
0.0
 20
0.0
  0
LWPOLYLINE
  5
23A
100
AcDbEntity
  8
0
100
AcDbPolyline
 62
2
  6
CONTINUOUS
 90
6
 70
0
 10
8.1607309639
 20
288.2860971893
 10
8.0765876384
 20
287.9575612141
 10
6.0387083724
 20
287.4105688624
 10
6.062174399
 20
288.0660249485
 10
8.2921395849
 20
288.5987435719
 10
8.1607309639
 20
288.2860971893
  0
HATCH
  5
23B
100
AcDbEntity
  8
0
100
AcDbHatch
 62
2
  6
CONTINUOUS
 10
0.0
 20
0.0
 30
0.0
210
0.0
220
0.0
230
1.0
  2
SOLID
 70
1
 71
1
 91
1
 92
1
 93
5
 72
1
 10
8.1607309639
 20
288.2860971893
 11
8.0765876384
 21
287.9575612141
 72
1
 10
8.0765876384
 20
287.9575612141
 11
6.0387083724
 21
287.4105688624
 72
1
 10
6.0387083724
 20
287.4105688624
 11
6.062174399
 21
288.0660249485
 72
1
 10
6.062174399
 20
288.0660249485
 11
8.2921395849
 21
288.5987435719
 72
1
 10
8.2921395849
 20
288.5987435719
 11
8.1607309639
 21
288.2860971893
 97
1
330
23A
 75
0
 76
1
 98
1
 10
0.0
 20
0.0
  0
LWPOLYLINE
  5
23C
100
AcDbEntity
  8
0
100
AcDbPolyline
 62
2
  6
CONTINUOUS
 90
6
 70
0
 10
8.0415286713
 20
287.6202381419
 10
8.0563119892
 20
287.2814204332
 10
6.1134668197
 20
286.7589673662
 10
6.0387083724
 20
287.4105688624
 10
8.0765876384
 20
287.9575612141
 10
8.0415286713
 20
287.6202381419
  0
HATCH
  5
23D
100
AcDbEntity
  8
0
100
AcDbHatch
 62
2
  6
CONTINUOUS
 10
0.0
 20
0.0
 30
0.0
210
0.0
220
0.0
230
1.0
  2
SOLID
 70
1
 71
1
 91
1
 92
1
 93
5
 72
1
 10
8.0415286713
 20
287.6202381419
 11
8.0563119892
 21
287.2814204332
 72
1
 10
8.0563119892
 20
287.2814204332
 11
6.1134668197
 21
286.7589673662
 72
1
 10
6.1134668197
 20
286.7589673662
 11
6.0387083724
 21
287.4105688624
 72
1
 10
6.0387083724
 20
287.4105688624
 11
8.0765876384
 21
287.9575612141
 72
1
 10
8.0765876384
 20
287.9575612141
 11
8.0415286713
 21
287.6202381419
 97
1
330
23C
 75
0
 76
1
 98
1
 10
0.0
 20
0.0
  0
LWPOLYLINE
  5
23E
100
AcDbEntity
  8
0
100
AcDbPolyline
 62
2
  6
CONTINUOUS
 90
6
 70
0
 10
8.1206179971
 20
286.9484328604
 10
8.2330564876
 20
286.6284741567
 10
6.2847704556
 20
286.1258572655
 10
6.1134668197
 20
286.7589673662
 10
8.0563119892
 20
287.2814204332
 10
8.1206179971
 20
286.9484328604
  0
HATCH
  5
23F
100
AcDbEntity
  8
0
100
AcDbHatch
 62
2
  6
CONTINUOUS
 10
0.0
 20
0.0
 30
0.0
210
0.0
220
0.0
230
1.0
  2
SOLID
 70
1
 71
1
 91
1
 92
1
 93
5
 72
1
 10
8.1206179971
 20
286.9484328604
 11
8.2330564876
 21
286.6284741567
 72
1
 10
8.2330564876
 20
286.6284741567
 11
6.2847704556
 21
286.1258572655
 72
1
 10
6.2847704556
 20
286.1258572655
 11
6.1134668197
 21
286.7589673662
 72
1
 10
6.1134668197
 20
286.7589673662
 11
8.0563119892
 21
287.2814204332
 72
1
 10
8.0563119892
 20
287.2814204332
 11
8.1206179971
 21
286.9484328604
 97
1
330
23E
 75
0
 76
1
 98
1
 10
0.0
 20
0.0
  0
SOLID
  5
240
100
AcDbEntity
  8
0
100
AcDbTrace
 62
2
  6
CONTINUOUS
 10
10.6229506861
 20
286.7033440387
 11
10.5095854553
 21
286.710641786
 12
12.4929667506
 22
286.7053559808
 13
12.4929667506
 23
286.7053559808
  0
LWPOLYLINE
  5
241
100
AcDbEntity
  8
0
100
AcDbPolyline
 62
2
  6
CONTINUOUS
 90
6
 70
0
 10
8.3911966954
 20
286.3284613888
 10
8.5916198468
 20
286.0548804198
 10
6.5487713176
 20
285.5254599969
 10
6.2847704556
 20
286.1258572655
 10
8.2330564876
 20
286.6284741567
 10
8.3911966954
 20
286.3284613888
  0
HATCH
  5
242
100
AcDbEntity
  8
0
100
AcDbHatch
 62
2
  6
CONTINUOUS
 10
0.0
 20
0.0
 30
0.0
210
0.0
220
0.0
230
1.0
  2
SOLID
 70
1
 71
1
 91
1
 92
1
 93
5
 72
1
 10
8.3911966954
 20
286.3284613888
 11
8.5916198468
 21
286.0548804198
 72
1
 10
8.5916198468
 20
286.0548804198
 11
6.5487713176
 21
285.5254599969
 72
1
 10
6.5487713176
 20
285.5254599969
 11
6.2847704556
 21
286.1258572655
 72
1
 10
6.2847704556
 20
286.1258572655
 11
8.2330564876
 21
286.6284741567
 72
1
 10
8.2330564876
 20
286.6284741567
 11
8.3911966954
 21
286.3284613888
 97
1
330
241
 75
0
 76
1
 98
1
 10
0.0
 20
0.0
  0
LWPOLYLINE
  5
243
100
AcDbEntity
  8
0
100
AcDbPolyline
 62
2
  6
CONTINUOUS
 90
7
 70
0
 10
9.1011630614
 20
285.609972373
 10
9.3992675016
 20
285.4482635949
 10
6.8995392027
 20
284.9712621748
 10
6.5487713176
 20
285.5254599969
 10
8.5916198468
 20
286.0548804198
 10
8.8299930691
 20
285.8136456936
 10
9.1011630614
 20
285.609972373
  0
HATCH
  5
244
100
AcDbEntity
  8
0
100
AcDbHatch
 62
2
  6
CONTINUOUS
 10
0.0
 20
0.0
 30
0.0
210
0.0
220
0.0
230
1.0
  2
SOLID
 70
1
 71
1
 91
1
 92
1
 93
6
 72
1
 10
9.1011630614
 20
285.609972373
 11
9.3992675016
 21
285.4482635949
 72
1
 10
9.3992675016
 20
285.4482635949
 11
6.8995392027
 21
284.9712621748
 72
1
 10
6.8995392027
 20
284.9712621748
 11
6.5487713176
 21
285.5254599969
 72
1
 10
6.5487713176
 20
285.5254599969
 11
8.5916198468
 21
286.0548804198
 72
1
 10
8.5916198468
 20
286.0548804198
 11
8.8299930691
 21
285.8136456936
 72
1
 10
8.8299930691
 20
285.8136456936
 11
9.1011630614
 21
285.609972373
 97
1
330
243
 75
0
 76
1
 98
1
 10
0.0
 20
0.0
  0
LWPOLYLINE
  5
245
100
AcDbEntity
  8
0
100
AcDbPolyline
 62
2
  6
CONTINUOUS
 90
6
 70
0
 10
10.3886755226
 20
285.2449154336
 10
6.8995392027
 20
284.9712621748
 10
9.3992675016
 20
285.4482635949
 10
9.7178617822
 20
285.3320152804
 10
10.0500583332
 20
285.2637405581
 10
10.3886755226
 20
285.2449154336
  0
HATCH
  5
246
100
AcDbEntity
  8
0
100
AcDbHatch
 62
2
  6
CONTINUOUS
 10
0.0
 20
0.0
 30
0.0
210
0.0
220
0.0
230
1.0
  2
SOLID
 70
1
 71
1
 91
1
 92
1
 93
5
 72
1
 10
10.3886755226
 20
285.2449154336
 11
6.8995392027
 21
284.9712621748
 72
1
 10
6.8995392027
 20
284.9712621748
 11
9.3992675016
 21
285.4482635949
 72
1
 10
9.3992675016
 20
285.4482635949
 11
9.7178617822
 21
285.3320152804
 72
1
 10
9.7178617822
 20
285.3320152804
 11
10.0500583332
 21
285.2637405581
 72
1
 10
10.0500583332
 20
285.2637405581
 11
10.3886755226
 21
285.2449154336
 97
1
330
245
 75
0
 76
1
 98
1
 10
0.0
 20
0.0
  0
LWPOLYLINE
  5
247
100
AcDbEntity
  8
0
100
AcDbPolyline
 62
2
  6
CONTINUOUS
 90
6
 70
0
 10
9.6218808634
 20
283.2778654929
 10
8.987451348
 20
283.4442161022
 10
11.5729200859
 20
283.3629865532
 10
10.9292993842
 20
283.2367893757
 10
10.2740467029
 20
283.2082016352
 10
9.6218808634
 20
283.2778654929
  0
HATCH
  5
248
100
AcDbEntity
  8
0
100
AcDbHatch
 62
2
  6
CONTINUOUS
 10
0.0
 20
0.0
 30
0.0
210
0.0
220
0.0
230
1.0
  2
SOLID
 70
1
 71
1
 91
1
 92
1
 93
5
 72
1
 10
9.6218808634
 20
283.2778654929
 11
8.987451348
 21
283.4442161022
 72
1
 10
8.987451348
 20
283.4442161022
 11
11.5729200859
 21
283.3629865532
 72
1
 10
11.5729200859
 20
283.3629865532
 11
10.9292993842
 21
283.2367893757
 72
1
 10
10.9292993842
 20
283.2367893757
 11
10.2740467029
 21
283.2082016352
 72
1
 10
10.2740467029
 20
283.2082016352
 11
9.6218808634
 21
283.2778654929
 97
1
330
247
 75
0
 76
1
 98
1
 10
0.0
 20
0.0
  0
LWPOLYLINE
  5
249
100
AcDbEntity
  8
0
100
AcDbPolyline
 62
2
  6
CONTINUOUS
 90
8
 70
0
 10
16.6257546957
 20
288.4462983908
 10
16.6257546957
 20
291.7418023453
 10
18.7756543471
 20
291.7418023453
 10
18.7675001076
 20
286.1887625424
 10
16.6243458713
 20
285.7994372127
 10
16.5962635235
 20
286.206571522
 10
16.5962635235
 20
286.7097707
 10
16.6257546957
 20
288.4462983908
  0
HATCH
  5
24A
100
AcDbEntity
  8
0
100
AcDbHatch
 62
2
  6
CONTINUOUS
 10
0.0
 20
0.0
 30
0.0
210
0.0
220
0.0
230
1.0
  2
SOLID
 70
1
 71
1
 91
1
 92
1
 93
7
 72
1
 10
16.6257546957
 20
288.4462983908
 11
16.6257546957
 21
291.7418023453
 72
1
 10
16.6257546957
 20
291.7418023453
 11
18.7756543471
 21
291.7418023453
 72
1
 10
18.7756543471
 20
291.7418023453
 11
18.7675001076
 21
286.1887625424
 72
1
 10
18.7675001076
 20
286.1887625424
 11
16.6243458713
 21
285.7994372127
 72
1
 10
16.6243458713
 20
285.7994372127
 11
16.5962635235
 21
286.206571522
 72
1
 10
16.5962635235
 20
286.206571522
 11
16.5962635235
 21
286.7097707
 72
1
 10
16.5962635235
 20
286.7097707
 11
16.6257546957
 21
288.4462983908
 97
1
330
249
 75
0
 76
1
 98
1
 10
0.0
 20
0.0
  0
LWPOLYLINE
  5
24B
100
AcDbEntity
  8
0
100
AcDbPolyline
 62
2
  6
CONTINUOUS
 90
19
 70
0
 10
15.4613006768
 20
288.4267864074
 10
15.4585123173
 20
288.4462983908
 10
16.6257546957
 20
288.4462983908
 10
16.5962635235
 20
286.7097707
 10
15.4828019239
 20
286.7310241374
 10
15.4934148613
 20
286.8269721689
 10
15.5026102575
 20
286.9228679315
 10
15.5167229312
 20
287.1143654607
 10
15.5250935749
 20
287.3054384223
 10
15.5277298368
 20
287.4977613022
 10
15.5246400792
 20
287.6912132758
 10
15.5158326847
 20
287.8851942116
 10
15.5013301686
 20
288.0795445568
 10
15.4919484207
 20
288.1767738783
 10
15.4811488546
 20
288.2739942498
 10
15.4752179338
 20
288.3225905116
 10
15.4689331963
 20
288.3711718509
 10
15.4622948389
 20
288.4197340355
 10
15.4613006768
 20
288.4267864074
  0
HATCH
  5
24C
100
AcDbEntity
  8
0
100
AcDbHatch
 62
2
  6
CONTINUOUS
 10
0.0
 20
0.0
 30
0.0
210
0.0
220
0.0
230
1.0
  2
SOLID
 70
1
 71
1
 91
1
 92
1
 93
18
 72
1
 10
15.4613006768
 20
288.4267864074
 11
15.4585123173
 21
288.4462983908
 72
1
 10
15.4585123173
 20
288.4462983908
 11
16.6257546957
 21
288.4462983908
 72
1
 10
16.6257546957
 20
288.4462983908
 11
16.5962635235
 21
286.7097707
 72
1
 10
16.5962635235
 20
286.7097707
 11
15.4828019239
 21
286.7310241374
 72
1
 10
15.4828019239
 20
286.7310241374
 11
15.4934148613
 21
286.8269721689
 72
1
 10
15.4934148613
 20
286.8269721689
 11
15.5026102575
 21
286.9228679315
 72
1
 10
15.5026102575
 20
286.9228679315
 11
15.5167229312
 21
287.1143654607
 72
1
 10
15.5167229312
 20
287.1143654607
 11
15.5250935749
 21
287.3054384223
 72
1
 10
15.5250935749
 20
287.3054384223
 11
15.5277298368
 21
287.4977613022
 72
1
 10
15.5277298368
 20
287.4977613022
 11
15.5246400792
 21
287.6912132758
 72
1
 10
15.5246400792
 20
287.6912132758
 11
15.5158326847
 21
287.8851942116
 72
1
 10
15.5158326847
 20
287.8851942116
 11
15.5013301686
 21
288.0795445568
 72
1
 10
15.5013301686
 20
288.0795445568
 11
15.4919484207
 21
288.1767738783
 72
1
 10
15.4919484207
 20
288.1767738783
 11
15.4811488546
 21
288.2739942498
 72
1
 10
15.4811488546
 20
288.2739942498
 11
15.4752179338
 21
288.3225905116
 72
1
 10
15.4752179338
 20
288.3225905116
 11
15.4689331963
 21
288.3711718509
 72
1
 10
15.4689331963
 20
288.3711718509
 11
15.4622948389
 21
288.4197340355
 72
1
 10
15.4622948389
 20
288.4197340355
 11
15.4613006768
 21
288.4267864074
 97
1
330
24B
 75
0
 76
1
 98
1
 10
0.0
 20
0.0
  0
SOLID
  5
24D
100
AcDbEntity
  8
0
100
AcDbTrace
 62
2
  6
CONTINUOUS
 10
15.4801156353
 20
286.7085698414
 11
15.4828019239
 21
286.7310241374
 12
16.5962635235
 22
286.7097707
 13
16.5962635235
 23
286.7097707
  0
LWPOLYLINE
  5
24E
100
AcDbEntity
  8
0
100
AcDbPolyline
 62
2
  6
CONTINUOUS
 90
19
 70
0
 10
22.8464682804
 20
286.2121871597
 10
22.8191175755
 20
285.8050030454
 10
22.7389402891
 20
285.4048548643
 10
22.6073036975
 20
285.0185664075
 10
19.8723975014
 20
285.2169195533
 10
19.9979803276
 20
285.2417078807
 10
20.1192532493
 20
285.2826759887
 10
20.2341412532
 20
285.3391229015
 10
20.3406785737
 20
285.4100827968
 10
20.4370423277
 20
285.4943415312
 10
20.5215837047
 20
285.5904574143
 10
20.5928561783
 20
285.6967858767
 10
20.6496402566
 20
285.8115076089
 10
20.6909643484
 20
285.9326596904
 10
20.716121387
 20
286.0581691753
 10
20.7246809285
 20
286.1858885617
 10
20.7328380589
 20
291.7408943502
 10
22.8560234527
 20
291.7377766037
 10
22.8464682804
 20
286.2121871597
  0
HATCH
  5
24F
100
AcDbEntity
  8
0
100
AcDbHatch
 62
2
  6
CONTINUOUS
 10
0.0
 20
0.0
 30
0.0
210
0.0
220
0.0
230
1.0
  2
SOLID
 70
1
 71
1
 91
1
 92
1
 93
18
 72
1
 10
22.8464682804
 20
286.2121871597
 11
22.8191175755
 21
285.8050030454
 72
1
 10
22.8191175755
 20
285.8050030454
 11
22.7389402891
 21
285.4048548643
 72
1
 10
22.7389402891
 20
285.4048548643
 11
22.6073036975
 21
285.0185664075
 72
1
 10
22.6073036975
 20
285.0185664075
 11
19.8723975014
 21
285.2169195533
 72
1
 10
19.8723975014
 20
285.2169195533
 11
19.9979803276
 21
285.2417078807
 72
1
 10
19.9979803276
 20
285.2417078807
 11
20.1192532493
 21
285.2826759887
 72
1
 10
20.1192532493
 20
285.2826759887
 11
20.2341412532
 21
285.3391229015
 72
1
 10
20.2341412532
 20
285.3391229015
 11
20.3406785737
 21
285.4100827968
 72
1
 10
20.3406785737
 20
285.4100827968
 11
20.4370423277
 21
285.4943415312
 72
1
 10
20.4370423277
 20
285.4943415312
 11
20.5215837047
 21
285.5904574143
 72
1
 10
20.5215837047
 20
285.5904574143
 11
20.5928561783
 21
285.6967858767
 72
1
 10
20.5928561783
 20
285.6967858767
 11
20.6496402566
 21
285.8115076089
 72
1
 10
20.6496402566
 20
285.8115076089
 11
20.6909643484
 21
285.9326596904
 72
1
 10
20.6909643484
 20
285.9326596904
 11
20.716121387
 21
286.0581691753
 72
1
 10
20.716121387
 20
286.0581691753
 11
20.7246809285
 21
286.1858885617
 72
1
 10
20.7246809285
 20
286.1858885617
 11
20.7328380589
 21
291.7408943502
 72
1
 10
20.7328380589
 20
291.7408943502
 11
22.8560234527
 21
291.7377766037
 72
1
 10
22.8560234527
 20
291.7377766037
 11
22.8464682804
 21
286.2121871597
 97
1
330
24E
 75
0
 76
1
 98
1
 10
0.0
 20
0.0
  0
LWPOLYLINE
  5
250
100
AcDbEntity
  8
0
100
AcDbPolyline
 62
2
  6
CONTINUOUS
 90
8
 70
0
 10
18.8414409547
 20
285.8141628208
 10
18.8978878675
 20
285.6992748169
 10
16.7052420719
 20
285.3994337518
 10
16.6243458713
 20
285.7994372127
 10
18.7675001076
 20
286.1887625424
 10
18.7756845193
 20
286.0610185687
 10
18.8004728468
 20
285.9354357425
 10
18.8414409547
 20
285.8141628208
  0
HATCH
  5
251
100
AcDbEntity
  8
0
100
AcDbHatch
 62
2
  6
CONTINUOUS
 10
0.0
 20
0.0
 30
0.0
210
0.0
220
0.0
230
1.0
  2
SOLID
 70
1
 71
1
 91
1
 92
1
 93
7
 72
1
 10
18.8414409547
 20
285.8141628208
 11
18.8978878675
 21
285.6992748169
 72
1
 10
18.8978878675
 20
285.6992748169
 11
16.7052420719
 21
285.3994337518
 72
1
 10
16.7052420719
 20
285.3994337518
 11
16.6243458713
 21
285.7994372127
 72
1
 10
16.6243458713
 20
285.7994372127
 11
18.7675001076
 21
286.1887625424
 72
1
 10
18.7675001076
 20
286.1887625424
 11
18.7756845193
 21
286.0610185687
 72
1
 10
18.7756845193
 20
286.0610185687
 11
18.8004728468
 21
285.9354357425
 72
1
 10
18.8004728468
 20
285.9354357425
 11
18.8414409547
 21
285.8141628208
 97
1
330
250
 75
0
 76
1
 98
1
 10
0.0
 20
0.0
  0
LWPOLYLINE
  5
252
100
AcDbEntity
  8
0
100
AcDbPolyline
 62
2
  6
CONTINUOUS
 90
8
 70
0
 10
19.1492223803
 20
285.4118323654
 10
19.2555508427
 20
285.3405598918
 10
16.8375725897
 20
285.0133824622
 10
16.7052420719
 20
285.3994337518
 10
18.8978878675
 20
285.6992748169
 10
18.9688477629
 20
285.5927374964
 10
19.0531064972
 20
285.4963737424
 10
19.1492223803
 20
285.4118323654
  0
HATCH
  5
253
100
AcDbEntity
  8
0
100
AcDbHatch
 62
2
  6
CONTINUOUS
 10
0.0
 20
0.0
 30
0.0
210
0.0
220
0.0
230
1.0
  2
SOLID
 70
1
 71
1
 91
1
 92
1
 93
7
 72
1
 10
19.1492223803
 20
285.4118323654
 11
19.2555508427
 21
285.3405598918
 72
1
 10
19.2555508427
 20
285.3405598918
 11
16.8375725897
 21
285.0133824622
 72
1
 10
16.8375725897
 20
285.0133824622
 11
16.7052420719
 21
285.3994337518
 72
1
 10
16.7052420719
 20
285.3994337518
 11
18.8978878675
 21
285.6992748169
 72
1
 10
18.8978878675
 20
285.6992748169
 11
18.9688477629
 21
285.5927374964
 72
1
 10
18.9688477629
 20
285.5927374964
 11
19.0531064972
 21
285.4963737424
 72
1
 10
19.0531064972
 20
285.4963737424
 11
19.1492223803
 21
285.4118323654
 97
1
330
252
 75
0
 76
1
 98
1
 10
0.0
 20
0.0
  0
LWPOLYLINE
  5
254
100
AcDbEntity
  8
0
100
AcDbPolyline
 62
2
  6
CONTINUOUS
 90
26
 70
0
 10
19.7446535277
 20
285.2087351416
 10
19.8723975014
 20
285.2169195533
 10
22.6073036975
 20
285.0185664075
 10
22.4264526204
 20
284.6527251141
 10
22.1994711403
 20
284.3135697341
 10
21.9302300087
 20
284.0068839387
 10
21.6233206378
 20
283.7378976897
 10
21.2839768022
 20
283.5111980529
 10
20.9179853868
 20
283.3306509734
 10
20.5315877017
 20
283.1993353496
 10
20.1313730487
 20
283.1194905277
 10
19.7241663523
 20
283.0924781144
 10
19.3169117736
 20
283.1187587566
 10
18.91655429
 20
283.1978842863
 10
18.529921262
 20
283.3285053633
 10
18.1636060046
 20
283.5083944853
 10
17.8238553504
 20
283.7344839743
 10
17.5164631218
 20
284.0029182901
 10
17.2466713278
 20
284.3091197792
 10
17.019080771
 20
284.6478667387
 10
16.8375725897
 20
285.0133824622
 10
19.2555508427
 20
285.3405598918
 10
19.370272575
 20
285.2837758135
 10
19.4914246564
 20
285.2424517217
 10
19.6169341414
 20
285.2172946831
 10
19.7446535277
 20
285.2087351416
  0
HATCH
  5
255
100
AcDbEntity
  8
0
100
AcDbHatch
 62
2
  6
CONTINUOUS
 10
0.0
 20
0.0
 30
0.0
210
0.0
220
0.0
230
1.0
  2
SOLID
 70
1
 71
1
 91
1
 92
1
 93
25
 72
1
 10
19.7446535277
 20
285.2087351416
 11
19.8723975014
 21
285.2169195533
 72
1
 10
19.8723975014
 20
285.2169195533
 11
22.6073036975
 21
285.0185664075
 72
1
 10
22.6073036975
 20
285.0185664075
 11
22.4264526204
 21
284.6527251141
 72
1
 10
22.4264526204
 20
284.6527251141
 11
22.1994711403
 21
284.3135697341
 72
1
 10
22.1994711403
 20
284.3135697341
 11
21.9302300087
 21
284.0068839387
 72
1
 10
21.9302300087
 20
284.0068839387
 11
21.6233206378
 21
283.7378976897
 72
1
 10
21.6233206378
 20
283.7378976897
 11
21.2839768022
 21
283.5111980529
 72
1
 10
21.2839768022
 20
283.5111980529
 11
20.9179853868
 21
283.3306509734
 72
1
 10
20.9179853868
 20
283.3306509734
 11
20.5315877017
 21
283.1993353496
 72
1
 10
20.5315877017
 20
283.1993353496
 11
20.1313730487
 21
283.1194905277
 72
1
 10
20.1313730487
 20
283.1194905277
 11
19.7241663523
 21
283.0924781144
 72
1
 10
19.7241663523
 20
283.0924781144
 11
19.3169117736
 21
283.1187587566
 72
1
 10
19.3169117736
 20
283.1187587566
 11
18.91655429
 21
283.1978842863
 72
1
 10
18.91655429
 20
283.1978842863
 11
18.529921262
 21
283.3285053633
 72
1
 10
18.529921262
 20
283.3285053633
 11
18.1636060046
 21
283.5083944853
 72
1
 10
18.1636060046
 20
283.5083944853
 11
17.8238553504
 21
283.7344839743
 72
1
 10
17.8238553504
 20
283.7344839743
 11
17.5164631218
 21
284.0029182901
 72
1
 10
17.5164631218
 20
284.0029182901
 11
17.2466713278
 21
284.3091197792
 72
1
 10
17.2466713278
 20
284.3091197792
 11
17.019080771
 21
284.6478667387
 72
1
 10
17.019080771
 20
284.6478667387
 11
16.8375725897
 21
285.0133824622
 72
1
 10
16.8375725897
 20
285.0133824622
 11
19.2555508427
 21
285.3405598918
 72
1
 10
19.2555508427
 20
285.3405598918
 11
19.370272575
 21
285.2837758135
 72
1
 10
19.370272575
 20
285.2837758135
 11
19.4914246564
 21
285.2424517217
 72
1
 10
19.4914246564
 20
285.2424517217
 11
19.6169341414
 21
285.2172946831
 72
1
 10
19.6169341414
 20
285.2172946831
 11
19.7446535277
 21
285.2087351416
 97
1
330
254
 75
0
 76
1
 98
1
 10
0.0
 20
0.0
  0
ENDBLK
  5
256
100
AcDbEntity
  8
0
  6
BYBLOCK
 62
0
100
AcDbBlockEnd
  0
BLOCK
  5
257
100
AcDbEntity
  8
0
100
AcDbBlockBegin
 62
2
  6
CONTINUOUS
  2
SYMBOL_37_BL0
 70
64
 10
42.0051336987
 20
17.0063304868
  3
SYMBOL_37_BL0
  1

  0
LINE
  5
258
100
AcDbEntity
  8
0
100
AcDbLine
 62
2
  6
CONTINUOUS
 10
35.0471016852
 20
14.0149327834
 11
35.0471016852
 21
19.9977281901
  0
LINE
  5
259
100
AcDbEntity
  8
0
100
AcDbLine
 62
2
  6
CONTINUOUS
 10
48.3545634155
 20
13.4063304868
 11
35.6557039818
 21
13.4063304868
  0
LINE
  5
25A
100
AcDbEntity
  8
0
100
AcDbLine
 62
2
  6
CONTINUOUS
 10
35.6557039818
 20
20.6063304868
 11
48.3545634155
 21
20.6063304868
  0
LINE
  5
25B
100
AcDbEntity
  8
0
100
AcDbLine
 62
2
  6
CONTINUOUS
 10
48.9631657122
 20
19.9977281901
 11
48.9631657122
 21
14.0149327834
  0
LWPOLYLINE
  5
25C
100
AcDbEntity
  8
0
100
AcDbPolyline
 62
2
  6
CONTINUOUS
 90
114
 70
0
 10
45.4248786001
 20
19.4367908873
 10
45.4248786001
 20
16.2760496648
 10
45.4290021113
 20
16.1446564266
 10
45.4263038507
 20
16.0917864428
 10
45.4182382344
 20
16.0395813598
 10
45.4048443142
 20
15.9882823776
 10
45.3861705254
 20
15.9381934039
 10
45.362296819
 20
15.8896855504
 10
45.3333579669
 20
15.843195001
 10
45.2995648934
 20
15.7992126171
 10
45.2612201358
 20
15.758264705
 10
45.2187235505
 20
15.7208861082
 10
45.1747920724
 20
15.6890443721
 10
45.1259229194
 20
15.6602017706
 10
45.0747356663
 20
15.6362880473
 10
45.0218151755
 20
15.6175270551
 10
44.9677005142
 20
15.604059714
 10
44.9128675433
 20
15.595960651
 10
44.8577210855
 20
15.5932591116
 10
44.8026917201
 20
15.595960651
 10
44.7482685429
 20
15.6040406816
 10
44.6948097918
 20
15.6174481673
 10
44.6427343034
 20
15.6360980756
 10
44.5925165741
 20
15.6598526693
 10
44.5446740302
 20
15.6885055475
 10
44.4997466121
 20
15.7217716722
 10
44.462842535
 20
15.7547746734
 10
44.4249848166
 20
15.7955203595
 10
44.391546519
 20
15.8394773009
 10
44.3628423392
 20
15.886138799
 10
44.3391056028
 20
15.9350189051
 10
44.320498266
 20
15.9856725963
 10
44.3071273115
 20
16.0377086103
 10
44.2990642069
 20
16.0907947164
 10
44.2963644425
 20
16.1446564266
 10
44.28776797
 20
16.2760496648
 10
44.28776797
 20
19.4367908873
 10
43.0008131365
 20
19.4367908873
 10
43.0008131365
 20
17.4753274679
 10
42.160403115
 20
17.4753274679
 10
42.1645003332
 20
17.4520828945
 10
42.1836086403
 20
17.3254090063
 10
42.1972072829
 20
17.1993127127
 10
42.2053435056
 20
17.0737415644
 10
42.2080506363
 20
16.948636275
 10
42.2053440898
 20
16.8236355212
 10
42.1972070159
 20
16.6980764781
 10
42.1836044707
 20
16.5719347447
 10
42.1644911181
 20
16.4451974236
 10
42.1609272902
 20
16.424915408
 10
43.0008131365
 20
16.424915408
 10
43.0008131365
 20
16.2760496648
 10
43.0008131365
 20
16.1446564266
 10
43.0035336952
 20
16.044317228
 10
43.0116733015
 20
15.9447169361
 10
43.0251985234
 20
15.8460050131
 10
43.0440734325
 20
15.7483464699
 10
43.0682568487
 20
15.651922519
 10
43.0976994306
 20
15.5569307815
 10
43.132340714
 20
15.4635849708
 10
43.172106216
 20
15.3721139876
 10
43.2169047457
 20
15.2827603839
 10
43.2666260697
 20
15.1957781834
 10
43.3211390855
 20
15.1114300826
 10
43.3802906449
 20
15.0299841028
 10
43.4439051447
 20
14.951709804
 10
43.5117849659
 20
14.8768742193
 10
43.574323937
 20
14.8145931948
 10
43.6495493871
 20
14.7469221097
 10
43.7282848853
 20
14.6834602329
 10
43.8102613519
 20
14.6244125245
 10
43.8952047468
 20
14.5699627905
 10
43.9828402504
 20
14.5202727521
 10
44.0728962646
 20
14.4754819776
 10
44.165108055
 20
14.4357086229
 10
44.2592208965
 20
14.4010508836
 10
44.3549926268
 20
14.37158903
 10
44.4521955587
 20
14.3473878757
 10
44.5506177458
 20
14.3284995334
 10
44.6500636275
 20
14.3149663088
 10
44.7503541089
 20
14.3068236074
 10
44.8513261486
 20
14.3041027424
 10
44.9523339961
 20
14.3068236074
 10
45.052753825
 20
14.3149696674
 10
45.1524154601
 20
14.3285141004
 10
45.2511317213
 20
14.3474251361
 10
45.348698074
 20
14.3716630983
 10
45.4448928143
 20
14.4011773671
 10
45.5394778653
 20
14.4359033803
 10
45.6322002378
 20
14.4757598139
 10
45.7227941802
 20
14.5206460948
 10
45.8109840027
 20
14.5704404066
 10
45.8964875161
 20
14.624998338
 10
45.9790199736
 20
14.6841523065
 10
46.0582983607
 20
14.7477118497
 10
46.1272586374
 20
14.8090876005
 10
46.199515248
 20
14.8803948619
 10
46.2676854708
 20
14.9553568742
 10
46.3315496834
 20
15.0337067736
 10
46.3909105332
 20
15.1151720796
 10
46.4455940759
 20
15.1994790444
 10
46.4954499815
 20
15.2863568415
 10
46.5403508609
 20
15.3755414011
 10
46.5801908091
 20
15.4667787426
 10
46.614883302
 20
15.5598276998
 10
46.6443586011
 20
15.6544619827
 10
46.6685608303
 20
15.7504715623
 10
46.6874448797
 20
15.8476634056
 10
46.70097328
 20
15.9458616122
 10
46.7091131669
 20
16.0449070291
 10
46.7118334337
 20
16.1446564266
 10
46.7118334337
 20
16.2760496648
 10
46.7118334337
 20
19.4367908873
 10
45.4248786001
 20
19.4367908873
  0
LWPOLYLINE
  5
25D
100
AcDbEntity
  8
0
100
AcDbPolyline
 62
2
  6
CONTINUOUS
 90
200
 70
0
 10
41.8823281968
 20
17.4753274679
 10
41.0738928596
 20
17.4753274679
 10
40.5255008154
 20
17.4753274679
 10
39.3703760326
 20
17.4753274679
 10
39.3703760326
 20
17.4736151624
 10
39.314724414
 20
17.4702230015
 10
39.2601000461
 20
17.4610504816
 10
39.206870263
 20
17.4461859083
 10
39.1554648694
 20
17.42574929
 10
39.1063714112
 20
17.3999136291
 10
39.0601216457
 20
17.3689233906
 10
39.0172693554
 20
17.3331061705
 10
38.9871955485
 20
17.3027805306
 10
38.9517522066
 20
17.2596496235
 10
38.9211688226
 20
17.21317166
 10
38.8957646891
 20
17.1638984092
 10
38.8757767062
 20
17.1123569244
 10
38.861371966
 20
17.0590282171
 10
38.8526667246
 20
17.0043346895
 10
38.849747799
 20
16.948636275
 10
38.8526667417
 20
16.8929370994
 10
38.8613725217
 20
16.8382358473
 10
38.8757788551
 20
16.7848937866
 10
38.8957696984
 20
16.7333348514
 10
38.9211778079
 20
16.6840416895
 10
38.9517657729
 20
16.637542963
 10
38.9872134969
 20
16.5943918677
 10
39.0206977965
 20
16.5609091662
 10
39.0638511691
 20
16.5254629669
 10
39.1103526832
 20
16.4948761324
 10
39.1596492122
 20
16.4694688009
 10
39.2112121678
 20
16.4494784358
 10
39.2645589734
 20
16.4350723457
 10
39.3192657573
 20
16.4263666507
 10
39.3749713015
 20
16.4234477176
 10
39.4044823625
 20
16.424915408
 10
40.5265841108
 20
16.424915408
 10
40.4913509366
 20
16.3415980407
 10
40.4594477637
 20
16.2770854668
 10
40.4151466579
 20
16.1995014412
 10
40.366145675
 20
16.1255898977
 10
40.3126900109
 20
16.0556316455
 10
40.2550365893
 20
15.9898854398
 10
40.1934490944
 20
15.9285854192
 10
40.128192788
 20
15.8719398934
 10
40.0595294626
 20
15.8201315114
 10
39.9877128469
 20
15.7733187211
 10
39.9129847179
 20
15.7316383337
 10
39.8355718904
 20
15.6952089419
 10
39.755684168
 20
15.6641349032
 10
39.6735132606
 20
15.6385105978
 10
39.5892326057
 20
15.6184246961
 10
39.5029979781
 20
15.6039642082
 10
39.4149487452
 20
15.5952181424
 10
39.325209607
 20
15.5922806513
 10
39.2355246741
 20
15.5952181597
 10
39.147379893
 20
15.603970788
 10
39.0609154036
 20
15.6184528556
 10
38.9762874899
 20
15.6385817939
 10
38.8936701245
 20
15.6642746408
 10
38.8132559278
 20
15.6954440782
 10
38.7352563823
 20
15.7319941646
 10
38.6599011619
 20
15.7738159691
 10
38.5874364791
 20
15.8207833633
 10
38.5181224145
 20
15.8727492605
 10
38.4522292715
 20
15.9295426064
 10
38.3900330896
 20
15.9909664033
 10
38.3318105404
 20
16.0567969985
 10
38.2778335125
 20
16.1267847785
 10
38.2283637461
 20
16.2006562965
 10
38.2007004452
 20
16.2471588469
 10
38.1590193655
 20
16.3265540724
 10
38.1224682991
 20
16.4089478298
 10
38.0912192352
 20
16.4940166173
 10
38.0654199926
 20
16.5814401565
 10
38.0451955327
 20
16.670906237
 10
38.0306502371
 20
16.7621147381
 10
38.0218709019
 20
16.8547806822
 10
38.0189301828
 20
16.948636275
 10
38.0218709019
 20
17.0424878164
 10
38.0306502772
 20
17.1351507043
 10
38.0451957073
 20
17.2263570685
 10
38.0654204406
 20
17.3158218423
 10
38.0912201279
 20
17.4032448041
 10
38.1224698255
 20
17.488313633
 10
38.1590217171
 20
17.5707079342
 10
38.2007037996
 20
17.6501040869
 10
38.2283675406
 20
17.696606947
 10
38.277838454
 20
17.7704797158
 10
38.3318166582
 20
17.8404688053
 10
38.3900403491
 20
17.9063006883
 10
38.4522375711
 20
17.967725688
 10
38.5181315872
 20
18.0245201062
 10
38.5874462969
 20
18.0764869164
 10
38.6599113432
 20
18.123455052
 10
38.7352666017
 20
18.1652774276
 10
38.8132658268
 20
18.201827927
 10
38.8936793232
 20
18.23299764
 10
38.9762955983
 20
18.2586906511
 10
39.0609220322
 20
18.278819671
 10
39.1473846631
 20
18.2933017661
 10
39.2355272259
 20
18.3020543945
 10
39.325209607
 20
18.3049918987
 10
39.4149365439
 20
18.3020544131
 10
39.5029734214
 20
18.2933083785
 10
39.5891960067
 20
18.2788479206
 10
39.6734653971
 20
18.2587619536
 10
39.7556262694
 20
18.2331373267
 10
39.8355056123
 20
18.2020624855
 10
39.9129121035
 20
18.1656315284
 10
39.9876362746
 20
18.1239484834
 10
40.0594515802
 20
18.0771315814
 10
40.1281164349
 20
18.0253172569
 10
40.1933772146
 20
17.9686635872
 10
40.2549721386
 20
17.9073528812
 10
40.3126358639
 20
17.841593163
 10
40.3661045366
 20
17.7716183634
 10
40.4058840457
 20
17.7124643067
 10
41.4479617207
 20
18.4876494667
 10
41.3734770861
 20
18.5879058888
 10
41.2943541279
 20
18.6844674993
 10
41.2914589112
 20
18.6878285733
 10
41.2077514915
 20
18.7802996005
 10
41.1198655911
 20
18.8685574361
 10
41.0280212034
 20
18.9523990572
 10
40.9324447999
 20
19.0316356003
 10
40.8333668456
 20
19.1060934761
 10
40.7310192755
 20
19.1756150255
 10
40.625633026
 20
19.2400587094
 10
40.5174357062
 20
19.2992988505
 10
40.4066494816
 20
19.3532249596
 10
40.2934892273
 20
19.4017407004
 10
40.1781609914
 20
19.4447625529
 10
40.0608607892
 20
19.482218245
 10
39.9417737372
 20
19.5140450217
 10
39.821073518
 20
19.5401878208
 10
39.6989221568
 20
19.5605974194
 10
39.5754700828
 20
19.5752286056
 10
39.4508564394
 20
19.5840384253
 10
39.325209607
 20
19.5869845409
 10
39.199488731
 20
19.5840383596
 10
39.0747976564
 20
19.57522822
 10
38.9512665387
 20
19.5605964044
 10
38.8290363021
 20
19.540185986
 10
38.708259136
 20
19.5140424692
 10
38.5890987779
 20
19.4822155382
 10
38.4717305434
 20
19.4447608739
 10
38.35634107
 20
19.401741992
 10
38.2431277488
 20
19.3532320435
 10
38.1322978253
 20
19.2993155166
 10
38.0240671625
 20
19.2400897696
 10
37.9186586773
 20
19.1756663263
 10
37.8163004712
 20
19.106171866
 10
37.7172237003
 20
19.0317488482
 10
37.6216602401
 20
18.9525557217
 10
37.5298402212
 20
18.8687666863
 10
37.4419895201
 20
18.7805709927
 10
37.3583272998
 20
18.6881717888
 10
37.3501673105
 20
18.6786710694
 10
37.2714018044
 20
18.5819541482
 10
37.1972927607
 20
18.4815667131
 10
37.1280140058
 20
18.3777471017
 10
37.0637243054
 20
18.2707369036
 10
37.0045668818
 20
18.1607784185
 10
36.9506693771
 20
18.0481122036
 10
36.902144239
 20
17.9329747922
 10
36.8590894875
 20
17.8155966508
 10
36.8215898099
 20
17.6962004267
 10
36.7897179198
 20
17.5749995164
 10
36.7635361134
 20
17.4521969736
 10
36.7430979567
 20
17.3279847557
 10
36.7284500383
 20
17.2025432958
 10
36.7196337304
 20
17.0760413765
 10
36.7166869073
 20
16.948636275
 10
36.7196337304
 20
16.8212399484
 10
36.7284500743
 20
16.6947455934
 10
36.7430981163
 20
16.5693105348
 10
36.7635365318
 20
16.4451036113
 10
36.7897187744
 20
16.3223053201
 10
36.8215913139
 20
16.2011076908
 10
36.8590918817
 20
16.0817138574
 10
36.9021477832
 20
15.9643373027
 10
36.9506743404
 20
15.8492007661
 10
37.0045735321
 20
15.7365348104
 10
37.063732899
 20
15.6265760677
 10
37.1280247769
 20
15.5195651943
 10
37.197305911
 20
15.415744588
 10
37.2714174943
 20
15.3153559329
 10
37.3501856506
 20
15.218637656
 10
37.3583341602
 20
15.2091504104
 10
37.4419983291
 20
15.1167493514
 10
37.5298509497
 20
15.0285518167
 10
37.6216727966
 20
14.9447610098
 10
37.7172379313
 20
14.865566226
 10
37.816316164
 20
14.7911416986
 10
37.9186755643
 20
14.7216458992
 10
38.0240849271
 20
14.6572212999
 10
38.1323161082
 20
14.5979945835
 10
38.2431461563
 20
14.5440772696
 10
38.3563591815
 20
14.4955667052
  0
LWPOLYLINE
  5
25E
100
AcDbEntity
  8
0
100
AcDbPolyline
 62
2
  6
CONTINUOUS
 90
48
 70
0
 10
38.3563591815
 20
14.4955667052
 10
38.47174792
 20
14.4525473624
 10
38.5891149704
 20
14.415092372
 10
38.7082736929
 20
14.3832652269
 10
38.8290487768
 20
14.3571215844
 10
38.9512764964
 20
14.3367111048
 10
39.07480468
 20
14.3220792697
 10
39.1994924263
 20
14.3132691314
 10
39.325209607
 20
14.3103229542
 10
39.450924013
 20
14.3132691314
 10
39.5756097097
 20
14.3220792918
 10
39.6991365313
 20
14.3367112022
 10
39.8213635343
 20
14.3571218382
 10
39.9421384997
 20
14.3832657415
 10
40.0612976505
 20
14.4150932706
 10
40.1786656207
 20
14.4525487814
 10
40.2940557115
 20
14.4955687881
 10
40.4072704599
 20
14.5440801602
 10
40.5181025387
 20
14.5979984195
 10
40.6263359939
 20
14.6572262054
 10
40.73174781
 20
14.7216519784
 10
40.8341097806
 20
14.7911490288
 10
40.9331906411
 20
14.8655748522
 10
41.0287584055
 20
14.9447709394
 10
41.1205828337
 20
15.0285630155
 10
41.208437943
 20
15.1167617411
 10
41.2921044707
 20
15.2091638674
 10
41.300260052
 20
15.2186592177
 10
41.3790298407
 20
15.3153784826
 10
41.4531428665
 20
15.4157678577
 10
41.5224252471
 20
15.5195888793
 10
41.5867181763
 20
15.6265998318
 10
41.6458784067
 20
15.7365582923
 10
41.6997782864
 20
15.8492235858
 10
41.7483053726
 20
15.9643590689
 10
41.7913616636
 20
16.0817341739
 10
41.8288625029
 20
16.2011261641
 10
41.8607352182
 20
16.3223215648
 10
41.8869175632
 20
16.4451172569
 10
41.9073560285
 20
16.5693212303
 10
41.9220040871
 20
16.6947530121
 10
41.9308204311
 20
16.8212437916
 10
41.9337672517
 20
16.948636275
 10
41.9308236876
 20
17.0755906116
 10
41.9220110814
 20
17.2018461156
 10
41.907356161
 20
17.3272737368
 10
41.8868867235
 20
17.4517301336
 10
41.8823281968
 20
17.4753274679
  0
LWPOLYLINE
  5
25F
100
AcDbEntity
  8
0
100
AcDbPolyline
 62
2
  6
CONTINUOUS
 90
7
 70
0
 10
48.3545634155
 20
20.6063304868
 10
48.6135025194
 20
20.5481472868
 10
35.1833440306
 20
20.3804003931
 10
35.396764878
 20
20.5481472868
 10
35.6557039818
 20
20.6063304868
 10
36.976385363
 20
20.6063304868
 10
48.3545634155
 20
20.6063304868
  0
HATCH
  5
260
100
AcDbEntity
  8
0
100
AcDbHatch
 62
2
  6
CONTINUOUS
 10
0.0
 20
0.0
 30
0.0
210
0.0
220
0.0
230
1.0
  2
SOLID
 70
1
 71
1
 91
1
 92
1
 93
6
 72
1
 10
48.3545634155
 20
20.6063304868
 11
48.6135025194
 21
20.5481472868
 72
1
 10
48.6135025194
 20
20.5481472868
 11
35.1833440306
 21
20.3804003931
 72
1
 10
35.1833440306
 20
20.3804003931
 11
35.396764878
 21
20.5481472868
 72
1
 10
35.396764878
 20
20.5481472868
 11
35.6557039818
 21
20.6063304868
 72
1
 10
35.6557039818
 20
20.6063304868
 11
36.976385363
 21
20.6063304868
 72
1
 10
36.976385363
 20
20.6063304868
 11
48.3545634155
 21
20.6063304868
 97
1
330
25F
 75
0
 76
1
 98
1
 10
0.0
 20
0.0
  0
LWPOLYLINE
  5
261
100
AcDbEntity
  8
0
100
AcDbPolyline
 62
2
  6
CONTINUOUS
 90
18
 70
0
 10
48.7372356185
 20
20.4700881413
 10
48.9049797998
 20
20.2566696868
 10
48.9631657122
 20
19.9977288868
 10
39.325209607
 20
19.5869845409
 10
38.9334803387
 20
19.5579960868
 10
38.5550040651
 20
19.471971883
 10
38.1947230793
 20
19.3304912714
 10
37.8586654322
 20
19.1358046711
 10
37.5537188479
 20
18.8913367601
 10
37.4119396722
 20
18.7483930295
 10
37.1682265858
 20
18.4393007054
 10
36.9735692326
 20
18.0976677811
 10
35.0471016852
 20
14.6371435057
 10
35.0471016852
 20
19.9977288868
 10
35.1052875976
 20
20.2566696868
 10
35.1833440306
 20
20.3804003931
 10
48.6135025194
 20
20.5481472868
 10
48.7372356185
 20
20.4700881413
  0
HATCH
  5
262
100
AcDbEntity
  8
0
100
AcDbHatch
 62
2
  6
CONTINUOUS
 10
0.0
 20
0.0
 30
0.0
210
0.0
220
0.0
230
1.0
  2
SOLID
 70
1
 71
1
 91
1
 92
1
 93
17
 72
1
 10
48.7372356185
 20
20.4700881413
 11
48.9049797998
 21
20.2566696868
 72
1
 10
48.9049797998
 20
20.2566696868
 11
48.9631657122
 21
19.9977288868
 72
1
 10
48.9631657122
 20
19.9977288868
 11
39.325209607
 21
19.5869845409
 72
1
 10
39.325209607
 20
19.5869845409
 11
38.9334803387
 21
19.5579960868
 72
1
 10
38.9334803387
 20
19.5579960868
 11
38.5550040651
 21
19.471971883
 72
1
 10
38.5550040651
 20
19.471971883
 11
38.1947230793
 21
19.3304912714
 72
1
 10
38.1947230793
 20
19.3304912714
 11
37.8586654322
 21
19.1358046711
 72
1
 10
37.8586654322
 20
19.1358046711
 11
37.5537188479
 21
18.8913367601
 72
1
 10
37.5537188479
 20
18.8913367601
 11
37.4119396722
 21
18.7483930295
 72
1
 10
37.4119396722
 20
18.7483930295
 11
37.1682265858
 21
18.4393007054
 72
1
 10
37.1682265858
 20
18.4393007054
 11
36.9735692326
 21
18.0976677811
 72
1
 10
36.9735692326
 20
18.0976677811
 11
35.0471016852
 21
14.6371435057
 72
1
 10
35.0471016852
 20
14.6371435057
 11
35.0471016852
 21
19.9977288868
 72
1
 10
35.0471016852
 20
19.9977288868
 11
35.1052875976
 21
20.2566696868
 72
1
 10
35.1052875976
 20
20.2566696868
 11
35.1833440306
 21
20.3804003931
 72
1
 10
35.1833440306
 20
20.3804003931
 11
48.6135025194
 21
20.5481472868
 72
1
 10
48.6135025194
 20
20.5481472868
 11
48.7372356185
 21
20.4700881413
 97
1
330
261
 75
0
 76
1
 98
1
 10
0.0
 20
0.0
  0
LWPOLYLINE
  5
263
100
AcDbEntity
  8
0
100
AcDbPolyline
 62
2
  6
CONTINUOUS
 90
37
 70
0
 10
39.325209607
 20
19.5869845409
 10
48.9631657122
 20
19.9977288868
 10
48.9631657122
 20
19.3755174678
 10
48.9631657122
 20
14.0149320868
 10
46.4752842789
 20
15.2498839876
 10
46.6058234665
 20
15.5339693186
 10
46.6851487731
 20
15.8341419967
 10
46.7118334337
 20
16.1446560868
 10
46.7118334337
 20
16.2760488868
 10
46.7118334337
 20
19.4367912868
 10
45.4248786001
 20
19.4367912868
 10
45.4248786001
 20
16.2760488868
 10
45.4290021113
 20
16.1446560868
 10
44.322400757
 20
15.9796854106
 10
44.2963644425
 20
16.1446560868
 10
44.28776797
 20
16.2760488868
 10
44.28776797
 20
19.4367912868
 10
43.0008131365
 20
19.4367912868
 10
43.0008131365
 20
17.4753240868
 10
42.160403115
 20
17.4753240868
 10
42.1817813755
 20
17.3392843749
 10
42.2080506363
 20
16.9486368868
 10
41.9047597321
 20
16.551295021
 10
41.9337672517
 20
16.9486368868
 10
41.9048627125
 20
17.3446039815
 10
41.8823281968
 20
17.4753240868
 10
41.0738928596
 20
17.4753240868
 10
40.5255008154
 20
17.4753240868
 10
40.4058840457
 20
17.7124643067
 10
41.4479617207
 20
18.4876494667
 10
41.1970647502
 20
18.7914885541
 10
41.0958813666
 20
18.8912338875
 10
40.790930515
 20
19.1357894408
 10
40.4549870227
 20
19.3305032225
 10
40.0949125483
 20
19.4719814385
 10
39.7166905268
 20
19.5579960868
 10
39.325209607
 20
19.5869845409
  0
HATCH
  5
264
100
AcDbEntity
  8
0
100
AcDbHatch
 62
2
  6
CONTINUOUS
 10
0.0
 20
0.0
 30
0.0
210
0.0
220
0.0
230
1.0
  2
SOLID
 70
1
 71
1
 91
1
 92
1
 93
36
 72
1
 10
39.325209607
 20
19.5869845409
 11
48.9631657122
 21
19.9977288868
 72
1
 10
48.9631657122
 20
19.9977288868
 11
48.9631657122
 21
19.3755174678
 72
1
 10
48.9631657122
 20
19.3755174678
 11
48.9631657122
 21
14.0149320868
 72
1
 10
48.9631657122
 20
14.0149320868
 11
46.4752842789
 21
15.2498839876
 72
1
 10
46.4752842789
 20
15.2498839876
 11
46.6058234665
 21
15.5339693186
 72
1
 10
46.6058234665
 20
15.5339693186
 11
46.6851487731
 21
15.8341419967
 72
1
 10
46.6851487731
 20
15.8341419967
 11
46.7118334337
 21
16.1446560868
 72
1
 10
46.7118334337
 20
16.1446560868
 11
46.7118334337
 21
16.2760488868
 72
1
 10
46.7118334337
 20
16.2760488868
 11
46.7118334337
 21
19.4367912868
 72
1
 10
46.7118334337
 20
19.4367912868
 11
45.4248786001
 21
19.4367912868
 72
1
 10
45.4248786001
 20
19.4367912868
 11
45.4248786001
 21
16.2760488868
 72
1
 10
45.4248786001
 20
16.2760488868
 11
45.4290021113
 21
16.1446560868
 72
1
 10
45.4290021113
 20
16.1446560868
 11
44.322400757
 21
15.9796854106
 72
1
 10
44.322400757
 20
15.9796854106
 11
44.2963644425
 21
16.1446560868
 72
1
 10
44.2963644425
 20
16.1446560868
 11
44.28776797
 21
16.2760488868
 72
1
 10
44.28776797
 20
16.2760488868
 11
44.28776797
 21
19.4367912868
 72
1
 10
44.28776797
 20
19.4367912868
 11
43.0008131365
 21
19.4367912868
 72
1
 10
43.0008131365
 20
19.4367912868
 11
43.0008131365
 21
17.4753240868
 72
1
 10
43.0008131365
 20
17.4753240868
 11
42.160403115
 21
17.4753240868
 72
1
 10
42.160403115
 20
17.4753240868
 11
42.1817813755
 21
17.3392843749
 72
1
 10
42.1817813755
 20
17.3392843749
 11
42.2080506363
 21
16.9486368868
 72
1
 10
42.2080506363
 20
16.9486368868
 11
41.9047597321
 21
16.551295021
 72
1
 10
41.9047597321
 20
16.551295021
 11
41.9337672517
 21
16.9486368868
 72
1
 10
41.9337672517
 20
16.9486368868
 11
41.9048627125
 21
17.3446039815
 72
1
 10
41.9048627125
 20
17.3446039815
 11
41.8823281968
 21
17.4753240868
 72
1
 10
41.8823281968
 20
17.4753240868
 11
41.0738928596
 21
17.4753240868
 72
1
 10
41.0738928596
 20
17.4753240868
 11
40.5255008154
 21
17.4753240868
 72
1
 10
40.5255008154
 20
17.4753240868
 11
40.4058840457
 21
17.7124643067
 72
1
 10
40.4058840457
 20
17.7124643067
 11
41.4479617207
 21
18.4876494667
 72
1
 10
41.4479617207
 20
18.4876494667
 11
41.1970647502
 21
18.7914885541
 72
1
 10
41.1970647502
 20
18.7914885541
 11
41.0958813666
 21
18.8912338875
 72
1
 10
41.0958813666
 20
18.8912338875
 11
40.790930515
 21
19.1357894408
 72
1
 10
40.790930515
 20
19.1357894408
 11
40.4549870227
 21
19.3305032225
 72
1
 10
40.4549870227
 20
19.3305032225
 11
40.0949125483
 21
19.4719814385
 72
1
 10
40.0949125483
 20
19.4719814385
 11
39.7166905268
 21
19.5579960868
 72
1
 10
39.7166905268
 20
19.5579960868
 11
39.325209607
 21
19.5869845409
 97
1
330
263
 75
0
 76
1
 98
1
 10
0.0
 20
0.0
  0
SOLID
  5
265
100
AcDbEntity
  8
0
100
AcDbTrace
 62
2
  6
CONTINUOUS
 10
39.325209607
 20
18.3049918987
 11
39.6015515005
 21
18.2762808868
 12
39.0486742656
 22
18.2762808868
 13
38.7909051555
 23
18.1920110388
  0
LWPOLYLINE
  5
266
100
AcDbEntity
  8
0
100
AcDbPolyline
 62
2
  6
CONTINUOUS
 90
14
 70
0
 10
39.8579130326
 20
18.1921822192
 10
40.0891502471
 20
18.0556253582
 10
40.2884401432
 20
17.8702844777
 10
40.4058840457
 20
17.7124643067
 10
40.5255008154
 20
17.4753240868
 10
39.3703760326
 20
17.4753240868
 10
38.0477447543
 20
17.2392773781
 10
38.1325818034
 20
17.5126161474
 10
38.1953316196
 20
17.6405558557
 10
38.3562755347
 20
17.8692181101
 10
38.5576291346
 20
18.055033615
 10
38.7909051555
 20
18.1920110388
 10
39.6015515005
 20
18.2762808868
 10
39.8579130326
 20
18.1921822192
  0
HATCH
  5
267
100
AcDbEntity
  8
0
100
AcDbHatch
 62
2
  6
CONTINUOUS
 10
0.0
 20
0.0
 30
0.0
210
0.0
220
0.0
230
1.0
  2
SOLID
 70
1
 71
1
 91
1
 92
1
 93
13
 72
1
 10
39.8579130326
 20
18.1921822192
 11
40.0891502471
 21
18.0556253582
 72
1
 10
40.0891502471
 20
18.0556253582
 11
40.2884401432
 21
17.8702844777
 72
1
 10
40.2884401432
 20
17.8702844777
 11
40.4058840457
 21
17.7124643067
 72
1
 10
40.4058840457
 20
17.7124643067
 11
40.5255008154
 21
17.4753240868
 72
1
 10
40.5255008154
 20
17.4753240868
 11
39.3703760326
 21
17.4753240868
 72
1
 10
39.3703760326
 20
17.4753240868
 11
38.0477447543
 21
17.2392773781
 72
1
 10
38.0477447543
 20
17.2392773781
 11
38.1325818034
 21
17.5126161474
 72
1
 10
38.1325818034
 20
17.5126161474
 11
38.1953316196
 21
17.6405558557
 72
1
 10
38.1953316196
 20
17.6405558557
 11
38.3562755347
 21
17.8692181101
 72
1
 10
38.3562755347
 20
17.8692181101
 11
38.5576291346
 21
18.055033615
 72
1
 10
38.5576291346
 20
18.055033615
 11
38.7909051555
 21
18.1920110388
 72
1
 10
38.7909051555
 20
18.1920110388
 11
39.6015515005
 21
18.2762808868
 72
1
 10
39.6015515005
 20
18.2762808868
 11
39.8579130326
 21
18.1921822192
 97
1
330
266
 75
0
 76
1
 98
1
 10
0.0
 20
0.0
  0
LWPOLYLINE
  5
268
100
AcDbEntity
  8
0
100
AcDbPolyline
 62
2
  6
CONTINUOUS
 90
10
 70
0
 10
38.9600917894
 20
17.2706650389
 10
38.8778731999
 20
17.1186159758
 10
38.849747799
 20
16.9486368868
 10
38.0477447543
 20
16.6579846804
 10
38.0189301828
 20
16.9486368868
 10
38.0477447543
 20
17.2392773781
 10
39.3703760326
 20
17.4753240868
 10
39.2006281149
 20
17.4440361074
 10
39.0491376174
 20
17.360461771
 10
38.9600917894
 20
17.2706650389
  0
HATCH
  5
269
100
AcDbEntity
  8
0
100
AcDbHatch
 62
2
  6
CONTINUOUS
 10
0.0
 20
0.0
 30
0.0
210
0.0
220
0.0
230
1.0
  2
SOLID
 70
1
 71
1
 91
1
 92
1
 93
9
 72
1
 10
38.9600917894
 20
17.2706650389
 11
38.8778731999
 21
17.1186159758
 72
1
 10
38.8778731999
 20
17.1186159758
 11
38.849747799
 21
16.9486368868
 72
1
 10
38.849747799
 20
16.9486368868
 11
38.0477447543
 21
16.6579846804
 72
1
 10
38.0477447543
 20
16.6579846804
 11
38.0189301828
 21
16.9486368868
 72
1
 10
38.0189301828
 20
16.9486368868
 11
38.0477447543
 21
17.2392773781
 72
1
 10
38.0477447543
 20
17.2392773781
 11
39.3703760326
 21
17.4753240868
 72
1
 10
39.3703760326
 20
17.4753240868
 11
39.2006281149
 21
17.4440361074
 72
1
 10
39.2006281149
 20
17.4440361074
 11
39.0491376174
 21
17.360461771
 72
1
 10
39.0491376174
 20
17.360461771
 11
38.9600917894
 21
17.2706650389
 97
1
330
268
 75
0
 76
1
 98
1
 10
0.0
 20
0.0
  0
SOLID
  5
26A
100
AcDbEntity
  8
0
100
AcDbTrace
 62
2
  6
CONTINUOUS
 10
39.3703760326
 20
17.4736151624
 11
39.2006281149
 21
17.4440361074
 12
39.3703760326
 22
17.4753240868
 13
39.3703760326
 23
17.4753240868
  0
LWPOLYLINE
  5
26B
100
AcDbEntity
  8
0
100
AcDbPolyline
 62
2
  6
CONTINUOUS
 90
6
 70
0
 10
38.8778737393
 20
16.7786383446
 10
38.9601041265
 20
16.6265254914
 10
38.1325807139
 20
16.3846438879
 10
38.0477447543
 20
16.6579846804
 10
38.849747799
 20
16.9486368868
 10
38.8778737393
 20
16.7786383446
  0
HATCH
  5
26C
100
AcDbEntity
  8
0
100
AcDbHatch
 62
2
  6
CONTINUOUS
 10
0.0
 20
0.0
 30
0.0
210
0.0
220
0.0
230
1.0
  2
SOLID
 70
1
 71
1
 91
1
 92
1
 93
5
 72
1
 10
38.8778737393
 20
16.7786383446
 11
38.9601041265
 21
16.6265254914
 72
1
 10
38.9601041265
 20
16.6265254914
 11
38.1325807139
 21
16.3846438879
 72
1
 10
38.1325807139
 20
16.3846438879
 11
38.0477447543
 21
16.6579846804
 72
1
 10
38.0477447543
 20
16.6579846804
 11
38.849747799
 21
16.9486368868
 72
1
 10
38.849747799
 20
16.9486368868
 11
38.8778737393
 21
16.7786383446
 97
1
330
26B
 75
0
 76
1
 98
1
 10
0.0
 20
0.0
  0
LWPOLYLINE
  5
26D
100
AcDbEntity
  8
0
100
AcDbPolyline
 62
2
  6
CONTINUOUS
 90
6
 70
0
 10
42.1817998473
 20
16.5582257528
 10
42.1609272902
 20
16.4249160868
 10
41.8185823915
 20
16.1663693064
 10
41.9047597321
 20
16.551295021
 10
42.2080506363
 20
16.9486368868
 10
42.1817998473
 20
16.5582257528
  0
HATCH
  5
26E
100
AcDbEntity
  8
0
100
AcDbHatch
 62
2
  6
CONTINUOUS
 10
0.0
 20
0.0
 30
0.0
210
0.0
220
0.0
230
1.0
  2
SOLID
 70
1
 71
1
 91
1
 92
1
 93
5
 72
1
 10
42.1817998473
 20
16.5582257528
 11
42.1609272902
 21
16.4249160868
 72
1
 10
42.1609272902
 20
16.4249160868
 11
41.8185823915
 21
16.1663693064
 72
1
 10
41.8185823915
 20
16.1663693064
 11
41.9047597321
 21
16.551295021
 72
1
 10
41.9047597321
 20
16.551295021
 11
42.2080506363
 21
16.9486368868
 72
1
 10
42.2080506363
 20
16.9486368868
 11
42.1817998473
 21
16.5582257528
 97
1
330
26D
 75
0
 76
1
 98
1
 10
0.0
 20
0.0
  0
LWPOLYLINE
  5
26F
100
AcDbEntity
  8
0
100
AcDbPolyline
 62
2
  6
CONTINUOUS
 90
16
 70
0
 10
39.3749713015
 20
16.4234477176
 10
39.4044823625
 20
16.4249160868
 10
40.5265841108
 20
16.4249160868
 10
40.4477844956
 20
16.255468722
 10
40.2885110803
 20
16.0269603376
 10
40.0892358138
 20
15.8416414042
 10
39.8579848288
 20
15.7050904278
 10
39.6015902951
 20
15.6209928868
 10
39.325209607
 20
15.5922806513
 10
39.0486666225
 20
15.6209928868
 10
38.7908934768
 20
15.7052616083
 10
38.5576172154
 20
15.8422380361
 10
38.3562663537
 20
16.0280511814
 10
38.1953264356
 20
16.2567104668
 10
38.1325807139
 20
16.3846438879
 10
39.3749713015
 20
16.4234477176
  0
HATCH
  5
270
100
AcDbEntity
  8
0
100
AcDbHatch
 62
2
  6
CONTINUOUS
 10
0.0
 20
0.0
 30
0.0
210
0.0
220
0.0
230
1.0
  2
SOLID
 70
1
 71
1
 91
1
 92
1
 93
15
 72
1
 10
39.3749713015
 20
16.4234477176
 11
39.4044823625
 21
16.4249160868
 72
1
 10
39.4044823625
 20
16.4249160868
 11
40.5265841108
 21
16.4249160868
 72
1
 10
40.5265841108
 20
16.4249160868
 11
40.4477844956
 21
16.255468722
 72
1
 10
40.4477844956
 20
16.255468722
 11
40.2885110803
 21
16.0269603376
 72
1
 10
40.2885110803
 20
16.0269603376
 11
40.0892358138
 21
15.8416414042
 72
1
 10
40.0892358138
 20
15.8416414042
 11
39.8579848288
 21
15.7050904278
 72
1
 10
39.8579848288
 20
15.7050904278
 11
39.6015902951
 21
15.6209928868
 72
1
 10
39.6015902951
 20
15.6209928868
 11
39.325209607
 21
15.5922806513
 72
1
 10
39.325209607
 20
15.5922806513
 11
39.0486666225
 21
15.6209928868
 72
1
 10
39.0486666225
 20
15.6209928868
 11
38.7908934768
 21
15.7052616083
 72
1
 10
38.7908934768
 20
15.7052616083
 11
38.5576172154
 21
15.8422380361
 72
1
 10
38.5576172154
 20
15.8422380361
 11
38.3562663537
 21
16.0280511814
 72
1
 10
38.3562663537
 20
16.0280511814
 11
38.1953264356
 21
16.2567104668
 72
1
 10
38.1953264356
 20
16.2567104668
 11
38.1325807139
 21
16.3846438879
 72
1
 10
38.1325807139
 20
16.3846438879
 11
39.3749713015
 21
16.4234477176
 97
1
330
26F
 75
0
 76
1
 98
1
 10
0.0
 20
0.0
  0
LWPOLYLINE
  5
271
100
AcDbEntity
  8
0
100
AcDbPolyline
 62
2
  6
CONTINUOUS
 90
6
 70
0
 10
39.3749713015
 20
16.4234477176
 10
38.1325807139
 20
16.3846438879
 10
38.9601041265
 20
16.6265254914
 10
39.0528329113
 20
16.533801119
 10
39.2049559764
 20
16.4515733563
 10
39.3749713015
 20
16.4234477176
  0
HATCH
  5
272
100
AcDbEntity
  8
0
100
AcDbHatch
 62
2
  6
CONTINUOUS
 10
0.0
 20
0.0
 30
0.0
210
0.0
220
0.0
230
1.0
  2
SOLID
 70
1
 71
1
 91
1
 92
1
 93
5
 72
1
 10
39.3749713015
 20
16.4234477176
 11
38.1325807139
 21
16.3846438879
 72
1
 10
38.1325807139
 20
16.3846438879
 11
38.9601041265
 21
16.6265254914
 72
1
 10
38.9601041265
 20
16.6265254914
 11
39.0528329113
 21
16.533801119
 72
1
 10
39.0528329113
 20
16.533801119
 11
39.2049559764
 21
16.4515733563
 72
1
 10
39.2049559764
 20
16.4515733563
 11
39.3749713015
 21
16.4234477176
 97
1
330
271
 75
0
 76
1
 98
1
 10
0.0
 20
0.0
  0
LWPOLYLINE
  5
273
100
AcDbEntity
  8
0
100
AcDbPolyline
 62
2
  6
CONTINUOUS
 90
7
 70
0
 10
43.0008131365
 20
16.2760488868
 10
43.0008131365
 20
16.1446560868
 10
41.6768798735
 20
15.7996736415
 10
41.8185823915
 20
16.1663693064
 10
42.1609272902
 20
16.4249160868
 10
43.0008131365
 20
16.4249160868
 10
43.0008131365
 20
16.2760488868
  0
HATCH
  5
274
100
AcDbEntity
  8
0
100
AcDbHatch
 62
2
  6
CONTINUOUS
 10
0.0
 20
0.0
 30
0.0
210
0.0
220
0.0
230
1.0
  2
SOLID
 70
1
 71
1
 91
1
 92
1
 93
6
 72
1
 10
43.0008131365
 20
16.2760488868
 11
43.0008131365
 21
16.1446560868
 72
1
 10
43.0008131365
 20
16.1446560868
 11
41.6768798735
 21
15.7996736415
 72
1
 10
41.6768798735
 20
15.7996736415
 11
41.8185823915
 21
16.1663693064
 72
1
 10
41.8185823915
 20
16.1663693064
 11
42.1609272902
 21
16.4249160868
 72
1
 10
42.1609272902
 20
16.4249160868
 11
43.0008131365
 21
16.4249160868
 72
1
 10
43.0008131365
 20
16.4249160868
 11
43.0008131365
 21
16.2760488868
 97
1
330
273
 75
0
 76
1
 98
1
 10
0.0
 20
0.0
  0
LWPOLYLINE
  5
275
100
AcDbEntity
  8
0
100
AcDbPolyline
 62
2
  6
CONTINUOUS
 90
13
 70
0
 10
45.4030133467
 20
15.9826031108
 10
45.3262264998
 20
15.8331418082
 10
45.2025553488
 20
15.7084443367
 10
45.186082282
 20
15.6966487652
 10
45.0277617393
 20
15.6193512868
 10
44.8577210855
 20
15.5932591116
 10
44.6886683179
 20
15.6193512868
 10
44.5333788168
 20
15.6962400335
 10
44.5216408071
 20
15.7047097411
 10
44.3990292504
 20
15.828830204
 10
44.322400757
 20
15.9796854106
 10
45.4290021113
 20
16.1446560868
 10
45.4030133467
 20
15.9826031108
  0
HATCH
  5
276
100
AcDbEntity
  8
0
100
AcDbHatch
 62
2
  6
CONTINUOUS
 10
0.0
 20
0.0
 30
0.0
210
0.0
220
0.0
230
1.0
  2
SOLID
 70
1
 71
1
 91
1
 92
1
 93
12
 72
1
 10
45.4030133467
 20
15.9826031108
 11
45.3262264998
 21
15.8331418082
 72
1
 10
45.3262264998
 20
15.8331418082
 11
45.2025553488
 21
15.7084443367
 72
1
 10
45.2025553488
 20
15.7084443367
 11
45.186082282
 21
15.6966487652
 72
1
 10
45.186082282
 20
15.6966487652
 11
45.0277617393
 21
15.6193512868
 72
1
 10
45.0277617393
 20
15.6193512868
 11
44.8577210855
 21
15.5932591116
 72
1
 10
44.8577210855
 20
15.5932591116
 11
44.6886683179
 21
15.6193512868
 72
1
 10
44.6886683179
 20
15.6193512868
 11
44.5333788168
 21
15.6962400335
 72
1
 10
44.5333788168
 20
15.6962400335
 11
44.5216408071
 21
15.7047097411
 72
1
 10
44.5216408071
 20
15.7047097411
 11
44.3990292504
 21
15.828830204
 72
1
 10
44.3990292504
 20
15.828830204
 11
44.322400757
 21
15.9796854106
 72
1
 10
44.322400757
 20
15.9796854106
 11
45.4290021113
 21
16.1446560868
 72
1
 10
45.4290021113
 20
16.1446560868
 11
45.4030133467
 21
15.9826031108
 97
1
330
275
 75
0
 76
1
 98
1
 10
0.0
 20
0.0
  0
LWPOLYLINE
  5
277
100
AcDbEntity
  8
0
100
AcDbPolyline
 62
2
  6
CONTINUOUS
 90
13
 70
0
 10
43.0275070267
 20
15.8323395089
 10
43.1068139436
 20
15.5307973706
 10
43.237192875
 20
15.2459281004
 10
43.4159117633
 20
14.9850893018
 10
43.6383386229
 20
14.7565471656
 10
40.4556712576
 20
14.5668192868
 10
40.7917377552
 20
14.7615072868
 10
41.096697622
 20
15.0059870805
 10
41.2384895038
 20
15.1489409451
 10
41.4822144736
 20
15.4580403019
 10
41.6768798735
 20
15.7996736415
 10
43.0008131365
 20
16.1446560868
 10
43.0275070267
 20
15.8323395089
  0
HATCH
  5
278
100
AcDbEntity
  8
0
100
AcDbHatch
 62
2
  6
CONTINUOUS
 10
0.0
 20
0.0
 30
0.0
210
0.0
220
0.0
230
1.0
  2
SOLID
 70
1
 71
1
 91
1
 92
1
 93
12
 72
1
 10
43.0275070267
 20
15.8323395089
 11
43.1068139436
 21
15.5307973706
 72
1
 10
43.1068139436
 20
15.5307973706
 11
43.237192875
 21
15.2459281004
 72
1
 10
43.237192875
 20
15.2459281004
 11
43.4159117633
 21
14.9850893018
 72
1
 10
43.4159117633
 20
14.9850893018
 11
43.6383386229
 21
14.7565471656
 72
1
 10
43.6383386229
 20
14.7565471656
 11
40.4556712576
 21
14.5668192868
 72
1
 10
40.4556712576
 20
14.5668192868
 11
40.7917377552
 21
14.7615072868
 72
1
 10
40.7917377552
 20
14.7615072868
 11
41.096697622
 21
15.0059870805
 72
1
 10
41.096697622
 20
15.0059870805
 11
41.2384895038
 21
15.1489409451
 72
1
 10
41.2384895038
 20
15.1489409451
 11
41.4822144736
 21
15.4580403019
 72
1
 10
41.4822144736
 20
15.4580403019
 11
41.6768798735
 21
15.7996736415
 72
1
 10
41.6768798735
 20
15.7996736415
 11
43.0008131365
 21
16.1446560868
 72
1
 10
43.0008131365
 20
16.1446560868
 11
43.0275070267
 21
15.8323395089
 97
1
330
277
 75
0
 76
1
 98
1
 10
0.0
 20
0.0
  0
LWPOLYLINE
  5
279
100
AcDbEntity
  8
0
100
AcDbPolyline
 62
2
  6
CONTINUOUS
 90
15
 70
0
 10
37.858685702
 20
14.7615072868
 10
38.194744671
 20
14.5668192868
 10
35.0471016852
 20
14.0149320868
 10
35.0471016852
 20
14.6371435057
 10
36.9735692326
 20
18.0976677811
 10
36.8318707549
 20
17.7309623756
 10
36.7456945048
 20
17.3460141724
 10
36.7166869073
 20
16.9486368868
 10
36.7456945048
 20
16.5512832218
 10
36.8318718054
 20
16.1663487824
 10
36.9735735794
 20
15.7996481549
 10
37.1682368871
 20
15.4580137829
 10
37.4119580123
 20
15.1489168423
 10
37.5537345207
 20
15.0059771128
 10
37.858685702
 20
14.7615072868
  0
HATCH
  5
27A
100
AcDbEntity
  8
0
100
AcDbHatch
 62
2
  6
CONTINUOUS
 10
0.0
 20
0.0
 30
0.0
210
0.0
220
0.0
230
1.0
  2
SOLID
 70
1
 71
1
 91
1
 92
1
 93
14
 72
1
 10
37.858685702
 20
14.7615072868
 11
38.194744671
 21
14.5668192868
 72
1
 10
38.194744671
 20
14.5668192868
 11
35.0471016852
 21
14.0149320868
 72
1
 10
35.0471016852
 20
14.0149320868
 11
35.0471016852
 21
14.6371435057
 72
1
 10
35.0471016852
 20
14.6371435057
 11
36.9735692326
 21
18.0976677811
 72
1
 10
36.9735692326
 20
18.0976677811
 11
36.8318707549
 21
17.7309623756
 72
1
 10
36.8318707549
 20
17.7309623756
 11
36.7456945048
 21
17.3460141724
 72
1
 10
36.7456945048
 20
17.3460141724
 11
36.7166869073
 21
16.9486368868
 72
1
 10
36.7166869073
 20
16.9486368868
 11
36.7456945048
 21
16.5512832218
 72
1
 10
36.7456945048
 20
16.5512832218
 11
36.8318718054
 21
16.1663487824
 72
1
 10
36.8318718054
 20
16.1663487824
 11
36.9735735794
 21
15.7996481549
 72
1
 10
36.9735735794
 20
15.7996481549
 11
37.1682368871
 21
15.4580137829
 72
1
 10
37.1682368871
 20
15.4580137829
 11
37.4119580123
 21
15.1489168423
 72
1
 10
37.4119580123
 20
15.1489168423
 11
37.5537345207
 21
15.0059771128
 72
1
 10
37.5537345207
 20
15.0059771128
 11
37.858685702
 21
14.7615072868
 97
1
330
279
 75
0
 76
1
 98
1
 10
0.0
 20
0.0
  0
LWPOLYLINE
  5
27B
100
AcDbEntity
  8
0
100
AcDbPolyline
 62
2
  6
CONTINUOUS
 90
26
 70
0
 10
43.6827887378
 20
14.7192695815
 10
43.9455555599
 20
14.5406473663
 10
44.2328304965
 20
14.4101853011
 10
44.5368664055
 20
14.3308032868
 10
44.8513261486
 20
14.3041027424
 10
45.1661041849
 20
14.3308032868
 10
45.4712575782
 20
14.4102752514
 10
45.7601639271
 20
14.5409814672
 10
46.0247418269
 20
14.7199485541
 10
46.07288731
 20
14.760197212
 10
46.2961255639
 20
14.9891822828
 10
46.4752842789
 20
15.2498839876
 10
48.9631657122
 20
14.0149320868
 10
48.9049797998
 20
13.7559912868
 10
35.2730317789
 20
13.5425728322
 10
35.1052875976
 20
13.7559912868
 10
35.0471016852
 20
14.0149320868
 10
38.194744671
 20
14.5668192868
 10
38.5550227396
 20
14.4253392868
 10
38.9334916615
 20
14.3393136868
 10
39.325209607
 20
14.3103229542
 10
39.7169204585
 20
14.3393136868
 10
40.0953887898
 20
14.4253392868
 10
40.4556712576
 20
14.5668192868
 10
43.6383386229
 20
14.7565471656
 10
43.6827887378
 20
14.7192695815
  0
HATCH
  5
27C
100
AcDbEntity
  8
0
100
AcDbHatch
 62
2
  6
CONTINUOUS
 10
0.0
 20
0.0
 30
0.0
210
0.0
220
0.0
230
1.0
  2
SOLID
 70
1
 71
1
 91
1
 92
1
 93
25
 72
1
 10
43.6827887378
 20
14.7192695815
 11
43.9455555599
 21
14.5406473663
 72
1
 10
43.9455555599
 20
14.5406473663
 11
44.2328304965
 21
14.4101853011
 72
1
 10
44.2328304965
 20
14.4101853011
 11
44.5368664055
 21
14.3308032868
 72
1
 10
44.5368664055
 20
14.3308032868
 11
44.8513261486
 21
14.3041027424
 72
1
 10
44.8513261486
 20
14.3041027424
 11
45.1661041849
 21
14.3308032868
 72
1
 10
45.1661041849
 20
14.3308032868
 11
45.4712575782
 21
14.4102752514
 72
1
 10
45.4712575782
 20
14.4102752514
 11
45.7601639271
 21
14.5409814672
 72
1
 10
45.7601639271
 20
14.5409814672
 11
46.0247418269
 21
14.7199485541
 72
1
 10
46.0247418269
 20
14.7199485541
 11
46.07288731
 21
14.760197212
 72
1
 10
46.07288731
 20
14.760197212
 11
46.2961255639
 21
14.9891822828
 72
1
 10
46.2961255639
 20
14.9891822828
 11
46.4752842789
 21
15.2498839876
 72
1
 10
46.4752842789
 20
15.2498839876
 11
48.9631657122
 21
14.0149320868
 72
1
 10
48.9631657122
 20
14.0149320868
 11
48.9049797998
 21
13.7559912868
 72
1
 10
48.9049797998
 20
13.7559912868
 11
35.2730317789
 21
13.5425728322
 72
1
 10
35.2730317789
 20
13.5425728322
 11
35.1052875976
 21
13.7559912868
 72
1
 10
35.1052875976
 20
13.7559912868
 11
35.0471016852
 21
14.0149320868
 72
1
 10
35.0471016852
 20
14.0149320868
 11
38.194744671
 21
14.5668192868
 72
1
 10
38.194744671
 20
14.5668192868
 11
38.5550227396
 21
14.4253392868
 72
1
 10
38.5550227396
 20
14.4253392868
 11
38.9334916615
 21
14.3393136868
 72
1
 10
38.9334916615
 20
14.3393136868
 11
39.325209607
 21
14.3103229542
 72
1
 10
39.325209607
 20
14.3103229542
 11
39.7169204585
 21
14.3393136868
 72
1
 10
39.7169204585
 20
14.3393136868
 11
40.0953887898
 21
14.4253392868
 72
1
 10
40.0953887898
 20
14.4253392868
 11
40.4556712576
 21
14.5668192868
 72
1
 10
40.4556712576
 20
14.5668192868
 11
43.6383386229
 21
14.7565471656
 72
1
 10
43.6383386229
 20
14.7565471656
 11
43.6827887378
 21
14.7192695815
 97
1
330
27B
 75
0
 76
1
 98
1
 10
0.0
 20
0.0
  0
LWPOLYLINE
  5
27D
100
AcDbEntity
  8
0
100
AcDbPolyline
 62
2
  6
CONTINUOUS
 90
9
 70
0
 10
48.8269233668
 20
13.6322605804
 10
48.6135025194
 20
13.4645136868
 10
48.3545634155
 20
13.4063304868
 10
47.0338820344
 20
13.4063304868
 10
35.6557039818
 20
13.4063304868
 10
35.396764878
 20
13.4645136868
 10
35.2730317789
 20
13.5425728322
 10
48.9049797998
 20
13.7559912868
 10
48.8269233668
 20
13.6322605804
  0
HATCH
  5
27E
100
AcDbEntity
  8
0
100
AcDbHatch
 62
2
  6
CONTINUOUS
 10
0.0
 20
0.0
 30
0.0
210
0.0
220
0.0
230
1.0
  2
SOLID
 70
1
 71
1
 91
1
 92
1
 93
8
 72
1
 10
48.8269233668
 20
13.6322605804
 11
48.6135025194
 21
13.4645136868
 72
1
 10
48.6135025194
 20
13.4645136868
 11
48.3545634155
 21
13.4063304868
 72
1
 10
48.3545634155
 20
13.4063304868
 11
47.0338820344
 21
13.4063304868
 72
1
 10
47.0338820344
 20
13.4063304868
 11
35.6557039818
 21
13.4063304868
 72
1
 10
35.6557039818
 20
13.4063304868
 11
35.396764878
 21
13.4645136868
 72
1
 10
35.396764878
 20
13.4645136868
 11
35.2730317789
 21
13.5425728322
 72
1
 10
35.2730317789
 20
13.5425728322
 11
48.9049797998
 21
13.7559912868
 72
1
 10
48.9049797998
 20
13.7559912868
 11
48.8269233668
 21
13.6322605804
 97
1
330
27D
 75
0
 76
1
 98
1
 10
0.0
 20
0.0
  0
ENDBLK
  5
27F
100
AcDbEntity
  8
0
  6
BYBLOCK
 62
0
100
AcDbBlockEnd
  0
BLOCK
  5
280
100
AcDbEntity
  8
0
100
AcDbBlockBegin
  2
_FILLED
 70
64
 10
0.0
 20
0.0
  3
_FILLED
  1

  0
SOLID
  5
281
100
AcDbEntity
  8
0
  6
BYBLOCK
 62
0
100
AcDbTrace
 10
0.0
 20
0.0
 11
-1.0
 21
0.1428571429
 12
-1.0
 22
-0.1428571429
 13
-1.0
 23
-0.1428571429
  0
ENDBLK
  5
282
100
AcDbEntity
  8
0
  6
BYBLOCK
 62
0
100
AcDbBlockEnd
  0
BLOCK
  5
283
100
AcDbEntity
  8
0
100
AcDbBlockBegin
 62
2
  6
CONTINUOUS
  2
*D0
 70
65
 10
0.0
 20
0.0
  3
*D0
  1

  0
TEXT
  5
284
100
AcDbEntity
  8
0
100
AcDbText
 62
5
  6
CONTINUOUS
 10
105.3474270638
 20
175.3803099993
  7
STANDARD
 40
2.5
  1
120
 50
90.0
 72
5
 11
105.3474270638
 21
180.7374528564
100
AcDbText
  0
LINE
  5
285
100
AcDbEntity
  8
0
100
AcDbLine
 62
2
  6
CONTINUOUS
 10
122.9724270638
 20
238.0588814278
 11
104.9724270638
 21
238.0588814278
  0
LINE
  5
286
100
AcDbEntity
  8
0
100
AcDbLine
 62
2
  6
CONTINUOUS
 10
122.9724270638
 20
118.0588814278
 11
104.9724270638
 21
118.0588814278
  0
LINE
  5
287
100
AcDbEntity
  8
0
100
AcDbLine
 62
2
  6
CONTINUOUS
 10
105.9724270638
 20
238.0588814278
 11
105.9724270638
 21
178.0588814278
  0
LINE
  5
288
100
AcDbEntity
  8
0
100
AcDbLine
 62
2
  6
CONTINUOUS
 10
105.9724270638
 20
118.0588814278
 11
105.9724270638
 21
178.0588814278
  0
INSERT
  5
289
100
AcDbEntity
  8
0
100
AcDbBlockReference
 62
2
  6
CONTINUOUS
  2
_FILLED
 10
105.9724270638
 20
238.0588814278
 41
3.5
 42
3.5
 43
3.5
 50
90.0
  0
INSERT
  5
28A
100
AcDbEntity
  8
0
100
AcDbBlockReference
 62
2
  6
CONTINUOUS
  2
_FILLED
 10
105.9724270638
 20
118.0588814278
 41
3.5
 42
3.5
 43
3.5
 50
270.0
  0
ENDBLK
  5
28B
100
AcDbEntity
  8
0
  6
BYBLOCK
 62
0
100
AcDbBlockEnd
  0
BLOCK
  5
28C
100
AcDbEntity
  8
0
100
AcDbBlockBegin
 62
2
  6
CONTINUOUS
  2
*D1
 70
65
 10
0.0
 20
0.0
  3
*D1
  1

  0
TEXT
  5
28D
100
AcDbEntity
  8
0
100
AcDbText
 62
5
  6
CONTINUOUS
 10
133.0081413495
 20
248.6838814278
  7
STANDARD
 40
2.5
  1
24
 72
5
 11
136.9367127781
 21
248.6838814278
100
AcDbText
  0
LINE
  5
28E
100
AcDbEntity
  8
0
100
AcDbLine
 62
2
  6
CONTINUOUS
 10
122.9724270638
 20
238.0588814278
 11
122.9724270638
 21
249.0588814278
  0
LINE
  5
28F
100
AcDbEntity
  8
0
100
AcDbLine
 62
2
  6
CONTINUOUS
 10
146.9724270638
 20
238.0588814278
 11
146.9724270638
 21
249.0588814278
  0
LINE
  5
290
100
AcDbEntity
  8
0
100
AcDbLine
 62
2
  6
CONTINUOUS
 10
122.9724270638
 20
248.0588814278
 11
134.9724270638
 21
248.0588814278
  0
LINE
  5
291
100
AcDbEntity
  8
0
100
AcDbLine
 62
2
  6
CONTINUOUS
 10
146.9724270638
 20
248.0588814278
 11
134.9724270638
 21
248.0588814278
  0
INSERT
  5
292
100
AcDbEntity
  8
0
100
AcDbBlockReference
 62
2
  6
CONTINUOUS
  2
_FILLED
 10
122.9724270638
 20
248.0588814278
 41
3.5
 42
3.5
 43
3.5
 50
180.0
  0
INSERT
  5
293
100
AcDbEntity
  8
0
100
AcDbBlockReference
 62
2
  6
CONTINUOUS
  2
_FILLED
 10
146.9724270638
 20
248.0588814278
 41
3.5
 42
3.5
 43
3.5
  0
ENDBLK
  5
294
100
AcDbEntity
  8
0
  6
BYBLOCK
 62
0
100
AcDbBlockEnd
  0
BLOCK
  5
295
100
AcDbEntity
  8
0
100
AcDbBlockBegin
 62
2
  6
CONTINUOUS
  2
*D2
 70
65
 10
0.0
 20
0.0
  3
*D2
  1

  0
TEXT
  5
296
100
AcDbEntity
  8
0
100
AcDbText
 62
5
  6
CONTINUOUS
 10
156.3474270638
 20
176.0945957135
  7
STANDARD
 40
2.5
  1
96
 50
90.0
 72
5
 11
156.3474270638
 21
180.0231671421
100
AcDbText
  0
LINE
  5
297
100
AcDbEntity
  8
0
100
AcDbLine
 62
2
  6
CONTINUOUS
 10
142.7724270638
 20
226.0588814278
 11
157.9724270638
 21
226.0588814278
  0
LINE
  5
298
100
AcDbEntity
  8
0
100
AcDbLine
 62
2
  6
CONTINUOUS
 10
142.7724270638
 20
130.0588814278
 11
157.9724270638
 21
130.0588814278
  0
LINE
  5
299
100
AcDbEntity
  8
0
100
AcDbLine
 62
2
  6
CONTINUOUS
 10
156.9724270638
 20
226.0588814278
 11
156.9724270638
 21
178.0588814278
  0
LINE
  5
29A
100
AcDbEntity
  8
0
100
AcDbLine
 62
2
  6
CONTINUOUS
 10
156.9724270638
 20
130.0588814278
 11
156.9724270638
 21
178.0588814278
  0
INSERT
  5
29B
100
AcDbEntity
  8
0
100
AcDbBlockReference
 62
2
  6
CONTINUOUS
  2
_FILLED
 10
156.9724270638
 20
226.0588814278
 41
3.5
 42
3.5
 43
3.5
 50
90.0
  0
INSERT
  5
29C
100
AcDbEntity
  8
0
100
AcDbBlockReference
 62
2
  6
CONTINUOUS
  2
_FILLED
 10
156.9724270638
 20
130.0588814278
 41
3.5
 42
3.5
 43
3.5
 50
270.0
  0
ENDBLK
  5
29D
100
AcDbEntity
  8
0
  6
BYBLOCK
 62
0
100
AcDbBlockEnd
  0
BLOCK
  5
29E
100
AcDbEntity
  8
0
100
AcDbBlockBegin
 62
2
  6
CONTINUOUS
  2
*D3
 70
65
 10
0.0
 20
0.0
  3
*D3
  1

  0
TEXT
  5
29F
100
AcDbEntity
  8
0
100
AcDbText
 62
5
  6
CONTINUOUS
 10
112.3474270638
 20
176.0945957135
  7
STANDARD
 40
2.5
  1
40
 50
90.0
 72
5
 11
112.3474270638
 21
180.0231671421
100
AcDbText
  0
LINE
  5
2A0
100
AcDbEntity
  8
0
100
AcDbLine
 62
2
  6
CONTINUOUS
 10
130.4724270638
 20
198.0588814278
 11
111.9724270638
 21
198.0588814278
  0
LINE
  5
2A1
100
AcDbEntity
  8
0
100
AcDbLine
 62
2
  6
CONTINUOUS
 10
130.4724270638
 20
158.0588814278
 11
111.9724270638
 21
158.0588814278
  0
LINE
  5
2A2
100
AcDbEntity
  8
0
100
AcDbLine
 62
2
  6
CONTINUOUS
 10
112.9724270638
 20
198.0588814278
 11
112.9724270638
 21
178.0588814278
  0
LINE
  5
2A3
100
AcDbEntity
  8
0
100
AcDbLine
 62
2
  6
CONTINUOUS
 10
112.9724270638
 20
158.0588814278
 11
112.9724270638
 21
178.0588814278
  0
INSERT
  5
2A4
100
AcDbEntity
  8
0
100
AcDbBlockReference
 62
2
  6
CONTINUOUS
  2
_FILLED
 10
112.9724270638
 20
198.0588814278
 41
3.5
 42
3.5
 43
3.5
 50
90.0
  0
INSERT
  5
2A5
100
AcDbEntity
  8
0
100
AcDbBlockReference
 62
2
  6
CONTINUOUS
  2
_FILLED
 10
112.9724270638
 20
158.0588814278
 41
3.5
 42
3.5
 43
3.5
 50
270.0
  0
ENDBLK
  5
2A6
100
AcDbEntity
  8
0
  6
BYBLOCK
 62
0
100
AcDbBlockEnd
  0
BLOCK
  5
2A7
100
AcDbEntity
  8
0
100
AcDbBlockBegin
 62
2
  6
CONTINUOUS
  2
*D4
 70
65
 10
0.0
 20
0.0
  3
*D4
  1

  0
TEXT
  5
2A8
100
AcDbEntity
  8
0
100
AcDbText
 62
5
  6
CONTINUOUS
 10
132.0081413495
 20
202.5077322602
  7
STANDARD
 40
2.5
  1
13.5
 72
5
 11
138.4367127781
 21
202.5077322602
100
AcDbText
  0
LINE
  5
2A9
100
AcDbEntity
  8
0
100
AcDbLine
 62
2
  6
CONTINUOUS
 10
128.4724270638
 20
196.0588814278
 11
128.4724270638
 21
202.8827322602
  0
LINE
  5
2AA
100
AcDbEntity
  8
0
100
AcDbLine
 62
2
  6
CONTINUOUS
 10
141.9724270638
 20
196.0588814278
 11
141.9724270638
 21
202.8827322602
  0
LINE
  5
2AB
100
AcDbEntity
  8
0
100
AcDbLine
 62
2
  6
CONTINUOUS
 10
128.4724270638
 20
201.8827322602
 11
135.2224270638
 21
201.8827322602
  0
LINE
  5
2AC
100
AcDbEntity
  8
0
100
AcDbLine
 62
2
  6
CONTINUOUS
 10
141.9724270638
 20
201.8827322602
 11
135.2224270638
 21
201.8827322602
  0
INSERT
  5
2AD
100
AcDbEntity
  8
0
100
AcDbBlockReference
 62
2
  6
CONTINUOUS
  2
_FILLED
 10
128.4724270638
 20
201.8827322602
 41
3.5
 42
3.5
 43
3.5
 50
180.0
  0
INSERT
  5
2AE
100
AcDbEntity
  8
0
100
AcDbBlockReference
 62
2
  6
CONTINUOUS
  2
_FILLED
 10
141.9724270638
 20
201.8827322602
 41
3.5
 42
3.5
 43
3.5
  0
ENDBLK
  5
2AF
100
AcDbEntity
  8
0
  6
BYBLOCK
 62
0
100
AcDbBlockEnd
  0
BLOCK
  5
2B0
100
AcDbEntity
  8
0
100
AcDbBlockBegin
 62
2
  6
CONTINUOUS
  2
*D5
 70
65
 10
0.0
 20
0.0
  3
*D5
  1

  0
TEXT
  5
2B1
100
AcDbEntity
  8
0
100
AcDbText
 62
5
  6
CONTINUOUS
 10
125.7938556352
 20
151.7889599771
  7
STANDARD
 40
2.5
  1
12.3
 72
5
 11
132.4009984924
 21
151.7889599771
100
AcDbText
  0
LINE
  5
2B2
100
AcDbEntity
  8
0
100
AcDbLine
 62
2
  6
CONTINUOUS
 10
135.2224270638
 20
158.0588814278
 11
135.2224270638
 21
150.1639599771
  0
LINE
  5
2B3
100
AcDbEntity
  8
0
100
AcDbLine
 62
2
  6
CONTINUOUS
 10
122.9724270638
 20
151.1639599771
 11
115.9724270638
 21
151.1639599771
  0
LINE
  5
2B4
100
AcDbEntity
  8
0
100
AcDbLine
 62
2
  6
CONTINUOUS
 10
115.9724270638
 20
151.1639599771
 11
129.0974270638
 21
151.1639599771
  0
LINE
  5
2B5
100
AcDbEntity
  8
0
100
AcDbLine
 62
2
  6
CONTINUOUS
 10
135.2224270638
 20
151.1639599771
 11
142.2224270638
 21
151.1639599771
  0
LINE
  5
2B6
100
AcDbEntity
  8
0
100
AcDbLine
 62
2
  6
CONTINUOUS
 10
142.2224270638
 20
151.1639599771
 11
129.0974270638
 21
151.1639599771
  0
INSERT
  5
2B7
100
AcDbEntity
  8
0
100
AcDbBlockReference
 62
2
  6
CONTINUOUS
  2
_FILLED
 10
122.9724270638
 20
151.1639599771
 41
3.5
 42
3.5
 43
3.5
  0
INSERT
  5
2B8
100
AcDbEntity
  8
0
100
AcDbBlockReference
 62
2
  6
CONTINUOUS
  2
_FILLED
 10
135.2224270638
 20
151.1639599771
 41
3.5
 42
3.5
 43
3.5
 50
180.0
  0
ENDBLK
  5
2B9
100
AcDbEntity
  8
0
  6
BYBLOCK
 62
0
100
AcDbBlockEnd
  0
BLOCK
  5
2BA
100
AcDbEntity
  8
0
100
AcDbBlockBegin
 62
2
  6
CONTINUOUS
  2
*D6
 70
65
 10
0.0
 20
0.0
  3
*D6
  1

  0
TEXT
  5
2BB
100
AcDbEntity
  8
0
100
AcDbText
 62
5
  6
CONTINUOUS
 10
76.901863745
 20
248.6838814278
  7
STANDARD
 40
2.5
  1
3
 72
5
 11
78.6875780308
 21
248.6838814278
100
AcDbText
  0
LINE
  5
2BC
100
AcDbEntity
  8
0
100
AcDbLine
 62
2
  6
CONTINUOUS
 10
79.2947208879
 20
238.0588814278
 11
79.2947208879
 21
249.0588814278
  0
LINE
  5
2BD
100
AcDbEntity
  8
0
100
AcDbLine
 62
2
  6
CONTINUOUS
 10
76.2947208879
 20
238.0588814278
 11
76.2947208879
 21
249.0588814278
  0
LINE
  5
2BE
100
AcDbEntity
  8
0
100
AcDbLine
 62
2
  6
CONTINUOUS
 10
79.2947208879
 20
248.0588814278
 11
86.2947208879
 21
248.0588814278
  0
LINE
  5
2BF
100
AcDbEntity
  8
0
100
AcDbLine
 62
2
  6
CONTINUOUS
 10
86.2947208879
 20
248.0588814278
 11
77.7947208879
 21
248.0588814278
  0
LINE
  5
2C0
100
AcDbEntity
  8
0
100
AcDbLine
 62
2
  6
CONTINUOUS
 10
76.2947208879
 20
248.0588814278
 11
69.2947208879
 21
248.0588814278
  0
LINE
  5
2C1
100
AcDbEntity
  8
0
100
AcDbLine
 62
2
  6
CONTINUOUS
 10
69.2947208879
 20
248.0588814278
 11
77.7947208879
 21
248.0588814278
  0
INSERT
  5
2C2
100
AcDbEntity
  8
0
100
AcDbBlockReference
 62
2
  6
CONTINUOUS
  2
_FILLED
 10
79.2947208879
 20
248.0588814278
 41
3.5
 42
3.5
 43
3.5
 50
180.0
  0
INSERT
  5
2C3
100
AcDbEntity
  8
0
100
AcDbBlockReference
 62
2
  6
CONTINUOUS
  2
_FILLED
 10
76.2947208879
 20
248.0588814278
 41
3.5
 42
3.5
 43
3.5
  0
ENDBLK
  5
2C4
100
AcDbEntity
  8
0
  6
BYBLOCK
 62
0
100
AcDbBlockEnd
  0
BLOCK
  5
2C5
100
AcDbEntity
  8
0
100
AcDbBlockBegin
  2
*T1
 70
1
 10
0.0
 20
0.0
  3
*T1
  1

  0
LINE
  5
2C6
100
AcDbEntity
  8
0
100
AcDbLine
 62
2
  6
CONTINUOUS
 10
0.0
 20
0.0
 11
180.0
 21
0.0
  0
LINE
  5
2C7
100
AcDbEntity
  8
0
100
AcDbLine
 62
2
  6
CONTINUOUS
 10
0.0
 20
0.0
 11
0.0
 21
-45.875
  0
LINE
  5
2C8
100
AcDbEntity
  8
0
100
AcDbLine
 62
2
  6
CONTINUOUS
 10
0.0
 20
-21.875
 11
180.0
 21
-21.875
  0
LINE
  5
2C9
100
AcDbEntity
  8
0
100
AcDbLine
 62
2
  6
CONTINUOUS
 10
64.0
 20
-27.875
 11
109.0
 21
-27.875
  0
LINE
  5
2CA
100
AcDbEntity
  8
0
100
AcDbLine
 62
2
  6
CONTINUOUS
 10
64.0
 20
-33.875
 11
109.0
 21
-33.875
  0
LINE
  5
2CB
100
AcDbEntity
  8
0
100
AcDbLine
 62
2
  6
CONTINUOUS
 10
119.0
 20
-33.875
 11
180.0
 21
-33.875
  0
LINE
  5
2CC
100
AcDbEntity
  8
0
100
AcDbLine
 62
2
  6
CONTINUOUS
 10
34.0
 20
-39.875
 11
119.0
 21
-39.875
  0
LINE
  5
2CD
100
AcDbEntity
  8
0
100
AcDbLine
 62
2
  6
CONTINUOUS
 10
0.0
 20
-45.875
 11
180.0
 21
-45.875
  0
LINE
  5
2CE
100
AcDbEntity
  8
0
100
AcDbLine
 62
2
  6
CONTINUOUS
 10
34.0
 20
-21.875
 11
34.0
 21
-45.875
  0
LINE
  5
2CF
100
AcDbEntity
  8
0
100
AcDbLine
 62
2
  6
CONTINUOUS
 10
64.0
 20
-21.875
 11
64.0
 21
-39.875
  0
LINE
  5
2D0
100
AcDbEntity
  8
0
100
AcDbLine
 62
2
  6
CONTINUOUS
 10
76.0
 20
-21.875
 11
76.0
 21
-39.875
  0
LINE
  5
2D1
100
AcDbEntity
  8
0
100
AcDbLine
 62
2
  6
CONTINUOUS
 10
96.0
 20
-27.875
 11
96.0
 21
-39.875
  0
LINE
  5
2D2
100
AcDbEntity
  8
0
100
AcDbLine
 62
2
  6
CONTINUOUS
 10
109.0
 20
-21.875
 11
109.0
 21
-39.875
  0
LINE
  5
2D3
100
AcDbEntity
  8
0
100
AcDbLine
 62
2
  6
CONTINUOUS
 10
119.0
 20
-21.875
 11
119.0
 21
-45.875
  0
LINE
  5
2D4
100
AcDbEntity
  8
0
100
AcDbLine
 62
2
  6
CONTINUOUS
 10
170.0
 20
-21.875
 11
170.0
 21
-45.875
  0
LINE
  5
2D5
100
AcDbEntity
  8
0
100
AcDbLine
 62
2
  6
CONTINUOUS
 10
180.0
 20
0.0
 11
180.0
 21
-45.875
  0
TEXT
  5
2D6
100
AcDbEntity
  8
0
100
AcDbText
 62
5
  6
CONTINUOUS
 10
1.0
 20
-4.509375
  7
TEXTSTYLE_3
 40
1.3
  1
Description
 72
5
 11
14.3
 21
-4.509375
100
AcDbText
  0
TEXT
  5
2D7
100
AcDbEntity
  8
0
100
AcDbText
 62
5
  6
CONTINUOUS
 10
1.0
 20
-9.265625
  7
TEXTSTYLE_4
 40
2.9
  1
Schließplatte Secury 19
 72
5
 11
43.559765625
 21
-9.265625
100
AcDbText
  0
TEXT
  5
2D8
100
AcDbEntity
  8
0
100
AcDbText
 62
5
  6
CONTINUOUS
 10
1.0
 20
-14.340625
  7
TEXTSTYLE_4
 40
2.9
  1
--
 72
5
 11
3.35625
 21
-14.340625
100
AcDbText
  0
TEXT
  5
2D9
100
AcDbEntity
  8
0
100
AcDbText
 62
5
  6
CONTINUOUS
 10
1.0
 20
-19.415625
  7
TEXTSTYLE_4
 40
2.9
  1
Striker Secury 19
 72
5
 11
31.74453125
 21
-19.415625
100
AcDbText
  0
TEXT
  5
2DA
100
AcDbEntity
  8
0
100
AcDbText
 62
5
  6
CONTINUOUS
 10
35.0
 20
-26.7649038462
  7
TEXTSTYLE_3
 40
1.3
  1
Release No. 
 72
5
 11
51.5
 21
-26.7649038462
100
AcDbText
  0
TEXT
  5
2DB
100
AcDbEntity
  8
0
100
AcDbText
 62
5
  6
CONTINUOUS
 10
35.0
 20
-29.7774038462
  7
STANDARD
 40
2.0
  1
--
 72
5
 11
37.8571428571
 21
-29.7774038462
100
AcDbText
  0
TEXT
  5
2DC
100
AcDbEntity
  8
0
100
AcDbText
 62
5
  6
CONTINUOUS
 10
35.0
 20
-31.2629807692
  7
TEXTSTYLE_3
 40
0.5
  1
 
 72
5
 11
35.6153846154
 21
-31.2629807692
100
AcDbText
  0
TEXT
  5
2DD
100
AcDbEntity
  8
0
100
AcDbText
 62
5
  6
CONTINUOUS
 10
35.0
 20
-34.0225961538
  7
TEXTSTYLE_3
 40
1.3
  1
Mod. No.
 72
5
 11
46.7
 21
-34.0225961538
100
AcDbText
  0
TEXT
  5
2DE
100
AcDbEntity
  8
0
100
AcDbText
 62
5
  6
CONTINUOUS
 10
35.0
 20
-37.0350961538
  7
STANDARD
 40
2.0
  1
--
 72
5
 11
37.8571428571
 21
-37.0350961538
100
AcDbText
  0
TEXT
  5
2DF
100
AcDbEntity
  8
0
100
AcDbText
 62
5
  6
CONTINUOUS
 10
65.0
 20
-25.9
  7
TEXTSTYLE_3
 40
1.3
  1
Level
 72
5
 11
71.4
 21
-25.9
100
AcDbText
  0
TEXT
  5
2E0
100
AcDbEntity
  8
0
100
AcDbText
 62
5
  6
CONTINUOUS
 10
77.0
 20
-25.875
  7
STANDARD
 40
2.0
  1
Released
 72
5
 11
88.1428571429
 21
-25.875
100
AcDbText
  0
TEXT
  5
2E1
100
AcDbEntity
  8
0
100
AcDbText
 62
5
  6
CONTINUOUS
 10
110.8
 20
-25.175
  7
TEXTSTYLE_3
 40
1.3
  1
Scale
 72
5
 11
117.2
 21
-25.175
100
AcDbText
  0
TEXT
  5
2E2
100
AcDbEntity
  8
0
100
AcDbText
 62
5
  6
CONTINUOUS
 10
113.0178571429
 20
-28.8125
  7
STANDARD
 40
2.5
  1
 
 72
5
 11
114.9821428571
 21
-28.8125
100
AcDbText
  0
TEXT
  5
2E3
100
AcDbEntity
  8
0
100
AcDbText
 62
5
  6
CONTINUOUS
 10
112.125
 20
-32.5625
  7
STANDARD
 40
2.5
  1
1:1
 72
5
 11
115.875
 21
-32.5625
100
AcDbText
  0
TEXT
  5
2E4
100
AcDbEntity
  8
0
100
AcDbText
 62
5
  6
CONTINUOUS
 10
120.0
 20
-25.175
  7
TEXTSTYLE_3
 40
1.3
  1
Modification 
 72
5
 11
135.6
 21
-25.175
100
AcDbText
  0
TEXT
  5
2E5
100
AcDbEntity
  8
0
100
AcDbText
 62
5
  6
CONTINUOUS
 10
120.0
 20
-32.8375
  7
STANDARD
 40
3.5
  1
1
 72
5
 11
122.0
 21
-32.8375
100
AcDbText
  0
TEXT
  5
2E6
100
AcDbEntity
  8
0
100
AcDbText
 62
5
  6
CONTINUOUS
 10
172.55
 20
-25.175
  7
TEXTSTYLE_3
 40
1.3
  1
Size
 72
5
 11
177.45
 21
-25.175
100
AcDbText
  0
TEXT
  5
2E7
100
AcDbEntity
  8
0
100
AcDbText
 62
5
  6
CONTINUOUS
 10
172.25
 20
-32.8375
  7
STANDARD
 40
3.5
  1
 4
 72
5
 11
177.75
 21
-32.8375
100
AcDbText
  0
TEXT
  5
2E8
100
AcDbEntity
  8
0
100
AcDbText
 62
5
  6
CONTINUOUS
 10
65.0
 20
-31.9
  7
TEXTSTYLE_3
 40
1.3
  1
Ver.
 72
5
 11
70.4
 21
-31.9
100
AcDbText
  0
TEXT
  5
2E9
100
AcDbEntity
  8
0
100
AcDbText
 62
5
  6
CONTINUOUS
 10
77.0
 20
-31.875
  7
STANDARD
 40
2.0
  1
--
 72
5
 11
79.8571428571
 21
-31.875
100
AcDbText
  0
TEXT
  5
2EA
100
AcDbEntity
  8
0
100
AcDbText
 62
5
  6
CONTINUOUS
 10
97.0
 20
-31.875
  7
STANDARD
 40
2.0
  1
--
 72
5
 11
99.8571428571
 21
-31.875
100
AcDbText
  0
TEXT
  5
2EB
100
AcDbEntity
  8
0
100
AcDbText
 62
5
  6
CONTINUOUS
 10
65.0
 20
-37.9
  7
TEXTSTYLE_3
 40
1.3
  1
Draft
 72
5
 11
71.0
 21
-37.9
100
AcDbText
  0
TEXT
  5
2EC
100
AcDbEntity
  8
0
100
AcDbText
 62
5
  6
CONTINUOUS
 10
77.0
 20
-37.875
  7
STANDARD
 40
2.0
  1
26.08.2016
 72
5
 11
91.4285714286
 21
-37.875
100
AcDbText
  0
TEXT
  5
2ED
100
AcDbEntity
  8
0
100
AcDbText
 62
5
  6
CONTINUOUS
 10
97.0
 20
-37.875
  7
STANDARD
 40
2.0
  1
Th
 72
5
 11
100.1428571429
 21
-37.875
100
AcDbText
  0
TEXT
  5
2EE
100
AcDbEntity
  8
0
100
AcDbText
 62
5
  6
CONTINUOUS
 10
120.0
 20
-37.175
  7
TEXTSTYLE_3
 40
1.3
  1
Drawing No.
 72
5
 11
135.0
 21
-37.175
100
AcDbText
  0
TEXT
  5
2EF
100
AcDbEntity
  8
0
100
AcDbText
 62
5
  6
CONTINUOUS
 10
120.0
 20
-42.6875
  7
TEXTSTYLE_4
 40
4.0
  1
9-43501-11-0
 72
5
 11
153.984375
 21
-42.6875
100
AcDbText
  0
TEXT
  5
2F0
100
AcDbEntity
  8
0
100
AcDbText
 62
5
  6
CONTINUOUS
 10
171.7
 20
-37.175
  7
TEXTSTYLE_3
 40
1.3
  1
Sheet
 72
5
 11
178.3
 21
-37.175
100
AcDbText
  0
TEXT
  5
2F1
100
AcDbEntity
  8
0
100
AcDbText
 62
5
  6
CONTINUOUS
 10
171.6666666667
 20
-44.8375
  7
STANDARD
 40
3.5
  1
1
 72
5
 11
173.6666666667
 21
-44.8375
100
AcDbText
  0
TEXT
  5
2F2
100
AcDbEntity
  8
0
100
AcDbText
 62
5
  6
CONTINUOUS
 10
173.6666666667
 20
-44.8375
  7
STANDARD
 40
3.5
  1
/
 72
5
 11
176.3333333333
 21
-44.8375
100
AcDbText
  0
TEXT
  5
2F3
100
AcDbEntity
  8
0
100
AcDbText
 62
5
  6
CONTINUOUS
 10
176.3333333333
 20
-44.8375
  7
STANDARD
 40
3.5
  1
1
 72
5
 11
178.3333333333
 21
-44.8375
100
AcDbText
  0
TEXT
  5
2F4
100
AcDbEntity
  8
0
100
AcDbText
 62
5
  6
CONTINUOUS
 10
35.0
 20
-43.9
  7
TEXTSTYLE_3
 40
1.3
  1
Replacement for 
 72
5
 11
56.6
 21
-43.9
100
AcDbText
  0
TEXT
  5
2F5
100
AcDbEntity
  8
0
100
AcDbText
 62
5
  6
CONTINUOUS
 10
56.6
 20
-43.9
  7
STANDARD
 40
2.0
  1
--
 72
5
 11
59.4571428571
 21
-43.9
100
AcDbText
  0
ENDBLK
  5
2F6
100
AcDbEntity
  8
0
  6
BYBLOCK
 62
0
100
AcDbBlockEnd
  0
BLOCK
  5
2F7
100
AcDbEntity
  8
0
100
AcDbBlockBegin
  2
*T2
 70
1
 10
0.0
 20
0.0
  3
*T2
  1

  0
LINE
  5
2F8
100
AcDbEntity
  8
0
100
AcDbLine
 62
2
  6
CONTINUOUS
 10
0.0
 20
0.0
 11
11.2
 21
0.0
  0
LINE
  5
2F9
100
AcDbEntity
  8
0
100
AcDbLine
 62
2
  6
CONTINUOUS
 10
0.0
 20
0.0
 11
0.0
 21
-45.0
  0
LINE
  5
2FA
100
AcDbEntity
  8
0
100
AcDbLine
 62
2
  6
CONTINUOUS
 10
0.0
 20
-9.0
 11
11.2
 21
-9.0
  0
LINE
  5
2FB
100
AcDbEntity
  8
0
100
AcDbLine
 62
2
  6
CONTINUOUS
 10
0.0
 20
-18.0
 11
11.2
 21
-18.0
  0
LINE
  5
2FC
100
AcDbEntity
  8
0
100
AcDbLine
 62
2
  6
CONTINUOUS
 10
0.0
 20
-27.0
 11
11.2
 21
-27.0
  0
LINE
  5
2FD
100
AcDbEntity
  8
0
100
AcDbLine
 62
2
  6
CONTINUOUS
 10
0.0
 20
-36.0
 11
11.2
 21
-36.0
  0
LINE
  5
2FE
100
AcDbEntity
  8
0
100
AcDbLine
 62
2
  6
CONTINUOUS
 10
0.0
 20
-45.0
 11
11.2
 21
-45.0
  0
LINE
  5
2FF
100
AcDbEntity
  8
0
100
AcDbLine
 62
2
  6
CONTINUOUS
 10
11.2
 20
0.0
 11
11.2
 21
-45.0
  0
TEXT
  5
300
100
AcDbEntity
  8
0
100
AcDbText
 62
5
  6
CONTINUOUS
 10
4.7071428571
 20
-5.75
  7
STANDARD
 40
2.5
  1
-
 72
5
 11
6.4928571429
 21
-5.75
100
AcDbText
  0
TEXT
  5
301
100
AcDbEntity
  8
0
100
AcDbText
 62
5
  6
CONTINUOUS
 10
4.7071428571
 20
-14.75
  7
STANDARD
 40
2.5
  1
-
 72
5
 11
6.4928571429
 21
-14.75
100
AcDbText
  0
TEXT
  5
302
100
AcDbEntity
  8
0
100
AcDbText
 62
5
  6
CONTINUOUS
 10
4.7071428571
 20
-23.75
  7
STANDARD
 40
2.5
  1
-
 72
5
 11
6.4928571429
 21
-23.75
100
AcDbText
  0
TEXT
  5
303
100
AcDbEntity
  8
0
100
AcDbText
 62
5
  6
CONTINUOUS
 10
4.7071428571
 20
-32.75
  7
STANDARD
 40
2.5
  1
-
 72
5
 11
6.4928571429
 21
-32.75
100
AcDbText
  0
TEXT
  5
304
100
AcDbEntity
  8
0
100
AcDbText
 62
5
  6
CONTINUOUS
 10
4.7071428571
 20
-41.75
  7
STANDARD
 40
2.5
  1
-
 72
5
 11
6.4928571429
 21
-41.75
100
AcDbText
  0
ENDBLK
  5
305
100
AcDbEntity
  8
0
  6
BYBLOCK
 62
0
100
AcDbBlockEnd
  0
ENDSEC
  0
SECTION
  2
ENTITIES
  0
TEXT
  5
306
100
AcDbEntity
  8
0
100
AcDbText
 62
5
  6
CONTINUOUS
 10
22.6410572779
 20
117.8508952267
  7
TEXTSTYLE_2
 40
1.5
  1
Proprietary rights apply in accordance with ISO 16016.
 50
90.0
 72
5
 11
22.6410572779
 21
173.5294666553
100
AcDbText
  0
TEXT
  5
307
100
AcDbEntity
  8
0
100
AcDbText
 62
5
  6
CONTINUOUS
 10
24.0208006725
 20
6.0035828101
  7
STANDARD
 40
2.0
  1
V4
 50
90.0
 72
5
 11
24.0208006725
 21
9.6226304292
100
AcDbText
  0
INSERT
  5
308
100
AcDbEntity
  8
0
100
AcDbBlockReference
 62
2
  6
CONTINUOUS
  2
SYMBOL_37_BL0
 10
42.0051336987
 20
17.0063304868
  0
INSERT
  5
309
100
AcDbEntity
  8
0
100
AcDbBlockReference
 62
2
  6
CONTINUOUS
  2
SYMBOL_44_BL1
 10
14.6760682863
 20
285.9565270313
  0
DIMENSION
  5
30A
100
AcDbEntity
  8
0
100
AcDbDimension
 62
2
  6
CONTINUOUS
  2
*D0
 10
105.9724270638
 20
118.0588814278
 11
105.9724270638
 21
178.0588814278
 70
160
 71
2
 42
120.0
  3
DIMSTYLE_1
100
AcDbAlignedDimension
 13
122.9724270638
 23
238.0588814278
 14
122.9724270638
 24
118.0588814278
 50
270.0
100
AcDbRotatedDimension
  0
DIMENSION
  5
30B
100
AcDbEntity
  8
0
100
AcDbDimension
 62
2
  6
CONTINUOUS
  2
*D1
 10
146.9724270638
 20
248.0588814278
 11
134.9724270638
 21
248.0588814278
 70
160
 71
2
 42
24.0
  3
DIMSTYLE_2
100
AcDbAlignedDimension
 13
122.9724270638
 23
238.0588814278
 14
146.9724270638
 24
238.0588814278
100
AcDbRotatedDimension
  0
DIMENSION
  5
30C
100
AcDbEntity
  8
0
100
AcDbDimension
 62
2
  6
CONTINUOUS
  2
*D2
 10
156.9724270638
 20
130.0588814278
 11
156.9724270638
 21
178.0588814278
 70
160
 71
2
 42
96.0
  3
DIMSTYLE_1
100
AcDbAlignedDimension
 13
142.7724270638
 23
226.0588814278
 14
142.7724270638
 24
130.0588814278
 50
270.0
100
AcDbRotatedDimension
  0
DIMENSION
  5
30D
100
AcDbEntity
  8
0
100
AcDbDimension
 62
2
  6
CONTINUOUS
  2
*D3
 10
112.9724270638
 20
158.0588814278
 11
112.9724270638
 21
178.0588814278
 70
160
 71
2
 42
40.0
  3
DIMSTYLE_1
100
AcDbAlignedDimension
 13
130.4724270638
 23
198.0588814278
 14
130.4724270638
 24
158.0588814278
 50
270.0
100
AcDbRotatedDimension
  0
DIMENSION
  5
30E
100
AcDbEntity
  8
0
100
AcDbDimension
 62
2
  6
CONTINUOUS
  2
*D4
 10
141.9724270638
 20
201.8827322602
 11
135.2224270638
 21
201.8827322602
 70
160
 71
2
 42
13.5
  3
DIMSTYLE_2
100
AcDbAlignedDimension
 13
128.4724270638
 23
196.0588814278
 14
141.9724270638
 24
196.0588814278
100
AcDbRotatedDimension
  0
DIMENSION
  5
30F
100
AcDbEntity
  8
0
100
AcDbDimension
 62
2
  6
CONTINUOUS
  2
*D5
 10
135.2224270638
 20
151.1639599771
 11
129.0974270638
 21
151.1639599771
 70
160
 71
2
 42
12.25
  3
DIMSTYLE_3
100
AcDbAlignedDimension
 13
122.9724270638
 23
155.0588814278
 14
135.2224270638
 24
158.0588814278
100
AcDbRotatedDimension
  0
DIMENSION
  5
310
100
AcDbEntity
  8
0
100
AcDbDimension
 62
2
  6
CONTINUOUS
  2
*D6
 10
76.2947208879
 20
248.0588814278
 11
77.7947208879
 21
248.0588814278
 70
160
 71
2
 42
3.0
  3
DIMSTYLE_4
100
AcDbAlignedDimension
 13
79.2947208879
 23
238.0588814278
 14
76.2947208879
 24
238.0588814278
 50
180.0
100
AcDbRotatedDimension
  0
ACAD_TABLE
  5
311
100
AcDbEntity
  8
0
 62
2
  6
CONTINUOUS
100
AcDbBlockReference
  2
*T1
 10
25.0
 20
50.875
 30
0.0
100
AcDbTable
342
       430
343
217
 11
1.0
 21
0.0
 31
0.0
 90
22
 91
5
 92
9
 93
0
 94
0
 95
0
 96
0
141
21.875
141
6.0
141
6.0
141
6.0
141
6.0
142
34.0
142
30.0
142
12.0
142
20.0
142
13.0
142
10.0
142
41.0
142
10.0
142
10.0
171
1
172
0
173
0
174
0
175
9
176
1
 91
41
178
0
145
0.0
301
CELL_VALUE
 90
4
  1
Description\P\H2.9;Schließplatte Secury 19\P--\PStriker Secury 19
304
ACVALUE_END
170
4
140
1.3
 64
5
171
1
172
0
173
1
174
0
175
1
176
1
 91
1
178
0
145
0.0
170
1
171
1
172
0
173
1
174
0
175
1
176
1
 91
1
178
0
145
0.0
170
1
171
1
172
0
173
1
174
0
175
1
176
1
 91
1
178
0
145
0.0
170
1
171
1
172
0
173
1
174
0
175
1
176
1
 91
1
178
0
145
0.0
170
1
171
1
172
0
173
1
174
0
175
1
176
1
 91
1
178
0
145
0.0
170
1
171
1
172
0
173
1
174
0
175
1
176
1
 91
1
178
0
145
0.0
170
1
171
1
172
0
173
1
174
0
175
1
176
1
 91
1
178
0
145
0.0
170
1
171
1
172
0
173
1
174
0
175
1
176
1
 91
1
178
0
145
0.0
170
1
171
1
172
0
173
0
174
0
175
1
176
4
 91
1
178
0
145
0.0
170
1
171
1
172
0
173
0
174
0
175
1
176
3
 91
41
178
0
145
0.0
301
CELL_VALUE
 90
4
  1
Release No. \P\H2.0;--\P\H0.5; \P\H1.3;Mod. No.\P\H2.0;--
304
ACVALUE_END
170
4
140
1.3
 64
5
171
1
172
0
173
0
174
0
175
1
176
1
 91
41
178
0
145
0.0
301
CELL_VALUE
 90
4
  1
Level
304
ACVALUE_END
170
4
140
1.3
 64
5
171
1
172
0
173
0
174
0
175
2
176
1
 91
41
178
0
145
0.0
301
CELL_VALUE
 90
4
  1
Released
304
ACVALUE_END
170
4
140
2.0
 64
5
171
1
172
0
173
1
174
0
175
1
176
1
 91
1
178
0
145
0.0
170
1
171
1
172
0
173
0
174
0
175
1
176
3
 91
41
178
0
145
0.0
301
CELL_VALUE
 90
4
  1
Scale\P\H2.5; \P1:1
304
ACVALUE_END
170
2
140
1.3
 64
5
171
1
172
0
173
0
174
0
175
2
176
2
 91
41
178
0
145
0.0
301
CELL_VALUE
 90
4
  1
Modification \P\H3.5;1
304
ACVALUE_END
170
1
140
1.3
 64
5
171
1
172
0
173
1
174
0
175
1
176
1
 91
1
178
0
145
0.0
170
1
171
1
172
0
173
0
174
0
175
1
176
2
 91
41
178
0
145
0.0
301
CELL_VALUE
 90
4
  1
Size\P\H3.5; 4
304
ACVALUE_END
170
2
140
1.3
 64
5
171
1
172
0
173
1
174
0
175
1
176
1
 91
1
178
0
145
0.0
170
1
171
1
172
0
173
1
174
0
175
1
176
1
 91
1
178
0
145
0.0
170
1
171
1
172
0
173
0
174
0
175
1
176
1
 91
41
178
0
145
0.0
301
CELL_VALUE
 90
4
  1
Ver.
304
ACVALUE_END
170
4
140
1.3
 64
5
171
1
172
0
173
0
174
0
175
1
176
1
 91
41
178
0
145
0.0
301
CELL_VALUE
 90
4
  1
--
304
ACVALUE_END
170
4
140
2.0
 64
5
171
1
172
0
173
0
174
0
175
1
176
1
 91
41
178
0
145
0.0
301
CELL_VALUE
 90
4
  1
--
304
ACVALUE_END
170
4
140
2.0
 64
5
171
1
172
0
173
1
174
0
175
1
176
1
 91
1
178
0
145
0.0
170
1
171
1
172
0
173
1
174
0
175
1
176
1
 91
1
178
0
145
0.0
170
1
171
1
172
0
173
1
174
0
175
1
176
1
 91
1
178
0
145
0.0
170
1
171
1
172
0
173
1
174
0
175
1
176
1
 91
1
178
0
145
0.0
170
1
171
1
172
0
173
1
174
0
175
1
176
1
 91
1
178
0
145
0.0
170
1
171
1
172
0
173
1
174
0
175
1
176
1
 91
1
178
0
145
0.0
170
1
171
1
172
0
173
0
174
0
175
1
176
1
 91
41
178
0
145
0.0
301
CELL_VALUE
 90
4
  1
Draft
304
ACVALUE_END
170
4
140
1.3
 64
5
171
1
172
0
173
0
174
0
175
1
176
1
 91
41
178
0
145
0.0
301
CELL_VALUE
 90
4
  1
26.08.2016
304
ACVALUE_END
170
4
140
2.0
 64
5
171
1
172
0
173
0
174
0
175
1
176
1
 91
41
178
0
145
0.0
301
CELL_VALUE
 90
4
  1
Th
304
ACVALUE_END
170
4
140
2.0
 64
5
171
1
172
0
173
1
174
0
175
1
176
1
 91
1
178
0
145
0.0
170
1
171
1
172
0
173
0
174
0
175
2
176
2
 91
41
178
0
145
0.0
301
CELL_VALUE
 90
4
  1
Drawing No.\P\H4.0;9-43501-11-0
304
ACVALUE_END
170
1
140
1.3
 64
5
171
1
172
0
173
1
174
0
175
1
176
1
 91
1
178
0
145
0.0
170
1
171
1
172
0
173
0
174
0
175
1
176
2
 91
41
178
0
145
0.0
301
CELL_VALUE
 90
4
  1
Sheet\P\H3.5;1/1
304
ACVALUE_END
170
2
140
1.3
 64
5
171
1
172
0
173
1
174
0
175
1
176
1
 91
1
178
0
145
0.0
170
1
171
1
172
0
173
0
174
0
175
5
176
1
 91
41
178
0
145
0.0
301
CELL_VALUE
 90
4
  1
Replacement for \H2.0;--
304
ACVALUE_END
170
4
140
1.3
 64
5
171
1
172
0
173
1
174
0
175
1
176
1
 91
1
178
0
145
0.0
170
1
171
1
172
0
173
1
174
0
175
1
176
1
 91
1
178
0
145
0.0
170
1
171
1
172
0
173
1
174
0
175
1
176
1
 91
1
178
0
145
0.0
170
1
171
1
172
0
173
1
174
0
175
1
176
1
 91
1
178
0
145
0.0
170
1
171
1
172
0
173
1
174
0
175
1
176
1
 91
1
178
0
145
0.0
170
1
171
1
172
0
173
1
174
0
175
1
176
1
 91
1
178
0
145
0.0
170
1
171
1
172
0
173
1
174
0
175
1
176
1
 91
1
178
0
145
0.0
170
1
  0
ACAD_TABLE
  5
312
100
AcDbEntity
  8
0
 62
2
  6
CONTINUOUS
100
AcDbBlockReference
  2
*T2
 10
13.8
 20
105.0
 30
0.0
100
AcDbTable
342
       430
343
218
 11
1.0
 21
0.0
 31
0.0
 90
22
 91
5
 92
1
 93
0
 94
0
 95
0
 96
0
141
9.0
141
9.0
141
9.0
141
9.0
141
9.0
142
11.2
171
1
172
0
173
0
174
0
175
1
176
1
 91
41
178
0
145
0.0
301
CELL_VALUE
 90
4
  1
-
304
ACVALUE_END
170
5
140
2.5
 64
5
171
1
172
0
173
0
174
0
175
1
176
1
 91
41
178
0
145
0.0
301
CELL_VALUE
 90
4
  1
-
304
ACVALUE_END
170
5
140
2.5
 64
5
171
1
172
0
173
0
174
0
175
1
176
1
 91
41
178
0
145
0.0
301
CELL_VALUE
 90
4
  1
-
304
ACVALUE_END
170
5
140
2.5
 64
5
171
1
172
0
173
0
174
0
175
1
176
1
 91
41
178
0
145
0.0
301
CELL_VALUE
 90
4
  1
-
304
ACVALUE_END
170
5
140
2.5
 64
5
171
1
172
0
173
0
174
0
175
1
176
1
 91
41
178
0
145
0.0
301
CELL_VALUE
 90
4
  1
-
304
ACVALUE_END
170
5
140
2.5
 64
5
  0
LINE
  5
313
100
AcDbEntity
  8
0
100
AcDbLine
 62
5
  6
CONTINUOUS
 10
25.0
 20
4.9999999949
 11
205.0
 21
4.999999958
  0
LINE
  5
314
100
AcDbEntity
  8
0
100
AcDbLine
 62
5
  6
CONTINUOUS
 10
25.0
 20
291.9999999949
 11
25.0
 21
4.9999999949
  0
LINE
  5
315
100
AcDbEntity
  8
0
100
AcDbLine
 62
5
  6
CONTINUOUS
 10
1.0
 20
148.4999999998
 11
15.0
 21
148.4999999969
  0
LINE
  5
316
100
AcDbEntity
  8
0
100
AcDbLine
 62
5
  6
CONTINUOUS
 10
205.0
 20
291.999999958
 11
205.0
 21
4.999999958
  0
LINE
  5
317
100
AcDbEntity
  8
0
100
AcDbLine
 62
5
  6
CONTINUOUS
 10
25.0
 20
291.9999999949
 11
205.0
 21
291.999999958
  0
LINE
  5
318
100
AcDbEntity
  8
AXIS
100
AcDbLine
 62
7
  6
CONTINUOUS
 10
146.9724270638
 20
118.0588814278
 11
122.9724270638
 21
118.0588814278
  0
LINE
  5
319
100
AcDbEntity
  8
AXIS
100
AcDbLine
 62
7
  6
CENTER
 10
134.9724270638
 20
130.0588814278
 11
127.1724270638
 21
130.0588814278
  0
LINE
  5
31A
100
AcDbEntity
  8
AXIS
100
AcDbLine
 62
7
  6
CENTER
 10
134.9724270638
 20
130.0588814278
 11
142.7724270638
 21
130.0588814278
  0
LINE
  5
31B
100
AcDbEntity
  8
AXIS
100
AcDbLine
 62
7
  6
CONTINUOUS
 10
133.127427064
 20
143.4688814278
 11
134.106482531
 21
143.4688814278
  0
LINE
  5
31C
100
AcDbEntity
  8
AXIS
100
AcDbLine
 62
7
  6
CONTINUOUS
 10
135.3624270639
 20
143.4688814278
 11
136.1724270639
 21
143.4688814278
  0
LINE
  5
31D
100
AcDbEntity
  8
AXIS
100
AcDbLine
 62
7
  6
CONTINUOUS
 10
137.8869270639
 20
143.4688814278
 11
139.5474270639
 21
143.4688814278
  0
LINE
  5
31E
100
AcDbEntity
  8
AXIS
100
AcDbLine
 62
7
  6
CONTINUOUS
 10
139.3474270639
 20
143.6688814278
 11
137.8869270639
 21
143.6688814278
  0
LINE
  5
31F
100
AcDbEntity
  8
AXIS
100
AcDbLine
 62
7
  6
CONTINUOUS
 10
135.9724270639
 20
143.6688814278
 11
135.5624270639
 21
143.6688814278
  0
LINE
  5
320
100
AcDbEntity
  8
AXIS
100
AcDbLine
 62
7
  6
CONTINUOUS
 10
134.0132209994
 20
143.6688814278
 11
133.5563284481
 21
143.6688814278
  0
LINE
  5
321
100
AcDbEntity
  8
AXIS
100
AcDbLine
 62
7
  6
CONTINUOUS
 10
138.0024270639
 20
143.9588814278
 11
138.9824270639
 21
143.9588814278
  0
LINE
  5
322
100
AcDbEntity
  8
AXIS
100
AcDbLine
 62
7
  6
CONTINUOUS
 10
138.7824270639
 20
144.1588814278
 11
138.0024270639
 21
144.1588814278
  0
LINE
  5
323
100
AcDbEntity
  8
AXIS
100
AcDbLine
 62
7
  6
CONTINUOUS
 10
138.0024270639
 20
144.9988814278
 11
138.7824270639
 21
144.9988814278
  0
LINE
  5
324
100
AcDbEntity
  8
AXIS
100
AcDbLine
 62
7
  6
CONTINUOUS
 10
138.9824270639
 20
145.1988814278
 11
138.0024270639
 21
145.1988814278
  0
LINE
  5
325
100
AcDbEntity
  8
AXIS
100
AcDbLine
 62
7
  6
CONTINUOUS
 10
138.0054540503
 20
145.4588814278
 11
138.9824270639
 21
145.4588814278
  0
LINE
  5
326
100
AcDbEntity
  8
AXIS
100
AcDbLine
 62
7
  6
CONTINUOUS
 10
138.7824270639
 20
145.6588814278
 11
138.0024270639
 21
145.6588814278
  0
LINE
  5
327
100
AcDbEntity
  8
AXIS
100
AcDbLine
 62
7
  6
CONTINUOUS
 10
138.0024270639
 20
146.5588814278
 11
138.7824270639
 21
146.5588814278
  0
LINE
  5
328
100
AcDbEntity
  8
AXIS
100
AcDbLine
 62
7
  6
CONTINUOUS
 10
138.9824270639
 20
146.7588814278
 11
138.0054540503
 21
146.7588814278
  0
LINE
  5
329
100
AcDbEntity
  8
AXIS
100
AcDbLine
 62
7
  6
CONTINUOUS
 10
133.3988372255
 20
147.0638814278
 11
133.8722644462
 21
147.0638814278
  0
LINE
  5
32A
100
AcDbEntity
  8
AXIS
100
AcDbLine
 62
7
  6
CONTINUOUS
 10
135.5624270639
 20
147.0638814278
 11
135.9724270639
 21
147.0638814278
  0
LINE
  5
32B
100
AcDbEntity
  8
AXIS
100
AcDbLine
 62
7
  6
CONTINUOUS
 10
137.8674270639
 20
147.0638814278
 11
139.3474270639
 21
147.0638814278
  0
LINE
  5
32C
100
AcDbEntity
  8
AXIS
100
AcDbLine
 62
7
  6
CONTINUOUS
 10
139.5474270639
 20
147.2638814278
 11
137.8674270639
 21
147.2638814278
  0
LINE
  5
32D
100
AcDbEntity
  8
AXIS
100
AcDbLine
 62
7
  6
CONTINUOUS
 10
136.1724270639
 20
147.2638814278
 11
135.3624270639
 21
147.2638814278
  0
LINE
  5
32E
100
AcDbEntity
  8
AXIS
100
AcDbLine
 62
7
  6
CONTINUOUS
 10
133.9877345
 20
147.2638814278
 11
133.0524270639
 21
147.2638814278
  0
LINE
  5
32F
100
AcDbEntity
  8
AXIS
100
AcDbLine
 62
7
  6
CONTINUOUS
 10
130.1183147047
 20
147.8588814278
 11
139.826539423
 21
147.8588814278
  0
LINE
  5
330
100
AcDbEntity
  8
AXIS
100
AcDbLine
 62
7
  6
CONTINUOUS
 10
139.8265394231
 20
148.0588814278
 11
130.1183147047
 21
148.0588814278
  0
LINE
  5
331
100
AcDbEntity
  8
AXIS
100
AcDbLine
 62
7
  6
CONTINUOUS
 10
135.8383715966
 20
212.6488814278
 11
134.5824270637
 21
211.1521050185
  0
LINE
  5
332
100
AcDbEntity
  8
AXIS
100
AcDbLine
 62
7
  6
CONTINUOUS
 10
134.3824270637
 20
210.6026095346
 11
135.9316331282
 21
212.4488814278
  0
LINE
  5
333
100
AcDbEntity
  8
AXIS
100
AcDbLine
 62
7
  6
CONTINUOUS
 10
135.0372771214
 20
210.8470953836
 11
134.3824270637
 21
210.0666754747
  0
LINE
  5
334
100
AcDbEntity
  8
AXIS
100
AcDbLine
 62
7
  6
CONTINUOUS
 10
136.3885256795
 20
212.4488814278
 11
135.3206645051
 21
211.1762540367
  0
LINE
  5
335
100
AcDbEntity
  8
AXIS
100
AcDbLine
 62
7
  6
CONTINUOUS
 10
134.5824270637
 20
209.9938814278
 11
135.0068868413
 21
210.4997328927
  0
LINE
  5
336
100
AcDbEntity
  8
AXIS
100
AcDbLine
 62
7
  6
CONTINUOUS
 10
135.5638903397
 20
211.1549745335
 11
136.8174270636
 21
212.6488814278
  0
LINE
  5
337
100
AcDbEntity
  8
AXIS
100
AcDbLine
 62
7
  6
CONTINUOUS
 10
139.4159700729
 20
212.2002357688
 11
139.1760380714
 21
211.9603037673
  0
LINE
  5
338
100
AcDbEntity
  8
AXIS
100
AcDbLine
 62
7
  6
CONTINUOUS
 10
139.1860615704
 20
211.6874845539
 11
139.7168356503
 21
212.2182586338
  0
LINE
  5
339
100
AcDbEntity
  8
AXIS
100
AcDbLine
 62
7
  6
CONTINUOUS
 10
137.4821030185
 20
209.8774599849
 11
136.9549804677
 21
209.350337434
  0
LINE
  5
33A
100
AcDbEntity
  8
AXIS
100
AcDbLine
 62
7
  6
CONTINUOUS
 10
137.2494292175
 20
209.3619434713
 11
137.5007270724
 21
209.6132413262
  0
LINE
  5
33B
100
AcDbEntity
  8
AXIS
100
AcDbLine
 62
7
  6
CONTINUOUS
 10
146.9724270638
 20
155.0588814278
 11
145.4724270638
 21
155.0588814278
  0
LINE
  5
33C
100
AcDbEntity
  8
AXIS
100
AcDbLine
 62
7
  6
CONTINUOUS
 10
124.4724270638
 20
155.0588814278
 11
122.9724270638
 21
155.0588814278
  0
LINE
  5
33D
100
AcDbEntity
  8
AXIS
100
AcDbLine
 62
7
  6
CONTINUOUS
 10
130.4724270638
 20
158.0588814278
 11
139.9724270638
 21
158.0588814278
  0
LINE
  5
33E
100
AcDbEntity
  8
AXIS
100
AcDbLine
 62
7
  6
CONTINUOUS
 10
133.0524270639
 20
147.2638814278
 11
134.3809637879
 21
144.9627883221
  0
LINE
  5
33F
100
AcDbEntity
  8
AXIS
100
AcDbLine
 62
7
  6
CONTINUOUS
 10
134.6241896225
 20
144.941508819
 11
133.3988372255
 21
147.0638814278
  0
LINE
  5
340
100
AcDbEntity
  8
AXIS
100
AcDbLine
 62
7
  6
CONTINUOUS
 10
133.8722644462
 20
147.0638814278
 11
134.9075770063
 21
145.2706674721
  0
LINE
  5
341
100
AcDbEntity
  8
AXIS
100
AcDbLine
 62
7
  6
CONTINUOUS
 10
134.9379672863
 20
145.6180299629
 11
133.9877345
 21
147.2638814278
  0
LINE
  5
342
100
AcDbEntity
  8
AXIS
100
AcDbLine
 62
7
  6
CONTINUOUS
 10
122.9724270638
 20
118.0588814278
 11
122.9724270638
 21
238.0588814278
  0
LINE
  5
343
100
AcDbEntity
  8
AXIS
100
AcDbLine
 62
9
  6
CONTINUOUS
 10
124.4724270638
 20
155.0588814278
 11
124.4724270638
 21
201.0588814278
  0
LINE
  5
344
100
AcDbEntity
  8
AXIS
100
AcDbLine
 62
7
  6
CONTINUOUS
 10
127.4724271786
 20
183.6242909505
 11
127.4724271786
 21
172.4934719051
  0
LINE
  5
345
100
AcDbEntity
  8
AXIS
100
AcDbLine
 62
7
  6
CONTINUOUS
 10
128.4724270638
 20
196.0588814278
 11
128.4724270638
 21
160.0588814278
  0
LINE
  5
346
100
AcDbEntity
  8
AXIS
100
AcDbLine
 62
7
  6
CONTINUOUS
 10
130.1574270639
 20
146.1988814278
 11
130.1574270639
 21
145.9888814278
  0
LINE
  5
347
100
AcDbEntity
  8
AXIS
100
AcDbLine
 62
7
  6
CONTINUOUS
 10
130.3574270639
 20
145.9888814278
 11
130.3574270639
 21
146.1988814278
  0
LINE
  5
348
100
AcDbEntity
  8
AXIS
100
AcDbLine
 62
7
  6
CONTINUOUS
 10
130.3974270637
 20
212.6488814278
 11
130.3974270637
 21
208.8538814278
  0
LINE
  5
349
100
AcDbEntity
  8
AXIS
100
AcDbLine
 62
7
  6
CONTINUOUS
 10
130.5974270637
 20
209.0538814278
 11
130.5974270637
 21
212.4488814278
  0
LINE
  5
34A
100
AcDbEntity
  8
AXIS
100
AcDbLine
 62
7
  6
CONTINUOUS
 10
130.9624270637
 20
212.1588814278
 11
130.9624270637
 21
210.9188814278
  0
LINE
  5
34B
100
AcDbEntity
  8
AXIS
100
AcDbLine
 62
7
  6
CONTINUOUS
 10
130.9624270637
 20
210.6588814278
 11
130.9624270637
 21
209.3588814278
  0
LINE
  5
34C
100
AcDbEntity
  8
AXIS
100
AcDbLine
 62
7
  6
CONTINUOUS
 10
131.1624270637
 20
209.5588814278
 11
131.1624270637
 21
210.4588814278
  0
LINE
  5
34D
100
AcDbEntity
  8
AXIS
100
AcDbLine
 62
7
  6
CONTINUOUS
 10
131.1624270637
 20
211.1188814278
 11
131.1624270637
 21
211.9588814278
  0
LINE
  5
34E
100
AcDbEntity
  8
AXIS
100
AcDbLine
 62
7
  6
CONTINUOUS
 10
141.4919788768
 20
211.6343575728
 11
140.1960912359
 21
208.5058080549
  0
LINE
  5
34F
100
AcDbEntity
  8
AXIS
100
AcDbLine
 62
7
  6
CONTINUOUS
 10
140.3808671424
 20
208.4292713684
 11
141.6767547833
 21
211.5578208864
  0
LINE
  5
350
100
AcDbEntity
  8
AXIS
100
AcDbLine
 62
9
  6
CONTINUOUS
 10
142.972426949
 20
172.4934719051
 11
141.9724270638
 21
172.4934719051
  0
LINE
  5
351
100
AcDbEntity
  8
AXIS
100
AcDbLine
 62
9
  6
CONTINUOUS
 10
128.4724270638
 20
172.4934719051
 11
127.4724271786
 21
172.4934719051
  0
LINE
  5
352
100
AcDbEntity
  8
AXIS
100
AcDbLine
 62
7
  6
CONTINUOUS
 10
140.196091236
 20
147.6119548009
 11
141.4919788769
 21
144.483405283
  0
LINE
  5
353
100
AcDbEntity
  8
AXIS
100
AcDbLine
 62
7
  6
CONTINUOUS
 10
141.6767547833
 20
144.5599419694
 11
140.3808671424
 21
147.6884914873
  0
LINE
  5
354
100
AcDbEntity
  8
AXIS
100
AcDbLine
 62
7
  6
CONTINUOUS
 10
132.5314328089
 20
210.8929831991
 11
132.5314328089
 21
210.6877241059
  0
LINE
  5
355
100
AcDbEntity
  8
AXIS
100
AcDbLine
 62
7
  6
CONTINUOUS
 10
132.6029591374
 20
144.7588814278
 11
132.6029591374
 21
144.5488814278
  0
LINE
  5
356
100
AcDbEntity
  8
AXIS
100
AcDbLine
 62
7
  6
CONTINUOUS
 10
132.8029591374
 20
144.5488814278
 11
132.8029591374
 21
144.7588814278
  0
LINE
  5
357
100
AcDbEntity
  8
AXIS
100
AcDbLine
 62
7
  6
CONTINUOUS
 10
133.7724270637
 20
212.6488814278
 11
133.7724270637
 21
208.8538814278
  0
LINE
  5
358
100
AcDbEntity
  8
AXIS
100
AcDbLine
 62
7
  6
CONTINUOUS
 10
133.9724270637
 20
209.0538814278
 11
133.9724270637
 21
212.4488814278
  0
LINE
  5
359
100
AcDbEntity
  8
AXIS
100
AcDbLine
 62
7
  6
CONTINUOUS
 10
134.3824270637
 20
212.4488814278
 11
134.3824270637
 21
210.6026095346
  0
LINE
  5
35A
100
AcDbEntity
  8
AXIS
100
AcDbLine
 62
7
  6
CONTINUOUS
 10
134.3824270637
 20
210.0666754747
 11
134.3824270637
 21
209.0538814278
  0
LINE
  5
35B
100
AcDbEntity
  8
AXIS
100
AcDbLine
 62
7
  6
CONTINUOUS
 10
134.5824270637
 20
208.8538814278
 11
134.5824270637
 21
209.9938814278
  0
LINE
  5
35C
100
AcDbEntity
  8
AXIS
100
AcDbLine
 62
7
  6
CONTINUOUS
 10
134.5824270637
 20
211.1521050185
 11
134.5824270637
 21
212.6488814278
  0
LINE
  5
35D
100
AcDbEntity
  8
AXIS
100
AcDbLine
 62
7
  6
CENTER
 10
134.9724270638
 20
226.0588814278
 11
134.9724270638
 21
218.2588814278
  0
LINE
  5
35E
100
AcDbEntity
  8
AXIS
100
AcDbLine
 62
7
  6
CENTER
 10
134.9724270638
 20
130.0588814278
 11
134.9724270638
 21
122.2588814278
  0
LINE
  5
35F
100
AcDbEntity
  8
AXIS
100
AcDbLine
 62
7
  6
CENTER
 10
134.9724270638
 20
130.0588814278
 11
134.9724270638
 21
137.8588814278
  0
LINE
  5
360
100
AcDbEntity
  8
AXIS
100
AcDbLine
 62
7
  6
CENTER
 10
134.9724270638
 20
226.0588814278
 11
134.9724270638
 21
233.8588814278
  0
LINE
  5
361
100
AcDbEntity
  8
AXIS
100
AcDbLine
 62
7
  6
CONTINUOUS
 10
135.3624270639
 20
147.2638814278
 11
135.3624270639
 21
146.1238814278
  0
LINE
  5
362
100
AcDbEntity
  8
AXIS
100
AcDbLine
 62
7
  6
CONTINUOUS
 10
135.3624270639
 20
144.9656578371
 11
135.3624270639
 21
143.4688814278
  0
LINE
  5
363
100
AcDbEntity
  8
S-AXIS
100
AcDbLine
 62
7
  6
CENTER
 10
149.9724270638
 20
178.0588814278
 11
119.9724270638
 21
178.0588814278
  0
LINE
  5
364
100
AcDbEntity
  8
AXIS
100
AcDbLine
 62
7
  6
CONTINUOUS
 10
135.5624270639
 20
143.6688814278
 11
135.5624270639
 21
145.515153321
  0
LINE
  5
365
100
AcDbEntity
  8
AXIS
100
AcDbLine
 62
7
  6
CONTINUOUS
 10
135.5624270639
 20
146.0510873809
 11
135.5624270639
 21
147.0638814278
  0
LINE
  5
366
100
AcDbEntity
  8
AXIS
100
AcDbLine
 62
7
  6
CONTINUOUS
 10
135.9724270639
 20
147.0638814278
 11
135.9724270639
 21
143.6688814278
  0
LINE
  5
367
100
AcDbEntity
  8
AXIS
100
AcDbLine
 62
7
  6
CONTINUOUS
 10
136.1724270639
 20
143.4688814278
 11
136.1724270639
 21
147.2638814278
  0
LINE
  5
368
100
AcDbEntity
  8
AXIS
100
AcDbLine
 62
7
  6
CONTINUOUS
 10
137.1418949902
 20
211.5688814278
 11
137.1418949902
 21
211.3588814278
  0
LINE
  5
369
100
AcDbEntity
  8
AXIS
100
AcDbLine
 62
7
  6
CONTINUOUS
 10
137.3418949902
 20
211.3588814278
 11
137.3418949902
 21
211.5688814278
  0
LINE
  5
36A
100
AcDbEntity
  8
AXIS
100
AcDbLine
 62
7
  6
CONTINUOUS
 10
137.4134213187
 20
145.2247796565
 11
137.4134213187
 21
145.4300387497
  0
LINE
  5
36B
100
AcDbEntity
  8
AXIS
100
AcDbLine
 62
7
  6
CONTINUOUS
 10
138.7824270639
 20
146.5588814278
 11
138.7824270639
 21
145.6588814278
  0
LINE
  5
36C
100
AcDbEntity
  8
AXIS
100
AcDbLine
 62
7
  6
CONTINUOUS
 10
138.7824270639
 20
144.9988814278
 11
138.7824270639
 21
144.1588814278
  0
LINE
  5
36D
100
AcDbEntity
  8
AXIS
100
AcDbLine
 62
7
  6
CONTINUOUS
 10
138.9824270639
 20
143.9588814278
 11
138.9824270639
 21
145.1988814278
  0
LINE
  5
36E
100
AcDbEntity
  8
AXIS
100
AcDbLine
 62
7
  6
CONTINUOUS
 10
138.9824270639
 20
145.4588814278
 11
138.9824270639
 21
146.7588814278
  0
LINE
  5
36F
100
AcDbEntity
  8
AXIS
100
AcDbLine
 62
7
  6
CONTINUOUS
 10
139.3474270639
 20
147.0638814278
 11
139.3474270639
 21
143.6688814278
  0
LINE
  5
370
100
AcDbEntity
  8
AXIS
100
AcDbLine
 62
7
  6
CONTINUOUS
 10
139.5474270639
 20
143.4688814278
 11
139.5474270639
 21
147.2638814278
  0
LINE
  5
371
100
AcDbEntity
  8
AXIS
100
AcDbLine
 62
7
  6
CONTINUOUS
 10
139.5874270637
 20
210.1288814278
 11
139.5874270637
 21
209.9188814278
  0
LINE
  5
372
100
AcDbEntity
  8
AXIS
100
AcDbLine
 62
7
  6
CONTINUOUS
 10
139.7874270637
 20
209.9188814278
 11
139.7874270637
 21
210.1288814278
  0
LINE
  5
373
100
AcDbEntity
  8
AXIS
100
AcDbLine
 62
7
  6
CONTINUOUS
 10
141.9724270638
 20
160.0588814278
 11
141.9724270638
 21
196.0588814278
  0
LINE
  5
374
100
AcDbEntity
  8
AXIS
100
AcDbLine
 62
7
  6
CONTINUOUS
 10
142.972426949
 20
172.4934719051
 11
142.972426949
 21
183.6242909505
  0
LINE
  5
375
100
AcDbEntity
  8
AXIS
100
AcDbLine
 62
7
  6
CONTINUOUS
 10
129.5639869852
 20
147.6884914873
 11
128.2680993443
 21
144.5599419693
  0
LINE
  5
376
100
AcDbEntity
  8
AXIS
100
AcDbLine
 62
7
  6
CONTINUOUS
 10
128.4528752508
 20
144.4834052828
 11
129.7487628917
 21
147.6119548008
  0
LINE
  5
377
100
AcDbEntity
  8
AXIS
100
AcDbLine
 62
9
  6
CONTINUOUS
 10
142.972426949
 20
183.6242909505
 11
141.9724270638
 21
183.6242909505
  0
LINE
  5
378
100
AcDbEntity
  8
AXIS
100
AcDbLine
 62
9
  6
CONTINUOUS
 10
128.4724270638
 20
183.6242909505
 11
127.4724271786
 21
183.6242909505
  0
LINE
  5
379
100
AcDbEntity
  8
AXIS
100
AcDbLine
 62
7
  6
CONTINUOUS
 10
128.2680993443
 20
211.5578208863
 11
129.5639869852
 21
208.4292713684
  0
LINE
  5
37A
100
AcDbEntity
  8
AXIS
100
AcDbLine
 62
7
  6
CONTINUOUS
 10
129.7487628916
 20
208.5058080548
 11
128.4528752507
 21
211.6343575727
  0
LINE
  5
37B
100
AcDbEntity
  8
AXIS
100
AcDbLine
 62
9
  6
CONTINUOUS
 10
145.4724270638
 20
155.0588814278
 11
145.4724270638
 21
201.0588814278
  0
LINE
  5
37C
100
AcDbEntity
  8
AXIS
100
AcDbLine
 62
7
  6
CONTINUOUS
 10
146.9724270638
 20
118.0588814278
 11
146.9724270638
 21
238.0588814278
  0
LINE
  5
37D
100
AcDbEntity
  8
AXIS
100
AcDbLine
 62
7
  6
CONTINUOUS
 10
135.0068868413
 20
210.4997328927
 11
135.9571196276
 21
208.8538814278
  0
LINE
  5
37E
100
AcDbEntity
  8
AXIS
100
AcDbLine
 62
7
  6
CONTINUOUS
 10
136.0725896814
 20
209.0538814278
 11
135.0372771214
 21
210.8470953836
  0
LINE
  5
37F
100
AcDbEntity
  8
AXIS
100
AcDbLine
 62
7
  6
CONTINUOUS
 10
135.3206645051
 20
211.1762540367
 11
136.5460169021
 21
209.0538814278
  0
LINE
  5
380
100
AcDbEntity
  8
AXIS
100
AcDbLine
 62
7
  6
CONTINUOUS
 10
134.3809637879
 20
144.9627883221
 11
133.127427064
 21
143.4688814278
  0
LINE
  5
381
100
AcDbEntity
  8
AXIS
100
AcDbLine
 62
7
  6
CONTINUOUS
 10
135.3624270639
 20
146.1238814278
 11
134.9379672863
 21
145.6180299629
  0
LINE
  5
382
100
AcDbEntity
  8
AXIS
100
AcDbLine
 62
7
  6
CONTINUOUS
 10
132.6954249101
 20
146.7558193843
 11
132.4441270552
 21
146.5045215294
  0
LINE
  5
383
100
AcDbEntity
  8
AXIS
100
AcDbLine
 62
7
  6
CONTINUOUS
 10
132.4627511091
 20
146.2403028708
 11
132.9898736599
 21
146.7674254216
  0
LINE
  5
384
100
AcDbEntity
  8
AXIS
100
AcDbLine
 62
7
  6
CONTINUOUS
 10
130.7587925572
 20
144.4302783018
 11
130.2280184773
 21
143.8995042219
  0
LINE
  5
385
100
AcDbEntity
  8
AXIS
100
AcDbLine
 62
7
  6
CONTINUOUS
 10
139.9724270638
 20
198.0588814278
 11
130.4724270638
 21
198.0588814278
  0
LINE
  5
386
100
AcDbEntity
  8
AXIS
100
AcDbLine
 62
7
  6
CONTINUOUS
 10
136.8924270637
 20
208.8538814278
 11
135.5638903397
 21
211.1549745335
  0
LINE
  5
387
100
AcDbEntity
  8
AXIS
100
AcDbLine
 62
7
  6
CONTINUOUS
 10
133.5563284481
 20
143.6688814278
 11
134.6241896225
 21
144.941508819
  0
LINE
  5
388
100
AcDbEntity
  8
AXIS
100
AcDbLine
 62
7
  6
CONTINUOUS
 10
134.9075770063
 20
145.2706674721
 11
135.5624270639
 21
146.0510873809
  0
LINE
  5
389
100
AcDbEntity
  8
AXIS
100
AcDbLine
 62
7
  6
CONTINUOUS
 10
135.5624270639
 20
145.515153321
 11
134.0132209994
 21
143.6688814278
  0
LINE
  5
38A
100
AcDbEntity
  8
AXIS
100
AcDbLine
 62
7
  6
CONTINUOUS
 10
134.106482531
 20
143.4688814278
 11
135.3624270639
 21
144.9656578371
  0
LINE
  5
38B
100
AcDbEntity
  8
AXIS
100
AcDbLine
 62
7
  6
CONTINUOUS
 10
130.5288840547
 20
143.9175270869
 11
130.7688160562
 21
144.1574590884
  0
LINE
  5
38C
100
AcDbEntity
  8
AXIS
100
AcDbLine
 62
7
  6
CONTINUOUS
 10
146.9724270638
 20
201.0588814278
 11
145.4724270638
 21
201.0588814278
  0
LINE
  5
38D
100
AcDbEntity
  8
AXIS
100
AcDbLine
 62
7
  6
CONTINUOUS
 10
124.4724270638
 20
201.0588814278
 11
122.9724270638
 21
201.0588814278
  0
LINE
  5
38E
100
AcDbEntity
  8
AXIS
100
AcDbLine
 62
7
  6
CONTINUOUS
 10
130.1183147045
 20
208.0588814278
 11
139.8265394229
 21
208.0588814278
  0
LINE
  5
38F
100
AcDbEntity
  8
AXIS
100
AcDbLine
 62
7
  6
CONTINUOUS
 10
139.8265394229
 20
208.2588814278
 11
130.1183147046
 21
208.2588814278
  0
LINE
  5
390
100
AcDbEntity
  8
AXIS
100
AcDbLine
 62
7
  6
CONTINUOUS
 10
130.3974270637
 20
208.8538814278
 11
132.0774270637
 21
208.8538814278
  0
LINE
  5
391
100
AcDbEntity
  8
AXIS
100
AcDbLine
 62
7
  6
CONTINUOUS
 10
133.7724270637
 20
208.8538814278
 11
134.5824270637
 21
208.8538814278
  0
LINE
  5
392
100
AcDbEntity
  8
AXIS
100
AcDbLine
 62
7
  6
CONTINUOUS
 10
135.9571196276
 20
208.8538814278
 11
136.8924270637
 21
208.8538814278
  0
LINE
  5
393
100
AcDbEntity
  8
AXIS
100
AcDbLine
 62
7
  6
CONTINUOUS
 10
136.5460169021
 20
209.0538814278
 11
136.0725896814
 21
209.0538814278
  0
LINE
  5
394
100
AcDbEntity
  8
AXIS
100
AcDbLine
 62
7
  6
CONTINUOUS
 10
134.3824270637
 20
209.0538814278
 11
133.9724270637
 21
209.0538814278
  0
LINE
  5
395
100
AcDbEntity
  8
AXIS
100
AcDbLine
 62
7
  6
CONTINUOUS
 10
132.0774270637
 20
209.0538814278
 11
130.5974270637
 21
209.0538814278
  0
LINE
  5
396
100
AcDbEntity
  8
AXIS
100
AcDbLine
 62
7
  6
CONTINUOUS
 10
130.9624270637
 20
209.3588814278
 11
131.9394000773
 21
209.3588814278
  0
LINE
  5
397
100
AcDbEntity
  8
AXIS
100
AcDbLine
 62
7
  6
CONTINUOUS
 10
131.9424270637
 20
209.5588814278
 11
131.1624270637
 21
209.5588814278
  0
LINE
  5
398
100
AcDbEntity
  8
AXIS
100
AcDbLine
 62
7
  6
CONTINUOUS
 10
131.1624270637
 20
210.4588814278
 11
131.9424270637
 21
210.4588814278
  0
LINE
  5
399
100
AcDbEntity
  8
AXIS
100
AcDbLine
 62
7
  6
CONTINUOUS
 10
131.9394000773
 20
210.6588814278
 11
130.9624270637
 21
210.6588814278
  0
LINE
  5
39A
100
AcDbEntity
  8
AXIS
100
AcDbLine
 62
7
  6
CONTINUOUS
 10
130.9624270637
 20
210.9188814278
 11
131.9424270637
 21
210.9188814278
  0
LINE
  5
39B
100
AcDbEntity
  8
AXIS
100
AcDbLine
 62
7
  6
CONTINUOUS
 10
131.9424270637
 20
211.1188814278
 11
131.1624270637
 21
211.1188814278
  0
LINE
  5
39C
100
AcDbEntity
  8
AXIS
100
AcDbLine
 62
7
  6
CONTINUOUS
 10
131.1624270637
 20
211.9588814278
 11
131.9424270637
 21
211.9588814278
  0
LINE
  5
39D
100
AcDbEntity
  8
AXIS
100
AcDbLine
 62
7
  6
CONTINUOUS
 10
131.9424270637
 20
212.1588814278
 11
130.9624270637
 21
212.1588814278
  0
LINE
  5
39E
100
AcDbEntity
  8
AXIS
100
AcDbLine
 62
7
  6
CONTINUOUS
 10
130.5974270637
 20
212.4488814278
 11
132.0579270637
 21
212.4488814278
  0
LINE
  5
39F
100
AcDbEntity
  8
AXIS
100
AcDbLine
 62
7
  6
CONTINUOUS
 10
133.9724270637
 20
212.4488814278
 11
134.3824270637
 21
212.4488814278
  0
LINE
  5
3A0
100
AcDbEntity
  8
AXIS
100
AcDbLine
 62
7
  6
CONTINUOUS
 10
135.9316331282
 20
212.4488814278
 11
136.3885256795
 21
212.4488814278
  0
LINE
  5
3A1
100
AcDbEntity
  8
AXIS
100
AcDbLine
 62
7
  6
CONTINUOUS
 10
136.8174270636
 20
212.6488814278
 11
135.8383715966
 21
212.6488814278
  0
LINE
  5
3A2
100
AcDbEntity
  8
AXIS
100
AcDbLine
 62
7
  6
CONTINUOUS
 10
134.5824270637
 20
212.6488814278
 11
133.7724270637
 21
212.6488814278
  0
LINE
  5
3A3
100
AcDbEntity
  8
AXIS
100
AcDbLine
 62
7
  6
CONTINUOUS
 10
132.0579270637
 20
212.6488814278
 11
130.3974270637
 21
212.6488814278
  0
LINE
  5
3A4
100
AcDbEntity
  8
AXIS
100
AcDbLine
 62
7
  6
CENTER
 10
134.9724270638
 20
226.0588814278
 11
127.1724270638
 21
226.0588814278
  0
LINE
  5
3A5
100
AcDbEntity
  8
AXIS
100
AcDbLine
 62
7
  6
CENTER
 10
134.9724270638
 20
226.0588814278
 11
142.7724270638
 21
226.0588814278
  0
LINE
  5
3A6
100
AcDbEntity
  8
AXIS
100
AcDbLine
 62
7
  6
CONTINUOUS
 10
146.9724270638
 20
238.0588814278
 11
122.9724270638
 21
238.0588814278
  0
LINE
  5
3A7
100
AcDbEntity
  8
AXIS
100
AcDbLine
 62
7
  6
CONTINUOUS
 10
79.2947208879
 20
118.0588814278
 11
76.2947208879
 21
118.0588814278
  0
LINE
  5
3A8
100
AcDbEntity
  8
AXIS
100
AcDbLine
 62
7
  6
CENTER
 10
73.2947208879
 20
130.0588814278
 11
82.2947208879
 21
130.0588814278
  0
LINE
  5
3A9
100
AcDbEntity
  8
AXIS
100
AcDbLine
 62
7
  6
CONTINUOUS
 10
76.2947208879
 20
155.0588814278
 11
77.7947208879
 21
155.0588814278
  0
LINE
  5
3AA
100
AcDbEntity
  8
AXIS
100
AcDbLine
 62
7
  6
CONTINUOUS
 10
76.2947208879
 20
118.0588814278
 11
76.2947208879
 21
238.0588814278
  0
LINE
  5
3AB
100
AcDbEntity
  8
AXIS
100
AcDbLine
 62
9
  6
CONTINUOUS
 10
77.7947208879
 20
155.0588814278
 11
77.7947208879
 21
201.0588814278
  0
LINE
  5
3AC
100
AcDbEntity
  8
S-AXIS
100
AcDbLine
 62
7
  6
CENTER
 10
82.2947208879
 20
178.0588814278
 11
72.7947209453
 21
178.0588814278
  0
LINE
  5
3AD
100
AcDbEntity
  8
AXIS
100
AcDbLine
 62
7
  6
CONTINUOUS
 10
79.2947208879
 20
238.0588814278
 11
79.2947208879
 21
118.0588814278
  0
LINE
  5
3AE
100
AcDbEntity
  8
AXIS
100
AcDbLine
 62
7
  6
CONTINUOUS
 10
76.2947208879
 20
201.0588814278
 11
77.7947208879
 21
201.0588814278
  0
LINE
  5
3AF
100
AcDbEntity
  8
AXIS
100
AcDbLine
 62
7
  6
CENTER
 10
73.2947208879
 20
226.0588814278
 11
82.2947208879
 21
226.0588814278
  0
LINE
  5
3B0
100
AcDbEntity
  8
AXIS
100
AcDbLine
 62
7
  6
CONTINUOUS
 10
79.2947208879
 20
238.0588814278
 11
76.2947208879
 21
238.0588814278
  0
LINE
  5
3B1
100
AcDbEntity
  8
AXIS
100
AcDbLine
 62
7
  6
CONTINUOUS
 10
79.2947208879
 20
75.9516815734
 11
76.2947208879
 21
75.9516815734
  0
LINE
  5
3B2
100
AcDbEntity
  8
AXIS
100
AcDbLine
 62
7
  6
CONTINUOUS
 10
76.2947208879
 20
75.9516815734
 11
76.2947208879
 21
99.9516815734
  0
LINE
  5
3B3
100
AcDbEntity
  8
DEFAULT_1
100
AcDbLine
 62
7
  6
CENTER
 10
72.7947209453
 20
87.7016815734
 11
82.2947208879
 21
87.7016815734
  0
LINE
  5
3B4
100
AcDbEntity
  8
S-AXIS
100
AcDbLine
 62
7
  6
CENTER
 10
82.2947208879
 20
87.9516815734
 11
72.7947209453
 21
87.9516815734
  0
LINE
  5
3B5
100
AcDbEntity
  8
AXIS
100
AcDbLine
 62
7
  6
CONTINUOUS
 10
79.2947208879
 20
99.9516815734
 11
79.2947208879
 21
75.9516815734
  0
LINE
  5
3B6
100
AcDbEntity
  8
AXIS
100
AcDbLine
 62
7
  6
CONTINUOUS
 10
76.2947208879
 20
99.9516815734
 11
79.2947208879
 21
99.9516815734
  0
ARC
  5
3B7
100
AcDbEntity
  8
AXIS
100
AcDbCircle
 62
7
  6
CONTINUOUS
 10
128.783037138
 20
127.175051034
 40
18.2
100
AcDbArc
 50
80.6058710585
 51
82.9334763983
  0
ARC
  5
3B8
100
AcDbEntity
  8
AXIS
100
AcDbCircle
 62
7
  6
CONTINUOUS
 10
128.783037138
 20
127.175051034
 40
18.0
100
AcDbArc
 50
80.6058710585
 51
82.9334763983
  0
ARC
  5
3B9
100
AcDbEntity
  8
AXIS
100
AcDbCircle
 62
7
  6
CONTINUOUS
 10
131.1366469713
 20
142.7531848308
 40
3.0
100
AcDbArc
 50
67.2438347828
 51
86.8254700928
  0
ARC
  5
3BA
100
AcDbEntity
  8
AXIS
100
AcDbCircle
 62
7
  6
CONTINUOUS
 10
131.1366469713
 20
142.7531848308
 40
2.8
100
AcDbArc
 50
67.2438347819
 51
86.8254700915
  0
ARC
  5
3BB
100
AcDbEntity
  8
AXIS
100
AcDbCircle
 62
7
  6
CONTINUOUS
 10
130.4724270638
 20
160.0588814278
 40
2.0
100
AcDbArc
 50
180.0
 51
270.0
  0
ARC
  5
3BC
100
AcDbEntity
  8
AXIS
100
AcDbCircle
 62
7
  6
CONTINUOUS
 10
131.5213545398
 20
145.3588814278
 40
1.95
100
AcDbArc
 50
228.4518466132
 51
280.9424989045
  0
ARC
  5
3BD
100
AcDbEntity
  8
AXIS
100
AcDbCircle
 62
7
  6
CONTINUOUS
 10
131.6413545398
 20
145.3588814277
 40
1.95
100
AcDbArc
 50
46.2472071072
 51
121.9527463953
  0
ARC
  5
3BE
100
AcDbEntity
  8
AXIS
100
AcDbCircle
 62
7
  6
CONTINUOUS
 10
131.6413545398
 20
145.3588814278
 40
1.75
100
AcDbArc
 50
52.9633379291
 51
121.9527464003
  0
ARC
  5
3BF
100
AcDbEntity
  8
AXIS
100
AcDbCircle
 62
7
  6
CONTINUOUS
 10
131.5213545398
 20
145.3588814279
 40
1.75
100
AcDbArc
 50
235.4499454233
 51
280.9424989069
  0
ARC
  5
3C0
100
AcDbEntity
  8
AXIS
100
AcDbCircle
 62
7
  6
CONTINUOUS
 10
131.5824270639
 20
145.2088814278
 40
1.5560238263
100
AcDbArc
 50
56.3730484633
 51
105.5050441818
  0
ARC
  5
3C1
100
AcDbEntity
  8
AXIS
100
AcDbCircle
 62
7
  6
CONTINUOUS
 10
132.8211583676
 20
133.7849881104
 40
1.5525373924
100
AcDbArc
 50
238.03273698
 51
1.96726302
  0
ARC
  5
3C2
100
AcDbEntity
  8
AXIS
100
AcDbCircle
 62
7
  6
CONTINUOUS
 10
132.8211583676
 20
126.3327747453
 40
1.5525373924
100
AcDbArc
 50
358.03273698
 51
121.96726302
  0
ARC
  5
3C3
100
AcDbEntity
  8
AXIS
100
AcDbCircle
 62
7
  6
CONTINUOUS
 10
130.6698896714
 20
130.0588814278
 40
1.5525373924
100
AcDbArc
 50
298.03273698
 51
61.96726302
  0
ARC
  5
3C4
100
AcDbEntity
  8
AXIS
100
AcDbCircle
 62
7
  6
CONTINUOUS
 10
131.5824270639
 20
145.2088814278
 40
1.3560238263
100
AcDbArc
 50
49.5190554785
 51
105.5050441823
  0
ARC
  5
3C5
100
AcDbEntity
  8
AXIS
100
AcDbCircle
 62
7
  6
CONTINUOUS
 10
131.4700771239
 20
145.1188814279
 40
1.19
100
AcDbArc
 50
233.8930037336
 51
288.1948723412
  0
ARC
  5
3C6
100
AcDbEntity
  8
AXIS
100
AcDbCircle
 62
7
  6
CONTINUOUS
 10
131.6779591374
 20
144.5488814278
 40
1.125
100
AcDbArc
 50
280.9424989046
 51
359.9999999996
  0
ARC
  5
3C7
100
AcDbEntity
  8
AXIS
100
AcDbCircle
 62
7
  6
CONTINUOUS
 10
131.4700771239
 20
145.1188814279
 40
0.99
100
AcDbArc
 50
224.0717561636
 51
288.1948723417
  0
ARC
  5
3C8
100
AcDbEntity
  8
AXIS
100
AcDbCircle
 62
7
  6
CONTINUOUS
 10
131.1174270639
 20
146.1988814277
 40
0.96
100
AcDbArc
 50
121.9527463899
 51
179.9999999945
  0
ARC
  5
3C9
100
AcDbEntity
  8
AXIS
100
AcDbCircle
 62
7
  6
CONTINUOUS
 10
131.1152614415
 20
145.9888814278
 40
0.9578343776
100
AcDbArc
 50
180.0
 51
262.9334763962
  0
ARC
  5
3CA
100
AcDbEntity
  8
AXIS
100
AcDbCircle
 62
7
  6
CONTINUOUS
 10
131.6779591374
 20
144.5488814279
 40
0.925
100
AcDbArc
 50
280.9424989091
 51
359.9999999986
  0
ARC
  5
3CB
100
AcDbEntity
  8
AXIS
100
AcDbCircle
 62
7
  6
CONTINUOUS
 10
131.9779591374
 20
144.7588814278
 40
0.825
100
AcDbArc
 50
0.0
 51
67.243834782
  0
ARC
  5
3CC
100
AcDbEntity
  8
AXIS
100
AcDbCircle
 62
7
  6
CONTINUOUS
 10
131.1174270639
 20
146.1988814278
 40
0.76
100
AcDbArc
 50
121.9527464001
 51
179.9999999959
  0
ARC
  5
3CD
100
AcDbEntity
  8
AXIS
100
AcDbCircle
 62
7
  6
CONTINUOUS
 10
131.1152614415
 20
145.9888814278
 40
0.7578343776
100
AcDbArc
 50
180.0
 51
262.9334763962
  0
ARC
  5
3CE
100
AcDbEntity
  8
AXIS
100
AcDbCircle
 62
7
  6
CONTINUOUS
 10
131.9779591374
 20
144.7588814278
 40
0.625
100
AcDbArc
 50
0.0
 51
67.243834782
  0
ARC
  5
3CF
100
AcDbEntity
  8
AXIS
100
AcDbCircle
 62
7
  6
CONTINUOUS
 10
131.6815305294
 20
131.9588814278
 40
0.6
100
AcDbArc
 50
58.03273698
 51
241.96726302
  0
ARC
  5
3D0
100
AcDbEntity
  8
AXIS
100
AcDbCircle
 62
7
  6
CONTINUOUS
 10
131.6815305294
 20
128.1588814278
 40
0.6
100
AcDbArc
 50
118.03273698
 51
301.96726302
  0
ARC
  5
3D1
100
AcDbEntity
  8
AXIS
100
AcDbCircle
 62
7
  6
CONTINUOUS
 10
128.8224270638
 20
144.3303319099
 40
0.6
100
AcDbArc
 50
157.4999999963
 51
239.5907609332
  0
ARC
  5
3D2
100
AcDbEntity
  8
AXIS
100
AcDbCircle
 62
7
  6
CONTINUOUS
 10
130.1183147047
 20
147.4588814278
 40
0.6
100
AcDbArc
 50
89.9999999971
 51
157.5
  0
ARC
  5
3D3
100
AcDbEntity
  8
AXIS
100
AcDbCircle
 62
7
  6
CONTINUOUS
 10
131.3244270639
 20
146.1388814278
 40
0.5909
100
AcDbArc
 50
105.5050441823
 51
266.8254700922
  0
ARC
  5
3D4
100
AcDbEntity
  8
AXIS
100
AcDbCircle
 62
7
  6
CONTINUOUS
 10
131.6574270639
 20
144.5488814279
 40
0.59
100
AcDbArc
 50
288.1948723388
 51
80.6058710553
  0
ARC
  5
3D5
100
AcDbEntity
  8
AXIS
100
AcDbCircle
 62
7
  6
CONTINUOUS
 10
130.1183147047
 20
147.4588814278
 40
0.4
100
AcDbArc
 50
90.0000000022
 51
157.5000000038
  0
ARC
  5
3D6
100
AcDbEntity
  8
AXIS
100
AcDbCircle
 62
7
  6
CONTINUOUS
 10
128.8224270639
 20
144.3303319099
 40
0.4
100
AcDbArc
 50
157.500000009
 51
239.5907609359
  0
ARC
  5
3D7
100
AcDbEntity
  8
AXIS
100
AcDbCircle
 62
7
  6
CONTINUOUS
 10
131.3244270637
 20
146.1388814278
 40
0.3909
100
AcDbArc
 50
105.5050441539
 51
266.8254701184
  0
ARC
  5
3D8
100
AcDbEntity
  8
AXIS
100
AcDbCircle
 62
7
  6
CONTINUOUS
 10
131.6574270639
 20
144.5488814279
 40
0.39
100
AcDbArc
 50
288.1948723388
 51
80.6058710547
  0
ARC
  5
3D9
100
AcDbEntity
  8
AXIS
100
AcDbCircle
 62
7
  6
CONTINUOUS
 10
130.4724270638
 20
196.0588814278
 40
2.0
100
AcDbArc
 50
90.0
 51
180.0
  0
ARC
  5
3DA
100
AcDbEntity
  8
AXIS
100
AcDbCircle
 62
7
  6
CONTINUOUS
 10
132.8211583676
 20
229.7849881104
 40
1.5525373924
100
AcDbArc
 50
238.03273698
 51
1.96726302
  0
ARC
  5
3DB
100
AcDbEntity
  8
AXIS
100
AcDbCircle
 62
7
  6
CONTINUOUS
 10
132.8211583676
 20
222.3327747453
 40
1.5525373924
100
AcDbArc
 50
358.03273698
 51
121.96726302
  0
ARC
  5
3DC
100
AcDbEntity
  8
AXIS
100
AcDbCircle
 62
7
  6
CONTINUOUS
 10
130.6698896714
 20
226.0588814278
 40
1.5525373924
100
AcDbArc
 50
298.03273698
 51
61.96726302
  0
ARC
  5
3DD
100
AcDbEntity
  8
AXIS
100
AcDbCircle
 62
7
  6
CONTINUOUS
 10
132.0774270637
 20
209.9338814278
 40
1.08
100
AcDbArc
 50
270.000000003
 51
52.7307871646
  0
ARC
  5
3DE
100
AcDbEntity
  8
AXIS
100
AcDbCircle
 62
7
  6
CONTINUOUS
 10
132.0579270637
 20
211.5988814278
 40
1.05
100
AcDbArc
 50
309.898835778
 51
90.0
  0
ARC
  5
3DF
100
AcDbEntity
  8
AXIS
100
AcDbCircle
 62
7
  6
CONTINUOUS
 10
132.0774270637
 20
209.9338814278
 40
0.88
100
AcDbArc
 50
270.0
 51
58.9413240741
  0
ARC
  5
3E0
100
AcDbEntity
  8
AXIS
100
AcDbCircle
 62
7
  6
CONTINUOUS
 10
132.0579270637
 20
211.5988814278
 40
0.85
100
AcDbArc
 50
303.8531051585
 51
90.0
  0
ARC
  5
3E1
100
AcDbEntity
  8
AXIS
100
AcDbCircle
 62
7
  6
CONTINUOUS
 10
131.9574270638
 20
210.0088814278
 40
0.6502499306
100
AcDbArc
 50
268.4113760776
 51
91.5886239199
  0
ARC
  5
3E2
100
AcDbEntity
  8
AXIS
100
AcDbCircle
 62
7
  6
CONTINUOUS
 10
131.9424270637
 20
211.5388814278
 40
0.62
100
AcDbArc
 50
269.9999999995
 51
90.0000000005
  0
ARC
  5
3E3
100
AcDbEntity
  8
AXIS
100
AcDbCircle
 62
7
  6
CONTINUOUS
 10
131.6815305294
 20
227.9588814278
 40
0.6
100
AcDbArc
 50
58.03273698
 51
241.96726302
  0
ARC
  5
3E4
100
AcDbEntity
  8
AXIS
100
AcDbCircle
 62
7
  6
CONTINUOUS
 10
131.6815305294
 20
224.1588814278
 40
0.6
100
AcDbArc
 50
118.03273698
 51
301.96726302
  0
ARC
  5
3E5
100
AcDbEntity
  8
AXIS
100
AcDbCircle
 62
7
  6
CONTINUOUS
 10
128.8224270638
 20
211.7874309458
 40
0.6
100
AcDbArc
 50
120.4092390597
 51
202.5000000036
  0
ARC
  5
3E6
100
AcDbEntity
  8
AXIS
100
AcDbCircle
 62
7
  6
CONTINUOUS
 10
130.1183147047
 20
208.6588814278
 40
0.6
100
AcDbArc
 50
202.5
 51
269.9999999803
  0
ARC
  5
3E7
100
AcDbEntity
  8
AXIS
100
AcDbCircle
 62
7
  6
CONTINUOUS
 10
131.9574270638
 20
210.0088814278
 40
0.4502499306
100
AcDbArc
 50
268.0908475558
 51
91.9091524443
  0
ARC
  5
3E8
100
AcDbEntity
  8
AXIS
100
AcDbCircle
 62
7
  6
CONTINUOUS
 10
131.9424270637
 20
211.5388814278
 40
0.42
100
AcDbArc
 50
270.0
 51
90.0
  0
ARC
  5
3E9
100
AcDbEntity
  8
AXIS
100
AcDbCircle
 62
7
  6
CONTINUOUS
 10
128.8224270637
 20
211.7874309457
 40
0.4
100
AcDbArc
 50
120.4092390591
 51
202.500000012
  0
ARC
  5
3EA
100
AcDbEntity
  8
AXIS
100
AcDbCircle
 62
7
  6
CONTINUOUS
 10
130.1183147046
 20
208.6588814278
 40
0.4
100
AcDbArc
 50
202.5000000142
 51
270.0
  0
ARC
  5
3EB
100
AcDbEntity
  8
AXIS
100
AcDbCircle
 62
7
  6
CONTINUOUS
 10
134.9724270638
 20
154.8088814278
 40
12.75
100
AcDbArc
 50
239.5907609464
 51
300.4092390536
  0
ARC
  5
3EC
100
AcDbEntity
  8
AXIS
100
AcDbCircle
 62
7
  6
CONTINUOUS
 10
134.9724270639
 20
154.8088814279
 40
12.55
100
AcDbArc
 50
239.5907609465
 51
300.4092390535
  0
CIRCLE
  5
3ED
100
AcDbEntity
  8
AXIS
100
AcDbCircle
 62
7
  6
CONTINUOUS
 10
134.9724270638
 20
130.0588814278
 40
4.8
  0
ARC
  5
3EE
100
AcDbEntity
  8
AXIS
100
AcDbCircle
 62
7
  6
CONTINUOUS
 10
139.9724270638
 20
160.0588814278
 40
2.0
100
AcDbArc
 50
270.0
 51
360.0
  0
ARC
  5
3EF
100
AcDbEntity
  8
AXIS
100
AcDbCircle
 62
7
  6
CONTINUOUS
 10
137.12369576
 20
133.7849881104
 40
1.5525373924
100
AcDbArc
 50
178.03273698
 51
301.96726302
  0
ARC
  5
3F0
100
AcDbEntity
  8
AXIS
100
AcDbCircle
 62
7
  6
CONTINUOUS
 10
139.2749644562
 20
130.0588814278
 40
1.5525373924
100
AcDbArc
 50
118.03273698
 51
241.96726302
  0
ARC
  5
3F1
100
AcDbEntity
  8
AXIS
100
AcDbCircle
 62
7
  6
CONTINUOUS
 10
137.12369576
 20
126.3327747453
 40
1.5525373924
100
AcDbArc
 50
58.03273698
 51
181.96726302
  0
ARC
  5
3F2
100
AcDbEntity
  8
AXIS
100
AcDbCircle
 62
7
  6
CONTINUOUS
 10
137.8674270639
 20
146.1838814278
 40
1.08
100
AcDbArc
 50
90.000000003
 51
232.7307871646
  0
ARC
  5
3F3
100
AcDbEntity
  8
AXIS
100
AcDbCircle
 62
7
  6
CONTINUOUS
 10
137.8869270639
 20
144.5188814278
 40
1.05
100
AcDbArc
 50
129.898835778
 51
270.0
  0
ARC
  5
3F4
100
AcDbEntity
  8
AXIS
100
AcDbCircle
 62
7
  6
CONTINUOUS
 10
137.8674270639
 20
146.1838814278
 40
0.88
100
AcDbArc
 50
90.0
 51
238.9413240741
  0
ARC
  5
3F5
100
AcDbEntity
  8
AXIS
100
AcDbCircle
 62
7
  6
CONTINUOUS
 10
137.8869270639
 20
144.5188814278
 40
0.85
100
AcDbArc
 50
123.8531051585
 51
270.0
  0
ARC
  5
3F6
100
AcDbEntity
  8
AXIS
100
AcDbCircle
 62
7
  6
CONTINUOUS
 10
137.9874270638
 20
146.1088814278
 40
0.6502499306
100
AcDbArc
 50
88.4113760776
 51
271.5886239199
  0
ARC
  5
3F7
100
AcDbEntity
  8
AXIS
100
AcDbCircle
 62
7
  6
CONTINUOUS
 10
138.0024270639
 20
144.5788814278
 40
0.62
100
AcDbArc
 50
89.9999999995
 51
270.0000000005
  0
ARC
  5
3F8
100
AcDbEntity
  8
AXIS
100
AcDbCircle
 62
7
  6
CONTINUOUS
 10
138.2633235982
 20
131.9588814278
 40
0.6
100
AcDbArc
 50
298.03273698
 51
121.96726302
  0
ARC
  5
3F9
100
AcDbEntity
  8
AXIS
100
AcDbCircle
 62
7
  6
CONTINUOUS
 10
134.9724270638
 20
133.8588814278
 40
0.6
100
AcDbArc
 50
358.03273698
 51
181.96726302
  0
ARC
  5
3FA
100
AcDbEntity
  8
AXIS
100
AcDbCircle
 62
7
  6
CONTINUOUS
 10
138.2633235982
 20
128.1588814278
 40
0.6
100
AcDbArc
 50
238.03273698
 51
61.96726302
  0
ARC
  5
3FB
100
AcDbEntity
  8
AXIS
100
AcDbCircle
 62
7
  6
CONTINUOUS
 10
134.9724270638
 20
126.2588814278
 40
0.6
100
AcDbArc
 50
178.03273698
 51
1.96726302
  0
ARC
  5
3FC
100
AcDbEntity
  8
AXIS
100
AcDbCircle
 62
7
  6
CONTINUOUS
 10
141.1224270638
 20
144.3303319099
 40
0.6
100
AcDbArc
 50
300.4092390597
 51
22.5000000036
  0
ARC
  5
3FD
100
AcDbEntity
  8
AXIS
100
AcDbCircle
 62
7
  6
CONTINUOUS
 10
139.8265394229
 20
147.4588814278
 40
0.6
100
AcDbArc
 50
22.5
 51
89.9999999803
  0
ARC
  5
3FE
100
AcDbEntity
  8
AXIS
100
AcDbCircle
 62
7
  6
CONTINUOUS
 10
137.9874270638
 20
146.1088814278
 40
0.4502499306
100
AcDbArc
 50
88.0908475558
 51
271.9091524443
  0
ARC
  5
3FF
100
AcDbEntity
  8
AXIS
100
AcDbCircle
 62
7
  6
CONTINUOUS
 10
138.0024270639
 20
144.5788814278
 40
0.42
100
AcDbArc
 50
90.0
 51
270.0
  0
ARC
  5
400
100
AcDbEntity
  8
AXIS
100
AcDbCircle
 62
7
  6
CONTINUOUS
 10
141.1224270639
 20
144.3303319099
 40
0.4
100
AcDbArc
 50
300.4092390591
 51
22.500000012
  0
ARC
  5
401
100
AcDbEntity
  8
AXIS
100
AcDbCircle
 62
7
  6
CONTINUOUS
 10
139.826539423
 20
147.4588814278
 40
0.4
100
AcDbArc
 50
22.5000000142
 51
90.0
  0
ARC
  5
402
100
AcDbEntity
  8
AXIS
100
AcDbCircle
 62
7
  6
CONTINUOUS
 10
134.9724270638
 20
201.3088814278
 40
12.75
100
AcDbArc
 50
59.5907609464
 51
120.4092390536
  0
ARC
  5
403
100
AcDbEntity
  8
AXIS
100
AcDbCircle
 62
7
  6
CONTINUOUS
 10
134.9724270638
 20
201.3088814278
 40
12.55
100
AcDbArc
 50
59.5907609465
 51
120.4092390535
  0
ARC
  5
404
100
AcDbEntity
  8
AXIS
100
AcDbCircle
 62
7
  6
CONTINUOUS
 10
137.9668949902
 20
211.3588814278
 40
0.825
100
AcDbArc
 50
180.0
 51
247.243834782
  0
ARC
  5
405
100
AcDbEntity
  8
AXIS
100
AcDbCircle
 62
7
  6
CONTINUOUS
 10
137.9668949902
 20
211.3588814278
 40
0.625
100
AcDbArc
 50
180.0
 51
247.243834782
  0
CIRCLE
  5
406
100
AcDbEntity
  8
AXIS
100
AcDbCircle
 62
7
  6
CONTINUOUS
 10
134.9724270638
 20
226.0588814278
 40
4.8
  0
ARC
  5
407
100
AcDbEntity
  8
AXIS
100
AcDbCircle
 62
7
  6
CONTINUOUS
 10
137.12369576
 20
229.7849881104
 40
1.5525373924
100
AcDbArc
 50
178.03273698
 51
301.96726302
  0
ARC
  5
408
100
AcDbEntity
  8
AXIS
100
AcDbCircle
 62
7
  6
CONTINUOUS
 10
137.12369576
 20
222.3327747453
 40
1.5525373924
100
AcDbArc
 50
58.03273698
 51
181.96726302
  0
ARC
  5
409
100
AcDbEntity
  8
AXIS
100
AcDbCircle
 62
7
  6
CONTINUOUS
 10
134.9724270638
 20
229.8588814278
 40
0.6
100
AcDbArc
 50
358.03273698
 51
181.96726302
  0
ARC
  5
40A
100
AcDbEntity
  8
AXIS
100
AcDbCircle
 62
7
  6
CONTINUOUS
 10
134.9724270638
 20
222.2588814278
 40
0.6
100
AcDbArc
 50
178.03273698
 51
1.96726302
  0
ARC
  5
40B
100
AcDbEntity
  8
AXIS
100
AcDbCircle
 62
7
  6
CONTINUOUS
 10
139.9724270638
 20
196.0588814278
 40
2.0
100
AcDbArc
 50
0.0
 51
90.0
  0
ARC
  5
40C
100
AcDbEntity
  8
AXIS
100
AcDbCircle
 62
7
  6
CONTINUOUS
 10
138.4234995878
 20
210.7588814278
 40
1.95
100
AcDbArc
 50
48.4518466132
 51
100.9424989045
  0
ARC
  5
40D
100
AcDbEntity
  8
AXIS
100
AcDbCircle
 62
7
  6
CONTINUOUS
 10
138.3034995878
 20
210.7588814279
 40
1.95
100
AcDbArc
 50
226.2472071072
 51
301.9527463953
  0
ARC
  5
40E
100
AcDbEntity
  8
AXIS
100
AcDbCircle
 62
7
  6
CONTINUOUS
 10
138.3034995878
 20
210.7588814279
 40
1.75
100
AcDbArc
 50
232.9633379291
 51
301.9527464003
  0
ARC
  5
40F
100
AcDbEntity
  8
AXIS
100
AcDbCircle
 62
7
  6
CONTINUOUS
 10
138.4234995878
 20
210.7588814278
 40
1.75
100
AcDbArc
 50
55.4499454233
 51
100.9424989069
  0
ARC
  5
410
100
AcDbEntity
  8
AXIS
100
AcDbCircle
 62
7
  6
CONTINUOUS
 10
138.3624270637
 20
210.9088814279
 40
1.5560238263
100
AcDbArc
 50
236.3730484633
 51
285.5050441818
  0
ARC
  5
411
100
AcDbEntity
  8
AXIS
100
AcDbCircle
 62
7
  6
CONTINUOUS
 10
138.3624270637
 20
210.9088814278
 40
1.3560238263
100
AcDbArc
 50
229.5190554785
 51
285.5050441823
  0
ARC
  5
412
100
AcDbEntity
  8
AXIS
100
AcDbCircle
 62
7
  6
CONTINUOUS
 10
138.4747770037
 20
210.9988814278
 40
1.19
100
AcDbArc
 50
53.8930037336
 51
108.1948723412
  0
ARC
  5
413
100
AcDbEntity
  8
AXIS
100
AcDbCircle
 62
7
  6
CONTINUOUS
 10
138.2668949902
 20
211.5688814278
 40
1.125
100
AcDbArc
 50
100.9424989046
 51
179.9999999996
  0
ARC
  5
414
100
AcDbEntity
  8
AXIS
100
AcDbCircle
 62
7
  6
CONTINUOUS
 10
138.4747770037
 20
210.9988814278
 40
0.99
100
AcDbArc
 50
44.0717561636
 51
108.1948723417
  0
ARC
  5
415
100
AcDbEntity
  8
AXIS
100
AcDbCircle
 62
7
  6
CONTINUOUS
 10
138.8274270637
 20
209.9188814279
 40
0.96
100
AcDbArc
 50
301.9527463899
 51
359.9999999945
  0
ARC
  5
416
100
AcDbEntity
  8
AXIS
100
AcDbCircle
 62
7
  6
CONTINUOUS
 10
138.8295926861
 20
210.1288814278
 40
0.9578343776
100
AcDbArc
 50
0.0
 51
82.9334763962
  0
ARC
  5
417
100
AcDbEntity
  8
AXIS
100
AcDbCircle
 62
7
  6
CONTINUOUS
 10
138.2668949902
 20
211.5688814278
 40
0.925
100
AcDbArc
 50
100.9424989091
 51
179.9999999986
  0
ARC
  5
418
100
AcDbEntity
  8
AXIS
100
AcDbCircle
 62
7
  6
CONTINUOUS
 10
138.8274270637
 20
209.9188814279
 40
0.76
100
AcDbArc
 50
301.9527464001
 51
359.9999999959
  0
ARC
  5
419
100
AcDbEntity
  8
AXIS
100
AcDbCircle
 62
7
  6
CONTINUOUS
 10
138.8295926861
 20
210.1288814278
 40
0.7578343776
100
AcDbArc
 50
0.0
 51
82.9334763962
  0
ARC
  5
41A
100
AcDbEntity
  8
AXIS
100
AcDbCircle
 62
7
  6
CONTINUOUS
 10
141.1224270638
 20
211.7874309458
 40
0.6
100
AcDbArc
 50
337.4999999963
 51
59.5907609332
  0
ARC
  5
41B
100
AcDbEntity
  8
AXIS
100
AcDbCircle
 62
7
  6
CONTINUOUS
 10
139.8265394229
 20
208.6588814278
 40
0.6
100
AcDbArc
 50
269.9999999971
 51
337.5
  0
ARC
  5
41C
100
AcDbEntity
  8
AXIS
100
AcDbCircle
 62
7
  6
CONTINUOUS
 10
138.6204270637
 20
209.9788814278
 40
0.5909
100
AcDbArc
 50
285.5050441823
 51
86.8254700922
  0
ARC
  5
41D
100
AcDbEntity
  8
AXIS
100
AcDbCircle
 62
7
  6
CONTINUOUS
 10
138.2874270637
 20
211.5688814278
 40
0.59
100
AcDbArc
 50
108.1948723388
 51
260.6058710553
  0
ARC
  5
41E
100
AcDbEntity
  8
AXIS
100
AcDbCircle
 62
7
  6
CONTINUOUS
 10
139.8265394229
 20
208.6588814278
 40
0.4
100
AcDbArc
 50
270.0000000022
 51
337.5000000038
  0
ARC
  5
41F
100
AcDbEntity
  8
AXIS
100
AcDbCircle
 62
7
  6
CONTINUOUS
 10
141.1224270638
 20
211.7874309457
 40
0.4
100
AcDbArc
 50
337.500000009
 51
59.5907609359
  0
ARC
  5
420
100
AcDbEntity
  8
AXIS
100
AcDbCircle
 62
7
  6
CONTINUOUS
 10
138.6204270639
 20
209.9788814278
 40
0.3909
100
AcDbArc
 50
285.5050441539
 51
86.8254701184
  0
ARC
  5
421
100
AcDbEntity
  8
AXIS
100
AcDbCircle
 62
7
  6
CONTINUOUS
 10
138.2874270637
 20
211.5688814278
 40
0.39
100
AcDbArc
 50
108.1948723388
 51
260.6058710547
  0
ARC
  5
422
100
AcDbEntity
  8
AXIS
100
AcDbCircle
 62
7
  6
CONTINUOUS
 10
141.1618169896
 20
228.9427118216
 40
18.2
100
AcDbArc
 50
260.6058710585
 51
262.9334763983
  0
ARC
  5
423
100
AcDbEntity
  8
AXIS
100
AcDbCircle
 62
7
  6
CONTINUOUS
 10
141.1618169896
 20
228.9427118216
 40
18.0
100
AcDbArc
 50
260.6058710585
 51
262.9334763983
  0
ARC
  5
424
100
AcDbEntity
  8
AXIS
100
AcDbCircle
 62
7
  6
CONTINUOUS
 10
138.8082071563
 20
213.3645780248
 40
3.0
100
AcDbArc
 50
247.2438347828
 51
266.8254700928
  0
ARC
  5
425
100
AcDbEntity
  8
AXIS
100
AcDbCircle
 62
7
  6
CONTINUOUS
 10
138.8082071563
 20
213.3645780248
 40
2.8
100
AcDbArc
 50
247.2438347819
 51
266.8254700915
  0
ARC
  5
426
100
AcDbEntity
  8
AXIS
100
AcDbCircle
 62
7
  6
CONTINUOUS
 10
139.2749644562
 20
226.0588814278
 40
1.5525373924
100
AcDbArc
 50
118.03273698
 51
241.96726302
  0
ARC
  5
427
100
AcDbEntity
  8
AXIS
100
AcDbCircle
 62
7
  6
CONTINUOUS
 10
138.2633235982
 20
227.9588814278
 40
0.6
100
AcDbArc
 50
298.03273698
 51
121.96726302
  0
ARC
  5
428
100
AcDbEntity
  8
AXIS
100
AcDbCircle
 62
7
  6
CONTINUOUS
 10
138.2633235982
 20
224.1588814278
 40
0.6
100
AcDbArc
 50
238.03273698
 51
61.96726302
  0
ELLIPSE
  5
429
100
AcDbEntity
  8
AXIS
100
AcDbEllipse
 62
7
  6
CONTINUOUS
 10
131.7150678657
 20
172.4934719051
 30
0.0
 11
-4.2426406871
 21
0.0
 31
0.0
 40
0.7071067812
 41
0.0
 42
0.7008446645
  0
ELLIPSE
  5
42A
100
AcDbEntity
  8
AXIS
100
AcDbEllipse
 62
7
  6
CONTINUOUS
 10
131.7150678657
 20
183.6242909505
 30
0.0
 11
-4.2426406871
 21
0.0
 31
0.0
 40
0.7071067812
 41
-0.7008446645
 42
0.0
  0
ELLIPSE
  5
42B
100
AcDbEntity
  8
AXIS
100
AcDbEllipse
 62
7
  6
CONTINUOUS
 10
138.7297862619
 20
183.6242909505
 30
0.0
 11
4.2426406871
 21
0.0
 31
0.0
 40
0.7071067812
 41
-0.0
 42
0.7008446645
  0
ELLIPSE
  5
42C
100
AcDbEntity
  8
AXIS
100
AcDbEllipse
 62
7
  6
CONTINUOUS
 10
138.7297862619
 20
172.4934719051
 30
0.0
 11
4.2426406871
 21
0.0
 31
0.0
 40
0.7071067812
 41
-0.7008446645
 42
-0.0
  0
ENDSEC
  0
SECTION
  2
OBJECTS
  0
DICTIONARY
  5
C
100
AcDbDictionary
280
0
281
1
  3
ACAD_GROUP
350
D
  3
ACAD_MLINESTYLE
350
17
  3
ACAD_LAYOUT
350
1A
  3
ACAD_PLOTSETTINGS
350
19
  3
ACAD_PLOTSTYLENAME
350
E
  3
ACAD_TABLESTYLE
350
       42D
  0
DICTIONARY
  5
D
102
{ACAD_REACTORS
330
C
102
}
100
AcDbDictionary
280
0
281
1
  0
ACDBDICTIONARYWDFLT
  5
E
102
{ACAD_REACTORS
330
C
102
}
100
AcDbDictionary
281
1
  3
Normal
350
F
100
AcDbDictionaryWithDefault
340
F
  0
DICTIONARY
  5
17
102
{ACAD_REACTORS
330
C
102
}
100
AcDbDictionary
280
0
281
1
  3
Standard
350
18
  0
DICTIONARY
  5
42D
330
C
100
AcDbDictionary
281
1
  3
Standard
350
       430
  3
Standard1
350
       431
  0
DICTIONARY
  5
19
102
{ACAD_REACTORS
330
C
102
}
100
AcDbDictionary
281
1
  0
DICTIONARY
  5
1A
102
{ACAD_REACTORS
330
C
102
}
100
AcDbDictionary
281
1
  3
Model
350
42E
  3
Layout1
350
42F
  0
ACDBPLACEHOLDER
  5
F
102
{ACAD_REACTORS
330
E
102
}
  0
MLINESTYLE
  5
18
102
{ACAD_REACTORS
330
17
102
}
100
AcDbMlineStyle
  2
STANDARD
 70
0
  3

 62
256
 51
90.0
 52
90.0
 71
2
 49
0.5
 62
256
  6
BYLAYER
 49
-0.5
 62
256
  6
BYLAYER
  0
LAYOUT
  5
42E
102
{ACAD_REACTORS
330
1A
102
}
100
AcDbPlotSettings
  1

  2
none_device
  4

  6

 40
0.0
 41
0.0
 42
0.0
 43
0.0
 44
210.0
 45
297.0
 46
0.0
 47
0.0
 48
0.0
 49
0.0
140
0.0
141
0.0
142
1.0
143
1.0
 70
1024
 72
1
 73
0
 74
0
  7

 75
0
147
1.0
148
0.0
149
0.0
100
AcDbLayout
  1
Model
 70
0
 71
0
 10
0.0
 20
0.0
 11
210.0
 21
297.0
 12
0.0
 22
0.0
 32
0.0
 14
0.0
 24
0.0
 34
0.0
 15
0.0
 25
0.0
 35
0.0
146
0.0
 13
0.0
 23
0.0
 33
0.0
 16
1.0
 26
0.0
 36
0.0
 17
0.0
 27
1.0
 37
0.0
 76
0
330
20B
345
0
346
0
  0
LAYOUT
  5
42F
102
{ACAD_REACTORS
330
1A
102
}
100
AcDbPlotSettings
  1

  2
none_device
  4

  6

 40
0.0
 41
0.0
 42
0.0
 43
0.0
 44
210.0
 45
297.0
 46
0.0
 47
0.0
 48
0.0
 49
0.0
140
0.0
141
0.0
142
1.0
143
1.0
 70
0
 72
1
 73
0
 74
0
  7

 75
0
147
1.0
148
0.0
149
0.0
100
AcDbLayout
  1
Layout1
 70
0
 71
1
 10
0.0
 20
0.0
 11
210.0
 21
297.0
 12
0.0
 22
0.0
 32
0.0
 14
0.0
 24
0.0
 34
0.0
 15
0.0
 25
0.0
 35
0.0
146
0.0
 13
0.0
 23
0.0
 33
0.0
 16
1.0
 26
0.0
 36
0.0
 17
0.0
 27
1.0
 37
0.0
 76
0
330
20C
345
0
346
0
  0
TABLESTYLE
  5
430
102
{ACAD_REACTORS
330
42D
330
311
330
312
102
}
330
42D
100
AcDbTableStyle
  3
Standard
 70
0
 71
0
 40
0.06
 41
0.06
280
1
281
1
  7
Standard
140
0.18
170
1
 62
0
 63
7
283
0
  7
Standard
140
0.18
170
1
 62
0
 63
7
283
0
  7
Standard
140
0.18
170
1
 62
0
 63
7
283
0
  0
TABLESTYLE
  5
431
102
{ACAD_REACTORS
330
42D
102
}
330
42D
100
AcDbTableStyle
  3
Standard1
 70
1
 71
0
 40
0.06
 41
0.06
280
1
281
1
  7
Standard
140
0.18
170
1
 62
0
 63
7
283
0
  7
Standard
140
0.18
170
1
 62
0
 63
7
283
0
  7
Standard
140
0.18
170
1
 62
0
 63
7
283
0
  0
ENDSEC
  0
EOF
