  0
SECTION
  2
HEADER
  9
$ACADVER
  1
AC1021
  9
$DWGCODEPAGE
  3
ANSI_1252
  9
$EXTMAX
 10
115.0
 20
285.0
 30
0.0
  9
$EXTMIN
 10
0.0
 20
0.0
 30
0.0
  9
$LIMMIN
 10
0.0
 20
0.0
  9
$LIMMAX
 10
115.0
 20
285.0
  9
$VIEWCTR
 10
57.5
 20
142.5
  9
$VIEWSIZE
 40
285.0
  9
$CLAYER
  8
0
  9
$LTSCALE
 40
18.5777777778
  9
$CELTYPE
  6
BYLAYER
  9
$DIMSCALE
 40
1.0
  9
$DIMASZ
 40
3.5
  9
$DIMEXO
 40
0.0
  9
$DIMDLI
 40
12.8355555556
  9
$DIMEXE
 40
1.0
  9
$DIMCEN
 40
3.04
  9
$DIMLFAC
 40
1.0
  9
$DIMBLK
  1
_FILLED
  9
$DIMTXT
 40
2.5
  9
$DIMTOL
 70
1
  9
$DIMLIM
 70
0
  9
$DIMTFAC
 40
1.0
  9
$DIMTP
 40
0.001
  9
$DIMTM
 40
0.001
  9
$DIMGAP
 40
0.625
  9
$DIMDSEP
 70
46
  9
$PDMODE
 70
3
  9
$PDSIZE
 40
2.0
  9
$HANDSEED
  5
40D
  9
$TILEMODE
 70
1
  9
$MEASUREMENT
 70
1
  9
$INSUNITS
 70
4
  0
ENDSEC
  0
SECTION
  2
CLASSES
  0
CLASS
  1
ACDBDICTIONARYWDFLT
  2
AcDbDictionaryWithDefault
  3
AutoCAD 2000
 90
0
 91
1
280
0
281
0
  0
CLASS
  1
ACDBPLACEHOLDER
  2
AcDbPlaceHolder
  3
AutoCAD 2000
 90
0
 91
1
280
0
281
0
  0
CLASS
  1
LAYOUT
  2
AcDbLayout
  3
AutoCAD 2000
 90
0
 91
0
280
0
281
0
  0
ENDSEC
  0
SECTION
  2
TABLES
  0
TABLE
  2
VPORT
  5
8
100
AcDbSymbolTable
 70
2
  0
VPORT
  5
1F4
100
AcDbSymbolTableRecord
100
AcDbViewportTableRecord
  2
*ACTIVE
 70
0
 10
0.0
 20
0.0
 11
1.0
 21
1.0
 12
57.5
 22
142.5
 13
0.0
 23
0.0
 14
1.0
 24
1.0
 15
0.0
 25
0.0
 16
0.0
 26
0.0
 36
1.0
 17
0.0
 27
0.0
 37
0.0
 40
285.0
 41
0.4035087719
 42
50.0
 43
0.0
 44
0.0
 50
0.0
 51
0.0
 71
0
 72
100
 73
1
 74
1
 75
0
 76
0
 77
0
 78
0
  0
ENDTAB
  0
TABLE
  2
LTYPE
  5
5
100
AcDbSymbolTable
 70
6
  0
LTYPE
  5
14
100
AcDbSymbolTableRecord
100
AcDbLinetypeTableRecord
  2
BYBLOCK
 70
0
  3

 72
65
 73
0
 40
0.0
  0
LTYPE
  5
15
100
AcDbSymbolTableRecord
100
AcDbLinetypeTableRecord
  2
BYLAYER
 70
0
  3

 72
65
 73
0
 40
0.0
  0
LTYPE
  5
16
100
AcDbSymbolTableRecord
100
AcDbLinetypeTableRecord
  2
CONTINUOUS
 70
64
  3
Solid line
 72
65
 73
0
 40
0.0
  0
LTYPE
  5
1F5
100
AcDbSymbolTableRecord
100
AcDbLinetypeTableRecord
  2
CENTER
 70
64
  3
____ _ ____ _ ____ _ ____ _ ____ _ ____ _ ____
 72
65
 73
4
 40
0.6
 49
0.375
 74
0
 49
-0.075
 74
0
 49
0.075
 74
0
 49
-0.075
 74
0
  0
LTYPE
  5
1F6
100
AcDbSymbolTableRecord
100
AcDbLinetypeTableRecord
  2
HIDDEN
 70
64
  3
- - - - - - - - - - - - - - - - - - - -
 72
65
 73
2
 40
0.2
 49
0.1
 74
0
 49
-0.1
 74
0
  0
LTYPE
  5
1F7
100
AcDbSymbolTableRecord
100
AcDbLinetypeTableRecord
  2
PHANTOM
 70
64
  3
_____ _ _ _____ _ _ _____ _ _ _____
 72
65
 73
6
 40
0.8
 49
0.45
 74
0
 49
-0.05
 74
0
 49
0.1
 74
0
 49
-0.05
 74
0
 49
0.1
 74
0
 49
-0.05
 74
0
  0
LTYPE
  5
1F8
100
AcDbSymbolTableRecord
100
AcDbLinetypeTableRecord
  2
DOT
 70
64
  3
. . . . . . . . . . . . . . . . . . . .
 72
65
 73
2
 40
0.2
 49
0.1
 74
0
 49
-0.1
 74
0
  0
LTYPE
  5
1F9
100
AcDbSymbolTableRecord
100
AcDbLinetypeTableRecord
  2
DASHED
 70
64
  3
- - - - - - - - - - - - - - - - - - - -
 72
65
 73
2
 40
0.2
 49
0.1
 74
0
 49
-0.1
 74
0
  0
ENDTAB
  0
TABLE
  2
LAYER
  5
2
100
AcDbSymbolTable
 70
36
  0
LAYER
  5
10
100
AcDbSymbolTableRecord
100
AcDbLayerTableRecord
  2
0
 70
0
 62
7
  6
CONTINUOUS
370
-3
390
F
  0
LAYER
  5
1FA
100
AcDbSymbolTableRecord
100
AcDbLayerTableRecord
  2
DEFAULT_1
 70
0
 62
7
  6
CENTER
370
-3
390
F
  0
LAYER
  5
1FB
100
AcDbSymbolTableRecord
100
AcDbLayerTableRecord
  2
DEFAULT_2
 70
0
 62
8
  6
HIDDEN
370
-3
390
F
  0
LAYER
  5
1FC
100
AcDbSymbolTableRecord
100
AcDbLayerTableRecord
  2
DEFAULT_3
 70
0
 62
7
  6
PHANTOM
370
-3
390
F
  0
LAYER
  5
1FD
100
AcDbSymbolTableRecord
100
AcDbLayerTableRecord
  2
AXIS
 70
0
 62
7
  6
CONTINUOUS
370
-3
390
F
  0
LAYER
  5
1FE
100
AcDbSymbolTableRecord
100
AcDbLayerTableRecord
  2
COORDSYS
 70
0
 62
7
  6
CONTINUOUS
370
-3
390
F
  0
LAYER
  5
1FF
100
AcDbSymbolTableRecord
100
AcDbLayerTableRecord
  2
CURVES
 70
0
 62
7
  6
CONTINUOUS
370
-3
390
F
  0
LAYER
  5
200
100
AcDbSymbolTableRecord
100
AcDbLayerTableRecord
  2
EINBAUREFERENZ
 70
0
 62
7
  6
CONTINUOUS
370
-3
390
F
  0
LAYER
  5
201
100
AcDbSymbolTableRecord
100
AcDbLayerTableRecord
  2
PLANES
 70
0
 62
7
  6
CONTINUOUS
370
-3
390
F
  0
LAYER
  5
202
100
AcDbSymbolTableRecord
100
AcDbLayerTableRecord
  2
POINTS
 70
0
 62
7
  6
CONTINUOUS
370
-3
390
F
  0
LAYER
  5
203
100
AcDbSymbolTableRecord
100
AcDbLayerTableRecord
  2
PROFIL-EINBAULAGE
 70
0
 62
7
  6
CONTINUOUS
370
-3
390
F
  0
LAYER
  5
204
100
AcDbSymbolTableRecord
100
AcDbLayerTableRecord
  2
S-AXIS
 70
0
 62
7
  6
CONTINUOUS
370
-3
390
F
  0
LAYER
  5
205
100
AcDbSymbolTableRecord
100
AcDbLayerTableRecord
  2
S-COORDSYS
 70
0
 62
7
  6
CONTINUOUS
370
-3
390
F
  0
LAYER
  5
206
100
AcDbSymbolTableRecord
100
AcDbLayerTableRecord
  2
S-PLANES
 70
0
 62
7
  6
CONTINUOUS
370
-3
390
F
  0
LAYER
  5
207
100
AcDbSymbolTableRecord
100
AcDbLayerTableRecord
  2
THREADS
 70
0
 62
7
  6
CONTINUOUS
370
-3
390
F
  0
LAYER
  5
208
100
AcDbSymbolTableRecord
100
AcDbLayerTableRecord
  2
HATCHING_BL0
 70
0
 62
7
  6
CONTINUOUS
370
-3
390
F
  0
LAYER
  5
209
100
AcDbSymbolTableRecord
100
AcDbLayerTableRecord
  2
93773532000_O_BL1
 70
0
 62
7
  6
CONTINUOUS
370
-3
390
F
  0
LAYER
  5
20A
100
AcDbSymbolTableRecord
100
AcDbLayerTableRecord
  2
94823302000_BL2
 70
0
 62
7
  6
CONTINUOUS
370
-3
390
F
  0
LAYER
  5
20B
100
AcDbSymbolTableRecord
100
AcDbLayerTableRecord
  2
94528901000_M_BL3
 70
0
 62
7
  6
CONTINUOUS
370
-3
390
F
  0
LAYER
  5
20C
100
AcDbSymbolTableRecord
100
AcDbLayerTableRecord
  2
95056301000_BL4
 70
0
 62
7
  6
CONTINUOUS
370
-3
390
F
  0
LAYER
  5
20D
100
AcDbSymbolTableRecord
100
AcDbLayerTableRecord
  2
94528901000_M_BL5
 70
0
 62
7
  6
CONTINUOUS
370
-3
390
F
  0
LAYER
  5
20E
100
AcDbSymbolTableRecord
100
AcDbLayerTableRecord
  2
93773532000_O_BL6
 70
0
 62
7
  6
CONTINUOUS
370
-3
390
F
  0
LAYER
  5
20F
100
AcDbSymbolTableRecord
100
AcDbLayerTableRecord
  2
91511100000_BL7
 70
0
 62
7
  6
CONTINUOUS
370
-3
390
F
  0
ENDTAB
  0
TABLE
  2
STYLE
  5
3
100
AcDbSymbolTable
 70
1
  0
STYLE
  5
11
100
AcDbSymbolTableRecord
100
AcDbTextStyleTableRecord
  2
STANDARD
 70
0
 40
0.0
 41
1.0
 50
0.0
 71
0
 42
0.2
  3
arial.ttf
  4

  0
STYLE
  5
210
100
AcDbSymbolTableRecord
100
AcDbTextStyleTableRecord
  2
TEXTSTYLE_1
 70
0
 40
0.0
 41
0.8
 50
0.0
 71
0
 42
0.2
  3
gdt
  4

  0
STYLE
  5
211
100
AcDbSymbolTableRecord
100
AcDbTextStyleTableRecord
  2
TEXTSTYLE_2
 70
0
 40
0.0
 41
1.0
 50
0.0
 71
0
 42
0.2
  3
arialbd.ttf
  4

  0
ENDTAB
  0
TABLE
  2
VIEW
  5
6
100
AcDbSymbolTable
 70
0
  0
ENDTAB
  0
TABLE
  2
UCS
  5
7
100
AcDbSymbolTable
 70
0
  0
ENDTAB
  0
TABLE
  2
APPID
  5
9
100
AcDbSymbolTable
 70
1
  0
APPID
  5
212
100
AcDbSymbolTableRecord
100
AcDbRegAppTableRecord
  2
ACAD
 70
0
  0
ENDTAB
  0
TABLE
  2
BLOCK_RECORD
  5
1
100
AcDbSymbolTable
 70
0
  0
BLOCK_RECORD
  5
213
100
AcDbSymbolTableRecord
100
AcDbBlockTableRecord
  2
*Model_Space
  0
BLOCK_RECORD
  5
214
100
AcDbSymbolTableRecord
100
AcDbBlockTableRecord
  2
*Paper_Space
  0
BLOCK_RECORD
  5
215
100
AcDbSymbolTableRecord
100
AcDbBlockTableRecord
  2
_FILLED
  0
BLOCK_RECORD
  5
216
100
AcDbSymbolTableRecord
100
AcDbBlockTableRecord
  2
*D0
  0
BLOCK_RECORD
  5
217
100
AcDbSymbolTableRecord
100
AcDbBlockTableRecord
  2
*D1
  0
BLOCK_RECORD
  5
218
100
AcDbSymbolTableRecord
100
AcDbBlockTableRecord
  2
*D2
  0
BLOCK_RECORD
  5
219
100
AcDbSymbolTableRecord
100
AcDbBlockTableRecord
  2
*D3
  0
BLOCK_RECORD
  5
21A
100
AcDbSymbolTableRecord
100
AcDbBlockTableRecord
  2
*D4
  0
BLOCK_RECORD
  5
21B
100
AcDbSymbolTableRecord
100
AcDbBlockTableRecord
  2
*D5
  0
BLOCK_RECORD
  5
21C
100
AcDbSymbolTableRecord
100
AcDbBlockTableRecord
  2
*D6
  0
BLOCK_RECORD
  5
21D
100
AcDbSymbolTableRecord
100
AcDbBlockTableRecord
  2
*D7
  0
BLOCK_RECORD
  5
21E
100
AcDbSymbolTableRecord
100
AcDbBlockTableRecord
  2
*D8
  0
BLOCK_RECORD
  5
21F
100
AcDbSymbolTableRecord
100
AcDbBlockTableRecord
  2
SYMBOL_0_BL8
  0
BLOCK_RECORD
  5
220
100
AcDbSymbolTableRecord
100
AcDbBlockTableRecord
  2
HATCHING_BL0
  0
BLOCK_RECORD
  5
221
100
AcDbSymbolTableRecord
100
AcDbBlockTableRecord
  2
93773532000_O_BL1
  0
BLOCK_RECORD
  5
222
100
AcDbSymbolTableRecord
100
AcDbBlockTableRecord
  2
94823302000_BL2
  0
BLOCK_RECORD
  5
223
100
AcDbSymbolTableRecord
100
AcDbBlockTableRecord
  2
94528901000_M_BL3
  0
BLOCK_RECORD
  5
224
100
AcDbSymbolTableRecord
100
AcDbBlockTableRecord
  2
95056301000_BL4
  0
BLOCK_RECORD
  5
225
100
AcDbSymbolTableRecord
100
AcDbBlockTableRecord
  2
94528901000_M_BL5
  0
BLOCK_RECORD
  5
226
100
AcDbSymbolTableRecord
100
AcDbBlockTableRecord
  2
93773532000_O_BL6
  0
BLOCK_RECORD
  5
227
100
AcDbSymbolTableRecord
100
AcDbBlockTableRecord
  2
91511100000_BL7
  0
ENDTAB
  0
TABLE
  2
DIMSTYLE
  5
A
100
AcDbSymbolTable
 70
1
100
AcDbDimStyleTable
 71
0
  0
DIMSTYLE
105
228
100
AcDbSymbolTableRecord
100
AcDbDimStyleTableRecord
  2
STANDARD
 70
0
  3

  4

 40
1.0
 41
3.5
 42
0.0
 43
0.38
 44
1.0
 45
0.0
 46
0.0
 47
0.001
 48
0.001
140
2.5
141
0.09
142
0.0
143
25.4
144
1.0
145
0.0
146
1.0
147
0.625
 71
1.0
 72
0.0
 73
0
 74
0
 75
0
 76
0
 77
1
 78
8
170
0
171
2
172
0
173
0
174
0
175
0
176
0
177
0
178
5
270
2
271
3
272
3
273
2
274
2
275
0
280
0
281
0
282
0
283
1
284
8
285
0
286
0
287
3
288
0
340
11
278
46
341
215
342
215
343
215
344
215
  0
DIMSTYLE
105
229
100
AcDbSymbolTableRecord
100
AcDbDimStyleTableRecord
  2
DIMSTYLE_1
 70
0
  3

  4

 40
1.0
 41
3.5
 42
0.0
 43
0.38
 44
1.0
 45
0.0
 46
0.0
 47
0.3
 48
0.3
140
2.5
141
0.09
142
0.0
143
25.4
144
1.0
145
0.0
146
1.0
147
0.625
 71
0.0
 72
0.0
 73
0
 74
0
 75
0
 76
0
 77
1
 78
8
170
0
171
2
172
0
173
0
174
0
175
0
176
0
177
0
178
5
270
2
271
3
272
3
273
2
274
2
275
0
280
0
281
0
282
0
283
1
284
8
285
0
286
0
287
3
288
0
340
11
278
46
341
215
342
215
343
215
344
215
  0
DIMSTYLE
105
22A
100
AcDbSymbolTableRecord
100
AcDbDimStyleTableRecord
  2
DIMSTYLE_2
 70
0
  3

  4

 40
1.0
 41
3.5
 42
0.0
 43
0.38
 44
1.0
 45
0.0
 46
0.0
 47
0.2
 48
0.2
140
2.5
141
0.09
142
0.0
143
25.4
144
1.0
145
0.0
146
1.0
147
0.625
 71
0.0
 72
0.0
 73
0
 74
0
 75
0
 76
0
 77
1
 78
8
170
0
171
2
172
0
173
0
174
0
175
0
176
0
177
0
178
5
270
2
271
3
272
3
273
2
274
2
275
0
280
0
281
0
282
0
283
1
284
8
285
0
286
0
287
3
288
0
340
11
278
46
341
215
342
215
343
215
344
215
  0
DIMSTYLE
105
22B
100
AcDbSymbolTableRecord
100
AcDbDimStyleTableRecord
  2
DIMSTYLE_3
 70
0
  3

  4

 40
1.0
 41
3.5
 42
0.0
 43
0.38
 44
1.0
 45
0.0
 46
0.0
 47
0.5
 48
0.5
140
2.5
141
0.09
142
0.0
143
25.4
144
1.0
145
0.0
146
1.0
147
0.625
 71
0.0
 72
0.0
 73
0
 74
0
 75
0
 76
0
 77
1
 78
8
170
0
171
2
172
0
173
0
174
0
175
0
176
0
177
0
178
5
270
2
271
3
272
3
273
2
274
2
275
0
280
0
281
0
282
0
283
1
284
8
285
0
286
0
287
3
288
0
340
11
278
46
341
215
342
215
343
215
344
215
  0
ENDTAB
  0
ENDSEC
  0
SECTION
  2
BLOCKS
  0
BLOCK
  5
20
100
AcDbEntity
  8
0
100
AcDbBlockBegin
  2
*Model_Space
 70
0
 10
0.0
 20
0.0
 30
0.0
  3
*Model_Space
  1

  0
ENDBLK
  5
21
100
AcDbEntity
  8
0
100
AcDbBlockEnd
  0
BLOCK
  5
1C
100
AcDbEntity
  8
0
100
AcDbBlockBegin
  2
*Paper_Space
 70
0
 10
0.0
 20
0.0
 30
0.0
  3
*Paper_Space
  1

  0
ENDBLK
  5
1D
100
AcDbEntity
  8
0
100
AcDbBlockEnd
  0
BLOCK
  5
22C
100
AcDbEntity
  8
0
100
AcDbBlockBegin
 62
2
  6
CONTINUOUS
  2
SYMBOL_0_BL8
 70
64
 10
31.0000000239
 20
34.9999999785
  3
SYMBOL_0_BL8
  1

  0
TEXT
  5
22D
100
AcDbEntity
  8
0
100
AcDbText
 62
5
  6
CONTINUOUS
 10
11.6434778505
 20
32.1908716548
  7
TEXTSTYLE_2
 40
4.0
  1
6-40032-CB-0
 72
5
 11
47.033812423
 21
32.1908716548
100
AcDbText
  0
TEXT
  5
22E
100
AcDbEntity
  8
0
100
AcDbText
 62
5
  6
CONTINUOUS
 10
10.9089559916
 20
24.1776342906
  7
STANDARD
 40
2.5
  1
Scale
 72
5
 11
19.6357217908
 21
24.1776342906
100
AcDbText
  0
TEXT
  5
22F
100
AcDbEntity
  8
0
100
AcDbText
 62
5
  6
CONTINUOUS
 10
10.9089559916
 20
20.4276342906
  7
STANDARD
 40
2.5
  1
1:1
 72
5
 11
15.7602571068
 21
20.4276342906
100
AcDbText
  0
TEXT
  5
230
100
AcDbEntity
  8
0
100
AcDbText
 62
5
  6
CONTINUOUS
 10
10.9089559916
 20
13.0518233866
  7
STANDARD
 40
2.5
  1
Draft
 72
5
 11
18.4647180733
 21
13.0518233866
100
AcDbText
  0
TEXT
  5
231
100
AcDbEntity
  8
0
100
AcDbText
 62
5
  6
CONTINUOUS
 10
23.3811982505
 20
13.113338109
  7
STANDARD
 40
2.5
  1
23.04.2018
 72
5
 11
40.8533172096
 21
13.113338109
100
AcDbText
  0
TEXT
  5
232
100
AcDbEntity
  8
0
100
AcDbText
 62
5
  6
CONTINUOUS
 10
45.71759366
 20
13.1067461609
  7
STANDARD
 40
2.5
  1
Dr
 72
5
 11
49.435065779
 21
13.1067461609
100
AcDbText
  0
LINE
  5
233
100
AcDbEntity
  8
0
100
AcDbLine
 62
2
  6
CONTINUOUS
 10
10.0000000239
 20
59.9999999785
 11
52.0000000239
 21
59.9999999785
  0
LINE
  5
234
100
AcDbEntity
  8
0
100
AcDbLine
 62
2
  6
CONTINUOUS
 10
52.0000000239
 20
59.9999999785
 11
52.0000000239
 21
9.9999999785
  0
LINE
  5
235
100
AcDbEntity
  8
0
100
AcDbLine
 62
2
  6
CONTINUOUS
 10
10.0000000239
 20
9.9999999785
 11
52.0000000239
 21
9.9999999785
  0
LINE
  5
236
100
AcDbEntity
  8
0
100
AcDbLine
 62
2
  6
CONTINUOUS
 10
10.0000000239
 20
39.9999999785
 11
21.0000000239
 21
39.9999999785
  0
LINE
  5
237
100
AcDbEntity
  8
0
100
AcDbLine
 62
2
  6
CONTINUOUS
 10
10.0000000239
 20
27.9999999785
 11
21.0000000239
 21
27.9999999785
  0
LINE
  5
238
100
AcDbEntity
  8
0
100
AcDbLine
 62
2
  6
CONTINUOUS
 10
10.0000000239
 20
18.9999999785
 11
21.0000000239
 21
18.9999999785
  0
LINE
  5
239
100
AcDbEntity
  8
0
100
AcDbLine
 62
2
  6
CONTINUOUS
 10
21.0000000239
 20
39.9999999785
 11
43.0000000239
 21
39.9999999785
  0
LINE
  5
23A
100
AcDbEntity
  8
0
100
AcDbLine
 62
2
  6
CONTINUOUS
 10
43.0000000239
 20
39.9999999785
 11
52.0000000239
 21
39.9999999785
  0
LINE
  5
23B
100
AcDbEntity
  8
0
100
AcDbLine
 62
2
  6
CONTINUOUS
 10
21.0000000239
 20
27.9999999785
 11
43.0000000239
 21
27.9999999785
  0
LINE
  5
23C
100
AcDbEntity
  8
0
100
AcDbLine
 62
2
  6
CONTINUOUS
 10
43.0000000239
 20
27.9999999785
 11
52.0000000239
 21
27.9999999785
  0
LINE
  5
23D
100
AcDbEntity
  8
0
100
AcDbLine
 62
2
  6
CONTINUOUS
 10
21.0000000239
 20
18.9999999785
 11
21.0000000239
 21
9.9999999785
  0
LINE
  5
23E
100
AcDbEntity
  8
0
100
AcDbLine
 62
2
  6
CONTINUOUS
 10
21.0000000239
 20
18.9999999785
 11
43.0000000239
 21
18.9999999785
  0
LINE
  5
23F
100
AcDbEntity
  8
0
100
AcDbLine
 62
2
  6
CONTINUOUS
 10
43.0000000239
 20
18.9999999785
 11
43.0000000239
 21
9.9999999785
  0
LINE
  5
240
100
AcDbEntity
  8
0
100
AcDbLine
 62
2
  6
CONTINUOUS
 10
43.0000000239
 20
18.9999999785
 11
52.0000000239
 21
18.9999999785
  0
LINE
  5
241
100
AcDbEntity
  8
0
100
AcDbLine
 62
2
  6
CONTINUOUS
 10
10.0000000239
 20
9.9999999785
 11
10.0000000239
 21
59.9999999785
  0
ARC
  5
242
100
AcDbEntity
  8
0
100
AcDbCircle
 62
2
  6
CONTINUOUS
 10
17.6290122978
 20
56.1308274644
 40
1.2679261569
100
AcDbArc
 50
90.0
 51
180.0
  0
LINE
  5
243
100
AcDbEntity
  8
0
100
AcDbLine
 62
2
  6
CONTINUOUS
 10
17.6290122978
 20
57.3987536213
 11
44.0849627663
 21
57.3987536213
  0
ARC
  5
244
100
AcDbEntity
  8
0
100
AcDbCircle
 62
2
  6
CONTINUOUS
 10
44.0849627663
 20
56.1308274644
 40
1.2679261569
100
AcDbArc
 50
0.0
 51
90.0
  0
LINE
  5
245
100
AcDbEntity
  8
0
100
AcDbLine
 62
2
  6
CONTINUOUS
 10
45.3528889231
 20
56.1308274644
 11
45.3528889231
 21
43.6666783678
  0
ARC
  5
246
100
AcDbEntity
  8
0
100
AcDbCircle
 62
2
  6
CONTINUOUS
 10
44.0849627663
 20
43.6666783678
 40
1.2679261569
100
AcDbArc
 50
270.0
 51
360.0
  0
LINE
  5
247
100
AcDbEntity
  8
0
100
AcDbLine
 62
2
  6
CONTINUOUS
 10
44.0849627663
 20
42.3987522109
 11
17.6290122978
 21
42.3987522109
  0
ARC
  5
248
100
AcDbEntity
  8
0
100
AcDbCircle
 62
2
  6
CONTINUOUS
 10
17.6290122978
 20
43.6666783678
 40
1.2679261569
100
AcDbArc
 50
180.0
 51
270.0
  0
LINE
  5
249
100
AcDbEntity
  8
0
100
AcDbLine
 62
2
  6
CONTINUOUS
 10
16.3610861409
 20
43.6666783678
 11
16.3610861409
 21
56.1308274644
  0
ARC
  5
24A
100
AcDbEntity
  8
0
100
AcDbCircle
 62
2
  6
CONTINUOUS
 10
25.0981141224
 20
49.7181091975
 40
2.8108394023
100
AcDbArc
 50
35.2282226131
 51
336.934010569
  0
LINE
  5
24B
100
AcDbEntity
  8
0
100
AcDbLine
 62
2
  6
CONTINUOUS
 10
27.3941788183
 20
51.3394990511
 11
29.5865173301
 21
52.961744213
  0
ARC
  5
24C
100
AcDbEntity
  8
0
100
AcDbCircle
 62
2
  6
CONTINUOUS
 10
25.0981141224
 20
49.7181091975
 40
5.5377731507
100
AcDbArc
 50
35.8545159817
 51
11.4705154501
  0
LINE
  5
24D
100
AcDbEntity
  8
0
100
AcDbLine
 62
2
  6
CONTINUOUS
 10
30.5252822719
 20
50.8193709036
 11
25.2029961896
 21
50.8193709036
  0
ARC
  5
24E
100
AcDbEntity
  8
0
100
AcDbCircle
 62
2
  6
CONTINUOUS
 10
25.2029961896
 20
49.7181091975
 40
1.1012617061
100
AcDbArc
 50
90.0
 51
270.0
  0
LINE
  5
24F
100
AcDbEntity
  8
0
100
AcDbLine
 62
2
  6
CONTINUOUS
 10
25.2029961896
 20
48.6168474914
 11
27.6842387906
 21
48.6168474914
  0
ARC
  5
250
100
AcDbEntity
  8
0
100
AcDbCircle
 62
2
  6
CONTINUOUS
 10
25.2029961896
 20
49.7181091975
 40
5.9153485927
100
AcDbArc
 50
349.2706340045
 51
10.7293659955
  0
LINE
  5
251
100
AcDbEntity
  8
0
100
AcDbLine
 62
2
  6
CONTINUOUS
 10
31.014929743
 20
48.6168474914
 11
32.8593870987
 21
48.6168474914
  0
LINE
  5
252
100
AcDbEntity
  8
0
100
AcDbLine
 62
2
  6
CONTINUOUS
 10
32.8593870987
 20
48.6168474914
 11
32.8593870987
 21
48.0399961216
  0
ARC
  5
253
100
AcDbEntity
  8
0
100
AcDbCircle
 62
2
  6
CONTINUOUS
 10
36.7610000003
 20
48.0399961216
 40
3.9016129016
100
AcDbArc
 50
180.0
 51
360.0
  0
LINE
  5
254
100
AcDbEntity
  8
0
100
AcDbLine
 62
2
  6
CONTINUOUS
 10
40.6626129019
 20
48.0399961216
 11
40.6626129019
 21
54.9622125599
  0
LINE
  5
255
100
AcDbEntity
  8
0
100
AcDbLine
 62
2
  6
CONTINUOUS
 10
40.6626129019
 20
54.9622125599
 11
37.9356791535
 21
54.9622125599
  0
LINE
  5
256
100
AcDbEntity
  8
0
100
AcDbLine
 62
2
  6
CONTINUOUS
 10
37.9356791535
 20
54.9622125599
 11
37.9356791535
 21
48.0399961216
  0
ARC
  5
257
100
AcDbEntity
  8
0
100
AcDbCircle
 62
2
  6
CONTINUOUS
 10
36.7610000003
 20
48.0399961216
 40
1.1746791532
100
AcDbArc
 50
180.0
 51
360.0
  0
LINE
  5
258
100
AcDbEntity
  8
0
100
AcDbLine
 62
2
  6
CONTINUOUS
 10
35.5863208471
 20
48.0399961216
 11
35.5863208471
 21
54.9622125599
  0
LINE
  5
259
100
AcDbEntity
  8
0
100
AcDbLine
 62
2
  6
CONTINUOUS
 10
35.5863208471
 20
54.9622125599
 11
32.8593870987
 21
54.9622125599
  0
LINE
  5
25A
100
AcDbEntity
  8
0
100
AcDbLine
 62
2
  6
CONTINUOUS
 10
32.8593870987
 20
54.9622125599
 11
32.8593870987
 21
50.8193709036
  0
LINE
  5
25B
100
AcDbEntity
  8
0
100
AcDbLine
 62
2
  6
CONTINUOUS
 10
32.8593870987
 20
50.8193709036
 11
31.014929743
 21
50.8193709036
  0
LINE
  5
25C
100
AcDbEntity
  8
0
100
AcDbLine
 62
2
  6
CONTINUOUS
 10
45.1996126437
 20
56.7334185992
 11
45.2185459944
 21
56.6972621935
  0
LWPOLYLINE
  5
25D
100
AcDbEntity
  8
0
100
AcDbPolyline
 62
2
  6
CONTINUOUS
 90
42
 70
0
 10
17.4964779251
 20
57.3918123624
 10
17.6290122978
 20
57.398757363
 10
44.0849627663
 20
57.398757363
 10
44.217497139
 20
57.3918123624
 10
44.3485794374
 20
57.3710523604
 10
44.4767734964
 20
57.3367023572
 10
44.600674795
 20
57.2891373527
 10
44.7189258447
 20
57.2288823471
 10
44.8302310623
 20
57.1565973403
 10
44.9333709645
 20
57.0730773324
 10
45.0272155289
 20
56.9792373236
 10
45.1107365748
 20
56.8760973139
 10
45.1830190283
 20
56.7647973034
 10
45.2432709475
 20
56.6465372923
 10
45.2908322
 20
56.5226372807
 10
45.3251816945
 20
56.3944472686
 10
45.345943091
 20
56.2633622563
 10
45.3528889232
 20
56.1308222438
 10
24.5102931399
 20
55.2245960958
 10
23.6929701738
 20
55.0746474408
 10
22.9072856488
 20
54.8040901322
 10
22.1709301607
 20
54.4190160805
 10
21.5004836049
 20
53.9280956735
 10
20.9110418611
 20
53.3423825519
 10
20.4158768919
 20
52.6750647241
 10
20.0261379092
 20
51.9411676226
 10
16.3610861409
 20
43.6666760719
 10
16.3610861409
 20
56.1308222438
 10
16.368031973
 20
56.2633622563
 10
16.3887933695
 20
56.3944472686
 10
16.4231428641
 20
56.5226372807
 10
16.4707041165
 20
56.6465372923
 10
16.5309560358
 20
56.7647973034
 10
16.6032384892
 20
56.8760973139
 10
16.6867595352
 20
56.9792373236
 10
16.7806040996
 20
57.0730773324
 10
16.8837440018
 20
57.1565973403
 10
16.9950492193
 20
57.2288823471
 10
17.113300269
 20
57.2891373527
 10
17.2372015677
 20
57.3367023572
 10
17.3653956267
 20
57.3710523604
 10
17.4964779251
 20
57.3918123624
  0
HATCH
  5
25E
100
AcDbEntity
  8
0
100
AcDbHatch
 62
2
  6
CONTINUOUS
 10
0.0
 20
0.0
 30
0.0
210
0.0
220
0.0
230
1.0
  2
SOLID
 70
1
 71
1
 91
1
 92
1
 93
41
 72
1
 10
17.4964779251
 20
57.3918123624
 11
17.6290122978
 21
57.398757363
 72
1
 10
17.6290122978
 20
57.398757363
 11
44.0849627663
 21
57.398757363
 72
1
 10
44.0849627663
 20
57.398757363
 11
44.217497139
 21
57.3918123624
 72
1
 10
44.217497139
 20
57.3918123624
 11
44.3485794374
 21
57.3710523604
 72
1
 10
44.3485794374
 20
57.3710523604
 11
44.4767734964
 21
57.3367023572
 72
1
 10
44.4767734964
 20
57.3367023572
 11
44.600674795
 21
57.2891373527
 72
1
 10
44.600674795
 20
57.2891373527
 11
44.7189258447
 21
57.2288823471
 72
1
 10
44.7189258447
 20
57.2288823471
 11
44.8302310623
 21
57.1565973403
 72
1
 10
44.8302310623
 20
57.1565973403
 11
44.9333709645
 21
57.0730773324
 72
1
 10
44.9333709645
 20
57.0730773324
 11
45.0272155289
 21
56.9792373236
 72
1
 10
45.0272155289
 20
56.9792373236
 11
45.1107365748
 21
56.8760973139
 72
1
 10
45.1107365748
 20
56.8760973139
 11
45.1830190283
 21
56.7647973034
 72
1
 10
45.1830190283
 20
56.7647973034
 11
45.2432709475
 21
56.6465372923
 72
1
 10
45.2432709475
 20
56.6465372923
 11
45.2908322
 21
56.5226372807
 72
1
 10
45.2908322
 20
56.5226372807
 11
45.3251816945
 21
56.3944472686
 72
1
 10
45.3251816945
 20
56.3944472686
 11
45.345943091
 21
56.2633622563
 72
1
 10
45.345943091
 20
56.2633622563
 11
45.3528889232
 21
56.1308222438
 72
1
 10
45.3528889232
 20
56.1308222438
 11
24.5102931399
 21
55.2245960958
 72
1
 10
24.5102931399
 20
55.2245960958
 11
23.6929701738
 21
55.0746474408
 72
1
 10
23.6929701738
 20
55.0746474408
 11
22.9072856488
 21
54.8040901322
 72
1
 10
22.9072856488
 20
54.8040901322
 11
22.1709301607
 21
54.4190160805
 72
1
 10
22.1709301607
 20
54.4190160805
 11
21.5004836049
 21
53.9280956735
 72
1
 10
21.5004836049
 20
53.9280956735
 11
20.9110418611
 21
53.3423825519
 72
1
 10
20.9110418611
 20
53.3423825519
 11
20.4158768919
 21
52.6750647241
 72
1
 10
20.4158768919
 20
52.6750647241
 11
20.0261379092
 21
51.9411676226
 72
1
 10
20.0261379092
 20
51.9411676226
 11
16.3610861409
 21
43.6666760719
 72
1
 10
16.3610861409
 20
43.6666760719
 11
16.3610861409
 21
56.1308222438
 72
1
 10
16.3610861409
 20
56.1308222438
 11
16.368031973
 21
56.2633622563
 72
1
 10
16.368031973
 20
56.2633622563
 11
16.3887933695
 21
56.3944472686
 72
1
 10
16.3887933695
 20
56.3944472686
 11
16.4231428641
 21
56.5226372807
 72
1
 10
16.4231428641
 20
56.5226372807
 11
16.4707041165
 21
56.6465372923
 72
1
 10
16.4707041165
 20
56.6465372923
 11
16.5309560358
 21
56.7647973034
 72
1
 10
16.5309560358
 20
56.7647973034
 11
16.6032384892
 21
56.8760973139
 72
1
 10
16.6032384892
 20
56.8760973139
 11
16.6867595352
 21
56.9792373236
 72
1
 10
16.6867595352
 20
56.9792373236
 11
16.7806040996
 21
57.0730773324
 72
1
 10
16.7806040996
 20
57.0730773324
 11
16.8837440018
 21
57.1565973403
 72
1
 10
16.8837440018
 20
57.1565973403
 11
16.9950492193
 21
57.2288823471
 72
1
 10
16.9950492193
 20
57.2288823471
 11
17.113300269
 21
57.2891373527
 72
1
 10
17.113300269
 20
57.2891373527
 11
17.2372015677
 21
57.3367023572
 72
1
 10
17.2372015677
 20
57.3367023572
 11
17.3653956267
 21
57.3710523604
 72
1
 10
17.3653956267
 20
57.3710523604
 11
17.4964779251
 21
57.3918123624
 97
1
330
25D
 75
0
 76
1
 98
1
 10
0.0
 20
0.0
  0
LWPOLYLINE
  5
25F
100
AcDbEntity
  8
0
100
AcDbPolyline
 62
2
  6
CONTINUOUS
 90
23
 70
0
 10
26.9669939813
 20
54.9309989471
 10
26.1659444963
 20
55.151954039
 10
45.3528889232
 20
56.1308222438
 10
45.3528889231
 20
43.6666760719
 10
40.1398958888
 20
46.0891912997
 10
40.3656203039
 20
46.5469163427
 10
40.5296686661
 20
47.0301863881
 10
40.6292340626
 20
47.5307364352
 10
40.6626129019
 20
48.0400014831
 10
40.6626129019
 20
54.9622171339
 10
37.9356791535
 20
54.9622171339
 10
35.5863208471
 20
54.9622171339
 10
32.8593870987
 20
54.9622171339
 10
32.8593870987
 20
50.8193667444
 10
31.0149297429
 20
50.8193667444
 10
30.6289655903
 20
49.9949006497
 10
30.5252822719
 20
50.8193667444
 10
27.3941788183
 20
51.3394990511
 10
29.5865173301
 20
52.961744213
 10
29.0506384437
 20
53.5968310176
 10
28.425763901
 20
54.1445839144
 10
27.7259634749
 20
54.5926696135
 10
26.9669939813
 20
54.9309989471
  0
HATCH
  5
260
100
AcDbEntity
  8
0
100
AcDbHatch
 62
2
  6
CONTINUOUS
 10
0.0
 20
0.0
 30
0.0
210
0.0
220
0.0
230
1.0
  2
SOLID
 70
1
 71
1
 91
1
 92
1
 93
22
 72
1
 10
26.9669939813
 20
54.9309989471
 11
26.1659444963
 21
55.151954039
 72
1
 10
26.1659444963
 20
55.151954039
 11
45.3528889232
 21
56.1308222438
 72
1
 10
45.3528889232
 20
56.1308222438
 11
45.3528889231
 21
43.6666760719
 72
1
 10
45.3528889231
 20
43.6666760719
 11
40.1398958888
 21
46.0891912997
 72
1
 10
40.1398958888
 20
46.0891912997
 11
40.3656203039
 21
46.5469163427
 72
1
 10
40.3656203039
 20
46.5469163427
 11
40.5296686661
 21
47.0301863881
 72
1
 10
40.5296686661
 20
47.0301863881
 11
40.6292340626
 21
47.5307364352
 72
1
 10
40.6292340626
 20
47.5307364352
 11
40.6626129019
 21
48.0400014831
 72
1
 10
40.6626129019
 20
48.0400014831
 11
40.6626129019
 21
54.9622171339
 72
1
 10
40.6626129019
 20
54.9622171339
 11
37.9356791535
 21
54.9622171339
 72
1
 10
37.9356791535
 20
54.9622171339
 11
35.5863208471
 21
54.9622171339
 72
1
 10
35.5863208471
 20
54.9622171339
 11
32.8593870987
 21
54.9622171339
 72
1
 10
32.8593870987
 20
54.9622171339
 11
32.8593870987
 21
50.8193667444
 72
1
 10
32.8593870987
 20
50.8193667444
 11
31.0149297429
 21
50.8193667444
 72
1
 10
31.0149297429
 20
50.8193667444
 11
30.6289655903
 21
49.9949006497
 72
1
 10
30.6289655903
 20
49.9949006497
 11
30.5252822719
 21
50.8193667444
 72
1
 10
30.5252822719
 20
50.8193667444
 11
27.3941788183
 21
51.3394990511
 72
1
 10
27.3941788183
 20
51.3394990511
 11
29.5865173301
 21
52.961744213
 72
1
 10
29.5865173301
 20
52.961744213
 11
29.0506384437
 21
53.5968310176
 72
1
 10
29.0506384437
 20
53.5968310176
 11
28.425763901
 21
54.1445839144
 72
1
 10
28.425763901
 20
54.1445839144
 11
27.7259634749
 21
54.5926696135
 72
1
 10
27.7259634749
 20
54.5926696135
 11
26.9669939813
 21
54.9309989471
 97
1
330
25F
 75
0
 76
1
 98
1
 10
0.0
 20
0.0
  0
LWPOLYLINE
  5
261
100
AcDbEntity
  8
0
100
AcDbPolyline
 62
2
  6
CONTINUOUS
 90
20
 70
0
 10
24.5005684601
 20
52.4646993247
 10
24.9072650814
 20
52.5224620264
 10
25.3180376874
 20
52.5203318459
 10
25.7241133608
 20
52.4583542776
 10
26.1168194973
 20
52.3378529835
 10
26.4877690273
 20
52.1614015236
 10
26.8290395394
 20
51.9327683916
 10
27.1333424806
 20
51.6568365314
 10
27.3941788183
 20
51.3394990511
 10
30.5252822719
 20
50.8193667444
 10
25.2029961896
 20
50.8193667444
 10
25.0592526925
 20
50.8099494571
 10
22.4413895628
 20
50.6360595011
 10
22.6035508656
 20
51.0134749
 10
22.8189888395
 20
51.3632250264
 10
23.0831023513
 20
51.6778402269
 10
23.3902506985
 20
51.9506012291
 10
23.7338740791
 20
52.175682645
 10
24.1066336894
 20
52.3482773854
 10
24.5005684601
 20
52.4646993247
  0
HATCH
  5
262
100
AcDbEntity
  8
0
100
AcDbHatch
 62
2
  6
CONTINUOUS
 10
0.0
 20
0.0
 30
0.0
210
0.0
220
0.0
230
1.0
  2
SOLID
 70
1
 71
1
 91
1
 92
1
 93
19
 72
1
 10
24.5005684601
 20
52.4646993247
 11
24.9072650814
 21
52.5224620264
 72
1
 10
24.9072650814
 20
52.5224620264
 11
25.3180376874
 21
52.5203318459
 72
1
 10
25.3180376874
 20
52.5203318459
 11
25.7241133608
 21
52.4583542776
 72
1
 10
25.7241133608
 20
52.4583542776
 11
26.1168194973
 21
52.3378529835
 72
1
 10
26.1168194973
 20
52.3378529835
 11
26.4877690273
 21
52.1614015236
 72
1
 10
26.4877690273
 20
52.1614015236
 11
26.8290395394
 21
51.9327683916
 72
1
 10
26.8290395394
 20
51.9327683916
 11
27.1333424806
 21
51.6568365314
 72
1
 10
27.1333424806
 20
51.6568365314
 11
27.3941788183
 21
51.3394990511
 72
1
 10
27.3941788183
 20
51.3394990511
 11
30.5252822719
 21
50.8193667444
 72
1
 10
30.5252822719
 20
50.8193667444
 11
25.2029961896
 21
50.8193667444
 72
1
 10
25.2029961896
 20
50.8193667444
 11
25.0592526925
 21
50.8099494571
 72
1
 10
25.0592526925
 20
50.8099494571
 11
22.4413895628
 21
50.6360595011
 72
1
 10
22.4413895628
 20
50.6360595011
 11
22.6035508656
 21
51.0134749
 72
1
 10
22.6035508656
 20
51.0134749
 11
22.8189888395
 21
51.3632250264
 72
1
 10
22.8189888395
 20
51.3632250264
 11
23.0831023513
 21
51.6778402269
 72
1
 10
23.0831023513
 20
51.6778402269
 11
23.3902506985
 21
51.9506012291
 72
1
 10
23.3902506985
 20
51.9506012291
 11
23.7338740791
 21
52.175682645
 72
1
 10
23.7338740791
 20
52.175682645
 11
24.1066336894
 21
52.3482773854
 72
1
 10
24.1066336894
 20
52.3482773854
 11
24.5005684601
 21
52.4646993247
 97
1
330
261
 75
0
 76
1
 98
1
 10
0.0
 20
0.0
  0
LWPOLYLINE
  5
263
100
AcDbEntity
  8
0
100
AcDbPolyline
 62
2
  6
CONTINUOUS
 90
8
 70
0
 10
24.6523653366
 20
50.6718298112
 10
24.5325905397
 20
50.5917988506
 10
22.3359682285
 20
50.2390393331
 10
22.4413895628
 20
50.6360595011
 10
25.0592526925
 20
50.8099494571
 10
24.9179686864
 20
50.7818463209
 10
24.78156158
 20
50.7355423477
 10
24.6523653366
 20
50.6718298112
  0
HATCH
  5
264
100
AcDbEntity
  8
0
100
AcDbHatch
 62
2
  6
CONTINUOUS
 10
0.0
 20
0.0
 30
0.0
210
0.0
220
0.0
230
1.0
  2
SOLID
 70
1
 71
1
 91
1
 92
1
 93
7
 72
1
 10
24.6523653366
 20
50.6718298112
 11
24.5325905397
 21
50.5917988506
 72
1
 10
24.5325905397
 20
50.5917988506
 11
22.3359682285
 21
50.2390393331
 72
1
 10
22.3359682285
 20
50.2390393331
 11
22.4413895628
 21
50.6360595011
 72
1
 10
22.4413895628
 20
50.6360595011
 11
25.0592526925
 21
50.8099494571
 72
1
 10
25.0592526925
 20
50.8099494571
 11
24.9179686864
 21
50.7818463209
 72
1
 10
24.9179686864
 20
50.7818463209
 11
24.78156158
 21
50.7355423477
 72
1
 10
24.78156158
 20
50.7355423477
 11
24.6523653366
 21
50.6718298112
 97
1
330
263
 75
0
 76
1
 98
1
 10
0.0
 20
0.0
  0
LWPOLYLINE
  5
265
100
AcDbEntity
  8
0
100
AcDbPolyline
 62
2
  6
CONTINUOUS
 90
8
 70
0
 10
24.2492755759
 20
50.2687400506
 10
24.1855630394
 20
50.1395438071
 10
22.2895383581
 20
49.830893601
 10
22.3359682285
 20
50.2390393331
 10
24.5325905397
 20
50.5917988506
 10
24.4242865694
 20
50.4968188178
 10
24.3293065366
 20
50.3885148474
 10
24.2492755759
 20
50.2687400506
  0
HATCH
  5
266
100
AcDbEntity
  8
0
100
AcDbHatch
 62
2
  6
CONTINUOUS
 10
0.0
 20
0.0
 30
0.0
210
0.0
220
0.0
230
1.0
  2
SOLID
 70
1
 71
1
 91
1
 92
1
 93
7
 72
1
 10
24.2492755759
 20
50.2687400506
 11
24.1855630394
 21
50.1395438071
 72
1
 10
24.1855630394
 20
50.1395438071
 11
22.2895383581
 21
49.830893601
 72
1
 10
22.2895383581
 20
49.830893601
 11
22.3359682285
 21
50.2390393331
 72
1
 10
22.3359682285
 20
50.2390393331
 11
24.5325905397
 21
50.5917988506
 72
1
 10
24.5325905397
 20
50.5917988506
 11
24.4242865694
 21
50.4968188178
 72
1
 10
24.4242865694
 20
50.4968188178
 11
24.3293065366
 21
50.3885148474
 72
1
 10
24.3293065366
 20
50.3885148474
 11
24.2492755759
 21
50.2687400506
 97
1
330
265
 75
0
 76
1
 98
1
 10
0.0
 20
0.0
  0
LWPOLYLINE
  5
267
100
AcDbEntity
  8
0
100
AcDbPolyline
 62
2
  6
CONTINUOUS
 90
7
 70
0
 10
31.0993048012
 20
50.1923388153
 10
31.1162282192
 20
49.8763366836
 10
30.6081153911
 20
49.1641981161
 10
30.6289655903
 20
49.9949006497
 10
31.0149297429
 20
50.8193667444
 10
31.0655063992
 20
50.5069837221
 10
31.0993048012
 20
50.1923388153
  0
HATCH
  5
268
100
AcDbEntity
  8
0
100
AcDbHatch
 62
2
  6
CONTINUOUS
 10
0.0
 20
0.0
 30
0.0
210
0.0
220
0.0
230
1.0
  2
SOLID
 70
1
 71
1
 91
1
 92
1
 93
6
 72
1
 10
31.0993048012
 20
50.1923388153
 11
31.1162282192
 21
49.8763366836
 72
1
 10
31.1162282192
 20
49.8763366836
 11
30.6081153911
 21
49.1641981161
 72
1
 10
30.6081153911
 20
49.1641981161
 11
30.6289655903
 21
49.9949006497
 72
1
 10
30.6289655903
 20
49.9949006497
 11
31.0149297429
 21
50.8193667444
 72
1
 10
31.0149297429
 20
50.8193667444
 11
31.0655063992
 21
50.5069837221
 72
1
 10
31.0655063992
 20
50.5069837221
 11
31.0993048012
 21
50.1923388153
 97
1
330
267
 75
0
 76
1
 98
1
 10
0.0
 20
0.0
  0
LWPOLYLINE
  5
269
100
AcDbEntity
  8
0
100
AcDbPolyline
 62
2
  6
CONTINUOUS
 90
7
 70
0
 10
24.1111559301
 20
49.8618526947
 10
24.1017344835
 20
49.7181091975
 10
22.3030915597
 20
49.4203391196
 10
22.2895383581
 20
49.830893601
 10
24.1855630394
 20
50.1395438071
 10
24.1392590662
 20
50.0031367007
 10
24.1111559301
 20
49.8618526947
  0
HATCH
  5
26A
100
AcDbEntity
  8
0
100
AcDbHatch
 62
2
  6
CONTINUOUS
 10
0.0
 20
0.0
 30
0.0
210
0.0
220
0.0
230
1.0
  2
SOLID
 70
1
 71
1
 91
1
 92
1
 93
6
 72
1
 10
24.1111559301
 20
49.8618526947
 11
24.1017344835
 21
49.7181091975
 72
1
 10
24.1017344835
 20
49.7181091975
 11
22.3030915597
 21
49.4203391196
 72
1
 10
22.3030915597
 20
49.4203391196
 11
22.2895383581
 21
49.830893601
 72
1
 10
22.2895383581
 20
49.830893601
 11
24.1855630394
 21
50.1395438071
 72
1
 10
24.1855630394
 20
50.1395438071
 11
24.1392590662
 21
50.0031367007
 72
1
 10
24.1392590662
 20
50.0031367007
 11
24.1111559301
 21
49.8618526947
 97
1
330
269
 75
0
 76
1
 98
1
 10
0.0
 20
0.0
  0
LWPOLYLINE
  5
26B
100
AcDbEntity
  8
0
100
AcDbPolyline
 62
2
  6
CONTINUOUS
 90
7
 70
0
 10
24.1392590662
 20
49.4330816944
 10
24.1855630394
 20
49.2966745879
 10
22.3763383759
 20
49.0161441476
 10
22.3030915597
 20
49.4203391196
 10
24.1017344835
 20
49.7181091975
 10
24.1111559301
 20
49.5743657004
 10
24.1392590662
 20
49.4330816944
  0
HATCH
  5
26C
100
AcDbEntity
  8
0
100
AcDbHatch
 62
2
  6
CONTINUOUS
 10
0.0
 20
0.0
 30
0.0
210
0.0
220
0.0
230
1.0
  2
SOLID
 70
1
 71
1
 91
1
 92
1
 93
6
 72
1
 10
24.1392590662
 20
49.4330816944
 11
24.1855630394
 21
49.2966745879
 72
1
 10
24.1855630394
 20
49.2966745879
 11
22.3763383759
 21
49.0161441476
 72
1
 10
22.3763383759
 20
49.0161441476
 11
22.3030915597
 21
49.4203391196
 72
1
 10
22.3030915597
 20
49.4203391196
 11
24.1017344835
 21
49.7181091975
 72
1
 10
24.1017344835
 20
49.7181091975
 11
24.1111559301
 21
49.5743657004
 72
1
 10
24.1111559301
 20
49.5743657004
 11
24.1392590662
 21
49.4330816944
 97
1
330
26B
 75
0
 76
1
 98
1
 10
0.0
 20
0.0
  0
LWPOLYLINE
  5
26D
100
AcDbEntity
  8
0
100
AcDbPolyline
 62
2
  6
CONTINUOUS
 90
7
 70
0
 10
31.0993048012
 20
49.2438795798
 10
31.0655063992
 20
48.929234673
 10
30.4632011408
 20
48.3459675312
 10
30.6081153911
 20
49.1641981161
 10
31.1162282192
 20
49.8763366836
 10
31.1162282192
 20
49.5598817115
 10
31.0993048012
 20
49.2438795798
  0
HATCH
  5
26E
100
AcDbEntity
  8
0
100
AcDbHatch
 62
2
  6
CONTINUOUS
 10
0.0
 20
0.0
 30
0.0
210
0.0
220
0.0
230
1.0
  2
SOLID
 70
1
 71
1
 91
1
 92
1
 93
6
 72
1
 10
31.0993048012
 20
49.2438795798
 11
31.0655063992
 21
48.929234673
 72
1
 10
31.0655063992
 20
48.929234673
 11
30.4632011408
 21
48.3459675312
 72
1
 10
30.4632011408
 20
48.3459675312
 11
30.6081153911
 21
49.1641981161
 72
1
 10
30.6081153911
 20
49.1641981161
 11
31.1162282192
 21
49.8763366836
 72
1
 10
31.1162282192
 20
49.8763366836
 11
31.1162282192
 21
49.5598817115
 72
1
 10
31.1162282192
 20
49.5598817115
 11
31.0993048012
 21
49.2438795798
 97
1
330
26D
 75
0
 76
1
 98
1
 10
0.0
 20
0.0
  0
LWPOLYLINE
  5
26F
100
AcDbEntity
  8
0
100
AcDbPolyline
 62
2
  6
CONTINUOUS
 90
7
 70
0
 10
24.3293065366
 20
49.0477035476
 10
24.4242865694
 20
48.9393995773
 10
22.5077144663
 20
48.6269411229
 10
22.3763383759
 20
49.0161441476
 10
24.1855630394
 20
49.2966745879
 10
24.2492755759
 20
49.1674783445
 10
24.3293065366
 20
49.0477035476
  0
HATCH
  5
270
100
AcDbEntity
  8
0
100
AcDbHatch
 62
2
  6
CONTINUOUS
 10
0.0
 20
0.0
 30
0.0
210
0.0
220
0.0
230
1.0
  2
SOLID
 70
1
 71
1
 91
1
 92
1
 93
6
 72
1
 10
24.3293065366
 20
49.0477035476
 11
24.4242865694
 21
48.9393995773
 72
1
 10
24.4242865694
 20
48.9393995773
 11
22.5077144663
 21
48.6269411229
 72
1
 10
22.5077144663
 20
48.6269411229
 11
22.3763383759
 21
49.0161441476
 72
1
 10
22.3763383759
 20
49.0161441476
 11
24.1855630394
 21
49.2966745879
 72
1
 10
24.1855630394
 20
49.2966745879
 11
24.2492755759
 21
49.1674783445
 72
1
 10
24.2492755759
 20
49.1674783445
 11
24.3293065366
 21
49.0477035476
 97
1
330
26F
 75
0
 76
1
 98
1
 10
0.0
 20
0.0
  0
LWPOLYLINE
  5
271
100
AcDbEntity
  8
0
100
AcDbPolyline
 62
2
  6
CONTINUOUS
 90
9
 70
0
 10
24.9179686864
 20
48.6543720741
 10
25.0592526925
 20
48.626268938
 10
22.6944140166
 20
48.2610422989
 10
22.5077144663
 20
48.6269411229
 10
24.4242865694
 20
48.9393995773
 10
24.5325905397
 20
48.8444195445
 10
24.6523653366
 20
48.7643885839
 10
24.78156158
 20
48.7006760474
 10
24.9179686864
 20
48.6543720741
  0
HATCH
  5
272
100
AcDbEntity
  8
0
100
AcDbHatch
 62
2
  6
CONTINUOUS
 10
0.0
 20
0.0
 30
0.0
210
0.0
220
0.0
230
1.0
  2
SOLID
 70
1
 71
1
 91
1
 92
1
 93
8
 72
1
 10
24.9179686864
 20
48.6543720741
 11
25.0592526925
 21
48.626268938
 72
1
 10
25.0592526925
 20
48.626268938
 11
22.6944140166
 21
48.2610422989
 72
1
 10
22.6944140166
 20
48.2610422989
 11
22.5077144663
 21
48.6269411229
 72
1
 10
22.5077144663
 20
48.6269411229
 11
24.4242865694
 21
48.9393995773
 72
1
 10
24.4242865694
 20
48.9393995773
 11
24.5325905397
 21
48.8444195445
 72
1
 10
24.5325905397
 20
48.8444195445
 11
24.6523653366
 21
48.7643885839
 72
1
 10
24.6523653366
 20
48.7643885839
 11
24.78156158
 21
48.7006760474
 72
1
 10
24.78156158
 20
48.7006760474
 11
24.9179686864
 21
48.6543720741
 97
1
330
271
 75
0
 76
1
 98
1
 10
0.0
 20
0.0
  0
LWPOLYLINE
  5
273
100
AcDbEntity
  8
0
100
AcDbPolyline
 62
2
  6
CONTINUOUS
 90
9
 70
0
 10
32.8593870987
 20
48.6168415373
 10
32.8593870987
 20
48.0400014831
 10
32.8927659379
 20
47.5307364352
 10
29.8169521117
 20
46.8199201942
 10
30.1974857512
 20
47.5586323028
 10
30.4632011408
 20
48.3459675312
 10
31.0655063992
 20
48.929234673
 10
31.0149297429
 20
48.6168415373
 10
32.8593870987
 20
48.6168415373
  0
HATCH
  5
274
100
AcDbEntity
  8
0
100
AcDbHatch
 62
2
  6
CONTINUOUS
 10
0.0
 20
0.0
 30
0.0
210
0.0
220
0.0
230
1.0
  2
SOLID
 70
1
 71
1
 91
1
 92
1
 93
8
 72
1
 10
32.8593870987
 20
48.6168415373
 11
32.8593870987
 21
48.0400014831
 72
1
 10
32.8593870987
 20
48.0400014831
 11
32.8927659379
 21
47.5307364352
 72
1
 10
32.8927659379
 20
47.5307364352
 11
29.8169521117
 21
46.8199201942
 72
1
 10
29.8169521117
 20
46.8199201942
 11
30.1974857512
 21
47.5586323028
 72
1
 10
30.1974857512
 20
47.5586323028
 11
30.4632011408
 21
48.3459675312
 72
1
 10
30.4632011408
 20
48.3459675312
 11
31.0655063992
 21
48.929234673
 72
1
 10
31.0655063992
 20
48.929234673
 11
31.0149297429
 21
48.6168415373
 72
1
 10
31.0149297429
 20
48.6168415373
 11
32.8593870987
 21
48.6168415373
 97
1
330
273
 75
0
 76
1
 98
1
 10
0.0
 20
0.0
  0
LWPOLYLINE
  5
275
100
AcDbEntity
  8
0
100
AcDbPolyline
 62
2
  6
CONTINUOUS
 90
19
 70
0
 10
27.6842387906
 20
48.6168415373
 10
27.4961137435
 20
48.2516795326
 10
27.2567743458
 20
47.9178302789
 10
26.9713321963
 20
47.6224297867
 10
26.6458835153
 20
47.3717869581
 10
26.2873789475
 20
47.1712548002
 10
25.9034751155
 20
47.0251161014
 10
25.5023710973
 20
46.9364919623
 10
25.0926333168
 20
46.9072751387
 10
24.6830125906
 20
46.9380896178
 10
24.2822572349
 20
47.0282772912
 10
23.8989262276
 20
47.1759120104
 10
23.5412064125
 20
47.377840724
 10
23.2167376524
 20
47.6297508175
 10
22.9324496635
 20
47.9262622184
 10
22.6944140166
 20
48.2610422989
 10
25.0592526925
 20
48.626268938
 10
25.2029961896
 20
48.6168415373
 10
27.6842387906
 20
48.6168415373
  0
HATCH
  5
276
100
AcDbEntity
  8
0
100
AcDbHatch
 62
2
  6
CONTINUOUS
 10
0.0
 20
0.0
 30
0.0
210
0.0
220
0.0
230
1.0
  2
SOLID
 70
1
 71
1
 91
1
 92
1
 93
18
 72
1
 10
27.6842387906
 20
48.6168415373
 11
27.4961137435
 21
48.2516795326
 72
1
 10
27.4961137435
 20
48.2516795326
 11
27.2567743458
 21
47.9178302789
 72
1
 10
27.2567743458
 20
47.9178302789
 11
26.9713321963
 21
47.6224297867
 72
1
 10
26.9713321963
 20
47.6224297867
 11
26.6458835153
 21
47.3717869581
 72
1
 10
26.6458835153
 20
47.3717869581
 11
26.2873789475
 21
47.1712548002
 72
1
 10
26.2873789475
 20
47.1712548002
 11
25.9034751155
 21
47.0251161014
 72
1
 10
25.9034751155
 20
47.0251161014
 11
25.5023710973
 21
46.9364919623
 72
1
 10
25.5023710973
 20
46.9364919623
 11
25.0926333168
 21
46.9072751387
 72
1
 10
25.0926333168
 20
46.9072751387
 11
24.6830125906
 21
46.9380896178
 72
1
 10
24.6830125906
 20
46.9380896178
 11
24.2822572349
 21
47.0282772912
 72
1
 10
24.2822572349
 20
47.0282772912
 11
23.8989262276
 21
47.1759120104
 72
1
 10
23.8989262276
 20
47.1759120104
 11
23.5412064125
 21
47.377840724
 72
1
 10
23.5412064125
 20
47.377840724
 11
23.2167376524
 21
47.6297508175
 72
1
 10
23.2167376524
 20
47.6297508175
 11
22.9324496635
 21
47.9262622184
 72
1
 10
22.9324496635
 20
47.9262622184
 11
22.6944140166
 21
48.2610422989
 72
1
 10
22.6944140166
 20
48.2610422989
 11
25.0592526925
 21
48.626268938
 72
1
 10
25.0592526925
 20
48.626268938
 11
25.2029961896
 21
48.6168415373
 72
1
 10
25.2029961896
 20
48.6168415373
 11
27.6842387906
 21
48.6168415373
 97
1
330
275
 75
0
 76
1
 98
1
 10
0.0
 20
0.0
  0
LWPOLYLINE
  5
277
100
AcDbEntity
  8
0
100
AcDbPolyline
 62
2
  6
CONTINUOUS
 90
28
 70
0
 10
35.5863208471
 20
48.0400014831
 10
35.5863208471
 20
54.9622171339
 10
37.9356791535
 20
54.9622171339
 10
37.9356791535
 20
48.0400014831
 10
37.9256296104
 20
47.8866714687
 10
37.8956529319
 20
47.7359664545
 10
37.8462620271
 20
47.5904664408
 10
37.7783019882
 20
47.4526614279
 10
37.6929356302
 20
47.3248914159
 10
37.5916235952
 20
47.209376405
 10
37.4760993602
 20
47.1080663955
 10
37.3483395768
 20
47.0227013874
 10
37.2105302505
 20
46.9547363811
 10
37.065029337
 20
46.9053413764
 10
36.9143263972
 20
46.8753713736
 10
36.7610000003
 20
46.8653169684
 10
36.6076736033
 20
46.8753713736
 10
36.4569706635
 20
46.9053413764
 10
36.31146975
 20
46.9547363811
 10
36.1736604237
 20
47.0227013874
 10
36.0459006404
 20
47.1080663955
 10
35.9303764053
 20
47.209376405
 10
35.8290643703
 20
47.3248914159
 10
35.7436980123
 20
47.4526614279
 10
35.6757379734
 20
47.5904664408
 10
35.6263470686
 20
47.7359664545
 10
35.5963703901
 20
47.8866714687
 10
35.5863208471
 20
48.0400014831
  0
HATCH
  5
278
100
AcDbEntity
  8
0
100
AcDbHatch
 62
2
  6
CONTINUOUS
 10
0.0
 20
0.0
 30
0.0
210
0.0
220
0.0
230
1.0
  2
SOLID
 70
1
 71
1
 91
1
 92
1
 93
27
 72
1
 10
35.5863208471
 20
48.0400014831
 11
35.5863208471
 21
54.9622171339
 72
1
 10
35.5863208471
 20
54.9622171339
 11
37.9356791535
 21
54.9622171339
 72
1
 10
37.9356791535
 20
54.9622171339
 11
37.9356791535
 21
48.0400014831
 72
1
 10
37.9356791535
 20
48.0400014831
 11
37.9256296104
 21
47.8866714687
 72
1
 10
37.9256296104
 20
47.8866714687
 11
37.8956529319
 21
47.7359664545
 72
1
 10
37.8956529319
 20
47.7359664545
 11
37.8462620271
 21
47.5904664408
 72
1
 10
37.8462620271
 20
47.5904664408
 11
37.7783019882
 21
47.4526614279
 72
1
 10
37.7783019882
 20
47.4526614279
 11
37.6929356302
 21
47.3248914159
 72
1
 10
37.6929356302
 20
47.3248914159
 11
37.5916235952
 21
47.209376405
 72
1
 10
37.5916235952
 20
47.209376405
 11
37.4760993602
 21
47.1080663955
 72
1
 10
37.4760993602
 20
47.1080663955
 11
37.3483395768
 21
47.0227013874
 72
1
 10
37.3483395768
 20
47.0227013874
 11
37.2105302505
 21
46.9547363811
 72
1
 10
37.2105302505
 20
46.9547363811
 11
37.065029337
 21
46.9053413764
 72
1
 10
37.065029337
 20
46.9053413764
 11
36.9143263972
 21
46.8753713736
 72
1
 10
36.9143263972
 20
46.8753713736
 11
36.7610000003
 21
46.8653169684
 72
1
 10
36.7610000003
 20
46.8653169684
 11
36.6076736033
 21
46.8753713736
 72
1
 10
36.6076736033
 20
46.8753713736
 11
36.4569706635
 21
46.9053413764
 72
1
 10
36.4569706635
 20
46.9053413764
 11
36.31146975
 21
46.9547363811
 72
1
 10
36.31146975
 20
46.9547363811
 11
36.1736604237
 21
47.0227013874
 72
1
 10
36.1736604237
 20
47.0227013874
 11
36.0459006404
 21
47.1080663955
 72
1
 10
36.0459006404
 20
47.1080663955
 11
35.9303764053
 21
47.209376405
 72
1
 10
35.9303764053
 20
47.209376405
 11
35.8290643703
 21
47.3248914159
 72
1
 10
35.8290643703
 20
47.3248914159
 11
35.7436980123
 21
47.4526614279
 72
1
 10
35.7436980123
 20
47.4526614279
 11
35.6757379734
 21
47.5904664408
 72
1
 10
35.6757379734
 20
47.5904664408
 11
35.6263470686
 21
47.7359664545
 72
1
 10
35.6263470686
 20
47.7359664545
 11
35.5963703901
 21
47.8866714687
 72
1
 10
35.5963703901
 20
47.8866714687
 11
35.5863208471
 21
48.0400014831
 97
1
330
277
 75
0
 76
1
 98
1
 10
0.0
 20
0.0
  0
LWPOLYLINE
  5
279
100
AcDbEntity
  8
0
100
AcDbPolyline
 62
2
  6
CONTINUOUS
 90
8
 70
0
 10
32.9923313344
 20
47.0301863881
 10
33.1563796967
 20
46.5469163427
 10
33.3821041117
 20
46.0891912997
 10
28.7480950465
 20
45.5534278506
 10
29.3301683772
 20
46.146464163
 10
29.8169521117
 20
46.8199201942
 10
32.8927659379
 20
47.5307364352
 10
32.9923313344
 20
47.0301863881
  0
HATCH
  5
27A
100
AcDbEntity
  8
0
100
AcDbHatch
 62
2
  6
CONTINUOUS
 10
0.0
 20
0.0
 30
0.0
210
0.0
220
0.0
230
1.0
  2
SOLID
 70
1
 71
1
 91
1
 92
1
 93
7
 72
1
 10
32.9923313344
 20
47.0301863881
 11
33.1563796967
 21
46.5469163427
 72
1
 10
33.1563796967
 20
46.5469163427
 11
33.3821041117
 21
46.0891912997
 72
1
 10
33.3821041117
 20
46.0891912997
 11
28.7480950465
 21
45.5534278506
 72
1
 10
28.7480950465
 20
45.5534278506
 11
29.3301683772
 21
46.146464163
 72
1
 10
29.3301683772
 20
46.146464163
 11
29.8169521117
 21
46.8199201942
 72
1
 10
29.8169521117
 20
46.8199201942
 11
32.8927659379
 21
47.5307364352
 72
1
 10
32.8927659379
 20
47.5307364352
 11
32.9923313344
 21
47.0301863881
 97
1
330
279
 75
0
 76
1
 98
1
 10
0.0
 20
0.0
  0
LWPOLYLINE
  5
27B
100
AcDbEntity
  8
0
100
AcDbPolyline
 62
2
  6
CONTINUOUS
 90
8
 70
0
 10
33.6656423722
 20
45.6648412598
 10
34.00214306
 20
45.2811412237
 10
34.3858485548
 20
44.9446311921
 10
27.3523542712
 20
44.659914577
 10
28.0838381739
 20
45.0541641554
 10
28.7480950465
 20
45.5534278506
 10
33.3821041117
 20
46.0891912997
 10
33.6656423722
 20
45.6648412598
  0
HATCH
  5
27C
100
AcDbEntity
  8
0
100
AcDbHatch
 62
2
  6
CONTINUOUS
 10
0.0
 20
0.0
 30
0.0
210
0.0
220
0.0
230
1.0
  2
SOLID
 70
1
 71
1
 91
1
 92
1
 93
7
 72
1
 10
33.6656423722
 20
45.6648412598
 11
34.00214306
 21
45.2811412237
 72
1
 10
34.00214306
 20
45.2811412237
 11
34.3858485548
 21
44.9446311921
 72
1
 10
34.3858485548
 20
44.9446311921
 11
27.3523542712
 21
44.659914577
 72
1
 10
27.3523542712
 20
44.659914577
 11
28.0838381739
 21
45.0541641554
 72
1
 10
28.0838381739
 20
45.0541641554
 11
28.7480950465
 21
45.5534278506
 72
1
 10
28.7480950465
 20
45.5534278506
 11
33.3821041117
 21
46.0891912997
 72
1
 10
33.3821041117
 20
46.0891912997
 11
33.6656423722
 21
45.6648412598
 97
1
330
27B
 75
0
 76
1
 98
1
 10
0.0
 20
0.0
  0
LWPOLYLINE
  5
27D
100
AcDbEntity
  8
0
100
AcDbPolyline
 62
2
  6
CONTINUOUS
 90
24
 70
0
 10
34.8101935494
 20
44.6611011654
 10
35.2679173833
 20
44.4353811442
 10
35.7511882747
 20
44.2713261287
 10
36.2517373247
 20
44.1717561194
 10
16.3610861409
 20
43.6666760719
 10
20.0261379092
 20
51.9411676226
 10
19.750600337
 20
51.1572157897
 10
19.5954682224
 20
50.3408608074
 10
19.5642345443
 20
49.5104838523
 10
19.6576025652
 20
48.684781822
 10
19.8734699961
 20
47.8823463527
 10
20.2069763321
 20
47.121245207
 10
20.6506122924
 20
46.4186154575
 10
21.1943889001
 20
45.7902776256
 10
21.8260623961
 20
45.2503794643
 10
22.5314099211
 20
44.8110774052
 10
23.2945497596
 20
44.4822628421
 10
24.0982989358
 20
44.2713261287
 10
24.9245601072
 20
44.1830563096
 10
25.754729048
 20
44.2194013213
 10
26.5701135443
 20
44.3795561005
 10
27.3523542712
 20
44.659914577
 10
34.3858485548
 20
44.9446311921
 10
34.8101935494
 20
44.6611011654
  0
HATCH
  5
27E
100
AcDbEntity
  8
0
100
AcDbHatch
 62
2
  6
CONTINUOUS
 10
0.0
 20
0.0
 30
0.0
210
0.0
220
0.0
230
1.0
  2
SOLID
 70
1
 71
1
 91
1
 92
1
 93
23
 72
1
 10
34.8101935494
 20
44.6611011654
 11
35.2679173833
 21
44.4353811442
 72
1
 10
35.2679173833
 20
44.4353811442
 11
35.7511882747
 21
44.2713261287
 72
1
 10
35.7511882747
 20
44.2713261287
 11
36.2517373247
 21
44.1717561194
 72
1
 10
36.2517373247
 20
44.1717561194
 11
16.3610861409
 21
43.6666760719
 72
1
 10
16.3610861409
 20
43.6666760719
 11
20.0261379092
 21
51.9411676226
 72
1
 10
20.0261379092
 20
51.9411676226
 11
19.750600337
 21
51.1572157897
 72
1
 10
19.750600337
 20
51.1572157897
 11
19.5954682224
 21
50.3408608074
 72
1
 10
19.5954682224
 20
50.3408608074
 11
19.5642345443
 21
49.5104838523
 72
1
 10
19.5642345443
 20
49.5104838523
 11
19.6576025652
 21
48.684781822
 72
1
 10
19.6576025652
 20
48.684781822
 11
19.8734699961
 21
47.8823463527
 72
1
 10
19.8734699961
 20
47.8823463527
 11
20.2069763321
 21
47.121245207
 72
1
 10
20.2069763321
 20
47.121245207
 11
20.6506122924
 21
46.4186154575
 72
1
 10
20.6506122924
 20
46.4186154575
 11
21.1943889001
 21
45.7902776256
 72
1
 10
21.1943889001
 20
45.7902776256
 11
21.8260623961
 21
45.2503794643
 72
1
 10
21.8260623961
 20
45.2503794643
 11
22.5314099211
 21
44.8110774052
 72
1
 10
22.5314099211
 20
44.8110774052
 11
23.2945497596
 21
44.4822628421
 72
1
 10
23.2945497596
 20
44.4822628421
 11
24.0982989358
 21
44.2713261287
 72
1
 10
24.0982989358
 20
44.2713261287
 11
24.9245601072
 21
44.1830563096
 72
1
 10
24.9245601072
 20
44.1830563096
 11
25.754729048
 21
44.2194013213
 72
1
 10
25.754729048
 20
44.2194013213
 11
26.5701135443
 21
44.3795561005
 72
1
 10
26.5701135443
 20
44.3795561005
 11
27.3523542712
 21
44.659914577
 72
1
 10
27.3523542712
 20
44.659914577
 11
34.3858485548
 21
44.9446311921
 72
1
 10
34.3858485548
 20
44.9446311921
 11
34.8101935494
 21
44.6611011654
 97
1
330
27D
 75
0
 76
1
 98
1
 10
0.0
 20
0.0
  0
LWPOLYLINE
  5
27F
100
AcDbEntity
  8
0
100
AcDbPolyline
 62
2
  6
CONTINUOUS
 90
43
 70
0
 10
36.7610000003
 20
44.13838322
 10
37.2702626758
 20
44.1717561194
 10
37.7708117258
 20
44.2713261287
 10
38.2540826172
 20
44.4353811442
 10
38.7118064511
 20
44.6611011654
 10
39.1361514457
 20
44.9446311921
 10
39.5198569406
 20
45.2811412237
 10
39.8563576283
 20
45.6648412598
 10
40.1398958888
 20
46.0891912997
 10
45.3528889231
 20
43.6666760719
 10
45.345943091
 20
43.5341510594
 10
45.3251816945
 20
43.4030660471
 10
45.2908322
 20
43.2748610351
 10
45.2432709475
 20
43.1509610234
 10
45.1830190283
 20
43.0327160123
 10
45.1107365748
 20
42.9214160018
 10
45.0272155289
 20
42.8182759921
 10
44.9333709645
 20
42.7244209833
 10
44.8302310623
 20
42.6409009754
 10
44.7189258447
 20
42.5686159687
 10
44.600674795
 20
42.508375963
 10
44.4767734964
 20
42.4608109585
 10
44.3485794374
 20
42.4264609553
 10
44.217497139
 20
42.4057009533
 10
44.0849627663
 20
42.3987559527
 10
17.6290122978
 20
42.3987559527
 10
17.4964779251
 20
42.4057009533
 10
17.3653956267
 20
42.4264609553
 10
17.2372015677
 20
42.4608109585
 10
17.113300269
 20
42.508375963
 10
16.9950492193
 20
42.5686159687
 10
16.8837440018
 20
42.6409009754
 10
16.7806040996
 20
42.7244209833
 10
16.6867595352
 20
42.8182759921
 10
16.6032384892
 20
42.9214160018
 10
16.5309560358
 20
43.0327160123
 10
16.4707041165
 20
43.1509610234
 10
16.4231428641
 20
43.2748610351
 10
16.3887933695
 20
43.4030660471
 10
16.368031973
 20
43.5341510594
 10
16.3610861409
 20
43.6666760719
 10
36.2517373247
 20
44.1717561194
 10
36.7610000003
 20
44.13838322
  0
HATCH
  5
280
100
AcDbEntity
  8
0
100
AcDbHatch
 62
2
  6
CONTINUOUS
 10
0.0
 20
0.0
 30
0.0
210
0.0
220
0.0
230
1.0
  2
SOLID
 70
1
 71
1
 91
1
 92
1
 93
42
 72
1
 10
36.7610000003
 20
44.13838322
 11
37.2702626758
 21
44.1717561194
 72
1
 10
37.2702626758
 20
44.1717561194
 11
37.7708117258
 21
44.2713261287
 72
1
 10
37.7708117258
 20
44.2713261287
 11
38.2540826172
 21
44.4353811442
 72
1
 10
38.2540826172
 20
44.4353811442
 11
38.7118064511
 21
44.6611011654
 72
1
 10
38.7118064511
 20
44.6611011654
 11
39.1361514457
 21
44.9446311921
 72
1
 10
39.1361514457
 20
44.9446311921
 11
39.5198569406
 21
45.2811412237
 72
1
 10
39.5198569406
 20
45.2811412237
 11
39.8563576283
 21
45.6648412598
 72
1
 10
39.8563576283
 20
45.6648412598
 11
40.1398958888
 21
46.0891912997
 72
1
 10
40.1398958888
 20
46.0891912997
 11
45.3528889231
 21
43.6666760719
 72
1
 10
45.3528889231
 20
43.6666760719
 11
45.345943091
 21
43.5341510594
 72
1
 10
45.345943091
 20
43.5341510594
 11
45.3251816945
 21
43.4030660471
 72
1
 10
45.3251816945
 20
43.4030660471
 11
45.2908322
 21
43.2748610351
 72
1
 10
45.2908322
 20
43.2748610351
 11
45.2432709475
 21
43.1509610234
 72
1
 10
45.2432709475
 20
43.1509610234
 11
45.1830190283
 21
43.0327160123
 72
1
 10
45.1830190283
 20
43.0327160123
 11
45.1107365748
 21
42.9214160018
 72
1
 10
45.1107365748
 20
42.9214160018
 11
45.0272155289
 21
42.8182759921
 72
1
 10
45.0272155289
 20
42.8182759921
 11
44.9333709645
 21
42.7244209833
 72
1
 10
44.9333709645
 20
42.7244209833
 11
44.8302310623
 21
42.6409009754
 72
1
 10
44.8302310623
 20
42.6409009754
 11
44.7189258447
 21
42.5686159687
 72
1
 10
44.7189258447
 20
42.5686159687
 11
44.600674795
 21
42.508375963
 72
1
 10
44.600674795
 20
42.508375963
 11
44.4767734964
 21
42.4608109585
 72
1
 10
44.4767734964
 20
42.4608109585
 11
44.3485794374
 21
42.4264609553
 72
1
 10
44.3485794374
 20
42.4264609553
 11
44.217497139
 21
42.4057009533
 72
1
 10
44.217497139
 20
42.4057009533
 11
44.0849627663
 21
42.3987559527
 72
1
 10
44.0849627663
 20
42.3987559527
 11
17.6290122978
 21
42.3987559527
 72
1
 10
17.6290122978
 20
42.3987559527
 11
17.4964779251
 21
42.4057009533
 72
1
 10
17.4964779251
 20
42.4057009533
 11
17.3653956267
 21
42.4264609553
 72
1
 10
17.3653956267
 20
42.4264609553
 11
17.2372015677
 21
42.4608109585
 72
1
 10
17.2372015677
 20
42.4608109585
 11
17.113300269
 21
42.508375963
 72
1
 10
17.113300269
 20
42.508375963
 11
16.9950492193
 21
42.5686159687
 72
1
 10
16.9950492193
 20
42.5686159687
 11
16.8837440018
 21
42.6409009754
 72
1
 10
16.8837440018
 20
42.6409009754
 11
16.7806040996
 21
42.7244209833
 72
1
 10
16.7806040996
 20
42.7244209833
 11
16.6867595352
 21
42.8182759921
 72
1
 10
16.6867595352
 20
42.8182759921
 11
16.6032384892
 21
42.9214160018
 72
1
 10
16.6032384892
 20
42.9214160018
 11
16.5309560358
 21
43.0327160123
 72
1
 10
16.5309560358
 20
43.0327160123
 11
16.4707041165
 21
43.1509610234
 72
1
 10
16.4707041165
 20
43.1509610234
 11
16.4231428641
 21
43.2748610351
 72
1
 10
16.4231428641
 20
43.2748610351
 11
16.3887933695
 21
43.4030660471
 72
1
 10
16.3887933695
 20
43.4030660471
 11
16.368031973
 21
43.5341510594
 72
1
 10
16.368031973
 20
43.5341510594
 11
16.3610861409
 21
43.6666760719
 72
1
 10
16.3610861409
 20
43.6666760719
 11
36.2517373247
 21
44.1717561194
 72
1
 10
36.2517373247
 20
44.1717561194
 11
36.7610000003
 21
44.13838322
 97
1
330
27F
 75
0
 76
1
 98
1
 10
0.0
 20
0.0
  0
SOLID
  5
281
100
AcDbEntity
  8
0
100
AcDbTrace
 62
2
  6
CONTINUOUS
 10
25.3408515753
 20
55.2505598297
 11
24.5102931399
 21
55.2245960958
 12
26.1659444963
 22
55.151954039
 13
45.3528889232
 23
56.1308222438
  0
ENDBLK
  5
282
100
AcDbEntity
  8
0
  6
BYBLOCK
 62
0
100
AcDbBlockEnd
  0
BLOCK
  5
283
100
AcDbEntity
  8
HATCHING_BL0
100
AcDbBlockBegin
  2
HATCHING_BL0
 70
64
 10
19.8388936265
 20
239.9677093067
  3
HATCHING_BL0
  1

  0
TEXT
  5
284
100
AcDbEntity
  8
HATCHING_BL0
100
AcDbText
 62
7
  6
CONTINUOUS
 10
2.4990771114
 20
242.4932494905
  7
STANDARD
 40
5.0
  1
A
 72
5
 11
7.1459172601
 21
242.4932494905
100
AcDbText
  0
LEADER
  5
285
100
AcDbEntity
  8
HATCHING_BL0
100
AcDbLeader
 62
7
  6
CONTINUOUS
  3
STANDARD
 71
1
 72
0
 73
3
 75
0
 76
2
 10
8.1124600111
 20
229.9421691228
 30
0.0
 10
8.1124600111
 20
249.9932494905
 30
0.0
1001
ACAD
1000
DSTYLE
1002
{
1070
77
1070
0
1002
}
  0
TEXT
  5
286
100
AcDbEntity
  8
HATCHING_BL0
100
AcDbText
 62
7
  6
CONTINUOUS
 10
32.5318699928
 20
242.4932494905
  7
STANDARD
 40
5.0
  1
A
 72
5
 11
37.1787101415
 21
242.4932494905
100
AcDbText
  0
LEADER
  5
287
100
AcDbEntity
  8
HATCHING_BL0
100
AcDbLeader
 62
7
  6
CONTINUOUS
  3
STANDARD
 71
1
 72
0
 73
3
 75
0
 76
2
 10
31.5653272418
 20
229.9421691228
 30
0.0
 10
31.5653272418
 20
249.9932494905
 30
0.0
1001
ACAD
1000
DSTYLE
1002
{
1070
77
1070
0
1002
}
  0
LINE
  5
288
100
AcDbEntity
  8
HATCHING_BL0
100
AcDbLine
 62
7
  6
CENTER
 10
8.1124600111
 20
229.9421691228
 11
31.5653272418
 21
229.9421691228
  0
ENDBLK
  5
289
100
AcDbEntity
  8
0
  6
BYBLOCK
 62
0
100
AcDbBlockEnd
  0
BLOCK
  5
28A
100
AcDbEntity
  8
93773532000_O_BL1
100
AcDbBlockBegin
  2
93773532000_O_BL1
 70
64
 10
53.122095064
 20
115.5428353823
  3
93773532000_O_BL1
  1

  0
LINE
  5
28B
100
AcDbEntity
  8
93773532000_O_BL1
100
AcDbLine
 62
7
  6
CONTINUOUS
 10
71.0705456126
 20
124.4421691228
 11
95.0705456126
 21
124.4421691228
  0
LINE
  5
28C
100
AcDbEntity
  8
93773532000_O_BL1
100
AcDbLine
 62
9
  6
CONTINUOUS
 10
73.5705456126
 20
128.9421691228
 11
92.5705456126
 21
128.9421691228
  0
LINE
  5
28D
100
AcDbEntity
  8
93773532000_O_BL1
100
AcDbLine
 62
9
  6
CONTINUOUS
 10
95.0705456126
 20
132.0421691228
 11
71.0705456126
 21
132.0421691228
  0
LINE
  5
28E
100
AcDbEntity
  8
93773532000_O_BL1
100
AcDbLine
 62
7
  6
CENTER
 10
83.0705456126
 20
144.4421691228
 11
74.0705456126
 21
144.4421691228
  0
LINE
  5
28F
100
AcDbEntity
  8
93773532000_O_BL1
100
AcDbLine
 62
7
  6
CENTER
 10
83.0705456126
 20
144.4421691228
 11
92.0705456126
 21
144.4421691228
  0
LINE
  5
290
100
AcDbEntity
  8
93773532000_O_BL1
100
AcDbLine
 62
7
  6
CONTINUOUS
 10
71.0705456126
 20
124.4421691228
 11
71.0705456126
 21
132.0421691228
  0
LINE
  5
291
100
AcDbEntity
  8
93773532000_O_BL1
100
AcDbLine
 62
9
  6
CONTINUOUS
 10
73.5705456126
 20
128.9421691228
 11
73.5705456126
 21
132.4421691228
  0
LINE
  5
292
100
AcDbEntity
  8
93773532000_O_BL1
100
AcDbLine
 62
7
  6
CENTER
 10
83.0705456126
 20
144.4421691228
 11
83.0705456126
 21
135.4421691228
  0
LINE
  5
293
100
AcDbEntity
  8
93773532000_O_BL1
100
AcDbLine
 62
7
  6
CENTER
 10
83.0705456126
 20
144.4421691228
 11
83.0705456126
 21
153.4421691228
  0
LINE
  5
294
100
AcDbEntity
  8
93773532000_O_BL1
100
AcDbLine
 62
9
  6
CONTINUOUS
 10
92.5705456126
 20
128.9421691228
 11
92.5705456126
 21
132.4421691228
  0
LINE
  5
295
100
AcDbEntity
  8
93773532000_O_BL1
100
AcDbLine
 62
7
  6
CONTINUOUS
 10
95.0705456126
 20
124.4421691228
 11
95.0705456126
 21
132.0421691228
  0
LINE
  5
296
100
AcDbEntity
  8
93773532000_O_BL1
100
AcDbLine
 62
7
  6
CONTINUOUS
 10
17.3843651806
 20
124.4421691228
 11
20.8843651806
 21
124.4421691228
  0
LINE
  5
297
100
AcDbEntity
  8
93773532000_O_BL1
100
AcDbLine
 62
9
  6
CONTINUOUS
 10
20.8843651806
 20
132.0421691228
 11
12.8843651806
 21
132.0421691228
  0
LINE
  5
298
100
AcDbEntity
  8
93773532000_O_BL1
100
AcDbLine
 62
7
  6
CENTER
 10
11.1736445154
 20
144.4421691228
 11
23.8843651806
 21
144.4421691228
  0
LINE
  5
299
100
AcDbEntity
  8
93773532000_O_BL1
100
AcDbLine
 62
7
  6
CONTINUOUS
 10
12.8843651806
 20
128.9421691228
 11
12.8843651806
 21
132.0421691228
  0
LINE
  5
29A
100
AcDbEntity
  8
93773532000_O_BL1
100
AcDbLine
 62
7
  6
CONTINUOUS
 10
12.8843651806
 20
128.9421691228
 11
12.8843651806
 21
132.0421691228
  0
LINE
  5
29B
100
AcDbEntity
  8
93773532000_O_BL1
100
AcDbLine
 62
9
  6
CONTINUOUS
 10
15.3843651806
 20
124.9110402487
 11
15.3843651806
 21
132.4421691228
  0
LINE
  5
29C
100
AcDbEntity
  8
93773532000_O_BL1
100
AcDbLine
 62
7
  6
CONTINUOUS
 10
20.8843651806
 20
124.4421691228
 11
20.8843651806
 21
132.4421691228
  0
LINE
  5
29D
100
AcDbEntity
  8
93773532000_O_BL1
100
AcDbLine
 62
7
  6
CONTINUOUS
 10
16.5843651806
 20
99.6435016418
 11
15.1843651806
 21
98.2435016418
  0
LINE
  5
29E
100
AcDbEntity
  8
93773532000_O_BL1
100
AcDbLine
 62
7
  6
CONTINUOUS
 10
15.8843651806
 20
77.6435016418
 11
15.3843651806
 21
77.6435016418
  0
LINE
  5
29F
100
AcDbEntity
  8
93773532000_O_BL1
100
AcDbLine
 62
7
  6
CONTINUOUS
 10
15.2695055264
 20
81.158361296
 11
16.6843651806
 21
79.7435016418
  0
LINE
  5
2A0
100
AcDbEntity
  8
93773532000_O_BL1
100
AcDbLine
 62
7
  6
CONTINUOUS
 10
12.8843651806
 20
80.1435016418
 11
12.8843651806
 21
80.6435016418
  0
LINE
  5
2A1
100
AcDbEntity
  8
93773532000_O_BL1
100
AcDbLine
 62
7
  6
CONTINUOUS
 10
12.8843651806
 20
98.6435016418
 11
12.8843651806
 21
99.1435016418
  0
LINE
  5
2A2
100
AcDbEntity
  8
93773532000_O_BL1
100
AcDbLine
 62
7
  6
CONTINUOUS
 10
20.8843651806
 20
79.7435016418
 11
16.6843651806
 21
79.7435016418
  0
LINE
  5
2A3
100
AcDbEntity
  8
93773532000_O_BL1
100
AcDbLine
 62
9
  6
CONTINUOUS
 10
12.8843651806
 20
80.1435016418
 11
12.9311419125
 21
80.1435016418
  0
LINE
  5
2A4
100
AcDbEntity
  8
93773532000_O_BL1
100
AcDbLine
 62
7
  6
CONTINUOUS
 10
15.1843651806
 20
98.1008134589
 11
15.1843651806
 21
98.2435016418
  0
LINE
  5
2A5
100
AcDbEntity
  8
93773532000_O_BL1
100
AcDbLine
 62
9
  6
CONTINUOUS
 10
15.3843651806
 20
101.6435016418
 11
15.3843651806
 21
101.5967249099
  0
LINE
  5
2A6
100
AcDbEntity
  8
93773532000_O_BL1
100
AcDbLine
 62
9
  6
CONTINUOUS
 10
15.3843651806
 20
77.6435016418
 11
15.3843651806
 21
77.6902783737
  0
LINE
  5
2A7
100
AcDbEntity
  8
93773532000_O_BL1
100
AcDbLine
 62
7
  6
CONTINUOUS
 10
20.8843651806
 20
81.7435016418
 11
20.4843651806
 21
81.7435016418
  0
LINE
  5
2A8
100
AcDbEntity
  8
93773532000_O_BL1
100
AcDbLine
 62
7
  6
CONTINUOUS
 10
20.4843651806
 20
82.3935016418
 11
20.4843651806
 21
81.7435016418
  0
LINE
  5
2A9
100
AcDbEntity
  8
93773532000_O_BL1
100
AcDbLine
 62
7
  6
CONTINUOUS
 10
20.8843651806
 20
79.6435016418
 11
20.8843651806
 21
79.7435016418
  0
LINE
  5
2AA
100
AcDbEntity
  8
93773532000_O_BL1
100
AcDbLine
 62
7
  6
CONTINUOUS
 10
20.8843651806
 20
79.7435016418
 11
20.8843651806
 21
81.7435016418
  0
LINE
  5
2AB
100
AcDbEntity
  8
93773532000_O_BL1
100
AcDbLine
 62
7
  6
CONTINUOUS
 10
20.8843651806
 20
96.8935016418
 11
20.8843651806
 21
99.6435016418
  0
LINE
  5
2AC
100
AcDbEntity
  8
93773532000_O_BL1
100
AcDbLine
 62
7
  6
CONTINUOUS
 10
20.8843651806
 20
98.7435016418
 11
15.6843651806
 21
98.7435016418
  0
LINE
  5
2AD
100
AcDbEntity
  8
93773532000_O_BL1
100
AcDbLine
 62
9
  6
CONTINUOUS
 10
12.8843651806
 20
99.1435016418
 11
12.9311419125
 21
99.1435016418
  0
LINE
  5
2AE
100
AcDbEntity
  8
93773532000_O_BL1
100
AcDbLine
 62
7
  6
CONTINUOUS
 10
15.3843651806
 20
101.6435016418
 11
15.8843651806
 21
101.6435016418
  0
ARC
  5
2AF
100
AcDbEntity
  8
93773532000_O_BL1
100
AcDbCircle
 62
7
  6
CONTINUOUS
 10
71.4705456126
 20
132.0421691228
 40
0.4
100
AcDbArc
 50
90.0
 51
180.0
  0
ARC
  5
2B0
100
AcDbEntity
  8
93773532000_O_BL1
100
AcDbCircle
 62
7
  6
CONTINUOUS
 10
94.6705456126
 20
132.0421691228
 40
0.4
100
AcDbArc
 50
0.0
 51
90.0
  0
ARC
  5
2B1
100
AcDbEntity
  8
93773532000_O_BL1
100
AcDbCircle
 62
7
  6
CONTINUOUS
 10
17.3843651806
 20
128.9421691228
 40
4.5
100
AcDbArc
 50
180.0
 51
270.0
  0
ARC
  5
2B2
100
AcDbEntity
  8
93773532000_O_BL1
100
AcDbCircle
 62
7
  6
CONTINUOUS
 10
13.2843651806
 20
132.0421691228
 40
0.4
100
AcDbArc
 50
90.0
 51
180.0
  0
ARC
  5
2B3
100
AcDbEntity
  8
93773532000_O_BL1
100
AcDbCircle
 62
7
  6
CONTINUOUS
 10
15.3843651806
 20
80.1435016418
 40
2.5
100
AcDbArc
 50
180.0
 51
270.0
  0
ARC
  5
2B4
100
AcDbEntity
  8
93773532000_O_BL1
100
AcDbCircle
 62
7
  6
CONTINUOUS
 10
15.3843651806
 20
99.1435016418
 40
2.5
100
AcDbArc
 50
90.0
 51
180.0
  0
SPLINE
  5
2B5
100
AcDbEntity
  8
93773532000_O_BL1
100
AcDbSpline
 62
7
  6
CONTINUOUS
 70
0
 71
3
 72
16
 73
12
 74
0
 42
0.0000001
 43
0.0000001
 44
0.0000000001
 40
0.0
 40
0.0
 40
0.0
 40
0.0
 40
0.0357519613
 40
0.0774476455
 40
0.1248349876
 40
0.1772889631
 40
0.2945317374
 40
0.4240360886
 40
0.5618755306
 40
0.7051815344
 40
1.0
 40
1.0
 40
1.0
 40
1.0
 10
71.0705456126
 20
124.9110402487
 30
0.0
 10
71.0705456126
 20
124.9680006998
 30
0.0
 10
71.087245057
 20
125.0913251127
 30
0.0
 10
71.1443586479
 20
125.2822034902
 30
0.0
 10
71.2304870408
 20
125.4909190228
 30
0.0
 10
71.3839080686
 20
125.8010668983
 30
0.0
 10
71.6255642497
 20
126.2125183919
 30
0.0
 10
71.9609846317
 20
126.7253629123
 30
0.0
 10
72.3349544423
 20
127.2622870895
 30
0.0
 10
72.8724976387
 20
128.0060151833
 30
0.0
 10
73.2898412162
 20
128.5655646557
 30
0.0
 10
73.5705456126
 20
128.9421691228
 30
0.0
  0
SPLINE
  5
2B6
100
AcDbEntity
  8
93773532000_O_BL1
100
AcDbSpline
 62
7
  6
CONTINUOUS
 70
0
 71
3
 72
16
 73
12
 74
0
 42
0.0000001
 43
0.0000001
 44
0.0000000001
 40
0.0
 40
0.0
 40
0.0
 40
0.0
 40
0.294887636
 40
0.4382130657
 40
0.5760522437
 40
0.7055439891
 40
0.8227590043
 40
0.8752003632
 40
0.9225728195
 40
0.9642497385
 40
1.0
 40
1.0
 40
1.0
 40
1.0
 10
92.5705456126
 20
128.9421691228
 30
0.0
 10
92.8513158374
 20
128.5654763377
 30
0.0
 10
93.2687427199
 20
128.0058130015
 30
0.0
 10
93.806358854
 20
127.2619639359
 30
0.0
 10
94.1803253985
 20
126.725025193
 30
0.0
 10
94.5157017686
 20
126.2122280992
 30
0.0
 10
94.7572895557
 20
125.8008367257
 30
0.0
 10
94.9106814914
 20
125.4907706381
 30
0.0
 10
94.996736568
 20
125.282106928
 30
0.0
 10
95.0538758328
 20
125.0912941112
 30
0.0
 10
95.0705456126
 20
124.9679979855
 30
0.0
 10
95.0705456126
 20
124.9110402487
 30
0.0
  0
ENDBLK
  5
2B7
100
AcDbEntity
  8
0
  6
BYBLOCK
 62
0
100
AcDbBlockEnd
  0
BLOCK
  5
2B8
100
AcDbEntity
  8
94823302000_BL2
100
AcDbBlockBegin
  2
94823302000_BL2
 70
64
 10
53.9774553966
 20
165.0428353823
  3
94823302000_BL2
  1

  0
LINE
  5
2B9
100
AcDbEntity
  8
94823302000_BL2
100
AcDbLine
 62
7
  6
CONTINUOUS
 10
95.0705456126
 20
132.4421691228
 11
71.0705456126
 21
132.4421691228
  0
LINE
  5
2BA
100
AcDbEntity
  8
94823302000_BL2
100
AcDbLine
 62
7
  6
CONTINUOUS
 10
78.0705456126
 20
172.4421691228
 11
88.0705456126
 21
172.4421691228
  0
LINE
  5
2BB
100
AcDbEntity
  8
94823302000_BL2
100
AcDbLine
 62
7
  6
CONTINUOUS
 10
71.0705456126
 20
252.4421691228
 11
71.0705456126
 21
132.4421691228
  0
LINE
  5
2BC
100
AcDbEntity
  8
94823302000_BL2
100
AcDbLine
 62
9
  6
CONTINUOUS
 10
74.0705456126
 20
252.4421691228
 11
74.0705456126
 21
132.4421691228
  0
LINE
  5
2BD
100
AcDbEntity
  8
94823302000_BL2
100
AcDbLine
 62
7
  6
CONTINUOUS
 10
76.0705456126
 20
210.4421691228
 11
76.0705456126
 21
174.4421691228
  0
LINE
  5
2BE
100
AcDbEntity
  8
94823302000_BL2
100
AcDbLine
 62
7
  6
CONTINUOUS
 10
90.0705456126
 20
174.4421691228
 11
90.0705456126
 21
210.4421691228
  0
LINE
  5
2BF
100
AcDbEntity
  8
94823302000_BL2
100
AcDbLine
 62
9
  6
CONTINUOUS
 10
92.0705456126
 20
252.4421691228
 11
92.0705456126
 21
132.4421691228
  0
LINE
  5
2C0
100
AcDbEntity
  8
94823302000_BL2
100
AcDbLine
 62
7
  6
CONTINUOUS
 10
95.0705456126
 20
252.4421691228
 11
95.0705456126
 21
132.4421691228
  0
LINE
  5
2C1
100
AcDbEntity
  8
94823302000_BL2
100
AcDbLine
 62
7
  6
CONTINUOUS
 10
88.0705456126
 20
212.4421691228
 11
78.0705456126
 21
212.4421691228
  0
LINE
  5
2C2
100
AcDbEntity
  8
94823302000_BL2
100
AcDbLine
 62
7
  6
CONTINUOUS
 10
95.0705456126
 20
252.4421691228
 11
71.0705456126
 21
252.4421691228
  0
LINE
  5
2C3
100
AcDbEntity
  8
94823302000_BL2
100
AcDbLine
 62
7
  6
CONTINUOUS
 10
20.8843651806
 20
132.4421691228
 11
12.8843651806
 21
132.4421691228
  0
LINE
  5
2C4
100
AcDbEntity
  8
94823302000_BL2
100
AcDbLine
 62
7
  6
CONTINUOUS
 10
12.8843651806
 20
252.4421691228
 11
12.8843651806
 21
132.4421691228
  0
LINE
  5
2C5
100
AcDbEntity
  8
94823302000_BL2
100
AcDbLine
 62
9
  6
CONTINUOUS
 10
15.8843651806
 20
252.4421691228
 11
15.8843651806
 21
132.4421691228
  0
LINE
  5
2C6
100
AcDbEntity
  8
94823302000_BL2
100
AcDbLine
 62
7
  6
CONTINUOUS
 10
20.8843651806
 20
252.4421691228
 11
20.8843651806
 21
132.4421691228
  0
LINE
  5
2C7
100
AcDbEntity
  8
94823302000_BL2
100
AcDbLine
 62
7
  6
CONTINUOUS
 10
20.8843651806
 20
252.4421691228
 11
12.8843651806
 21
252.4421691228
  0
LINE
  5
2C8
100
AcDbEntity
  8
94823302000_BL2
100
AcDbLine
 62
7
  6
CONTINUOUS
 10
20.8843651806
 20
77.6435016418
 11
15.8843651806
 21
77.6435016418
  0
LINE
  5
2C9
100
AcDbEntity
  8
94823302000_BL2
100
AcDbLine
 62
7
  6
CONTINUOUS
 10
12.8843651806
 20
80.6435016418
 11
12.8843651806
 21
98.6435016418
  0
LINE
  5
2CA
100
AcDbEntity
  8
94823302000_BL2
100
AcDbLine
 62
7
  6
CONTINUOUS
 10
15.3843651806
 20
79.6435016418
 11
20.8843651806
 21
79.6435016418
  0
LINE
  5
2CB
100
AcDbEntity
  8
94823302000_BL2
100
AcDbLine
 62
7
  6
CONTINUOUS
 10
14.8843651806
 20
99.1435016418
 11
14.8843651806
 21
80.1435016418
  0
LINE
  5
2CC
100
AcDbEntity
  8
94823302000_BL2
100
AcDbLine
 62
7
  6
CONTINUOUS
 10
20.8843651806
 20
101.6435016418
 11
20.8843651806
 21
99.6435016418
  0
LINE
  5
2CD
100
AcDbEntity
  8
94823302000_BL2
100
AcDbLine
 62
7
  6
CONTINUOUS
 10
20.8843651806
 20
79.6435016418
 11
20.8843651806
 21
77.6435016418
  0
LINE
  5
2CE
100
AcDbEntity
  8
94823302000_BL2
100
AcDbLine
 62
7
  6
CONTINUOUS
 10
20.8843651806
 20
99.6435016418
 11
15.3843651806
 21
99.6435016418
  0
LINE
  5
2CF
100
AcDbEntity
  8
94823302000_BL2
100
AcDbLine
 62
7
  6
CONTINUOUS
 10
15.8843651806
 20
101.6435016418
 11
20.8843651806
 21
101.6435016418
  0
ARC
  5
2D0
100
AcDbEntity
  8
94823302000_BL2
100
AcDbCircle
 62
7
  6
CONTINUOUS
 10
78.0705456126
 20
174.4421691228
 40
2.0
100
AcDbArc
 50
180.0
 51
270.0
  0
ARC
  5
2D1
100
AcDbEntity
  8
94823302000_BL2
100
AcDbCircle
 62
7
  6
CONTINUOUS
 10
78.0705456126
 20
210.4421691228
 40
2.0
100
AcDbArc
 50
90.0
 51
180.0
  0
CIRCLE
  5
2D2
100
AcDbEntity
  8
94823302000_BL2
100
AcDbCircle
 62
7
  6
CONTINUOUS
 10
83.0705456126
 20
162.3421691228
 40
5.65
  0
CIRCLE
  5
2D3
100
AcDbEntity
  8
94823302000_BL2
100
AcDbCircle
 62
7
  6
CONTINUOUS
 10
83.0705456126
 20
144.4421691228
 40
4.15
  0
CIRCLE
  5
2D4
100
AcDbEntity
  8
94823302000_BL2
100
AcDbCircle
 62
7
  6
CONTINUOUS
 10
83.0705456126
 20
144.4421691228
 40
2.6
  0
ARC
  5
2D5
100
AcDbEntity
  8
94823302000_BL2
100
AcDbCircle
 62
7
  6
CONTINUOUS
 10
88.0705456126
 20
174.4421691228
 40
2.0
100
AcDbArc
 50
270.0
 51
360.0
  0
CIRCLE
  5
2D6
100
AcDbEntity
  8
94823302000_BL2
100
AcDbCircle
 62
7
  6
CONTINUOUS
 10
83.0705456126
 20
222.5421691228
 40
5.65
  0
CIRCLE
  5
2D7
100
AcDbEntity
  8
94823302000_BL2
100
AcDbCircle
 62
7
  6
CONTINUOUS
 10
83.0705456126
 20
240.4421691228
 40
4.15
  0
CIRCLE
  5
2D8
100
AcDbEntity
  8
94823302000_BL2
100
AcDbCircle
 62
7
  6
CONTINUOUS
 10
83.0705456126
 20
240.4421691228
 40
2.6
  0
ARC
  5
2D9
100
AcDbEntity
  8
94823302000_BL2
100
AcDbCircle
 62
7
  6
CONTINUOUS
 10
88.0705456126
 20
210.4421691228
 40
2.0
100
AcDbArc
 50
0.0
 51
90.0
  0
ARC
  5
2DA
100
AcDbEntity
  8
94823302000_BL2
100
AcDbCircle
 62
7
  6
CONTINUOUS
 10
15.8843651806
 20
98.6435016418
 40
3.0
100
AcDbArc
 50
90.0
 51
180.0
  0
ARC
  5
2DB
100
AcDbEntity
  8
94823302000_BL2
100
AcDbCircle
 62
7
  6
CONTINUOUS
 10
15.8843651806
 20
80.6435016418
 40
3.0
100
AcDbArc
 50
180.0
 51
270.0
  0
ARC
  5
2DC
100
AcDbEntity
  8
94823302000_BL2
100
AcDbCircle
 62
7
  6
CONTINUOUS
 10
15.3843651806
 20
99.1435016418
 40
0.5
100
AcDbArc
 50
90.0
 51
180.0
  0
ARC
  5
2DD
100
AcDbEntity
  8
94823302000_BL2
100
AcDbCircle
 62
7
  6
CONTINUOUS
 10
15.3843651806
 20
80.1435016418
 40
0.5
100
AcDbArc
 50
180.0
 51
270.0
  0
ENDBLK
  5
2DE
100
AcDbEntity
  8
0
  6
BYBLOCK
 62
0
100
AcDbBlockEnd
  0
BLOCK
  5
2DF
100
AcDbEntity
  8
94528901000_M_BL3
100
AcDbBlockBegin
  2
94528901000_M_BL3
 70
64
 10
54.7288525712
 20
162.3421691228
  3
94528901000_M_BL3
  1

  0
LINE
  5
2E0
100
AcDbEntity
  8
94528901000_M_BL3
100
AcDbLine
 62
7
  6
CONTINUOUS
 10
82.1955456126
 20
159.3266246662
 11
83.9455456126
 21
159.3266246662
  0
LINE
  5
2E1
100
AcDbEntity
  8
94528901000_M_BL3
100
AcDbLine
 62
7
  6
CONTINUOUS
 10
83.9455456126
 20
162.3577135795
 11
82.1955456126
 21
162.3577135795
  0
LINE
  5
2E2
100
AcDbEntity
  8
94528901000_M_BL3
100
AcDbLine
 62
7
  6
CONTINUOUS
 10
81.3205456126
 20
160.8421691228
 11
82.1955456126
 21
159.3266246662
  0
LINE
  5
2E3
100
AcDbEntity
  8
94528901000_M_BL3
100
AcDbLine
 62
7
  6
CONTINUOUS
 10
84.8205456126
 20
160.8421691228
 11
83.9455456126
 21
162.3577135795
  0
LINE
  5
2E4
100
AcDbEntity
  8
94528901000_M_BL3
100
AcDbLine
 62
7
  6
CONTINUOUS
 10
82.1955456126
 20
162.3577135795
 11
81.3205456126
 21
160.8421691228
  0
LINE
  5
2E5
100
AcDbEntity
  8
94528901000_M_BL3
100
AcDbLine
 62
7
  6
CONTINUOUS
 10
83.9455456126
 20
159.3266246662
 11
84.8205456126
 21
160.8421691228
  0
CIRCLE
  5
2E6
100
AcDbEntity
  8
94528901000_M_BL3
100
AcDbCircle
 62
7
  6
CONTINUOUS
 10
83.0705456126
 20
162.3421691228
 40
5.5
  0
CIRCLE
  5
2E7
100
AcDbEntity
  8
94528901000_M_BL3
100
AcDbCircle
 62
7
  6
CONTINUOUS
 10
83.0705456126
 20
160.8421691228
 40
1.75
  0
CIRCLE
  5
2E8
100
AcDbEntity
  8
94528901000_M_BL3
100
AcDbCircle
 62
7
  6
CONTINUOUS
 10
83.0705456126
 20
160.8421691228
 40
1.515
  0
CIRCLE
  5
2E9
100
AcDbEntity
  8
94528901000_M_BL3
100
AcDbCircle
 62
7
  6
CONTINUOUS
 10
83.0705456126
 20
164.8421691228
 40
0.75
  0
ARC
  5
2EA
100
AcDbEntity
  8
94528901000_M_BL3
100
AcDbCircle
 62
7
  6
CONTINUOUS
 10
17.5386138696
 20
160.8421691228
 40
4.0
100
AcDbArc
 50
326.8389561101
 51
33.1610438899
  0
ENDBLK
  5
2EB
100
AcDbEntity
  8
0
  6
BYBLOCK
 62
0
100
AcDbBlockEnd
  0
BLOCK
  5
2EC
100
AcDbEntity
  8
95056301000_BL4
100
AcDbBlockBegin
  2
95056301000_BL4
 70
64
 10
50.8274553957
 20
156.4178353823
  3
95056301000_BL4
  1

  0
LINE
  5
2ED
100
AcDbEntity
  8
95056301000_BL4
100
AcDbLine
 62
7
  6
CONTINUOUS
 10
79.3705456126
 20
172.4921691228
 11
86.7705456126
 21
172.4921691228
  0
LINE
  5
2EE
100
AcDbEntity
  8
95056301000_BL4
100
AcDbLine
 62
9
  6
CONTINUOUS
 10
80.3171338327
 20
173.2145146468
 11
85.8239573926
 21
173.2145146468
  0
LINE
  5
2EF
100
AcDbEntity
  8
95056301000_BL4
100
AcDbLine
 62
9
  6
CONTINUOUS
 10
80.3170853389
 20
174.2090428317
 11
85.8240105738
 21
174.2090434379
  0
LINE
  5
2F0
100
AcDbEntity
  8
95056301000_BL4
100
AcDbLine
 62
9
  6
CONTINUOUS
 10
76.3705456126
 20
174.4921691228
 11
77.3705456126
 21
174.4921691228
  0
LINE
  5
2F1
100
AcDbEntity
  8
95056301000_BL4
100
AcDbLine
 62
9
  6
CONTINUOUS
 10
88.7705456126
 20
174.4921691228
 11
89.7705456126
 21
174.4921691228
  0
LINE
  5
2F2
100
AcDbEntity
  8
95056301000_BL4
100
AcDbLine
 62
9
  6
CONTINUOUS
 10
86.5035254326
 20
212.1780422908
 11
85.8239573926
 21
211.6698235989
  0
LINE
  5
2F3
100
AcDbEntity
  8
95056301000_BL4
100
AcDbLine
 62
9
  6
CONTINUOUS
 10
87.8093625164
 20
175.1999171546
 11
86.8190880302
 21
175.1999171394
  0
LINE
  5
2F4
100
AcDbEntity
  8
95056301000_BL4
100
AcDbLine
 62
9
  6
CONTINUOUS
 10
78.3317287089
 20
175.1999171554
 11
79.322003815
 21
175.1999171394
  0
LINE
  5
2F5
100
AcDbEntity
  8
95056301000_BL4
100
AcDbLine
 62
9
  6
CONTINUOUS
 10
85.8239573926
 20
173.2145146468
 11
86.5035254326
 21
172.7062959549
  0
LINE
  5
2F6
100
AcDbEntity
  8
95056301000_BL4
100
AcDbLine
 62
9
  6
CONTINUOUS
 10
88.4840615701
 20
210.1889985
 11
87.8093625164
 21
209.6844211064
  0
LINE
  5
2F7
100
AcDbEntity
  8
95056301000_BL4
100
AcDbLine
 62
9
  6
CONTINUOUS
 10
87.8093625164
 20
175.1999171393
 11
88.4840615701
 21
174.6953397457
  0
LINE
  5
2F8
100
AcDbEntity
  8
95056301000_BL4
100
AcDbLine
 62
7
  6
CONTINUOUS
 10
76.3705456126
 20
174.4921691228
 11
76.3705456126
 21
210.3921691228
  0
LINE
  5
2F9
100
AcDbEntity
  8
95056301000_BL4
100
AcDbLine
 62
9
  6
CONTINUOUS
 10
77.0776523938
 20
210.3921691757
 11
77.0776523938
 21
174.49216907
  0
LINE
  5
2FA
100
AcDbEntity
  8
95056301000_BL4
100
AcDbLine
 62
7
  6
CONTINUOUS
 10
77.3705456126
 20
210.3921691228
 11
77.3705456126
 21
174.4921691228
  0
LINE
  5
2FB
100
AcDbEntity
  8
95056301000_BL4
100
AcDbLine
 62
9
  6
CONTINUOUS
 10
78.3317287089
 20
209.6844211064
 11
78.3317287089
 21
175.1999171393
  0
LINE
  5
2FC
100
AcDbEntity
  8
95056301000_BL4
100
AcDbLine
 62
9
  6
CONTINUOUS
 10
79.3220038119
 20
209.6844749579
 11
79.322003815
 21
175.1998632645
  0
LINE
  5
2FD
100
AcDbEntity
  8
95056301000_BL4
100
AcDbLine
 62
9
  6
CONTINUOUS
 10
79.3705456126
 20
172.4921691228
 11
79.3705456126
 21
172.4421691228
  0
LINE
  5
2FE
100
AcDbEntity
  8
95056301000_BL4
100
AcDbLine
 62
9
  6
CONTINUOUS
 10
79.3705456126
 20
212.3921691228
 11
79.3705456126
 21
212.4421691228
  0
LINE
  5
2FF
100
AcDbEntity
  8
95056301000_BL4
100
AcDbLine
 62
9
  6
CONTINUOUS
 10
80.3171338461
 20
211.6698235989
 11
80.3171338327
 21
210.6752954107
  0
LINE
  5
300
100
AcDbEntity
  8
95056301000_BL4
100
AcDbLine
 62
9
  6
CONTINUOUS
 10
80.3171338461
 20
173.2145146468
 11
80.3171338327
 21
174.2090428317
  0
LINE
  5
301
100
AcDbEntity
  8
95056301000_BL4
100
AcDbLine
 62
7
  6
CENTER
 10
83.0705456126
 20
232.4421691228
 11
83.0705456126
 21
152.4421691228
  0
LINE
  5
302
100
AcDbEntity
  8
95056301000_BL4
100
AcDbLine
 62
9
  6
CONTINUOUS
 10
85.8239573784
 20
211.6698235989
 11
85.8239573926
 21
210.675294811
  0
LINE
  5
303
100
AcDbEntity
  8
95056301000_BL4
100
AcDbLine
 62
9
  6
CONTINUOUS
 10
85.8239573784
 20
173.2145146468
 11
85.8239573926
 21
174.2090434379
  0
LINE
  5
304
100
AcDbEntity
  8
95056301000_BL4
100
AcDbLine
 62
9
  6
CONTINUOUS
 10
86.7705456126
 20
172.4921691228
 11
86.7705456127
 21
172.4421691228
  0
LINE
  5
305
100
AcDbEntity
  8
95056301000_BL4
100
AcDbLine
 62
9
  6
CONTINUOUS
 10
86.7705456126
 20
212.3921691228
 11
86.7705456126
 21
212.4421691228
  0
LINE
  5
306
100
AcDbEntity
  8
95056301000_BL4
100
AcDbLine
 62
9
  6
CONTINUOUS
 10
86.8190880271
 20
209.6844702469
 11
86.8190880302
 21
175.1998680225
  0
LINE
  5
307
100
AcDbEntity
  8
95056301000_BL4
100
AcDbLine
 62
9
  6
CONTINUOUS
 10
87.8093625164
 20
209.6844211064
 11
87.8093625164
 21
175.1999171393
  0
LINE
  5
308
100
AcDbEntity
  8
95056301000_BL4
100
AcDbLine
 62
7
  6
CONTINUOUS
 10
88.7705456126
 20
174.4921691228
 11
88.7705456126
 21
210.3921691228
  0
LINE
  5
309
100
AcDbEntity
  8
95056301000_BL4
100
AcDbLine
 62
9
  6
CONTINUOUS
 10
89.0634388315
 20
174.49216907
 11
89.0634388315
 21
210.3921691757
  0
LINE
  5
30A
100
AcDbEntity
  8
95056301000_BL4
100
AcDbLine
 62
7
  6
CONTINUOUS
 10
89.7705456126
 20
210.3921691228
 11
89.7705456126
 21
174.4921691228
  0
LINE
  5
30B
100
AcDbEntity
  8
95056301000_BL4
100
AcDbLine
 62
9
  6
CONTINUOUS
 10
78.3317287089
 20
175.1999171393
 11
77.6570296552
 21
174.6953397457
  0
LINE
  5
30C
100
AcDbEntity
  8
95056301000_BL4
100
AcDbLine
 62
9
  6
CONTINUOUS
 10
80.3171338327
 20
173.2145146468
 11
79.6375657927
 21
172.7062959549
  0
LINE
  5
30D
100
AcDbEntity
  8
95056301000_BL4
100
AcDbLine
 62
9
  6
CONTINUOUS
 10
77.6570296552
 20
210.1889985
 11
78.3317287089
 21
209.6844211064
  0
LINE
  5
30E
100
AcDbEntity
  8
95056301000_BL4
100
AcDbLine
 62
9
  6
CONTINUOUS
 10
79.6375657927
 20
212.1780422908
 11
80.3171338327
 21
211.6698235989
  0
LINE
  5
30F
100
AcDbEntity
  8
95056301000_BL4
100
AcDbLine
 62
9
  6
CONTINUOUS
 10
87.8093625164
 20
209.6844210911
 11
86.8190880271
 21
209.6844211063
  0
LINE
  5
310
100
AcDbEntity
  8
95056301000_BL4
100
AcDbLine
 62
9
  6
CONTINUOUS
 10
78.3317287089
 20
209.6844210903
 11
79.3220038119
 21
209.6844211063
  0
LINE
  5
311
100
AcDbEntity
  8
95056301000_BL4
100
AcDbLine
 62
9
  6
CONTINUOUS
 10
76.3705456126
 20
210.3921691228
 11
77.3705456126
 21
210.3921691228
  0
LINE
  5
312
100
AcDbEntity
  8
95056301000_BL4
100
AcDbLine
 62
9
  6
CONTINUOUS
 10
88.7705456126
 20
210.3921691228
 11
89.7705456126
 21
210.3921691228
  0
LINE
  5
313
100
AcDbEntity
  8
95056301000_BL4
100
AcDbLine
 62
9
  6
CONTINUOUS
 10
85.8240105491
 20
210.675294811
 11
80.3170853133
 21
210.6752954107
  0
LINE
  5
314
100
AcDbEntity
  8
95056301000_BL4
100
AcDbLine
 62
9
  6
CONTINUOUS
 10
85.8239573926
 20
211.6698235989
 11
80.3171338327
 21
211.6698235989
  0
LINE
  5
315
100
AcDbEntity
  8
95056301000_BL4
100
AcDbLine
 62
7
  6
CONTINUOUS
 10
86.7705456126
 20
212.3921691228
 11
79.3705456126
 21
212.3921691228
  0
LINE
  5
316
100
AcDbEntity
  8
95056301000_BL4
100
AcDbLine
 62
7
  6
CONTINUOUS
 10
23.8843744823
 20
171.1921701005
 11
31.0934221072
 21
171.9498715381
  0
LINE
  5
317
100
AcDbEntity
  8
95056301000_BL4
100
AcDbLine
 62
9
  6
CONTINUOUS
 10
23.885246805
 20
174.164903577
 11
31.1627113825
 21
174.9297959261
  0
LINE
  5
318
100
AcDbEntity
  8
95056301000_BL4
100
AcDbLine
 62
7
  6
CONTINUOUS
 10
23.8843651806
 20
171.1921691228
 11
22.4843651806
 21
171.1921691228
  0
LINE
  5
319
100
AcDbEntity
  8
95056301000_BL4
100
AcDbLine
 62
9
  6
CONTINUOUS
 10
23.8843651806
 20
174.1921691228
 11
22.4843651806
 21
174.1921691228
  0
LINE
  5
31A
100
AcDbEntity
  8
95056301000_BL4
100
AcDbLine
 62
9
  6
CONTINUOUS
 10
32.8843651806
 20
174.9297959261
 11
31.1627113826
 21
174.9297959309
  0
LINE
  5
31B
100
AcDbEntity
  8
95056301000_BL4
100
AcDbLine
 62
9
  6
CONTINUOUS
 10
22.4843651806
 20
171.1921691228
 11
22.4843651806
 21
174.1921691228
  0
LINE
  5
31C
100
AcDbEntity
  8
95056301000_BL4
100
AcDbLine
 62
9
  6
CONTINUOUS
 10
22.4843651806
 20
210.6921691228
 11
22.4843651806
 21
213.6921691228
  0
LINE
  5
31D
100
AcDbEntity
  8
95056301000_BL4
100
AcDbLine
 62
7
  6
CONTINUOUS
 10
23.8843651806
 20
210.6921691228
 11
23.8843651806
 21
174.1921691228
  0
LINE
  5
31E
100
AcDbEntity
  8
95056301000_BL4
100
AcDbLine
 62
9
  6
CONTINUOUS
 10
31.1627113825
 20
209.9545423196
 11
31.1627113825
 21
174.9297959261
  0
LINE
  5
31F
100
AcDbEntity
  8
95056301000_BL4
100
AcDbLine
 62
7
  6
CONTINUOUS
 10
32.8843651806
 20
210.9454229169
 11
32.8843651806
 21
173.9389153288
  0
LINE
  5
320
100
AcDbEntity
  8
95056301000_BL4
100
AcDbLine
 62
9
  6
CONTINUOUS
 10
32.8843651806
 20
209.9545423196
 11
31.1627113825
 21
209.9545423196
  0
LINE
  5
321
100
AcDbEntity
  8
95056301000_BL4
100
AcDbLine
 62
9
  6
CONTINUOUS
 10
22.4843651806
 20
210.6921691228
 11
23.8843651806
 21
210.6921691228
  0
LINE
  5
322
100
AcDbEntity
  8
95056301000_BL4
100
AcDbLine
 62
9
  6
CONTINUOUS
 10
31.1627113825
 20
209.9545423196
 11
23.885246805
 21
210.7194346687
  0
LINE
  5
323
100
AcDbEntity
  8
95056301000_BL4
100
AcDbLine
 62
7
  6
CONTINUOUS
 10
22.4843651806
 20
213.6921691228
 11
23.8843651806
 21
213.6921691228
  0
LINE
  5
324
100
AcDbEntity
  8
95056301000_BL4
100
AcDbLine
 62
7
  6
CONTINUOUS
 10
31.0934221072
 20
212.9344667076
 11
23.8847005025
 21
213.6921338791
  0
LINE
  5
325
100
AcDbEntity
  8
95056301000_BL4
100
AcDbLine
 62
7
  6
CONTINUOUS
 10
17.6843651806
 20
81.1435016418
 11
15.3843651806
 21
81.1435016418
  0
LINE
  5
326
100
AcDbEntity
  8
95056301000_BL4
100
AcDbLine
 62
9
  6
CONTINUOUS
 10
15.3843651806
 20
98.1435016418
 11
15.3843651806
 21
81.1435016418
  0
LINE
  5
327
100
AcDbEntity
  8
95056301000_BL4
100
AcDbLine
 62
7
  6
CONTINUOUS
 10
31.1627113825
 20
83.4164064923
 11
23.885246805
 21
82.393625546
  0
LINE
  5
328
100
AcDbEntity
  8
95056301000_BL4
100
AcDbLine
 62
7
  6
CONTINUOUS
 10
18.6843651806
 20
82.3935016418
 11
23.8843651806
 21
82.3935016418
  0
LINE
  5
329
100
AcDbEntity
  8
95056301000_BL4
100
AcDbLine
 62
7
  6
CONTINUOUS
 10
17.6843651806
 20
98.1435016418
 11
17.6843651806
 21
97.8935016418
  0
LINE
  5
32A
100
AcDbEntity
  8
95056301000_BL4
100
AcDbLine
 62
7
  6
CONTINUOUS
 10
17.6843651806
 20
81.3935016418
 11
17.6843651806
 21
81.1435016418
  0
LINE
  5
32B
100
AcDbEntity
  8
95056301000_BL4
100
AcDbLine
 62
9
  6
CONTINUOUS
 10
31.0934221072
 20
86.3920796848
 11
23.8847005025
 21
85.3789599334
  0
LINE
  5
32C
100
AcDbEntity
  8
95056301000_BL4
100
AcDbLine
 62
9
  6
CONTINUOUS
 10
18.9843651806
 20
85.3935016498
 11
23.8843651806
 21
85.3935016418
  0
LINE
  5
32D
100
AcDbEntity
  8
95056301000_BL4
100
AcDbLine
 62
7
  6
CONTINUOUS
 10
18.9843651806
 20
96.8935016418
 11
18.9843651806
 21
82.3935016418
  0
LINE
  5
32E
100
AcDbEntity
  8
95056301000_BL4
100
AcDbLine
 62
9
  6
CONTINUOUS
 10
32.8843651806
 20
86.3920796848
 11
31.0934221072
 21
86.3920796907
  0
LINE
  5
32F
100
AcDbEntity
  8
95056301000_BL4
100
AcDbLine
 62
9
  6
CONTINUOUS
 10
22.4843651806
 20
82.3935016418
 11
22.4843651806
 21
96.8935016418
  0
LINE
  5
330
100
AcDbEntity
  8
95056301000_BL4
100
AcDbLine
 62
7
  6
CENTER
 10
11.8843651787
 20
89.6435016418
 11
35.8843651806
 21
89.6435016418
  0
LINE
  5
331
100
AcDbEntity
  8
95056301000_BL4
100
AcDbLine
 62
7
  6
CONTINUOUS
 10
23.8843651806
 20
93.8935016418
 11
23.8843651806
 21
85.3935016418
  0
LINE
  5
332
100
AcDbEntity
  8
95056301000_BL4
100
AcDbLine
 62
9
  6
CONTINUOUS
 10
32.8843651806
 20
92.8949235988
 11
31.0934221072
 21
92.8949235988
  0
LINE
  5
333
100
AcDbEntity
  8
95056301000_BL4
100
AcDbLine
 62
9
  6
CONTINUOUS
 10
23.8843651806
 20
93.8935016418
 11
18.9843651806
 21
93.8935016418
  0
LINE
  5
334
100
AcDbEntity
  8
95056301000_BL4
100
AcDbLine
 62
9
  6
CONTINUOUS
 10
23.8847005025
 20
93.9080433503
 11
31.0934221072
 21
92.8949235988
  0
LINE
  5
335
100
AcDbEntity
  8
95056301000_BL4
100
AcDbLine
 62
7
  6
CONTINUOUS
 10
18.6843651806
 20
96.8935016418
 11
23.8843651806
 21
96.8935016418
  0
LINE
  5
336
100
AcDbEntity
  8
95056301000_BL4
100
AcDbLine
 62
7
  6
CONTINUOUS
 10
23.885246805
 20
96.8933777376
 11
31.1627113825
 21
95.8705967913
  0
LINE
  5
337
100
AcDbEntity
  8
95056301000_BL4
100
AcDbLine
 62
9
  6
CONTINUOUS
 10
31.0934221072
 20
92.8949235988
 11
31.0934221072
 21
86.3920796848
  0
LINE
  5
338
100
AcDbEntity
  8
95056301000_BL4
100
AcDbLine
 62
7
  6
CONTINUOUS
 10
17.6843651806
 20
98.1435016418
 11
15.3843651806
 21
98.1435016418
  0
LINE
  5
339
100
AcDbEntity
  8
95056301000_BL4
100
AcDbLine
 62
7
  6
CONTINUOUS
 10
32.8843651806
 20
93.8900606539
 11
32.8843651806
 21
85.3969426298
  0
ARC
  5
33A
100
AcDbEntity
  8
95056301000_BL4
100
AcDbCircle
 62
9
  6
CONTINUOUS
 10
73.5989783897
 20
180.1138949076
 40
6.7696765149
100
AcDbArc
 50
303.8573186827
 51
306.8301857516
  0
ARC
  5
33B
100
AcDbEntity
  8
95056301000_BL4
100
AcDbCircle
 62
7
  6
CONTINUOUS
 10
79.3705456126
 20
174.4921691228
 40
3.0
100
AcDbArc
 50
180.0
 51
213.4226045393
  0
ARC
  5
33C
100
AcDbEntity
  8
95056301000_BL4
100
AcDbCircle
 62
9
  6
CONTINUOUS
 10
79.3705456126
 20
174.4921691228
 40
2.2928932188
100
AcDbArc
 50
180.0000013195
 51
243.6352111972
  0
ARC
  5
33D
100
AcDbEntity
  8
95056301000_BL4
100
AcDbCircle
 62
7
  6
CONTINUOUS
 10
79.3705456126
 20
174.4921691228
 40
2.0
100
AcDbArc
 50
180.0
 51
270.0
  0
ARC
  5
33E
100
AcDbEntity
  8
95056301000_BL4
100
AcDbCircle
 62
9
  6
CONTINUOUS
 10
80.3315243722
 20
175.2143103291
 40
1.9998474589
100
AcDbArc
 50
180.4123695263
 51
269.5877064061
  0
ARC
  5
33F
100
AcDbEntity
  8
95056301000_BL4
100
AcDbCircle
 62
9
  6
CONTINUOUS
 10
73.5989783896
 20
204.770443338
 40
6.769676515
100
AcDbArc
 50
53.1698142484
 51
56.1426813172
  0
ARC
  5
340
100
AcDbEntity
  8
95056301000_BL4
100
AcDbCircle
 62
7
  6
CONTINUOUS
 10
79.3705456126
 20
210.3921691228
 40
3.0
100
AcDbArc
 50
146.5773954607
 51
180.0
  0
ARC
  5
341
100
AcDbEntity
  8
95056301000_BL4
100
AcDbCircle
 62
9
  6
CONTINUOUS
 10
79.3705456126
 20
210.3921691228
 40
2.2928932188
100
AcDbArc
 50
116.364803013
 51
179.9999986805
  0
ARC
  5
342
100
AcDbEntity
  8
95056301000_BL4
100
AcDbCircle
 62
7
  6
CONTINUOUS
 10
79.3705456126
 20
210.3921691228
 40
2.0
100
AcDbArc
 50
90.0
 51
180.0
  0
ARC
  5
343
100
AcDbEntity
  8
95056301000_BL4
100
AcDbCircle
 62
9
  6
CONTINUOUS
 10
80.3315243725
 20
209.6700279163
 40
1.9998474592
100
AcDbArc
 50
90.4122936023
 51
179.5876304653
  0
ARC
  5
344
100
AcDbEntity
  8
95056301000_BL4
100
AcDbCircle
 62
9
  6
CONTINUOUS
 10
92.5421128357
 20
180.1138949078
 40
6.7696765152
100
AcDbArc
 50
233.1698142484
 51
236.1426813172
  0
ARC
  5
345
100
AcDbEntity
  8
95056301000_BL4
100
AcDbCircle
 62
7
  6
CONTINUOUS
 10
86.7705456126
 20
174.4921691228
 40
3.0
100
AcDbArc
 50
326.5773954607
 51
360.0
  0
ARC
  5
346
100
AcDbEntity
  8
95056301000_BL4
100
AcDbCircle
 62
9
  6
CONTINUOUS
 10
86.7705456126
 20
174.4921691228
 40
2.2928932188
100
AcDbArc
 50
296.364803013
 51
359.9999986805
  0
ARC
  5
347
100
AcDbEntity
  8
95056301000_BL4
100
AcDbCircle
 62
7
  6
CONTINUOUS
 10
86.7705456126
 20
174.4921691228
 40
2.0
100
AcDbArc
 50
270.0
 51
360.0
  0
ARC
  5
348
100
AcDbEntity
  8
95056301000_BL4
100
AcDbCircle
 62
9
  6
CONTINUOUS
 10
85.8095665321
 20
175.2143106501
 40
1.9998477822
100
AcDbArc
 50
270.4123027224
 51
359.5876213453
  0
ARC
  5
349
100
AcDbEntity
  8
95056301000_BL4
100
AcDbCircle
 62
9
  6
CONTINUOUS
 10
92.5421128356
 20
204.7704433381
 40
6.7696765149
100
AcDbArc
 50
123.8573186827
 51
126.8301857516
  0
ARC
  5
34A
100
AcDbEntity
  8
95056301000_BL4
100
AcDbCircle
 62
7
  6
CONTINUOUS
 10
86.7705456126
 20
210.3921691228
 40
3.0
100
AcDbArc
 50
0.0
 51
33.4226045393
  0
ARC
  5
34B
100
AcDbEntity
  8
95056301000_BL4
100
AcDbCircle
 62
9
  6
CONTINUOUS
 10
86.7705456126
 20
210.3921691228
 40
2.2928932188
100
AcDbArc
 50
0.0000013195
 51
63.6352111972
  0
ARC
  5
34C
100
AcDbEntity
  8
95056301000_BL4
100
AcDbCircle
 62
7
  6
CONTINUOUS
 10
86.7705456126
 20
210.3921691228
 40
2.0
100
AcDbArc
 50
0.0
 51
90.0
  0
ARC
  5
34D
100
AcDbEntity
  8
95056301000_BL4
100
AcDbCircle
 62
9
  6
CONTINUOUS
 10
85.8095665325
 20
209.670027596
 40
1.9998477818
100
AcDbArc
 50
0.4123786436
 51
89.5876972888
  0
ARC
  5
34E
100
AcDbEntity
  8
95056301000_BL4
100
AcDbCircle
 62
7
  6
CONTINUOUS
 10
22.4843651806
 20
167.6921691228
 40
3.5
100
AcDbArc
 50
90.0
 51
117.237723661
  0
ARC
  5
34F
100
AcDbEntity
  8
95056301000_BL4
100
AcDbCircle
 62
7
  6
CONTINUOUS
 10
22.4843651806
 20
217.1921691228
 40
3.5
100
AcDbArc
 50
242.762276339
 51
270.0
  0
ARC
  5
350
100
AcDbEntity
  8
95056301000_BL4
100
AcDbCircle
 62
7
  6
CONTINUOUS
 10
30.8843651806
 20
173.9389301122
 40
2.0
100
AcDbArc
 50
275.999955734
 51
359.9995764886
  0
ARC
  5
351
100
AcDbEntity
  8
95056301000_BL4
100
AcDbCircle
 62
7
  6
CONTINUOUS
 10
30.8843651806
 20
210.9454081335
 40
2.0
100
AcDbArc
 50
0.0004235114
 51
84.000044266
  0
ARC
  5
352
100
AcDbEntity
  8
95056301000_BL4
100
AcDbCircle
 62
7
  6
CONTINUOUS
 10
30.8843651806
 20
93.8900504905
 40
2.0
100
AcDbArc
 50
0.0002911576
 51
82.0000405195
  0
ARC
  5
353
100
AcDbEntity
  8
95056301000_BL4
100
AcDbCircle
 62
7
  6
CONTINUOUS
 10
30.8843651806
 20
85.3969426298
 40
2.0
100
AcDbArc
 50
278.0
 51
360.0
  0
ARC
  5
354
100
AcDbEntity
  8
95056301000_BL4
100
AcDbCircle
 62
7
  6
CONTINUOUS
 10
18.6843651806
 20
81.3935016418
 40
1.0
100
AcDbArc
 50
90.0
 51
180.0
  0
ARC
  5
355
100
AcDbEntity
  8
95056301000_BL4
100
AcDbCircle
 62
7
  6
CONTINUOUS
 10
18.6843651806
 20
97.8935016418
 40
1.0
100
AcDbArc
 50
180.0
 51
270.0
  0
ARC
  5
356
100
AcDbEntity
  8
95056301000_BL4
100
AcDbCircle
 62
7
  6
CONTINUOUS
 10
15.3843651806
 20
97.6435016418
 40
0.5
100
AcDbArc
 50
90.0
 51
180.0
  0
ARC
  5
357
100
AcDbEntity
  8
95056301000_BL4
100
AcDbCircle
 62
7
  6
CONTINUOUS
 10
15.3843651806
 20
81.6435016418
 40
0.5
100
AcDbArc
 50
180.0
 51
270.0
  0
SPLINE
  5
358
100
AcDbEntity
  8
95056301000_BL4
100
AcDbSpline
 62
9
  6
CONTINUOUS
 70
0
 71
3
 72
11
 73
7
 74
0
 42
0.0000001
 43
0.0000001
 44
0.0000000001
 40
0.0
 40
0.0
 40
0.0
 40
0.0
 40
0.2501843567
 40
0.5006913459
 40
0.7507918151
 40
1.0
 40
1.0
 40
1.0
 40
1.0
 10
88.4840615615
 20
174.6953397521
 30
0.0
 10
88.4803379273
 20
174.4382772644
 30
0.0
 10
88.3673995372
 20
173.9213211272
 30
0.0
 10
87.9308825364
 20
173.2627976236
 30
0.0
 10
87.2751300379
 20
172.8237693615
 30
0.0
 10
86.7595844386
 20
172.710036994
 30
0.0
 10
86.5035254243
 20
172.7062959612
 30
0.0
  0
SPLINE
  5
359
100
AcDbEntity
  8
95056301000_BL4
100
AcDbSpline
 62
9
  6
CONTINUOUS
 70
0
 71
3
 72
11
 73
7
 74
0
 42
0.0000001
 43
0.0000001
 44
0.0000000001
 40
0.0
 40
0.0
 40
0.0
 40
0.0
 40
0.2492081849
 40
0.4993086541
 40
0.7498156433
 40
1.0
 40
1.0
 40
1.0
 40
1.0
 10
86.5035254243
 20
212.1780422845
 30
0.0
 10
86.7595844386
 20
212.1743012517
 30
0.0
 10
87.2751300379
 20
212.0605688842
 30
0.0
 10
87.9308825364
 20
211.6215406221
 30
0.0
 10
88.3673995372
 20
210.9630171185
 30
0.0
 10
88.4803379273
 20
210.4460609813
 30
0.0
 10
88.4840615615
 20
210.1889984936
 30
0.0
  0
SPLINE
  5
35A
100
AcDbEntity
  8
95056301000_BL4
100
AcDbSpline
 62
9
  6
CONTINUOUS
 70
0
 71
3
 72
11
 73
7
 74
0
 42
0.0000001
 43
0.0000001
 44
0.0000000001
 40
0.0
 40
0.0
 40
0.0
 40
0.0
 40
0.2492081849
 40
0.4993086541
 40
0.7498156433
 40
1.0
 40
1.0
 40
1.0
 40
1.0
 10
79.637565801
 20
172.7062959612
 30
0.0
 10
79.3815067867
 20
172.710036994
 30
0.0
 10
78.8659611874
 20
172.8237693615
 30
0.0
 10
78.2102086889
 20
173.2627976236
 30
0.0
 10
77.7736916881
 20
173.9213211272
 30
0.0
 10
77.660753298
 20
174.4382772644
 30
0.0
 10
77.6570296638
 20
174.6953397521
 30
0.0
  0
SPLINE
  5
35B
100
AcDbEntity
  8
95056301000_BL4
100
AcDbSpline
 62
9
  6
CONTINUOUS
 70
0
 71
3
 72
11
 73
7
 74
0
 42
0.0000001
 43
0.0000001
 44
0.0000000001
 40
0.0
 40
0.0
 40
0.0
 40
0.0
 40
0.2501843567
 40
0.5006913459
 40
0.7507918151
 40
1.0
 40
1.0
 40
1.0
 40
1.0
 10
77.6570296638
 20
210.1889984936
 30
0.0
 10
77.660753298
 20
210.4460609813
 30
0.0
 10
77.7736916881
 20
210.9630171185
 30
0.0
 10
78.2102086889
 20
211.6215406221
 30
0.0
 10
78.8659611874
 20
212.0605688842
 30
0.0
 10
79.3815067867
 20
212.1743012517
 30
0.0
 10
79.637565801
 20
212.1780422845
 30
0.0
  0
SPLINE
  5
35C
100
AcDbEntity
  8
95056301000_BL4
100
AcDbSpline
 62
9
  6
CONTINUOUS
 70
0
 71
3
 72
11
 73
7
 74
0
 42
0.0000001
 43
0.0000001
 44
0.0000000001
 40
0.0
 40
0.0
 40
0.0
 40
0.0
 40
0.2500414059
 40
0.5000204115
 40
0.7499876647
 40
1.0
 40
1.0
 40
1.0
 40
1.0
 10
80.3170853133
 20
210.6752954107
 30
0.0
 10
80.1878374638
 20
210.6752477667
 30
0.0
 10
79.9265302672
 20
210.6246725889
 30
0.0
 10
79.5950806414
 20
210.4051414748
 30
0.0
 10
79.373350312
 20
210.0750527373
 30
0.0
 10
79.322050104
 20
209.8137077811
 30
0.0
 10
79.3220038119
 20
209.6844749579
 30
0.0
  0
SPLINE
  5
35D
100
AcDbEntity
  8
95056301000_BL4
100
AcDbSpline
 62
9
  6
CONTINUOUS
 70
0
 71
3
 72
11
 73
7
 74
0
 42
0.0000001
 43
0.0000001
 44
0.0000000001
 40
0.0
 40
0.0
 40
0.0
 40
0.0
 40
0.2500127325
 40
0.4999801496
 40
0.7499589952
 40
1.0
 40
1.0
 40
1.0
 40
1.0
 10
86.8190880271
 20
209.6844702469
 30
0.0
 10
86.8190390985
 20
209.8137032817
 30
0.0
 10
86.767746
 20
210.0750490021
 30
0.0
 10
86.5460132775
 20
210.4051387173
 30
0.0
 10
86.2145647131
 20
210.624667668
 30
0.0
 10
85.9532581994
 20
210.6752497301
 30
0.0
 10
85.8240105491
 20
210.675294811
 30
0.0
  0
SPLINE
  5
35E
100
AcDbEntity
  8
95056301000_BL4
100
AcDbSpline
 62
9
  6
CONTINUOUS
 70
0
 71
3
 72
11
 73
7
 74
0
 42
0.0000001
 43
0.0000001
 44
0.0000000001
 40
0.0
 40
0.0
 40
0.0
 40
0.0
 40
0.2500410054
 40
0.50001985
 40
0.7499872677
 40
1.0
 40
1.0
 40
1.0
 40
1.0
 10
85.8240105738
 20
174.2090434379
 30
0.0
 10
85.9532582242
 20
174.2090885087
 30
0.0
 10
86.2145647364
 20
174.2596705965
 30
0.0
 10
86.5460132953
 20
174.4791995453
 30
0.0
 10
86.7677460142
 20
174.8092892672
 30
0.0
 10
86.8190390971
 20
175.070634988
 30
0.0
 10
86.8190880302
 20
175.1998680225
 30
0.0
  0
SPLINE
  5
35F
100
AcDbEntity
  8
95056301000_BL4
100
AcDbSpline
 62
9
  6
CONTINUOUS
 70
0
 71
3
 72
11
 73
7
 74
0
 42
0.0000001
 43
0.0000001
 44
0.0000000001
 40
0.0
 40
0.0
 40
0.0
 40
0.0
 40
0.2500123357
 40
0.4999795882
 40
0.7499585945
 40
1.0
 40
1.0
 40
1.0
 40
1.0
 10
79.322003815
 20
175.1998632645
 30
0.0
 10
79.3220500998
 20
175.0706304408
 30
0.0
 10
79.3733503277
 20
174.809285485
 30
0.0
 10
79.5950806594
 20
174.4791967538
 30
0.0
 10
79.9265302911
 20
174.2596656396
 30
0.0
 10
80.1878374893
 20
174.2090904827
 30
0.0
 10
80.3170853389
 20
174.2090428317
 30
0.0
  0
SPLINE
  5
360
100
AcDbEntity
  8
95056301000_BL4
100
AcDbSpline
 62
9
  6
CONTINUOUS
 70
0
 71
3
 72
21
 73
17
 74
0
 42
0.0000001
 43
0.0000001
 44
0.0000000001
 40
0.0
 40
0.0
 40
0.0
 40
0.0
 40
0.0230194988
 40
0.0413414745
 40
0.0623293425
 40
0.0891520103
 40
0.1592514863
 40
0.2425382949
 40
0.3259669987
 40
0.3977994358
 40
0.5133790853
 40
0.6259376718
 40
0.7696533548
 40
0.846304994
 40
0.9144286985
 40
1.0
 40
1.0
 40
1.0
 40
1.0
 10
79.3705456126
 20
212.3850865993
 30
0.0
 10
79.3684945061
 20
212.383306353
 30
0.0
 10
79.3649881258
 20
212.3794790991
 30
0.0
 10
79.3646465896
 20
212.3715798556
 30
0.0
 10
79.3691303949
 20
212.3648361848
 30
0.0
 10
79.3796079546
 20
212.3556694655
 30
0.0
 10
79.3983357518
 20
212.3452430555
 30
0.0
 10
79.4235237517
 20
212.3332686992
 30
0.0
 10
79.4490246226
 20
212.3213419063
 30
0.0
 10
79.4768247232
 20
212.3053517018
 30
0.0
 10
79.5034765128
 20
212.2819086833
 30
0.0
 10
79.5357254031
 20
212.2517979468
 30
0.0
 10
79.5706353611
 20
212.2337094054
 30
0.0
 10
79.6011632299
 20
212.2173218218
 30
0.0
 10
79.6230463465
 20
212.2047946766
 30
0.0
 10
79.6406870348
 20
212.187643765
 30
0.0
 10
79.6375657927
 20
212.1780422908
 30
0.0
  0
SPLINE
  5
361
100
AcDbEntity
  8
95056301000_BL4
100
AcDbSpline
 62
9
  6
CONTINUOUS
 70
0
 71
3
 72
21
 73
17
 74
0
 42
0.0000001
 43
0.0000001
 44
0.0000000001
 40
0.0
 40
0.0
 40
0.0
 40
0.0
 40
0.0230194988
 40
0.0413414745
 40
0.0623293425
 40
0.0891520103
 40
0.1592514863
 40
0.2425382949
 40
0.3259669987
 40
0.3977994358
 40
0.5133790853
 40
0.6259376718
 40
0.7696533548
 40
0.846304994
 40
0.9144286985
 40
1.0
 40
1.0
 40
1.0
 40
1.0
 10
86.7705456126
 20
212.3850865993
 30
0.0
 10
86.7725967192
 20
212.383306353
 30
0.0
 10
86.7761030995
 20
212.3794790991
 30
0.0
 10
86.7764446356
 20
212.3715798556
 30
0.0
 10
86.7719608304
 20
212.3648361848
 30
0.0
 10
86.7614832707
 20
212.3556694655
 30
0.0
 10
86.7427554735
 20
212.3452430555
 30
0.0
 10
86.7175674736
 20
212.3332686992
 30
0.0
 10
86.6920666027
 20
212.3213419063
 30
0.0
 10
86.6642665021
 20
212.3053517018
 30
0.0
 10
86.6376147125
 20
212.2819086833
 30
0.0
 10
86.6053658222
 20
212.2517979468
 30
0.0
 10
86.5704558642
 20
212.2337094054
 30
0.0
 10
86.5399279954
 20
212.2173218218
 30
0.0
 10
86.5180448788
 20
212.2047946766
 30
0.0
 10
86.5004041904
 20
212.187643765
 30
0.0
 10
86.5035254326
 20
212.1780422908
 30
0.0
  0
SPLINE
  5
362
100
AcDbEntity
  8
95056301000_BL4
100
AcDbSpline
 62
9
  6
CONTINUOUS
 70
0
 71
3
 72
21
 73
17
 74
0
 42
0.0000001
 43
0.0000001
 44
0.0000000001
 40
0.0
 40
0.0
 40
0.0
 40
0.0
 40
0.0230194988
 40
0.0413414745
 40
0.0623293425
 40
0.0891520103
 40
0.1592514863
 40
0.2425382949
 40
0.3259669987
 40
0.3977994358
 40
0.5133790853
 40
0.6259376718
 40
0.7696533548
 40
0.846304994
 40
0.9144286985
 40
1.0
 40
1.0
 40
1.0
 40
1.0
 10
86.7705456126
 20
172.4992516464
 30
0.0
 10
86.7725967192
 20
172.5010318926
 30
0.0
 10
86.7761030995
 20
172.5048591466
 30
0.0
 10
86.7764446356
 20
172.5127583901
 30
0.0
 10
86.7719608304
 20
172.5195020609
 30
0.0
 10
86.7614832707
 20
172.5286687802
 30
0.0
 10
86.7427554735
 20
172.5390951902
 30
0.0
 10
86.7175674736
 20
172.5510695465
 30
0.0
 10
86.6920666027
 20
172.5629963394
 30
0.0
 10
86.6642665021
 20
172.5789865439
 30
0.0
 10
86.6376147125
 20
172.6024295624
 30
0.0
 10
86.6053658222
 20
172.6325402989
 30
0.0
 10
86.5704558642
 20
172.6506288403
 30
0.0
 10
86.5399279954
 20
172.6670164239
 30
0.0
 10
86.5180448788
 20
172.679543569
 30
0.0
 10
86.5004041904
 20
172.6966944806
 30
0.0
 10
86.5035254326
 20
172.7062959549
 30
0.0
  0
SPLINE
  5
363
100
AcDbEntity
  8
95056301000_BL4
100
AcDbSpline
 62
9
  6
CONTINUOUS
 70
0
 71
3
 72
21
 73
17
 74
0
 42
0.0000001
 43
0.0000001
 44
0.0000000001
 40
0.0
 40
0.0
 40
0.0
 40
0.0
 40
0.0230194988
 40
0.0413414745
 40
0.0623293425
 40
0.0891520103
 40
0.1592514863
 40
0.2425382949
 40
0.3259669987
 40
0.3977994358
 40
0.5133790853
 40
0.6259376718
 40
0.7696533548
 40
0.846304994
 40
0.9144286985
 40
1.0
 40
1.0
 40
1.0
 40
1.0
 10
79.3705456126
 20
172.4992516464
 30
0.0
 10
79.3684945061
 20
172.5010318926
 30
0.0
 10
79.3649881258
 20
172.5048591466
 30
0.0
 10
79.3646465896
 20
172.5127583901
 30
0.0
 10
79.3691303949
 20
172.5195020609
 30
0.0
 10
79.3796079546
 20
172.5286687802
 30
0.0
 10
79.3983357518
 20
172.5390951902
 30
0.0
 10
79.4235237517
 20
172.5510695465
 30
0.0
 10
79.4490246226
 20
172.5629963394
 30
0.0
 10
79.4768247232
 20
172.5789865439
 30
0.0
 10
79.5034765128
 20
172.6024295624
 30
0.0
 10
79.5357254031
 20
172.6325402989
 30
0.0
 10
79.5706353611
 20
172.6506288403
 30
0.0
 10
79.6011632299
 20
172.6670164239
 30
0.0
 10
79.6230463465
 20
172.679543569
 30
0.0
 10
79.6406870348
 20
172.6966944806
 30
0.0
 10
79.6375657927
 20
172.7062959549
 30
0.0
  0
SPLINE
  5
364
100
AcDbEntity
  8
95056301000_BL4
100
AcDbSpline
 62
7
  6
CONTINUOUS
 70
0
 71
3
 72
8
 73
4
 74
0
 42
0.0000001
 43
0.0000001
 44
0.0000000001
 40
0.0
 40
0.0
 40
0.0
 40
0.0
 40
1.0
 40
1.0
 40
1.0
 40
1.0
 10
20.8839604457
 20
172.6192687191
 30
0.0
 10
21.3852906857
 20
173.1743786091
 30
0.0
 10
21.9354955032
 20
173.6840145433
 30
0.0
 10
22.4843651806
 20
174.1921691228
 30
0.0
  0
SPLINE
  5
365
100
AcDbEntity
  8
95056301000_BL4
100
AcDbSpline
 62
7
  6
CONTINUOUS
 70
0
 71
3
 72
8
 73
4
 74
0
 42
0.0000001
 43
0.0000001
 44
0.0000000001
 40
0.0
 40
0.0
 40
0.0
 40
0.0
 40
1.0
 40
1.0
 40
1.0
 40
1.0
 10
22.4843651806
 20
210.6921691228
 30
0.0
 10
21.9354891717
 20
211.2003295642
 30
0.0
 10
21.3852779518
 20
211.7099714515
 30
0.0
 10
20.8839430714
 20
212.2650887769
 30
0.0
  0
SPLINE
  5
366
100
AcDbEntity
  8
95056301000_BL4
100
AcDbSpline
 62
9
  6
CONTINUOUS
 70
0
 71
3
 72
19
 73
15
 74
0
 42
0.0000001
 43
0.0000001
 44
0.0000000001
 40
0.0
 40
0.0
 40
0.0
 40
0.0
 40
0.1926682164
 40
0.3778023184
 40
0.5483775333
 40
0.6980867592
 40
0.8213758255
 40
0.871699198
 40
0.9138786107
 40
0.9476219464
 40
0.9728152371
 40
0.9822693919
 40
0.9897608543
 40
1.0
 40
1.0
 40
1.0
 40
1.0
 10
31.1627113825
 20
174.9297959261
 30
0.0
 10
31.1759111745
 20
174.7370784625
 30
0.0
 10
31.1984474353
 20
174.3589405225
 30
0.0
 10
31.2210790308
 20
173.8095732723
 30
0.0
 10
31.2314947384
 20
173.3028986456
 30
0.0
 10
31.2293798099
 20
172.8581357835
 30
0.0
 10
31.2170870834
 20
172.5340804572
 30
0.0
 10
31.1995496918
 20
172.3184055964
 30
0.0
 10
31.1845555528
 20
172.192677856
 30
0.0
 10
31.1668461784
 20
172.0927812824
 30
0.0
 10
31.149323925
 20
172.0263708551
 30
0.0
 10
31.1325095084
 20
171.9872832836
 30
0.0
 10
31.1188816511
 20
171.9641729525
 30
0.0
 10
31.1036306079
 20
171.9509542693
 30
0.0
 10
31.0934221072
 20
171.9498715381
 30
0.0
  0
SPLINE
  5
367
100
AcDbEntity
  8
95056301000_BL4
100
AcDbSpline
 62
7
  6
CONTINUOUS
 70
0
 71
3
 72
20
 73
16
 74
0
 42
0.0000001
 43
0.0000001
 44
0.0000000001
 40
0.0
 40
0.0
 40
0.0
 40
0.0
 40
0.194318125
 40
0.3811224053
 40
0.5530716134
 40
0.7038331175
 40
0.7694238616
 40
0.8276652296
 40
0.8780096144
 40
0.9199944042
 40
0.9532891126
 40
0.977616213
 40
0.9929204269
 40
0.9973342915
 40
1.0
 40
1.0
 40
1.0
 40
1.0
 10
23.885246805
 20
174.164903577
 30
0.0
 10
23.8977190728
 20
173.9720458361
 30
0.0
 10
23.9189984622
 20
173.5935760763
 30
0.0
 10
23.9414763318
 20
173.0439528988
 30
0.0
 10
23.9541743923
 20
172.5373486088
 30
0.0
 10
23.9569674723
 20
172.1511397594
 30
0.0
 10
23.9539102366
 20
171.8780483706
 30
0.0
 10
23.9495006657
 20
171.7048735833
 30
0.0
 10
23.9430340743
 20
171.5552374966
 30
0.0
 10
23.9346902044
 20
171.430601915
 30
0.0
 10
23.9248208858
 20
171.3318960629
 30
0.0
 10
23.9137946386
 20
171.2604084057
 30
0.0
 10
23.9029911277
 20
171.2173802168
 30
0.0
 10
23.8932954808
 20
171.1975496607
 30
0.0
 10
23.8873371803
 20
171.1924814926
 30
0.0
 10
23.8847005025
 20
171.1922043666
 30
0.0
  0
SPLINE
  5
368
100
AcDbEntity
  8
95056301000_BL4
100
AcDbSpline
 62
9
  6
CONTINUOUS
 70
0
 71
3
 72
19
 73
15
 74
0
 42
0.0000001
 43
0.0000001
 44
0.0000000001
 40
0.0
 40
0.0
 40
0.0
 40
0.0
 40
0.0102391459
 40
0.0177306089
 40
0.0271847642
 40
0.0523780551
 40
0.0861213903
 40
0.1283008025
 40
0.1786241751
 40
0.3019132415
 40
0.4516224672
 40
0.622197682
 40
0.8073317838
 40
1.0
 40
1.0
 40
1.0
 40
1.0
 10
31.0934221072
 20
212.9344667076
 30
0.0
 10
31.1036306083
 20
212.9333839785
 30
0.0
 10
31.1188816535
 20
212.9201652947
 30
0.0
 10
31.1325095124
 20
212.8970549635
 30
0.0
 10
31.1493239307
 20
212.857967391
 30
0.0
 10
31.1668461822
 20
212.7915569628
 30
0.0
 10
31.1845555516
 20
212.691660389
 30
0.0
 10
31.1995496885
 20
212.5659326493
 30
0.0
 10
31.2170870836
 20
212.3502577889
 30
0.0
 10
31.2293798103
 20
212.0262024623
 30
0.0
 10
31.2314947394
 20
211.5814396
 30
0.0
 10
31.2210790313
 20
211.0747649733
 30
0.0
 10
31.1984474283
 20
210.5253977236
 30
0.0
 10
31.1759111793
 20
210.1472597829
 30
0.0
 10
31.1627113825
 20
209.9545423196
 30
0.0
  0
SPLINE
  5
369
100
AcDbEntity
  8
95056301000_BL4
100
AcDbSpline
 62
7
  6
CONTINUOUS
 70
0
 71
3
 72
20
 73
16
 74
0
 42
0.0000001
 43
0.0000001
 44
0.0000000001
 40
0.0
 40
0.0
 40
0.0
 40
0.0
 40
0.0026657085
 40
0.0070795731
 40
0.022383787
 40
0.0467108874
 40
0.0800055958
 40
0.1219903856
 40
0.1723347704
 40
0.2305761384
 40
0.2961668825
 40
0.4469283866
 40
0.6188775947
 40
0.805681875
 40
1.0
 40
1.0
 40
1.0
 40
1.0
 10
23.8847005025
 20
213.6921338791
 30
0.0
 10
23.8873371803
 20
213.6918567531
 30
0.0
 10
23.8932954808
 20
213.686788585
 30
0.0
 10
23.9029911277
 20
213.6669580289
 30
0.0
 10
23.9137946386
 20
213.62392984
 30
0.0
 10
23.9248208858
 20
213.5524421828
 30
0.0
 10
23.9346902044
 20
213.4537363307
 30
0.0
 10
23.9430340743
 20
213.3291007491
 30
0.0
 10
23.9495006657
 20
213.1794646624
 30
0.0
 10
23.9539102366
 20
213.0062898751
 30
0.0
 10
23.9569674723
 20
212.7331984863
 30
0.0
 10
23.9541743923
 20
212.3469896369
 30
0.0
 10
23.9414763318
 20
211.8403853469
 30
0.0
 10
23.9189984622
 20
211.2907621694
 30
0.0
 10
23.8977190728
 20
210.9122924096
 30
0.0
 10
23.885246805
 20
210.7194346687
 30
0.0
  0
SPLINE
  5
36A
100
AcDbEntity
  8
95056301000_BL4
100
AcDbSpline
 62
7
  6
CONTINUOUS
 70
0
 71
3
 72
19
 73
15
 74
0
 42
0.0000001
 43
0.0000001
 44
0.0000000001
 40
0.0
 40
0.0
 40
0.0
 40
0.0
 40
0.0081138918
 40
0.014967885
 40
0.0239624158
 40
0.0485875184
 40
0.0820812741
 40
0.1241991917
 40
0.1746220467
 40
0.2984476519
 40
0.4489774132
 40
0.6204566151
 40
0.8065666553
 40
1.0
 40
1.0
 40
1.0
 40
1.0
 10
23.885246805
 20
96.8933777376
 30
0.0
 10
23.8932780223
 20
96.8922490236
 30
0.0
 10
23.9034441732
 20
96.8773761698
 30
0.0
 10
23.9116429341
 20
96.8558737665
 30
0.0
 10
23.9222991035
 20
96.8163184195
 30
0.0
 10
23.9324139443
 20
96.75019301
 30
0.0
 10
23.9419516832
 20
96.6503097106
 30
0.0
 10
23.9490164307
 20
96.5245532353
 30
0.0
 10
23.9557797072
 20
96.3083591685
 30
0.0
 10
23.9568697552
 20
95.9836935122
 30
0.0
 10
23.9493886713
 20
95.5381105103
 30
0.0
 10
23.9337122617
 20
95.0304553429
 30
0.0
 10
23.9112478046
 20
94.480140272
 30
0.0
 10
23.8936078506
 20
94.1011820748
 30
0.0
 10
23.8847005025
 20
93.9080433503
 30
0.0
  0
SPLINE
  5
36B
100
AcDbEntity
  8
95056301000_BL4
100
AcDbSpline
 62
9
  6
CONTINUOUS
 70
0
 71
3
 72
18
 73
14
 74
0
 42
0.0000001
 43
0.0000001
 44
0.0000000001
 40
0.0
 40
0.0
 40
0.0
 40
0.0
 40
0.0084036279
 40
0.0153307478
 40
0.0243734752
 40
0.0490484483
 40
0.0825293937
 40
0.1749722414
 40
0.2986277773
 40
0.4489684613
 40
0.6203450827
 40
0.8063818037
 40
1.0
 40
1.0
 40
1.0
 40
1.0
 10
31.1627113825
 20
95.8705967913
 30
0.0
 10
31.1710120556
 20
95.8694171566
 30
0.0
 10
31.1818615719
 20
95.854774647
 30
0.0
 10
31.1905555623
 20
95.8329611815
 30
0.0
 10
31.201648021
 20
95.7934756611
 30
0.0
 10
31.2119253187
 20
95.7273503993
 30
0.0
 10
31.2256577979
 20
95.5775483808
 30
0.0
 10
31.2318090957
 20
95.3285191113
 30
0.0
 10
31.2276794926
 20
94.9629141138
 30
0.0
 10
31.2110376564
 20
94.5188489006
 30
0.0
 10
31.1826882393
 20
94.0130489255
 30
0.0
 10
31.1433789722
 20
93.4646871362
 30
0.0
 10
31.1111119383
 20
93.087279593
 30
0.0
 10
31.0934221072
 20
92.8949235988
 30
0.0
  0
SPLINE
  5
36C
100
AcDbEntity
  8
95056301000_BL4
100
AcDbSpline
 62
9
  6
CONTINUOUS
 70
0
 71
3
 72
18
 73
14
 74
0
 42
0.0000001
 43
0.0000001
 44
0.0000000001
 40
0.0
 40
0.0
 40
0.0
 40
0.0
 40
0.1936181963
 40
0.3796549174
 40
0.5510315388
 40
0.7013722228
 40
0.8250277587
 40
0.9174706066
 40
0.9509515523
 40
0.9756265251
 40
0.984669252
 40
0.9915963714
 40
1.0
 40
1.0
 40
1.0
 40
1.0
 10
31.0934221072
 20
86.3920796848
 30
0.0
 10
31.1111119378
 20
86.1997236906
 30
0.0
 10
31.1433789821
 20
85.8223161482
 30
0.0
 10
31.182688237
 20
85.2739543579
 30
0.0
 10
31.2110376548
 20
84.7681543829
 30
0.0
 10
31.2276794935
 20
84.3240891698
 30
0.0
 10
31.2318090959
 20
83.9584841724
 30
0.0
 10
31.2256578001
 20
83.7094549021
 30
0.0
 10
31.211925315
 20
83.559652884
 30
0.0
 10
31.201648017
 20
83.4935276227
 30
0.0
 10
31.1905555613
 20
83.4540421034
 30
0.0
 10
31.1818615731
 20
83.4322286365
 30
0.0
 10
31.171012056
 20
83.4175861287
 30
0.0
 10
31.1627113825
 20
83.4164064923
 30
0.0
  0
SPLINE
  5
36D
100
AcDbEntity
  8
95056301000_BL4
100
AcDbSpline
 62
7
  6
CONTINUOUS
 70
0
 71
3
 72
19
 73
15
 74
0
 42
0.0000001
 43
0.0000001
 44
0.0000000001
 40
0.0
 40
0.0
 40
0.0
 40
0.0
 40
0.1934333447
 40
0.3795433849
 40
0.5510225868
 40
0.7015523481
 40
0.8253779533
 40
0.8758008083
 40
0.9179187259
 40
0.9514124816
 40
0.9760375842
 40
0.985032115
 40
0.9918861082
 40
1.0
 40
1.0
 40
1.0
 40
1.0
 10
23.8847005025
 20
85.3789599334
 30
0.0
 10
23.8936078506
 20
85.1858212088
 30
0.0
 10
23.9112478046
 20
84.8068630116
 30
0.0
 10
23.9337122617
 20
84.2565479407
 30
0.0
 10
23.9493886713
 20
83.7488927733
 30
0.0
 10
23.9568697552
 20
83.3033097714
 30
0.0
 10
23.9557797072
 20
82.9786441151
 30
0.0
 10
23.9490164307
 20
82.7624500484
 30
0.0
 10
23.9419516832
 20
82.6366935731
 30
0.0
 10
23.9324139443
 20
82.5368102736
 30
0.0
 10
23.9222991035
 20
82.4706848641
 30
0.0
 10
23.9116429341
 20
82.4311295171
 30
0.0
 10
23.9034441732
 20
82.4096271138
 30
0.0
 10
23.8932780223
 20
82.39475426
 30
0.0
 10
23.885246805
 20
82.393625546
 30
0.0
  0
ELLIPSE
  5
36E
100
AcDbEntity
  8
95056301000_BL4
100
AcDbEllipse
 62
7
  6
CONTINUOUS
 10
45.2304743478
 20
174.1921691228
 30
0.0
 11
21.3461091672
 21
-0.0
 31
0.0
 40
0.1405408347
 41
3.1415926536
 42
3.150681294
  0
ELLIPSE
  5
36F
100
AcDbEntity
  8
95056301000_BL4
100
AcDbEllipse
 62
7
  6
CONTINUOUS
 10
45.2304743478
 20
210.6921691228
 30
0.0
 11
21.3461091672
 21
0.0
 31
0.0
 40
0.1405408347
 41
3.1325040132
 42
3.1415926536
  0
ELLIPSE
  5
370
100
AcDbEntity
  8
95056301000_BL4
100
AcDbEllipse
 62
7
  6
CONTINUOUS
 10
52.4274585433
 20
85.3935016418
 30
0.0
 11
28.5430933627
 21
0.0
 31
0.0
 40
0.1051042353
 41
3.1415926536
 42
3.1464399087
  0
ELLIPSE
  5
371
100
AcDbEntity
  8
95056301000_BL4
100
AcDbEllipse
 62
7
  6
CONTINUOUS
 10
52.4274585433
 20
93.8935016418
 30
0.0
 11
28.5430933627
 21
0.0
 31
0.0
 40
0.1051042353
 41
3.1367453985
 42
3.1415926536
  0
ENDBLK
  5
372
100
AcDbEntity
  8
0
  6
BYBLOCK
 62
0
100
AcDbBlockEnd
  0
BLOCK
  5
373
100
AcDbEntity
  8
94528901000_M_BL5
100
AcDbBlockBegin
  2
94528901000_M_BL5
 70
64
 10
54.3774553966
 20
157.3428353823
  3
94528901000_M_BL5
  1

  0
LINE
  5
374
100
AcDbEntity
  8
94528901000_M_BL5
100
AcDbLine
 62
7
  6
CONTINUOUS
 10
82.1955456126
 20
225.5577135795
 11
81.3205456126
 21
224.0421691228
  0
LINE
  5
375
100
AcDbEntity
  8
94528901000_M_BL5
100
AcDbLine
 62
7
  6
CONTINUOUS
 10
83.9455456126
 20
222.5266246662
 11
84.8205456126
 21
224.0421691228
  0
LINE
  5
376
100
AcDbEntity
  8
94528901000_M_BL5
100
AcDbLine
 62
7
  6
CONTINUOUS
 10
81.3205456126
 20
224.0421691228
 11
82.1955456126
 21
222.5266246662
  0
LINE
  5
377
100
AcDbEntity
  8
94528901000_M_BL5
100
AcDbLine
 62
7
  6
CONTINUOUS
 10
84.8205456126
 20
224.0421691228
 11
83.9455456126
 21
225.5577135795
  0
LINE
  5
378
100
AcDbEntity
  8
94528901000_M_BL5
100
AcDbLine
 62
7
  6
CONTINUOUS
 10
82.1955456126
 20
222.5266246662
 11
83.9455456126
 21
222.5266246662
  0
LINE
  5
379
100
AcDbEntity
  8
94528901000_M_BL5
100
AcDbLine
 62
7
  6
CONTINUOUS
 10
83.9455456126
 20
225.5577135795
 11
82.1955456126
 21
225.5577135795
  0
CIRCLE
  5
37A
100
AcDbEntity
  8
94528901000_M_BL5
100
AcDbCircle
 62
7
  6
CONTINUOUS
 10
83.0705456126
 20
222.5421691228
 40
5.5
  0
CIRCLE
  5
37B
100
AcDbEntity
  8
94528901000_M_BL5
100
AcDbCircle
 62
7
  6
CONTINUOUS
 10
83.0705456126
 20
224.0421691228
 40
1.75
  0
CIRCLE
  5
37C
100
AcDbEntity
  8
94528901000_M_BL5
100
AcDbCircle
 62
7
  6
CONTINUOUS
 10
83.0705456126
 20
224.0421691228
 40
1.515
  0
CIRCLE
  5
37D
100
AcDbEntity
  8
94528901000_M_BL5
100
AcDbCircle
 62
7
  6
CONTINUOUS
 10
83.0705456126
 20
220.0421691228
 40
0.75
  0
ARC
  5
37E
100
AcDbEntity
  8
94528901000_M_BL5
100
AcDbCircle
 62
7
  6
CONTINUOUS
 10
17.5386138696
 20
224.0421691228
 40
4.0
100
AcDbArc
 50
326.8389561101
 51
33.1610438899
  0
ARC
  5
37F
100
AcDbEntity
  8
94528901000_M_BL5
100
AcDbCircle
 62
7
  6
CONTINUOUS
 10
17.5386138696
 20
89.6435016418
 40
4.0
100
AcDbArc
 50
311.4096221093
 51
48.5903778907
  0
ENDBLK
  5
380
100
AcDbEntity
  8
0
  6
BYBLOCK
 62
0
100
AcDbBlockEnd
  0
BLOCK
  5
381
100
AcDbEntity
  8
93773532000_O_BL6
100
AcDbBlockBegin
  2
93773532000_O_BL6
 70
64
 10
53.1874429318
 20
245.9421691228
  3
93773532000_O_BL6
  1

  0
LINE
  5
382
100
AcDbEntity
  8
93773532000_O_BL6
100
AcDbLine
 62
7
  6
CONTINUOUS
 10
71.0705456126
 20
252.8421691228
 11
71.0705456126
 21
260.4421691228
  0
LINE
  5
383
100
AcDbEntity
  8
93773532000_O_BL6
100
AcDbLine
 62
9
  6
CONTINUOUS
 10
73.5705456126
 20
255.9421691228
 11
73.5705456126
 21
252.4421691228
  0
LINE
  5
384
100
AcDbEntity
  8
93773532000_O_BL6
100
AcDbLine
 62
7
  6
CENTER
 10
83.0705456126
 20
240.4421691228
 11
83.0705456126
 21
231.4421691228
  0
LINE
  5
385
100
AcDbEntity
  8
93773532000_O_BL6
100
AcDbLine
 62
7
  6
CENTER
 10
83.0705456126
 20
240.4421691228
 11
83.0705456126
 21
249.4421691228
  0
LINE
  5
386
100
AcDbEntity
  8
93773532000_O_BL6
100
AcDbLine
 62
9
  6
CONTINUOUS
 10
92.5705456126
 20
255.9421691228
 11
92.5705456126
 21
252.4421691228
  0
LINE
  5
387
100
AcDbEntity
  8
93773532000_O_BL6
100
AcDbLine
 62
7
  6
CONTINUOUS
 10
95.0705456126
 20
260.4421691228
 11
95.0705456126
 21
252.8421691228
  0
LINE
  5
388
100
AcDbEntity
  8
93773532000_O_BL6
100
AcDbLine
 62
7
  6
CENTER
 10
83.0705456126
 20
240.4421691228
 11
74.0705456126
 21
240.4421691228
  0
LINE
  5
389
100
AcDbEntity
  8
93773532000_O_BL6
100
AcDbLine
 62
7
  6
CENTER
 10
83.0705456126
 20
240.4421691228
 11
92.0705456126
 21
240.4421691228
  0
LINE
  5
38A
100
AcDbEntity
  8
93773532000_O_BL6
100
AcDbLine
 62
9
  6
CONTINUOUS
 10
71.0705456126
 20
252.8421691228
 11
95.0705456126
 21
252.8421691228
  0
LINE
  5
38B
100
AcDbEntity
  8
93773532000_O_BL6
100
AcDbLine
 62
9
  6
CONTINUOUS
 10
92.5705456126
 20
255.9421691228
 11
73.5705456126
 21
255.9421691228
  0
LINE
  5
38C
100
AcDbEntity
  8
93773532000_O_BL6
100
AcDbLine
 62
7
  6
CONTINUOUS
 10
95.0705456126
 20
260.4421691228
 11
71.0705456126
 21
260.4421691228
  0
LINE
  5
38D
100
AcDbEntity
  8
93773532000_O_BL6
100
AcDbLine
 62
7
  6
CONTINUOUS
 10
12.8843651806
 20
255.9421691228
 11
12.8843651806
 21
252.8421691228
  0
LINE
  5
38E
100
AcDbEntity
  8
93773532000_O_BL6
100
AcDbLine
 62
9
  6
CONTINUOUS
 10
15.3843651806
 20
259.973297997
 11
15.3843651806
 21
252.4421691228
  0
LINE
  5
38F
100
AcDbEntity
  8
93773532000_O_BL6
100
AcDbLine
 62
7
  6
CONTINUOUS
 10
20.8843651806
 20
260.4421691228
 11
20.8843651806
 21
252.4421691228
  0
LINE
  5
390
100
AcDbEntity
  8
93773532000_O_BL6
100
AcDbLine
 62
7
  6
CENTER
 10
11.3043402509
 20
240.4421691228
 11
23.8843651806
 21
240.4421691228
  0
LINE
  5
391
100
AcDbEntity
  8
93773532000_O_BL6
100
AcDbLine
 62
9
  6
CONTINUOUS
 10
12.8843651806
 20
252.8421691228
 11
20.8843651806
 21
252.8421691228
  0
LINE
  5
392
100
AcDbEntity
  8
93773532000_O_BL6
100
AcDbLine
 62
7
  6
CONTINUOUS
 10
20.8843651806
 20
260.4421691228
 11
17.3843651806
 21
260.4421691228
  0
ARC
  5
393
100
AcDbEntity
  8
93773532000_O_BL6
100
AcDbCircle
 62
7
  6
CONTINUOUS
 10
71.4705456126
 20
252.8421691228
 40
0.4
100
AcDbArc
 50
180.0
 51
270.0
  0
ARC
  5
394
100
AcDbEntity
  8
93773532000_O_BL6
100
AcDbCircle
 62
7
  6
CONTINUOUS
 10
94.6705456126
 20
252.8421691228
 40
0.4
100
AcDbArc
 50
270.0
 51
360.0
  0
ARC
  5
395
100
AcDbEntity
  8
93773532000_O_BL6
100
AcDbCircle
 62
7
  6
CONTINUOUS
 10
17.3843651806
 20
255.9421691228
 40
4.5
100
AcDbArc
 50
90.0
 51
180.0
  0
ARC
  5
396
100
AcDbEntity
  8
93773532000_O_BL6
100
AcDbCircle
 62
7
  6
CONTINUOUS
 10
13.2843651806
 20
252.8421691228
 40
0.4
100
AcDbArc
 50
180.0
 51
270.0
  0
SPLINE
  5
397
100
AcDbEntity
  8
93773532000_O_BL6
100
AcDbSpline
 62
7
  6
CONTINUOUS
 70
0
 71
3
 72
16
 73
12
 74
0
 42
0.0000001
 43
0.0000001
 44
0.0000000001
 40
0.0
 40
0.0
 40
0.0
 40
0.0
 40
0.0357519613
 40
0.0774476455
 40
0.1248349876
 40
0.1772889631
 40
0.2945317374
 40
0.4240360886
 40
0.5618755306
 40
0.7051815344
 40
1.0
 40
1.0
 40
1.0
 40
1.0
 10
95.0705456126
 20
259.973297997
 30
0.0
 10
95.0705456126
 20
259.9163375459
 30
0.0
 10
95.0538461683
 20
259.793013133
 30
0.0
 10
94.9967325774
 20
259.6021347555
 30
0.0
 10
94.9106041844
 20
259.3934192229
 30
0.0
 10
94.7571831567
 20
259.0832713474
 30
0.0
 10
94.5155269756
 20
258.6718198538
 30
0.0
 10
94.1801065936
 20
258.1589753333
 30
0.0
 10
93.806136783
 20
257.6220511562
 30
0.0
 10
93.2685935866
 20
256.8783230624
 30
0.0
 10
92.8512500091
 20
256.31877359
 30
0.0
 10
92.5705456126
 20
255.9421691228
 30
0.0
  0
SPLINE
  5
398
100
AcDbEntity
  8
93773532000_O_BL6
100
AcDbSpline
 62
7
  6
CONTINUOUS
 70
0
 71
3
 72
16
 73
12
 74
0
 42
0.0000001
 43
0.0000001
 44
0.0000000001
 40
0.0
 40
0.0
 40
0.0
 40
0.0
 40
0.294887636
 40
0.4382130657
 40
0.5760522437
 40
0.7055439891
 40
0.8227590043
 40
0.8752003632
 40
0.9225728195
 40
0.9642497385
 40
1.0
 40
1.0
 40
1.0
 40
1.0
 10
73.5705456126
 20
255.9421691228
 30
0.0
 10
73.2897753879
 20
256.318861908
 30
0.0
 10
72.8723485054
 20
256.8785252442
 30
0.0
 10
72.3347323713
 20
257.6223743098
 30
0.0
 10
71.9607658268
 20
258.1593130527
 30
0.0
 10
71.6253894566
 20
258.6721101465
 30
0.0
 10
71.3838016696
 20
259.08350152
 30
0.0
 10
71.2304097339
 20
259.3935676076
 30
0.0
 10
71.1443546573
 20
259.6022313177
 30
0.0
 10
71.0872153925
 20
259.7930441345
 30
0.0
 10
71.0705456126
 20
259.9163402602
 30
0.0
 10
71.0705456126
 20
259.973297997
 30
0.0
  0
ENDBLK
  5
399
100
AcDbEntity
  8
0
  6
BYBLOCK
 62
0
100
AcDbBlockEnd
  0
BLOCK
  5
39A
100
AcDbEntity
  8
91511100000_BL7
100
AcDbBlockBegin
  2
91511100000_BL7
 70
64
 10
19.5843651806
 20
89.6435016418
  3
91511100000_BL7
  1

  0
LINE
  5
39B
100
AcDbEntity
  8
91511100000_BL7
100
AcDbLine
 62
7
  6
CONTINUOUS
 10
20.1843651806
 20
85.6435016418
 11
18.9843651806
 21
85.6435016418
  0
LINE
  5
39C
100
AcDbEntity
  8
91511100000_BL7
100
AcDbLine
 62
7
  6
CONTINUOUS
 10
20.1843651806
 20
85.6435016418
 11
20.1843651806
 21
93.6435016418
  0
LINE
  5
39D
100
AcDbEntity
  8
91511100000_BL7
100
AcDbLine
 62
7
  6
CONTINUOUS
 10
20.1843651806
 20
93.6435016418
 11
18.9843651806
 21
93.6435016418
  0
ENDBLK
  5
39E
100
AcDbEntity
  8
0
  6
BYBLOCK
 62
0
100
AcDbBlockEnd
  0
BLOCK
  5
39F
100
AcDbEntity
  8
0
100
AcDbBlockBegin
  2
_FILLED
 70
64
 10
0.0
 20
0.0
  3
_FILLED
  1

  0
SOLID
  5
3A0
100
AcDbEntity
  8
0
  6
BYBLOCK
 62
0
100
AcDbTrace
 10
0.0
 20
0.0
 11
-1.0
 21
0.1428571429
 12
-1.0
 22
-0.1428571429
 13
-1.0
 23
-0.1428571429
  0
ENDBLK
  5
3A1
100
AcDbEntity
  8
0
  6
BYBLOCK
 62
0
100
AcDbBlockEnd
  0
BLOCK
  5
3A2
100
AcDbEntity
  8
0
100
AcDbBlockBegin
 62
2
  6
CONTINUOUS
  2
*D0
 70
65
 10
0.0
 20
0.0
  3
*D0
  1

  0
TEXT
  5
3A3
100
AcDbEntity
  8
0
100
AcDbText
 62
5
  6
CONTINUOUS
 10
42.2593651806
 20
190.4997899407
  7
STANDARD
 40
2.5
  1
74
 50
90.0
 72
5
 11
42.2593651806
 21
194.384548305
100
AcDbText
  0
LINE
  5
3A4
100
AcDbEntity
  8
0
100
AcDbLine
 62
2
  6
CONTINUOUS
 10
20.8824844789
 20
229.4421691228
 11
43.8843651806
 21
229.4421691228
  0
LINE
  5
3A5
100
AcDbEntity
  8
0
100
AcDbLine
 62
2
  6
CONTINUOUS
 10
20.8924741418
 20
155.4421691228
 11
43.8843651806
 21
155.4421691228
  0
LINE
  5
3A6
100
AcDbEntity
  8
0
100
AcDbLine
 62
2
  6
CONTINUOUS
 10
42.8843651806
 20
229.4421691228
 11
42.8843651806
 21
192.4421691228
  0
LINE
  5
3A7
100
AcDbEntity
  8
0
100
AcDbLine
 62
2
  6
CONTINUOUS
 10
42.8843651806
 20
155.4421691228
 11
42.8843651806
 21
192.4421691228
  0
INSERT
  5
3A8
100
AcDbEntity
  8
0
100
AcDbBlockReference
 62
2
  6
CONTINUOUS
  2
_FILLED
 10
42.8843651806
 20
229.4421691228
 41
3.5
 42
3.5
 43
3.5
 50
90.0
  0
INSERT
  5
3A9
100
AcDbEntity
  8
0
100
AcDbBlockReference
 62
2
  6
CONTINUOUS
  2
_FILLED
 10
42.8843651806
 20
155.4421691228
 41
3.5
 42
3.5
 43
3.5
 50
270.0
  0
ENDBLK
  5
3AA
100
AcDbEntity
  8
0
  6
BYBLOCK
 62
0
100
AcDbBlockEnd
  0
BLOCK
  5
3AB
100
AcDbEntity
  8
0
100
AcDbBlockBegin
 62
2
  6
CONTINUOUS
  2
*D1
 70
65
 10
0.0
 20
0.0
  3
*D1
  1

  0
TEXT
  5
3AC
100
AcDbEntity
  8
0
100
AcDbText
 62
5
  6
CONTINUOUS
 10
20.9419859985
 20
115.0671691228
  7
STANDARD
 40
2.5
  1
20
 72
5
 11
24.8267443628
 21
115.0671691228
100
AcDbText
  0
LINE
  5
3AD
100
AcDbEntity
  8
0
100
AcDbLine
 62
2
  6
CONTINUOUS
 10
32.8843651806
 20
174.9297959261
 11
32.8843651806
 21
113.4421691228
  0
LINE
  5
3AE
100
AcDbEntity
  8
0
100
AcDbLine
 62
2
  6
CONTINUOUS
 10
12.8843651806
 20
132.4421691228
 11
12.8843651806
 21
113.4421691228
  0
LINE
  5
3AF
100
AcDbEntity
  8
0
100
AcDbLine
 62
2
  6
CONTINUOUS
 10
32.8843651806
 20
114.4421691228
 11
22.8843651806
 21
114.4421691228
  0
LINE
  5
3B0
100
AcDbEntity
  8
0
100
AcDbLine
 62
2
  6
CONTINUOUS
 10
12.8843651806
 20
114.4421691228
 11
22.8843651806
 21
114.4421691228
  0
INSERT
  5
3B1
100
AcDbEntity
  8
0
100
AcDbBlockReference
 62
2
  6
CONTINUOUS
  2
_FILLED
 10
32.8843651806
 20
114.4421691228
 41
3.5
 42
3.5
 43
3.5
  0
INSERT
  5
3B2
100
AcDbEntity
  8
0
100
AcDbBlockReference
 62
2
  6
CONTINUOUS
  2
_FILLED
 10
12.8843651806
 20
114.4421691228
 41
3.5
 42
3.5
 43
3.5
 50
180.0
  0
ENDBLK
  5
3B3
100
AcDbEntity
  8
0
  6
BYBLOCK
 62
0
100
AcDbBlockEnd
  0
BLOCK
  5
3B4
100
AcDbEntity
  8
0
100
AcDbBlockBegin
 62
2
  6
CONTINUOUS
  2
*D2
 70
65
 10
0.0
 20
0.0
  3
*D2
  1

  0
TEXT
  5
3B5
100
AcDbEntity
  8
0
100
AcDbText
 62
5
  6
CONTINUOUS
 10
81.1281664305
 20
271.0671691228
  7
STANDARD
 40
2.5
  1
24
 72
5
 11
85.0129247948
 21
271.0671691228
100
AcDbText
  0
LINE
  5
3B6
100
AcDbEntity
  8
0
100
AcDbLine
 62
2
  6
CONTINUOUS
 10
71.0705456126
 20
252.4421691228
 11
71.0705456126
 21
271.4421691228
  0
LINE
  5
3B7
100
AcDbEntity
  8
0
100
AcDbLine
 62
2
  6
CONTINUOUS
 10
95.0705456126
 20
252.4421691228
 11
95.0705456126
 21
271.4421691228
  0
LINE
  5
3B8
100
AcDbEntity
  8
0
100
AcDbLine
 62
2
  6
CONTINUOUS
 10
71.0705456126
 20
270.4421691228
 11
83.0705456126
 21
270.4421691228
  0
LINE
  5
3B9
100
AcDbEntity
  8
0
100
AcDbLine
 62
2
  6
CONTINUOUS
 10
95.0705456126
 20
270.4421691228
 11
83.0705456126
 21
270.4421691228
  0
INSERT
  5
3BA
100
AcDbEntity
  8
0
100
AcDbBlockReference
 62
2
  6
CONTINUOUS
  2
_FILLED
 10
71.0705456126
 20
270.4421691228
 41
3.5
 42
3.5
 43
3.5
 50
180.0
  0
INSERT
  5
3BB
100
AcDbEntity
  8
0
100
AcDbBlockReference
 62
2
  6
CONTINUOUS
  2
_FILLED
 10
95.0705456126
 20
270.4421691228
 41
3.5
 42
3.5
 43
3.5
  0
ENDBLK
  5
3BC
100
AcDbEntity
  8
0
  6
BYBLOCK
 62
0
100
AcDbBlockEnd
  0
BLOCK
  5
3BD
100
AcDbEntity
  8
0
100
AcDbBlockBegin
 62
2
  6
CONTINUOUS
  2
*D3
 70
65
 10
0.0
 20
0.0
  3
*D3
  1

  0
TEXT
  5
3BE
100
AcDbEntity
  8
0
100
AcDbText
 62
5
  6
CONTINUOUS
 10
60.4455456126
 20
189.5286003496
  7
STANDARD
 40
2.5
  1
120
 50
90.0
 72
5
 11
60.4455456126
 21
195.3557378961
100
AcDbText
  0
LINE
  5
3BF
100
AcDbEntity
  8
0
100
AcDbLine
 62
2
  6
CONTINUOUS
 10
71.0705456126
 20
132.4421691228
 11
60.0705456126
 21
132.4421691228
  0
LINE
  5
3C0
100
AcDbEntity
  8
0
100
AcDbLine
 62
2
  6
CONTINUOUS
 10
71.0705456126
 20
252.4421691228
 11
60.0705456126
 21
252.4421691228
  0
LINE
  5
3C1
100
AcDbEntity
  8
0
100
AcDbLine
 62
2
  6
CONTINUOUS
 10
61.0705456126
 20
132.4421691228
 11
61.0705456126
 21
192.4421691228
  0
LINE
  5
3C2
100
AcDbEntity
  8
0
100
AcDbLine
 62
2
  6
CONTINUOUS
 10
61.0705456126
 20
252.4421691228
 11
61.0705456126
 21
192.4421691228
  0
INSERT
  5
3C3
100
AcDbEntity
  8
0
100
AcDbBlockReference
 62
2
  6
CONTINUOUS
  2
_FILLED
 10
61.0705456126
 20
132.4421691228
 41
3.5
 42
3.5
 43
3.5
 50
270.0
  0
INSERT
  5
3C4
100
AcDbEntity
  8
0
100
AcDbBlockReference
 62
2
  6
CONTINUOUS
  2
_FILLED
 10
61.0705456126
 20
252.4421691228
 41
3.5
 42
3.5
 43
3.5
 50
90.0
  0
ENDBLK
  5
3C5
100
AcDbEntity
  8
0
  6
BYBLOCK
 62
0
100
AcDbBlockEnd
  0
BLOCK
  5
3C6
100
AcDbEntity
  8
0
100
AcDbBlockBegin
 62
2
  6
CONTINUOUS
  2
*D4
 70
65
 10
0.0
 20
0.0
  3
*D4
  1

  0
TEXT
  5
3C7
100
AcDbEntity
  8
0
100
AcDbText
 62
5
  6
CONTINUOUS
 10
104.4455456126
 20
190.4997899407
  7
STANDARD
 40
2.5
  1
96
 50
90.0
 72
5
 11
104.4455456126
 21
194.384548305
100
AcDbText
  0
LINE
  5
3C8
100
AcDbEntity
  8
0
100
AcDbLine
 62
2
  6
CONTINUOUS
 10
92.0705456126
 20
144.4421691228
 11
106.0705456126
 21
144.4421691228
  0
LINE
  5
3C9
100
AcDbEntity
  8
0
100
AcDbLine
 62
2
  6
CONTINUOUS
 10
92.0705456126
 20
240.4421691228
 11
106.0705456126
 21
240.4421691228
  0
LINE
  5
3CA
100
AcDbEntity
  8
0
100
AcDbLine
 62
2
  6
CONTINUOUS
 10
105.0705456126
 20
144.4421691228
 11
105.0705456126
 21
192.4421691228
  0
LINE
  5
3CB
100
AcDbEntity
  8
0
100
AcDbLine
 62
2
  6
CONTINUOUS
 10
105.0705456126
 20
240.4421691228
 11
105.0705456126
 21
192.4421691228
  0
INSERT
  5
3CC
100
AcDbEntity
  8
0
100
AcDbBlockReference
 62
2
  6
CONTINUOUS
  2
_FILLED
 10
105.0705456126
 20
144.4421691228
 41
3.5
 42
3.5
 43
3.5
 50
270.0
  0
INSERT
  5
3CD
100
AcDbEntity
  8
0
100
AcDbBlockReference
 62
2
  6
CONTINUOUS
  2
_FILLED
 10
105.0705456126
 20
240.4421691228
 41
3.5
 42
3.5
 43
3.5
 50
90.0
  0
ENDBLK
  5
3CE
100
AcDbEntity
  8
0
  6
BYBLOCK
 62
0
100
AcDbBlockEnd
  0
BLOCK
  5
3CF
100
AcDbEntity
  8
0
100
AcDbBlockBegin
 62
2
  6
CONTINUOUS
  2
*D5
 70
65
 10
0.0
 20
0.0
  3
*D5
  1

  0
TEXT
  5
3D0
100
AcDbEntity
  8
0
100
AcDbText
 62
5
  6
CONTINUOUS
 10
42.2593651806
 20
87.7011224596
  7
STANDARD
 40
2.5
  1
17
 50
90.0
 72
5
 11
42.2593651806
 21
91.585880824
100
AcDbText
  0
LINE
  5
3D1
100
AcDbEntity
  8
0
100
AcDbLine
 62
2
  6
CONTINUOUS
 10
17.6843651806
 20
81.1435016418
 11
43.8843651806
 21
81.1435016418
  0
LINE
  5
3D2
100
AcDbEntity
  8
0
100
AcDbLine
 62
2
  6
CONTINUOUS
 10
17.6843651806
 20
98.1435016418
 11
43.8843651806
 21
98.1435016418
  0
LINE
  5
3D3
100
AcDbEntity
  8
0
100
AcDbLine
 62
2
  6
CONTINUOUS
 10
42.8843651806
 20
81.1435016418
 11
42.8843651806
 21
89.6435016418
  0
LINE
  5
3D4
100
AcDbEntity
  8
0
100
AcDbLine
 62
2
  6
CONTINUOUS
 10
42.8843651806
 20
98.1435016418
 11
42.8843651806
 21
89.6435016418
  0
INSERT
  5
3D5
100
AcDbEntity
  8
0
100
AcDbBlockReference
 62
2
  6
CONTINUOUS
  2
_FILLED
 10
42.8843651806
 20
81.1435016418
 41
3.5
 42
3.5
 43
3.5
 50
270.0
  0
INSERT
  5
3D6
100
AcDbEntity
  8
0
100
AcDbBlockReference
 62
2
  6
CONTINUOUS
  2
_FILLED
 10
42.8843651806
 20
98.1435016418
 41
3.5
 42
3.5
 43
3.5
 50
90.0
  0
ENDBLK
  5
3D7
100
AcDbEntity
  8
0
  6
BYBLOCK
 62
0
100
AcDbBlockEnd
  0
BLOCK
  5
3D8
100
AcDbEntity
  8
0
100
AcDbBlockBegin
 62
2
  6
CONTINUOUS
  2
*D6
 70
65
 10
0.0
 20
0.0
  3
*D6
  1

  0
TEXT
  5
3D9
100
AcDbEntity
  8
0
100
AcDbText
 62
5
  6
CONTINUOUS
 10
87.1281664305
 20
115.0671691228
  7
STANDARD
 40
2.5
  1
12
 72
5
 11
91.0129247948
 21
115.0671691228
100
AcDbText
  0
LINE
  5
3DA
100
AcDbEntity
  8
0
100
AcDbLine
 62
2
  6
CONTINUOUS
 10
83.0705456126
 20
135.4421691228
 11
83.0705456126
 21
113.4421691228
  0
LINE
  5
3DB
100
AcDbEntity
  8
0
100
AcDbLine
 62
2
  6
CONTINUOUS
 10
95.0705456126
 20
132.4421691228
 11
95.0705456126
 21
113.4421691228
  0
LINE
  5
3DC
100
AcDbEntity
  8
0
100
AcDbLine
 62
2
  6
CONTINUOUS
 10
83.0705456126
 20
114.4421691228
 11
89.0705456126
 21
114.4421691228
  0
LINE
  5
3DD
100
AcDbEntity
  8
0
100
AcDbLine
 62
2
  6
CONTINUOUS
 10
95.0705456126
 20
114.4421691228
 11
89.0705456126
 21
114.4421691228
  0
INSERT
  5
3DE
100
AcDbEntity
  8
0
100
AcDbBlockReference
 62
2
  6
CONTINUOUS
  2
_FILLED
 10
83.0705456126
 20
114.4421691228
 41
3.5
 42
3.5
 43
3.5
 50
180.0
  0
INSERT
  5
3DF
100
AcDbEntity
  8
0
100
AcDbBlockReference
 62
2
  6
CONTINUOUS
  2
_FILLED
 10
95.0705456126
 20
114.4421691228
 41
3.5
 42
3.5
 43
3.5
  0
ENDBLK
  5
3E0
100
AcDbEntity
  8
0
  6
BYBLOCK
 62
0
100
AcDbBlockEnd
  0
BLOCK
  5
3E1
100
AcDbEntity
  8
0
100
AcDbBlockBegin
 62
2
  6
CONTINUOUS
  2
*D7
 70
65
 10
0.0
 20
0.0
  3
*D7
  1

  0
TEXT
  5
3E2
100
AcDbEntity
  8
0
100
AcDbText
 62
5
  6
CONTINUOUS
 10
15.9131755895
 20
271.0671691228
  7
STANDARD
 40
2.5
  1
8
 72
5
 11
17.8555547717
 21
271.0671691228
100
AcDbText
  0
LINE
  5
3E3
100
AcDbEntity
  8
0
100
AcDbLine
 62
2
  6
CONTINUOUS
 10
12.8843651806
 20
252.4421691228
 11
12.8843651806
 21
271.4421691228
  0
LINE
  5
3E4
100
AcDbEntity
  8
0
100
AcDbLine
 62
2
  6
CONTINUOUS
 10
20.8843651806
 20
252.4421691228
 11
20.8843651806
 21
271.4421691228
  0
LINE
  5
3E5
100
AcDbEntity
  8
0
100
AcDbLine
 62
2
  6
CONTINUOUS
 10
12.8843651806
 20
270.4421691228
 11
5.8843651806
 21
270.4421691228
  0
LINE
  5
3E6
100
AcDbEntity
  8
0
100
AcDbLine
 62
2
  6
CONTINUOUS
 10
5.8843651806
 20
270.4421691228
 11
16.8843651806
 21
270.4421691228
  0
LINE
  5
3E7
100
AcDbEntity
  8
0
100
AcDbLine
 62
2
  6
CONTINUOUS
 10
20.8843651806
 20
270.4421691228
 11
27.8843651806
 21
270.4421691228
  0
LINE
  5
3E8
100
AcDbEntity
  8
0
100
AcDbLine
 62
2
  6
CONTINUOUS
 10
27.8843651806
 20
270.4421691228
 11
16.8843651806
 21
270.4421691228
  0
INSERT
  5
3E9
100
AcDbEntity
  8
0
100
AcDbBlockReference
 62
2
  6
CONTINUOUS
  2
_FILLED
 10
12.8843651806
 20
270.4421691228
 41
3.5
 42
3.5
 43
3.5
  0
INSERT
  5
3EA
100
AcDbEntity
  8
0
100
AcDbBlockReference
 62
2
  6
CONTINUOUS
  2
_FILLED
 10
20.8843651806
 20
270.4421691228
 41
3.5
 42
3.5
 43
3.5
 50
180.0
  0
ENDBLK
  5
3EB
100
AcDbEntity
  8
0
  6
BYBLOCK
 62
0
100
AcDbBlockEnd
  0
BLOCK
  5
3EC
100
AcDbEntity
  8
0
100
AcDbBlockBegin
 62
2
  6
CONTINUOUS
  2
*D8
 70
65
 10
0.0
 20
0.0
  3
*D8
  1

  0
TEXT
  5
3ED
100
AcDbEntity
  8
0
100
AcDbText
 62
5
  6
CONTINUOUS
 10
53.4455456126
 20
189.5286003496
  7
STANDARD
 40
2.5
  1
136
 50
90.0
 72
5
 11
53.4455456126
 21
195.3557378961
100
AcDbText
  0
LINE
  5
3EE
100
AcDbEntity
  8
0
100
AcDbLine
 62
2
  6
CONTINUOUS
 10
71.0705456126
 20
260.4421691228
 11
53.0705456126
 21
260.4421691228
  0
LINE
  5
3EF
100
AcDbEntity
  8
0
100
AcDbLine
 62
2
  6
CONTINUOUS
 10
71.0705456126
 20
124.4421691228
 11
53.0705456126
 21
124.4421691228
  0
LINE
  5
3F0
100
AcDbEntity
  8
0
100
AcDbLine
 62
2
  6
CONTINUOUS
 10
54.0705456126
 20
260.4421691228
 11
54.0705456126
 21
192.4421691228
  0
LINE
  5
3F1
100
AcDbEntity
  8
0
100
AcDbLine
 62
2
  6
CONTINUOUS
 10
54.0705456126
 20
124.4421691228
 11
54.0705456126
 21
192.4421691228
  0
INSERT
  5
3F2
100
AcDbEntity
  8
0
100
AcDbBlockReference
 62
2
  6
CONTINUOUS
  2
_FILLED
 10
54.0705456126
 20
260.4421691228
 41
3.5
 42
3.5
 43
3.5
 50
90.0
  0
INSERT
  5
3F3
100
AcDbEntity
  8
0
100
AcDbBlockReference
 62
2
  6
CONTINUOUS
  2
_FILLED
 10
54.0705456126
 20
124.4421691228
 41
3.5
 42
3.5
 43
3.5
 50
270.0
  0
ENDBLK
  5
3F4
100
AcDbEntity
  8
0
  6
BYBLOCK
 62
0
100
AcDbBlockEnd
  0
ENDSEC
  0
SECTION
  2
ENTITIES
  0
DIMENSION
  5
3F5
100
AcDbEntity
  8
0
100
AcDbDimension
 62
2
  6
CONTINUOUS
  2
*D0
 10
42.8843651806
 20
155.4421691228
 11
42.8843651806
 21
192.4421691228
 70
160
 71
2
 42
74.0
  3
DIMSTYLE_1
100
AcDbAlignedDimension
 13
20.8824844789
 23
229.4421691228
 14
20.8924741418
 24
155.4421691228
 50
270.0
100
AcDbRotatedDimension
  0
DIMENSION
  5
3F6
100
AcDbEntity
  8
0
100
AcDbDimension
 62
2
  6
CONTINUOUS
  2
*D1
 10
12.8843651806
 20
114.4421691228
 11
22.8843651806
 21
114.4421691228
 70
160
 71
2
 42
20.0
  3
DIMSTYLE_2
100
AcDbAlignedDimension
 13
32.8843651806
 23
174.9297959261
 14
12.8843651806
 24
132.4421691228
 50
180.0
100
AcDbRotatedDimension
  0
DIMENSION
  5
3F7
100
AcDbEntity
  8
0
100
AcDbDimension
 62
2
  6
CONTINUOUS
  2
*D2
 10
95.0705456126
 20
270.4421691228
 11
83.0705456126
 21
270.4421691228
 70
160
 71
2
 42
24.0
  3
DIMSTYLE_2
100
AcDbAlignedDimension
 13
71.0705456126
 23
252.4421691228
 14
95.0705456126
 24
252.4421691228
100
AcDbRotatedDimension
  0
DIMENSION
  5
3F8
100
AcDbEntity
  8
0
100
AcDbDimension
 62
2
  6
CONTINUOUS
  2
*D3
 10
61.0705456126
 20
252.4421691228
 11
61.0705456126
 21
192.4421691228
 70
160
 71
2
 42
120.0
  3
DIMSTYLE_1
100
AcDbAlignedDimension
 13
71.0705456126
 23
132.4421691228
 14
71.0705456126
 24
252.4421691228
 50
90.0
100
AcDbRotatedDimension
  0
DIMENSION
  5
3F9
100
AcDbEntity
  8
0
100
AcDbDimension
 62
2
  6
CONTINUOUS
  2
*D4
 10
105.0705456126
 20
240.4421691228
 11
105.0705456126
 21
192.4421691228
 70
160
 71
2
 42
96.0
  3
DIMSTYLE_1
100
AcDbAlignedDimension
 13
92.0705456126
 23
144.4421691228
 14
92.0705456126
 24
240.4421691228
 50
90.0
100
AcDbRotatedDimension
  0
DIMENSION
  5
3FA
100
AcDbEntity
  8
0
100
AcDbDimension
 62
2
  6
CONTINUOUS
  2
*D5
 10
42.8843651806
 20
98.1435016418
 11
42.8843651806
 21
89.6435016418
 70
160
 71
2
 42
17.0
  3
DIMSTYLE_2
100
AcDbAlignedDimension
 13
17.6843651806
 23
81.1435016418
 14
17.6843651806
 24
98.1435016418
 50
90.0
100
AcDbRotatedDimension
  0
DIMENSION
  5
3FB
100
AcDbEntity
  8
0
100
AcDbDimension
 62
2
  6
CONTINUOUS
  2
*D6
 10
95.0705456126
 20
114.4421691228
 11
89.0705456126
 21
114.4421691228
 70
160
 71
2
 42
12.0
  3
DIMSTYLE_2
100
AcDbAlignedDimension
 13
83.0705456126
 23
135.4421691228
 14
95.0705456126
 24
132.4421691228
100
AcDbRotatedDimension
  0
DIMENSION
  5
3FC
100
AcDbEntity
  8
0
100
AcDbDimension
 62
2
  6
CONTINUOUS
  2
*D7
 10
20.8843651806
 20
270.4421691228
 11
16.8843651806
 21
270.4421691228
 70
160
 71
2
 42
8.0
  3
DIMSTYLE_2
100
AcDbAlignedDimension
 13
12.8843651806
 23
252.4421691228
 14
20.8843651806
 24
252.4421691228
100
AcDbRotatedDimension
  0
DIMENSION
  5
3FD
100
AcDbEntity
  8
0
100
AcDbDimension
 62
2
  6
CONTINUOUS
  2
*D8
 10
54.0705456126
 20
124.4421691228
 11
54.0705456126
 21
192.4421691228
 70
160
 71
2
 42
136.0
  3
DIMSTYLE_3
100
AcDbAlignedDimension
 13
71.0705456126
 23
260.4421691228
 14
71.0705456126
 24
124.4421691228
 50
270.0
100
AcDbRotatedDimension
  0
TEXT
  5
3FE
100
AcDbEntity
  8
0
100
AcDbText
 62
5
  6
CONTINUOUS
 10
16.9585096891
 20
68.2446593393
  7
STANDARD
 40
5.0
  1
A-A
 72
5
 11
28.5756100609
 21
68.2446593393
100
AcDbText
  0
INSERT
  5
3FF
100
AcDbEntity
  8
0
100
AcDbBlockReference
 62
2
  6
CONTINUOUS
  2
SYMBOL_0_BL8
 10
31.0000000239
 20
34.9999999785
  0
LINE
  5
400
100
AcDbEntity
  8
S-AXIS
100
AcDbLine
 62
7
  6
CENTER
 10
98.0705456126
 20
192.4421691228
 11
68.0705456126
 21
192.4421691228
  0
LINE
  5
401
100
AcDbEntity
  8
S-AXIS
100
AcDbLine
 62
7
  6
CENTER
 10
35.8843651806
 20
192.4421691228
 11
9.8843651806
 21
192.4421691228
  0
LINE
  5
402
100
AcDbEntity
  8
S-AXIS
100
AcDbLine
 62
7
  6
CENTER
 10
35.8843651806
 20
89.6435016418
 11
9.8843651806
 21
89.6435016418
  0
INSERT
  5
403
100
AcDbEntity
  8
HATCHING_BL0
100
AcDbBlockReference
  2
HATCHING_BL0
 10
19.8388936265
 20
239.9677093067
  0
INSERT
  5
404
100
AcDbEntity
  8
93773532000_O_BL1
100
AcDbBlockReference
  2
93773532000_O_BL1
 10
53.122095064
 20
115.5428353823
  0
INSERT
  5
405
100
AcDbEntity
  8
94823302000_BL2
100
AcDbBlockReference
  2
94823302000_BL2
 10
53.9774553966
 20
165.0428353823
  0
INSERT
  5
406
100
AcDbEntity
  8
94528901000_M_BL3
100
AcDbBlockReference
  2
94528901000_M_BL3
 10
54.7288525712
 20
162.3421691228
  0
INSERT
  5
407
100
AcDbEntity
  8
95056301000_BL4
100
AcDbBlockReference
  2
95056301000_BL4
 10
50.8274553957
 20
156.4178353823
  0
INSERT
  5
408
100
AcDbEntity
  8
94528901000_M_BL5
100
AcDbBlockReference
  2
94528901000_M_BL5
 10
54.3774553966
 20
157.3428353823
  0
INSERT
  5
409
100
AcDbEntity
  8
93773532000_O_BL6
100
AcDbBlockReference
  2
93773532000_O_BL6
 10
53.1874429318
 20
245.9421691228
  0
INSERT
  5
40A
100
AcDbEntity
  8
91511100000_BL7
100
AcDbBlockReference
  2
91511100000_BL7
 10
19.5843651806
 20
89.6435016418
  0
ENDSEC
  0
SECTION
  2
OBJECTS
  0
DICTIONARY
  5
C
100
AcDbDictionary
280
0
281
1
  3
ACAD_GROUP
350
D
  3
ACAD_MLINESTYLE
350
17
  3
ACAD_LAYOUT
350
1A
  3
ACAD_PLOTSETTINGS
350
19
  3
ACAD_PLOTSTYLENAME
350
E
  0
DICTIONARY
  5
D
102
{ACAD_REACTORS
330
C
102
}
100
AcDbDictionary
280
0
281
1
  0
ACDBDICTIONARYWDFLT
  5
E
102
{ACAD_REACTORS
330
C
102
}
100
AcDbDictionary
281
1
  3
Normal
350
F
100
AcDbDictionaryWithDefault
340
F
  0
DICTIONARY
  5
17
102
{ACAD_REACTORS
330
C
102
}
100
AcDbDictionary
280
0
281
1
  3
Standard
350
18
  0
DICTIONARY
  5
19
102
{ACAD_REACTORS
330
C
102
}
100
AcDbDictionary
281
1
  0
DICTIONARY
  5
1A
102
{ACAD_REACTORS
330
C
102
}
100
AcDbDictionary
281
1
  3
Model
350
40B
  3
Layout1
350
40C
  0
ACDBPLACEHOLDER
  5
F
102
{ACAD_REACTORS
330
E
102
}
  0
MLINESTYLE
  5
18
102
{ACAD_REACTORS
330
17
102
}
100
AcDbMlineStyle
  2
STANDARD
 70
0
  3

 62
256
 51
90.0
 52
90.0
 71
2
 49
0.5
 62
256
  6
BYLAYER
 49
-0.5
 62
256
  6
BYLAYER
  0
LAYOUT
  5
40B
102
{ACAD_REACTORS
330
1A
102
}
100
AcDbPlotSettings
  1

  2
none_device
  4

  6

 40
0.0
 41
0.0
 42
0.0
 43
0.0
 44
115.0
 45
285.0
 46
0.0
 47
0.0
 48
0.0
 49
0.0
140
0.0
141
0.0
142
1.0
143
1.0
 70
1024
 72
1
 73
0
 74
0
  7

 75
0
147
1.0
148
0.0
149
0.0
100
AcDbLayout
  1
Model
 70
0
 71
0
 10
0.0
 20
0.0
 11
115.0
 21
285.0
 12
0.0
 22
0.0
 32
0.0
 14
0.0
 24
0.0
 34
0.0
 15
0.0
 25
0.0
 35
0.0
146
0.0
 13
0.0
 23
0.0
 33
0.0
 16
1.0
 26
0.0
 36
0.0
 17
0.0
 27
1.0
 37
0.0
 76
0
330
213
345
0
346
0
  0
LAYOUT
  5
40C
102
{ACAD_REACTORS
330
1A
102
}
100
AcDbPlotSettings
  1

  2
none_device
  4

  6

 40
0.0
 41
0.0
 42
0.0
 43
0.0
 44
115.0
 45
285.0
 46
0.0
 47
0.0
 48
0.0
 49
0.0
140
0.0
141
0.0
142
1.0
143
1.0
 70
0
 72
1
 73
0
 74
0
  7

 75
0
147
1.0
148
0.0
149
0.0
100
AcDbLayout
  1
Layout1
 70
0
 71
1
 10
0.0
 20
0.0
 11
115.0
 21
285.0
 12
0.0
 22
0.0
 32
0.0
 14
0.0
 24
0.0
 34
0.0
 15
0.0
 25
0.0
 35
0.0
146
0.0
 13
0.0
 23
0.0
 33
0.0
 16
1.0
 26
0.0
 36
0.0
 17
0.0
 27
1.0
 37
0.0
 76
0
330
214
345
0
346
0
  0
ENDSEC
  0
EOF
