  0
SECTION
  2
HEADER
  9
$ACADVER
  1
AC1009
  9
$INSBASE
 10
0
 20
0
  9
$EXTMIN
 10
-31.75
 20
-29.75
  9
$EXTMAX
 10
97.285486186349
 20
250
  9
$LIMMIN
 10
-31.75
 20
-29.75
  9
$LIMMAX
 10
97.285486186349
 20
250
  9
$VIEWCTR
 10
10
 20
10
  9
$VIEWSIZE
 40
10
  9
$SNAPMODE
 70
0
  9
$SNAPUNIT
 10
1
 20
1
  9
$SNAPBASE
 10
0
 20
0
  9
$SNAPANG
 50
0
  9
$SNAPSTYLE
 70
0
  9
$SNAPISOPAIR
 70
0
  9
$GRIDMODE
 70
0
  9
$GRIDUNIT
 10
0
 20
0
  9
$ORTHOMODE
 70
0
  9
$REGENMODE
 70
1
  9
$FILLMODE
 70
1
  9
$QTEXTMODE
 70
0
  9
$DRAGMODE
 70
2
  9
$LTSCALE
 40
1
  9
$OSMODE
 70
0
  9
$ATTMODE
 70
1
  9
$TEXTSIZE
 40
3.5
  9
$TRACEWID
 40
0.5
  9
$TEXTSTYLE
  7
STANDARD
  9
$CLAYER
  8
0
  9
$CELTYPE
  6
BYLAYER
  9
$CECOLOR
 62
256
  9
$DIMSCALE
 40
1
  9
$DIMASZ
 40
0.18
  9
$DIMEXO
 40
0.0625
  9
$DIMDLI
 40
0.38
  9
$DIMRND
 40
0
  9
$DIMDLE
 40
0
  9
$DIMEXE
 40
0.18
  9
$DIMTP
 40
0
  9
$DIMTM
 40
0
  9
$DIMTXT
 40
0.18
  9
$DIMCEN
 40
0.09
  9
$DIMTSZ
 40
0
  9
$DIMTOL
 70
0
  9
$DIMLIM
 70
0
  9
$DIMTIH
 70
1
  9
$DIMTOH
 70
1
  9
$DIMSE1
 70
0
  9
$DIMSE2
 70
0
  9
$DIMTAD
 70
0
  9
$DIMZIN
 70
0
  9
$DIMBLK
  1

  9
$DIMASO
 70
1
  9
$DIMSHO
 70
1
  9
$DIMPOST
  1

  9
$DIMAPOST
  1

  9
$DIMALT
 70
0
  9
$DIMALTD
 70
2
  9
$DIMALTF
 40
25.4
  9
$DIMLFAC
 40
1
  9
$DIMTOFL
 70
0
  9
$DIMTVP
 40
0
  9
$DIMTIX
 70
0
  9
$DIMSOXD
 70
0
  9
$DIMSAH
 70
0
  9
$DIMBLK1
  1

  9
$DIMBLK2
  1

  9
$DIMSTYLE
  2
*UNNAMED
  9
$DIMCLRD
 70
0
  9
$DIMCLRE
 70
0
  9
$DIMCLRT
 70
0
  9
$DIMTFAC
 40
1
  9
$DIMGAP
 40
0.09
  9
$LUNITS
 70
2
  9
$LUPREC
 70
4
  9
$AXISMODE
 70
0
  9
$AXISUNIT
 10
0
 20
0
  9
$SKETCHINC
 40
0.1
  9
$FILLETRAD
 40
2
  9
$AUNITS
 70
0
  9
$AUPREC
 70
0
  9
$MENU
  1
ACAD
  9
$ELEVATION
 40
0
  9
$THICKNESS
 40
0
  9
$VIEWDIR
 10
0
 20
0
 30
1
  9
$LIMCHECK
 70
0
  9
$BLIPMODE
 70
1
  9
$CHAMFERA
 40
0
  9
$CHAMFERB
 40
0
  9
$FASTZOOM
 70
1
  9
$SKPOLY
 70
0
  9
$ANGBASE
 50
0
  9
$ANGDIR
 70
0
  9
$PDMODE
 70
0
  9
$PDSIZE
 40
0
  9
$PLINEWID
 40
0
  9
$COORDS
 70
2
  0
ENDSEC
  0
SECTION
  2
TABLES
  0
TABLE
  2
DIMSTYLE
 70
2
  0
DIMSTYLE
  2
DMST_1
 70
0
  3

  4

  5

  6

  7

 40
1
 41
2.45
 42
0
 43
7
 44
2
 45
0
 46
0
 47
0
 48
0
140
3.5
141
0
142
0
143
25.4
144
1
145
0
146
1
147
0.09
 71
0
 72
0
 73
0
 74
0
 75
0
 76
0
 77
1
 78
9
170
0
171
2
172
0
173
0
174
0
175
0
176
1
177
1
178
3
  0
DIMSTYLE
  2
DMST_2
 70
0
  3

  4

  5

  6

  7

 40
1
 41
2.45
 42
0
 43
7
 44
2
 45
0
 46
0
 47
0
 48
0
140
3.5
141
0
142
0
143
25.4
144
1
145
0
146
1
147
0.09
 71
0
 72
0
 73
0
 74
0
 75
0
 76
0
 77
1
 78
9
170
0
171
2
172
1
173
0
174
0
175
0
176
1
177
1
178
3
  0
ENDTAB
  0
TABLE
  2
LTYPE
 70
9
  0
LTYPE
  2
CONTINUOUS
 70
64
  3
Solid line
 72
65
 73
0
 40
0
  0
LTYPE
  2
BORDER
 70
64
  3
__ __ . __ __ .
 72
65
 73
6
 40
12.88322368421053
 49
3.680921052631579
 49
-1.840460526315789
 49
3.680921052631579
 49
-1.840460526315789
 49
0
 49
-1.840460526315789
  0
LTYPE
  2
CENTER
 70
64
  3
____ _ ____ _
 72
65
 73
4
 40
14.72368421052632
 49
9.202302631578947
 49
-1.840460526315789
 49
1.840460526315789
 49
-1.840460526315789
  0
LTYPE
  2
DASHDOT
 70
64
  3
__ . __ . __ .
 72
65
 73
4
 40
7.361842105263158
 49
3.680921052631579
 49
-1.840460526315789
 49
0
 49
-1.840460526315789
  0
LTYPE
  2
DASHED
 70
64
  3
__ __ __ __ __
 72
65
 73
2
 40
5.521381578947368
 49
3.680921052631579
 49
-1.840460526315789
  0
LTYPE
  2
DIVIDE
 70
64
  3
__ . . __ . . 
 72
65
 73
6
 40
9.202302631578947
 49
3.680921052631579
 49
-1.840460526315789
 49
0
 49
-1.840460526315789
 49
0
 49
-1.840460526315789
  0
LTYPE
  2
DOT
 70
64
  3
..............
 72
65
 73
4
 40
3.680921052631579
 49
0
 49
-1.840460526315789
 49
0
 49
-1.840460526315789
  0
LTYPE
  2
HIDDEN
 70
64
  3
_ _ _ _ _ _ _
 72
65
 73
2
 40
2.760690789473684
 49
1.840460526315789
 49
-0.9202302631578947
  0
LTYPE
  2
PHANTOM
 70
64
  3
_____ _ _ _____ _ _ 
 72
65
 73
6
 40
18.40460526315789
 49
9.202302631578947
 49
-1.840460526315789
 49
1.840460526315789
 49
-1.840460526315789
 49
1.840460526315789
 49
-1.840460526315789
  0
ENDTAB
  0
TABLE
  2
LAYER
 70
3
  0
LAYER
  2
1
 70
0
 62
7
  6
CONTINUOUS
  0
LAYER
  2
0
 70
0
 62
7
  6
CONTINUOUS
  0
ENDTAB
  0
TABLE
  2
STYLE
 70
4
  0
STYLE
  2
STANDARD
 70
0
 40
0
 41
1
 50
0
 71
0
 42
3.5
  3
txt
  4

  0
STYLE
  2
SIMPLEX
 70
0
 40
0
 41
1
 50
0
 71
0
 42
3.5
  3
simplex
  4

  0
STYLE
  2
COMPLEX
 70
0
 40
0
 41
1
 50
0
 71
0
 42
3.5
  3
complex
  4

  0
STYLE
  2
ITALIC
 70
0
 40
0
 41
1
 50
0
 71
0
 42
3.5
  3
italic
  4

  0
ENDTAB
  0
TABLE
  2
VIEW
 70
0
  0
ENDTAB
  0
ENDSEC
  0
SECTION
  2
BLOCKS
  0
BLOCK
  8
1
  2
*D0
 70
1
 10
0
 20
0
 30
0
  0
LINE
  8
1
 62
1
 10
3.999999999999984
 20
72.25
 30
0
 11
22
 21
72.25
 31
0
  0
LINE
  8
1
 62
1
 10
22
 20
32.5
 30
0
 11
22
 21
74.25
 31
0
  0
LINE
  8
1
 62
1
 10
3.999999999999984
 20
32.5
 30
0
 11
3.999999999999984
 21
74.25
 31
0
  0
LINE
  8
1
 62
1
 10
3.999999999999984
 20
72.25
 30
0
 11
6.449999999999984
 21
72.5685
 31
0
  0
LINE
  8
1
 62
1
 10
6.449999999999984
 20
72.5685
 30
0
 11
6.449999999999984
 21
71.9315
 31
0
  0
LINE
  8
1
 62
1
 10
6.449999999999984
 20
71.9315
 30
0
 11
3.999999999999984
 21
72.25
 31
0
  0
LINE
  8
1
 62
1
 10
22
 20
72.25
 30
0
 11
19.55
 21
71.9315
 31
0
  0
LINE
  8
1
 62
1
 10
19.55
 20
71.9315
 30
0
 11
19.55
 21
72.5685
 31
0
  0
LINE
  8
1
 62
1
 10
19.55
 20
72.5685
 30
0
 11
22
 21
72.25
 31
0
  0
TEXT
  8
1
 62
3
 10
10.89999999999999
 20
73.25
 30
0
 40
3.5
  1
18
 41
0.9
  0
ENDBLK
  8
0
  0
BLOCK
  8
1
  2
*D1
 70
1
 10
0
 20
0
 30
0
  0
LINE
  8
1
 62
1
 10
26
 20
72.25
 30
0
 11
36.05
 21
72.25
 31
0
  0
LINE
  8
1
 62
1
 10
22
 20
72.25
 30
0
 11
26
 21
72.25
 31
0
  0
LINE
  8
1
 62
1
 10
17.1
 20
72.25
 30
0
 11
22
 21
72.25
 31
0
  0
LINE
  8
1
 62
1
 10
26
 20
0
 30
0
 11
26
 21
74.25
 31
0
  0
LINE
  8
1
 62
1
 10
22
 20
32.5
 30
0
 11
22
 21
74.25
 31
0
  0
LINE
  8
1
 62
1
 10
22
 20
72.25
 30
0
 11
19.55
 21
71.9315
 31
0
  0
LINE
  8
1
 62
1
 10
19.55
 20
71.9315
 30
0
 11
19.55
 21
72.5685
 31
0
  0
LINE
  8
1
 62
1
 10
19.55
 20
72.5685
 30
0
 11
22
 21
72.25
 31
0
  0
LINE
  8
1
 62
1
 10
26
 20
72.25
 30
0
 11
28.45
 21
72.5685
 31
0
  0
LINE
  8
1
 62
1
 10
28.45
 20
72.5685
 30
0
 11
28.45
 21
71.9315
 31
0
  0
LINE
  8
1
 62
1
 10
28.45
 20
71.9315
 30
0
 11
26
 21
72.25
 31
0
  0
TEXT
  8
1
 62
3
 10
33.95
 20
73.25
 30
0
 40
3.5
  1
4
 41
0.9
  0
ENDBLK
  8
0
  0
BLOCK
  8
1
  2
*D2
 70
1
 10
0
 20
0
 30
0
  0
LINE
  8
1
 62
1
 10
0
 20
72.25
 30
0
 11
-11.05
 21
72.25
 31
0
  0
LINE
  8
1
 62
1
 10
0
 20
72.25
 30
0
 11
3.999999999999989
 21
72.25
 31
0
  0
LINE
  8
1
 62
1
 10
8.899999999999991
 20
72.25
 30
0
 11
3.999999999999989
 21
72.25
 31
0
  0
LINE
  8
1
 62
1
 10
3.999999999999989
 20
32.5
 30
0
 11
3.999999999999989
 21
74.25
 31
0
  0
LINE
  8
1
 62
1
 10
0
 20
0
 30
0
 11
0
 21
74.25
 31
0
  0
LINE
  8
1
 62
1
 10
0
 20
72.25
 30
0
 11
-2.45
 21
71.9315
 31
0
  0
LINE
  8
1
 62
1
 10
-2.45
 20
71.9315
 30
0
 11
-2.45
 21
72.5685
 31
0
  0
LINE
  8
1
 62
1
 10
-2.45
 20
72.5685
 30
0
 11
0
 21
72.25
 31
0
  0
LINE
  8
1
 62
1
 10
3.999999999999989
 20
72.25
 30
0
 11
6.44999999999999
 21
72.5685
 31
0
  0
LINE
  8
1
 62
1
 10
6.44999999999999
 20
72.5685
 30
0
 11
6.44999999999999
 21
71.9315
 31
0
  0
LINE
  8
1
 62
1
 10
6.44999999999999
 20
71.9315
 30
0
 11
3.999999999999989
 21
72.25
 31
0
  0
TEXT
  8
1
 62
3
 10
-11.05
 20
73.25
 30
0
 40
3.5
  1
4
 41
0.9
  0
ENDBLK
  8
0
  0
BLOCK
  8
1
  2
*D3
 70
1
 10
0
 20
0
 30
0
  0
LINE
  8
1
 62
1
 10
42.75
 20
220
 30
0
 11
42.75
 21
250
 31
0
  0
LINE
  8
1
 62
1
 10
26
 20
250
 30
0
 11
44.75
 21
250
 31
0
  0
LINE
  8
1
 62
1
 10
19.5
 20
220
 30
0
 11
44.75
 21
220
 31
0
  0
LINE
  8
1
 62
1
 10
42.75
 20
220
 30
0
 11
42.4315
 21
222.45
 31
0
  0
LINE
  8
1
 62
1
 10
42.4315
 20
222.45
 30
0
 11
43.0685
 21
222.45
 31
0
  0
LINE
  8
1
 62
1
 10
43.0685
 20
222.45
 30
0
 11
42.75
 21
220
 31
0
  0
LINE
  8
1
 62
1
 10
42.75
 20
250
 30
0
 11
43.0685
 21
247.55
 31
0
  0
LINE
  8
1
 62
1
 10
43.0685
 20
247.55
 30
0
 11
42.4315
 21
247.55
 31
0
  0
LINE
  8
1
 62
1
 10
42.4315
 20
247.55
 30
0
 11
42.75
 21
250
 31
0
  0
TEXT
  8
1
 62
3
 10
41.75
 20
232.375
 30
0
 40
3.5
  1
30
 50
90
 41
0.9
  0
ENDBLK
  8
0
  0
BLOCK
  8
1
  2
*D4
 70
1
 10
0
 20
0
 30
0
  0
LINE
  8
1
 62
1
 10
42.75
 20
30
 30
0
 11
42.75
 21
220
 31
0
  0
LINE
  8
1
 62
1
 10
19.5
 20
220
 30
0
 11
44.75
 21
220
 31
0
  0
LINE
  8
1
 62
1
 10
19.5
 20
30
 30
0
 11
44.75
 21
30
 31
0
  0
LINE
  8
1
 62
1
 10
42.75
 20
30
 30
0
 11
42.4315
 21
32.45
 31
0
  0
LINE
  8
1
 62
1
 10
42.4315
 20
32.45
 30
0
 11
43.0685
 21
32.45
 31
0
  0
LINE
  8
1
 62
1
 10
43.0685
 20
32.45
 30
0
 11
42.75
 21
30
 31
0
  0
LINE
  8
1
 62
1
 10
42.75
 20
220
 30
0
 11
43.0685
 21
217.55
 31
0
  0
LINE
  8
1
 62
1
 10
43.0685
 20
217.55
 30
0
 11
42.4315
 21
217.55
 31
0
  0
LINE
  8
1
 62
1
 10
42.4315
 20
217.55
 30
0
 11
42.75
 21
220
 31
0
  0
TEXT
  8
1
 62
3
 10
41.75
 20
121.325
 30
0
 40
3.5
  1
190
 50
90
 41
0.9
  0
ENDBLK
  8
0
  0
BLOCK
  8
1
  2
*D5
 70
1
 10
0
 20
0
 30
0
  0
LINE
  8
1
 62
1
 10
42.75
 20
0
 30
0
 11
42.75
 21
30
 31
0
  0
LINE
  8
1
 62
1
 10
19.5
 20
30
 30
0
 11
44.75
 21
30
 31
0
  0
LINE
  8
1
 62
1
 10
26
 20
0
 30
0
 11
44.75
 21
0
 31
0
  0
LINE
  8
1
 62
1
 10
42.75
 20
0
 30
0
 11
42.4315
 21
2.45
 31
0
  0
LINE
  8
1
 62
1
 10
42.4315
 20
2.45
 30
0
 11
43.0685
 21
2.45
 31
0
  0
LINE
  8
1
 62
1
 10
43.0685
 20
2.45
 30
0
 11
42.75
 21
0
 31
0
  0
LINE
  8
1
 62
1
 10
42.75
 20
30
 30
0
 11
43.0685
 21
27.55
 31
0
  0
LINE
  8
1
 62
1
 10
43.0685
 20
27.55
 30
0
 11
42.4315
 21
27.55
 31
0
  0
LINE
  8
1
 62
1
 10
42.4315
 20
27.55
 30
0
 11
42.75
 21
30
 31
0
  0
TEXT
  8
1
 62
3
 10
41.75
 20
12.375
 30
0
 40
3.5
  1
30
 50
90
 41
0.9
  0
ENDBLK
  8
0
  0
BLOCK
  8
1
  2
*D6
 70
1
 10
0
 20
0
 30
0
  0
LINE
  8
1
 62
1
 10
-27.25
 20
0
 30
0
 11
-27.25
 21
250
 31
0
  0
LINE
  8
1
 62
1
 10
-1.06581410364015e-14
 20
250
 30
0
 11
-29.25
 21
250
 31
0
  0
LINE
  8
1
 62
1
 10
0
 20
0
 30
0
 11
-29.25
 21
0
 31
0
  0
LINE
  8
1
 62
1
 10
-27.25
 20
250
 30
0
 11
-26.9315
 21
247.55
 31
0
  0
LINE
  8
1
 62
1
 10
-26.9315
 20
247.55
 30
0
 11
-27.5685
 21
247.55
 31
0
  0
LINE
  8
1
 62
1
 10
-27.5685
 20
247.55
 30
0
 11
-27.25
 21
250
 31
0
  0
LINE
  8
1
 62
1
 10
-27.25
 20
0
 30
0
 11
-27.5685
 21
2.45
 31
0
  0
LINE
  8
1
 62
1
 10
-27.5685
 20
2.45
 30
0
 11
-26.9315
 21
2.45
 31
0
  0
LINE
  8
1
 62
1
 10
-26.9315
 20
2.45
 30
0
 11
-27.25
 21
0
 31
0
  0
TEXT
  8
1
 62
3
 10
-28.25
 20
120.8
 30
0
 40
3.5
  1
250
 50
90
 41
0.9
  0
ENDBLK
  8
0
  0
BLOCK
  8
1
  2
*D7
 70
1
 10
0
 20
0
 30
0
  0
LINE
  8
1
 62
1
 10
-17.25
 20
12.5
 30
0
 11
-17.25
 21
237.5
 31
0
  0
LINE
  8
1
 62
1
 10
5
 20
237.5
 30
0
 11
-19.25
 21
237.5
 31
0
  0
LINE
  8
1
 62
1
 10
5
 20
12.5
 30
0
 11
-19.25
 21
12.5
 31
0
  0
LINE
  8
1
 62
1
 10
-17.25
 20
12.5
 30
0
 11
-17.5685
 21
14.95
 31
0
  0
LINE
  8
1
 62
1
 10
-17.5685
 20
14.95
 30
0
 11
-16.9315
 21
14.95
 31
0
  0
LINE
  8
1
 62
1
 10
-16.9315
 20
14.95
 30
0
 11
-17.25
 21
12.5
 31
0
  0
LINE
  8
1
 62
1
 10
-17.25
 20
237.5
 30
0
 11
-16.9315
 21
235.05
 31
0
  0
LINE
  8
1
 62
1
 10
-16.9315
 20
235.05
 30
0
 11
-17.5685
 21
235.05
 31
0
  0
LINE
  8
1
 62
1
 10
-17.5685
 20
235.05
 30
0
 11
-17.25
 21
237.5
 31
0
  0
TEXT
  8
1
 62
3
 10
-18.25
 20
120.8
 30
0
 40
3.5
  1
225
 50
90
 41
0.9
  0
ENDBLK
  8
0
  0
BLOCK
  8
1
  2
*D8
 70
1
 10
0
 20
0
 30
0
  0
LINE
  8
1
 62
1
 10
-17.25
 20
0
 30
0
 11
-17.25
 21
12.5
 31
0
  0
LINE
  8
1
 62
1
 10
5
 20
12.5
 30
0
 11
-19.25
 21
12.5
 31
0
  0
LINE
  8
1
 62
1
 10
0
 20
0
 30
0
 11
-19.25
 21
0
 31
0
  0
LINE
  8
1
 62
1
 10
-17.25
 20
0
 30
0
 11
-17.5685
 21
2.45
 31
0
  0
LINE
  8
1
 62
1
 10
-17.5685
 20
2.45
 30
0
 11
-16.9315
 21
2.45
 31
0
  0
LINE
  8
1
 62
1
 10
-16.9315
 20
2.45
 30
0
 11
-17.25
 21
0
 31
0
  0
LINE
  8
1
 62
1
 10
-17.25
 20
12.5
 30
0
 11
-16.9315
 21
10.05
 31
0
  0
LINE
  8
1
 62
1
 10
-16.9315
 20
10.05
 30
0
 11
-17.5685
 21
10.05
 31
0
  0
LINE
  8
1
 62
1
 10
-17.5685
 20
10.05
 30
0
 11
-17.25
 21
12.5
 31
0
  0
TEXT
  8
1
 62
3
 10
-18.6
 20
1.962499999999999
 30
0
 40
3.5
  1
12,5
 50
90
 41
0.9
  0
ENDBLK
  8
0
  0
BLOCK
  8
1
  2
*D9
 70
1
 10
0
 20
0
 30
0
  0
LINE
  8
1
 62
1
 10
-17.25
 20
237.5
 30
0
 11
-17.25
 21
250
 31
0
  0
LINE
  8
1
 62
1
 10
-1.06581410364015e-14
 20
250
 30
0
 11
-19.25
 21
250
 31
0
  0
LINE
  8
1
 62
1
 10
5
 20
237.5
 30
0
 11
-19.25
 21
237.5
 31
0
  0
LINE
  8
1
 62
1
 10
-17.25
 20
237.5
 30
0
 11
-17.5685
 21
239.95
 31
0
  0
LINE
  8
1
 62
1
 10
-17.5685
 20
239.95
 30
0
 11
-16.9315
 21
239.95
 31
0
  0
LINE
  8
1
 62
1
 10
-16.9315
 20
239.95
 30
0
 11
-17.25
 21
237.5
 31
0
  0
LINE
  8
1
 62
1
 10
-17.25
 20
250
 30
0
 11
-16.9315
 21
247.55
 31
0
  0
LINE
  8
1
 62
1
 10
-16.9315
 20
247.55
 30
0
 11
-17.5685
 21
247.55
 31
0
  0
LINE
  8
1
 62
1
 10
-17.5685
 20
247.55
 30
0
 11
-17.25
 21
250
 31
0
  0
TEXT
  8
1
 62
3
 10
-18.6
 20
239.4625
 30
0
 40
3.5
  1
12,5
 50
90
 41
0.9
  0
ENDBLK
  8
0
  0
BLOCK
  8
1
  2
*D10
 70
1
 10
0
 20
0
 30
0
  0
LINE
  8
1
 62
1
 10
0
 20
-17.75
 30
0
 11
13
 21
-17.75
 31
0
  0
LINE
  8
1
 62
1
 10
13
 20
3
 30
0
 11
13
 21
-19.75
 31
0
  0
LINE
  8
1
 62
1
 10
0
 20
0
 30
0
 11
0
 21
-19.75
 31
0
  0
LINE
  8
1
 62
1
 10
0
 20
-17.75
 30
0
 11
2.45
 21
-17.4315
 31
0
  0
LINE
  8
1
 62
1
 10
2.45
 20
-17.4315
 30
0
 11
2.45
 21
-18.0685
 31
0
  0
LINE
  8
1
 62
1
 10
2.45
 20
-18.0685
 30
0
 11
0
 21
-17.75
 31
0
  0
LINE
  8
1
 62
1
 10
13
 20
-17.75
 30
0
 11
10.55
 21
-18.0685
 31
0
  0
LINE
  8
1
 62
1
 10
10.55
 20
-18.0685
 30
0
 11
10.55
 21
-17.4315
 31
0
  0
LINE
  8
1
 62
1
 10
10.55
 20
-17.4315
 30
0
 11
13
 21
-17.75
 31
0
  0
TEXT
  8
1
 62
3
 10
4.4
 20
-16.75
 30
0
 40
3.5
  1
13
 41
0.9
  0
ENDBLK
  8
0
  0
BLOCK
  8
1
  2
*D11
 70
1
 10
0
 20
0
 30
0
  0
LINE
  8
1
 62
1
 10
0
 20
-27.75
 30
0
 11
26
 21
-27.75
 31
0
  0
LINE
  8
1
 62
1
 10
26
 20
0
 30
0
 11
26
 21
-29.75
 31
0
  0
LINE
  8
1
 62
1
 10
0
 20
0
 30
0
 11
0
 21
-29.75
 31
0
  0
LINE
  8
1
 62
1
 10
0
 20
-27.75
 30
0
 11
2.45
 21
-27.4315
 31
0
  0
LINE
  8
1
 62
1
 10
2.45
 20
-27.4315
 30
0
 11
2.45
 21
-28.0685
 31
0
  0
LINE
  8
1
 62
1
 10
2.45
 20
-28.0685
 30
0
 11
0
 21
-27.75
 31
0
  0
LINE
  8
1
 62
1
 10
26
 20
-27.75
 30
0
 11
23.55
 21
-28.0685
 31
0
  0
LINE
  8
1
 62
1
 10
23.55
 20
-28.0685
 30
0
 11
23.55
 21
-27.4315
 31
0
  0
LINE
  8
1
 62
1
 10
23.55
 20
-27.4315
 30
0
 11
26
 21
-27.75
 31
0
  0
TEXT
  8
1
 62
3
 10
10.375
 20
-26.75
 30
0
 40
3.5
  1
26
 41
0.9
  0
ENDBLK
  8
0
  0
BLOCK
  8
1
  2
*D12
 70
1
 10
0
 20
0
 30
0
  0
LINE
  8
1
 62
1
 10
21.42909379414344
 20
30.90984367642761
 30
0
 11
9.020901850924059
 21
41.13794401167925
 31
0
  0
LINE
  8
1
 62
1
 10
21.42909379414344
 20
30.90984367642761
 30
0
 11
19.33599596025974
 21
32.22243032415468
 31
0
  0
LINE
  8
1
 62
1
 10
19.33599596025974
 20
32.22243032415468
 30
0
 11
19.74116779150599
 21
32.71396342290242
 31
0
  0
LINE
  8
1
 62
1
 10
19.74116779150599
 20
32.71396342290242
 30
0
 11
21.42909379414344
 21
30.90984367642761
 31
0
  0
TEXT
  8
1
 62
3
 10
13.12046383981413
 20
39.50819203691508
 30
0
 40
3.5
  1
2,5
 50
320.5011650897316
 41
0.9
  0
TEXT
  8
1
 62
3
 10
9.879586265653151
 20
42.1796546605167
 30
0
 40
3.5
  1
R
 50
320.5011650897316
 41
0.9
  0
ENDBLK
  8
0
  0
ENDSEC
  0
SECTION
  2
ENTITIES
  0
LINE
  8
1
 62
7
 10
3.999999999999988
 20
32.5
 30
0
 11
3.999999999999988
 21
217.5
 31
0
  0
LINE
  8
1
 62
7
 10
19.5
 20
30
 30
0
 11
6.499999999999988
 21
30
 31
0
  0
LINE
  8
1
 62
7
 10
22
 20
217.5
 30
0
 11
22
 21
32.5
 31
0
  0
LINE
  8
1
 62
7
 10
6.499999999999988
 20
220
 30
0
 11
19.5
 21
220
 31
0
  0
LINE
  8
1
 62
7
 10
0
 20
0
 30
0
 11
-1.375124462072452e-14
 21
250
 31
0
  0
LINE
  8
1
 62
7
 10
0
 20
0
 30
0
 11
26
 21
0
 31
0
  0
LINE
  8
1
 62
7
 10
26
 20
0
 30
0
 11
26
 21
250
 31
0
  0
LINE
  8
1
 62
7
 10
-1.375124462072452e-14
 20
250
 30
0
 11
26
 21
250
 31
0
  0
LINE
  8
1
 62
2
  6
PHANTOM
 10
13
 20
229.5
 30
0
 11
13
 21
245.5
 31
0
  0
LINE
  8
1
 62
2
  6
PHANTOM
 10
5
 20
237.5
 30
0
 11
21
 21
237.5
 31
0
  0
LINE
  8
1
 62
2
  6
PHANTOM
 10
13
 20
3
 30
0
 11
13
 21
20.5
 31
0
  0
LINE
  8
1
 62
2
  6
PHANTOM
 10
5
 20
12.5
 30
0
 11
21
 21
12.5
 31
0
  0
CIRCLE
  8
1
 62
7
 10
13
 20
237.5
 30
0
 40
2.900000000000089
  0
CIRCLE
  8
1
 62
7
 10
13
 20
237.5
 30
0
 40
5
  0
CIRCLE
  8
1
 62
7
 10
13
 20
12.5
 30
0
 40
2.900000000000089
  0
CIRCLE
  8
1
 62
7
 10
13
 20
12.5
 30
0
 40
5
  0
ARC
  8
1
 62
7
 10
19.5
 20
217.5
 30
0
 40
2.5
 50
0
 51
90
  0
ARC
  8
1
 62
7
 10
6.499999999999988
 20
217.5
 30
0
 40
2.5
 50
90
 51
180
  0
ARC
  8
1
 62
7
 10
19.5
 20
32.5
 30
0
 40
2.5
 50
270
 51
0
  0
ARC
  8
1
 62
7
 10
6.499999999999988
 20
32.5
 30
0
 40
2.5
 50
180
 51
270
  0
TEXT
  8
1
 62
7
 10
38.835486186349
 20
-19.42119312026
 30
0
 40
7
  1
B-1902_808
 41
0.9
  0
DIMENSION
  8
1
  6
CONTINUOUS
 62
1
  2
*D0
  3
DMST_1
 10
3.999999999999984
 20
72.25
 30
0
 11
12.99999999999999
 21
75
 31
0
 12
0
 22
0
 32
0
 70
0
 13
22
 23
32.5
 33
0
 14
3.999999999999988
 24
32.5
 34
0
 53
0
  0
DIMENSION
  8
1
  6
CONTINUOUS
 62
1
  2
*D1
  3
DMST_1
 10
26
 20
72.25
 30
0
 11
35
 21
75
 31
0
 12
0
 22
0
 32
0
 70
0
 13
22
 23
32.5
 33
0
 14
26
 24
0
 34
0
 53
0
  0
DIMENSION
  8
1
  6
CONTINUOUS
 62
1
  2
*D2
  3
DMST_1
 10
0
 20
72.25
 30
0
 11
-10
 21
75
 31
0
 12
0
 22
0
 32
0
 70
0
 13
3.999999999999988
 23
32.5
 33
0
 14
0
 24
0
 34
0
 53
0
  0
DIMENSION
  8
1
  6
CONTINUOUS
 62
1
  2
*D3
  3
DMST_1
 10
42.75
 20
250
 30
0
 11
40
 21
235
 31
0
 12
0
 22
0
 32
0
 70
0
 13
19.5
 23
220
 33
0
 14
26
 24
250
 34
0
 50
90
 53
0
  0
DIMENSION
  8
1
  6
CONTINUOUS
 62
1
  2
*D4
  3
DMST_1
 10
42.75
 20
220
 30
0
 11
40
 21
125
 31
0
 12
0
 22
0
 32
0
 70
0
 13
19.5
 23
30
 33
0
 14
19.5
 24
220
 34
0
 50
90
 53
0
  0
DIMENSION
  8
1
  6
CONTINUOUS
 62
1
  2
*D5
  3
DMST_1
 10
42.75
 20
30
 30
0
 11
40
 21
15
 31
0
 12
0
 22
0
 32
0
 70
0
 13
26
 23
0
 33
0
 14
19.5
 24
30
 34
0
 50
90
 53
0
  0
DIMENSION
  8
1
  6
CONTINUOUS
 62
1
  2
*D6
  3
DMST_1
 10
-27.25
 20
250
 30
0
 11
-30
 21
125
 31
0
 12
0
 22
0
 32
0
 70
0
 13
0
 23
0
 33
0
 14
-1.375124462072452e-14
 24
250
 34
0
 50
90
 53
0
  0
DIMENSION
  8
1
  6
CONTINUOUS
 62
1
  2
*D7
  3
DMST_1
 10
-17.25
 20
237.5
 30
0
 11
-20
 21
125
 31
0
 12
0
 22
0
 32
0
 70
0
 13
5
 23
12.5
 33
0
 14
5
 24
237.5
 34
0
 50
90
 53
0
  0
DIMENSION
  8
1
  6
CONTINUOUS
 62
1
  2
*D8
  3
DMST_1
 10
-17.25
 20
12.5
 30
0
 11
-20.175
 21
6.25
 31
0
 12
0
 22
0
 32
0
 70
0
 13
0
 23
0
 33
0
 14
5
 24
12.5
 34
0
 50
90
 53
0
  0
DIMENSION
  8
1
  6
CONTINUOUS
 62
1
  2
*D9
  3
DMST_1
 10
-17.25
 20
250
 30
0
 11
-20.175
 21
243.75
 31
0
 12
0
 22
0
 32
0
 70
0
 13
5
 23
237.5
 33
0
 14
-1.375124462072452e-14
 24
250
 34
0
 50
90
 53
0
  0
DIMENSION
  8
1
  6
CONTINUOUS
 62
1
  2
*D10
  3
DMST_1
 10
13
 20
-17.75
 30
0
 11
6.5
 21
-15
 31
0
 12
0
 22
0
 32
0
 70
0
 13
0
 23
0
 33
0
 14
13
 24
3
 34
0
 53
0
  0
DIMENSION
  8
1
  6
CONTINUOUS
 62
1
  2
*D11
  3
DMST_1
 10
26
 20
-27.75
 30
0
 11
13
 21
-25
 31
0
 12
0
 22
0
 32
0
 70
0
 13
0
 23
0
 33
0
 14
26
 24
0
 34
0
 53
0
  0
DIMENSION
  8
1
  6
CONTINUOUS
 62
1
  2
*D12
  3
DMST_2
 10
19.5
 20
32.5
 30
0
 11
15
 21
40
 31
0
 12
0
 22
0
 32
0
 70
4
 15
21.42909379414344
 25
30.90984367642761
 35
0
 40
0
 53
0
  0
ENDSEC
  0
EOF
