  0
SECTION
  2
HEADER
  9
$ACADVER
  1
AC1009
  9
$INSBASE
 10
0
 20
0
  9
$EXTMIN
 10
30.046968983813
 20
10.04664845605299
  9
$EXTMAX
 10
254.9724017480877
 20
347.86291530256
  9
$LIMMIN
 10
30.046968983813
 20
10.04664845605299
  9
$LIMMAX
 10
254.9724017480877
 20
347.86291530256
  9
$VIEWCTR
 10
10
 20
10
  9
$VIEWSIZE
 40
10
  9
$SNAPMODE
 70
0
  9
$SNAPUNIT
 10
1
 20
1
  9
$SNAPBASE
 10
0
 20
0
  9
$SNAPANG
 50
0
  9
$SNAPSTYLE
 70
0
  9
$SNAPISOPAIR
 70
0
  9
$GRIDMODE
 70
0
  9
$GRIDUNIT
 10
0
 20
0
  9
$ORTHOMODE
 70
0
  9
$REGENMODE
 70
1
  9
$FILLMODE
 70
1
  9
$QTEXTMODE
 70
0
  9
$DRAGMODE
 70
2
  9
$LTSCALE
 40
1
  9
$OSMODE
 70
0
  9
$ATTMODE
 70
1
  9
$TEXTSIZE
 40
3.5
  9
$TRACEWID
 40
0.5
  9
$TEXTSTYLE
  7
STANDARD
  9
$CLAYER
  8
0
  9
$CELTYPE
  6
BYLAYER
  9
$CECOLOR
 62
256
  9
$DIMSCALE
 40
1
  9
$DIMASZ
 40
0.18
  9
$DIMEXO
 40
0.0625
  9
$DIMDLI
 40
0.38
  9
$DIMRND
 40
0
  9
$DIMDLE
 40
0
  9
$DIMEXE
 40
0.18
  9
$DIMTP
 40
0
  9
$DIMTM
 40
0
  9
$DIMTXT
 40
0.18
  9
$DIMCEN
 40
0.09
  9
$DIMTSZ
 40
0
  9
$DIMTOL
 70
0
  9
$DIMLIM
 70
0
  9
$DIMTIH
 70
1
  9
$DIMTOH
 70
1
  9
$DIMSE1
 70
0
  9
$DIMSE2
 70
0
  9
$DIMTAD
 70
0
  9
$DIMZIN
 70
0
  9
$DIMBLK
  1

  9
$DIMASO
 70
1
  9
$DIMSHO
 70
1
  9
$DIMPOST
  1

  9
$DIMAPOST
  1

  9
$DIMALT
 70
0
  9
$DIMALTD
 70
2
  9
$DIMALTF
 40
25.4
  9
$DIMLFAC
 40
1
  9
$DIMTOFL
 70
0
  9
$DIMTVP
 40
0
  9
$DIMTIX
 70
0
  9
$DIMSOXD
 70
0
  9
$DIMSAH
 70
0
  9
$DIMBLK1
  1

  9
$DIMBLK2
  1

  9
$DIMSTYLE
  2
*UNNAMED
  9
$DIMCLRD
 70
0
  9
$DIMCLRE
 70
0
  9
$DIMCLRT
 70
0
  9
$DIMTFAC
 40
1
  9
$DIMGAP
 40
0.09
  9
$LUNITS
 70
2
  9
$LUPREC
 70
4
  9
$AXISMODE
 70
0
  9
$AXISUNIT
 10
0
 20
0
  9
$SKETCHINC
 40
0.1
  9
$FILLETRAD
 40
2
  9
$AUNITS
 70
0
  9
$AUPREC
 70
0
  9
$MENU
  1
ACAD
  9
$ELEVATION
 40
0
  9
$THICKNESS
 40
0
  9
$VIEWDIR
 10
0
 20
0
 30
1
  9
$LIMCHECK
 70
0
  9
$BLIPMODE
 70
1
  9
$CHAMFERA
 40
0
  9
$CHAMFERB
 40
0
  9
$FASTZOOM
 70
1
  9
$SKPOLY
 70
0
  9
$ANGBASE
 50
0
  9
$ANGDIR
 70
0
  9
$PDMODE
 70
0
  9
$PDSIZE
 40
0
  9
$PLINEWID
 40
0
  9
$COORDS
 70
2
  0
ENDSEC
  0
SECTION
  2
TABLES
  0
TABLE
  2
DIMSTYLE
 70
1
  0
DIMSTYLE
  2
DMST_1
 70
0
  3

  4

  5

  6

  7

 40
1
 41
5
 42
0
 43
7
 44
1.5
 45
0
 46
0
 47
0
 48
0
140
5
141
0
142
0
143
25.4
144
1
145
0
146
1
147
0.09
 71
0
 72
0
 73
0
 74
0
 75
0
 76
0
 77
1
 78
1
170
0
171
2
172
0
173
0
174
0
175
0
176
1
177
1
178
7
  0
ENDTAB
  0
TABLE
  2
LTYPE
 70
9
  0
LTYPE
  2
CONTINUOUS
 70
64
  3
Solid line
 72
65
 73
0
 40
0
  0
LTYPE
  2
BORDER
 70
64
  3
__ __ . __ __ .
 72
65
 73
6
 40
15.55732807845756
 49
4.444950879559303
 49
-2.222475439779652
 49
4.444950879559303
 49
-2.222475439779652
 49
0
 49
-2.222475439779652
  0
LTYPE
  2
CENTER
 70
64
  3
____ _ ____ _
 72
65
 73
4
 40
17.77980351823721
 49
11.11237719889826
 49
-2.222475439779652
 49
2.222475439779652
 49
-2.222475439779652
  0
LTYPE
  2
DASHDOT
 70
64
  3
__ . __ . __ .
 72
65
 73
4
 40
8.889901759118606
 49
4.444950879559303
 49
-2.222475439779652
 49
0
 49
-2.222475439779652
  0
LTYPE
  2
DASHED
 70
64
  3
__ __ __ __ __
 72
65
 73
2
 40
6.667426319338954
 49
4.444950879559303
 49
-2.222475439779652
  0
LTYPE
  2
DIVIDE
 70
64
  3
__ . . __ . . 
 72
65
 73
6
 40
11.11237719889826
 49
4.444950879559303
 49
-2.222475439779652
 49
0
 49
-2.222475439779652
 49
0
 49
-2.222475439779652
  0
LTYPE
  2
DOT
 70
64
  3
..............
 72
65
 73
4
 40
4.444950879559303
 49
0
 49
-2.222475439779652
 49
0
 49
-2.222475439779652
  0
LTYPE
  2
HIDDEN
 70
64
  3
_ _ _ _ _ _ _
 72
65
 73
2
 40
3.333713159669477
 49
2.222475439779652
 49
-1.111237719889826
  0
LTYPE
  2
PHANTOM
 70
64
  3
_____ _ _ _____ _ _ 
 72
65
 73
6
 40
22.22475439779652
 49
11.11237719889826
 49
-2.222475439779652
 49
2.222475439779652
 49
-2.222475439779652
 49
2.222475439779652
 49
-2.222475439779652
  0
ENDTAB
  0
TABLE
  2
LAYER
 70
3
  0
LAYER
  2
1
 70
0
 62
7
  6
CONTINUOUS
  0
LAYER
  2
0
 70
0
 62
7
  6
CONTINUOUS
  0
ENDTAB
  0
TABLE
  2
STYLE
 70
4
  0
STYLE
  2
STANDARD
 70
0
 40
0
 41
1
 50
0
 71
0
 42
3.5
  3
txt
  4

  0
STYLE
  2
SIMPLEX
 70
0
 40
0
 41
1
 50
0
 71
0
 42
3.5
  3
simplex
  4

  0
STYLE
  2
COMPLEX
 70
0
 40
0
 41
1
 50
0
 71
0
 42
3.5
  3
complex
  4

  0
STYLE
  2
ITALIC
 70
0
 40
0
 41
1
 50
0
 71
0
 42
3.5
  3
italic
  4

  0
ENDTAB
  0
TABLE
  2
VIEW
 70
0
  0
ENDTAB
  0
ENDSEC
  0
SECTION
  2
BLOCKS
  0
BLOCK
  8
1
  2
*D0
 70
1
 10
0
 20
0
 30
0
  0
LINE
  8
1
 62
1
 10
137.1700946964337
 20
152.046648456053
 30
0
 11
137.1700946964337
 21
230.046648456053
 31
0
  0
LINE
  8
1
 62
1
 10
117.7800946964337
 20
230.046648456053
 30
0
 11
138.6700946964337
 21
230.046648456053
 31
0
  0
LINE
  8
1
 62
1
 10
117.125138641746
 20
152.046648456053
 30
0
 11
138.6700946964337
 21
152.046648456053
 31
0
  0
SOLID
  8
1
 62
1
 10
137.1700946964337
 20
152.046648456053
 30
0
 11
136.5200946964337
 21
157.046648456053
 31
0
 12
137.8200946964337
 22
157.046648456053
 32
0
 13
137.8200946964337
 23
157.046648456053
 33
0
  0
SOLID
  8
1
 62
1
 10
137.1700946964337
 20
230.046648456053
 30
0
 11
137.8200946964337
 21
225.046648456053
 31
0
 12
136.5200946964337
 22
225.046648456053
 32
0
 13
136.5200946964337
 23
225.046648456053
 33
0
  0
TEXT
  8
1
 62
7
 10
137.0800946964337
 20
187.371273456053
 30
0
 40
5
  1
78
 50
90
 41
0.88209
  0
ENDBLK
  8
0
  0
BLOCK
  8
1
  2
*D1
 70
1
 10
0
 20
0
 30
0
  0
LINE
  8
1
 62
1
 10
137.1700946964337
 20
230.046648456053
 30
0
 11
137.1700946964337
 21
298.046648456053
 31
0
  0
LINE
  8
1
 62
1
 10
119.5800946964337
 20
298.046648456053
 30
0
 11
138.6700946964337
 21
298.046648456053
 31
0
  0
LINE
  8
1
 62
1
 10
117.7800946964337
 20
230.046648456053
 30
0
 11
138.6700946964337
 21
230.046648456053
 31
0
  0
SOLID
  8
1
 62
1
 10
137.1700946964337
 20
230.046648456053
 30
0
 11
136.5200946964337
 21
235.046648456053
 31
0
 12
137.8200946964337
 22
235.046648456053
 32
0
 13
137.8200946964337
 23
235.046648456053
 33
0
  0
SOLID
  8
1
 62
1
 10
137.1700946964337
 20
298.046648456053
 30
0
 11
137.8200946964337
 21
293.046648456053
 31
0
 12
136.5200946964337
 22
293.046648456053
 32
0
 13
136.5200946964337
 23
293.046648456053
 33
0
  0
TEXT
  8
1
 62
7
 10
137.0800946964337
 20
260.371273456053
 30
0
 40
5
  1
68
 50
90
 41
0.88209
  0
ENDBLK
  8
0
  0
BLOCK
  8
1
  2
*D2
 70
1
 10
0
 20
0
 30
0
  0
LINE
  8
1
 62
1
 10
137.1700946964337
 20
118.046648456053
 30
0
 11
137.1700946964337
 21
152.046648456053
 31
0
  0
LINE
  8
1
 62
1
 10
117.125138641746
 20
152.046648456053
 30
0
 11
138.6700946964337
 21
152.046648456053
 31
0
  0
LINE
  8
1
 62
1
 10
119.5800946964337
 20
118.046648456053
 30
0
 11
138.6700946964337
 21
118.046648456053
 31
0
  0
SOLID
  8
1
 62
1
 10
137.1700946964337
 20
152.046648456053
 30
0
 11
137.8200946964337
 21
147.046648456053
 31
0
 12
136.5200946964337
 22
147.046648456053
 32
0
 13
136.5200946964337
 23
147.046648456053
 33
0
  0
SOLID
  8
1
 62
1
 10
137.1700946964337
 20
118.046648456053
 30
0
 11
136.5200946964337
 21
123.046648456053
 31
0
 12
137.8200946964337
 22
123.046648456053
 32
0
 13
137.8200946964337
 23
123.046648456053
 33
0
  0
TEXT
  8
1
 62
7
 10
137.0800946964337
 20
131.371273456053
 30
0
 40
5
  1
34
 50
90
 41
0.88209
  0
ENDBLK
  8
0
  0
BLOCK
  8
1
  2
*D3
 70
1
 10
0
 20
0
 30
0
  0
LINE
  8
1
 62
1
 10
182.0545741206845
 20
95.54664845605299
 30
0
 11
182.0545741206845
 21
320.546648456053
 31
0
  0
LINE
  8
1
 62
1
 10
218.3300946964337
 20
320.546648456053
 30
0
 11
180.5545741206845
 21
320.546648456053
 31
0
  0
LINE
  8
1
 62
1
 10
218.8050946964337
 20
95.54664845605299
 30
0
 11
180.5545741206845
 21
95.54664845605299
 31
0
  0
SOLID
  8
1
 62
1
 10
182.0545741206845
 20
95.54664845605299
 30
0
 11
181.4045741206845
 21
100.546648456053
 31
0
 12
182.7045741206845
 22
100.546648456053
 32
0
 13
182.7045741206845
 23
100.546648456053
 33
0
  0
SOLID
  8
1
 62
1
 10
182.0545741206845
 20
320.546648456053
 30
0
 11
182.7045741206845
 21
315.546648456053
 31
0
 12
181.4045741206845
 22
315.546648456053
 32
0
 13
181.4045741206845
 23
315.546648456053
 33
0
  0
TEXT
  8
1
 62
7
 10
179.9989458373615
 20
202.316479536595
 30
0
 40
5
  1
225
 50
90
 41
0.88209
  0
ENDBLK
  8
0
  0
BLOCK
  8
1
  2
*D4
 70
1
 10
0
 20
0
 30
0
  0
LINE
  8
1
 62
1
 10
182.0545741206845
 20
333.046648456053
 30
0
 11
182.0545741206845
 21
347.86291530256
 31
0
  0
LINE
  8
1
 62
1
 10
182.0545741206845
 20
320.546648456053
 30
0
 11
182.0545741206845
 21
333.046648456053
 31
0
  0
LINE
  8
1
 62
1
 10
182.0545741206845
 20
310.546648456053
 30
0
 11
182.0545741206845
 21
320.546648456053
 31
0
  0
LINE
  8
1
 62
1
 10
224.5800946964337
 20
333.046648456053
 30
0
 11
180.5545741206845
 21
333.046648456053
 31
0
  0
LINE
  8
1
 62
1
 10
218.3300946964337
 20
320.546648456053
 30
0
 11
180.5545741206845
 21
320.546648456053
 31
0
  0
SOLID
  8
1
 62
1
 10
182.0545741206845
 20
333.046648456053
 30
0
 11
181.4045741206845
 21
338.046648456053
 31
0
 12
182.7045741206845
 22
338.046648456053
 32
0
 13
182.7045741206845
 23
338.046648456053
 33
0
  0
SOLID
  8
1
 62
1
 10
182.0545741206845
 20
320.546648456053
 30
0
 11
182.7045741206845
 21
315.546648456053
 31
0
 12
181.4045741206845
 22
315.546648456053
 32
0
 13
181.4045741206845
 23
315.546648456053
 33
0
  0
TEXT
  8
1
 62
7
 10
179.1713411234743
 20
335.85669030256
 30
0
 40
5
  1
12,5
 50
90
 41
0.88209
  0
ENDBLK
  8
0
  0
BLOCK
  8
1
  2
*D5
 70
1
 10
0
 20
0
 30
0
  0
LINE
  8
1
 62
1
 10
182.0545741206845
 20
83.04664845605299
 30
0
 11
182.0545741206845
 21
64.9275919178703
 31
0
  0
LINE
  8
1
 62
1
 10
182.0545741206845
 20
83.04664845605299
 30
0
 11
182.0545741206845
 21
95.54664845605299
 31
0
  0
LINE
  8
1
 62
1
 10
182.0545741206845
 20
105.546648456053
 30
0
 11
182.0545741206845
 21
95.54664845605299
 31
0
  0
LINE
  8
1
 62
1
 10
218.8050946964337
 20
95.54664845605299
 30
0
 11
180.5545741206845
 21
95.54664845605299
 31
0
  0
LINE
  8
1
 62
1
 10
224.5800946964337
 20
83.04664845605299
 30
0
 11
180.5545741206845
 21
83.04664845605299
 31
0
  0
SOLID
  8
1
 62
1
 10
182.0545741206845
 20
83.04664845605299
 30
0
 11
182.7045741206845
 21
78.04664845605299
 31
0
 12
181.4045741206845
 22
78.04664845605299
 32
0
 13
181.4045741206845
 23
78.04664845605299
 33
0
  0
SOLID
  8
1
 62
1
 10
182.0545741206845
 20
95.54664845605299
 30
0
 11
181.4045741206845
 21
100.546648456053
 31
0
 12
182.7045741206845
 22
100.546648456053
 32
0
 13
182.7045741206845
 23
100.546648456053
 33
0
  0
TEXT
  8
1
 62
7
 10
179.1713411234743
 20
64.9275919178703
 30
0
 40
5
  1
12,5
 50
90
 41
0.88209
  0
ENDBLK
  8
0
  0
BLOCK
  8
1
  2
*D6
 70
1
 10
0
 20
0
 30
0
  0
LINE
  8
1
 62
1
 10
38.10159345262801
 20
118.046648456053
 30
0
 11
38.10159345262801
 21
163.046648456053
 31
0
  0
LINE
  8
1
 62
1
 10
57.58009469643369
 20
163.046648456053
 30
0
 11
36.60159345262801
 21
163.046648456053
 31
0
  0
LINE
  8
1
 62
1
 10
72.58009469643369
 20
118.046648456053
 30
0
 11
36.60159345262801
 21
118.046648456053
 31
0
  0
SOLID
  8
1
 62
1
 10
38.10159345262801
 20
163.046648456053
 30
0
 11
38.75159345262801
 21
158.046648456053
 31
0
 12
37.45159345262801
 22
158.046648456053
 32
0
 13
37.45159345262801
 23
158.046648456053
 33
0
  0
SOLID
  8
1
 62
1
 10
38.10159345262801
 20
118.046648456053
 30
0
 11
37.45159345262801
 21
123.046648456053
 31
0
 12
38.75159345262801
 22
123.046648456053
 32
0
 13
38.75159345262801
 23
123.046648456053
 33
0
  0
TEXT
  8
1
 62
7
 10
35.856223518538
 20
137.1440481434468
 30
0
 40
5
  1
45
 50
90
 41
0.88209
  0
ENDBLK
  8
0
  0
BLOCK
  8
1
  2
*D7
 70
1
 10
0
 20
0
 30
0
  0
LINE
  8
1
 62
1
 10
38.10159345262801
 20
163.046648456053
 30
0
 11
38.10159345262801
 21
195.046648456053
 31
0
  0
LINE
  8
1
 62
1
 10
63.58009469643369
 20
195.046648456053
 30
0
 11
36.60159345262801
 21
195.046648456053
 31
0
  0
LINE
  8
1
 62
1
 10
57.58009469643369
 20
163.046648456053
 30
0
 11
36.60159345262801
 21
163.046648456053
 31
0
  0
SOLID
  8
1
 62
1
 10
38.10159345262801
 20
195.046648456053
 30
0
 11
38.75159345262801
 21
190.046648456053
 31
0
 12
37.45159345262801
 22
190.046648456053
 32
0
 13
37.45159345262801
 23
190.046648456053
 33
0
  0
SOLID
  8
1
 62
1
 10
38.10159345262801
 20
163.046648456053
 30
0
 11
37.45159345262801
 21
168.046648456053
 31
0
 12
38.75159345262801
 22
168.046648456053
 32
0
 13
38.75159345262801
 23
168.046648456053
 33
0
  0
TEXT
  8
1
 62
7
 10
35.856223518538
 20
175.8008649840507
 30
0
 40
5
  1
32
 50
90
 41
0.88209
  0
ENDBLK
  8
0
  0
BLOCK
  8
1
  2
*D8
 70
1
 10
0
 20
0
 30
0
  0
LINE
  8
1
 62
1
 10
38.11100526161201
 20
195.046648456053
 30
0
 11
38.11100526161201
 21
243.546648456053
 31
0
  0
LINE
  8
1
 62
1
 10
58.8800946964337
 20
243.546648456053
 30
0
 11
36.61100526161201
 21
243.546648456053
 31
0
  0
LINE
  8
1
 62
1
 10
63.58009469643369
 20
195.046648456053
 30
0
 11
36.61100526161201
 21
195.046648456053
 31
0
  0
SOLID
  8
1
 62
1
 10
38.11100526161201
 20
195.046648456053
 30
0
 11
37.46100526161201
 21
200.046648456053
 31
0
 12
38.76100526161201
 22
200.046648456053
 32
0
 13
38.76100526161201
 23
200.046648456053
 33
0
  0
SOLID
  8
1
 62
1
 10
38.11100526161201
 20
243.546648456053
 30
0
 11
38.76100526161201
 21
238.546648456053
 31
0
 12
37.46100526161201
 22
238.546648456053
 32
0
 13
37.46100526161201
 23
238.546648456053
 33
0
  0
TEXT
  8
1
 62
7
 10
35.046968983813
 20
212.322632928829
 30
0
 40
5
  1
48,5
 50
90
 41
0.88209
  0
ENDBLK
  8
0
  0
BLOCK
  8
1
  2
*D9
 70
1
 10
0
 20
0
 30
0
  0
LINE
  8
1
 62
1
 10
38.11100526161201
 20
243.546648456053
 30
0
 11
38.11100526161201
 21
273.546648456053
 31
0
  0
LINE
  8
1
 62
1
 10
58.8800946964337
 20
273.546648456053
 30
0
 11
36.61100526161201
 21
273.546648456053
 31
0
  0
LINE
  8
1
 62
1
 10
58.8800946964337
 20
243.546648456053
 30
0
 11
36.61100526161201
 21
243.546648456053
 31
0
  0
SOLID
  8
1
 62
1
 10
38.11100526161201
 20
243.546648456053
 30
0
 11
37.46100526161201
 21
248.546648456053
 31
0
 12
38.76100526161201
 22
248.546648456053
 32
0
 13
38.76100526161201
 23
248.546648456053
 33
0
  0
SOLID
  8
1
 62
1
 10
38.11100526161201
 20
273.546648456053
 30
0
 11
38.76100526161201
 21
268.546648456053
 31
0
 12
37.46100526161201
 22
268.546648456053
 32
0
 13
37.46100526161201
 23
268.546648456053
 33
0
  0
TEXT
  8
1
 62
7
 10
35.856223518538
 20
254.351516804158
 30
0
 40
5
  1
30
 50
90
 41
0.88209
  0
ENDBLK
  8
0
  0
BLOCK
  8
1
  2
*D10
 70
1
 10
0
 20
0
 30
0
  0
LINE
  8
1
 62
1
 10
38.10159345262801
 20
273.546648456053
 30
0
 11
38.10159345262801
 21
298.046648456053
 31
0
  0
LINE
  8
1
 62
1
 10
72.58009469643369
 20
298.046648456053
 30
0
 11
36.60159345262801
 21
298.046648456053
 31
0
  0
LINE
  8
1
 62
1
 10
58.8800946964337
 20
273.546648456053
 30
0
 11
36.60159345262801
 21
273.546648456053
 31
0
  0
SOLID
  8
1
 62
1
 10
38.10159345262801
 20
273.546648456053
 30
0
 11
37.45159345262801
 21
278.546648456053
 31
0
 12
38.75159345262801
 22
278.546648456053
 32
0
 13
38.75159345262801
 23
278.546648456053
 33
0
  0
SOLID
  8
1
 62
1
 10
38.10159345262801
 20
298.046648456053
 30
0
 11
38.75159345262801
 21
293.046648456053
 31
0
 12
37.45159345262801
 22
293.046648456053
 32
0
 13
37.45159345262801
 23
293.046648456053
 33
0
  0
TEXT
  8
1
 62
7
 10
35.046968983813
 20
278.812357894668
 30
0
 40
5
  1
24,5
 50
90
 41
0.88209
  0
ENDBLK
  8
0
  0
BLOCK
  8
1
  2
*D11
 70
1
 10
0
 20
0
 30
0
  0
LINE
  8
1
 62
1
 10
38.11100526161201
 20
298.046648456053
 30
0
 11
38.11100526161201
 21
333.046648456053
 31
0
  0
LINE
  8
1
 62
1
 10
69.58009469643369
 20
333.046648456053
 30
0
 11
36.61100526161201
 21
333.046648456053
 31
0
  0
LINE
  8
1
 62
1
 10
72.58009469643369
 20
298.046648456053
 30
0
 11
36.61100526161201
 21
298.046648456053
 31
0
  0
SOLID
  8
1
 62
1
 10
38.11100526161201
 20
298.046648456053
 30
0
 11
37.46100526161201
 21
303.046648456053
 31
0
 12
38.76100526161201
 22
303.046648456053
 32
0
 13
38.76100526161201
 23
303.046648456053
 33
0
  0
SOLID
  8
1
 62
1
 10
38.11100526161201
 20
333.046648456053
 30
0
 11
38.76100526161201
 21
328.046648456053
 31
0
 12
37.46100526161201
 22
328.046648456053
 32
0
 13
37.46100526161201
 23
328.046648456053
 33
0
  0
TEXT
  8
1
 62
7
 10
35.856223518538
 20
312.491369332426
 30
0
 40
5
  1
35
 50
90
 41
0.88209
  0
ENDBLK
  8
0
  0
BLOCK
  8
1
  2
*D12
 70
1
 10
0
 20
0
 30
0
  0
LINE
  8
1
 62
1
 10
38.11100526161201
 20
83.04664845605299
 30
0
 11
38.11100526161201
 21
118.046648456053
 31
0
  0
LINE
  8
1
 62
1
 10
72.58009469643369
 20
118.046648456053
 30
0
 11
36.61100526161201
 21
118.046648456053
 31
0
  0
LINE
  8
1
 62
1
 10
69.58009469643369
 20
83.04664845605299
 30
0
 11
36.61100526161201
 21
83.04664845605299
 31
0
  0
SOLID
  8
1
 62
1
 10
38.11100526161201
 20
118.046648456053
 30
0
 11
38.76100526161201
 21
113.046648456053
 31
0
 12
37.46100526161201
 22
113.046648456053
 32
0
 13
37.46100526161201
 23
113.046648456053
 33
0
  0
SOLID
  8
1
 62
1
 10
38.11100526161201
 20
83.04664845605299
 30
0
 11
37.46100526161201
 21
88.04664845605299
 31
0
 12
38.76100526161201
 22
88.04664845605299
 32
0
 13
38.76100526161201
 23
88.04664845605299
 33
0
  0
TEXT
  8
1
 62
7
 10
35.856223518538
 20
96.32244955976896
 30
0
 40
5
  1
35
 50
90
 41
0.88209
  0
ENDBLK
  8
0
  0
BLOCK
  8
1
  2
*D13
 70
1
 10
0
 20
0
 30
0
  0
LINE
  8
1
 62
1
 10
253.4724017480877
 20
83.04664845605301
 30
0
 11
253.4724017480877
 21
333.046648456053
 31
0
  0
LINE
  8
1
 62
1
 10
202.5800946964337
 20
333.046648456053
 30
0
 11
254.9724017480877
 21
333.046648456053
 31
0
  0
LINE
  8
1
 62
1
 10
202.5800946964337
 20
83.04664845605301
 30
0
 11
254.9724017480877
 21
83.04664845605301
 31
0
  0
SOLID
  8
1
 62
1
 10
253.4724017480877
 20
83.04664845605301
 30
0
 11
252.8224017480877
 21
88.04664845605301
 31
0
 12
254.1224017480877
 22
88.04664845605301
 32
0
 13
254.1224017480877
 23
88.04664845605301
 33
0
  0
SOLID
  8
1
 62
1
 10
253.4724017480877
 20
333.046648456053
 30
0
 11
254.1224017480877
 21
328.046648456053
 31
0
 12
252.8224017480877
 22
328.046648456053
 32
0
 13
252.8224017480877
 23
328.046648456053
 33
0
  0
TEXT
  8
1
 62
7
 10
250.106354609216
 20
200.0232465393844
 30
0
 40
5
  1
250
 50
90
 41
0.88209
  0
ENDBLK
  8
0
  0
BLOCK
  8
1
  2
*D14
 70
1
 10
0
 20
0
 30
0
  0
LINE
  8
1
 62
1
 10
139.070797494323
 20
12.54664845605299
 30
0
 11
139.070797494323
 21
29.54664845605299
 31
0
  0
LINE
  8
1
 62
1
 10
119.5800946964337
 20
29.54664845605299
 30
0
 11
140.570797494323
 21
29.54664845605299
 31
0
  0
LINE
  8
1
 62
1
 10
119.5800946964337
 20
12.54664845605299
 30
0
 11
140.570797494323
 21
12.54664845605299
 31
0
  0
SOLID
  8
1
 62
1
 10
139.070797494323
 20
29.54664845605299
 30
0
 11
139.720797494323
 21
24.54664845605299
 31
0
 12
138.420797494323
 22
24.54664845605299
 32
0
 13
138.420797494323
 23
24.54664845605299
 33
0
  0
SOLID
  8
1
 62
1
 10
139.070797494323
 20
12.54664845605299
 30
0
 11
138.420797494323
 21
17.54664845605299
 31
0
 12
139.720797494323
 22
17.54664845605299
 32
0
 13
139.720797494323
 23
17.54664845605299
 33
0
  0
TEXT
  8
1
 62
7
 10
136.4973686491
 20
18.1113341006563
 30
0
 40
5
  1
17
 50
90
 41
0.88209
  0
ENDBLK
  8
0
  0
BLOCK
  8
1
  2
*D15
 70
1
 10
0
 20
0
 30
0
  0
LINE
  8
1
 62
1
 10
69.58009469643369
 20
65.45664845605299
 30
0
 11
58.688000256482
 21
65.45664845605299
 31
0
  0
LINE
  8
1
 62
1
 10
69.58009469643369
 20
65.45664845605299
 30
0
 11
72.58009469643369
 21
65.45664845605299
 31
0
  0
LINE
  8
1
 62
1
 10
82.58009469643369
 20
65.45664845605299
 30
0
 11
72.58009469643369
 21
65.45664845605299
 31
0
  0
LINE
  8
1
 62
1
 10
72.58009469643369
 20
83.04664845605299
 30
0
 11
72.58009469643369
 21
63.95664845605299
 31
0
  0
LINE
  8
1
 62
1
 10
69.58009469643369
 20
83.04664845605299
 30
0
 11
69.58009469643369
 21
63.95664845605299
 31
0
  0
SOLID
  8
1
 62
1
 10
72.58009469643369
 20
65.45664845605299
 30
0
 11
77.58009469643369
 21
66.10664845605299
 31
0
 12
77.58009469643369
 22
64.80664845605298
 32
0
 13
77.58009469643369
 23
64.80664845605298
 33
0
  0
SOLID
  8
1
 62
1
 10
69.58009469643369
 20
65.45664845605299
 30
0
 11
64.58009469643369
 21
64.80664845605298
 31
0
 12
64.58009469643369
 22
66.10664845605299
 32
0
 13
64.58009469643369
 23
66.10664845605299
 33
0
  0
TEXT
  8
1
 62
7
 10
58.68800025648201
 20
68.15310230568181
 30
0
 40
5
  1
3
 41
0.88209
  0
ENDBLK
  8
0
  0
BLOCK
  8
1
  2
*D16
 70
1
 10
0
 20
0
 30
0
  0
LINE
  8
1
 62
1
 10
202.5800946964337
 20
63.64619184233149
 30
0
 11
224.5800946964337
 21
63.64619184233149
 31
0
  0
LINE
  8
1
 62
1
 10
224.5800946964337
 20
83.04664845605299
 30
0
 11
224.5800946964337
 21
62.14619184233149
 31
0
  0
LINE
  8
1
 62
1
 10
202.5800946964337
 20
83.04664845605299
 30
0
 11
202.5800946964337
 21
62.14619184233149
 31
0
  0
SOLID
  8
1
 62
1
 10
224.5800946964337
 20
63.64619184233149
 30
0
 11
219.5800946964337
 21
62.99619184233149
 31
0
 12
219.5800946964337
 22
64.2961918423315
 32
0
 13
219.5800946964337
 23
64.2961918423315
 33
0
  0
SOLID
  8
1
 62
1
 10
202.5800946964337
 20
63.64619184233149
 30
0
 11
207.5800946964337
 21
64.2961918423315
 31
0
 12
207.5800946964337
 22
62.99619184233149
 32
0
 13
207.5800946964337
 23
62.99619184233149
 33
0
  0
TEXT
  8
1
 62
7
 10
209.8237930045522
 20
65.93390715187149
 30
0
 40
5
  1
22
 41
0.88209
  0
ENDBLK
  8
0
  0
BLOCK
  8
1
  2
*D17
 70
1
 10
0
 20
0
 30
0
  0
LINE
  8
1
 62
1
 10
69.58009469643369
 20
106.7366936556334
 30
0
 11
104.5800946964337
 21
106.7366936556334
 31
0
  0
LINE
  8
1
 62
1
 10
104.5800946964337
 20
119.07489823904
 30
0
 11
104.5800946964337
 21
105.2366936556334
 31
0
  0
LINE
  8
1
 62
1
 10
69.58009469643369
 20
138.046648456053
 30
0
 11
69.58009469643369
 21
105.2366936556334
 31
0
  0
SOLID
  8
1
 62
1
 10
69.58009469643369
 20
106.7366936556334
 30
0
 11
74.58009469643369
 21
107.3866936556334
 31
0
 12
74.58009469643369
 22
106.0866936556334
 32
0
 13
74.58009469643369
 23
106.0866936556334
 33
0
  0
SOLID
  8
1
 62
1
 10
104.5800946964337
 20
106.7366936556334
 30
0
 11
99.5800946964337
 21
106.0866936556334
 31
0
 12
99.5800946964337
 22
107.3866936556334
 32
0
 13
99.5800946964337
 23
107.3866936556334
 33
0
  0
TEXT
  8
1
 62
7
 10
86.17616007714399
 20
108.4907360392374
 30
0
 40
5
  1
a
 41
0.88209
  0
ENDBLK
  8
0
  0
BLOCK
  8
1
  2
*D18
 70
1
 10
0
 20
0
 30
0
  0
LINE
  8
1
 62
1
 10
152.1700946964337
 20
118.046648456053
 30
0
 11
152.1700946964337
 21
298.046648456053
 31
0
  0
LINE
  8
1
 62
1
 10
119.5800946964337
 20
298.046648456053
 30
0
 11
153.6700946964337
 21
298.046648456053
 31
0
  0
LINE
  8
1
 62
1
 10
119.5800946964337
 20
118.046648456053
 30
0
 11
153.6700946964337
 21
118.046648456053
 31
0
  0
SOLID
  8
1
 62
1
 10
152.1700946964337
 20
118.046648456053
 30
0
 11
151.5200946964337
 21
123.046648456053
 31
0
 12
152.8200946964337
 22
123.046648456053
 32
0
 13
152.8200946964337
 23
123.046648456053
 33
0
  0
SOLID
  8
1
 62
1
 10
152.1700946964337
 20
298.046648456053
 30
0
 11
152.8200946964337
 21
293.046648456053
 31
0
 12
151.5200946964337
 22
293.046648456053
 32
0
 13
151.5200946964337
 23
293.046648456053
 33
0
  0
TEXT
  8
1
 62
7
 10
152.0800946964337
 20
202.901123456053
 30
0
 40
5
  1
180
 50
90
 41
0.88209
  0
ENDBLK
  8
0
  0
BLOCK
  8
1
  2
*D19
 70
1
 10
0
 20
0
 30
0
  0
LINE
  8
1
 62
1
 10
110.0185460531494
 20
202.7041051861929
 30
0
 11
120.0048414006951
 21
203.2274647486223
 31
0
  0
LINE
  8
1
 62
1
 10
102.0295097751127
 20
202.2854175362493
 30
0
 11
92.04321442756692
 21
201.7620579738198
 31
0
  0
LINE
  8
1
 62
1
 10
102.0295097751127
 20
202.2854175362493
 30
0
 11
110.0185460531494
 21
202.7041051861929
 31
0
  0
LINE
  8
1
 62
1
 10
108.7839566604238
 20
226.2614741420065
 30
0
 11
110.0970499875138
 21
201.206160884061
 31
0
  0
LINE
  8
1
 62
1
 10
100.7949203823871
 20
225.8427864920629
 30
0
 11
102.1080137094771
 21
200.7874732341174
 31
0
  0
SOLID
  8
1
 62
1
 10
102.0295097751127
 20
202.2854175362493
 30
0
 11
97.07038047289771
 21
201.3746285574441
 31
0
 12
97.00234372978187
 22
202.672846952625
 32
0
 13
97.00234372978187
 23
202.672846952625
 33
0
  0
SOLID
  8
1
 62
1
 10
110.0185460531494
 20
202.7041051861929
 30
0
 11
114.9776753553643
 21
203.6148941649981
 31
0
 12
115.0457120984801
 22
202.3166757698171
 32
0
 13
115.0457120984801
 23
202.3166757698171
 33
0
  0
TEXT
  8
1
 62
7
 10
104.5511824675497
 20
202.5076963132784
 30
0
 40
5
  1
8
 50
3.000000000000263
 41
0.88209
  0
ENDBLK
  8
0
  0
BLOCK
  8
1
  2
*D20
 70
1
 10
0
 20
0
 30
0
  0
LINE
  8
1
 62
1
 10
69.58009469643369
 20
284.001344931639
 30
0
 11
79.58009469643369
 21
284.001344931639
 31
0
  0
LINE
  8
1
 62
1
 10
58.58009469643369
 20
284.001344931639
 30
0
 11
48.58009469643369
 21
284.001344931639
 31
0
  0
LINE
  8
1
 62
1
 10
58.58009469643369
 20
284.001344931639
 30
0
 11
69.58009469643369
 21
284.001344931639
 31
0
  0
LINE
  8
1
 62
1
 10
69.58009469643369
 20
271.246648456053
 30
0
 11
69.58009469643369
 21
285.501344931639
 31
0
  0
LINE
  8
1
 62
1
 10
58.58009469643369
 20
273.246648456053
 30
0
 11
58.58009469643369
 21
285.501344931639
 31
0
  0
SOLID
  8
1
 62
1
 10
58.58009469643369
 20
284.001344931639
 30
0
 11
53.58009469643369
 21
283.3513449316391
 31
0
 12
53.58009469643369
 22
284.651344931639
 32
0
 13
53.58009469643369
 23
284.651344931639
 33
0
  0
SOLID
  8
1
 62
1
 10
69.58009469643369
 20
284.001344931639
 30
0
 11
74.58009469643369
 21
284.651344931639
 31
0
 12
74.58009469643369
 22
283.3513449316391
 32
0
 13
74.58009469643369
 23
283.3513449316391
 33
0
  0
TEXT
  8
1
 62
7
 10
60.6943662512543
 20
285.569508635903
 30
0
 40
5
  1
11
 41
0.88209
  0
ENDBLK
  8
0
  0
BLOCK
  8
1
  2
*D21
 70
1
 10
0
 20
0
 30
0
  0
LINE
  8
1
 62
1
 10
69.58009469643369
 20
210.530111125771
 30
0
 11
79.58009469643369
 21
210.530111125771
 31
0
  0
LINE
  8
1
 62
1
 10
57.58009469643369
 20
210.530111125771
 30
0
 11
47.58009469643369
 21
210.530111125771
 31
0
  0
LINE
  8
1
 62
1
 10
57.58009469643369
 20
210.530111125771
 30
0
 11
69.58009469643369
 21
210.530111125771
 31
0
  0
LINE
  8
1
 62
1
 10
69.58009469643369
 20
195.046648456053
 30
0
 11
69.58009469643369
 21
212.030111125771
 31
0
  0
LINE
  8
1
 62
1
 10
57.58009469643369
 20
195.046648456053
 30
0
 11
57.58009469643369
 21
212.030111125771
 31
0
  0
SOLID
  8
1
 62
1
 10
69.58009469643369
 20
210.530111125771
 30
0
 11
74.58009469643369
 21
211.180111125771
 31
0
 12
74.58009469643369
 22
209.880111125771
 32
0
 13
74.58009469643369
 23
209.880111125771
 33
0
  0
SOLID
  8
1
 62
1
 10
57.58009469643369
 20
210.530111125771
 30
0
 11
52.58009469643369
 21
209.880111125771
 31
0
 12
52.58009469643369
 22
211.180111125771
 32
0
 13
52.58009469643369
 23
211.180111125771
 33
0
  0
TEXT
  8
1
 62
7
 10
59.86788682308399
 20
212.90821468301
 30
0
 40
5
  1
12
 41
0.88209
  0
ENDBLK
  8
0
  0
BLOCK
  8
1
  2
*D22
 70
1
 10
0
 20
0
 30
0
  0
LINE
  8
1
 62
1
 10
69.58009469643369
 20
93.0071630635223
 30
0
 11
119.5800946964337
 21
93.0071630635223
 31
0
  0
LINE
  8
1
 62
1
 10
119.5800946964337
 20
118.046648456053
 30
0
 11
119.5800946964337
 21
91.5071630635223
 31
0
  0
LINE
  8
1
 62
1
 10
69.58009469643369
 20
83.04664845605299
 30
0
 11
69.58009469643369
 21
94.5071630635223
 31
0
  0
SOLID
  8
1
 62
1
 10
119.5800946964337
 20
93.0071630635223
 30
0
 11
114.5800946964337
 21
92.35716306352229
 31
0
 12
114.5800946964337
 22
93.6571630635223
 32
0
 13
114.5800946964337
 23
93.6571630635223
 33
0
  0
SOLID
  8
1
 62
1
 10
69.58009469643369
 20
93.0071630635223
 30
0
 11
74.58009469643369
 21
93.6571630635223
 31
0
 12
74.58009469643369
 22
92.35716306352229
 32
0
 13
74.58009469643369
 23
92.35716306352229
 33
0
  0
TEXT
  8
1
 62
7
 10
88.19518004172301
 20
95.42682240056787
 30
0
 40
5
  1
a+15
 41
0.88209
  0
ENDBLK
  8
0
  0
BLOCK
  8
1
  2
*D23
 70
1
 10
0
 20
0
 30
0
  0
LINE
  8
1
 62
1
 10
209.5800946964337
 20
204.022859744765
 30
0
 11
209.5800946964337
 21
204.022859744765
 31
0
  0
LINE
  8
1
 62
1
 10
202.5800946964337
 20
204.022859744765
 30
0
 11
192.5800946964337
 21
204.022859744765
 31
0
  0
LINE
  8
1
 62
1
 10
202.5800946964337
 20
204.022859744765
 30
0
 11
209.5800946964337
 21
204.022859744765
 31
0
  0
LINE
  8
1
 62
1
 10
209.5800946964337
 20
195.146648456053
 30
0
 11
209.5800946964337
 21
205.522859744765
 31
0
  0
LINE
  8
1
 62
1
 10
202.5800946964337
 20
279.1868645142306
 30
0
 11
202.5800946964337
 21
202.522859744765
 31
0
  0
SOLID
  8
1
 62
1
 10
202.5800946964337
 20
204.022859744765
 30
0
 11
197.5800946964337
 21
203.372859744765
 31
0
 12
197.5800946964337
 22
204.672859744765
 32
0
 13
197.5800946964337
 23
204.672859744765
 33
0
  0
TEXT
  8
1
 62
7
 10
204.5800946964337
 20
205.022859744765
 30
0
 40
5
  1
7
 41
0.9
  0
ENDBLK
  8
0
  0
BLOCK
  8
1
  2
*D24
 70
1
 10
0
 20
0
 30
0
  0
LINE
  8
1
 62
1
 10
224.5800946964337
 20
204.022859744765
 30
0
 11
234.5800946964337
 21
204.022859744765
 31
0
  0
LINE
  8
1
 62
1
 10
217.5800946964337
 20
204.022859744765
 30
0
 11
224.5800946964337
 21
204.022859744765
 31
0
  0
LINE
  8
1
 62
1
 10
224.5800946964337
 20
209.7770993108688
 30
0
 11
224.5800946964337
 21
202.522859744765
 31
0
  0
LINE
  8
1
 62
1
 10
217.5800946964337
 20
195.146648456053
 30
0
 11
217.5800946964337
 21
205.522859744765
 31
0
  0
LINE
  8
1
 62
1
 10
215.8123277434673
 20
202.2550927917986
 30
0
 11
219.3478616494001
 21
205.7906266977313
 31
0
  0
SOLID
  8
1
 62
1
 10
224.5800946964337
 20
204.022859744765
 30
0
 11
229.5800946964337
 21
204.672859744765
 31
0
 12
229.5800946964337
 22
203.372859744765
 32
0
 13
229.5800946964337
 23
203.372859744765
 33
0
  0
TEXT
  8
1
 62
7
 10
219.5800946964337
 20
205.022859744765
 30
0
 40
5
  1
7
 41
0.9
  0
ENDBLK
  8
0
  0
BLOCK
  8
1
  2
*D25
 70
1
 10
0
 20
0
 30
0
  0
LINE
  8
1
 62
1
 10
209.5800946964337
 20
204.022859744765
 30
0
 11
217.5800946964337
 21
204.022859744765
 31
0
  0
LINE
  8
1
 62
1
 10
217.5800946964337
 20
195.146648456053
 30
0
 11
217.5800946964337
 21
205.522859744765
 31
0
  0
LINE
  8
1
 62
1
 10
209.5800946964337
 20
195.146648456053
 30
0
 11
209.5800946964337
 21
205.522859744765
 31
0
  0
LINE
  8
1
 62
1
 10
211.3478616494
 20
205.7906266977313
 30
0
 11
207.8123277434673
 21
202.2550927917986
 31
0
  0
TEXT
  8
1
 62
7
 10
212.0800946964337
 20
205.022859744765
 30
0
 40
5
  1
8
 41
0.9
  0
ENDBLK
  8
0
  0
BLOCK
  8
1
  2
*D26
 70
1
 10
0
 20
0
 30
0
  0
LINE
  8
1
 62
1
 10
202.5800946964337
 20
284.656200523598
 30
0
 11
190.083759213021
 21
284.656200523598
 31
0
  0
LINE
  8
1
 62
1
 10
202.5800946964337
 20
284.656200523598
 30
0
 11
207.2800946964337
 21
284.656200523598
 31
0
  0
LINE
  8
1
 62
1
 10
207.2800946964337
 20
284.656200523598
 30
0
 11
207.2800946964337
 21
284.656200523598
 31
0
  0
LINE
  8
1
 62
1
 10
207.2800946964337
 20
273.746648456053
 30
0
 11
207.2800946964337
 21
286.156200523598
 31
0
  0
LINE
  8
1
 62
1
 10
202.5800946964337
 20
279.1868645142306
 30
0
 11
202.5800946964337
 21
286.156200523598
 31
0
  0
SOLID
  8
1
 62
1
 10
202.5800946964337
 20
284.656200523598
 30
0
 11
197.5800946964337
 21
284.006200523598
 31
0
 12
197.5800946964337
 22
285.306200523598
 32
0
 13
197.5800946964337
 23
285.306200523598
 33
0
  0
TEXT
  8
1
 62
7
 10
190.083759213021
 20
286.156200523598
 30
0
 40
5
  1
4,7
 41
0.9
  0
ENDBLK
  8
0
  0
BLOCK
  8
1
  2
*D27
 70
1
 10
0
 20
0
 30
0
  0
LINE
  8
1
 62
1
 10
224.5800946964337
 20
284.656200523598
 30
0
 11
234.800761649616
 21
284.656200523598
 31
0
  0
LINE
  8
1
 62
1
 10
219.8800946964337
 20
284.656200523598
 30
0
 11
224.5800946964337
 21
284.656200523598
 31
0
  0
LINE
  8
1
 62
1
 10
224.5800946964337
 20
276.2137566114716
 30
0
 11
224.5800946964337
 21
286.156200523598
 31
0
  0
LINE
  8
1
 62
1
 10
219.8800946964337
 20
273.746648456053
 30
0
 11
219.8800946964337
 21
286.156200523598
 31
0
  0
LINE
  8
1
 62
1
 10
218.1123277434673
 20
282.8884335706316
 30
0
 11
221.6478616494001
 21
286.4239674765644
 31
0
  0
SOLID
  8
1
 62
1
 10
224.5800946964337
 20
284.656200523598
 30
0
 11
229.5800946964337
 21
285.306200523598
 31
0
 12
229.5800946964337
 22
284.006200523598
 32
0
 13
229.5800946964337
 23
284.006200523598
 33
0
  0
TEXT
  8
1
 62
7
 10
225.550761649616
 20
286.760751701495
 30
0
 40
5
  1
4,7
 41
0.9
  0
ENDBLK
  8
0
  0
BLOCK
  8
1
  2
*D28
 70
1
 10
0
 20
0
 30
0
  0
LINE
  8
1
 62
1
 10
207.2800946964337
 20
284.656200523598
 30
0
 11
219.8800946964337
 21
284.656200523598
 31
0
  0
LINE
  8
1
 62
1
 10
219.8800946964337
 20
273.746648456053
 30
0
 11
219.8800946964337
 21
286.156200523598
 31
0
  0
LINE
  8
1
 62
1
 10
207.2800946964337
 20
273.746648456053
 30
0
 11
207.2800946964337
 21
286.156200523598
 31
0
  0
LINE
  8
1
 62
1
 10
209.0478616494
 20
286.4239674765644
 30
0
 11
205.5123277434673
 21
282.8884335706316
 31
0
  0
TEXT
  8
1
 62
7
 10
207.4550946964337
 20
286.156200523598
 30
0
 40
5
  1
12,6
 41
0.9
  0
ENDBLK
  8
0
  0
ENDSEC
  0
SECTION
  2
ENTITIES
  0
LINE
  8
1
 62
2
  6
DIVIDE
 10
94.08009469643369
 20
143.006648456053
 30
0
 11
94.08009469643369
 21
135.086648456053
 31
0
  0
LINE
  8
1
 62
2
  6
DIVIDE
 10
98.0400946964337
 20
139.046648456053
 30
0
 11
90.12009469643368
 21
139.046648456053
 31
0
  0
LINE
  8
1
 62
2
  6
DIVIDE
 10
115.0800946964337
 20
143.006648456053
 30
0
 11
115.0800946964337
 21
135.086648456053
 31
0
  0
LINE
  8
1
 62
2
  6
DIVIDE
 10
119.0400946964337
 20
139.046648456053
 30
0
 11
111.1200946964337
 21
139.046648456053
 31
0
  0
LINE
  8
1
 62
1
 10
217.5800946964337
 20
195.146648456053
 30
0
 11
217.5800946964337
 21
206.189728578437
 31
0
  0
LINE
  8
1
 62
1
 10
224.5800946964337
 20
276.2137566114716
 30
0
 11
224.5800946964337
 21
203.189728578437
 31
0
  0
LINE
  8
1
 62
1
 10
202.5800946964337
 20
279.1868645142306
 30
0
 11
202.5800946964337
 21
203.189728578437
 31
0
  0
LINE
  8
1
 62
1
 10
209.5800946964337
 20
195.146648456053
 30
0
 11
209.5800946964337
 21
206.189728578437
 31
0
  0
LINE
  8
1
 62
1
 10
219.8800946964337
 20
273.746648456053
 30
0
 11
219.8800946964337
 21
289.979915938922
 31
0
  0
LINE
  8
1
 62
1
 10
224.5800946964337
 20
276.2137566114716
 30
0
 11
224.5800946964337
 21
289.979915938922
 31
0
  0
LINE
  8
1
 62
1
 10
202.5800946964337
 20
279.1868645142306
 30
0
 11
202.5800946964337
 21
289.979915938922
 31
0
  0
LINE
  8
1
 62
1
 10
207.2800946964337
 20
273.746648456053
 30
0
 11
207.2800946964337
 21
289.979915938922
 31
0
  0
LINE
  8
1
 62
7
 10
100.7949203823871
 20
225.8427864920629
 30
0
 11
108.7839566604238
 21
226.2614741420065
 31
0
  0
LINE
  8
1
 62
7
 10
108.7839566604238
 20
226.2614741420065
 30
0
 11
108.3652690104802
 21
234.2505104200431
 31
0
  0
LINE
  8
1
 62
7
 10
108.3652690104802
 20
234.2505104200431
 30
0
 11
100.3762327324436
 21
233.8318227700995
 31
0
  0
LINE
  8
1
 62
7
 10
100.3762327324436
 20
233.8318227700995
 30
0
 11
100.7949203823871
 21
225.8427864920629
 31
0
  0
LINE
  8
1
 62
7
 10
106.4554975526567
 20
237.29230490917
 30
0
 11
107.8325875749562
 21
242.6171169312496
 31
0
  0
LINE
  8
1
 62
7
 10
105.6254848153454
 20
256.446648456053
 30
0
 11
108.6254848153454
 21
256.446648456053
 31
0
  0
LINE
  8
1
 62
7
 10
108.6254848153454
 20
260.646648456053
 30
0
 11
105.6254848153454
 21
260.646648456053
 31
0
  0
LINE
  8
1
 62
7
 10
105.6254848153454
 20
260.646648456053
 30
0
 11
105.6254848153454
 21
256.446648456053
 31
0
  0
LINE
  8
1
 62
7
 10
108.6254848153454
 20
256.446648456053
 30
0
 11
108.6254848153454
 21
260.646648456053
 31
0
  0
LINE
  8
1
 62
2
  6
PHANTOM
 10
104.5800946964337
 20
216.7622709346475
 30
0
 11
104.5800946964337
 21
247.577898456053
 31
0
  0
LINE
  8
1
 62
3
 10
107.7800946964337
 20
277.046648456053
 30
0
 11
107.7800946964337
 21
276.546648456053
 31
0
  0
LINE
  8
1
 62
3
 10
103.3800946964337
 20
277.046648456053
 30
0
 11
103.3800946964337
 21
277.546648456053
 31
0
  0
LINE
  8
1
 62
3
 10
105.5800946964337
 20
274.846648456053
 30
0
 11
105.0800946964337
 21
274.846648456053
 31
0
  0
LINE
  8
1
 62
3
 10
105.5800946964337
 20
279.246648456053
 30
0
 11
106.0800946964337
 21
279.246648456053
 31
0
  0
LINE
  8
1
 62
3
 10
114.5800946964337
 20
215.246648456053
 30
0
 11
115.0800946964337
 21
215.246648456053
 31
0
  0
LINE
  8
1
 62
3
 10
112.3800946964337
 20
213.046648456053
 30
0
 11
112.3800946964337
 21
213.546648456053
 31
0
  0
LINE
  8
1
 62
3
 10
114.5800946964337
 20
210.846648456053
 30
0
 11
114.0800946964337
 21
210.846648456053
 31
0
  0
LINE
  8
1
 62
3
 10
116.7800946964337
 20
213.046648456053
 30
0
 11
116.7800946964337
 21
212.546648456053
 31
0
  0
LINE
  8
1
 62
3
 10
94.18009469643371
 20
123.696648456053
 30
0
 11
94.18009469643371
 21
124.196648456053
 31
0
  0
LINE
  8
1
 62
3
 10
98.58009469643372
 20
123.696648456053
 30
0
 11
98.58009469643372
 21
123.196648456053
 31
0
  0
LINE
  8
1
 62
3
 10
96.8800946964337
 20
125.896648456053
 30
0
 11
96.8800946964337
 21
124.196648456053
 31
0
  0
LINE
  8
1
 62
3
 10
96.8800946964337
 20
124.196648456053
 30
0
 11
98.58009469643372
 21
124.196648456053
 31
0
  0
LINE
  8
1
 62
3
 10
98.58009469643372
 20
124.196648456053
 30
0
 11
98.58009469643372
 21
123.696648456053
 31
0
  0
LINE
  8
1
 62
3
 10
98.58009469643372
 20
123.196648456053
 30
0
 11
96.8800946964337
 21
123.196648456053
 31
0
  0
LINE
  8
1
 62
3
 10
96.8800946964337
 20
123.196648456053
 30
0
 11
96.8800946964337
 21
121.496648456053
 31
0
  0
LINE
  8
1
 62
3
 10
96.8800946964337
 20
121.496648456053
 30
0
 11
95.8800946964337
 21
121.496648456053
 31
0
  0
LINE
  8
1
 62
3
 10
95.8800946964337
 20
121.496648456053
 30
0
 11
95.8800946964337
 21
123.196648456053
 31
0
  0
LINE
  8
1
 62
3
 10
95.8800946964337
 20
123.196648456053
 30
0
 11
94.18009469643371
 21
123.196648456053
 31
0
  0
LINE
  8
1
 62
3
 10
94.18009469643371
 20
123.196648456053
 30
0
 11
94.18009469643371
 21
123.696648456053
 31
0
  0
LINE
  8
1
 62
3
 10
94.18009469643371
 20
124.196648456053
 30
0
 11
95.8800946964337
 21
124.196648456053
 31
0
  0
LINE
  8
1
 62
3
 10
95.8800946964337
 20
124.196648456053
 30
0
 11
95.8800946964337
 21
125.896648456053
 31
0
  0
LINE
  8
1
 62
3
 10
95.8800946964337
 20
125.896648456053
 30
0
 11
96.8800946964337
 21
125.896648456053
 31
0
  0
LINE
  8
1
 62
3
 10
115.0800946964337
 20
215.246648456053
 30
0
 11
115.0800946964337
 21
213.546648456053
 31
0
  0
LINE
  8
1
 62
3
 10
115.0800946964337
 20
213.546648456053
 30
0
 11
116.7800946964337
 21
213.546648456053
 31
0
  0
LINE
  8
1
 62
3
 10
116.7800946964337
 20
213.546648456053
 30
0
 11
116.7800946964337
 21
213.046648456053
 31
0
  0
LINE
  8
1
 62
3
 10
116.7800946964337
 20
212.546648456053
 30
0
 11
115.0800946964337
 21
212.546648456053
 31
0
  0
LINE
  8
1
 62
3
 10
115.0800946964337
 20
212.546648456053
 30
0
 11
115.0800946964337
 21
210.846648456053
 31
0
  0
LINE
  8
1
 62
3
 10
115.0800946964337
 20
210.846648456053
 30
0
 11
114.5800946964337
 21
210.846648456053
 31
0
  0
LINE
  8
1
 62
3
 10
114.0800946964337
 20
210.846648456053
 30
0
 11
114.0800946964337
 21
212.546648456053
 31
0
  0
LINE
  8
1
 62
3
 10
114.0800946964337
 20
212.546648456053
 30
0
 11
112.3800946964337
 21
212.546648456053
 31
0
  0
LINE
  8
1
 62
3
 10
112.3800946964337
 20
212.546648456053
 30
0
 11
112.3800946964337
 21
213.046648456053
 31
0
  0
LINE
  8
1
 62
3
 10
112.3800946964337
 20
213.546648456053
 30
0
 11
114.0800946964337
 21
213.546648456053
 31
0
  0
LINE
  8
1
 62
3
 10
114.0800946964337
 20
213.546648456053
 30
0
 11
114.0800946964337
 21
215.246648456053
 31
0
  0
LINE
  8
1
 62
3
 10
114.0800946964337
 20
215.246648456053
 30
0
 11
114.5800946964337
 21
215.246648456053
 31
0
  0
LINE
  8
1
 62
3
 10
105.0800946964337
 20
279.246648456053
 30
0
 11
105.5800946964337
 21
279.246648456053
 31
0
  0
LINE
  8
1
 62
3
 10
105.0800946964337
 20
277.546648456053
 30
0
 11
105.0800946964337
 21
279.246648456053
 31
0
  0
LINE
  8
1
 62
3
 10
103.3800946964337
 20
277.546648456053
 30
0
 11
105.0800946964337
 21
277.546648456053
 31
0
  0
LINE
  8
1
 62
3
 10
103.3800946964337
 20
276.546648456053
 30
0
 11
103.3800946964337
 21
277.046648456053
 31
0
  0
LINE
  8
1
 62
3
 10
105.0800946964337
 20
276.546648456053
 30
0
 11
103.3800946964337
 21
276.546648456053
 31
0
  0
LINE
  8
1
 62
3
 10
105.0800946964337
 20
274.846648456053
 30
0
 11
105.0800946964337
 21
276.546648456053
 31
0
  0
LINE
  8
1
 62
3
 10
106.0800946964337
 20
274.846648456053
 30
0
 11
105.5800946964337
 21
274.846648456053
 31
0
  0
LINE
  8
1
 62
3
 10
106.0800946964337
 20
276.546648456053
 30
0
 11
106.0800946964337
 21
274.846648456053
 31
0
  0
LINE
  8
1
 62
3
 10
107.7800946964337
 20
276.546648456053
 30
0
 11
106.0800946964337
 21
276.546648456053
 31
0
  0
LINE
  8
1
 62
3
 10
107.7800946964337
 20
277.546648456053
 30
0
 11
107.7800946964337
 21
277.046648456053
 31
0
  0
LINE
  8
1
 62
3
 10
106.0800946964337
 20
277.546648456053
 30
0
 11
107.7800946964337
 21
277.546648456053
 31
0
  0
LINE
  8
1
 62
3
 10
106.0800946964337
 20
279.246648456053
 30
0
 11
106.0800946964337
 21
277.546648456053
 31
0
  0
LINE
  8
1
 62
2
  6
PHANTOM
 10
213.5800946964337
 20
314.313564237735
 30
0
 11
213.5800946964337
 21
326.779732674371
 31
0
  0
LINE
  8
1
 62
2
  6
PHANTOM
 10
213.5800946964337
 20
127.0624714018594
 30
0
 11
213.5800946964337
 21
139.0308255102466
 31
0
  0
LINE
  8
1
 62
2
  6
PHANTOM
 10
213.5800946964337
 20
88.7959290725494
 30
0
 11
213.5800946964337
 21
102.2973678395566
 31
0
  0
LINE
  8
1
 62
7
 10
119.5800946964337
 20
256.446648456053
 30
0
 11
104.5800946964337
 21
256.446648456053
 31
0
  0
LINE
  8
1
 62
7
 10
72.58009469643369
 20
136.1802500820541
 30
0
 11
72.58009469643369
 21
163.046648456053
 31
0
  0
LINE
  8
1
 62
7
 10
69.58009469643369
 20
129.0268033581577
 30
0
 11
69.58009469643369
 21
83.04664845605299
 31
0
  0
LINE
  8
1
 62
7
 10
72.58009469643369
 20
195.046648456053
 30
0
 11
72.58009469643369
 21
258.546648456053
 31
0
  0
LINE
  8
1
 62
7
 10
69.58009469643369
 20
163.046648456053
 30
0
 11
69.58009469643369
 21
138.046648456053
 31
0
  0
LINE
  8
1
 62
7
 10
119.5800946964337
 20
118.046648456053
 30
0
 11
72.58009469643369
 21
118.046648456053
 31
0
  0
LINE
  8
1
 62
7
 10
72.58009469643369
 20
118.046648456053
 30
0
 11
72.58009469643369
 21
131.1794884418346
 31
0
  0
LINE
  8
1
 62
7
 10
72.58009469643369
 20
298.046648456053
 30
0
 11
119.5800946964337
 21
298.046648456053
 31
0
  0
LINE
  8
1
 62
7
 10
119.5800946964337
 20
298.046648456053
 30
0
 11
119.5800946964337
 21
260.646648456053
 31
0
  0
LINE
  8
1
 62
7
 10
72.58009469643369
 20
298.046648456053
 30
0
 11
72.58009469643369
 21
333.046648456053
 31
0
  0
LINE
  8
1
 62
7
 10
72.58009469643369
 20
333.046648456053
 30
0
 11
69.58009469643369
 21
333.046648456053
 31
0
  0
LINE
  8
1
 62
7
 10
69.58009469643369
 20
333.046648456053
 30
0
 11
69.58009469643369
 21
271.246648456053
 31
0
  0
LINE
  8
1
 62
7
 10
69.58009469643369
 20
83.04664845605299
 30
0
 11
72.58009469643369
 21
83.04664845605299
 31
0
  0
LINE
  8
1
 62
7
 10
72.58009469643369
 20
83.04664845605299
 30
0
 11
72.58009469643369
 21
118.046648456053
 31
0
  0
LINE
  8
1
 62
7
 10
99.4800946964337
 20
142.18764242096
 30
0
 11
99.4800946964337
 21
133.046648456053
 31
0
  0
LINE
  8
1
 62
7
 10
109.6800946964337
 20
142.18764242096
 30
0
 11
109.6800946964337
 21
133.046648456053
 31
0
  0
LINE
  8
1
 62
7
 10
119.5800946964337
 20
260.646648456053
 30
0
 11
104.5800946964337
 21
260.646648456053
 31
0
  0
LINE
  8
1
 62
7
 10
104.5800946964337
 20
260.646648456053
 30
0
 11
104.5800946964337
 21
256.446648456053
 31
0
  0
LINE
  8
1
 62
7
 10
119.5800946964337
 20
256.446648456053
 30
0
 11
119.5800946964337
 21
118.046648456053
 31
0
  0
LINE
  8
1
 62
7
 10
102.857148959129
 20
243.1337206261873
 30
0
 11
103.6031062209223
 21
237.4676126870038
 31
0
  0
LINE
  8
1
 62
7
 10
110.6770278464672
 20
234.3955486074034
 30
0
 11
115.3264195387371
 21
237.7119274714374
 31
0
  0
LINE
  8
1
 62
2
  6
PHANTOM
 10
91.4800946964337
 20
230.046648456053
 30
0
 11
117.7800946964337
 21
230.046648456053
 31
0
  0
LINE
  8
1
 62
2
  6
PHANTOM
 10
97.08266929829429
 20
133.046648456053
 30
0
 11
112.4869187464179
 21
133.046648456053
 31
0
  0
LINE
  8
1
 62
2
  6
PHANTOM
 10
104.5800946964337
 20
119.07489823904
 30
0
 11
104.5800946964337
 21
165.2945674777402
 31
0
  0
LINE
  8
1
 62
7
 10
69.58009469643369
 20
245.846648456053
 30
0
 11
69.58009469643369
 21
195.046648456053
 31
0
  0
LINE
  8
1
 62
7
 10
72.58009469643369
 20
258.546648456053
 30
0
 11
72.58009469643369
 21
298.046648456053
 31
0
  0
LINE
  8
1
 62
7
 10
69.58009469643369
 20
163.046648456053
 30
0
 11
69.58009469643369
 21
195.046648456053
 31
0
  0
LINE
  8
1
 62
7
 10
72.58009469643369
 20
195.046648456053
 30
0
 11
72.58009469643369
 21
163.046648456053
 31
0
  0
LINE
  8
1
 62
7
 10
69.58009469643369
 20
245.846648456053
 30
0
 11
69.58009469643369
 21
271.046648456053
 31
0
  0
LINE
  8
1
 62
7
 10
72.58009469643369
 20
131.1794884418346
 30
0
 11
72.58009469643369
 21
136.1802500820541
 31
0
  0
LINE
  8
1
 62
7
 10
69.58009469643369
 20
129.0268033581577
 30
0
 11
69.58009469643369
 21
138.046648456053
 31
0
  0
LINE
  8
1
 62
2
  6
PHANTOM
 10
92.03505075112139
 20
152.046648456053
 30
0
 11
117.125138641746
 21
152.046648456053
 31
0
  0
LINE
  8
1
 62
7
 10
202.5800946964337
 20
83.04664845605299
 30
0
 11
224.5800946964337
 21
83.04664845605299
 31
0
  0
LINE
  8
1
 62
7
 10
224.5800946964337
 20
83.04664845605299
 30
0
 11
224.5800946964337
 21
276.2137566114716
 31
0
  0
LINE
  8
1
 62
7
 10
224.5800946964337
 20
333.046648456053
 30
0
 11
202.5800946964337
 21
333.046648456053
 31
0
  0
LINE
  8
1
 62
7
 10
202.5800946964337
 20
333.046648456053
 30
0
 11
202.5800946964337
 21
317.439843430663
 31
0
  0
LINE
  8
1
 62
2
  6
PHANTOM
 10
218.8050946964337
 20
95.54664845605299
 30
0
 11
208.3550946964337
 21
95.54664845605299
 31
0
  0
LINE
  8
1
 62
2
  6
PHANTOM
 10
218.8050946964337
 20
133.046648456053
 30
0
 11
208.3550946964337
 21
133.046648456053
 31
0
  0
LINE
  8
1
 62
2
  6
PHANTOM
 10
218.8050946964337
 20
320.546648456053
 30
0
 11
208.3550946964337
 21
320.546648456053
 31
0
  0
LINE
  8
1
 62
7
 10
217.5800946964337
 20
162.946648456053
 30
0
 11
209.5800946964337
 21
162.946648456053
 31
0
  0
LINE
  8
1
 62
7
 10
209.5800946964337
 20
162.946648456053
 30
0
 11
209.5800946964337
 21
195.146648456053
 31
0
  0
LINE
  8
1
 62
7
 10
209.5800946964337
 20
195.146648456053
 30
0
 11
217.5800946964337
 21
195.146648456053
 31
0
  0
LINE
  8
1
 62
7
 10
217.5800946964337
 20
195.146648456053
 30
0
 11
217.5800946964337
 21
162.946648456053
 31
0
  0
LINE
  8
1
 62
7
 10
207.2800946964337
 20
273.746648456053
 30
0
 11
207.2800946964337
 21
243.446648456053
 31
0
  0
LINE
  8
1
 62
7
 10
207.2800946964337
 20
243.446648456053
 30
0
 11
210.4800946964337
 21
243.446648456053
 31
0
  0
LINE
  8
1
 62
7
 10
210.4800946964337
 20
243.446648456053
 30
0
 11
210.4800946964337
 21
245.496648456053
 31
0
  0
LINE
  8
1
 62
7
 10
210.8800946964337
 20
245.896648456053
 30
0
 11
216.2800946964337
 21
245.896648456053
 31
0
  0
LINE
  8
1
 62
7
 10
216.6800946964337
 20
245.496648456053
 30
0
 11
216.6800946964337
 21
243.446648456053
 31
0
  0
LINE
  8
1
 62
7
 10
219.8800946964337
 20
243.446648456053
 30
0
 11
219.8800946964337
 21
273.746648456053
 31
0
  0
LINE
  8
1
 62
7
 10
219.8800946964337
 20
273.746648456053
 30
0
 11
216.6800946964337
 21
273.746648456053
 31
0
  0
LINE
  8
1
 62
7
 10
216.6800946964337
 20
273.746648456053
 30
0
 11
216.6800946964337
 21
271.696648456053
 31
0
  0
LINE
  8
1
 62
7
 10
216.2800946964337
 20
271.296648456053
 30
0
 11
210.8800946964337
 21
271.296648456053
 31
0
  0
LINE
  8
1
 62
7
 10
210.4800946964337
 20
271.696648456053
 30
0
 11
210.4800946964337
 21
273.746648456053
 31
0
  0
LINE
  8
1
 62
7
 10
210.4800946964337
 20
273.746648456053
 30
0
 11
207.2800946964337
 21
273.746648456053
 31
0
  0
LINE
  8
1
 62
7
 10
219.8800946964337
 20
243.446648456053
 30
0
 11
216.6800946964337
 21
243.446648456053
 31
0
  0
LINE
  8
1
 62
7
 10
224.5800946964337
 20
314.466735527904
 30
0
 11
224.5800946964337
 21
333.046648456053
 31
0
  0
LINE
  8
1
 62
7
 10
202.5800946964337
 20
279.1868645142306
 30
0
 11
202.5800946964337
 21
83.04664845605299
 31
0
  0
LINE
  8
1
 62
7
 10
224.5800946964337
 20
276.2137566114716
 30
0
 11
224.5800946964337
 21
314.466735527904
 31
0
  0
LINE
  8
1
 62
7
 10
202.5800946964337
 20
279.1868645142306
 30
0
 11
202.5800946964337
 21
317.439843430663
 31
0
  0
LINE
  8
1
 62
7
 10
210.4800946964337
 20
271.696648456053
 30
0
 11
210.4800946964337
 21
245.496648456053
 31
0
  0
LINE
  8
1
 62
7
 10
216.2800946964337
 20
271.296648456053
 30
0
 11
219.8800946964337
 21
271.296648456053
 31
0
  0
LINE
  8
1
 62
7
 10
216.2800946964337
 20
245.896648456053
 30
0
 11
219.8800946964337
 21
245.896648456053
 31
0
  0
LINE
  8
1
 62
7
 10
69.58009469643369
 20
10.04664845605299
 30
0
 11
72.58009469643369
 21
10.04664845605299
 31
0
  0
LINE
  8
1
 62
7
 10
72.58009469643369
 20
10.04664845605299
 30
0
 11
72.58009469643369
 21
32.04664845605299
 31
0
  0
LINE
  8
1
 62
7
 10
72.58009469643369
 20
32.04664845605299
 30
0
 11
69.58009469643369
 21
32.04664845605299
 31
0
  0
LINE
  8
1
 62
7
 10
69.58009469643369
 20
32.04664845605299
 30
0
 11
69.58009469643369
 21
10.04664845605299
 31
0
  0
LINE
  8
1
 62
7
 10
72.58009469643369
 20
12.54664845605299
 30
0
 11
119.5800946964337
 21
12.54664845605299
 31
0
  0
LINE
  8
1
 62
7
 10
119.5800946964337
 20
12.54664845605299
 30
0
 11
119.5800946964337
 21
29.54664845605299
 31
0
  0
LINE
  8
1
 62
7
 10
119.5800946964337
 20
29.54664845605299
 30
0
 11
72.58009469643369
 21
29.54664845605299
 31
0
  0
LINE
  8
1
 62
7
 10
57.58009469643369
 20
24.34664845605299
 30
0
 11
69.58009469643369
 21
14.74664845605298
 31
0
  0
LINE
  8
1
 62
7
 10
57.58009469643369
 20
24.34664845605299
 30
0
 11
69.58009469643369
 21
24.34664845605299
 31
0
  0
LINE
  8
1
 62
7
 10
57.58009469643369
 20
24.34664845605299
 30
0
 11
57.58009469643369
 21
27.34664845605299
 31
0
  0
LINE
  8
1
 62
7
 10
57.58009469643369
 20
27.34664845605299
 30
0
 11
69.58009469643369
 21
27.34664845605299
 31
0
  0
LINE
  8
1
 62
7
 10
69.58009469643369
 20
273.546648456053
 30
0
 11
58.8800946964337
 21
273.546648456053
 31
0
  0
LINE
  8
1
 62
7
 10
58.8800946964337
 20
243.546648456053
 30
0
 11
69.58009469643369
 21
243.546648456053
 31
0
  0
LINE
  8
1
 62
7
 10
58.58009469643369
 20
258.546648456053
 30
0
 11
58.58009469643369
 21
243.8466484560529
 31
0
  0
LINE
  8
1
 62
7
 10
58.58009469643369
 20
271.046648456053
 30
0
 11
69.58009469643369
 21
271.046648456053
 31
0
  0
LINE
  8
1
 62
7
 10
58.58009469643369
 20
273.246648456053
 30
0
 11
58.58009469643369
 21
258.546648456053
 31
0
  0
LINE
  8
1
 62
7
 10
69.58009469643369
 20
246.046648456053
 30
0
 11
58.58009469643369
 21
246.046648456053
 31
0
  0
LINE
  8
1
 62
7
 10
69.58009469643369
 20
253.446648456053
 30
0
 11
69.58009469643369
 21
250.446648456053
 31
0
  0
LINE
  8
1
 62
7
 10
69.58009469643369
 20
266.646648456053
 30
0
 11
69.58009469643369
 21
263.646648456053
 31
0
  0
LINE
  8
1
 62
7
 10
63.58009469643369
 20
195.046648456053
 30
0
 11
57.58009469643369
 21
195.046648456053
 31
0
  0
LINE
  8
1
 62
7
 10
63.58009469643369
 20
163.046648456053
 30
0
 11
69.58009469643369
 21
163.046648456053
 31
0
  0
LINE
  8
1
 62
7
 10
57.58009469643369
 20
195.046648456053
 30
0
 11
57.58009469643369
 21
163.046648456053
 31
0
  0
LINE
  8
1
 62
7
 10
57.58009469643369
 20
163.046648456053
 30
0
 11
63.58009469643369
 21
163.046648456053
 31
0
  0
LINE
  8
1
 62
7
 10
69.58009469643369
 20
195.046648456053
 30
0
 11
63.58009469643369
 21
195.046648456053
 31
0
  0
LINE
  8
1
 62
1
 10
224.5800946964337
 20
83.04664845605299
 30
0
 11
224.5800946964337
 21
209.7770993108688
 31
0
  0
LINE
  8
1
 62
1
 10
202.5800946964337
 20
279.1868645142306
 30
0
 11
202.5800946964337
 21
205.7770993108688
 31
0
  0
LINE
  8
1
 62
1
 10
224.5800946964337
 20
276.2137566114716
 30
0
 11
224.5800946964337
 21
232.121648456053
 31
0
  0
ARC
  8
1
 62
7
 10
104.5776475222484
 20
230.0311976063342
 30
0
 40
13.00000000000002
 50
75.49999999999977
 51
97.49999999999969
  0
ARC
  8
1
 62
7
 10
104.5776475222484
 20
230.0311976063342
 30
0
 40
7.500000000000029
 50
97.49999999999925
 51
75.50000000000014
  0
ARC
  8
1
 62
7
 10
105.5800946964337
 20
277.046648456053
 30
0
 40
3.75
 50
90
 51
180
  0
ARC
  8
1
 62
7
 10
105.5800946964337
 20
277.046648456053
 30
0
 40
3.75
 50
180
 51
270
  0
ARC
  8
1
 62
7
 10
105.5800946964337
 20
277.046648456053
 30
0
 40
3.75
 50
270
 51
0
  0
ARC
  8
1
 62
7
 10
105.5800946964337
 20
277.046648456053
 30
0
 40
3.75
 50
0
 51
90
  0
ARC
  8
1
 62
7
 10
114.5800946964337
 20
213.046648456053
 30
0
 40
3.75
 50
180
 51
270
  0
ARC
  8
1
 62
7
 10
114.5800946964337
 20
213.046648456053
 30
0
 40
3.75
 50
0
 51
90
  0
ARC
  8
1
 62
7
 10
114.5800946964337
 20
213.046648456053
 30
0
 40
3.75
 50
270
 51
0
  0
ARC
  8
1
 62
7
 10
114.5800946964337
 20
213.046648456053
 30
0
 40
3.75
 50
90
 51
180
  0
ARC
  8
1
 62
7
 10
96.3800946964337
 20
123.696648456053
 30
0
 40
3.75
 50
180
 51
0
  0
ARC
  8
1
 62
7
 10
96.3800946964337
 20
123.696648456053
 30
0
 40
3.75
 50
0
 51
180
  0
ARC
  8
1
 62
7
 10
94.08009469643369
 20
139.046648456053
 30
0
 40
3.599999999999985
 50
27.26604445073177
 51
180
  0
ARC
  8
1
 62
7
 10
94.08009469643369
 20
139.046648456053
 30
0
 40
3.599999999999994
 50
180
 51
27.26604445073177
  0
ARC
  8
1
 62
7
 10
104.5800946964337
 20
152.046648456053
 30
0
 40
11.1
 50
297.3522329091286
 51
242.6477670908713
  0
ARC
  8
1
 62
7
 10
104.5800946964337
 20
133.046648456053
 30
0
 40
5.100000000000009
 50
180
 51
0
  0
ARC
  8
1
 62
7
 10
104.5800946964337
 20
230.046648456053
 30
0
 40
13.19999999999999
 50
35.50000000000009
 51
97.50000000000004
  0
ARC
  8
1
 62
7
 10
213.5800946964337
 20
133.046648456053
 30
0
 40
4.75
 50
90
 51
270
  0
ARC
  8
1
 62
7
 10
213.5800946964337
 20
133.046648456053
 30
0
 40
4.75
 50
270
 51
90
  0
ARC
  8
1
 62
7
 10
213.5800946964337
 20
133.046648456053
 30
0
 40
3.25
 50
90
 51
270
  0
ARC
  8
1
 62
7
 10
213.5800946964337
 20
133.046648456053
 30
0
 40
3.25
 50
270
 51
90
  0
ARC
  8
1
 62
7
 10
213.5800946964337
 20
95.54664845605299
 30
0
 40
4.750000000000014
 50
90
 51
270
  0
ARC
  8
1
 62
7
 10
213.5800946964337
 20
95.54664845605299
 30
0
 40
4.75
 50
270
 51
90
  0
ARC
  8
1
 62
7
 10
213.5800946964337
 20
95.54664845605299
 30
0
 40
2.75
 50
90
 51
270
  0
ARC
  8
1
 62
7
 10
213.5800946964337
 20
95.54664845605299
 30
0
 40
2.75
 50
270
 51
90
  0
ARC
  8
1
 62
7
 10
216.2800946964337
 20
271.696648456053
 30
0
 40
0.4000000000000341
 50
270
 51
0
  0
ARC
  8
1
 62
7
 10
216.2800946964337
 20
245.496648456053
 30
0
 40
0.4000000000000057
 50
0
 51
90
  0
ARC
  8
1
 62
7
 10
210.8800946964337
 20
245.496648456053
 30
0
 40
0.3999999999999773
 50
90
 51
180
  0
ARC
  8
1
 62
7
 10
210.8800946964337
 20
271.696648456053
 30
0
 40
0.4000000000000057
 50
180
 51
270
  0
ARC
  8
1
 62
7
 10
58.8800946964337
 20
243.8466484560529
 30
0
 40
0.3000000000000114
 50
180
 51
270
  0
ARC
  8
1
 62
7
 10
58.8800946964337
 20
273.246648456053
 30
0
 40
0.3000000000000114
 50
90
 51
180
  0
CIRCLE
  8
1
 62
7
 10
115.0800946964337
 20
139.046648456053
 30
0
 40
3.599999999999994
  0
CIRCLE
  8
1
 62
7
 10
213.5800946964337
 20
320.546648456053
 30
0
 40
2.75
  0
CIRCLE
  8
1
 62
7
 10
213.5800946964337
 20
320.546648456053
 30
0
 40
4.75
  0
TEXT
  8
1
 62
7
 10
175.9355747789875
 20
25.0936599807809
 30
0
 40
10
  1
1902
 41
0.8820899999999999
  0
DIMENSION
  8
1
  6
CONTINUOUS
 62
1
  2
*D0
  3
DMST_1
 10
137.1700946964337
 20
230.046648456053
 30
0
 11
134.5800946964337
 21
191.046648456053
 31
0
 12
0
 22
0
 32
0
 70
0
 13
117.125138641746
 23
152.046648456053
 33
0
 14
117.7800946964337
 24
230.046648456053
 34
0
 50
90
 53
0
  0
DIMENSION
  8
1
  6
CONTINUOUS
 62
1
  2
*D1
  3
DMST_1
 10
137.1700946964337
 20
298.046648456053
 30
0
 11
134.5800946964337
 21
264.046648456053
 31
0
 12
0
 22
0
 32
0
 70
0
 13
117.7800946964337
 23
230.046648456053
 33
0
 14
119.5800946964337
 24
298.046648456053
 34
0
 50
90
 53
0
  0
DIMENSION
  8
1
  6
CONTINUOUS
 62
1
  2
*D2
  3
DMST_1
 10
137.1700946964337
 20
118.046648456053
 30
0
 11
134.5800946964337
 21
135.046648456053
 31
0
 12
0
 22
0
 32
0
 70
0
 13
117.125138641746
 23
152.046648456053
 33
0
 14
119.5800946964337
 24
118.046648456053
 34
0
 50
90
 53
0
  0
DIMENSION
  8
1
  6
CONTINUOUS
 62
1
  2
*D3
  3
DMST_1
 10
182.0545741206845
 20
320.546648456053
 30
0
 11
177.4989458373615
 21
208.197079536595
 31
0
 12
0
 22
0
 32
0
 70
0
 13
218.8050946964337
 23
95.54664845605299
 33
0
 14
218.3300946964337
 24
320.546648456053
 34
0
 50
90
 53
0
  0
DIMENSION
  8
1
  6
CONTINUOUS
 62
1
  2
*D4
  3
DMST_1
 10
182.0545741206845
 20
333.046648456053
 30
0
 11
176.9213411234743
 21
341.85980280256
 31
0
 12
0
 22
0
 32
0
 70
0
  1
12,5
 13
218.3300946964337
 23
320.546648456053
 33
0
 14
224.5800946964337
 24
333.046648456053
 34
0
 50
90
 53
0
  0
DIMENSION
  8
1
  6
CONTINUOUS
 62
1
  2
*D5
  3
DMST_1
 10
182.0545741206845
 20
83.04664845605299
 30
0
 11
176.9213411234743
 21
70.9307044178703
 31
0
 12
0
 22
0
 32
0
 70
0
  1
12,5
 13
218.8050946964337
 23
95.54664845605299
 33
0
 14
224.5800946964337
 24
83.04664845605299
 34
0
 50
90
 53
0
  0
DIMENSION
  8
1
  6
CONTINUOUS
 62
1
  2
*D6
  3
DMST_1
 10
38.10159345262801
 20
163.046648456053
 30
0
 11
33.356223518538
 21
140.8194231434468
 31
0
 12
0
 22
0
 32
0
 70
0
 13
72.58009469643369
 23
118.046648456053
 33
0
 14
57.58009469643369
 24
163.046648456053
 34
0
 50
90
 53
0
  0
DIMENSION
  8
1
  6
CONTINUOUS
 62
1
  2
*D7
  3
DMST_1
 10
38.10159345262801
 20
195.046648456053
 30
0
 11
33.356223518538
 21
179.4762399840507
 31
0
 12
0
 22
0
 32
0
 70
0
 13
57.58009469643369
 23
163.046648456053
 33
0
 14
63.58009469643369
 24
195.046648456053
 34
0
 50
90
 53
0
  0
DIMENSION
  8
1
  6
CONTINUOUS
 62
1
  2
*D8
  3
DMST_1
 10
38.11100526161201
 20
195.046648456053
 30
0
 11
32.796968983813
 21
219.060820428829
 31
0
 12
0
 22
0
 32
0
 70
0
  1
48,5
 13
58.8800946964337
 23
243.546648456053
 33
0
 14
63.58009469643369
 24
195.046648456053
 34
0
 50
90
 53
0
  0
DIMENSION
  8
1
  6
CONTINUOUS
 62
1
  2
*D9
  3
DMST_1
 10
38.11100526161201
 20
243.546648456053
 30
0
 11
33.356223518538
 21
258.026891804158
 31
0
 12
0
 22
0
 32
0
 70
0
 13
58.8800946964337
 23
273.546648456053
 33
0
 14
58.8800946964337
 24
243.546648456053
 34
0
 50
90
 53
0
  0
DIMENSION
  8
1
  6
CONTINUOUS
 62
1
  2
*D10
  3
DMST_1
 10
38.10159345262801
 20
273.546648456053
 30
0
 11
32.796968983813
 21
285.550545394668
 31
0
 12
0
 22
0
 32
0
 70
0
  1
24,5
 13
72.58009469643369
 23
298.046648456053
 33
0
 14
58.8800946964337
 24
273.546648456053
 34
0
 50
90
 53
0
  0
DIMENSION
  8
1
  6
CONTINUOUS
 62
1
  2
*D11
  3
DMST_1
 10
38.11100526161201
 20
333.046648456053
 30
0
 11
33.356223518538
 21
316.166744332426
 31
0
 12
0
 22
0
 32
0
 70
0
 13
72.58009469643369
 23
298.046648456053
 33
0
 14
69.58009469643369
 24
333.046648456053
 34
0
 50
90
 53
0
  0
DIMENSION
  8
1
  6
CONTINUOUS
 62
1
  2
*D12
  3
DMST_1
 10
38.11100526161201
 20
83.04664845605299
 30
0
 11
33.356223518538
 21
99.99782455976896
 31
0
 12
0
 22
0
 32
0
 70
0
 13
72.58009469643369
 23
118.046648456053
 33
0
 14
69.58009469643369
 24
83.04664845605299
 34
0
 50
90
 53
0
  0
DIMENSION
  8
1
  6
CONTINUOUS
 62
1
  2
*D13
  3
DMST_1
 10
253.4724017480877
 20
83.04664845605301
 30
0
 11
247.606354609216
 21
205.9038465393844
 31
0
 12
0
 22
0
 32
0
 70
0
 13
202.5800946964337
 23
333.046648456053
 33
0
 14
202.5800946964337
 24
83.04664845605299
 34
0
 50
90
 53
0
  0
DIMENSION
  8
1
  6
CONTINUOUS
 62
1
  2
*D14
  3
DMST_1
 10
139.070797494323
 20
29.54664845605299
 30
0
 11
133.9973686491
 21
21.0516341006563
 31
0
 12
0
 22
0
 32
0
 70
0
 13
119.5800946964337
 23
12.54664845605299
 33
0
 14
119.5800946964337
 24
29.54664845605299
 34
0
 50
90
 53
0
  0
DIMENSION
  8
1
  6
CONTINUOUS
 62
1
  2
*D15
  3
DMST_1
 10
69.58009469643369
 20
65.45664845605299
 30
0
 11
60.158150256482
 21
70.65310230568181
 31
0
 12
0
 22
0
 32
0
 70
0
 13
72.58009469643369
 23
83.04664845605299
 33
0
 14
69.58009469643369
 24
83.04664845605299
 34
0
 53
0
  0
DIMENSION
  8
1
  6
CONTINUOUS
 62
1
  2
*D16
  3
DMST_1
 10
202.5800946964337
 20
63.64619184233149
 30
0
 11
213.4991680045522
 21
68.43390715187149
 31
0
 12
0
 22
0
 32
0
 70
0
  1
22
 13
224.5800946964337
 23
83.04664845605299
 33
0
 14
202.5800946964337
 24
83.04664845605299
 34
0
 53
0
  0
DIMENSION
  8
1
  6
CONTINUOUS
 62
1
  2
*D17
  3
DMST_1
 10
104.5800946964337
 20
106.7366936556334
 30
0
 11
87.76882257714399
 21
110.2407360392374
 31
0
 12
0
 22
0
 32
0
 70
0
  1
a
 13
69.58009469643369
 23
138.046648456053
 33
0
 14
104.5800946964337
 24
119.07489823904
 34
0
 53
0
  0
DIMENSION
  8
1
  6
CONTINUOUS
 62
1
  2
*D18
  3
DMST_1
 10
152.1700946964337
 20
118.046648456053
 30
0
 11
149.5800946964337
 21
208.046648456053
 31
0
 12
0
 22
0
 32
0
 70
0
 13
119.5800946964337
 23
298.046648456053
 33
0
 14
119.5800946964337
 24
118.046648456053
 34
0
 50
90
 53
0
  0
DIMENSION
  8
1
  6
CONTINUOUS
 62
1
  2
*D19
  3
DMST_1
 10
110.0185460531494
 20
202.7041051861929
 30
0
 11
105.8884777874618
 21
205.0812118562354
 31
0
 12
0
 22
0
 32
0
 70
1
 13
100.7949203823871
 23
225.8427864920629
 33
0
 14
108.7839566604238
 24
226.2614741420065
 34
0
 53
0
  0
DIMENSION
  8
1
  6
CONTINUOUS
 62
1
  2
*D20
  3
DMST_1
 10
58.58009469643369
 20
284.001344931639
 30
0
 11
62.8995912512543
 21
288.069508635903
 31
0
 12
0
 22
0
 32
0
 70
0
 13
69.58009469643369
 23
271.246648456053
 33
0
 14
58.58009469643369
 24
273.246648456053
 34
0
 53
0
  0
DIMENSION
  8
1
  6
CONTINUOUS
 62
1
  2
*D21
  3
DMST_1
 10
57.58009469643369
 20
210.530111125771
 30
0
 11
62.80818682308399
 21
215.40821468301
 31
0
 12
0
 22
0
 32
0
 70
0
 13
69.58009469643369
 23
195.046648456053
 33
0
 14
57.58009469643369
 24
195.046648456053
 34
0
 53
0
  0
DIMENSION
  8
1
  6
CONTINUOUS
 62
1
  2
*D22
  3
DMST_1
 10
119.5800946964337
 20
93.0071630635223
 30
0
 11
95.42341754172301
 21
97.92682240056787
 31
0
 12
0
 22
0
 32
0
 70
0
  1
a+15
 13
69.58009469643369
 23
83.04664845605299
 33
0
 14
119.5800946964337
 24
118.046648456053
 34
0
 53
0
  0
INSERT
  8
1
  2
*D23
 10
0
 20
0
 30
0
  0
INSERT
  8
1
  2
*D24
 10
0
 20
0
 30
0
  0
INSERT
  8
1
  2
*D25
 10
0
 20
0
 30
0
  0
INSERT
  8
1
  2
*D26
 10
0
 20
0
 30
0
  0
INSERT
  8
1
  2
*D27
 10
0
 20
0
 30
0
  0
INSERT
  8
1
  2
*D28
 10
0
 20
0
 30
0
  0
ENDSEC
  0
EOF
