  0
SECTION
  2
HEADER
  9
$ACADVER
  1
AC1009
999
I-DEAS 9 Not Encoded
  9
$EXTMIN
 10
0.0
 20
0.0
  9
$EXTMAX
 10
2.1E+002
 20
2.97E+002
  9
$TEXTSIZE
 40
1.25E-001
  9
$LTSCALE
 40
1.0
  9
$CLAYER
  8
100
  9
$CECOLOR
 62
1
  9
$DIMASZ
 40
1.25E-001
  9
$DIMEXO
 40
6.25E-002
  9
$DIMDLI
 40
2.5E-001
  9
$DIMEXE
 40
1.25E-001
  9
$DIMTP
 40
5.0E-003
  9
$DIMTM
 40
-5.0E-003
  9
$DIMTXT
 40
3.0
  9
$DIMLIM
 70
0
  9
$DIMTIH
 70
1
  9
$DIMTOH
 70
1
  9
$DIMSE1
 70
0
  9
$DIMSE2
 70
0
  9
$DIMTAD
 70
0
  9
$DIMASO
 70
1
  9
$DIMALT
 70
0
  9
$DIMALTD
 70
0
  9
$DIMTOFL
 70
1
  9
$DIMTIX
 70
0
  9
$DIMSAH
 70
0
  9
$DIMTFAC
 40
1.0
  9
$DIMGAP
 40
6.25E-002
  9
$LUNITS
 70
2
  9
$LUPREC
 70
3
  9
$FILLETRAD
 40
1.0E+001
  9
$AUNITS
 70
0
  9
$AUPREC
 70
1
  9
$CHAMFERA
 40
6.0
  9
$CHAMFERB
 40
6.0
  9
$ANGBASE
 50
0.0
  9
$ANGDIR
 70
0
  9
$PEXTMIN
 10
0.0
 20
0.0
 30
0.0
  9
$PEXTMAX
 10
2.1E+002
 20
2.97E+002
 30
0.0
  9
$PLIMMIN
 10
0.0
 20
0.0
  9
$PLIMMAX
 10
2.1E+002
 20
2.97E+002
  9
$PDMODE
 70
2
  9
$PDSIZE
 40
-1.0E-002
  9
$SPLINETYPE
 70
6
  9
$TILEMODE
 70
1
  0
ENDSEC
  0
SECTION
  2
TABLES
  0
TABLE
  2
VPORT
 70
2
  0
VPORT
  2
*Active
 70
0
 10
0.0
 20
0.0
 11
2.1E+002
 21
2.97E+002
 12
1.05E+002
 22
1.485E+002
 13
0.0
 23
0.0
 14
1.0
 24
1.0
 15
0.0
 25
0.0
 16
0.0
 26
0.0
 36
1.0
 17
0.0
 27
0.0
 37
0.0
 40
2.97E+002
 41
7.0707071E-001
 42
5.0E+001
 43
0.0
 44
0.0
 50
0.0
 51
0.0
 71
0
 72
100
 73
1
 74
3
 75
0
 76
0
 77
0
 78
0
  0
ENDTAB
  0
TABLE
  2
LTYPE
 70
7
  0
LTYPE
  2
HIDDENNEW0
  3
_ 
 70
64
 72
65
 73
3
 40
4.5
 49
1.5
 49
-1.5
 49
1.5
  0
LTYPE
  2
HIDDENNEW1
  3
_ 
 70
64
 72
65
 73
3
 40
4.5
 49
1.5
 49
-1.5
 49
1.5
  0
LTYPE
  2
HIDDEN
  3
_ 
 70
64
 72
65
 73
3
 40
4.5
 49
1.5
 49
-1.5
 49
1.5
  0
LTYPE
  2
CENTERLINE
  3
_ 
 70
64
 72
65
 73
5
 40
3.0E+001
 49
1.2E+001
 49
-1.5
 49
3.0
 49
-1.5
 49
1.2E+001
  0
LTYPE
  2
PHANTOM
  3
_ 
 70
64
 72
65
 73
7
 40
2.95E+001
 49
9.5
 49
-1.5
 49
3.0
 49
-1.5
 49
3.0
 49
-1.5
 49
9.5
  0
LTYPE
  2
SHORT_DASH
  3
_ 
 70
64
 72
65
 73
3
 40
3.0
 49
7.5E-001
 49
-1.5
 49
7.5E-001
  0
LTYPE
  2
LONG_DASH
  3
_ 
 70
64
 72
65
 73
3
 40
9.0
 49
2.25
 49
-4.5
 49
2.25
  0
ENDTAB
  0
TABLE
  2
LAYER
 70
258
  0
LAYER
  2
T_26397_D_0_000000-_0
 70
0
 62
1
  6
CONTINUOUS
  0
LAYER
  2
2
 70
0
 62
7
  6
CONTINUOUS
  0
LAYER
  2
3
 70
0
 62
7
  6
CONTINUOUS
  0
LAYER
  2
4
 70
0
 62
7
  6
CONTINUOUS
  0
LAYER
  2
5
 70
0
 62
7
  6
CONTINUOUS
  0
LAYER
  2
6
 70
0
 62
7
  6
CONTINUOUS
  0
LAYER
  2
7
 70
0
 62
7
  6
CONTINUOUS
  0
LAYER
  2
8
 70
0
 62
7
  6
CONTINUOUS
  0
LAYER
  2
9
 70
0
 62
7
  6
CONTINUOUS
  0
LAYER
  2
10
 70
0
 62
7
  6
CONTINUOUS
  0
LAYER
  2
11
 70
0
 62
7
  6
CONTINUOUS
  0
LAYER
  2
12
 70
0
 62
7
  6
CONTINUOUS
  0
LAYER
  2
13
 70
0
 62
7
  6
CONTINUOUS
  0
LAYER
  2
14
 70
0
 62
7
  6
CONTINUOUS
  0
LAYER
  2
15
 70
0
 62
7
  6
CONTINUOUS
  0
LAYER
  2
16
 70
0
 62
7
  6
CONTINUOUS
  0
LAYER
  2
17
 70
0
 62
7
  6
CONTINUOUS
  0
LAYER
  2
18
 70
0
 62
7
  6
CONTINUOUS
  0
LAYER
  2
19
 70
0
 62
7
  6
CONTINUOUS
  0
LAYER
  2
20
 70
0
 62
7
  6
CONTINUOUS
  0
LAYER
  2
21
 70
0
 62
7
  6
CONTINUOUS
  0
LAYER
  2
22
 70
0
 62
7
  6
CONTINUOUS
  0
LAYER
  2
23
 70
0
 62
7
  6
CONTINUOUS
  0
LAYER
  2
24
 70
0
 62
7
  6
CONTINUOUS
  0
LAYER
  2
25
 70
0
 62
7
  6
CONTINUOUS
  0
LAYER
  2
26
 70
0
 62
7
  6
CONTINUOUS
  0
LAYER
  2
27
 70
0
 62
7
  6
CONTINUOUS
  0
LAYER
  2
28
 70
0
 62
7
  6
CONTINUOUS
  0
LAYER
  2
29
 70
0
 62
7
  6
CONTINUOUS
  0
LAYER
  2
30
 70
0
 62
7
  6
CONTINUOUS
  0
LAYER
  2
31
 70
0
 62
7
  6
CONTINUOUS
  0
LAYER
  2
32
 70
0
 62
7
  6
CONTINUOUS
  0
LAYER
  2
33
 70
0
 62
7
  6
CONTINUOUS
  0
LAYER
  2
34
 70
0
 62
7
  6
CONTINUOUS
  0
LAYER
  2
35
 70
0
 62
7
  6
CONTINUOUS
  0
LAYER
  2
36
 70
0
 62
7
  6
CONTINUOUS
  0
LAYER
  2
37
 70
0
 62
7
  6
CONTINUOUS
  0
LAYER
  2
38
 70
0
 62
7
  6
CONTINUOUS
  0
LAYER
  2
39
 70
0
 62
7
  6
CONTINUOUS
  0
LAYER
  2
40
 70
0
 62
7
  6
CONTINUOUS
  0
LAYER
  2
41
 70
0
 62
7
  6
CONTINUOUS
  0
LAYER
  2
42
 70
0
 62
7
  6
CONTINUOUS
  0
LAYER
  2
43
 70
0
 62
7
  6
CONTINUOUS
  0
LAYER
  2
44
 70
0
 62
7
  6
CONTINUOUS
  0
LAYER
  2
45
 70
0
 62
7
  6
CONTINUOUS
  0
LAYER
  2
46
 70
0
 62
7
  6
CONTINUOUS
  0
LAYER
  2
47
 70
0
 62
7
  6
CONTINUOUS
  0
LAYER
  2
48
 70
0
 62
7
  6
CONTINUOUS
  0
LAYER
  2
49
 70
0
 62
7
  6
CONTINUOUS
  0
LAYER
  2
50
 70
0
 62
7
  6
CONTINUOUS
  0
LAYER
  2
51
 70
0
 62
7
  6
CONTINUOUS
  0
LAYER
  2
52
 70
0
 62
7
  6
CONTINUOUS
  0
LAYER
  2
53
 70
0
 62
7
  6
CONTINUOUS
  0
LAYER
  2
54
 70
0
 62
7
  6
CONTINUOUS
  0
LAYER
  2
55
 70
0
 62
7
  6
CONTINUOUS
  0
LAYER
  2
56
 70
0
 62
7
  6
CONTINUOUS
  0
LAYER
  2
57
 70
0
 62
7
  6
CONTINUOUS
  0
LAYER
  2
58
 70
0
 62
7
  6
CONTINUOUS
  0
LAYER
  2
59
 70
0
 62
7
  6
CONTINUOUS
  0
LAYER
  2
60
 70
0
 62
7
  6
CONTINUOUS
  0
LAYER
  2
61
 70
0
 62
7
  6
CONTINUOUS
  0
LAYER
  2
62
 70
0
 62
7
  6
CONTINUOUS
  0
LAYER
  2
63
 70
0
 62
7
  6
CONTINUOUS
  0
LAYER
  2
64
 70
0
 62
7
  6
CONTINUOUS
  0
LAYER
  2
65
 70
0
 62
7
  6
CONTINUOUS
  0
LAYER
  2
66
 70
0
 62
7
  6
CONTINUOUS
  0
LAYER
  2
67
 70
0
 62
7
  6
CONTINUOUS
  0
LAYER
  2
68
 70
0
 62
7
  6
CONTINUOUS
  0
LAYER
  2
69
 70
0
 62
7
  6
CONTINUOUS
  0
LAYER
  2
70
 70
0
 62
7
  6
CONTINUOUS
  0
LAYER
  2
71
 70
0
 62
7
  6
CONTINUOUS
  0
LAYER
  2
72
 70
0
 62
7
  6
CONTINUOUS
  0
LAYER
  2
73
 70
0
 62
7
  6
CONTINUOUS
  0
LAYER
  2
74
 70
0
 62
7
  6
CONTINUOUS
  0
LAYER
  2
75
 70
0
 62
7
  6
CONTINUOUS
  0
LAYER
  2
76
 70
0
 62
7
  6
CONTINUOUS
  0
LAYER
  2
77
 70
0
 62
7
  6
CONTINUOUS
  0
LAYER
  2
78
 70
0
 62
7
  6
CONTINUOUS
  0
LAYER
  2
79
 70
0
 62
7
  6
CONTINUOUS
  0
LAYER
  2
80
 70
0
 62
7
  6
CONTINUOUS
  0
LAYER
  2
81
 70
0
 62
7
  6
CONTINUOUS
  0
LAYER
  2
82
 70
0
 62
7
  6
CONTINUOUS
  0
LAYER
  2
83
 70
0
 62
7
  6
CONTINUOUS
  0
LAYER
  2
84
 70
0
 62
7
  6
CONTINUOUS
  0
LAYER
  2
85
 70
0
 62
7
  6
CONTINUOUS
  0
LAYER
  2
86
 70
0
 62
7
  6
CONTINUOUS
  0
LAYER
  2
87
 70
0
 62
7
  6
CONTINUOUS
  0
LAYER
  2
88
 70
0
 62
7
  6
CONTINUOUS
  0
LAYER
  2
89
 70
0
 62
7
  6
CONTINUOUS
  0
LAYER
  2
90
 70
0
 62
7
  6
CONTINUOUS
  0
LAYER
  2
91
 70
0
 62
7
  6
CONTINUOUS
  0
LAYER
  2
92
 70
0
 62
7
  6
CONTINUOUS
  0
LAYER
  2
93
 70
0
 62
7
  6
CONTINUOUS
  0
LAYER
  2
94
 70
0
 62
7
  6
CONTINUOUS
  0
LAYER
  2
95
 70
0
 62
7
  6
CONTINUOUS
  0
LAYER
  2
96
 70
0
 62
7
  6
CONTINUOUS
  0
LAYER
  2
97
 70
0
 62
7
  6
CONTINUOUS
  0
LAYER
  2
98
 70
0
 62
7
  6
CONTINUOUS
  0
LAYER
  2
99
 70
0
 62
7
  6
CONTINUOUS
  0
LAYER
  2
100
 70
0
 62
7
  6
CONTINUOUS
  0
LAYER
  2
101
 70
0
 62
7
  6
CONTINUOUS
  0
LAYER
  2
102
 70
0
 62
7
  6
CONTINUOUS
  0
LAYER
  2
103
 70
0
 62
7
  6
CONTINUOUS
  0
LAYER
  2
104
 70
0
 62
7
  6
CONTINUOUS
  0
LAYER
  2
105
 70
0
 62
7
  6
CONTINUOUS
  0
LAYER
  2
106
 70
0
 62
7
  6
CONTINUOUS
  0
LAYER
  2
107
 70
0
 62
7
  6
CONTINUOUS
  0
LAYER
  2
108
 70
0
 62
7
  6
CONTINUOUS
  0
LAYER
  2
109
 70
0
 62
7
  6
CONTINUOUS
  0
LAYER
  2
110
 70
0
 62
7
  6
CONTINUOUS
  0
LAYER
  2
111
 70
0
 62
7
  6
CONTINUOUS
  0
LAYER
  2
112
 70
0
 62
7
  6
CONTINUOUS
  0
LAYER
  2
113
 70
0
 62
7
  6
CONTINUOUS
  0
LAYER
  2
114
 70
0
 62
7
  6
CONTINUOUS
  0
LAYER
  2
115
 70
0
 62
7
  6
CONTINUOUS
  0
LAYER
  2
116
 70
0
 62
7
  6
CONTINUOUS
  0
LAYER
  2
117
 70
0
 62
7
  6
CONTINUOUS
  0
LAYER
  2
118
 70
0
 62
7
  6
CONTINUOUS
  0
LAYER
  2
119
 70
0
 62
7
  6
CONTINUOUS
  0
LAYER
  2
120
 70
0
 62
7
  6
CONTINUOUS
  0
LAYER
  2
121
 70
0
 62
7
  6
CONTINUOUS
  0
LAYER
  2
122
 70
0
 62
7
  6
CONTINUOUS
  0
LAYER
  2
123
 70
0
 62
7
  6
CONTINUOUS
  0
LAYER
  2
124
 70
0
 62
7
  6
CONTINUOUS
  0
LAYER
  2
125
 70
0
 62
7
  6
CONTINUOUS
  0
LAYER
  2
126
 70
0
 62
7
  6
CONTINUOUS
  0
LAYER
  2
127
 70
0
 62
7
  6
CONTINUOUS
  0
LAYER
  2
128
 70
0
 62
7
  6
CONTINUOUS
  0
LAYER
  2
129
 70
0
 62
7
  6
CONTINUOUS
  0
LAYER
  2
130
 70
0
 62
7
  6
CONTINUOUS
  0
LAYER
  2
131
 70
0
 62
7
  6
CONTINUOUS
  0
LAYER
  2
132
 70
0
 62
7
  6
CONTINUOUS
  0
LAYER
  2
133
 70
0
 62
7
  6
CONTINUOUS
  0
LAYER
  2
134
 70
0
 62
7
  6
CONTINUOUS
  0
LAYER
  2
135
 70
0
 62
7
  6
CONTINUOUS
  0
LAYER
  2
136
 70
0
 62
7
  6
CONTINUOUS
  0
LAYER
  2
137
 70
0
 62
7
  6
CONTINUOUS
  0
LAYER
  2
138
 70
0
 62
7
  6
CONTINUOUS
  0
LAYER
  2
139
 70
0
 62
7
  6
CONTINUOUS
  0
LAYER
  2
140
 70
0
 62
7
  6
CONTINUOUS
  0
LAYER
  2
141
 70
0
 62
7
  6
CONTINUOUS
  0
LAYER
  2
142
 70
0
 62
7
  6
CONTINUOUS
  0
LAYER
  2
143
 70
0
 62
7
  6
CONTINUOUS
  0
LAYER
  2
144
 70
0
 62
7
  6
CONTINUOUS
  0
LAYER
  2
145
 70
0
 62
7
  6
CONTINUOUS
  0
LAYER
  2
146
 70
0
 62
7
  6
CONTINUOUS
  0
LAYER
  2
147
 70
0
 62
7
  6
CONTINUOUS
  0
LAYER
  2
148
 70
0
 62
7
  6
CONTINUOUS
  0
LAYER
  2
149
 70
0
 62
7
  6
CONTINUOUS
  0
LAYER
  2
150
 70
0
 62
7
  6
CONTINUOUS
  0
LAYER
  2
151
 70
0
 62
7
  6
CONTINUOUS
  0
LAYER
  2
152
 70
0
 62
7
  6
CONTINUOUS
  0
LAYER
  2
153
 70
0
 62
7
  6
CONTINUOUS
  0
LAYER
  2
154
 70
0
 62
7
  6
CONTINUOUS
  0
LAYER
  2
155
 70
0
 62
7
  6
CONTINUOUS
  0
LAYER
  2
156
 70
0
 62
7
  6
CONTINUOUS
  0
LAYER
  2
157
 70
0
 62
7
  6
CONTINUOUS
  0
LAYER
  2
158
 70
0
 62
7
  6
CONTINUOUS
  0
LAYER
  2
159
 70
0
 62
7
  6
CONTINUOUS
  0
LAYER
  2
160
 70
0
 62
7
  6
CONTINUOUS
  0
LAYER
  2
161
 70
0
 62
7
  6
CONTINUOUS
  0
LAYER
  2
162
 70
0
 62
7
  6
CONTINUOUS
  0
LAYER
  2
163
 70
0
 62
7
  6
CONTINUOUS
  0
LAYER
  2
164
 70
0
 62
7
  6
CONTINUOUS
  0
LAYER
  2
165
 70
0
 62
7
  6
CONTINUOUS
  0
LAYER
  2
166
 70
0
 62
7
  6
CONTINUOUS
  0
LAYER
  2
167
 70
0
 62
7
  6
CONTINUOUS
  0
LAYER
  2
168
 70
0
 62
7
  6
CONTINUOUS
  0
LAYER
  2
169
 70
0
 62
7
  6
CONTINUOUS
  0
LAYER
  2
170
 70
0
 62
7
  6
CONTINUOUS
  0
LAYER
  2
171
 70
0
 62
7
  6
CONTINUOUS
  0
LAYER
  2
172
 70
0
 62
7
  6
CONTINUOUS
  0
LAYER
  2
173
 70
0
 62
7
  6
CONTINUOUS
  0
LAYER
  2
174
 70
0
 62
7
  6
CONTINUOUS
  0
LAYER
  2
175
 70
0
 62
7
  6
CONTINUOUS
  0
LAYER
  2
176
 70
0
 62
7
  6
CONTINUOUS
  0
LAYER
  2
177
 70
0
 62
7
  6
CONTINUOUS
  0
LAYER
  2
178
 70
0
 62
7
  6
CONTINUOUS
  0
LAYER
  2
179
 70
0
 62
7
  6
CONTINUOUS
  0
LAYER
  2
180
 70
0
 62
7
  6
CONTINUOUS
  0
LAYER
  2
181
 70
0
 62
7
  6
CONTINUOUS
  0
LAYER
  2
182
 70
0
 62
7
  6
CONTINUOUS
  0
LAYER
  2
183
 70
0
 62
7
  6
CONTINUOUS
  0
LAYER
  2
184
 70
0
 62
7
  6
CONTINUOUS
  0
LAYER
  2
185
 70
0
 62
7
  6
CONTINUOUS
  0
LAYER
  2
186
 70
0
 62
7
  6
CONTINUOUS
  0
LAYER
  2
187
 70
0
 62
7
  6
CONTINUOUS
  0
LAYER
  2
188
 70
0
 62
7
  6
CONTINUOUS
  0
LAYER
  2
189
 70
0
 62
7
  6
CONTINUOUS
  0
LAYER
  2
190
 70
0
 62
7
  6
CONTINUOUS
  0
LAYER
  2
191
 70
0
 62
7
  6
CONTINUOUS
  0
LAYER
  2
192
 70
0
 62
7
  6
CONTINUOUS
  0
LAYER
  2
193
 70
0
 62
7
  6
CONTINUOUS
  0
LAYER
  2
194
 70
0
 62
7
  6
CONTINUOUS
  0
LAYER
  2
195
 70
0
 62
7
  6
CONTINUOUS
  0
LAYER
  2
196
 70
0
 62
7
  6
CONTINUOUS
  0
LAYER
  2
197
 70
0
 62
7
  6
CONTINUOUS
  0
LAYER
  2
198
 70
0
 62
7
  6
CONTINUOUS
  0
LAYER
  2
199
 70
0
 62
7
  6
CONTINUOUS
  0
LAYER
  2
200
 70
0
 62
7
  6
CONTINUOUS
  0
LAYER
  2
201
 70
0
 62
7
  6
CONTINUOUS
  0
LAYER
  2
202
 70
0
 62
7
  6
CONTINUOUS
  0
LAYER
  2
203
 70
0
 62
7
  6
CONTINUOUS
  0
LAYER
  2
204
 70
0
 62
7
  6
CONTINUOUS
  0
LAYER
  2
205
 70
0
 62
7
  6
CONTINUOUS
  0
LAYER
  2
206
 70
0
 62
7
  6
CONTINUOUS
  0
LAYER
  2
207
 70
0
 62
7
  6
CONTINUOUS
  0
LAYER
  2
208
 70
0
 62
7
  6
CONTINUOUS
  0
LAYER
  2
209
 70
0
 62
7
  6
CONTINUOUS
  0
LAYER
  2
210
 70
0
 62
7
  6
CONTINUOUS
  0
LAYER
  2
211
 70
0
 62
7
  6
CONTINUOUS
  0
LAYER
  2
212
 70
0
 62
7
  6
CONTINUOUS
  0
LAYER
  2
213
 70
0
 62
7
  6
CONTINUOUS
  0
LAYER
  2
214
 70
0
 62
7
  6
CONTINUOUS
  0
LAYER
  2
215
 70
0
 62
7
  6
CONTINUOUS
  0
LAYER
  2
216
 70
0
 62
7
  6
CONTINUOUS
  0
LAYER
  2
217
 70
0
 62
7
  6
CONTINUOUS
  0
LAYER
  2
218
 70
0
 62
7
  6
CONTINUOUS
  0
LAYER
  2
219
 70
0
 62
7
  6
CONTINUOUS
  0
LAYER
  2
220
 70
0
 62
7
  6
CONTINUOUS
  0
LAYER
  2
221
 70
0
 62
7
  6
CONTINUOUS
  0
LAYER
  2
222
 70
0
 62
7
  6
CONTINUOUS
  0
LAYER
  2
223
 70
0
 62
7
  6
CONTINUOUS
  0
LAYER
  2
224
 70
0
 62
7
  6
CONTINUOUS
  0
LAYER
  2
225
 70
0
 62
7
  6
CONTINUOUS
  0
LAYER
  2
226
 70
0
 62
7
  6
CONTINUOUS
  0
LAYER
  2
227
 70
0
 62
7
  6
CONTINUOUS
  0
LAYER
  2
228
 70
0
 62
7
  6
CONTINUOUS
  0
LAYER
  2
229
 70
0
 62
7
  6
CONTINUOUS
  0
LAYER
  2
230
 70
0
 62
7
  6
CONTINUOUS
  0
LAYER
  2
231
 70
0
 62
7
  6
CONTINUOUS
  0
LAYER
  2
232
 70
0
 62
7
  6
CONTINUOUS
  0
LAYER
  2
233
 70
0
 62
7
  6
CONTINUOUS
  0
LAYER
  2
234
 70
0
 62
7
  6
CONTINUOUS
  0
LAYER
  2
235
 70
0
 62
7
  6
CONTINUOUS
  0
LAYER
  2
236
 70
0
 62
7
  6
CONTINUOUS
  0
LAYER
  2
237
 70
0
 62
7
  6
CONTINUOUS
  0
LAYER
  2
238
 70
0
 62
7
  6
CONTINUOUS
  0
LAYER
  2
239
 70
0
 62
7
  6
CONTINUOUS
  0
LAYER
  2
240
 70
0
 62
7
  6
CONTINUOUS
  0
LAYER
  2
241
 70
0
 62
7
  6
CONTINUOUS
  0
LAYER
  2
242
 70
0
 62
7
  6
CONTINUOUS
  0
LAYER
  2
243
 70
0
 62
7
  6
CONTINUOUS
  0
LAYER
  2
244
 70
0
 62
7
  6
CONTINUOUS
  0
LAYER
  2
245
 70
0
 62
7
  6
CONTINUOUS
  0
LAYER
  2
246
 70
0
 62
7
  6
CONTINUOUS
  0
LAYER
  2
247
 70
0
 62
7
  6
CONTINUOUS
  0
LAYER
  2
248
 70
0
 62
7
  6
CONTINUOUS
  0
LAYER
  2
249
 70
0
 62
7
  6
CONTINUOUS
  0
LAYER
  2
250
 70
0
 62
7
  6
CONTINUOUS
  0
LAYER
  2
251
 70
0
 62
7
  6
CONTINUOUS
  0
LAYER
  2
252
 70
0
 62
7
  6
CONTINUOUS
  0
LAYER
  2
253
 70
0
 62
7
  6
CONTINUOUS
  0
LAYER
  2
254
 70
0
 62
7
  6
CONTINUOUS
  0
LAYER
  2
255
 70
0
 62
7
  6
CONTINUOUS
  0
LAYER
  2
Drafting_Hidden_Entities
 70
1
 62
7
  6
CONTINUOUS
  0
ENDTAB
  0
TABLE
  2
STYLE
 70
1
  0
STYLE
  2
STANDARD
 70
64
 40
0.0
 41
1.0
 50
0.0
 71
0
 42
1.0
  3
monotxt.shx
  4

  0
ENDTAB
  0
TABLE
  2
VIEW
 70
0
  0
ENDTAB
  0
TABLE
  2
DIMSTYLE
 70
5
  0
DIMSTYLE
  2
DSTYLE1
 70
0
  3

  4

  5

  6

  7

 40
1.0
 41
3.5
 42
0.0
 43
3.8E-001
 44
2.45
 45
1.0E-002
 46
0.0
 47
5.0E-003
 48
5.0E-003
 71
0
 72
0
 73
0
 74
0
 75
0
 76
0
 77
1
 78
7
140
3.5
141
9.0E-002
142
0.0
143
3.9370079E-002
144
1.0
145
0.0
146
1.0
147
2.1831128
170
0
171
2
172
0
173
0
174
0
175
0
176
0
177
0
178
0
  0
DIMSTYLE
  2
DSTYLE2
 70
0
  3

  4

  5

  6

  7

 40
1.0
 41
3.5
 42
0.0
 43
3.8E-001
 44
2.45
 45
1.0E-002
 46
0.0
 47
5.0E-003
 48
5.0E-003
 71
0
 72
0
 73
0
 74
0
 75
0
 76
0
 77
1
 78
7
140
3.5
141
9.0E-002
142
0.0
143
3.9370079E-002
144
1.0
145
0.0
146
1.0
147
4.339226
170
0
171
2
172
0
173
0
174
0
175
0
176
0
177
0
178
0
  0
DIMSTYLE
  2
DSTYLE3
 70
0
  3

  4

  5

  6

  7

 40
1.0
 41
3.5
 42
0.0
 43
3.8E-001
 44
2.45
 45
1.0E-002
 46
0.0
 47
5.0E-003
 48
5.0E-003
 71
0
 72
0
 73
0
 74
0
 75
0
 76
0
 77
1
 78
7
140
3.5
141
9.0E-002
142
0.0
143
3.9370079E-002
144
1.0
145
0.0
146
1.0
147
8.75E-001
170
0
171
2
172
0
173
0
174
0
175
0
176
0
177
0
178
0
  0
DIMSTYLE
  2
DSTYLE4
 70
0
  3

  4

  5

  6

  7

 40
1.0
 41
3.0
 42
0.0
 43
3.8E-001
 44
3.0
 45
1.0E-002
 46
0.0
 47
2.0E-001
 48
3.0E-001
 71
0
 72
0
 73
0
 74
0
 75
0
 76
0
 77
1
 78
11
140
3.0
141
9.0E-002
142
0.0
143
3.9370079E-002
144
1.0
145
0.0
146
1.0
147
1.5
170
0
171
2
172
0
173
0
174
0
175
0
176
0
177
0
178
0
  0
DIMSTYLE
  2
DSTYLE5
 70
0
  3

  4

  5

  6

  7

 40
1.0
 41
3.0
 42
0.0
 43
3.8E-001
 44
3.0
 45
0.0
 46
0.0
 47
2.0E-001
 48
3.0E-001
 71
0
 72
0
 73
0
 74
0
 75
0
 76
0
 77
1
 78
11
140
3.0
141
9.0E-002
142
0.0
143
3.9370079E-002
144
1.0
145
0.0
146
1.0
147
1.5
170
0
171
2
172
0
173
0
174
0
175
0
176
0
177
0
178
0
  0
ENDTAB
  0
ENDSEC
  0
SECTION
  2
BLOCKS
  0
BLOCK
  2
_AH12
  3
_AH
 10
0.0
 20
0.0
 70
64
  0
LINE
  8
0
  6
CONTINUOUS
 62
0
 10
0.0
 20
0.0
 11
1.0
 21
0.0
  0
LINE
  8
0
  6
CONTINUOUS
 62
0
 10
0.0
 20
0.0
 11
-1.0
 21
0.0
  0
ENDBLK
  0
BLOCK
  2
_AH13
  3
_AH
 10
0.0
 20
0.0
 70
64
  0
SOLID
  8
0
  6
CONTINUOUS
 62
0
 10
0.0
 20
0.0
 11
-1.0
 21
1.66667E-001
 12
-1.0
 22
-1.66667E-001
 13
0.0
 23
0.0
  0
ENDBLK
  0
BLOCK
  2
_AH14
  3
_AH
 10
0.0
 20
0.0
 70
64
  0
ENDBLK
  0
BLOCK
  2
_AH15
  3
_AH
 10
0.0
 20
0.0
 70
64
  0
CIRCLE
  8
0
  6
CONTINUOUS
 62
0
 10
0.0
 20
0.0
 40
1.66667E-001
  0
LINE
  8
0
  6
CONTINUOUS
 62
0
 10
0.0
 20
0.0
 11
-1.0
 21
0.0
  0
ENDBLK
  0
BLOCK
  2
_AH16
  3
_AH
 10
0.0
 20
0.0
 70
64
  0
POLYLINE
  8
0
  6
CONTINUOUS
 62
0
 66
1
 40
6.2E+001
 41
6.2E+001
 70
0
  0
VERTEX
  8
0
 42
1.0
 10
8.3335E-002
 20
0.0
 70
0
  0
VERTEX
  8
0
 42
1.0
 10
-8.3335E-002
 20
0.0
 70
0
  0
VERTEX
  8
0
 42
0.0
 10
8.3335E-002
 20
0.0
 70
0
  0
SEQEND
  0
LINE
  8
0
  6
CONTINUOUS
 62
0
 10
0.0
 20
0.0
 11
-1.0
 21
0.0
  0
ENDBLK
  0
BLOCK
  2
_AH17
  3
_AH
 10
0.0
 20
0.0
 70
64
  0
LINE
  8
0
  6
CONTINUOUS
 62
0
 10
-1.66667E-001
 20
-1.66667E-001
 11
1.66667E-001
 21
-1.66667E-001
  0
LINE
  8
0
  6
CONTINUOUS
 62
0
 10
1.66667E-001
 20
-1.66667E-001
 11
1.66667E-001
 21
1.66667E-001
  0
LINE
  8
0
  6
CONTINUOUS
 62
0
 10
1.66667E-001
 20
1.66667E-001
 11
-1.66667E-001
 21
1.66667E-001
  0
LINE
  8
0
  6
CONTINUOUS
 62
0
 10
-1.66667E-001
 20
1.66667E-001
 11
-1.66667E-001
 21
-1.66667E-001
  0
LINE
  8
0
  6
CONTINUOUS
 62
0
 10
0.0
 20
0.0
 11
-1.0
 21
0.0
  0
ENDBLK
  0
BLOCK
  2
_AH18
  3
_AH
 10
0.0
 20
0.0
 70
64
  0
SOLID
  8
0
  6
CONTINUOUS
 62
0
 10
-1.66667E-001
 20
-1.66667E-001
 11
1.66667E-001
 21
-1.66667E-001
 12
-1.66667E-001
 22
1.66667E-001
 13
1.66667E-001
 23
1.66667E-001
  0
LINE
  8
0
  6
CONTINUOUS
 62
0
 10
0.0
 20
0.0
 11
-1.0
 21
0.0
  0
ENDBLK
  0
BLOCK
  2
_AH19
  3
_AH
 10
0.0
 20
0.0
 70
64
  0
LINE
  8
0
  6
CONTINUOUS
 62
0
 10
-5.0E-001
 20
-5.0E-001
 11
5.0E-001
 21
5.0E-001
  0
LINE
  8
0
  6
CONTINUOUS
 62
0
 10
0.0
 20
0.0
 11
-1.0
 21
0.0
  0
ENDBLK
  0
BLOCK
  2
_AH20
  3
_AH
 10
0.0
 20
0.0
 70
64
  0
POLYLINE
  8
0
  6
CONTINUOUS
 62
0
 66
1
 40
5.0E-001
 41
5.0E-001
 70
0
  0
VERTEX
  8
0
 42
4.1421356E-001
 10
-1.66667E-001
 20
-1.66667E-001
 70
0
  0
VERTEX
  8
0
 42
0.0
 10
0.0
 20
0.0
 70
0
  0
SEQEND
  0
POLYLINE
  8
0
  6
CONTINUOUS
 62
0
 66
1
 40
5.0E-001
 41
5.0E-001
 70
0
  0
VERTEX
  8
0
 42
4.1421356E-001
 10
1.66667E-001
 20
1.66667E-001
 70
0
  0
VERTEX
  8
0
 42
0.0
 10
0.0
 20
0.0
 70
0
  0
SEQEND
  0
LINE
  8
0
  6
CONTINUOUS
 62
0
 10
0.0
 20
0.0
 11
-1.0
 21
0.0
  0
ENDBLK
  0
BLOCK
  2
_AH21
  3
_AH
 10
0.0
 20
0.0
 70
64
  0
LINE
  8
0
  6
CONTINUOUS
 62
0
 10
0.0
 20
0.0
 11
-1.0
 21
-1.66667E-001
  0
LINE
  8
0
  6
CONTINUOUS
 62
0
 10
-1.0
 20
-1.66667E-001
 11
-1.0
 21
1.66667E-001
  0
LINE
  8
0
  6
CONTINUOUS
 62
0
 10
-1.0
 20
1.66667E-001
 11
0.0
 21
0.0
  0
ENDBLK
  0
BLOCK
  2
XHXH1
 10
0.0
 20
0.0
 70
0
  0
LINE
  8
17
  6
CONTINUOUS
 62
1
 10
-3.55E-002
 20
-3.55E-002
 11
3.55E-002
 21
3.55E-002
  0
LINE
  8
17
  6
CONTINUOUS
 62
1
 10
3.55E-002
 20
1.765E-001
 11
-1.765E-001
 21
-3.55E-002
  0
LINE
  8
17
  6
CONTINUOUS
 62
1
 10
-3.185E-001
 20
-3.55E-002
 11
3.55E-002
 21
3.185E-001
  0
LINE
  8
17
  6
CONTINUOUS
 62
1
 10
3.55E-002
 20
4.595E-001
 11
-4.595E-001
 21
-3.55E-002
  0
LINE
  8
17
  6
CONTINUOUS
 62
1
 10
-6.005E-001
 20
-3.55E-002
 11
3.55E-002
 21
6.005E-001
  0
LINE
  8
17
  6
CONTINUOUS
 62
1
 10
3.55E-002
 20
7.425E-001
 11
-7.425E-001
 21
-3.55E-002
  0
LINE
  8
17
  6
CONTINUOUS
 62
1
 10
-8.835E-001
 20
-3.55E-002
 11
3.55E-002
 21
8.835E-001
  0
LINE
  8
17
  6
CONTINUOUS
 62
1
 10
3.55E-002
 20
1.0255
 11
-4.645E-001
 21
5.255E-001
  0
LINE
  8
17
  6
CONTINUOUS
 62
1
 10
-5.255E-001
 20
4.645E-001
 11
-1.0255
 21
-3.55E-002
  0
LINE
  8
17
  6
CONTINUOUS
 62
1
 10
-1.1665
 20
-3.55E-002
 11
-6.665E-001
 21
4.645E-001
  0
LINE
  8
17
  6
CONTINUOUS
 62
1
 10
-4.645E-001
 20
6.665E-001
 11
3.55E-002
 21
1.1665
  0
LINE
  8
17
  6
CONTINUOUS
 62
1
 10
3.55E-002
 20
1.3085
 11
-4.645E-001
 21
8.085E-001
  0
LINE
  8
17
  6
CONTINUOUS
 62
1
 10
-8.085E-001
 20
4.645E-001
 11
-1.3085
 21
-3.55E-002
  0
LINE
  8
17
  6
CONTINUOUS
 62
1
 10
-1.4495
 20
-3.55E-002
 11
-9.495E-001
 21
4.645E-001
  0
LINE
  8
17
  6
CONTINUOUS
 62
1
 10
-4.645E-001
 20
9.495E-001
 11
3.55E-002
 21
1.4495
  0
LINE
  8
17
  6
CONTINUOUS
 62
1
 10
3.55E-002
 20
1.5905
 11
-4.645E-001
 21
1.0905
  0
LINE
  8
17
  6
CONTINUOUS
 62
1
 10
-1.0905
 20
4.645E-001
 11
-1.5905
 21
-3.55E-002
  0
LINE
  8
17
  6
CONTINUOUS
 62
1
 10
-1.7325
 20
-3.55E-002
 11
-1.2325
 21
4.645E-001
  0
LINE
  8
17
  6
CONTINUOUS
 62
1
 10
-4.645E-001
 20
1.2325
 11
3.55E-002
 21
1.7325
  0
LINE
  8
17
  6
CONTINUOUS
 62
1
 10
3.55E-002
 20
1.8735
 11
-4.645E-001
 21
1.3735
  0
LINE
  8
17
  6
CONTINUOUS
 62
1
 10
-1.3735
 20
4.645E-001
 11
-1.8735
 21
-3.55E-002
  0
LINE
  8
17
  6
CONTINUOUS
 62
1
 10
-2.0155
 20
-3.55E-002
 11
-1.5155
 21
4.645E-001
  0
LINE
  8
17
  6
CONTINUOUS
 62
1
 10
-4.645E-001
 20
1.5155
 11
3.55E-002
 21
2.0155
  0
LINE
  8
17
  6
CONTINUOUS
 62
1
 10
3.55E-002
 20
2.1565
 11
-4.645E-001
 21
1.6565
  0
LINE
  8
17
  6
CONTINUOUS
 62
1
 10
-1.6565
 20
4.645E-001
 11
-2.1565
 21
-3.55E-002
  0
LINE
  8
17
  6
CONTINUOUS
 62
1
 10
-2.2975
 20
-3.55E-002
 11
-1.7975
 21
4.645E-001
  0
LINE
  8
17
  6
CONTINUOUS
 62
1
 10
-4.645E-001
 20
1.7975
 11
3.55E-002
 21
2.2975
  0
LINE
  8
17
  6
CONTINUOUS
 62
1
 10
3.55E-002
 20
2.4395
 11
-4.645E-001
 21
1.9395
  0
LINE
  8
17
  6
CONTINUOUS
 62
1
 10
-1.9395
 20
4.645E-001
 11
-2.4395
 21
-3.55E-002
  0
LINE
  8
17
  6
CONTINUOUS
 62
1
 10
-2.5805
 20
-3.55E-002
 11
-2.0805
 21
4.645E-001
  0
LINE
  8
17
  6
CONTINUOUS
 62
1
 10
-4.645E-001
 20
2.0805
 11
3.55E-002
 21
2.5805
  0
LINE
  8
17
  6
CONTINUOUS
 62
1
 10
3.55E-002
 20
2.7225
 11
-4.645E-001
 21
2.2225
  0
LINE
  8
17
  6
CONTINUOUS
 62
1
 10
-2.2225
 20
4.645E-001
 11
-2.7225
 21
-3.55E-002
  0
LINE
  8
17
  6
CONTINUOUS
 62
1
 10
-2.8635
 20
-3.55E-002
 11
-2.3635
 21
4.645E-001
  0
LINE
  8
17
  6
CONTINUOUS
 62
1
 10
-4.645E-001
 20
2.3635
 11
3.55E-002
 21
2.8635
  0
LINE
  8
17
  6
CONTINUOUS
 62
1
 10
3.55E-002
 20
3.0055
 11
-4.645E-001
 21
2.5055
  0
LINE
  8
17
  6
CONTINUOUS
 62
1
 10
-2.5055
 20
4.645E-001
 11
-3.0055
 21
-3.55E-002
  0
LINE
  8
17
  6
CONTINUOUS
 62
1
 10
-3.1465
 20
-3.55E-002
 11
-2.6465
 21
4.645E-001
  0
LINE
  8
17
  6
CONTINUOUS
 62
1
 10
-4.645E-001
 20
2.6465
 11
3.55E-002
 21
3.1465
  0
LINE
  8
17
  6
CONTINUOUS
 62
1
 10
3.55E-002
 20
3.2875
 11
-4.645E-001
 21
2.7875
  0
LINE
  8
17
  6
CONTINUOUS
 62
1
 10
-2.7875
 20
4.645E-001
 11
-3.2875
 21
-3.55E-002
  0
LINE
  8
17
  6
CONTINUOUS
 62
1
 10
-3.4295
 20
-3.55E-002
 11
-2.9295
 21
4.645E-001
  0
LINE
  8
17
  6
CONTINUOUS
 62
1
 10
-4.645E-001
 20
2.9295
 11
3.55E-002
 21
3.4295
  0
LINE
  8
17
  6
CONTINUOUS
 62
1
 10
3.55E-002
 20
3.5705
 11
-4.645E-001
 21
3.0705
  0
LINE
  8
17
  6
CONTINUOUS
 62
1
 10
-3.0705
 20
4.645E-001
 11
-3.5705
 21
-3.55E-002
  0
LINE
  8
17
  6
CONTINUOUS
 62
1
 10
-3.7125
 20
-3.55E-002
 11
-3.2125
 21
4.645E-001
  0
LINE
  8
17
  6
CONTINUOUS
 62
1
 10
-4.645E-001
 20
3.2125
 11
3.55E-002
 21
3.7125
  0
LINE
  8
17
  6
CONTINUOUS
 62
1
 10
3.55E-002
 20
3.8535
 11
-4.645E-001
 21
3.3535
  0
LINE
  8
17
  6
CONTINUOUS
 62
1
 10
-3.3535
 20
4.645E-001
 11
-3.8535
 21
-3.55E-002
  0
LINE
  8
17
  6
CONTINUOUS
 62
1
 10
-3.9955
 20
-3.55E-002
 11
-3.4955
 21
4.645E-001
  0
LINE
  8
17
  6
CONTINUOUS
 62
1
 10
-4.645E-001
 20
3.4955
 11
3.55E-002
 21
3.9955
  0
LINE
  8
17
  6
CONTINUOUS
 62
1
 10
3.55E-002
 20
4.1365
 11
-4.645E-001
 21
3.6365
  0
LINE
  8
17
  6
CONTINUOUS
 62
1
 10
-3.6365
 20
4.645E-001
 11
-4.1365
 21
-3.55E-002
  0
LINE
  8
17
  6
CONTINUOUS
 62
1
 10
-4.2775
 20
-3.55E-002
 11
-3.7775
 21
4.645E-001
  0
LINE
  8
17
  6
CONTINUOUS
 62
1
 10
-4.645E-001
 20
3.7775
 11
3.55E-002
 21
4.2775
  0
LINE
  8
17
  6
CONTINUOUS
 62
1
 10
3.55E-002
 20
4.4195
 11
-4.645E-001
 21
3.9195
  0
LINE
  8
17
  6
CONTINUOUS
 62
1
 10
-3.9195
 20
4.645E-001
 11
-4.4195
 21
-3.55E-002
  0
LINE
  8
17
  6
CONTINUOUS
 62
1
 10
-4.5605
 20
-3.55E-002
 11
-4.0605
 21
4.645E-001
  0
LINE
  8
17
  6
CONTINUOUS
 62
1
 10
-4.645E-001
 20
4.0605
 11
3.55E-002
 21
4.5605
  0
LINE
  8
17
  6
CONTINUOUS
 62
1
 10
3.55E-002
 20
4.7025
 11
-4.645E-001
 21
4.2025
  0
LINE
  8
17
  6
CONTINUOUS
 62
1
 10
-4.2025
 20
4.645E-001
 11
-4.7025
 21
-3.55E-002
  0
LINE
  8
17
  6
CONTINUOUS
 62
1
 10
-4.8435
 20
-3.55E-002
 11
-4.3435
 21
4.645E-001
  0
LINE
  8
17
  6
CONTINUOUS
 62
1
 10
-4.645E-001
 20
4.3435
 11
3.55E-002
 21
4.8435
  0
LINE
  8
17
  6
CONTINUOUS
 62
1
 10
3.55E-002
 20
4.9845
 11
-4.645E-001
 21
4.4845
  0
LINE
  8
17
  6
CONTINUOUS
 62
1
 10
-4.4845
 20
4.645E-001
 11
-4.9845
 21
-3.55E-002
  0
LINE
  8
17
  6
CONTINUOUS
 62
1
 10
-5.1265
 20
-3.55E-002
 11
-4.6265
 21
4.645E-001
  0
LINE
  8
17
  6
CONTINUOUS
 62
1
 10
-4.645E-001
 20
4.6265
 11
3.55E-002
 21
5.1265
  0
LINE
  8
17
  6
CONTINUOUS
 62
1
 10
3.55E-002
 20
5.2675
 11
-4.645E-001
 21
4.7675
  0
LINE
  8
17
  6
CONTINUOUS
 62
1
 10
-4.7675
 20
4.645E-001
 11
-5.2675
 21
-3.55E-002
  0
LINE
  8
17
  6
CONTINUOUS
 62
1
 10
-5.4095
 20
-3.55E-002
 11
-4.9095
 21
4.645E-001
  0
LINE
  8
17
  6
CONTINUOUS
 62
1
 10
-4.645E-001
 20
4.9095
 11
3.55E-002
 21
5.4095
  0
LINE
  8
17
  6
CONTINUOUS
 62
1
 10
3.55E-002
 20
5.5505
 11
-4.645E-001
 21
5.0505
  0
LINE
  8
17
  6
CONTINUOUS
 62
1
 10
-5.0505
 20
4.645E-001
 11
-5.5505
 21
-3.55E-002
  0
LINE
  8
17
  6
CONTINUOUS
 62
1
 10
-5.6925
 20
-3.55E-002
 11
-5.1925
 21
4.645E-001
  0
LINE
  8
17
  6
CONTINUOUS
 62
1
 10
-4.645E-001
 20
5.1925
 11
3.55E-002
 21
5.6925
  0
LINE
  8
17
  6
CONTINUOUS
 62
1
 10
3.55E-002
 20
5.8335
 11
-4.645E-001
 21
5.3335
  0
LINE
  8
17
  6
CONTINUOUS
 62
1
 10
-1.5855
 20
4.2125
 11
-1.9285
 21
3.8695
  0
LINE
  8
17
  6
CONTINUOUS
 62
1
 10
-5.3335
 20
4.645E-001
 11
-5.8335
 21
-3.55E-002
  0
LINE
  8
17
  6
CONTINUOUS
 62
1
 10
-5.9745
 20
-3.55E-002
 11
-5.4745
 21
4.645E-001
  0
LINE
  8
17
  6
CONTINUOUS
 62
1
 10
-2.1095
 20
3.8305
 11
-1.5465
 21
4.3935
  0
LINE
  8
17
  6
CONTINUOUS
 62
1
 10
-4.645E-001
 20
5.4745
 11
3.55E-002
 21
5.9745
  0
LINE
  8
17
  6
CONTINUOUS
 62
1
 10
3.55E-002
 20
6.1345
 11
-4.645E-001
 21
5.6345
  0
LINE
  8
17
  6
CONTINUOUS
 62
1
 10
-1.5455
 20
4.5535
 11
-1.9095
 21
4.1895
  0
LINE
  8
17
  6
CONTINUOUS
 62
1
 10
-5.6345
 20
4.645E-001
 11
-6.1345
 21
-3.55E-002
  0
LINE
  8
17
  6
CONTINUOUS
 62
1
 10
-6.2575
 20
-3.55E-002
 11
-5.7575
 21
4.645E-001
  0
LINE
  8
17
  6
CONTINUOUS
 62
1
 10
-2.7075
 20
3.5145
 11
-2.5595
 21
3.6625
  0
LINE
  8
17
  6
CONTINUOUS
 62
1
 10
-1.9075
 20
4.3145
 11
-1.5455
 21
4.6775
  0
LINE
  8
17
  6
CONTINUOUS
 62
1
 10
-4.645E-001
 20
5.7575
 11
3.55E-002
 21
6.2575
  0
LINE
  8
17
  6
CONTINUOUS
 62
1
 10
3.55E-002
 20
6.3995
 11
-4.645E-001
 21
5.8995
  0
LINE
  8
17
  6
CONTINUOUS
 62
1
 10
-1.5455
 20
4.8185
 11
-1.9075
 21
4.4565
  0
LINE
  8
17
  6
CONTINUOUS
 62
1
 10
-2.4605
 20
3.9035
 11
-2.9485
 21
3.4155
  0
LINE
  8
17
  6
CONTINUOUS
 62
1
 10
-5.8995
 20
4.645E-001
 11
-6.3995
 21
-3.55E-002
  0
LINE
  8
17
  6
CONTINUOUS
 62
1
 10
-6.5405
 20
-3.55E-002
 11
-6.0405
 21
4.645E-001
  0
LINE
  8
17
  6
CONTINUOUS
 62
1
 10
-3.0965
 20
3.4085
 11
-3.0685
 21
3.4365
  0
LINE
  8
17
  6
CONTINUOUS
 62
1
 10
-2.8415
 20
3.6635
 11
-2.4515
 21
4.0535
  0
LINE
  8
17
  6
CONTINUOUS
 62
1
 10
-1.9075
 20
4.5975
 11
-1.5455
 21
4.9595
  0
LINE
  8
17
  6
CONTINUOUS
 62
1
 10
-4.645E-001
 20
6.0405
 11
3.55E-002
 21
6.5405
  0
LINE
  8
17
  6
CONTINUOUS
 62
1
 10
3.55E-002
 20
6.6825
 11
-4.645E-001
 21
6.1825
  0
LINE
  8
17
  6
CONTINUOUS
 62
1
 10
-1.5455
 20
5.1015
 11
-1.9075
 21
4.7385
  0
LINE
  8
17
  6
CONTINUOUS
 62
1
 10
-2.4515
 20
4.1955
 11
-2.8135
 21
3.8325
  0
LINE
  8
17
  6
CONTINUOUS
 62
1
 10
-6.1825
 20
4.645E-001
 11
-6.6825
 21
-3.55E-002
  0
LINE
  8
17
  6
CONTINUOUS
 62
1
 10
-6.8235
 20
-3.55E-002
 11
-6.3235
 21
4.645E-001
  0
LINE
  8
17
  6
CONTINUOUS
 62
1
 10
-2.8135
 20
3.9745
 11
-2.4515
 21
4.3365
  0
LINE
  8
17
  6
CONTINUOUS
 62
1
 10
-1.9075
 20
4.8805
 11
-1.5455
 21
5.2425
  0
LINE
  8
17
  6
CONTINUOUS
 62
1
 10
-4.645E-001
 20
6.3235
 11
3.55E-002
 21
6.8235
  0
LINE
  8
17
  6
CONTINUOUS
 62
1
 10
3.55E-002
 20
6.9645
 11
-4.645E-001
 21
6.4645
  0
LINE
  8
17
  6
CONTINUOUS
 62
1
 10
-1.5455
 20
5.3845
 11
-1.9075
 21
5.0215
  0
LINE
  8
17
  6
CONTINUOUS
 62
1
 10
-2.4515
 20
4.4775
 11
-2.8135
 21
4.1155
  0
LINE
  8
17
  6
CONTINUOUS
 62
1
 10
-6.4645
 20
4.645E-001
 11
-6.9645
 21
-3.55E-002
  0
LINE
  8
17
  6
CONTINUOUS
 62
1
 10
-7.1065
 20
-3.55E-002
 11
-6.6065
 21
4.645E-001
  0
LINE
  8
17
  6
CONTINUOUS
 62
1
 10
-2.8135
 20
4.2565
 11
-2.4515
 21
4.6195
  0
LINE
  8
17
  6
CONTINUOUS
 62
1
 10
-1.9075
 20
5.1635
 11
-1.5455
 21
5.5255
  0
LINE
  8
17
  6
CONTINUOUS
 62
1
 10
-4.645E-001
 20
6.6065
 11
3.55E-002
 21
7.1065
  0
LINE
  8
17
  6
CONTINUOUS
 62
1
 10
3.55E-002
 20
7.2475
 11
-4.645E-001
 21
6.7475
  0
LINE
  8
17
  6
CONTINUOUS
 62
1
 10
-1.5455
 20
5.6675
 11
-1.9075
 21
5.3045
  0
LINE
  8
17
  6
CONTINUOUS
 62
1
 10
-2.4515
 20
4.7605
 11
-2.8135
 21
4.3985
  0
LINE
  8
17
  6
CONTINUOUS
 62
1
 10
-6.7475
 20
4.645E-001
 11
-7.2475
 21
-3.55E-002
  0
LINE
  8
17
  6
CONTINUOUS
 62
1
 10
-7.3895
 20
-3.55E-002
 11
-6.8895
 21
4.645E-001
  0
LINE
  8
17
  6
CONTINUOUS
 62
1
 10
-2.8135
 20
4.5395
 11
-2.4515
 21
4.9025
  0
LINE
  8
17
  6
CONTINUOUS
 62
1
 10
-1.9075
 20
5.4465
 11
-1.5455
 21
5.8085
  0
LINE
  8
17
  6
CONTINUOUS
 62
1
 10
-4.645E-001
 20
6.8895
 11
3.55E-002
 21
7.3895
  0
LINE
  8
17
  6
CONTINUOUS
 62
1
 10
3.55E-002
 20
7.5305
 11
-4.645E-001
 21
7.0305
  0
LINE
  8
17
  6
CONTINUOUS
 62
1
 10
-1.5455
 20
5.9495
 11
-1.9075
 21
5.5875
  0
LINE
  8
17
  6
CONTINUOUS
 62
1
 10
-2.4515
 20
5.0435
 11
-2.8135
 21
4.6815
  0
LINE
  8
17
  6
CONTINUOUS
 62
1
 10
-7.0305
 20
4.645E-001
 11
-7.5305
 21
-3.55E-002
  0
LINE
  8
17
  6
CONTINUOUS
 62
1
 10
-7.6715
 20
-3.55E-002
 11
-7.1715
 21
4.645E-001
  0
LINE
  8
17
  6
CONTINUOUS
 62
1
 10
-2.8135
 20
4.8225
 11
-2.4515
 21
5.1855
  0
LINE
  8
17
  6
CONTINUOUS
 62
1
 10
-1.9075
 20
5.7285
 11
-1.5455
 21
6.0915
  0
LINE
  8
17
  6
CONTINUOUS
 62
1
 10
-4.645E-001
 20
7.1715
 11
3.55E-002
 21
7.6715
  0
LINE
  8
17
  6
CONTINUOUS
 62
1
 10
3.55E-002
 20
7.8135
 11
-4.645E-001
 21
7.3135
  0
LINE
  8
17
  6
CONTINUOUS
 62
1
 10
-1.5455
 20
6.2325
 11
-1.9075
 21
5.8705
  0
LINE
  8
17
  6
CONTINUOUS
 62
1
 10
-2.4515
 20
5.3265
 11
-2.8135
 21
4.9635
  0
LINE
  8
17
  6
CONTINUOUS
 62
1
 10
-7.3135
 20
4.645E-001
 11
-7.8135
 21
-3.55E-002
  0
LINE
  8
17
  6
CONTINUOUS
 62
1
 10
-7.9545
 20
-3.55E-002
 11
-7.4545
 21
4.645E-001
  0
LINE
  8
17
  6
CONTINUOUS
 62
1
 10
-2.8135
 20
5.1055
 11
-2.4515
 21
5.4675
  0
LINE
  8
17
  6
CONTINUOUS
 62
1
 10
-1.9075
 20
6.0115
 11
-1.5455
 21
6.3745
  0
LINE
  8
17
  6
CONTINUOUS
 62
1
 10
-4.645E-001
 20
7.4545
 11
3.55E-002
 21
7.9545
  0
LINE
  8
17
  6
CONTINUOUS
 62
1
 10
3.55E-002
 20
8.0965
 11
-4.645E-001
 21
7.5965
  0
LINE
  8
17
  6
CONTINUOUS
 62
1
 10
-1.5455
 20
6.5155
 11
-1.9075
 21
6.1535
  0
LINE
  8
17
  6
CONTINUOUS
 62
1
 10
-2.4515
 20
5.6095
 11
-2.8135
 21
5.2465
  0
LINE
  8
17
  6
CONTINUOUS
 62
1
 10
-7.5965
 20
4.645E-001
 11
-8.0965
 21
-3.55E-002
  0
LINE
  8
17
  6
CONTINUOUS
 62
1
 10
-8.2375
 20
-3.55E-002
 11
-7.7375
 21
4.645E-001
  0
LINE
  8
17
  6
CONTINUOUS
 62
1
 10
-2.8135
 20
5.3885
 11
-2.4515
 21
5.7505
  0
LINE
  8
17
  6
CONTINUOUS
 62
1
 10
-1.9075
 20
6.2945
 11
-1.5455
 21
6.6575
  0
LINE
  8
17
  6
CONTINUOUS
 62
1
 10
-4.645E-001
 20
7.7375
 11
3.55E-002
 21
8.2375
  0
LINE
  8
17
  6
CONTINUOUS
 62
1
 10
3.55E-002
 20
8.3795
 11
-4.645E-001
 21
7.8795
  0
LINE
  8
17
  6
CONTINUOUS
 62
1
 10
-1.5455
 20
6.7985
 11
-1.9075
 21
6.4355
  0
LINE
  8
17
  6
CONTINUOUS
 62
1
 10
-2.4515
 20
5.8925
 11
-2.8135
 21
5.5295
  0
LINE
  8
17
  6
CONTINUOUS
 62
1
 10
-7.8795
 20
4.645E-001
 11
-8.3795
 21
-3.55E-002
  0
LINE
  8
17
  6
CONTINUOUS
 62
1
 10
-8.5205
 20
-3.55E-002
 11
-8.0205
 21
4.645E-001
  0
LINE
  8
17
  6
CONTINUOUS
 62
1
 10
-2.8135
 20
5.6715
 11
-2.4515
 21
6.0335
  0
LINE
  8
17
  6
CONTINUOUS
 62
1
 10
-1.9075
 20
6.5775
 11
-1.5455
 21
6.9395
  0
LINE
  8
17
  6
CONTINUOUS
 62
1
 10
-4.645E-001
 20
8.0205
 11
3.55E-002
 21
8.5205
  0
LINE
  8
17
  6
CONTINUOUS
 62
1
 10
3.55E-002
 20
8.6615
 11
-4.645E-001
 21
8.1615
  0
LINE
  8
17
  6
CONTINUOUS
 62
1
 10
-1.5455
 20
7.0815
 11
-1.9075
 21
6.7185
  0
LINE
  8
17
  6
CONTINUOUS
 62
1
 10
-2.4515
 20
6.1755
 11
-2.8135
 21
5.8125
  0
LINE
  8
17
  6
CONTINUOUS
 62
1
 10
-3.3135
 20
5.3125
 11
-3.5045
 21
5.1225
  0
LINE
  8
17
  6
CONTINUOUS
 62
1
 10
-5.7535
 20
2.8735
 11
-6.1785
 21
2.4485
  0
LINE
  8
17
  6
CONTINUOUS
 62
1
 10
-8.1615
 20
4.645E-001
 11
-8.6615
 21
-3.55E-002
  0
LINE
  8
17
  6
CONTINUOUS
 62
1
 10
-8.8035
 20
-3.55E-002
 11
-8.3035
 21
4.645E-001
  0
LINE
  8
17
  6
CONTINUOUS
 62
1
 10
-6.3395
 20
2.4275
 11
-6.2615
 21
2.5055
  0
LINE
  8
17
  6
CONTINUOUS
 62
1
 10
-6.1705
 20
2.5965
 11
-5.7335
 21
3.0345
  0
LINE
  8
17
  6
CONTINUOUS
 62
1
 10
-3.7135
 20
5.0535
 11
-3.3135
 21
5.4535
  0
LINE
  8
17
  6
CONTINUOUS
 62
1
 10
-2.8135
 20
5.9535
 11
-2.4515
 21
6.3165
  0
LINE
  8
17
  6
CONTINUOUS
 62
1
 10
-1.9075
 20
6.8605
 11
-1.5455
 21
7.2225
  0
LINE
  8
17
  6
CONTINUOUS
 62
1
 10
-4.645E-001
 20
8.3035
 11
3.55E-002
 21
8.8035
  0
LINE
  8
17
  6
CONTINUOUS
 62
1
 10
3.55E-002
 20
8.9445
 11
-4.645E-001
 21
8.4445
  0
LINE
  8
17
  6
CONTINUOUS
 62
1
 10
-1.5455
 20
7.3645
 11
-1.9075
 21
7.0015
  0
LINE
  8
17
  6
CONTINUOUS
 62
1
 10
-2.4515
 20
6.4575
 11
-2.8135
 21
6.0955
  0
LINE
  8
17
  6
CONTINUOUS
 62
1
 10
-3.3135
 20
5.5955
 11
-3.7135
 21
5.1955
  0
LINE
  8
17
  6
CONTINUOUS
 62
1
 10
-5.7335
 20
3.1765
 11
-6.0955
 21
2.8135
  0
LINE
  8
17
  6
CONTINUOUS
 62
1
 10
-8.4445
 20
4.645E-001
 11
-8.9445
 21
-3.55E-002
  0
LINE
  8
17
  6
CONTINUOUS
 62
1
 10
-9.0865
 20
-3.55E-002
 11
-8.5865
 21
4.645E-001
  0
LINE
  8
17
  6
CONTINUOUS
 62
1
 10
-6.9925
 20
2.0585
 11
-6.6925
 21
2.3585
  0
LINE
  8
17
  6
CONTINUOUS
 62
1
 10
-6.0955
 20
2.9555
 11
-5.7335
 21
3.3175
  0
LINE
  8
17
  6
CONTINUOUS
 62
1
 10
-4.2995
 20
4.7515
 11
-4.2735
 21
4.7775
  0
LINE
  8
17
  6
CONTINUOUS
 62
1
 10
-3.7135
 20
5.3365
 11
-3.3135
 21
5.7365
  0
LINE
  8
17
  6
CONTINUOUS
 62
1
 10
-2.8135
 20
6.2365
 11
-2.4515
 21
6.5995
  0
LINE
  8
17
  6
CONTINUOUS
 62
1
 10
-1.9075
 20
7.1435
 11
-1.5225
 21
7.5285
  0
LINE
  8
17
  6
CONTINUOUS
 62
1
 10
-1.2785
 20
7.7715
 11
-1.2555
 21
7.7955
  0
LINE
  8
17
  6
CONTINUOUS
 62
1
 10
-4.645E-001
 20
8.5865
 11
3.55E-002
 21
9.0865
  0
LINE
  8
17
  6
CONTINUOUS
 62
1
 10
3.55E-002
 20
9.2275
 11
-4.645E-001
 21
8.7275
  0
LINE
  8
17
  6
CONTINUOUS
 62
1
 10
-1.4015
 20
7.7905
 11
-1.9005
 21
7.2915
  0
LINE
  8
17
  6
CONTINUOUS
 62
1
 10
-2.4515
 20
6.7405
 11
-2.8135
 21
6.3785
  0
LINE
  8
17
  6
CONTINUOUS
 62
1
 10
-3.3155
 20
5.8765
 11
-3.7135
 21
5.4785
  0
LINE
  8
17
  6
CONTINUOUS
 62
1
 10
-4.2735
 20
4.9185
 11
-4.5645
 21
4.6275
  0
LINE
  8
17
  6
CONTINUOUS
 62
1
 10
-5.7335
 20
3.4595
 11
-6.0955
 21
3.0965
  0
LINE
  8
17
  6
CONTINUOUS
 62
1
 10
-6.6415
 20
2.5505
 11
-7.1845
 21
2.0075
  0
LINE
  8
17
  6
CONTINUOUS
 62
1
 10
-8.7275
 20
4.645E-001
 11
-9.2275
 21
-3.55E-002
  0
LINE
  8
17
  6
CONTINUOUS
 62
1
 10
-9.3695
 20
-3.55E-002
 11
-8.8695
 21
4.645E-001
  0
LINE
  8
17
  6
CONTINUOUS
 62
1
 10
-7.3225
 20
2.0105
 11
-7.3165
 21
2.0175
  0
LINE
  8
17
  6
CONTINUOUS
 62
1
 10
-7.0115
 20
2.3225
 11
-6.6395
 21
2.6945
  0
LINE
  8
17
  6
CONTINUOUS
 62
1
 10
-6.0955
 20
3.2375
 11
-5.7335
 21
3.6005
  0
LINE
  8
17
  6
CONTINUOUS
 62
1
 10
-4.6735
 20
4.6605
 11
-4.2735
 21
5.0605
  0
LINE
  8
17
  6
CONTINUOUS
 62
1
 10
-3.7135
 20
5.6195
 11
-3.3495
 21
5.9845
  0
LINE
  8
17
  6
CONTINUOUS
 62
1
 10
-2.8135
 20
6.5195
 11
-2.4515
 21
6.8825
  0
LINE
  8
17
  6
CONTINUOUS
 62
1
 10
-1.8135
 20
7.5195
 11
-1.6295
 21
7.7035
  0
LINE
  8
17
  6
CONTINUOUS
 62
1
 10
-4.645E-001
 20
8.8695
 11
3.55E-002
 21
9.3695
  0
LINE
  8
17
  6
CONTINUOUS
 62
1
 10
3.55E-002
 20
9.5105
 11
-4.645E-001
 21
9.0105
  0
LINE
  8
17
  6
CONTINUOUS
 62
1
 10
-2.4475
 20
7.0275
 11
-2.8135
 21
6.6615
  0
LINE
  8
17
  6
CONTINUOUS
 62
1
 10
-3.4105
 20
6.0645
 11
-3.7135
 21
5.7615
  0
LINE
  8
17
  6
CONTINUOUS
 62
1
 10
-4.2735
 20
5.2015
 11
-4.6735
 21
4.8015
  0
LINE
  8
17
  6
CONTINUOUS
 62
1
 10
-5.7335
 20
3.7415
 11
-6.0955
 21
3.3795
  0
LINE
  8
17
  6
CONTINUOUS
 62
1
 10
-6.6395
 20
2.8355
 11
-7.0015
 21
2.4735
  0
LINE
  8
17
  6
CONTINUOUS
 62
1
 10
-9.0105
 20
4.645E-001
 11
-9.5105
 21
-3.55E-002
  0
LINE
  8
17
  6
CONTINUOUS
 62
1
 10
-9.6515
 20
-3.55E-002
 11
-9.1515
 21
4.645E-001
  0
LINE
  8
17
  6
CONTINUOUS
 62
1
 10
-7.0015
 20
2.6145
 11
-6.6395
 21
2.9765
  0
LINE
  8
17
  6
CONTINUOUS
 62
1
 10
-6.0955
 20
3.5205
 11
-5.7335
 21
3.8835
  0
LINE
  8
17
  6
CONTINUOUS
 62
1
 10
-4.6735
 20
4.9425
 11
-4.2735
 21
5.3425
  0
LINE
  8
17
  6
CONTINUOUS
 62
1
 10
-3.7135
 20
5.9025
 11
-3.4965
 21
6.1195
  0
LINE
  8
17
  6
CONTINUOUS
 62
1
 10
-2.8135
 20
6.8035
 11
-2.2425
 21
7.3745
  0
LINE
  8
17
  6
CONTINUOUS
 62
1
 10
-4.645E-001
 20
9.1515
 11
3.55E-002
 21
9.6515
  0
LINE
  8
17
  6
CONTINUOUS
 62
1
 10
3.55E-002
 20
9.7935
 11
-4.645E-001
 21
9.2935
  0
LINE
  8
17
  6
CONTINUOUS
 62
1
 10
-2.4185
 20
7.3385
 11
-2.7775
 21
6.9795
  0
LINE
  8
17
  6
CONTINUOUS
 62
1
 10
-3.6145
 20
6.1435
 11
-3.7135
 21
6.0435
  0
LINE
  8
17
  6
CONTINUOUS
 62
1
 10
-4.2735
 20
5.4845
 11
-4.6735
 21
5.0845
  0
LINE
  8
17
  6
CONTINUOUS
 62
1
 10
-5.7335
 20
4.0245
 11
-6.0955
 21
3.6625
  0
LINE
  8
17
  6
CONTINUOUS
 62
1
 10
-6.6395
 20
3.1185
 11
-7.0015
 21
2.7555
  0
LINE
  8
17
  6
CONTINUOUS
 62
1
 10
-9.2935
 20
4.645E-001
 11
-9.7935
 21
-3.55E-002
  0
LINE
  8
17
  6
CONTINUOUS
 62
1
 10
-9.9345
 20
-3.55E-002
 11
-9.4345
 21
4.645E-001
  0
LINE
  8
17
  6
CONTINUOUS
 62
1
 10
-7.0015
 20
2.8975
 11
-6.6395
 21
3.2595
  0
LINE
  8
17
  6
CONTINUOUS
 62
1
 10
-6.0955
 20
3.8035
 11
-5.7335
 21
4.1665
  0
LINE
  8
17
  6
CONTINUOUS
 62
1
 10
-4.6735
 20
5.2255
 11
-4.2735
 21
5.6255
  0
LINE
  8
17
  6
CONTINUOUS
 62
1
 10
-4.645E-001
 20
9.4345
 11
3.55E-002
 21
9.9345
  0
LINE
  8
17
  6
CONTINUOUS
 62
1
 10
-7.65E-002
 20
9.9645
 11
-5.765E-001
 21
9.4645
  0
LINE
  8
17
  6
CONTINUOUS
 62
1
 10
-4.2735
 20
5.7675
 11
-4.6735
 21
5.3675
  0
LINE
  8
17
  6
CONTINUOUS
 62
1
 10
-5.7335
 20
4.3075
 11
-6.0955
 21
3.9455
  0
LINE
  8
17
  6
CONTINUOUS
 62
1
 10
-6.6395
 20
3.4015
 11
-7.0015
 21
3.0385
  0
LINE
  8
17
  6
CONTINUOUS
 62
1
 10
-9.4645
 20
5.765E-001
 11
-9.9645
 21
7.65E-002
  0
LINE
  8
17
  6
CONTINUOUS
 62
1
 10
-9.9645
 20
2.175E-001
 11
-9.4645
 21
7.175E-001
  0
LINE
  8
17
  6
CONTINUOUS
 62
1
 10
-7.0015
 20
3.1805
 11
-6.6395
 21
3.5425
  0
LINE
  8
17
  6
CONTINUOUS
 62
1
 10
-6.0955
 20
4.0865
 11
-5.7335
 21
4.4485
  0
LINE
  8
17
  6
CONTINUOUS
 62
1
 10
-4.6395
 20
5.5425
 11
-4.3515
 21
5.8305
  0
LINE
  8
17
  6
CONTINUOUS
 62
1
 10
-7.175E-001
 20
9.4645
 11
-2.175E-001
 21
9.9645
  0
LINE
  8
17
  6
CONTINUOUS
 62
1
 10
-3.585E-001
 20
9.9645
 11
-8.585E-001
 21
9.4645
  0
LINE
  8
17
  6
CONTINUOUS
 62
1
 10
-5.7335
 20
4.5905
 11
-6.0955
 21
4.2275
  0
LINE
  8
17
  6
CONTINUOUS
 62
1
 10
-6.6395
 20
3.6845
 11
-7.0015
 21
3.3215
  0
LINE
  8
17
  6
CONTINUOUS
 62
1
 10
-9.4645
 20
8.585E-001
 11
-9.9645
 21
3.585E-001
  0
LINE
  8
17
  6
CONTINUOUS
 62
1
 10
-9.9645
 20
5.005E-001
 11
-9.4645
 21
1.0005
  0
LINE
  8
17
  6
CONTINUOUS
 62
1
 10
-7.0015
 20
3.4635
 11
-6.6395
 21
3.8255
  0
LINE
  8
17
  6
CONTINUOUS
 62
1
 10
-6.0955
 20
4.3695
 11
-5.7335
 21
4.7315
  0
LINE
  8
17
  6
CONTINUOUS
 62
1
 10
-1.0005
 20
9.4645
 11
-5.005E-001
 21
9.9645
  0
LINE
  8
17
  6
CONTINUOUS
 62
1
 10
-6.415E-001
 20
9.9645
 11
-1.1415
 21
9.4645
  0
LINE
  8
17
  6
CONTINUOUS
 62
1
 10
-5.7335
 20
4.8735
 11
-6.0955
 21
4.5105
  0
LINE
  8
17
  6
CONTINUOUS
 62
1
 10
-6.6395
 20
3.9665
 11
-7.0015
 21
3.6045
  0
LINE
  8
17
  6
CONTINUOUS
 62
1
 10
-9.4645
 20
1.1415
 11
-9.9645
 21
6.415E-001
  0
LINE
  8
17
  6
CONTINUOUS
 62
1
 10
-9.9645
 20
7.835E-001
 11
-9.4645
 21
1.2835
  0
LINE
  8
17
  6
CONTINUOUS
 62
1
 10
-7.0015
 20
3.7455
 11
-6.6395
 21
4.1085
  0
LINE
  8
17
  6
CONTINUOUS
 62
1
 10
-6.0955
 20
4.6525
 11
-5.7335
 21
5.0145
  0
LINE
  8
17
  6
CONTINUOUS
 62
1
 10
-1.2835
 20
9.4645
 11
-7.835E-001
 21
9.9645
  0
LINE
  8
17
  6
CONTINUOUS
 62
1
 10
-9.245E-001
 20
9.9645
 11
-1.4245
 21
9.4645
  0
LINE
  8
17
  6
CONTINUOUS
 62
1
 10
-5.7335
 20
5.1565
 11
-6.0955
 21
4.7935
  0
LINE
  8
17
  6
CONTINUOUS
 62
1
 10
-6.6395
 20
4.2495
 11
-7.0015
 21
3.8875
  0
LINE
  8
17
  6
CONTINUOUS
 62
1
 10
-9.4645
 20
1.4245
 11
-9.9645
 21
9.245E-001
  0
LINE
  8
17
  6
CONTINUOUS
 62
1
 10
-9.9645
 20
1.0665
 11
-9.4645
 21
1.5665
  0
LINE
  8
17
  6
CONTINUOUS
 62
1
 10
-7.0015
 20
4.0285
 11
-6.6395
 21
4.3915
  0
LINE
  8
17
  6
CONTINUOUS
 62
1
 10
-6.0955
 20
4.9355
 11
-5.7335
 21
5.2975
  0
LINE
  8
17
  6
CONTINUOUS
 62
1
 10
-1.5665
 20
9.4645
 11
-1.0665
 21
9.9645
  0
LINE
  8
17
  6
CONTINUOUS
 62
1
 10
-1.2075
 20
9.9645
 11
-1.7075
 21
9.4645
  0
LINE
  8
17
  6
CONTINUOUS
 62
1
 10
-5.7335
 20
5.4385
 11
-6.0955
 21
5.0765
  0
LINE
  8
17
  6
CONTINUOUS
 62
1
 10
-6.6395
 20
4.5325
 11
-7.0015
 21
4.1705
  0
LINE
  8
17
  6
CONTINUOUS
 62
1
 10
-9.4645
 20
1.7075
 11
-9.9645
 21
1.2075
  0
LINE
  8
17
  6
CONTINUOUS
 62
1
 10
-9.9645
 20
1.3675
 11
-9.4645
 21
1.8675
  0
LINE
  8
17
  6
CONTINUOUS
 62
1
 10
-7.5395
 20
3.7925
 11
-7.5015
 21
3.8295
  0
LINE
  8
17
  6
CONTINUOUS
 62
1
 10
-7.0015
 20
4.3295
 11
-6.6395
 21
4.6925
  0
LINE
  8
17
  6
CONTINUOUS
 62
1
 10
-6.0955
 20
5.2355
 11
-5.7335
 21
5.5985
  0
LINE
  8
17
  6
CONTINUOUS
 62
1
 10
-1.8675
 20
9.4645
 11
-1.3675
 21
9.9645
  0
LINE
  8
17
  6
CONTINUOUS
 62
1
 10
-1.4905
 20
9.9645
 11
-1.9905
 21
9.4645
  0
LINE
  8
17
  6
CONTINUOUS
 62
1
 10
-5.7335
 20
5.7215
 11
-6.0955
 21
5.3595
  0
LINE
  8
17
  6
CONTINUOUS
 62
1
 10
-6.6395
 20
4.8155
 11
-7.0015
 21
4.4525
  0
LINE
  8
17
  6
CONTINUOUS
 62
1
 10
-7.5015
 20
3.9525
 11
-7.7705
 21
3.6845
  0
LINE
  8
17
  6
CONTINUOUS
 62
1
 10
-9.4645
 20
1.9905
 11
-9.9645
 21
1.4905
  0
LINE
  8
17
  6
CONTINUOUS
 62
1
 10
-9.9645
 20
1.6315
 11
-9.4645
 21
2.1315
  0
LINE
  8
17
  6
CONTINUOUS
 62
1
 10
-7.9015
 20
3.6945
 11
-7.5015
 21
4.0945
  0
LINE
  8
17
  6
CONTINUOUS
 62
1
 10
-7.0015
 20
4.5945
 11
-6.6395
 21
4.9565
  0
LINE
  8
17
  6
CONTINUOUS
 62
1
 10
-6.0955
 20
5.5005
 11
-5.7335
 21
5.8635
  0
LINE
  8
17
  6
CONTINUOUS
 62
1
 10
-2.1315
 20
9.4645
 11
-1.6315
 21
9.9645
  0
LINE
  8
17
  6
CONTINUOUS
 62
1
 10
-1.7735
 20
9.9645
 11
-2.2735
 21
9.4645
  0
LINE
  8
17
  6
CONTINUOUS
 62
1
 10
-5.7325
 20
6.0045
 11
-6.0955
 21
5.6425
  0
LINE
  8
17
  6
CONTINUOUS
 62
1
 10
-6.6395
 20
5.0985
 11
-7.0015
 21
4.7355
  0
LINE
  8
17
  6
CONTINUOUS
 62
1
 10
-7.5015
 20
4.2355
 11
-7.9015
 21
3.8355
  0
LINE
  8
17
  6
CONTINUOUS
 62
1
 10
-9.4645
 20
2.2735
 11
-9.9645
 21
1.7735
  0
LINE
  8
17
  6
CONTINUOUS
 62
1
 10
-9.9645
 20
1.9145
 11
-9.4645
 21
2.4145
  0
LINE
  8
17
  6
CONTINUOUS
 62
1
 10
-8.5655
 20
3.3135
 11
-8.4615
 21
3.4175
  0
LINE
  8
17
  6
CONTINUOUS
 62
1
 10
-7.9015
 20
3.9775
 11
-7.5015
 21
4.3775
  0
LINE
  8
17
  6
CONTINUOUS
 62
1
 10
-7.0015
 20
4.8775
 11
-6.6395
 21
5.2395
  0
LINE
  8
17
  6
CONTINUOUS
 62
1
 10
-6.0955
 20
5.7835
 11
-5.6705
 21
6.2085
  0
LINE
  8
17
  6
CONTINUOUS
 62
1
 10
-5.5485
 20
6.3305
 11
-5.4825
 21
6.3965
  0
LINE
  8
17
  6
CONTINUOUS
 62
1
 10
-2.4145
 20
9.4645
 11
-1.9145
 21
9.9645
  0
LINE
  8
17
  6
CONTINUOUS
 62
1
 10
-2.0565
 20
9.9645
 11
-2.5565
 21
9.4645
  0
LINE
  8
17
  6
CONTINUOUS
 62
1
 10
-5.6425
 20
6.3785
 11
-6.0775
 21
5.9435
  0
LINE
  8
17
  6
CONTINUOUS
 62
1
 10
-6.6395
 20
5.3815
 11
-7.0015
 21
5.0185
  0
LINE
  8
17
  6
CONTINUOUS
 62
1
 10
-7.5095
 20
4.5105
 11
-7.9015
 21
4.1185
  0
LINE
  8
17
  6
CONTINUOUS
 62
1
 10
-8.4615
 20
3.5595
 11
-8.8305
 21
3.1905
  0
LINE
  8
17
  6
CONTINUOUS
 62
1
 10
-9.4645
 20
2.5565
 11
-9.9645
 21
2.0565
  0
LINE
  8
17
  6
CONTINUOUS
 62
1
 10
-9.9645
 20
2.1975
 11
-9.4645
 21
2.6975
  0
LINE
  8
17
  6
CONTINUOUS
 62
1
 10
-8.8615
 20
3.3005
 11
-8.4615
 21
3.7005
  0
LINE
  8
17
  6
CONTINUOUS
 62
1
 10
-7.9015
 20
4.2605
 11
-7.5525
 21
4.6095
  0
LINE
  8
17
  6
CONTINUOUS
 62
1
 10
-7.0015
 20
5.1605
 11
-6.6395
 21
5.5225
  0
LINE
  8
17
  6
CONTINUOUS
 62
1
 10
-2.6975
 20
9.4645
 11
-2.1975
 21
9.9645
  0
LINE
  8
17
  6
CONTINUOUS
 62
1
 10
-2.3385
 20
9.9645
 11
-2.8385
 21
9.4645
  0
LINE
  8
17
  6
CONTINUOUS
 62
1
 10
-6.3335
 20
5.9695
 11
-6.3475
 21
5.9565
  0
LINE
  8
17
  6
CONTINUOUS
 62
1
 10
-6.6245
 20
5.6785
 11
-7.0015
 21
5.3015
  0
LINE
  8
17
  6
CONTINUOUS
 62
1
 10
-7.6215
 20
4.6815
 11
-7.9015
 21
4.4015
  0
LINE
  8
17
  6
CONTINUOUS
 62
1
 10
-8.4615
 20
3.8425
 11
-8.8615
 21
3.4425
  0
LINE
  8
17
  6
CONTINUOUS
 62
1
 10
-9.4645
 20
2.8385
 11
-9.9645
 21
2.3385
  0
LINE
  8
17
  6
CONTINUOUS
 62
1
 10
-9.9645
 20
2.4805
 11
-9.4645
 21
2.9805
  0
LINE
  8
17
  6
CONTINUOUS
 62
1
 10
-8.8615
 20
3.5835
 11
-8.4615
 21
3.9835
  0
LINE
  8
17
  6
CONTINUOUS
 62
1
 10
-7.9015
 20
4.5425
 11
-7.7155
 21
4.7295
  0
LINE
  8
17
  6
CONTINUOUS
 62
1
 10
-6.9975
 20
5.4475
 11
-6.4755
 21
5.9695
  0
LINE
  8
17
  6
CONTINUOUS
 62
1
 10
-2.9805
 20
9.4645
 11
-2.4805
 21
9.9645
  0
LINE
  8
17
  6
CONTINUOUS
 62
1
 10
-2.6215
 20
9.9645
 11
-3.1215
 21
9.4645
  0
LINE
  8
17
  6
CONTINUOUS
 62
1
 10
-6.6815
 20
5.9045
 11
-6.9325
 21
5.6535
  0
LINE
  8
17
  6
CONTINUOUS
 62
1
 10
-7.8475
 20
4.7385
 11
-7.9015
 21
4.6845
  0
LINE
  8
17
  6
CONTINUOUS
 62
1
 10
-8.4615
 20
4.1245
 11
-8.8615
 21
3.7245
  0
LINE
  8
17
  6
CONTINUOUS
 62
1
 10
-9.4645
 20
3.1215
 11
-9.9645
 21
2.6215
  0
LINE
  8
17
  6
CONTINUOUS
 62
1
 10
-9.9645
 20
2.7635
 11
-9.4645
 21
3.2635
  0
LINE
  8
17
  6
CONTINUOUS
 62
1
 10
-8.8615
 20
3.8665
 11
-8.4615
 21
4.2665
  0
LINE
  8
17
  6
CONTINUOUS
 62
1
 10
-3.2635
 20
9.4645
 11
-2.7635
 21
9.9645
  0
LINE
  8
17
  6
CONTINUOUS
 62
1
 10
-2.9045
 20
9.9645
 11
-3.4045
 21
9.4645
  0
LINE
  8
17
  6
CONTINUOUS
 62
1
 10
-8.4615
 20
4.4075
 11
-8.8585
 21
4.0105
  0
LINE
  8
17
  6
CONTINUOUS
 62
1
 10
-9.4645
 20
3.4045
 11
-9.9645
 21
2.9045
  0
LINE
  8
17
  6
CONTINUOUS
 62
1
 10
-9.9645
 20
3.0455
 11
-9.4645
 21
3.5455
  0
LINE
  8
17
  6
CONTINUOUS
 62
1
 10
-8.7865
 20
4.2245
 11
-8.6245
 21
4.3855
  0
LINE
  8
17
  6
CONTINUOUS
 62
1
 10
-3.5455
 20
9.4645
 11
-3.0455
 21
9.9645
  0
LINE
  8
17
  6
CONTINUOUS
 62
1
 10
-3.1875
 20
9.9645
 11
-3.6875
 21
9.4645
  0
LINE
  8
17
  6
CONTINUOUS
 62
1
 10
-9.4645
 20
3.6875
 11
-9.9645
 21
3.1875
  0
LINE
  8
17
  6
CONTINUOUS
 62
1
 10
-9.9645
 20
3.3285
 11
-9.4645
 21
3.8285
  0
LINE
  8
17
  6
CONTINUOUS
 62
1
 10
-3.8285
 20
9.4645
 11
-3.3285
 21
9.9645
  0
LINE
  8
17
  6
CONTINUOUS
 62
1
 10
-3.4705
 20
9.9645
 11
-3.9705
 21
9.4645
  0
LINE
  8
17
  6
CONTINUOUS
 62
1
 10
-9.4645
 20
3.9705
 11
-9.9645
 21
3.4705
  0
LINE
  8
17
  6
CONTINUOUS
 62
1
 10
-9.9645
 20
3.6115
 11
-9.4645
 21
4.1115
  0
LINE
  8
17
  6
CONTINUOUS
 62
1
 10
-4.1115
 20
9.4645
 11
-3.6115
 21
9.9645
  0
LINE
  8
17
  6
CONTINUOUS
 62
1
 10
-3.7535
 20
9.9645
 11
-4.2535
 21
9.4645
  0
LINE
  8
17
  6
CONTINUOUS
 62
1
 10
-9.4645
 20
4.2535
 11
-9.9645
 21
3.7535
  0
LINE
  8
17
  6
CONTINUOUS
 62
1
 10
-9.9645
 20
3.8945
 11
-9.4645
 21
4.3945
  0
LINE
  8
17
  6
CONTINUOUS
 62
1
 10
-4.3945
 20
9.4645
 11
-3.8945
 21
9.9645
  0
LINE
  8
17
  6
CONTINUOUS
 62
1
 10
-4.0355
 20
9.9645
 11
-4.5355
 21
9.4645
  0
LINE
  8
17
  6
CONTINUOUS
 62
1
 10
-9.4645
 20
4.5355
 11
-9.9645
 21
4.0355
  0
LINE
  8
17
  6
CONTINUOUS
 62
1
 10
-9.9645
 20
4.1775
 11
-9.4645
 21
4.6775
  0
LINE
  8
17
  6
CONTINUOUS
 62
1
 10
-4.6775
 20
9.4645
 11
-4.1775
 21
9.9645
  0
LINE
  8
17
  6
CONTINUOUS
 62
1
 10
-4.3185
 20
9.9645
 11
-4.8185
 21
9.4645
  0
LINE
  8
17
  6
CONTINUOUS
 62
1
 10
-9.4645
 20
4.8185
 11
-9.9645
 21
4.3185
  0
LINE
  8
17
  6
CONTINUOUS
 62
1
 10
-9.9645
 20
4.4605
 11
-9.4645
 21
4.9605
  0
LINE
  8
17
  6
CONTINUOUS
 62
1
 10
-4.9605
 20
9.4645
 11
-4.4605
 21
9.9645
  0
LINE
  8
17
  6
CONTINUOUS
 62
1
 10
-4.6015
 20
9.9645
 11
-5.1015
 21
9.4645
  0
LINE
  8
17
  6
CONTINUOUS
 62
1
 10
-9.4645
 20
5.1015
 11
-9.9645
 21
4.6015
  0
LINE
  8
17
  6
CONTINUOUS
 62
1
 10
-9.9645
 20
4.7435
 11
-9.4645
 21
5.2435
  0
LINE
  8
17
  6
CONTINUOUS
 62
1
 10
-5.2435
 20
9.4645
 11
-4.7435
 21
9.9645
  0
ENDBLK
  0
BLOCK
  2
XHXH2
 10
0.0
 20
0.0
 70
0
  0
LINE
  8
17
  6
CONTINUOUS
 62
1
 10
2.5E-001
 20
2.5E-001
 11
-2.5E-001
 21
-2.5E-001
  0
LINE
  8
17
  6
CONTINUOUS
 62
1
 10
-4.33
 20
-4.33
 11
-4.83
 21
-4.83
  0
LINE
  8
17
  6
CONTINUOUS
 62
1
 10
-4.83
 20
-4.689
 11
-4.33
 21
-4.189
  0
LINE
  8
17
  6
CONTINUOUS
 62
1
 10
-3.91E-001
 20
-2.5E-001
 11
1.09E-001
 21
2.5E-001
  0
LINE
  8
17
  6
CONTINUOUS
 62
1
 10
-3.3E-002
 20
2.5E-001
 11
-5.33E-001
 21
-2.5E-001
  0
LINE
  8
17
  6
CONTINUOUS
 62
1
 10
-4.33
 20
-4.047
 11
-4.83
 21
-4.547
  0
LINE
  8
17
  6
CONTINUOUS
 62
1
 10
-4.83
 20
-4.406
 11
-4.33
 21
-3.906
  0
LINE
  8
17
  6
CONTINUOUS
 62
1
 10
-6.74E-001
 20
-2.5E-001
 11
-1.74E-001
 21
2.5E-001
  0
LINE
  8
17
  6
CONTINUOUS
 62
1
 10
-3.16E-001
 20
2.5E-001
 11
-8.16E-001
 21
-2.5E-001
  0
LINE
  8
17
  6
CONTINUOUS
 62
1
 10
-4.33
 20
-3.764
 11
-4.83
 21
-4.264
  0
LINE
  8
17
  6
CONTINUOUS
 62
1
 10
-4.83
 20
-4.123
 11
-4.33
 21
-3.623
  0
LINE
  8
17
  6
CONTINUOUS
 62
1
 10
-9.57E-001
 20
-2.5E-001
 11
-4.57E-001
 21
2.5E-001
  0
LINE
  8
17
  6
CONTINUOUS
 62
1
 10
-5.98E-001
 20
2.5E-001
 11
-1.098
 21
-2.5E-001
  0
LINE
  8
17
  6
CONTINUOUS
 62
1
 10
-4.33
 20
-3.482
 11
-4.83
 21
-3.982
  0
LINE
  8
17
  6
CONTINUOUS
 62
1
 10
-4.83
 20
-3.84
 11
-4.33
 21
-3.34
  0
LINE
  8
17
  6
CONTINUOUS
 62
1
 10
-1.24
 20
-2.5E-001
 11
-7.4E-001
 21
2.5E-001
  0
LINE
  8
17
  6
CONTINUOUS
 62
1
 10
-8.81E-001
 20
2.5E-001
 11
-1.381
 21
-2.5E-001
  0
LINE
  8
17
  6
CONTINUOUS
 62
1
 10
-4.33
 20
-3.199
 11
-4.83
 21
-3.699
  0
LINE
  8
17
  6
CONTINUOUS
 62
1
 10
-4.83
 20
-3.557
 11
-4.33
 21
-3.057
  0
LINE
  8
17
  6
CONTINUOUS
 62
1
 10
-1.523
 20
-2.5E-001
 11
-1.023
 21
2.5E-001
  0
LINE
  8
17
  6
CONTINUOUS
 62
1
 10
-1.164
 20
2.5E-001
 11
-1.664
 21
-2.5E-001
  0
LINE
  8
17
  6
CONTINUOUS
 62
1
 10
-4.33
 20
-2.916
 11
-4.83
 21
-3.416
  0
LINE
  8
17
  6
CONTINUOUS
 62
1
 10
-4.83
 20
-3.274
 11
-4.33
 21
-2.774
  0
LINE
  8
17
  6
CONTINUOUS
 62
1
 10
-1.806
 20
-2.5E-001
 11
-1.306
 21
2.5E-001
  0
LINE
  8
17
  6
CONTINUOUS
 62
1
 10
-1.447
 20
2.5E-001
 11
-1.947
 21
-2.5E-001
  0
LINE
  8
17
  6
CONTINUOUS
 62
1
 10
-4.33
 20
-2.633
 11
-4.83
 21
-3.133
  0
LINE
  8
17
  6
CONTINUOUS
 62
1
 10
-4.83
 20
-2.992
 11
-4.33
 21
-2.492
  0
LINE
  8
17
  6
CONTINUOUS
 62
1
 10
-2.088
 20
-2.5E-001
 11
-1.588
 21
2.5E-001
  0
LINE
  8
17
  6
CONTINUOUS
 62
1
 10
-1.73
 20
2.5E-001
 11
-2.23
 21
-2.5E-001
  0
LINE
  8
17
  6
CONTINUOUS
 62
1
 10
-4.33
 20
-2.35
 11
-4.83
 21
-2.85
  0
LINE
  8
17
  6
CONTINUOUS
 62
1
 10
-4.83
 20
-2.709
 11
-4.33
 21
-2.209
  0
LINE
  8
17
  6
CONTINUOUS
 62
1
 10
-2.371
 20
-2.5E-001
 11
-1.871
 21
2.5E-001
  0
LINE
  8
17
  6
CONTINUOUS
 62
1
 10
-2.013
 20
2.5E-001
 11
-2.513
 21
-2.5E-001
  0
LINE
  8
17
  6
CONTINUOUS
 62
1
 10
-4.33
 20
-2.067
 11
-4.83
 21
-2.567
  0
LINE
  8
17
  6
CONTINUOUS
 62
1
 10
-4.83
 20
-2.426
 11
-4.33
 21
-1.926
  0
LINE
  8
17
  6
CONTINUOUS
 62
1
 10
-2.654
 20
-2.5E-001
 11
-2.154
 21
2.5E-001
  0
LINE
  8
17
  6
CONTINUOUS
 62
1
 10
-2.296
 20
2.5E-001
 11
-2.796
 21
-2.5E-001
  0
LINE
  8
17
  6
CONTINUOUS
 62
1
 10
-4.33
 20
-1.784
 11
-4.83
 21
-2.284
  0
LINE
  8
17
  6
CONTINUOUS
 62
1
 10
-4.83
 20
-2.143
 11
-4.33
 21
-1.643
  0
LINE
  8
17
  6
CONTINUOUS
 62
1
 10
-2.937
 20
-2.5E-001
 11
-2.437
 21
2.5E-001
  0
LINE
  8
17
  6
CONTINUOUS
 62
1
 10
-2.578
 20
2.5E-001
 11
-3.078
 21
-2.5E-001
  0
LINE
  8
17
  6
CONTINUOUS
 62
1
 10
-4.33
 20
-1.502
 11
-4.83
 21
-2.002
  0
LINE
  8
17
  6
CONTINUOUS
 62
1
 10
-4.83
 20
-1.86
 11
-4.33
 21
-1.36
  0
LINE
  8
17
  6
CONTINUOUS
 62
1
 10
-3.22
 20
-2.5E-001
 11
-2.72
 21
2.5E-001
  0
LINE
  8
17
  6
CONTINUOUS
 62
1
 10
-2.861
 20
2.5E-001
 11
-3.361
 21
-2.5E-001
  0
LINE
  8
17
  6
CONTINUOUS
 62
1
 10
-4.33
 20
-1.219
 11
-4.83
 21
-1.719
  0
LINE
  8
17
  6
CONTINUOUS
 62
1
 10
-4.83
 20
-1.577
 11
-4.33
 21
-1.077
  0
LINE
  8
17
  6
CONTINUOUS
 62
1
 10
-3.503
 20
-2.5E-001
 11
-3.003
 21
2.5E-001
  0
LINE
  8
17
  6
CONTINUOUS
 62
1
 10
-3.144
 20
2.5E-001
 11
-3.644
 21
-2.5E-001
  0
LINE
  8
17
  6
CONTINUOUS
 62
1
 10
-4.33
 20
-9.36E-001
 11
-4.83
 21
-1.436
  0
LINE
  8
17
  6
CONTINUOUS
 62
1
 10
-4.83
 20
-1.295
 11
-4.33
 21
-7.95E-001
  0
LINE
  8
17
  6
CONTINUOUS
 62
1
 10
-3.785
 20
-2.5E-001
 11
-3.285
 21
2.5E-001
  0
LINE
  8
17
  6
CONTINUOUS
 62
1
 10
-3.427
 20
2.5E-001
 11
-3.927
 21
-2.5E-001
  0
LINE
  8
17
  6
CONTINUOUS
 62
1
 10
-4.33
 20
-6.53E-001
 11
-4.83
 21
-1.153
  0
LINE
  8
17
  6
CONTINUOUS
 62
1
 10
-4.83
 20
-1.012
 11
-4.33
 21
-5.12E-001
  0
LINE
  8
17
  6
CONTINUOUS
 62
1
 10
-4.068
 20
-2.5E-001
 11
-3.568
 21
2.5E-001
  0
LINE
  8
17
  6
CONTINUOUS
 62
1
 10
-3.71
 20
2.5E-001
 11
-4.21
 21
-2.5E-001
  0
LINE
  8
17
  6
CONTINUOUS
 62
1
 10
-4.33
 20
-3.7E-001
 11
-4.83
 21
-8.7E-001
  0
LINE
  8
17
  6
CONTINUOUS
 62
1
 10
-4.83
 20
-7.29E-001
 11
-3.851
 21
2.5E-001
  0
LINE
  8
17
  6
CONTINUOUS
 62
1
 10
-3.993
 20
2.5E-001
 11
-4.83
 21
-5.87E-001
  0
LINE
  8
17
  6
CONTINUOUS
 62
1
 10
-4.83
 20
-4.46E-001
 11
-4.134
 21
2.5E-001
  0
LINE
  8
17
  6
CONTINUOUS
 62
1
 10
-4.275
 20
2.5E-001
 11
-4.83
 21
-3.05E-001
  0
LINE
  8
17
  6
CONTINUOUS
 62
1
 10
-4.83
 20
-1.63E-001
 11
-4.417
 21
2.5E-001
  0
LINE
  8
17
  6
CONTINUOUS
 62
1
 10
-4.558
 20
2.5E-001
 11
-4.83
 21
-2.2E-002
  0
LINE
  8
17
  6
CONTINUOUS
 62
1
 10
-4.83
 20
1.2E-001
 11
-4.7
 21
2.5E-001
  0
ENDBLK
  0
BLOCK
  2
XHXH3
 10
0.0
 20
0.0
 70
0
  0
LINE
  8
18
  6
CONTINUOUS
 62
1
 10
-3.55E-002
 20
-3.55E-002
 11
3.55E-002
 21
3.55E-002
  0
LINE
  8
18
  6
CONTINUOUS
 62
1
 10
3.55E-002
 20
1.765E-001
 11
-1.765E-001
 21
-3.55E-002
  0
LINE
  8
18
  6
CONTINUOUS
 62
1
 10
-3.185E-001
 20
-3.55E-002
 11
3.55E-002
 21
3.185E-001
  0
LINE
  8
18
  6
CONTINUOUS
 62
1
 10
3.55E-002
 20
4.595E-001
 11
-4.595E-001
 21
-3.55E-002
  0
LINE
  8
18
  6
CONTINUOUS
 62
1
 10
-6.005E-001
 20
-3.55E-002
 11
3.55E-002
 21
6.005E-001
  0
LINE
  8
18
  6
CONTINUOUS
 62
1
 10
3.55E-002
 20
7.425E-001
 11
-7.425E-001
 21
-3.55E-002
  0
LINE
  8
18
  6
CONTINUOUS
 62
1
 10
-8.835E-001
 20
-3.55E-002
 11
3.55E-002
 21
8.835E-001
  0
LINE
  8
18
  6
CONTINUOUS
 62
1
 10
3.55E-002
 20
1.0255
 11
-4.645E-001
 21
5.255E-001
  0
LINE
  8
18
  6
CONTINUOUS
 62
1
 10
-5.255E-001
 20
4.645E-001
 11
-1.0255
 21
-3.55E-002
  0
LINE
  8
18
  6
CONTINUOUS
 62
1
 10
-1.1665
 20
-3.55E-002
 11
-6.665E-001
 21
4.645E-001
  0
LINE
  8
18
  6
CONTINUOUS
 62
1
 10
-4.645E-001
 20
6.665E-001
 11
3.55E-002
 21
1.1665
  0
LINE
  8
18
  6
CONTINUOUS
 62
1
 10
3.55E-002
 20
1.3075
 11
-4.645E-001
 21
8.075E-001
  0
LINE
  8
18
  6
CONTINUOUS
 62
1
 10
-8.085E-001
 20
4.645E-001
 11
-1.3085
 21
-3.55E-002
  0
LINE
  8
18
  6
CONTINUOUS
 62
1
 10
-1.4495
 20
-3.55E-002
 11
-9.495E-001
 21
4.645E-001
  0
LINE
  8
18
  6
CONTINUOUS
 62
1
 10
-4.645E-001
 20
9.495E-001
 11
3.55E-002
 21
1.4495
  0
LINE
  8
18
  6
CONTINUOUS
 62
1
 10
3.55E-002
 20
1.5905
 11
-4.645E-001
 21
1.0905
  0
LINE
  8
18
  6
CONTINUOUS
 62
1
 10
-1.0905
 20
4.645E-001
 11
-1.5905
 21
-3.55E-002
  0
LINE
  8
18
  6
CONTINUOUS
 62
1
 10
-1.7325
 20
-3.55E-002
 11
-1.2325
 21
4.645E-001
  0
LINE
  8
18
  6
CONTINUOUS
 62
1
 10
-4.645E-001
 20
1.2325
 11
3.55E-002
 21
1.7325
  0
LINE
  8
18
  6
CONTINUOUS
 62
1
 10
3.55E-002
 20
1.8735
 11
-4.645E-001
 21
1.3735
  0
LINE
  8
18
  6
CONTINUOUS
 62
1
 10
-1.3735
 20
4.645E-001
 11
-1.8735
 21
-3.55E-002
  0
LINE
  8
18
  6
CONTINUOUS
 62
1
 10
-2.0155
 20
-3.55E-002
 11
-1.5155
 21
4.645E-001
  0
LINE
  8
18
  6
CONTINUOUS
 62
1
 10
-4.645E-001
 20
1.5155
 11
3.55E-002
 21
2.0155
  0
LINE
  8
18
  6
CONTINUOUS
 62
1
 10
3.55E-002
 20
2.1565
 11
-4.645E-001
 21
1.6565
  0
LINE
  8
18
  6
CONTINUOUS
 62
1
 10
-1.6565
 20
4.645E-001
 11
-2.1565
 21
-3.55E-002
  0
LINE
  8
18
  6
CONTINUOUS
 62
1
 10
-2.2975
 20
-3.55E-002
 11
-1.7975
 21
4.645E-001
  0
LINE
  8
18
  6
CONTINUOUS
 62
1
 10
-4.645E-001
 20
1.7975
 11
3.55E-002
 21
2.2975
  0
LINE
  8
18
  6
CONTINUOUS
 62
1
 10
3.55E-002
 20
2.4395
 11
-4.645E-001
 21
1.9395
  0
LINE
  8
18
  6
CONTINUOUS
 62
1
 10
-1.9395
 20
4.645E-001
 11
-2.4395
 21
-3.55E-002
  0
LINE
  8
18
  6
CONTINUOUS
 62
1
 10
-2.5805
 20
-3.55E-002
 11
-2.0805
 21
4.645E-001
  0
LINE
  8
18
  6
CONTINUOUS
 62
1
 10
-4.645E-001
 20
2.0805
 11
3.55E-002
 21
2.5805
  0
LINE
  8
18
  6
CONTINUOUS
 62
1
 10
3.55E-002
 20
2.7225
 11
-4.645E-001
 21
2.2225
  0
LINE
  8
18
  6
CONTINUOUS
 62
1
 10
-2.2225
 20
4.645E-001
 11
-2.7225
 21
-3.55E-002
  0
LINE
  8
18
  6
CONTINUOUS
 62
1
 10
-2.8635
 20
-3.55E-002
 11
-2.3635
 21
4.645E-001
  0
LINE
  8
18
  6
CONTINUOUS
 62
1
 10
-4.645E-001
 20
2.3635
 11
3.55E-002
 21
2.8635
  0
LINE
  8
18
  6
CONTINUOUS
 62
1
 10
3.55E-002
 20
3.0055
 11
-4.645E-001
 21
2.5055
  0
LINE
  8
18
  6
CONTINUOUS
 62
1
 10
-2.5055
 20
4.645E-001
 11
-3.0055
 21
-3.55E-002
  0
LINE
  8
18
  6
CONTINUOUS
 62
1
 10
-3.1465
 20
-3.55E-002
 11
-2.6465
 21
4.645E-001
  0
LINE
  8
18
  6
CONTINUOUS
 62
1
 10
-4.645E-001
 20
2.6465
 11
3.55E-002
 21
3.1465
  0
LINE
  8
18
  6
CONTINUOUS
 62
1
 10
3.55E-002
 20
3.2875
 11
-4.645E-001
 21
2.7875
  0
LINE
  8
18
  6
CONTINUOUS
 62
1
 10
-2.7875
 20
4.645E-001
 11
-3.2875
 21
-3.55E-002
  0
LINE
  8
18
  6
CONTINUOUS
 62
1
 10
-3.4295
 20
-3.55E-002
 11
-2.9295
 21
4.645E-001
  0
LINE
  8
18
  6
CONTINUOUS
 62
1
 10
-4.645E-001
 20
2.9295
 11
3.55E-002
 21
3.4295
  0
LINE
  8
18
  6
CONTINUOUS
 62
1
 10
3.55E-002
 20
3.5705
 11
-4.645E-001
 21
3.0705
  0
LINE
  8
18
  6
CONTINUOUS
 62
1
 10
-3.0705
 20
4.645E-001
 11
-3.5705
 21
-3.55E-002
  0
LINE
  8
18
  6
CONTINUOUS
 62
1
 10
-3.7125
 20
-3.55E-002
 11
-3.2125
 21
4.645E-001
  0
LINE
  8
18
  6
CONTINUOUS
 62
1
 10
-4.645E-001
 20
3.2125
 11
3.55E-002
 21
3.7125
  0
LINE
  8
18
  6
CONTINUOUS
 62
1
 10
3.55E-002
 20
3.8535
 11
-4.645E-001
 21
3.3535
  0
LINE
  8
18
  6
CONTINUOUS
 62
1
 10
-3.3535
 20
4.645E-001
 11
-3.8535
 21
-3.55E-002
  0
LINE
  8
18
  6
CONTINUOUS
 62
1
 10
-3.9955
 20
-3.55E-002
 11
-3.4955
 21
4.645E-001
  0
LINE
  8
18
  6
CONTINUOUS
 62
1
 10
-4.645E-001
 20
3.4955
 11
3.55E-002
 21
3.9955
  0
LINE
  8
18
  6
CONTINUOUS
 62
1
 10
3.55E-002
 20
4.1365
 11
-4.645E-001
 21
3.6365
  0
LINE
  8
18
  6
CONTINUOUS
 62
1
 10
-3.6365
 20
4.645E-001
 11
-4.1365
 21
-3.55E-002
  0
LINE
  8
18
  6
CONTINUOUS
 62
1
 10
-4.2775
 20
-3.55E-002
 11
-3.7775
 21
4.645E-001
  0
LINE
  8
18
  6
CONTINUOUS
 62
1
 10
-4.645E-001
 20
3.7775
 11
3.55E-002
 21
4.2775
  0
LINE
  8
18
  6
CONTINUOUS
 62
1
 10
3.55E-002
 20
4.4195
 11
-4.645E-001
 21
3.9195
  0
LINE
  8
18
  6
CONTINUOUS
 62
1
 10
-3.9195
 20
4.645E-001
 11
-4.4195
 21
-3.55E-002
  0
LINE
  8
18
  6
CONTINUOUS
 62
1
 10
-4.5605
 20
-3.55E-002
 11
-4.0605
 21
4.645E-001
  0
LINE
  8
18
  6
CONTINUOUS
 62
1
 10
-4.645E-001
 20
4.0605
 11
3.55E-002
 21
4.5605
  0
LINE
  8
18
  6
CONTINUOUS
 62
1
 10
3.55E-002
 20
4.7025
 11
-4.645E-001
 21
4.2025
  0
LINE
  8
18
  6
CONTINUOUS
 62
1
 10
-4.2025
 20
4.645E-001
 11
-4.7025
 21
-3.55E-002
  0
LINE
  8
18
  6
CONTINUOUS
 62
1
 10
-4.8435
 20
-3.55E-002
 11
-4.3435
 21
4.645E-001
  0
LINE
  8
18
  6
CONTINUOUS
 62
1
 10
-4.645E-001
 20
4.3435
 11
3.55E-002
 21
4.8435
  0
LINE
  8
18
  6
CONTINUOUS
 62
1
 10
3.55E-002
 20
4.9845
 11
-4.645E-001
 21
4.4845
  0
LINE
  8
18
  6
CONTINUOUS
 62
1
 10
-4.4845
 20
4.645E-001
 11
-4.9845
 21
-3.55E-002
  0
LINE
  8
18
  6
CONTINUOUS
 62
1
 10
-5.1265
 20
-3.55E-002
 11
-4.6265
 21
4.645E-001
  0
LINE
  8
18
  6
CONTINUOUS
 62
1
 10
-4.645E-001
 20
4.6265
 11
3.55E-002
 21
5.1265
  0
LINE
  8
18
  6
CONTINUOUS
 62
1
 10
3.55E-002
 20
5.2675
 11
-4.645E-001
 21
4.7675
  0
LINE
  8
18
  6
CONTINUOUS
 62
1
 10
-4.7675
 20
4.645E-001
 11
-5.2675
 21
-3.55E-002
  0
LINE
  8
18
  6
CONTINUOUS
 62
1
 10
-5.4095
 20
-3.55E-002
 11
-4.9095
 21
4.645E-001
  0
LINE
  8
18
  6
CONTINUOUS
 62
1
 10
-4.645E-001
 20
4.9095
 11
3.55E-002
 21
5.4095
  0
LINE
  8
18
  6
CONTINUOUS
 62
1
 10
3.55E-002
 20
5.5505
 11
-4.645E-001
 21
5.0505
  0
LINE
  8
18
  6
CONTINUOUS
 62
1
 10
-5.0505
 20
4.645E-001
 11
-5.5505
 21
-3.55E-002
  0
LINE
  8
18
  6
CONTINUOUS
 62
1
 10
-5.6925
 20
-3.55E-002
 11
-5.1925
 21
4.645E-001
  0
LINE
  8
18
  6
CONTINUOUS
 62
1
 10
-4.645E-001
 20
5.1925
 11
3.55E-002
 21
5.6925
  0
LINE
  8
18
  6
CONTINUOUS
 62
1
 10
3.55E-002
 20
5.8335
 11
-4.645E-001
 21
5.3335
  0
LINE
  8
18
  6
CONTINUOUS
 62
1
 10
-5.3335
 20
4.645E-001
 11
-5.8335
 21
-3.55E-002
  0
LINE
  8
18
  6
CONTINUOUS
 62
1
 10
-5.9745
 20
-3.55E-002
 11
-5.4745
 21
4.645E-001
  0
LINE
  8
18
  6
CONTINUOUS
 62
1
 10
-4.645E-001
 20
5.4745
 11
3.55E-002
 21
5.9745
  0
LINE
  8
18
  6
CONTINUOUS
 62
1
 10
3.55E-002
 20
6.1165
 11
-4.645E-001
 21
5.6165
  0
LINE
  8
18
  6
CONTINUOUS
 62
1
 10
-5.6165
 20
4.645E-001
 11
-6.1165
 21
-3.55E-002
  0
LINE
  8
18
  6
CONTINUOUS
 62
1
 10
-6.2575
 20
-3.55E-002
 11
-5.7575
 21
4.645E-001
  0
LINE
  8
18
  6
CONTINUOUS
 62
1
 10
-4.645E-001
 20
5.7575
 11
3.55E-002
 21
6.2575
  0
LINE
  8
18
  6
CONTINUOUS
 62
1
 10
3.55E-002
 20
6.3995
 11
-4.645E-001
 21
5.8995
  0
LINE
  8
18
  6
CONTINUOUS
 62
1
 10
-5.8995
 20
4.645E-001
 11
-6.3995
 21
-3.55E-002
  0
LINE
  8
18
  6
CONTINUOUS
 62
1
 10
-6.5405
 20
-3.55E-002
 11
-6.0405
 21
4.645E-001
  0
LINE
  8
18
  6
CONTINUOUS
 62
1
 10
-4.645E-001
 20
6.0405
 11
3.55E-002
 21
6.5405
  0
LINE
  8
18
  6
CONTINUOUS
 62
1
 10
3.55E-002
 20
6.6825
 11
-4.645E-001
 21
6.1825
  0
LINE
  8
18
  6
CONTINUOUS
 62
1
 10
-6.1825
 20
4.645E-001
 11
-6.6825
 21
-3.55E-002
  0
LINE
  8
18
  6
CONTINUOUS
 62
1
 10
-6.8235
 20
-3.55E-002
 11
-6.3235
 21
4.645E-001
  0
LINE
  8
18
  6
CONTINUOUS
 62
1
 10
-4.645E-001
 20
6.3235
 11
3.55E-002
 21
6.8235
  0
LINE
  8
18
  6
CONTINUOUS
 62
1
 10
3.55E-002
 20
6.9825
 11
-4.645E-001
 21
6.4825
  0
LINE
  8
18
  6
CONTINUOUS
 62
1
 10
-1.0775
 20
5.8705
 11
-1.4675
 21
5.4795
  0
LINE
  8
18
  6
CONTINUOUS
 62
1
 10
-6.4825
 20
4.645E-001
 11
-6.9825
 21
-3.55E-002
  0
LINE
  8
18
  6
CONTINUOUS
 62
1
 10
-7.1065
 20
-3.55E-002
 11
-6.6065
 21
4.645E-001
  0
LINE
  8
18
  6
CONTINUOUS
 62
1
 10
-1.4675
 20
5.6035
 11
-1.0675
 21
6.0035
  0
LINE
  8
18
  6
CONTINUOUS
 62
1
 10
-4.645E-001
 20
6.6065
 11
3.55E-002
 21
7.1065
  0
LINE
  8
18
  6
CONTINUOUS
 62
1
 10
3.55E-002
 20
7.2475
 11
-4.645E-001
 21
6.7475
  0
LINE
  8
18
  6
CONTINUOUS
 62
1
 10
-1.0675
 20
6.1445
 11
-1.4675
 21
5.7445
  0
LINE
  8
18
  6
CONTINUOUS
 62
1
 10
-6.7475
 20
4.645E-001
 11
-7.2475
 21
-3.55E-002
  0
LINE
  8
18
  6
CONTINUOUS
 62
1
 10
-7.3895
 20
-3.55E-002
 11
-6.8895
 21
4.645E-001
  0
LINE
  8
18
  6
CONTINUOUS
 62
1
 10
-3.3805
 20
3.9735
 11
-2.9455
 21
4.4085
  0
LINE
  8
18
  6
CONTINUOUS
 62
1
 10
-2.1645
 20
5.1895
 11
-2.0275
 21
5.3265
  0
LINE
  8
18
  6
CONTINUOUS
 62
1
 10
-1.4675
 20
5.8855
 11
-1.0675
 21
6.2855
  0
LINE
  8
18
  6
CONTINUOUS
 62
1
 10
-4.645E-001
 20
6.8895
 11
3.55E-002
 21
7.3895
  0
LINE
  8
18
  6
CONTINUOUS
 62
1
 10
3.55E-002
 20
7.5305
 11
-4.645E-001
 21
7.0305
  0
LINE
  8
18
  6
CONTINUOUS
 62
1
 10
-1.0675
 20
6.4275
 11
-1.4675
 21
6.0275
  0
LINE
  8
18
  6
CONTINUOUS
 62
1
 10
-2.0275
 20
5.4675
 11
-2.2715
 21
5.2235
  0
LINE
  8
18
  6
CONTINUOUS
 62
1
 10
-2.9275
 20
4.5675
 11
-3.3525
 21
4.1425
  0
LINE
  8
18
  6
CONTINUOUS
 62
1
 10
-3.4735
 20
4.0215
 11
-3.5395
 21
3.9555
  0
LINE
  8
18
  6
CONTINUOUS
 62
1
 10
-7.0305
 20
4.645E-001
 11
-7.5305
 21
-3.55E-002
  0
LINE
  8
18
  6
CONTINUOUS
 62
1
 10
-7.6715
 20
-3.55E-002
 11
-7.1715
 21
4.645E-001
  0
LINE
  8
18
  6
CONTINUOUS
 62
1
 10
-3.2895
 20
4.3465
 11
-2.9275
 21
4.7095
  0
LINE
  8
18
  6
CONTINUOUS
 62
1
 10
-2.3505
 20
5.2865
 11
-2.0275
 21
5.6095
  0
LINE
  8
18
  6
CONTINUOUS
 62
1
 10
-1.4675
 20
6.1685
 11
-1.0675
 21
6.5685
  0
LINE
  8
18
  6
CONTINUOUS
 62
1
 10
-4.645E-001
 20
7.1715
 11
3.55E-002
 21
7.6715
  0
LINE
  8
18
  6
CONTINUOUS
 62
1
 10
3.55E-002
 20
7.8135
 11
-4.645E-001
 21
7.3135
  0
LINE
  8
18
  6
CONTINUOUS
 62
1
 10
-1.0675
 20
6.7105
 11
-1.4675
 21
6.3105
  0
LINE
  8
18
  6
CONTINUOUS
 62
1
 10
-2.0275
 20
5.7505
 11
-2.4045
 21
5.3735
  0
LINE
  8
18
  6
CONTINUOUS
 62
1
 10
-2.9275
 20
4.8505
 11
-3.2895
 21
4.4885
  0
LINE
  8
18
  6
CONTINUOUS
 62
1
 10
-3.8825
 20
3.8955
 11
-4.1965
 21
3.5815
  0
LINE
  8
18
  6
CONTINUOUS
 62
1
 10
-7.3135
 20
4.645E-001
 11
-7.8135
 21
-3.55E-002
  0
LINE
  8
18
  6
CONTINUOUS
 62
1
 10
-7.9545
 20
-3.55E-002
 11
-7.4545
 21
4.645E-001
  0
LINE
  8
18
  6
CONTINUOUS
 62
1
 10
-4.3845
 20
3.5345
 11
-3.8355
 21
4.0835
  0
LINE
  8
18
  6
CONTINUOUS
 62
1
 10
-3.2895
 20
4.6295
 11
-2.9275
 21
4.9925
  0
LINE
  8
18
  6
CONTINUOUS
 62
1
 10
-2.4275
 20
5.4925
 11
-2.0275
 21
5.8925
  0
LINE
  8
18
  6
CONTINUOUS
 62
1
 10
-1.4675
 20
6.4515
 11
-1.2525
 21
6.6675
  0
LINE
  8
18
  6
CONTINUOUS
 62
1
 10
-4.645E-001
 20
7.4545
 11
3.55E-002
 21
7.9545
  0
LINE
  8
18
  6
CONTINUOUS
 62
1
 10
3.55E-002
 20
8.0965
 11
-4.645E-001
 21
7.5965
  0
LINE
  8
18
  6
CONTINUOUS
 62
1
 10
-2.0275
 20
6.0335
 11
-2.4275
 21
5.6335
  0
LINE
  8
18
  6
CONTINUOUS
 62
1
 10
-2.9275
 20
5.1335
 11
-3.2895
 21
4.7715
  0
LINE
  8
18
  6
CONTINUOUS
 62
1
 10
-3.8335
 20
4.2275
 11
-4.2035
 21
3.8575
  0
LINE
  8
18
  6
CONTINUOUS
 62
1
 10
-7.5965
 20
4.645E-001
 11
-8.0965
 21
-3.55E-002
  0
LINE
  8
18
  6
CONTINUOUS
 62
1
 10
-8.2375
 20
-3.55E-002
 11
-7.7375
 21
4.645E-001
  0
LINE
  8
18
  6
CONTINUOUS
 62
1
 10
-4.1955
 20
4.0065
 11
-3.8335
 21
4.3685
  0
LINE
  8
18
  6
CONTINUOUS
 62
1
 10
-3.2895
 20
4.9125
 11
-2.9275
 21
5.2755
  0
LINE
  8
18
  6
CONTINUOUS
 62
1
 10
-2.4275
 20
5.7755
 11
-2.0275
 21
6.1755
  0
LINE
  8
18
  6
CONTINUOUS
 62
1
 10
-4.645E-001
 20
7.7375
 11
3.55E-002
 21
8.2375
  0
LINE
  8
18
  6
CONTINUOUS
 62
1
 10
3.55E-002
 20
8.3795
 11
-4.645E-001
 21
7.8795
  0
LINE
  8
18
  6
CONTINUOUS
 62
1
 10
-2.0475
 20
6.2965
 11
-2.4275
 21
5.9165
  0
LINE
  8
18
  6
CONTINUOUS
 62
1
 10
-2.9275
 20
5.4165
 11
-3.2895
 21
5.0535
  0
LINE
  8
18
  6
CONTINUOUS
 62
1
 10
-3.8335
 20
4.5105
 11
-4.1955
 21
4.1475
  0
LINE
  8
18
  6
CONTINUOUS
 62
1
 10
-7.8795
 20
4.645E-001
 11
-8.3795
 21
-3.55E-002
  0
LINE
  8
18
  6
CONTINUOUS
 62
1
 10
-8.5205
 20
-3.55E-002
 11
-8.0205
 21
4.645E-001
  0
LINE
  8
18
  6
CONTINUOUS
 62
1
 10
-4.1955
 20
4.2895
 11
-3.8335
 21
4.6515
  0
LINE
  8
18
  6
CONTINUOUS
 62
1
 10
-3.2895
 20
5.1955
 11
-2.9275
 21
5.5575
  0
LINE
  8
18
  6
CONTINUOUS
 62
1
 10
-2.4275
 20
6.0575
 11
-2.3125
 21
6.1725
  0
LINE
  8
18
  6
CONTINUOUS
 62
1
 10
-4.645E-001
 20
8.0205
 11
3.55E-002
 21
8.5205
  0
LINE
  8
18
  6
CONTINUOUS
 62
1
 10
3.55E-002
 20
8.6615
 11
-4.645E-001
 21
8.1615
  0
LINE
  8
18
  6
CONTINUOUS
 62
1
 10
-2.9275
 20
5.6995
 11
-3.2895
 21
5.3365
  0
LINE
  8
18
  6
CONTINUOUS
 62
1
 10
-3.8335
 20
4.7925
 11
-4.1955
 21
4.4305
  0
LINE
  8
18
  6
CONTINUOUS
 62
1
 10
-8.1615
 20
4.645E-001
 11
-8.6615
 21
-3.55E-002
  0
LINE
  8
18
  6
CONTINUOUS
 62
1
 10
-8.8035
 20
-3.55E-002
 11
-8.3035
 21
4.645E-001
  0
LINE
  8
18
  6
CONTINUOUS
 62
1
 10
-4.1955
 20
4.5715
 11
-3.8335
 21
4.9345
  0
LINE
  8
18
  6
CONTINUOUS
 62
1
 10
-3.2895
 20
5.4785
 11
-2.9275
 21
5.8405
  0
LINE
  8
18
  6
CONTINUOUS
 62
1
 10
-4.645E-001
 20
8.3035
 11
3.55E-002
 21
8.8035
  0
LINE
  8
18
  6
CONTINUOUS
 62
1
 10
3.55E-002
 20
8.9445
 11
-4.645E-001
 21
8.4445
  0
LINE
  8
18
  6
CONTINUOUS
 62
1
 10
-2.9275
 20
5.9825
 11
-3.2895
 21
5.6195
  0
LINE
  8
18
  6
CONTINUOUS
 62
1
 10
-3.8335
 20
5.0755
 11
-4.1955
 21
4.7135
  0
LINE
  8
18
  6
CONTINUOUS
 62
1
 10
-8.4445
 20
4.645E-001
 11
-8.9445
 21
-3.55E-002
  0
LINE
  8
18
  6
CONTINUOUS
 62
1
 10
-9.0865
 20
-3.55E-002
 11
-8.5865
 21
4.645E-001
  0
LINE
  8
18
  6
CONTINUOUS
 62
1
 10
-4.1955
 20
4.8545
 11
-3.8335
 21
5.2175
  0
LINE
  8
18
  6
CONTINUOUS
 62
1
 10
-3.2895
 20
5.7615
 11
-2.9275
 21
6.1235
  0
LINE
  8
18
  6
CONTINUOUS
 62
1
 10
-4.645E-001
 20
8.5865
 11
3.55E-002
 21
9.0865
  0
LINE
  8
18
  6
CONTINUOUS
 62
1
 10
3.55E-002
 20
9.2275
 11
-4.645E-001
 21
8.7275
  0
LINE
  8
18
  6
CONTINUOUS
 62
1
 10
-2.9275
 20
6.2645
 11
-3.2895
 21
5.9025
  0
LINE
  8
18
  6
CONTINUOUS
 62
1
 10
-3.8335
 20
5.3585
 11
-4.1955
 21
4.9965
  0
LINE
  8
18
  6
CONTINUOUS
 62
1
 10
-8.7275
 20
4.645E-001
 11
-9.2275
 21
-3.55E-002
  0
LINE
  8
18
  6
CONTINUOUS
 62
1
 10
-9.3695
 20
-3.55E-002
 11
-8.8695
 21
4.645E-001
  0
LINE
  8
18
  6
CONTINUOUS
 62
1
 10
-4.1955
 20
5.1375
 11
-3.8335
 21
5.5005
  0
LINE
  8
18
  6
CONTINUOUS
 62
1
 10
-3.2895
 20
6.0435
 11
-2.9275
 21
6.4065
  0
LINE
  8
18
  6
CONTINUOUS
 62
1
 10
-4.645E-001
 20
8.8695
 11
3.55E-002
 21
9.3695
  0
LINE
  8
18
  6
CONTINUOUS
 62
1
 10
3.55E-002
 20
9.5105
 11
-4.645E-001
 21
9.0105
  0
LINE
  8
18
  6
CONTINUOUS
 62
1
 10
-2.9275
 20
6.5475
 11
-3.2895
 21
6.1855
  0
LINE
  8
18
  6
CONTINUOUS
 62
1
 10
-3.8335
 20
5.6415
 11
-4.1955
 21
5.2785
  0
LINE
  8
18
  6
CONTINUOUS
 62
1
 10
-9.0105
 20
4.645E-001
 11
-9.5105
 21
-3.55E-002
  0
LINE
  8
18
  6
CONTINUOUS
 62
1
 10
-9.6515
 20
-3.55E-002
 11
-9.1515
 21
4.645E-001
  0
LINE
  8
18
  6
CONTINUOUS
 62
1
 10
-5.4185
 20
4.1985
 11
-5.3865
 21
4.2295
  0
LINE
  8
18
  6
CONTINUOUS
 62
1
 10
-4.1955
 20
5.4205
 11
-3.8335
 21
5.7825
  0
LINE
  8
18
  6
CONTINUOUS
 62
1
 10
-3.2895
 20
6.3265
 11
-2.9275
 21
6.6895
  0
LINE
  8
18
  6
CONTINUOUS
 62
1
 10
-4.645E-001
 20
9.1515
 11
3.55E-002
 21
9.6515
  0
LINE
  8
18
  6
CONTINUOUS
 62
1
 10
3.55E-002
 20
9.7935
 11
-4.645E-001
 21
9.2935
  0
LINE
  8
18
  6
CONTINUOUS
 62
1
 10
-2.9275
 20
6.8305
 11
-3.2895
 21
6.4685
  0
LINE
  8
18
  6
CONTINUOUS
 62
1
 10
-3.8335
 20
5.9245
 11
-4.1955
 21
5.5615
  0
LINE
  8
18
  6
CONTINUOUS
 62
1
 10
-5.2605
 20
4.4975
 11
-5.6555
 21
4.1025
  0
LINE
  8
18
  6
CONTINUOUS
 62
1
 10
-9.2935
 20
4.645E-001
 11
-9.7935
 21
-3.55E-002
  0
LINE
  8
18
  6
CONTINUOUS
 62
1
 10
-9.9345
 20
-3.55E-002
 11
-9.4345
 21
4.645E-001
  0
LINE
  8
18
  6
CONTINUOUS
 62
1
 10
-5.6555
 20
4.2435
 11
-5.2555
 21
4.6435
  0
LINE
  8
18
  6
CONTINUOUS
 62
1
 10
-4.1955
 20
5.7035
 11
-3.8335
 21
6.0655
  0
LINE
  8
18
  6
CONTINUOUS
 62
1
 10
-3.2895
 20
6.6095
 11
-2.9275
 21
6.9725
  0
LINE
  8
18
  6
CONTINUOUS
 62
1
 10
-4.645E-001
 20
9.4345
 11
3.55E-002
 21
9.9345
  0
LINE
  8
18
  6
CONTINUOUS
 62
1
 10
-7.65E-002
 20
9.9645
 11
-5.765E-001
 21
9.4645
  0
LINE
  8
18
  6
CONTINUOUS
 62
1
 10
-2.9275
 20
7.1135
 11
-3.2895
 21
6.7505
  0
LINE
  8
18
  6
CONTINUOUS
 62
1
 10
-3.8335
 20
6.2075
 11
-4.1955
 21
5.8445
  0
LINE
  8
18
  6
CONTINUOUS
 62
1
 10
-5.2555
 20
4.7845
 11
-5.6555
 21
4.3855
  0
LINE
  8
18
  6
CONTINUOUS
 62
1
 10
-6.2155
 20
3.8255
 11
-6.2475
 21
3.7935
  0
LINE
  8
18
  6
CONTINUOUS
 62
1
 10
-7.2095
 20
2.8315
 11
-7.3925
 21
2.6485
  0
LINE
  8
18
  6
CONTINUOUS
 62
1
 10
-9.4645
 20
5.765E-001
 11
-9.9645
 21
7.65E-002
  0
LINE
  8
18
  6
CONTINUOUS
 62
1
 10
-9.9645
 20
2.175E-001
 11
-9.4645
 21
7.175E-001
  0
LINE
  8
18
  6
CONTINUOUS
 62
1
 10
-7.6205
 20
2.5615
 11
-7.1225
 21
3.0595
  0
LINE
  8
18
  6
CONTINUOUS
 62
1
 10
-6.3875
 20
3.7945
 11
-6.2155
 21
3.9665
  0
LINE
  8
18
  6
CONTINUOUS
 62
1
 10
-5.6555
 20
4.5265
 11
-5.2555
 21
4.9265
  0
LINE
  8
18
  6
CONTINUOUS
 62
1
 10
-4.1955
 20
5.9865
 11
-3.8335
 21
6.3485
  0
LINE
  8
18
  6
CONTINUOUS
 62
1
 10
-3.2895
 20
6.8925
 11
-2.9275
 21
7.2545
  0
LINE
  8
18
  6
CONTINUOUS
 62
1
 10
-7.175E-001
 20
9.4645
 11
-2.175E-001
 21
9.9645
  0
LINE
  8
18
  6
CONTINUOUS
 62
1
 10
-3.585E-001
 20
9.9645
 11
-8.585E-001
 21
9.4645
  0
LINE
  8
18
  6
CONTINUOUS
 62
1
 10
-2.9275
 20
7.3965
 11
-3.2895
 21
7.0335
  0
LINE
  8
18
  6
CONTINUOUS
 62
1
 10
-3.8335
 20
6.4905
 11
-4.1955
 21
6.1275
  0
LINE
  8
18
  6
CONTINUOUS
 62
1
 10
-5.2555
 20
5.0675
 11
-5.6555
 21
4.6675
  0
LINE
  8
18
  6
CONTINUOUS
 62
1
 10
-6.2155
 20
4.1085
 11
-6.4855
 21
3.8385
  0
LINE
  8
18
  6
CONTINUOUS
 62
1
 10
-7.1155
 20
3.2085
 11
-7.5005
 21
2.8225
  0
LINE
  8
18
  6
CONTINUOUS
 62
1
 10
-7.7435
 20
2.5795
 11
-7.7675
 21
2.5565
  0
LINE
  8
18
  6
CONTINUOUS
 62
1
 10
-9.4645
 20
8.585E-001
 11
-9.9645
 21
3.585E-001
  0
LINE
  8
18
  6
CONTINUOUS
 62
1
 10
-9.9645
 20
5.005E-001
 11
-9.4645
 21
1.0005
  0
LINE
  8
18
  6
CONTINUOUS
 62
1
 10
-7.4775
 20
2.9875
 11
-7.1155
 21
3.3495
  0
LINE
  8
18
  6
CONTINUOUS
 62
1
 10
-6.5565
 20
3.9085
 11
-6.2155
 21
4.2495
  0
LINE
  8
18
  6
CONTINUOUS
 62
1
 10
-5.6555
 20
4.8095
 11
-5.2555
 21
5.2095
  0
LINE
  8
18
  6
CONTINUOUS
 62
1
 10
-4.1955
 20
6.2685
 11
-3.8335
 21
6.6315
  0
LINE
  8
18
  6
CONTINUOUS
 62
1
 10
-3.2895
 20
7.1755
 11
-2.9265
 21
7.5385
  0
LINE
  8
18
  6
CONTINUOUS
 62
1
 10
-1.0005
 20
9.4645
 11
-5.005E-001
 21
9.9645
  0
LINE
  8
18
  6
CONTINUOUS
 62
1
 10
-6.595E-001
 20
9.9645
 11
-1.1595
 21
9.4645
  0
LINE
  8
18
  6
CONTINUOUS
 62
1
 10
-2.7005
 20
7.9235
 11
-3.2895
 21
7.3345
  0
LINE
  8
18
  6
CONTINUOUS
 62
1
 10
-3.8335
 20
6.7915
 11
-4.1955
 21
6.4285
  0
LINE
  8
18
  6
CONTINUOUS
 62
1
 10
-5.2875
 20
5.3375
 11
-5.6555
 21
4.9685
  0
LINE
  8
18
  6
CONTINUOUS
 62
1
 10
-6.2155
 20
4.4095
 11
-6.6075
 21
4.0175
  0
LINE
  8
18
  6
CONTINUOUS
 62
1
 10
-7.1155
 20
3.5095
 11
-7.4775
 21
3.1465
  0
LINE
  8
18
  6
CONTINUOUS
 62
1
 10
-8.0395
 20
2.5845
 11
-8.4745
 21
2.1495
  0
LINE
  8
18
  6
CONTINUOUS
 62
1
 10
-9.4645
 20
1.1595
 11
-9.9645
 21
6.595E-001
  0
LINE
  8
18
  6
CONTINUOUS
 62
1
 10
-9.9645
 20
7.835E-001
 11
-9.4645
 21
1.2835
  0
LINE
  8
18
  6
CONTINUOUS
 62
1
 10
-8.6165
 20
2.1315
 11
-8.0215
 21
2.7265
  0
LINE
  8
18
  6
CONTINUOUS
 62
1
 10
-7.4775
 20
3.2705
 11
-7.1155
 21
3.6325
  0
LINE
  8
18
  6
CONTINUOUS
 62
1
 10
-6.6155
 20
4.1325
 11
-6.2155
 21
4.5325
  0
LINE
  8
18
  6
CONTINUOUS
 62
1
 10
-5.6555
 20
5.0925
 11
-5.5185
 21
5.2295
  0
LINE
  8
18
  6
CONTINUOUS
 62
1
 10
-4.1955
 20
6.5515
 11
-3.8335
 21
6.9145
  0
LINE
  8
18
  6
CONTINUOUS
 62
1
 10
-3.2695
 20
7.4785
 11
-2.8445
 21
7.9035
  0
LINE
  8
18
  6
CONTINUOUS
 62
1
 10
-1.2835
 20
9.4645
 11
-7.835E-001
 21
9.9645
  0
LINE
  8
18
  6
CONTINUOUS
 62
1
 10
-9.245E-001
 20
9.9645
 11
-1.4245
 21
9.4645
  0
LINE
  8
18
  6
CONTINUOUS
 62
1
 10
-3.8335
 20
7.0555
 11
-4.1955
 21
6.6935
  0
LINE
  8
18
  6
CONTINUOUS
 62
1
 10
-6.2155
 20
4.6745
 11
-6.6155
 21
4.2745
  0
LINE
  8
18
  6
CONTINUOUS
 62
1
 10
-7.1155
 20
3.7745
 11
-7.4775
 21
3.4115
  0
LINE
  8
18
  6
CONTINUOUS
 62
1
 10
-8.0215
 20
2.8675
 11
-8.3855
 21
2.5045
  0
LINE
  8
18
  6
CONTINUOUS
 62
1
 10
-9.4645
 20
1.4245
 11
-9.9645
 21
9.245E-001
  0
LINE
  8
18
  6
CONTINUOUS
 62
1
 10
-9.9645
 20
1.0665
 11
-9.4645
 21
1.5665
  0
LINE
  8
18
  6
CONTINUOUS
 62
1
 10
-8.3835
 20
2.6465
 11
-8.0215
 21
3.0095
  0
LINE
  8
18
  6
CONTINUOUS
 62
1
 10
-7.4775
 20
3.5525
 11
-7.1155
 21
3.9155
  0
LINE
  8
18
  6
CONTINUOUS
 62
1
 10
-6.6155
 20
4.4155
 11
-6.2155
 21
4.8155
  0
LINE
  8
18
  6
CONTINUOUS
 62
1
 10
-4.1955
 20
6.8345
 11
-3.8165
 21
7.2145
  0
LINE
  8
18
  6
CONTINUOUS
 62
1
 10
-3.5495
 20
7.4815
 11
-3.5325
 21
7.4975
  0
LINE
  8
18
  6
CONTINUOUS
 62
1
 10
-1.5665
 20
9.4645
 11
-1.0665
 21
9.9645
  0
LINE
  8
18
  6
CONTINUOUS
 62
1
 10
-1.2075
 20
9.9645
 11
-1.7075
 21
9.4645
  0
LINE
  8
18
  6
CONTINUOUS
 62
1
 10
-3.6765
 20
7.4955
 11
-4.1905
 21
6.9815
  0
LINE
  8
18
  6
CONTINUOUS
 62
1
 10
-6.3135
 20
4.8585
 11
-6.6155
 21
4.5565
  0
LINE
  8
18
  6
CONTINUOUS
 62
1
 10
-7.1155
 20
4.0565
 11
-7.4775
 21
3.6945
  0
LINE
  8
18
  6
CONTINUOUS
 62
1
 10
-8.0215
 20
3.1505
 11
-8.3835
 21
2.7885
  0
LINE
  8
18
  6
CONTINUOUS
 62
1
 10
-9.4645
 20
1.7075
 11
-9.9645
 21
1.2075
  0
LINE
  8
18
  6
CONTINUOUS
 62
1
 10
-9.9645
 20
1.3485
 11
-9.4645
 21
1.8485
  0
LINE
  8
18
  6
CONTINUOUS
 62
1
 10
-8.3835
 20
2.9295
 11
-8.0215
 21
3.2925
  0
LINE
  8
18
  6
CONTINUOUS
 62
1
 10
-7.4775
 20
3.8355
 11
-7.1155
 21
4.1985
  0
LINE
  8
18
  6
CONTINUOUS
 62
1
 10
-6.6155
 20
4.6985
 11
-6.5785
 21
4.7355
  0
LINE
  8
18
  6
CONTINUOUS
 62
1
 10
-4.1195
 20
7.1935
 11
-3.8885
 21
7.4255
  0
LINE
  8
18
  6
CONTINUOUS
 62
1
 10
-1.8485
 20
9.4645
 11
-1.3485
 21
9.9645
  0
LINE
  8
18
  6
CONTINUOUS
 62
1
 10
-1.4905
 20
9.9645
 11
-1.9905
 21
9.4645
  0
LINE
  8
18
  6
CONTINUOUS
 62
1
 10
-7.1155
 20
4.3395
 11
-7.4775
 21
3.9775
  0
LINE
  8
18
  6
CONTINUOUS
 62
1
 10
-8.0215
 20
3.4335
 11
-8.3835
 21
3.0705
  0
LINE
  8
18
  6
CONTINUOUS
 62
1
 10
-9.4645
 20
1.9905
 11
-9.9645
 21
1.4905
  0
LINE
  8
18
  6
CONTINUOUS
 62
1
 10
-9.9645
 20
1.6315
 11
-9.4645
 21
2.1315
  0
LINE
  8
18
  6
CONTINUOUS
 62
1
 10
-8.3835
 20
3.2125
 11
-8.0215
 21
3.5745
  0
LINE
  8
18
  6
CONTINUOUS
 62
1
 10
-7.4775
 20
4.1185
 11
-7.1155
 21
4.4815
  0
LINE
  8
18
  6
CONTINUOUS
 62
1
 10
-2.1315
 20
9.4645
 11
-1.6315
 21
9.9645
  0
LINE
  8
18
  6
CONTINUOUS
 62
1
 10
-1.7735
 20
9.9645
 11
-2.2735
 21
9.4645
  0
LINE
  8
18
  6
CONTINUOUS
 62
1
 10
-7.1155
 20
4.6225
 11
-7.4775
 21
4.2605
  0
LINE
  8
18
  6
CONTINUOUS
 62
1
 10
-8.0215
 20
3.7165
 11
-8.3835
 21
3.3535
  0
LINE
  8
18
  6
CONTINUOUS
 62
1
 10
-9.4645
 20
2.2735
 11
-9.9645
 21
1.7735
  0
LINE
  8
18
  6
CONTINUOUS
 62
1
 10
-9.9645
 20
1.9145
 11
-9.4645
 21
2.4145
  0
LINE
  8
18
  6
CONTINUOUS
 62
1
 10
-8.3835
 20
3.4955
 11
-8.0215
 21
3.8575
  0
LINE
  8
18
  6
CONTINUOUS
 62
1
 10
-7.4775
 20
4.4015
 11
-7.1155
 21
4.7645
  0
LINE
  8
18
  6
CONTINUOUS
 62
1
 10
-2.4145
 20
9.4645
 11
-1.9145
 21
9.9645
  0
LINE
  8
18
  6
CONTINUOUS
 62
1
 10
-2.0565
 20
9.9645
 11
-2.5565
 21
9.4645
  0
LINE
  8
18
  6
CONTINUOUS
 62
1
 10
-7.1155
 20
4.9055
 11
-7.4775
 21
4.5425
  0
LINE
  8
18
  6
CONTINUOUS
 62
1
 10
-8.0215
 20
3.9995
 11
-8.3835
 21
3.6365
  0
LINE
  8
18
  6
CONTINUOUS
 62
1
 10
-9.4645
 20
2.5565
 11
-9.9645
 21
2.0565
  0
LINE
  8
18
  6
CONTINUOUS
 62
1
 10
-9.9645
 20
2.1975
 11
-9.4645
 21
2.6975
  0
LINE
  8
18
  6
CONTINUOUS
 62
1
 10
-8.3835
 20
3.7785
 11
-8.0215
 21
4.1405
  0
LINE
  8
18
  6
CONTINUOUS
 62
1
 10
-7.4775
 20
4.6845
 11
-7.1155
 21
5.0465
  0
LINE
  8
18
  6
CONTINUOUS
 62
1
 10
-2.6975
 20
9.4645
 11
-2.1975
 21
9.9645
  0
LINE
  8
18
  6
CONTINUOUS
 62
1
 10
-2.3385
 20
9.9645
 11
-2.8385
 21
9.4645
  0
LINE
  8
18
  6
CONTINUOUS
 62
1
 10
-7.1155
 20
5.1885
 11
-7.4775
 21
4.8255
  0
LINE
  8
18
  6
CONTINUOUS
 62
1
 10
-8.0215
 20
4.2815
 11
-8.3835
 21
3.9195
  0
LINE
  8
18
  6
CONTINUOUS
 62
1
 10
-9.4645
 20
2.8385
 11
-9.9645
 21
2.3385
  0
LINE
  8
18
  6
CONTINUOUS
 62
1
 10
-9.9645
 20
2.4805
 11
-9.4645
 21
2.9805
  0
LINE
  8
18
  6
CONTINUOUS
 62
1
 10
-8.3835
 20
4.0605
 11
-8.0215
 21
4.4235
  0
LINE
  8
18
  6
CONTINUOUS
 62
1
 10
-7.4775
 20
4.9675
 11
-7.1155
 21
5.3295
  0
LINE
  8
18
  6
CONTINUOUS
 62
1
 10
-2.9805
 20
9.4645
 11
-2.4805
 21
9.9645
  0
LINE
  8
18
  6
CONTINUOUS
 62
1
 10
-2.6215
 20
9.9645
 11
-3.1215
 21
9.4645
  0
LINE
  8
18
  6
CONTINUOUS
 62
1
 10
-7.1155
 20
5.4715
 11
-7.4775
 21
5.1085
  0
LINE
  8
18
  6
CONTINUOUS
 62
1
 10
-8.0215
 20
4.5645
 11
-8.3835
 21
4.2025
  0
LINE
  8
18
  6
CONTINUOUS
 62
1
 10
-9.4645
 20
3.1215
 11
-9.9645
 21
2.6215
  0
LINE
  8
18
  6
CONTINUOUS
 62
1
 10
-9.9645
 20
2.7635
 11
-9.4645
 21
3.2635
  0
LINE
  8
18
  6
CONTINUOUS
 62
1
 10
-8.3835
 20
4.3435
 11
-8.0215
 21
4.7065
  0
LINE
  8
18
  6
CONTINUOUS
 62
1
 10
-7.4775
 20
5.2505
 11
-7.1155
 21
5.6125
  0
LINE
  8
18
  6
CONTINUOUS
 62
1
 10
-3.2635
 20
9.4645
 11
-2.7635
 21
9.9645
  0
LINE
  8
18
  6
CONTINUOUS
 62
1
 10
-2.9045
 20
9.9645
 11
-3.4045
 21
9.4645
  0
LINE
  8
18
  6
CONTINUOUS
 62
1
 10
-7.1155
 20
5.7535
 11
-7.4775
 21
5.3915
  0
LINE
  8
18
  6
CONTINUOUS
 62
1
 10
-8.0215
 20
4.8475
 11
-8.3835
 21
4.4855
  0
LINE
  8
18
  6
CONTINUOUS
 62
1
 10
-9.4645
 20
3.4045
 11
-9.9645
 21
2.9045
  0
LINE
  8
18
  6
CONTINUOUS
 62
1
 10
-9.9645
 20
3.0455
 11
-9.4645
 21
3.5455
  0
LINE
  8
18
  6
CONTINUOUS
 62
1
 10
-8.3835
 20
4.6265
 11
-8.0215
 21
4.9895
  0
LINE
  8
18
  6
CONTINUOUS
 62
1
 10
-7.4775
 20
5.5325
 11
-7.1155
 21
5.8955
  0
LINE
  8
18
  6
CONTINUOUS
 62
1
 10
-3.5455
 20
9.4645
 11
-3.0455
 21
9.9645
  0
LINE
  8
18
  6
CONTINUOUS
 62
1
 10
-3.1875
 20
9.9645
 11
-3.6875
 21
9.4645
  0
LINE
  8
18
  6
CONTINUOUS
 62
1
 10
-7.1155
 20
6.0365
 11
-7.4775
 21
5.6745
  0
LINE
  8
18
  6
CONTINUOUS
 62
1
 10
-8.0215
 20
5.1305
 11
-8.3835
 21
4.7675
  0
LINE
  8
18
  6
CONTINUOUS
 62
1
 10
-9.4645
 20
3.6875
 11
-9.9645
 21
3.1875
  0
LINE
  8
18
  6
CONTINUOUS
 62
1
 10
-9.9645
 20
3.3465
 11
-9.4645
 21
3.8465
  0
LINE
  8
18
  6
CONTINUOUS
 62
1
 10
-8.3835
 20
4.9275
 11
-8.0215
 21
5.2905
  0
LINE
  8
18
  6
CONTINUOUS
 62
1
 10
-7.4775
 20
5.8335
 11
-7.1055
 21
6.2055
  0
LINE
  8
18
  6
CONTINUOUS
 62
1
 10
-6.8005
 20
6.5105
 11
-6.7945
 21
6.5165
  0
LINE
  8
18
  6
CONTINUOUS
 62
1
 10
-3.8465
 20
9.4645
 11
-3.3465
 21
9.9645
  0
LINE
  8
18
  6
CONTINUOUS
 62
1
 10
-3.4705
 20
9.9645
 11
-3.9705
 21
9.4645
  0
LINE
  8
18
  6
CONTINUOUS
 62
1
 10
-6.9135
 20
6.5215
 11
-7.4765
 21
5.9585
  0
LINE
  8
18
  6
CONTINUOUS
 62
1
 10
-8.0215
 20
5.4135
 11
-8.3835
 21
5.0505
  0
LINE
  8
18
  6
CONTINUOUS
 62
1
 10
-9.4645
 20
3.9705
 11
-9.9645
 21
3.4705
  0
LINE
  8
18
  6
CONTINUOUS
 62
1
 10
-9.9645
 20
3.6115
 11
-9.4645
 21
4.1115
  0
LINE
  8
18
  6
CONTINUOUS
 62
1
 10
-8.3835
 20
5.1925
 11
-8.0215
 21
5.5545
  0
LINE
  8
18
  6
CONTINUOUS
 62
1
 10
-7.4375
 20
6.1385
 11
-7.0935
 21
6.4825
  0
LINE
  8
18
  6
CONTINUOUS
 62
1
 10
-4.1115
 20
9.4645
 11
-3.6115
 21
9.9645
  0
LINE
  8
18
  6
CONTINUOUS
 62
1
 10
-3.7715
 20
9.9645
 11
-4.2715
 21
9.4645
  0
LINE
  8
18
  6
CONTINUOUS
 62
1
 10
-8.0215
 20
5.7145
 11
-8.3835
 21
5.3515
  0
LINE
  8
18
  6
CONTINUOUS
 62
1
 10
-9.4645
 20
4.2715
 11
-9.9645
 21
3.7715
  0
LINE
  8
18
  6
CONTINUOUS
 62
1
 10
-9.9645
 20
3.8945
 11
-9.4645
 21
4.3945
  0
LINE
  8
18
  6
CONTINUOUS
 62
1
 10
-8.3835
 20
5.4755
 11
-7.9755
 21
5.8835
  0
LINE
  8
18
  6
CONTINUOUS
 62
1
 10
-7.8085
 20
6.0505
 11
-7.7595
 21
6.0995
  0
LINE
  8
18
  6
CONTINUOUS
 62
1
 10
-4.3945
 20
9.4645
 11
-3.8945
 21
9.9645
  0
LINE
  8
18
  6
CONTINUOUS
 62
1
 10
-4.0355
 20
9.9645
 11
-4.5355
 21
9.4645
  0
LINE
  8
18
  6
CONTINUOUS
 62
1
 10
-7.9145
 20
6.0855
 11
-8.3695
 21
5.6305
  0
LINE
  8
18
  6
CONTINUOUS
 62
1
 10
-9.4645
 20
4.5355
 11
-9.9645
 21
4.0355
  0
LINE
  8
18
  6
CONTINUOUS
 62
1
 10
-9.9645
 20
4.1775
 11
-9.4645
 21
4.6775
  0
LINE
  8
18
  6
CONTINUOUS
 62
1
 10
-4.6775
 20
9.4645
 11
-4.1775
 21
9.9645
  0
LINE
  8
18
  6
CONTINUOUS
 62
1
 10
-4.3185
 20
9.9645
 11
-4.8185
 21
9.4645
  0
LINE
  8
18
  6
CONTINUOUS
 62
1
 10
-9.4645
 20
4.8185
 11
-9.9645
 21
4.3185
  0
LINE
  8
18
  6
CONTINUOUS
 62
1
 10
-9.9645
 20
4.4605
 11
-9.4645
 21
4.9605
  0
LINE
  8
18
  6
CONTINUOUS
 62
1
 10
-4.9605
 20
9.4645
 11
-4.4605
 21
9.9645
  0
LINE
  8
18
  6
CONTINUOUS
 62
1
 10
-4.6015
 20
9.9645
 11
-5.1015
 21
9.4645
  0
LINE
  8
18
  6
CONTINUOUS
 62
1
 10
-9.4645
 20
5.1015
 11
-9.9645
 21
4.6015
  0
LINE
  8
18
  6
CONTINUOUS
 62
1
 10
-9.9645
 20
4.7435
 11
-9.4645
 21
5.2435
  0
LINE
  8
18
  6
CONTINUOUS
 62
1
 10
-5.2435
 20
9.4645
 11
-4.7435
 21
9.9645
  0
LINE
  8
18
  6
CONTINUOUS
 62
1
 10
-4.8845
 20
9.9645
 11
-5.3845
 21
9.4645
  0
LINE
  8
18
  6
CONTINUOUS
 62
1
 10
-9.4645
 20
5.3845
 11
-9.9645
 21
4.8845
  0
LINE
  8
18
  6
CONTINUOUS
 62
1
 10
-9.9645
 20
5.0255
 11
-9.4645
 21
5.5255
  0
ENDBLK
  0
BLOCK
  2
XHXH4
 10
0.0
 20
0.0
 70
0
  0
LINE
  8
18
  6
CONTINUOUS
 62
1
 10
-2.5E-001
 20
-2.5E-001
 11
2.5E-001
 21
2.5E-001
  0
LINE
  8
18
  6
CONTINUOUS
 62
1
 10
1.08E-001
 20
2.5E-001
 11
-3.92E-001
 21
-2.5E-001
  0
LINE
  8
18
  6
CONTINUOUS
 62
1
 10
-4.189
 20
-4.047
 11
-4.689
 21
-4.547
  0
LINE
  8
18
  6
CONTINUOUS
 62
1
 10
-4.689
 20
-4.406
 11
-4.189
 21
-3.906
  0
LINE
  8
18
  6
CONTINUOUS
 62
1
 10
-5.33E-001
 20
-2.5E-001
 11
-3.3E-002
 21
2.5E-001
  0
LINE
  8
18
  6
CONTINUOUS
 62
1
 10
-1.75E-001
 20
2.5E-001
 11
-6.75E-001
 21
-2.5E-001
  0
LINE
  8
18
  6
CONTINUOUS
 62
1
 10
-4.189
 20
-3.764
 11
-4.689
 21
-4.264
  0
LINE
  8
18
  6
CONTINUOUS
 62
1
 10
-4.689
 20
-4.123
 11
-4.189
 21
-3.623
  0
LINE
  8
18
  6
CONTINUOUS
 62
1
 10
-8.16E-001
 20
-2.5E-001
 11
-3.16E-001
 21
2.5E-001
  0
LINE
  8
18
  6
CONTINUOUS
 62
1
 10
-4.57E-001
 20
2.5E-001
 11
-9.57E-001
 21
-2.5E-001
  0
LINE
  8
18
  6
CONTINUOUS
 62
1
 10
-4.189
 20
-3.482
 11
-4.689
 21
-3.982
  0
LINE
  8
18
  6
CONTINUOUS
 62
1
 10
-4.689
 20
-3.84
 11
-4.189
 21
-3.34
  0
LINE
  8
18
  6
CONTINUOUS
 62
1
 10
-1.099
 20
-2.5E-001
 11
-5.99E-001
 21
2.5E-001
  0
LINE
  8
18
  6
CONTINUOUS
 62
1
 10
-7.4E-001
 20
2.5E-001
 11
-1.24
 21
-2.5E-001
  0
LINE
  8
18
  6
CONTINUOUS
 62
1
 10
-4.189
 20
-3.199
 11
-4.689
 21
-3.699
  0
LINE
  8
18
  6
CONTINUOUS
 62
1
 10
-4.689
 20
-3.557
 11
-4.189
 21
-3.057
  0
LINE
  8
18
  6
CONTINUOUS
 62
1
 10
-1.382
 20
-2.5E-001
 11
-8.82E-001
 21
2.5E-001
  0
LINE
  8
18
  6
CONTINUOUS
 62
1
 10
-1.023
 20
2.5E-001
 11
-1.523
 21
-2.5E-001
  0
LINE
  8
18
  6
CONTINUOUS
 62
1
 10
-4.189
 20
-2.916
 11
-4.689
 21
-3.416
  0
LINE
  8
18
  6
CONTINUOUS
 62
1
 10
-4.689
 20
-3.274
 11
-4.189
 21
-2.774
  0
LINE
  8
18
  6
CONTINUOUS
 62
1
 10
-1.665
 20
-2.5E-001
 11
-1.165
 21
2.5E-001
  0
LINE
  8
18
  6
CONTINUOUS
 62
1
 10
-1.306
 20
2.5E-001
 11
-1.806
 21
-2.5E-001
  0
LINE
  8
18
  6
CONTINUOUS
 62
1
 10
-4.189
 20
-2.633
 11
-4.689
 21
-3.133
  0
LINE
  8
18
  6
CONTINUOUS
 62
1
 10
-4.689
 20
-2.992
 11
-4.189
 21
-2.492
  0
LINE
  8
18
  6
CONTINUOUS
 62
1
 10
-1.947
 20
-2.5E-001
 11
-1.447
 21
2.5E-001
  0
LINE
  8
18
  6
CONTINUOUS
 62
1
 10
-1.589
 20
2.5E-001
 11
-2.089
 21
-2.5E-001
  0
LINE
  8
18
  6
CONTINUOUS
 62
1
 10
-4.189
 20
-2.35
 11
-4.689
 21
-2.85
  0
LINE
  8
18
  6
CONTINUOUS
 62
1
 10
-4.689
 20
-2.709
 11
-4.189
 21
-2.209
  0
LINE
  8
18
  6
CONTINUOUS
 62
1
 10
-2.23
 20
-2.5E-001
 11
-1.73
 21
2.5E-001
  0
LINE
  8
18
  6
CONTINUOUS
 62
1
 10
-1.872
 20
2.5E-001
 11
-2.372
 21
-2.5E-001
  0
LINE
  8
18
  6
CONTINUOUS
 62
1
 10
-4.189
 20
-2.067
 11
-4.689
 21
-2.567
  0
LINE
  8
18
  6
CONTINUOUS
 62
1
 10
-4.689
 20
-2.426
 11
-4.189
 21
-1.926
  0
LINE
  8
18
  6
CONTINUOUS
 62
1
 10
-2.513
 20
-2.5E-001
 11
-2.013
 21
2.5E-001
  0
LINE
  8
18
  6
CONTINUOUS
 62
1
 10
-2.155
 20
2.5E-001
 11
-2.655
 21
-2.5E-001
  0
LINE
  8
18
  6
CONTINUOUS
 62
1
 10
-4.189
 20
-1.784
 11
-4.689
 21
-2.284
  0
LINE
  8
18
  6
CONTINUOUS
 62
1
 10
-4.689
 20
-2.143
 11
-4.189
 21
-1.643
  0
LINE
  8
18
  6
CONTINUOUS
 62
1
 10
-2.796
 20
-2.5E-001
 11
-2.296
 21
2.5E-001
  0
LINE
  8
18
  6
CONTINUOUS
 62
1
 10
-2.437
 20
2.5E-001
 11
-2.937
 21
-2.5E-001
  0
LINE
  8
18
  6
CONTINUOUS
 62
1
 10
-4.189
 20
-1.502
 11
-4.689
 21
-2.002
  0
LINE
  8
18
  6
CONTINUOUS
 62
1
 10
-4.689
 20
-1.86
 11
-4.189
 21
-1.36
  0
LINE
  8
18
  6
CONTINUOUS
 62
1
 10
-3.079
 20
-2.5E-001
 11
-2.579
 21
2.5E-001
  0
LINE
  8
18
  6
CONTINUOUS
 62
1
 10
-2.72
 20
2.5E-001
 11
-3.22
 21
-2.5E-001
  0
LINE
  8
18
  6
CONTINUOUS
 62
1
 10
-4.189
 20
-1.219
 11
-4.689
 21
-1.719
  0
LINE
  8
18
  6
CONTINUOUS
 62
1
 10
-4.689
 20
-1.577
 11
-4.189
 21
-1.077
  0
LINE
  8
18
  6
CONTINUOUS
 62
1
 10
-3.362
 20
-2.5E-001
 11
-2.862
 21
2.5E-001
  0
LINE
  8
18
  6
CONTINUOUS
 62
1
 10
-3.003
 20
2.5E-001
 11
-3.503
 21
-2.5E-001
  0
LINE
  8
18
  6
CONTINUOUS
 62
1
 10
-4.189
 20
-9.36E-001
 11
-4.689
 21
-1.436
  0
LINE
  8
18
  6
CONTINUOUS
 62
1
 10
-4.689
 20
-1.295
 11
-4.189
 21
-7.95E-001
  0
LINE
  8
18
  6
CONTINUOUS
 62
1
 10
-3.644
 20
-2.5E-001
 11
-3.144
 21
2.5E-001
  0
LINE
  8
18
  6
CONTINUOUS
 62
1
 10
-3.286
 20
2.5E-001
 11
-3.786
 21
-2.5E-001
  0
LINE
  8
18
  6
CONTINUOUS
 62
1
 10
-4.189
 20
-6.53E-001
 11
-4.689
 21
-1.153
  0
LINE
  8
18
  6
CONTINUOUS
 62
1
 10
-4.689
 20
-1.012
 11
-4.189
 21
-5.12E-001
  0
LINE
  8
18
  6
CONTINUOUS
 62
1
 10
-3.927
 20
-2.5E-001
 11
-3.427
 21
2.5E-001
  0
LINE
  8
18
  6
CONTINUOUS
 62
1
 10
-3.569
 20
2.5E-001
 11
-4.069
 21
-2.5E-001
  0
LINE
  8
18
  6
CONTINUOUS
 62
1
 10
-4.189
 20
-3.7E-001
 11
-4.689
 21
-8.7E-001
  0
LINE
  8
18
  6
CONTINUOUS
 62
1
 10
-4.689
 20
-7.29E-001
 11
-3.71
 21
2.5E-001
  0
LINE
  8
18
  6
CONTINUOUS
 62
1
 10
-3.852
 20
2.5E-001
 11
-4.689
 21
-5.87E-001
  0
LINE
  8
18
  6
CONTINUOUS
 62
1
 10
-4.689
 20
-4.46E-001
 11
-3.993
 21
2.5E-001
  0
LINE
  8
18
  6
CONTINUOUS
 62
1
 10
-4.134
 20
2.5E-001
 11
-4.689
 21
-3.05E-001
  0
LINE
  8
18
  6
CONTINUOUS
 62
1
 10
-4.689
 20
-1.63E-001
 11
-4.276
 21
2.5E-001
  0
LINE
  8
18
  6
CONTINUOUS
 62
1
 10
-4.417
 20
2.5E-001
 11
-4.689
 21
-2.2E-002
  0
LINE
  8
18
  6
CONTINUOUS
 62
1
 10
-4.689
 20
1.2E-001
 11
-4.559
 21
2.5E-001
  0
ENDBLK
  0
BLOCK
  2
A4VFRMAT
 10
0.0
 20
0.0
 70
0
  0
POLYLINE
  8
255
  6
CONTINUOUS
 62
2
 66
1
 40
5.0E-001
 41
5.0E-001
 70
0
  0
VERTEX
  8
255
 42
0.0
 10
5.0
 20
2.92E+002
 70
0
  0
VERTEX
  8
255
 42
0.0
 10
5.0
 20
5.0
 70
0
  0
SEQEND
  0
POLYLINE
  8
255
  6
CONTINUOUS
 62
2
 66
1
 40
5.0E-001
 41
5.0E-001
 70
0
  0
VERTEX
  8
255
 42
0.0
 10
1.05E+002
 20
2.92E+002
 70
0
  0
VERTEX
  8
255
 42
0.0
 10
1.05E+002
 20
2.969E+002
 70
0
  0
SEQEND
  0
POLYLINE
  8
255
  6
CONTINUOUS
 62
2
 66
1
 40
5.0E-001
 41
5.0E-001
 70
0
  0
VERTEX
  8
255
 42
0.0
 10
2.05E+002
 20
1.485E+002
 70
0
  0
VERTEX
  8
255
 42
0.0
 10
2.099E+002
 20
1.485E+002
 70
0
  0
SEQEND
  0
LINE
  8
255
  6
CONTINUOUS
 62
150
 10
1.0E-001
 20
1.0E-001
 11
2.099E+002
 21
1.0E-001
  0
LINE
  8
255
  6
CONTINUOUS
 62
150
 10
2.099E+002
 20
1.0E-001
 11
2.099E+002
 21
2.969E+002
  0
LINE
  8
255
  6
CONTINUOUS
 62
150
 10
2.099E+002
 20
2.969E+002
 11
1.0E-001
 21
2.969E+002
  0
LINE
  8
255
  6
CONTINUOUS
 62
150
 10
1.0E-001
 20
2.969E+002
 11
1.0E-001
 21
1.0E-001
  0
POLYLINE
  8
255
  6
CONTINUOUS
 62
2
 66
1
 40
5.0E-001
 41
5.0E-001
 70
0
  0
VERTEX
  8
255
 42
0.0
 10
5.0
 20
5.0
 70
0
  0
VERTEX
  8
255
 42
0.0
 10
2.05E+002
 20
5.0
 70
0
  0
SEQEND
  0
POLYLINE
  8
255
  6
CONTINUOUS
 62
2
 66
1
 40
5.0E-001
 41
5.0E-001
 70
0
  0
VERTEX
  8
255
 42
0.0
 10
2.05E+002
 20
5.0
 70
0
  0
VERTEX
  8
255
 42
0.0
 10
2.05E+002
 20
2.92E+002
 70
0
  0
SEQEND
  0
POLYLINE
  8
255
  6
CONTINUOUS
 62
2
 66
1
 40
5.0E-001
 41
5.0E-001
 70
0
  0
VERTEX
  8
255
 42
0.0
 10
2.05E+002
 20
2.92E+002
 70
0
  0
VERTEX
  8
255
 42
0.0
 10
5.0
 20
2.92E+002
 70
0
  0
SEQEND
  0
POLYLINE
  8
255
  6
CONTINUOUS
 62
2
 66
1
 40
5.0E-001
 41
5.0E-001
 70
0
  0
VERTEX
  8
255
 42
0.0
 10
1.0E-001
 20
1.485E+002
 70
0
  0
VERTEX
  8
255
 42
0.0
 10
5.0
 20
1.485E+002
 70
0
  0
SEQEND
  0
POLYLINE
  8
255
  6
CONTINUOUS
 62
2
 66
1
 40
5.0E-001
 41
5.0E-001
 70
0
  0
VERTEX
  8
255
 42
0.0
 10
1.05E+002
 20
1.0E-001
 70
0
  0
VERTEX
  8
255
 42
0.0
 10
1.05E+002
 20
5.0
 70
0
  0
SEQEND
  0
POINT
  8
255
  6
CONTINUOUS
 62
6
 10
0.0
 20
0.0
  0
POINT
  8
Drafting_Hidden_Entities
  6
CONTINUOUS
 62
1
 10
0.0
 20
0.0
  0
ENDBLK
  0
BLOCK
  2
DBSFELD
 10
0.0
 20
0.0
 70
0
  0
ATTDEF
  8
5
  6
CONTINUOUS
 62
6
 10
-4.178E+001
 20
2.8892471E+001
 40
4.0
  1
 
 41
7.0E-001
 72
1
 11
-4.318E+001
 21
2.8892471E+001
  3
1
  2
1
 70
0
  0
ATTDEF
  8
5
  6
CONTINUOUS
 62
6
 10
-4.178E+001
 20
2.0892471E+001
 40
4.0
  1
 
 41
7.0E-001
 72
1
 11
-4.318E+001
 21
2.0892471E+001
  3
2
  2
2
 70
0
  0
ATTDEF
  8
5
  6
CONTINUOUS
 62
6
 10
-4.813E+001
 20
6.461417
 40
4.0
  1
 
 41
7.0E-001
 72
1
 11
-4.953E+001
 21
6.461417
  3
3
  2
3
 70
0
  0
ATTDEF
  8
5
  6
CONTINUOUS
 62
6
 10
-3.213E+001
 20
4.4645E+001
 40
3.0
  1
 
 41
7.0E-001
 72
1
 11
-3.318E+001
 21
4.4645E+001
  3
4
  2
4
 70
0
  0
ATTDEF
  8
5
  6
CONTINUOUS
 62
6
 10
-3.213E+001
 20
3.93575E+001
 40
3.0
  1
 
 41
7.0E-001
 72
1
 11
-3.318E+001
 21
3.93575E+001
  3
5
  2
5
 70
0
  0
ATTDEF
  8
5
  6
CONTINUOUS
 62
6
 10
-1.673E+001
 20
5.0145E+001
 40
3.0
  1
 
 41
7.0E-001
 72
1
 11
-1.778E+001
 21
5.0145E+001
  3
6
  2
6
 70
0
  0
ATTDEF
  8
5
  6
CONTINUOUS
 62
6
 10
-1.2180549E+002
 20
9.2306E-001
 40
2.5
  1
 
 41
7.0E-001
  3
7
  2
7
 70
0
  0
ATTDEF
  8
5
  6
CONTINUOUS
 62
6
 10
-7.8625485E+001
 20
9.2306E-001
 40
2.5
  1
 
 41
7.0E-001
  3
8
  2
8
 70
0
  0
ATTDEF
  8
4
  6
CONTINUOUS
 62
6
 10
-1.2812066E+002
 20
3.4891649E+001
 40
2.0
  1
 
 41
7.0E-001
  3
9
  2
9
 70
0
  0
ATTDEF
  8
4
  6
CONTINUOUS
 62
6
 10
-1.1838E+002
 20
3.041E+001
 40
2.2
  1
 
 41
7.0E-001
  3
10
  2
10
 70
0
  0
ATTDEF
  8
4
  6
CONTINUOUS
 62
6
 10
-1.0314E+002
 20
3.041E+001
 40
2.2
  1
 
 41
7.0E-001
  3
11
  2
11
 70
0
  0
ATTDEF
  8
4
  6
CONTINUOUS
 62
6
 10
-1.1838E+002
 20
2.618E+001
 40
2.2
  1
 
 41
7.0E-001
  3
12
  2
12
 70
0
  0
ATTDEF
  8
4
  6
CONTINUOUS
 62
6
 10
-1.0314E+002
 20
2.618E+001
 40
2.2
  1
 
 41
7.0E-001
  3
13
  2
13
 70
0
  0
ATTDEF
  8
4
  6
CONTINUOUS
 62
6
 10
-1.1838E+002
 20
2.195E+001
 40
2.2
  1
 
 41
7.0E-001
  3
14
  2
14
 70
0
  0
ATTDEF
  8
4
  6
CONTINUOUS
 62
6
 10
-1.0314E+002
 20
2.195E+001
 40
2.2
  1
 
 41
7.0E-001
  3
15
  2
15
 70
0
  0
ATTDEF
  8
4
  6
CONTINUOUS
 62
6
 10
-1.1838E+002
 20
1.772E+001
 40
2.2
  1
 
 41
7.0E-001
  3
16
  2
16
 70
0
  0
ATTDEF
  8
4
  6
CONTINUOUS
 62
6
 10
-7.126782
 20
3.5038027E+001
 40
1.0
  1
 
  3
17
  2
17
 70
0
  0
ATTDEF
  8
4
  6
CONTINUOUS
 62
6
 10
-7.126782
 20
3.3538027E+001
 40
1.0
  1
 
  3
18
  2
18
 70
0
  0
ATTDEF
  8
4
  6
CONTINUOUS
 62
6
 10
-7.126782
 20
3.2038027E+001
 40
1.0
  1
 
  3
19
  2
19
 70
0
  0
ATTDEF
  8
4
  6
CONTINUOUS
 62
6
 10
-7.126782
 20
3.0538027E+001
 40
1.0
  1
 
  3
20
  2
20
 70
0
  0
ATTDEF
  8
4
  6
CONTINUOUS
 62
6
 10
-1.8188E+002
 20
3.464E+001
 40
2.0
  1
 
 41
7.0E-001
  3
21
  2
21
 70
0
  0
ATTDEF
  8
4
  6
CONTINUOUS
 62
6
 10
-1.7426E+002
 20
3.464E+001
 40
2.0
  1
 
 41
7.0E-001
  3
22
  2
22
 70
0
  0
ATTDEF
  8
4
  6
CONTINUOUS
 62
6
 10
-1.4886E+002
 20
3.464E+001
 40
2.0
  1
 
 41
7.0E-001
  3
23
  2
23
 70
0
  0
ATTDEF
  8
4
  6
CONTINUOUS
 62
6
 10
-1.3666E+002
 20
3.464E+001
 40
2.0
  1
 
 41
7.0E-001
  3
24
  2
24
 70
0
  0
ATTDEF
  8
4
  6
CONTINUOUS
 62
6
 10
-1.8188E+002
 20
3.041E+001
 40
2.0
  1
 
 41
7.0E-001
  3
25
  2
25
 70
0
  0
ATTDEF
  8
4
  6
CONTINUOUS
 62
6
 10
-1.7426E+002
 20
3.041E+001
 40
2.0
  1
 
 41
7.0E-001
  3
26
  2
26
 70
0
  0
ATTDEF
  8
4
  6
CONTINUOUS
 62
6
 10
-1.4886E+002
 20
3.041E+001
 40
2.0
  1
 
 41
7.0E-001
  3
27
  2
27
 70
0
  0
ATTDEF
  8
4
  6
CONTINUOUS
 62
6
 10
-1.3666E+002
 20
3.041E+001
 40
2.0
  1
 
 41
7.0E-001
  3
28
  2
28
 70
0
  0
ATTDEF
  8
4
  6
CONTINUOUS
 62
6
 10
-1.8188E+002
 20
2.618E+001
 40
2.0
  1
 
 41
7.0E-001
  3
29
  2
29
 70
0
  0
ATTDEF
  8
4
  6
CONTINUOUS
 62
6
 10
-1.7426E+002
 20
2.618E+001
 40
2.0
  1
 
 41
7.0E-001
  3
30
  2
30
 70
0
  0
ATTDEF
  8
4
  6
CONTINUOUS
 62
6
 10
-1.4886E+002
 20
2.618E+001
 40
2.0
  1
 
 41
7.0E-001
  3
31
  2
31
 70
0
  0
ATTDEF
  8
4
  6
CONTINUOUS
 62
6
 10
-1.3666E+002
 20
2.618E+001
 40
2.0
  1
 
 41
7.0E-001
  3
32
  2
32
 70
0
  0
ATTDEF
  8
4
  6
CONTINUOUS
 62
6
 10
-1.8188E+002
 20
2.195E+001
 40
2.0
  1
 
 41
7.0E-001
  3
33
  2
33
 70
0
  0
ATTDEF
  8
4
  6
CONTINUOUS
 62
6
 10
-1.7426E+002
 20
2.195E+001
 40
2.0
  1
 
 41
7.0E-001
  3
34
  2
34
 70
0
  0
ATTDEF
  8
4
  6
CONTINUOUS
 62
6
 10
-1.4886E+002
 20
2.195E+001
 40
2.0
  1
 
 41
7.0E-001
  3
35
  2
35
 70
0
  0
ATTDEF
  8
4
  6
CONTINUOUS
 62
6
 10
-1.3666E+002
 20
2.195E+001
 40
2.0
  1
 
 41
7.0E-001
  3
36
  2
36
 70
0
  0
ATTDEF
  8
4
  6
CONTINUOUS
 62
6
 10
-1.8188E+002
 20
1.772E+001
 40
2.0
  1
 
 41
7.0E-001
  3
37
  2
37
 70
0
  0
ATTDEF
  8
4
  6
CONTINUOUS
 62
6
 10
-1.7426E+002
 20
1.772E+001
 40
2.0
  1
 
 41
7.0E-001
  3
38
  2
38
 70
0
  0
ATTDEF
  8
4
  6
CONTINUOUS
 62
6
 10
-1.4886E+002
 20
1.772E+001
 40
2.0
  1
 
 41
7.0E-001
  3
39
  2
39
 70
0
  0
ATTDEF
  8
4
  6
CONTINUOUS
 62
6
 10
-1.3666E+002
 20
1.772E+001
 40
2.0
  1
 
 41
7.0E-001
  3
40
  2
40
 70
0
  0
ATTDEF
  8
4
  6
CONTINUOUS
 62
6
 10
-1.8188E+002
 20
1.349E+001
 40
2.0
  1
 
 41
7.0E-001
  3
41
  2
41
 70
0
  0
ATTDEF
  8
4
  6
CONTINUOUS
 62
6
 10
-1.7426E+002
 20
1.349E+001
 40
2.0
  1
 
 41
7.0E-001
  3
42
  2
42
 70
0
  0
ATTDEF
  8
4
  6
CONTINUOUS
 62
6
 10
-1.4886E+002
 20
1.349E+001
 40
2.0
  1
 
 41
7.0E-001
  3
43
  2
43
 70
0
  0
ATTDEF
  8
4
  6
CONTINUOUS
 62
6
 10
-1.3666E+002
 20
1.349E+001
 40
2.0
  1
 
 41
7.0E-001
  3
44
  2
44
 70
0
  0
ATTDEF
  8
4
  6
CONTINUOUS
 62
6
 10
-1.8188E+002
 20
9.26
 40
2.0
  1
 
 41
7.0E-001
  3
45
  2
45
 70
0
  0
ATTDEF
  8
4
  6
CONTINUOUS
 62
6
 10
-1.7426E+002
 20
9.26
 40
2.0
  1
 
 41
7.0E-001
  3
46
  2
46
 70
0
  0
ATTDEF
  8
4
  6
CONTINUOUS
 62
6
 10
-1.4886E+002
 20
9.26
 40
2.0
  1
 
 41
7.0E-001
  3
47
  2
47
 70
0
  0
ATTDEF
  8
4
  6
CONTINUOUS
 62
6
 10
-1.3666E+002
 20
9.26
 40
2.0
  1
 
 41
7.0E-001
  3
48
  2
48
 70
0
  0
ATTDEF
  8
4
  6
CONTINUOUS
 62
6
 10
-1.8188E+002
 20
5.03
 40
2.0
  1
 
 41
7.0E-001
  3
49
  2
49
 70
0
  0
ATTDEF
  8
4
  6
CONTINUOUS
 62
6
 10
-1.7426E+002
 20
5.03
 40
2.0
  1
 
 41
7.0E-001
  3
50
  2
50
 70
0
  0
ATTDEF
  8
4
  6
CONTINUOUS
 62
6
 10
-1.4886E+002
 20
5.03
 40
2.0
  1
 
 41
7.0E-001
  3
51
  2
51
 70
0
  0
ATTDEF
  8
4
  6
CONTINUOUS
 62
6
 10
-1.3666E+002
 20
5.03
 40
2.0
  1
 
 41
7.0E-001
  3
52
  2
52
 70
0
  0
POLYLINE
  8
250
  6
CONTINUOUS
 62
2
 66
1
 40
5.0E-001
 41
5.0E-001
 70
0
  0
VERTEX
  8
250
 42
0.0
 10
-1.8287982E+002
 20
5.498984E+001
 70
0
  0
VERTEX
  8
250
 42
0.0
 10
-3.113747E-004
 20
5.498984E+001
 70
0
  0
SEQEND
  0
POLYLINE
  8
250
  6
CONTINUOUS
 62
2
 66
1
 40
5.0E-001
 41
5.0E-001
 70
0
  0
VERTEX
  8
250
 42
0.0
 10
-1.8287982E+002
 20
5.498984E+001
 70
0
  0
VERTEX
  8
250
 42
0.0
 10
-1.8287982E+002
 20
2.918579E-004
 70
0
  0
SEQEND
  0
POLYLINE
  8
T_26397_D_0_000000-_0
  6
CONTINUOUS
 62
2
 66
1
 40
5.0E-001
 41
5.0E-001
 70
0
  0
VERTEX
  8
T_26397_D_0_000000-_0
 42
0.0
 10
0.0
 20
3.807E+001
 70
0
  0
VERTEX
  8
T_26397_D_0_000000-_0
 42
0.0
 10
-1.8288E+002
 20
3.807E+001
 70
0
  0
SEQEND
  0
POLYLINE
  8
T_26397_D_0_000000-_0
  6
CONTINUOUS
 62
2
 66
1
 40
5.0E-001
 41
5.0E-001
 70
0
  0
VERTEX
  8
T_26397_D_0_000000-_0
 42
0.0
 10
-1.2954E+002
 20
1.692E+001
 70
0
  0
VERTEX
  8
T_26397_D_0_000000-_0
 42
0.0
 10
0.0
 20
1.692E+001
 70
0
  0
SEQEND
  0
POLYLINE
  8
T_26397_D_0_000000-_0
  6
CONTINUOUS
 62
2
 66
1
 40
5.0E-001
 41
5.0E-001
 70
0
  0
VERTEX
  8
T_26397_D_0_000000-_0
 42
0.0
 10
-1.27E+001
 20
1.692E+001
 70
0
  0
VERTEX
  8
T_26397_D_0_000000-_0
 42
0.0
 10
-1.27E+001
 20
4.23
 70
0
  0
SEQEND
  0
POLYLINE
  8
T_26397_D_0_000000-_0
  6
CONTINUOUS
 62
2
 66
1
 40
5.0E-001
 41
5.0E-001
 70
0
  0
VERTEX
  8
T_26397_D_0_000000-_0
 42
0.0
 10
-8.636E+001
 20
0.0
 70
0
  0
VERTEX
  8
T_26397_D_0_000000-_0
 42
0.0
 10
-8.636E+001
 20
5.499E+001
 70
0
  0
SEQEND
  0
POLYLINE
  8
T_26397_D_0_000000-_0
  6
CONTINUOUS
 62
2
 66
1
 40
5.0E-001
 41
5.0E-001
 70
0
  0
VERTEX
  8
T_26397_D_0_000000-_0
 42
0.0
 10
-1.2954E+002
 20
5.499E+001
 70
0
  0
VERTEX
  8
T_26397_D_0_000000-_0
 42
0.0
 10
-1.2954E+002
 20
0.0
 70
0
  0
SEQEND
  0
LINE
  8
T_26397_D_0_000000-_0
  6
CONTINUOUS
 62
150
 10
-1.8288E+002
 20
4.23
 11
0.0
 21
4.23
  0
LINE
  8
T_26397_D_0_000000-_0
  6
CONTINUOUS
 62
150
 10
0.0
 20
8.46
 11
-1.27E+001
 21
8.46
  0
LINE
  8
T_26397_D_0_000000-_0
  6
CONTINUOUS
 62
150
 10
-1.2954E+002
 20
8.46
 11
-1.8288E+002
 21
8.46
  0
LINE
  8
T_26397_D_0_000000-_0
  6
CONTINUOUS
 62
150
 10
-1.8288E+002
 20
1.269E+001
 11
-1.2954E+002
 21
1.269E+001
  0
LINE
  8
T_26397_D_0_000000-_0
  6
CONTINUOUS
 62
150
 10
-1.2954E+002
 20
1.692E+001
 11
-1.8288E+002
 21
1.692E+001
  0
LINE
  8
T_26397_D_0_000000-_0
  6
CONTINUOUS
 62
150
 10
-1.8288E+002
 20
2.115E+001
 11
-8.636E+001
 21
2.115E+001
  0
LINE
  8
T_26397_D_0_000000-_0
  6
CONTINUOUS
 62
150
 10
-8.636E+001
 20
2.538E+001
 11
-1.8288E+002
 21
2.538E+001
  0
LINE
  8
T_26397_D_0_000000-_0
  6
CONTINUOUS
 62
150
 10
-1.8288E+002
 20
2.961E+001
 11
-8.636E+001
 21
2.961E+001
  0
LINE
  8
T_26397_D_0_000000-_0
  6
CONTINUOUS
 62
150
 10
-8.636E+001
 20
3.384E+001
 11
-1.8288E+002
 21
3.384E+001
  0
LINE
  8
T_26397_D_0_000000-_0
  6
CONTINUOUS
 62
150
 10
-8.636E+001
 20
4.8645E+001
 11
0.0
 21
4.8645E+001
  0
LINE
  8
T_26397_D_0_000000-_0
  6
CONTINUOUS
 62
150
 10
-3.556E+001
 20
5.499E+001
 11
-3.556E+001
 21
4.8645E+001
  0
LINE
  8
T_26397_D_0_000000-_0
  6
CONTINUOUS
 62
150
 10
-4.318E+001
 20
4.23
 11
-4.318E+001
 21
0.0
  0
LINE
  8
T_26397_D_0_000000-_0
  6
CONTINUOUS
 62
150
 10
-1.0414E+002
 20
1.692E+001
 11
-1.0414E+002
 21
5.499E+001
  0
LINE
  8
T_26397_D_0_000000-_0
  6
CONTINUOUS
 62
150
 10
-1.1938E+002
 20
3.807E+001
 11
-1.1938E+002
 21
1.692E+001
  0
LINE
  8
T_26397_D_0_000000-_0
  6
CONTINUOUS
 62
150
 10
-1.3716E+002
 20
0.0
 11
-1.3716E+002
 21
3.807E+001
  0
LINE
  8
T_26397_D_0_000000-_0
  6
CONTINUOUS
 62
150
 10
-1.4986E+002
 20
3.807E+001
 11
-1.4986E+002
 21
0.0
  0
LINE
  8
T_26397_D_0_000000-_0
  6
CONTINUOUS
 62
150
 10
-1.7526E+002
 20
0.0
 11
-1.7526E+002
 21
3.807E+001
  0
TEXT
  8
T_26397_D_0_000000-_0
  6
CONTINUOUS
 62
1
 10
-1.81927E+002
 20
8.65E-001
 40
2.5
  1
Zust
 41
5.714E-001
 51
-2.104591E-004
  0
TEXT
  8
T_26397_D_0_000000-_0
  6
CONTINUOUS
 62
1
 10
-1.69256E+002
 20
8.65E-001
 40
2.5
  1
Aenderung
 41
5.9524444E-001
 51
-2.104591E-004
  0
TEXT
  8
T_26397_D_0_000000-_0
  6
CONTINUOUS
 62
1
 10
-1.47439E+002
 20
8.65E-001
 40
2.5
  1
Datum
 41
6.2856E-001
 51
-2.104591E-004
  0
TEXT
  8
T_26397_D_0_000000-_0
  6
CONTINUOUS
 62
1
 10
-1.36654E+002
 20
8.65E-001
 40
2.5
  1
Name
 41
6.607E-001
 51
-2.104591E-004
  0
TEXT
  8
T_26397_D_0_000000-_0
  6
CONTINUOUS
 62
1
 10
-1.28067E+002
 20
3.0475E+001
 40
2.5
  1
Bearb.
 41
5.476E-001
 51
-2.104591E-004
  0
TEXT
  8
T_26397_D_0_000000-_0
  6
CONTINUOUS
 62
1
 10
-1.27764E+002
 20
2.6245E+001
 40
2.5
  1
Gepr.
 41
5.2856E-001
 51
-2.104591E-004
  0
TEXT
  8
T_26397_D_0_000000-_0
  6
CONTINUOUS
 62
1
 10
-1.27674E+002
 20
2.2015E+001
 40
2.5
  1
Norm
 41
6.429E-001
 51
-2.104591E-004
  0
TEXT
  8
T_26397_D_0_000000-_0
  6
CONTINUOUS
 62
1
 10
-1.15689E+002
 20
3.4705E+001
 40
2.5
  1
Datum
 41
6.2856E-001
 51
-2.104591E-004
  0
TEXT
  8
T_26397_D_0_000000-_0
  6
CONTINUOUS
 62
1
 10
-9.8554E+001
 20
3.4705E+001
 40
2.5
  1
Name
 41
6.607E-001
 51
-2.104591E-004
  0
TEXT
  8
T_26397_D_0_000000-_0
  6
CONTINUOUS
 62
1
 10
-8.382E+001
 20
5.0067E+001
 40
3.5
  1
Maßstab:
 41
6.2244898E-001
 51
-2.104591E-004
  0
TEXT
  8
T_26397_D_0_000000-_0
  6
CONTINUOUS
 62
6
 10
-1.2305E+001
 20
1.3555E+001
 40
2.5
  1
Blatt
 41
5.4288E-001
 51
-2.104591E-004
  0
TEXT
  8
T_26397_D_0_000000-_0
  6
CONTINUOUS
 62
6
 10
-4.107
 20
5.095
 40
2.5
  1
Bl. 
 41
4.107E-001
 51
-2.104591E-004
  0
TEXT
  8
T_26397_D_0_000000-_0
  6
CONTINUOUS
 62
1
 10
-1.27674E+002
 20
1.7785E+001
 40
2.2
  1
Freig.
 41
6.0E-001
 51
-2.104591E-004
  0
LINE
  8
3
  6
CONTINUOUS
 62
2
 10
-1.2845403E+002
 20
1.579802E+001
 11
-1.2845403E+002
 21
5.7980197
  0
LINE
  8
3
  6
CONTINUOUS
 62
2
 10
-1.18454E+002
 20
1.579802E+001
 11
-1.2845403E+002
 21
1.579802E+001
  0
LINE
  8
3
  6
CONTINUOUS
 62
2
 10
-1.18454E+002
 20
5.7980197
 11
-1.18454E+002
 21
1.579802E+001
  0
LINE
  8
3
  6
CONTINUOUS
 62
2
 10
-1.1895397E+002
 20
6.2980121
 11
-1.1895397E+002
 21
1.5298027E+001
  0
LINE
  8
3
  6
CONTINUOUS
 62
2
 10
-1.1895397E+002
 20
1.5298027E+001
 11
-1.27954E+002
 21
1.5298027E+001
  0
LINE
  8
T_26397_D_0_000000-_0
  6
CONTINUOUS
 62
1
 10
-1.2735082E+002
 20
8.928017
 11
-1.2735082E+002
 21
9.7939914
  0
LINE
  8
3
  6
CONTINUOUS
 62
2
 10
-1.27954E+002
 20
1.5298027E+001
 11
-1.27954E+002
 21
6.2980121
  0
LINE
  8
3
  6
CONTINUOUS
 62
2
 10
-1.27954E+002
 20
6.2980121
 11
-1.1895397E+002
 21
6.2980121
  0
LINE
  8
3
  6
CONTINUOUS
 62
2
 10
-1.2845403E+002
 20
5.7980197
 11
-1.18454E+002
 21
5.7980197
  0
LINE
  8
T_26397_D_0_000000-_0
  6
CONTINUOUS
 62
1
 10
-1.2599142E+002
 20
9.6429828
 11
-1.27954E+002
 21
8.7280658
  0
LINE
  8
T_26397_D_0_000000-_0
  6
CONTINUOUS
 62
1
 10
-1.2715078E+002
 20
1.0194023E+001
 11
-1.2715078E+002
 21
9.1030734
  0
LINE
  8
T_26397_D_0_000000-_0
  6
CONTINUOUS
 62
1
 10
-1.269508E+002
 20
1.0299004E+001
 11
-1.269508E+002
 21
9.1959613
  0
ARC
  8
T_26397_D_0_000000-_0
  6
CONTINUOUS
 62
1
 10
-1.2685079E+002
 20
9.7939914
 40
4.9999732E-001
 50
1.1500681E+002
 51
1.8E+002
  0
LINE
  8
T_26397_D_0_000000-_0
  6
CONTINUOUS
 62
1
 10
-1.2706213E+002
 20
1.0246987E+001
 11
-1.264182E+002
 21
1.0548027E+001
  0
ARC
  8
T_26397_D_0_000000-_0
  6
CONTINUOUS
 62
1
 10
-1.262914E+002
 20
1.0276055E+001
 40
2.9998779E-001
 50
0.0
 51
1.14997E+002
  0
LINE
  8
T_26397_D_0_000000-_0
  6
CONTINUOUS
 62
1
 10
-1.2599142E+002
 20
9.6429828
 11
-1.2599142E+002
 21
1.0276055E+001
  0
LINE
  8
T_26397_D_0_000000-_0
  6
CONTINUOUS
 62
1
 10
-1.2639138E+002
 20
1.0559983E+001
 11
-1.2639138E+002
 21
9.4570773
  0
LINE
  8
T_26397_D_0_000000-_0
  6
CONTINUOUS
 62
1
 10
-1.261914E+002
 20
9.5499652
 11
-1.261914E+002
 21
1.0558037E+001
  0
ARC
  8
T_26397_D_0_000000-_0
  6
CONTINUOUS
 62
1
 10
-1.2705083E+002
 20
8.928017
 40
3.0000648E-001
 50
1.8E+002
 51
2.9508511E+002
  0
LINE
  8
T_26397_D_0_000000-_0
  6
CONTINUOUS
 62
1
 10
-1.218034E+002
 20
1.1043991E+001
 11
-1.2692403E+002
 21
8.6570209
  0
LINE
  8
T_26397_D_0_000000-_0
  6
CONTINUOUS
 62
1
 10
-1.2372253E+002
 20
1.1252983E+001
 11
-1.2579137E+002
 21
1.0288018E+001
  0
LINE
  8
T_26397_D_0_000000-_0
  6
CONTINUOUS
 62
1
 10
-1.2549139E+002
 20
1.120707E+001
 11
-1.2549139E+002
 21
8.2410052
  0
LINE
  8
T_26397_D_0_000000-_0
  6
CONTINUOUS
 62
1
 10
-1.2529143E+002
 20
1.1655068E+001
 11
-1.2529143E+002
 21
8.0279926
  0
LINE
  8
T_26397_D_0_000000-_0
  6
CONTINUOUS
 62
1
 10
-1.2512884E+002
 20
1.1405068E+001
 11
-1.2512884E+002
 21
8.4390109
  0
LINE
  8
T_26397_D_0_000000-_0
  6
CONTINUOUS
 62
1
 10
-1.2422246E+002
 20
1.1827072E+001
 11
-1.2422246E+002
 21
8.8610156
  0
LINE
  8
T_26397_D_0_000000-_0
  6
CONTINUOUS
 62
1
 10
-1.2442251E+002
 20
8.4139865
 11
-1.2442251E+002
 21
1.2041054E+001
  0
ARC
  8
T_26397_D_0_000000-_0
  6
CONTINUOUS
 62
1
 10
-1.2382253E+002
 20
1.1827072E+001
 40
3.9999428E-001
 50
9.9286249E+001
 51
1.8E+002
  0
ARC
  8
T_26397_D_0_000000-_0
  6
CONTINUOUS
 62
1
 10
-1.2398504E+002
 20
1.1630043E+001
 40
6.0000807E-001
 50
8.0603552E+001
 51
1.8E+002
  0
LINE
  8
T_26397_D_0_000000-_0
  6
CONTINUOUS
 62
1
 10
-1.2458507E+002
 20
1.1630043E+001
 11
-1.2458507E+002
 21
8.6639789
  0
ARC
  8
T_26397_D_0_000000-_0
  6
CONTINUOUS
 62
1
 10
-1.2472878E+002
 20
1.1405068E+001
 40
4.0000123E-001
 50
9.9325427E+001
 51
1.8E+002
  0
ARC
  8
T_26397_D_0_000000-_0
  6
CONTINUOUS
 62
1
 10
-1.2489141E+002
 20
1.120707E+001
 40
6.0000807E-001
 50
8.0603552E+001
 51
1.8E+002
  0
ARC
  8
T_26397_D_0_000000-_0
  6
CONTINUOUS
 62
1
 10
-1.2589141E+002
 20
8.2410052
 40
4.0000916E-001
 50
2.7E+002
 51
3.6E+002
  0
ARC
  8
T_26397_D_0_000000-_0
  6
CONTINUOUS
 62
1
 10
-1.2572881E+002
 20
8.4390109
 40
6.0000551E-001
 50
2.6060319E+002
 51
3.6E+002
  0
ARC
  8
T_26397_D_0_000000-_0
  6
CONTINUOUS
 62
1
 10
-1.2498504E+002
 20
8.6639789
 40
3.9999393E-001
 50
2.7E+002
 51
3.6E+002
  0
ARC
  8
T_26397_D_0_000000-_0
  6
CONTINUOUS
 62
1
 10
-1.248225E+002
 20
8.8610156
 40
6.0000312E-001
 50
2.606093E+002
 51
3.6E+002
  0
LINE
  8
T_26397_D_0_000000-_0
  6
CONTINUOUS
 62
1
 10
-1.2316289E+002
 20
1.0329995E+001
 11
-1.2316289E+002
 21
1.1195E+001
  0
LINE
  8
T_26397_D_0_000000-_0
  6
CONTINUOUS
 62
1
 10
-1.2296285E+002
 20
1.1595024E+001
 11
-1.2296285E+002
 21
1.0504082E+001
  0
LINE
  8
T_26397_D_0_000000-_0
  6
CONTINUOUS
 62
1
 10
-1.2276287E+002
 20
1.1700005E+001
 11
-1.2276287E+002
 21
1.0596962E+001
  0
LINE
  8
T_26397_D_0_000000-_0
  6
CONTINUOUS
 62
1
 10
-1.2220342E+002
 20
1.1960991E+001
 11
-1.2220342E+002
 21
1.0858086E+001
  0
LINE
  8
T_26397_D_0_000000-_0
  6
CONTINUOUS
 62
1
 10
-1.2200338E+002
 20
1.0950966E+001
 11
-1.2200338E+002
 21
1.1960015E+001
  0
LINE
  8
T_26397_D_0_000000-_0
  6
CONTINUOUS
 62
1
 10
-1.218034E+002
 20
1.1043991E+001
 11
-1.218034E+002
 21
1.167704E+001
  0
ARC
  8
T_26397_D_0_000000-_0
  6
CONTINUOUS
 62
1
 10
-1.2210339E+002
 20
1.167704E+001
 40
2.9998779E-001
 50
0.0
 51
1.1499049E+002
  0
LINE
  8
T_26397_D_0_000000-_0
  6
CONTINUOUS
 62
1
 10
-1.228742E+002
 20
1.1647988E+001
 11
-1.2223022E+002
 21
1.1949028E+001
  0
ARC
  8
T_26397_D_0_000000-_0
  6
CONTINUOUS
 62
1
 10
-1.2266286E+002
 20
1.1195E+001
 40
5.0000376E-001
 50
1.1501034E+002
 51
1.8E+002
  0
LINE
  8
T_26397_D_0_000000-_0
  6
CONTINUOUS
 62
1
 10
-1.2273611E+002
 20
1.0058022E+001
 11
-1.1895397E+002
 21
1.1820969E+001
  0
ARC
  8
T_26397_D_0_000000-_0
  6
CONTINUOUS
 62
1
 10
-1.2286291E+002
 20
1.0329995E+001
 40
3.0001092E-001
 50
1.8E+002
 51
2.9499577E+002
  0
ARC
  8
T_26397_D_0_000000-_0
  6
CONTINUOUS
 62
1
 10
-1.2070342E+002
 20
1.2609047E+001
 40
6.0000294E-001
 50
8.0591814E+001
 51
1.8E+002
  0
ARC
  8
T_26397_D_0_000000-_0
  6
CONTINUOUS
 62
1
 10
-1.2054089E+002
 20
1.2806076E+001
 40
4.0000394E-001
 50
9.9308349E+001
 51
1.8E+002
  0
LINE
  8
T_26397_D_0_000000-_0
  6
CONTINUOUS
 62
1
 10
-1.2110339E+002
 20
1.3056069E+001
 11
-1.2110339E+002
 21
9.4290012
  0
LINE
  8
T_26397_D_0_000000-_0
  6
CONTINUOUS
 62
1
 10
-1.2094088E+002
 20
1.2806076E+001
 11
-1.2094091E+002
 21
9.8400195
  0
LINE
  8
T_26397_D_0_000000-_0
  6
CONTINUOUS
 62
1
 10
-1.213034E+002
 20
1.2609047E+001
 11
-1.213034E+002
 21
9.6429828
  0
LINE
  8
T_26397_D_0_000000-_0
  6
CONTINUOUS
 62
1
 10
-1.195346E+002
 20
1.2653984E+001
 11
-1.2160339E+002
 21
1.1689019E+001
  0
LINE
  8
T_26397_D_0_000000-_0
  6
CONTINUOUS
 62
1
 10
-1.2039709E+002
 20
1.3031044E+001
 11
-1.2039709E+002
 21
1.0064987E+001
  0
LINE
  8
T_26397_D_0_000000-_0
  6
CONTINUOUS
 62
1
 10
-1.2023458E+002
 20
9.8149951
 11
-1.2023458E+002
 21
1.3442063E+001
  0
LINE
  8
T_26397_D_0_000000-_0
  6
CONTINUOUS
 62
1
 10
-1.200346E+002
 20
1.3228081E+001
 11
-1.200346E+002
 21
1.0262017E+001
  0
ARC
  8
T_26397_D_0_000000-_0
  6
CONTINUOUS
 62
1
 10
-1.196346E+002
 20
1.3228081E+001
 40
4.0000445E-001
 50
9.9285896E+001
 51
1.8E+002
  0
ARC
  8
T_26397_D_0_000000-_0
  6
CONTINUOUS
 62
1
 10
-1.1979708E+002
 20
1.3031044E+001
 40
5.9999055E-001
 50
8.0606189E+001
 51
1.8E+002
  0
ARC
  8
T_26397_D_0_000000-_0
  6
CONTINUOUS
 62
1
 10
-1.2170339E+002
 20
9.6429828
 40
4.0000916E-001
 50
2.7E+002
 51
3.6E+002
  0
ARC
  8
T_26397_D_0_000000-_0
  6
CONTINUOUS
 62
1
 10
-1.2154089E+002
 20
9.8400195
 40
6.0000563E-001
 50
2.606093E+002
 51
3.6E+002
  0
ARC
  8
T_26397_D_0_000000-_0
  6
CONTINUOUS
 62
1
 10
-1.2079711E+002
 20
1.0064987E+001
 40
4.0000916E-001
 50
2.7E+002
 51
3.6E+002
  0
ARC
  8
T_26397_D_0_000000-_0
  6
CONTINUOUS
 62
1
 10
-1.2063457E+002
 20
1.0262017E+001
 40
6.0000294E-001
 50
2.6059181E+002
 51
3.6E+002
  0
TEXT
  8
4
  6
CONTINUOUS
 62
1
 10
-1.1679708E+002
 20
1.3990212E+001
 40
2.2
  1
FRITZ FUSS GmbH&Co
 41
7.0E-001
  0
TEXT
  8
4
  6
CONTINUOUS
 62
1
 10
-1.1679708E+002
 20
8.1902118
 40
2.2
  1
Sicherheitstechnik
 41
7.0E-001
  0
TEXT
  8
4
  6
CONTINUOUS
 62
1
 10
-1.1679708E+002
 20
5.2902118
 40
2.2
  1
D-72458 Albstadt
 41
7.0E-001
  0
TEXT
  8
4
  6
CONTINUOUS
 62
1
 10
-1.1679708E+002
 20
1.1090212E+001
 40
2.2
  1
Kommanditg. auf Aktien
 41
6.0E-001
  0
TEXT
  8
4
  6
CONTINUOUS
 62
1
 10
-8.536E+001
 20
3.507E+001
 40
2.0
  1
Benennung
 41
7.0E-001
  0
TEXT
  8
4
  6
CONTINUOUS
 62
1
 10
-8.536E+001
 20
1.392E+001
 40
2.0
  1
Zeichnungsnummer
 41
7.0E-001
  0
TEXT
  8
4
  6
CONTINUOUS
 62
1
 10
-8.536E+001
 20
4.5645E+001
 40
2.0
  1
Werkstoff
 41
7.0E-001
  0
POINT
  8
Drafting_Hidden_Entities
  6
CONTINUOUS
 62
1
 10
0.0
 20
0.0
  0
ENDBLK
  0
BLOCK
  2
_AH1
 70
0
 10
0.0
 20
0.0
  3
_AH1
  0
LINE
  8
0
  6
CONTINUOUS
 62
0
 10
-1.0
 20
1.66667E-001
 11
0.0
 21
0.0
  0
LINE
  8
0
  6
CONTINUOUS
 62
0
 10
0.0
 20
0.0
 11
-1.0
 21
-1.66667E-001
  0
LINE
  8
0
  6
CONTINUOUS
 62
0
 10
-1.0
 20
1.66667E-001
 11
-1.0
 21
-1.66667E-001
  0
LINE
  8
0
  6
CONTINUOUS
 62
0
 10
0.0
 20
0.0
 11
-1.0
 21
0.0
  0
ENDBLK
  0
BLOCK
  2
_AH2
 70
0
 10
0.0
 20
0.0
  3
_AH2
  0
LINE
  8
0
  6
CONTINUOUS
 62
0
 10
-1.0
 20
1.66667E-001
 11
0.0
 21
0.0
  0
LINE
  8
0
  6
CONTINUOUS
 62
0
 10
0.0
 20
0.0
 11
-1.0
 21
-1.66667E-001
  0
LINE
  8
0
  6
CONTINUOUS
 62
0
 10
0.0
 20
0.0
 11
-1.0
 21
0.0
  0
ENDBLK
  0
BLOCK
  2
*D118
  3
*D
 10
0.0
 20
0.0
 70
65
  0
LINE
  8
6
  6
CONTINUOUS
 62
6
 10
1.50213E+002
 20
2.75464E+002
 11
1.7697191E+002
 21
2.75464E+002
  0
LINE
  8
6
  6
CONTINUOUS
 62
6
 10
1.65713E+002
 20
2.70464E+002
 11
1.7697191E+002
 21
2.70464E+002
  0
LINE
  8
6
  6
CONTINUOUS
 62
6
 10
1.7452191E+002
 20
2.85964E+002
 11
1.7452191E+002
 21
2.75464E+002
  0
LINE
  8
6
  6
CONTINUOUS
 62
6
 10
1.7452191E+002
 20
2.59964E+002
 11
1.7452191E+002
 21
2.75464E+002
  0
ENDBLK
  0
BLOCK
  2
*D119
  3
*D
 10
0.0
 20
0.0
 70
65
  0
LINE
  8
6
  6
CONTINUOUS
 62
6
 10
1.55609E+002
 20
2.56464E+002
 11
1.8812779E+002
 21
2.56464E+002
  0
LINE
  8
6
  6
CONTINUOUS
 62
6
 10
1.65713E+002
 20
2.70464E+002
 11
1.8812779E+002
 21
2.70464E+002
  0
LINE
  8
6
  6
CONTINUOUS
 62
6
 10
1.8567779E+002
 20
2.56464E+002
 11
1.8567779E+002
 21
2.6346364E+002
  0
LINE
  8
6
  6
CONTINUOUS
 62
6
 10
1.8567779E+002
 20
2.70464E+002
 11
1.8567779E+002
 21
2.6346364E+002
  0
ENDBLK
  0
BLOCK
  2
*D120
  3
*D
 10
0.0
 20
0.0
 70
65
  0
LINE
  8
6
  6
CONTINUOUS
 62
6
 10
1.50213E+002
 20
2.51464E+002
 11
1.50213E+002
 21
2.45013E+002
  0
LINE
  8
6
  6
CONTINUOUS
 62
6
 10
1.62213E+002
 20
2.67964E+002
 11
1.62213E+002
 21
2.45013E+002
  0
LINE
  8
6
  6
CONTINUOUS
 62
6
 10
1.39713E+002
 20
2.47463E+002
 11
1.50213E+002
 21
2.47463E+002
  0
LINE
  8
6
  6
CONTINUOUS
 62
6
 10
1.72713E+002
 20
2.47463E+002
 11
1.50213E+002
 21
2.47463E+002
  0
ENDBLK
  0
BLOCK
  2
*D121
  3
*D
 10
0.0
 20
0.0
 70
65
  0
LINE
  8
6
  6
CONTINUOUS
 62
6
 10
1.50213E+002
 20
2.51464E+002
 11
1.50213E+002
 21
2.36013E+002
  0
LINE
  8
6
  6
CONTINUOUS
 62
6
 10
1.67213E+002
 20
2.67964E+002
 11
1.67213E+002
 21
2.36013E+002
  0
LINE
  8
6
  6
CONTINUOUS
 62
6
 10
1.50213E+002
 20
2.38463E+002
 11
1.58713E+002
 21
2.38463E+002
  0
LINE
  8
6
  6
CONTINUOUS
 62
6
 10
1.67213E+002
 20
2.38463E+002
 11
1.58713E+002
 21
2.38463E+002
  0
ENDBLK
  0
BLOCK
  2
*D3200
  3
*D
 10
0.0
 20
0.0
 70
65
  0
LINE
  8
22
  6
CONTINUOUS
 62
6
 10
3.3463E+001
 20
1.21464E+002
 11
3.3463E+001
 21
1.01013E+002
  0
LINE
  8
22
  6
CONTINUOUS
 62
6
 10
3.8963E+001
 20
1.21464E+002
 11
3.8963E+001
 21
1.01013E+002
  0
LINE
  8
22
  6
CONTINUOUS
 62
6
 10
2.2963E+001
 20
1.03463E+002
 11
3.8963E+001
 21
1.03463E+002
  0
LINE
  8
22
  6
CONTINUOUS
 62
6
 10
3.8963E+001
 20
1.03463E+002
 11
5.0713E+001
 21
1.03463E+002
  0
ENDBLK
  0
BLOCK
  2
*D3201
  3
*D
 10
0.0
 20
0.0
 70
65
  0
LINE
  8
22
  6
CONTINUOUS
 62
6
 10
3.1013E+001
 20
1.21464E+002
 11
3.1013E+001
 21
9.2013E+001
  0
LINE
  8
22
  6
CONTINUOUS
 62
6
 10
4.1413E+001
 20
1.21464E+002
 11
4.1413E+001
 21
9.2013E+001
  0
LINE
  8
22
  6
CONTINUOUS
 62
6
 10
2.0513E+001
 20
9.4463E+001
 11
4.1413E+001
 21
9.4463E+001
  0
LINE
  8
22
  6
CONTINUOUS
 62
6
 10
4.1413E+001
 20
9.4463E+001
 11
6.6413E+001
 21
9.4463E+001
  0
ENDBLK
  0
BLOCK
  2
*D3778
  3
*D
 10
0.0
 20
0.0
 70
65
  0
LINE
  8
5
  6
CONTINUOUS
 62
3
 10
2.4213E+001
 20
2.24464E+002
 11
2.4213E+001
 21
2.346964E+002
  0
LINE
  8
5
  6
CONTINUOUS
 62
3
 10
3.6213E+001
 20
2.24444E+002
 11
3.6213E+001
 21
2.346964E+002
  0
LINE
  8
5
  6
CONTINUOUS
 62
3
 10
2.4213E+001
 20
2.316964E+002
 11
3.1257739E+001
 21
2.316964E+002
  0
LINE
  8
5
  6
CONTINUOUS
 62
3
 10
3.6213E+001
 20
2.316964E+002
 11
3.1257739E+001
 21
2.316964E+002
  0
INSERT
  2
_AH1
  8
5
 62
3
 10
2.4213E+001
 20
2.316964E+002
 41
3.0
 42
3.0
 43
3.0
 50
1.8E+002
  0
INSERT
  2
_AH1
  8
5
 62
3
 10
3.6213E+001
 20
2.316964E+002
 41
3.0
 42
3.0
 43
3.0
 50
0.0
  0
TEXT
  8
5
  6
CONTINUOUS
 62
3
 10
2.9007739E+001
 20
2.331974E+002
 40
3.0
  1
12
 41
7.5E-001
  0
ENDBLK
  0
BLOCK
  2
*D3779
  3
*D
 10
0.0
 20
0.0
 70
65
  0
LINE
  8
5
  6
CONTINUOUS
 62
3
 10
2.4213E+001
 20
2.24464E+002
 11
2.4213E+001
 21
2.440095E+002
  0
LINE
  8
5
  6
CONTINUOUS
 62
3
 10
4.8213E+001
 20
2.24464E+002
 11
4.8213E+001
 21
2.440095E+002
  0
LINE
  8
5
  6
CONTINUOUS
 62
3
 10
2.4213E+001
 20
2.410095E+002
 11
3.6181903E+001
 21
2.410095E+002
  0
LINE
  8
5
  6
CONTINUOUS
 62
3
 10
4.8213E+001
 20
2.410095E+002
 11
3.6181903E+001
 21
2.410095E+002
  0
INSERT
  2
_AH1
  8
5
 62
3
 10
2.4213E+001
 20
2.410095E+002
 41
3.0
 42
3.0
 43
3.0
 50
1.8E+002
  0
INSERT
  2
_AH1
  8
5
 62
3
 10
4.8213E+001
 20
2.410095E+002
 41
3.0
 42
3.0
 43
3.0
 50
0.0
  0
TEXT
  8
5
  6
CONTINUOUS
 62
3
 10
3.3931903E+001
 20
2.425105E+002
 40
3.0
  1
24
 41
7.5E-001
  0
ENDBLK
  0
BLOCK
  2
*D3781
  3
*D
 10
0.0
 20
0.0
 70
65
  0
LINE
  8
5
  6
CONTINUOUS
 62
3
 10
4.2963E+001
 20
1.56464E+002
 11
6.1140741E+001
 21
1.56464E+002
  0
LINE
  8
5
  6
CONTINUOUS
 62
3
 10
4.2963E+001
 20
1.82464E+002
 11
6.1140741E+001
 21
1.82464E+002
  0
LINE
  8
5
  6
CONTINUOUS
 62
3
 10
5.8140741E+001
 20
1.56464E+002
 11
5.8140741E+001
 21
1.6968041E+002
  0
LINE
  8
5
  6
CONTINUOUS
 62
3
 10
5.8140741E+001
 20
1.82464E+002
 11
5.8140741E+001
 21
1.6968041E+002
  0
INSERT
  2
_AH1
  8
5
 62
3
 10
5.8140741E+001
 20
1.56464E+002
 41
3.0
 42
3.0
 43
3.0
 50
2.7E+002
  0
INSERT
  2
_AH1
  8
5
 62
3
 10
5.8140741E+001
 20
1.82464E+002
 41
3.0
 42
3.0
 43
3.0
 50
9.0E+001
  0
TEXT
  8
5
  6
CONTINUOUS
 62
3
 10
5.6639741E+001
 20
1.6743041E+002
 40
3.0
  1
26
 41
7.5E-001
 50
9.0E+001
  0
ENDBLK
  0
BLOCK
  2
*D3782
  3
*D
 10
0.0
 20
0.0
 70
65
  0
LINE
  8
5
  6
CONTINUOUS
 62
3
 10
4.8213E+001
 20
1.14464E+002
 11
7.0401125E+001
 21
1.14464E+002
  0
LINE
  8
5
  6
CONTINUOUS
 62
3
 10
4.3193E+001
 20
1.21464E+002
 11
7.0401125E+001
 21
1.21464E+002
  0
LINE
  8
5
  6
CONTINUOUS
 62
3
 10
6.7401125E+001
 20
1.08464E+002
 11
6.7401125E+001
 21
1.14464E+002
  0
LINE
  8
5
  6
CONTINUOUS
 62
3
 10
6.7401125E+001
 20
1.27464E+002
 11
6.7401125E+001
 21
1.14464E+002
  0
INSERT
  2
_AH1
  8
5
 62
3
 10
6.7401125E+001
 20
1.14464E+002
 41
3.0
 42
3.0
 43
3.0
 50
9.0E+001
  0
INSERT
  2
_AH1
  8
5
 62
3
 10
6.7401125E+001
 20
1.21464E+002
 41
3.0
 42
3.0
 43
3.0
 50
2.7E+002
  0
TEXT
  8
5
  6
CONTINUOUS
 62
3
 10
6.5900125E+001
 20
1.1689089E+002
 40
3.0
  1
7
 41
7.5E-001
 50
9.0E+001
  0
ENDBLK
  0
BLOCK
  2
*D3783
  3
*D
 10
0.0
 20
0.0
 70
65
  0
LINE
  8
5
  6
CONTINUOUS
 62
3
 10
4.1413E+001
 20
1.21464E+002
 11
7.037014E+001
 21
1.21464E+002
  0
LINE
  8
5
  6
CONTINUOUS
 62
3
 10
4.3193E+001
 20
2.17464E+002
 11
7.037014E+001
 21
2.17464E+002
  0
LINE
  8
5
  6
CONTINUOUS
 62
3
 10
6.737014E+001
 20
1.21464E+002
 11
6.737014E+001
 21
1.6897046E+002
  0
LINE
  8
5
  6
CONTINUOUS
 62
3
 10
6.737014E+001
 20
2.17464E+002
 11
6.737014E+001
 21
1.6897046E+002
  0
INSERT
  2
_AH1
  8
5
 62
3
 10
6.737014E+001
 20
1.21464E+002
 41
3.0
 42
3.0
 43
3.0
 50
2.7E+002
  0
INSERT
  2
_AH1
  8
5
 62
3
 10
6.737014E+001
 20
2.17464E+002
 41
3.0
 42
3.0
 43
3.0
 50
9.0E+001
  0
TEXT
  8
5
  6
CONTINUOUS
 62
3
 10
6.586914E+001
 20
1.6672046E+002
 40
3.0
  1
96
 41
7.5E-001
 50
9.0E+001
  0
ENDBLK
  0
BLOCK
  2
*D3784
  3
*D
 10
0.0
 20
0.0
 70
65
  0
LINE
  8
5
  6
CONTINUOUS
 62
3
 10
1.11013E+002
 20
2.01464E+002
 11
9.6553139E+001
 21
2.01464E+002
  0
LINE
  8
5
  6
CONTINUOUS
 62
3
 10
1.11013E+002
 20
1.37464E+002
 11
9.6553139E+001
 21
1.37464E+002
  0
LINE
  8
5
  6
CONTINUOUS
 62
3
 10
9.9553139E+001
 20
2.01464E+002
 11
9.9553139E+001
 21
1.7034294E+002
  0
LINE
  8
5
  6
CONTINUOUS
 62
3
 10
9.9553139E+001
 20
1.37464E+002
 11
9.9553139E+001
 21
1.7034294E+002
  0
INSERT
  2
_AH1
  8
5
 62
3
 10
9.9553139E+001
 20
2.01464E+002
 41
3.0
 42
3.0
 43
3.0
 50
9.0E+001
  0
INSERT
  2
_AH1
  8
5
 62
3
 10
9.9553139E+001
 20
1.37464E+002
 41
3.0
 42
3.0
 43
3.0
 50
2.7E+002
  0
TEXT
  8
5
  6
CONTINUOUS
 62
3
 10
9.8052139E+001
 20
1.6809294E+002
 40
3.0
  1
64
 41
7.5E-001
 50
9.0E+001
  0
ENDBLK
  0
BLOCK
  2
*D3785
  3
*D
 10
0.0
 20
0.0
 70
65
  0
LINE
  8
5
  6
CONTINUOUS
 62
3
 10
1.47213E+002
 20
1.18714E+002
 11
1.47213E+002
 21
1.0119757E+002
  0
LINE
  8
5
  6
CONTINUOUS
 62
3
 10
1.50213E+002
 20
1.16264E+002
 11
1.50213E+002
 21
1.0119757E+002
  0
LINE
  8
5
  6
CONTINUOUS
 62
3
 10
1.41213E+002
 20
1.0419757E+002
 11
1.50213E+002
 21
1.0419757E+002
  0
LINE
  8
5
  6
CONTINUOUS
 62
3
 10
1.50213E+002
 20
1.0419757E+002
 11
1.5938456E+002
 21
1.0419757E+002
  0
INSERT
  2
_AH1
  8
5
 62
3
 10
1.47213E+002
 20
1.0419757E+002
 41
3.0
 42
3.0
 43
3.0
 50
0.0
  0
INSERT
  2
_AH1
  8
5
 62
3
 10
1.50213E+002
 20
1.0419757E+002
 41
3.0
 42
3.0
 43
3.0
 50
1.8E+002
  0
TEXT
  8
5
  6
CONTINUOUS
 62
3
 10
1.5563456E+002
 20
1.0569857E+002
 40
3.0
  1
3
 41
7.5E-001
  0
ENDBLK
  0
BLOCK
  2
*D3786
  3
*D
 10
0.0
 20
0.0
 70
65
  0
LINE
  8
5
  6
CONTINUOUS
 62
3
 10
1.10013E+002
 20
1.38464E+002
 11
1.10013E+002
 21
9.1652494E+001
  0
LINE
  8
5
  6
CONTINUOUS
 62
3
 10
1.47213E+002
 20
1.24214E+002
 11
1.47213E+002
 21
9.1652494E+001
  0
LINE
  8
5
  6
CONTINUOUS
 62
3
 10
1.10013E+002
 20
9.4652494E+001
 11
1.2995991E+002
 21
9.4652494E+001
  0
LINE
  8
5
  6
CONTINUOUS
 62
3
 10
1.47213E+002
 20
9.4652494E+001
 11
1.2995991E+002
 21
9.4652494E+001
  0
INSERT
  2
_AH1
  8
5
 62
3
 10
1.10013E+002
 20
9.4652494E+001
 41
3.0
 42
3.0
 43
3.0
 50
1.8E+002
  0
INSERT
  2
_AH1
  8
5
 62
3
 10
1.47213E+002
 20
9.4652494E+001
 41
3.0
 42
3.0
 43
3.0
 50
0.0
  0
TEXT
  8
5
  6
CONTINUOUS
 62
3
 10
1.2770991E+002
 20
9.6153494E+001
 40
3.0
  1
37
 41
7.5E-001
  0
ENDBLK
  0
BLOCK
  2
*D3787
  3
*D
 10
0.0
 20
0.0
 70
65
  0
LINE
  8
5
  6
CONTINUOUS
 62
3
 10
1.61963E+002
 20
1.85464E+002
 11
1.756097E+002
 21
1.85464E+002
  0
LINE
  8
5
  6
CONTINUOUS
 62
3
 10
1.61963E+002
 20
1.53464E+002
 11
1.756097E+002
 21
1.53464E+002
  0
LINE
  8
5
  6
CONTINUOUS
 62
3
 10
1.726097E+002
 20
1.85464E+002
 11
1.726097E+002
 21
1.7034294E+002
  0
LINE
  8
5
  6
CONTINUOUS
 62
3
 10
1.726097E+002
 20
1.53464E+002
 11
1.726097E+002
 21
1.7034294E+002
  0
INSERT
  2
_AH1
  8
5
 62
3
 10
1.726097E+002
 20
1.85464E+002
 41
3.0
 42
3.0
 43
3.0
 50
9.0E+001
  0
INSERT
  2
_AH1
  8
5
 62
3
 10
1.726097E+002
 20
1.53464E+002
 41
3.0
 42
3.0
 43
3.0
 50
2.7E+002
  0
TEXT
  8
5
  6
CONTINUOUS
 62
3
 10
1.711087E+002
 20
1.6809294E+002
 40
3.0
  1
32
 41
7.5E-001
 50
9.0E+001
  0
ENDBLK
  0
BLOCK
  2
*D3788
  3
*D
 10
0.0
 20
0.0
 70
65
  0
LINE
  8
5
  6
CONTINUOUS
 62
3
 10
1.50213E+002
 20
2.24464E+002
 11
1.756097E+002
 21
2.24464E+002
  0
LINE
  8
5
  6
CONTINUOUS
 62
3
 10
1.50213E+002
 20
1.85464E+002
 11
1.756097E+002
 21
1.85464E+002
  0
LINE
  8
5
  6
CONTINUOUS
 62
3
 10
1.726097E+002
 20
2.24464E+002
 11
1.726097E+002
 21
2.0595342E+002
  0
LINE
  8
5
  6
CONTINUOUS
 62
3
 10
1.726097E+002
 20
1.85464E+002
 11
1.726097E+002
 21
2.0595342E+002
  0
INSERT
  2
_AH1
  8
5
 62
3
 10
1.726097E+002
 20
2.24464E+002
 41
3.0
 42
3.0
 43
3.0
 50
9.0E+001
  0
INSERT
  2
_AH1
  8
5
 62
3
 10
1.726097E+002
 20
1.85464E+002
 41
3.0
 42
3.0
 43
3.0
 50
2.7E+002
  0
TEXT
  8
5
  6
CONTINUOUS
 62
3
 10
1.711087E+002
 20
2.0370342E+002
 40
3.0
  1
39
 41
7.5E-001
 50
9.0E+001
  0
ENDBLK
  0
BLOCK
  2
*D3789
  3
*D
 10
0.0
 20
0.0
 70
65
  0
LINE
  8
5
  6
CONTINUOUS
 62
3
 10
1.61963E+002
 20
1.53464E+002
 11
1.756097E+002
 21
1.53464E+002
  0
LINE
  8
5
  6
CONTINUOUS
 62
3
 10
1.50213E+002
 20
1.14464E+002
 11
1.756097E+002
 21
1.14464E+002
  0
LINE
  8
5
  6
CONTINUOUS
 62
3
 10
1.726097E+002
 20
1.53464E+002
 11
1.726097E+002
 21
1.3840364E+002
  0
LINE
  8
5
  6
CONTINUOUS
 62
3
 10
1.726097E+002
 20
1.14464E+002
 11
1.726097E+002
 21
1.3840364E+002
  0
INSERT
  2
_AH1
  8
5
 62
3
 10
1.726097E+002
 20
1.53464E+002
 41
3.0
 42
3.0
 43
3.0
 50
9.0E+001
  0
INSERT
  2
_AH1
  8
5
 62
3
 10
1.726097E+002
 20
1.14464E+002
 41
3.0
 42
3.0
 43
3.0
 50
2.7E+002
  0
TEXT
  8
5
  6
CONTINUOUS
 62
3
 10
1.711087E+002
 20
1.3615364E+002
 40
3.0
  1
39
 41
7.5E-001
 50
9.0E+001
  0
ENDBLK
  0
BLOCK
  2
*D3790
  3
*D
 10
0.0
 20
0.0
 70
65
  0
LINE
  8
5
  6
CONTINUOUS
 62
3
 10
1.47213E+002
 20
2.24464E+002
 11
1.8772461E+002
 21
2.24464E+002
  0
LINE
  8
5
  6
CONTINUOUS
 62
3
 10
1.50213E+002
 20
1.14464E+002
 11
1.8772461E+002
 21
1.14464E+002
  0
LINE
  8
5
  6
CONTINUOUS
 62
3
 10
1.8472461E+002
 20
2.24464E+002
 11
1.8472461E+002
 21
1.6850735E+002
  0
LINE
  8
5
  6
CONTINUOUS
 62
3
 10
1.8472461E+002
 20
1.14464E+002
 11
1.8472461E+002
 21
1.6850735E+002
  0
INSERT
  2
_AH1
  8
5
 62
3
 10
1.8472461E+002
 20
2.24464E+002
 41
3.0
 42
3.0
 43
3.0
 50
9.0E+001
  0
INSERT
  2
_AH1
  8
5
 62
3
 10
1.8472461E+002
 20
1.14464E+002
 41
3.0
 42
3.0
 43
3.0
 50
2.7E+002
  0
TEXT
  8
5
  6
CONTINUOUS
 62
3
 10
1.8322361E+002
 20
1.6513235E+002
 40
3.0
  1
110
 41
7.5E-001
 50
9.0E+001
  0
ENDBLK
  0
BLOCK
  2
*D3791
  3
*D
 10
0.0
 20
0.0
 70
65
  0
LINE
  8
5
  6
CONTINUOUS
 62
3
 10
1.10013E+002
 20
2.72464E+002
 11
9.9564863E+001
 21
2.72464E+002
  0
LINE
  8
5
  6
CONTINUOUS
 62
3
 10
1.12213E+002
 20
2.54464E+002
 11
9.9564863E+001
 21
2.54464E+002
  0
LINE
  8
5
  6
CONTINUOUS
 62
3
 10
1.0256486E+002
 20
2.72464E+002
 11
1.0256486E+002
 21
2.6372091E+002
  0
LINE
  8
5
  6
CONTINUOUS
 62
3
 10
1.0256486E+002
 20
2.54464E+002
 11
1.0256486E+002
 21
2.6372091E+002
  0
INSERT
  2
_AH1
  8
5
 62
3
 10
1.0256486E+002
 20
2.72464E+002
 41
3.0
 42
3.0
 43
3.0
 50
9.0E+001
  0
INSERT
  2
_AH1
  8
5
 62
3
 10
1.0256486E+002
 20
2.54464E+002
 41
3.0
 42
3.0
 43
3.0
 50
2.7E+002
  0
TEXT
  8
5
  6
CONTINUOUS
 62
3
 10
1.0106386E+002
 20
2.6147091E+002
 40
3.0
  1
18
 41
7.5E-001
 50
9.0E+001
  0
ENDBLK
  0
BLOCK
  2
*D3792
  3
*D
 10
0.0
 20
0.0
 70
65
  0
LINE
  8
5
  6
CONTINUOUS
 62
3
 10
1.47213E+002
 20
2.75464E+002
 11
9.132388E+001
 21
2.75464E+002
  0
LINE
  8
5
  6
CONTINUOUS
 62
3
 10
1.39513E+002
 20
2.72464E+002
 11
9.132388E+001
 21
2.72464E+002
  0
LINE
  8
5
  6
CONTINUOUS
 62
3
 10
9.432388E+001
 20
2.75464E+002
 11
9.432388E+001
 21
2.8353425E+002
  0
LINE
  8
5
  6
CONTINUOUS
 62
3
 10
9.432388E+001
 20
2.66464E+002
 11
9.432388E+001
 21
2.75464E+002
  0
INSERT
  2
_AH1
  8
5
 62
3
 10
9.432388E+001
 20
2.75464E+002
 41
3.0
 42
3.0
 43
3.0
 50
2.7E+002
  0
INSERT
  2
_AH1
  8
5
 62
3
 10
9.432388E+001
 20
2.72464E+002
 41
3.0
 42
3.0
 43
3.0
 50
9.0E+001
  0
TEXT
  8
5
  6
CONTINUOUS
 62
3
 10
9.282288E+001
 20
2.7978425E+002
 40
3.0
  1
3
 41
7.5E-001
 50
9.0E+001
  0
ENDBLK
  0
BLOCK
  2
*D3794
  3
*D
 10
0.0
 20
0.0
 70
65
  0
LINE
  8
5
  6
CONTINUOUS
 62
3
 10
1.45213E+002
 20
2.54464E+002
 11
9.1166909E+001
 21
2.54464E+002
  0
LINE
  8
5
  6
CONTINUOUS
 62
3
 10
1.47213E+002
 20
2.51464E+002
 11
9.1166909E+001
 21
2.51464E+002
  0
LINE
  8
5
  6
CONTINUOUS
 62
3
 10
9.4166909E+001
 20
2.60464E+002
 11
9.4166909E+001
 21
2.51464E+002
  0
LINE
  8
5
  6
CONTINUOUS
 62
3
 10
9.4166909E+001
 20
2.51464E+002
 11
9.4166909E+001
 21
2.4367212E+002
  0
INSERT
  2
_AH1
  8
5
 62
3
 10
9.4166909E+001
 20
2.54464E+002
 41
3.0
 42
3.0
 43
3.0
 50
2.7E+002
  0
INSERT
  2
_AH1
  8
5
 62
3
 10
9.4166909E+001
 20
2.51464E+002
 41
3.0
 42
3.0
 43
3.0
 50
9.0E+001
  0
TEXT
  8
5
  6
CONTINUOUS
 62
3
 10
9.2665909E+001
 20
2.4517212E+002
 40
3.0
  1
3
 41
7.5E-001
 50
9.0E+001
  0
ENDBLK
  0
ENDSEC
  0
SECTION
  2
ENTITIES
  0
POLYLINE
  8
T_26397_D_0_000000-_0
  6
CONTINUOUS
 62
2
 66
1
 40
5.0E-001
 41
5.0E-001
 70
0
  0
VERTEX
  8
T_26397_D_0_000000-_0
 42
0.0
 10
1.12213E+002
 20
2.54464E+002
 70
0
  0
VERTEX
  8
T_26397_D_0_000000-_0
 42
0.0
 10
1.45213E+002
 20
2.54464E+002
 70
0
  0
SEQEND
  0
POLYLINE
  8
T_26397_D_0_000000-_0
  6
CONTINUOUS
 62
2
 66
1
 40
5.0E-001
 41
5.0E-001
 70
0
  0
VERTEX
  8
T_26397_D_0_000000-_0
 42
0.0
 10
1.47213E+002
 20
2.56464E+002
 70
0
  0
VERTEX
  8
T_26397_D_0_000000-_0
 42
0.0
 10
1.47213E+002
 20
2.70964E+002
 70
0
  0
SEQEND
  0
POLYLINE
  8
T_26397_D_0_000000-_0
  6
CONTINUOUS
 62
2
 66
1
 40
5.0E-001
 41
5.0E-001
 70
0
  0
VERTEX
  8
T_26397_D_0_000000-_0
 42
0.0
 10
1.47213E+002
 20
2.70964E+002
 70
0
  0
VERTEX
  8
T_26397_D_0_000000-_0
 42
0.0
 10
1.45713E+002
 20
2.70964E+002
 70
0
  0
SEQEND
  0
POLYLINE
  8
T_26397_D_0_000000-_0
  6
CONTINUOUS
 62
2
 66
1
 40
5.0E-001
 41
5.0E-001
 70
0
  0
VERTEX
  8
T_26397_D_0_000000-_0
 42
0.0
 10
1.10213E+002
 20
2.70964E+002
 70
0
  0
VERTEX
  8
T_26397_D_0_000000-_0
 42
0.0
 10
1.10213E+002
 20
2.64664E+002
 70
0
  0
SEQEND
  0
POLYLINE
  8
T_26397_D_0_000000-_0
  6
CONTINUOUS
 62
2
 66
1
 40
5.0E-001
 41
5.0E-001
 70
0
  0
VERTEX
  8
T_26397_D_0_000000-_0
 42
2.5E-001
 10
1.10213E+002
 20
2.64664E+002
 70
0
  0
VERTEX
  8
T_26397_D_0_000000-_0
 42
0.0
 10
1.10213E+002
 20
2.62264E+002
 70
0
  0
SEQEND
  0
POLYLINE
  8
T_26397_D_0_000000-_0
  6
CONTINUOUS
 62
2
 66
1
 40
5.0E-001
 41
5.0E-001
 70
0
  0
VERTEX
  8
T_26397_D_0_000000-_0
 42
0.0
 10
1.10213E+002
 20
2.64664E+002
 70
0
  0
VERTEX
  8
T_26397_D_0_000000-_0
 42
0.0
 10
1.10213E+002
 20
2.62264E+002
 70
0
  0
SEQEND
  0
POLYLINE
  8
T_26397_D_0_000000-_0
  6
CONTINUOUS
 62
2
 66
1
 40
5.0E-001
 41
5.0E-001
 70
0
  0
VERTEX
  8
T_26397_D_0_000000-_0
 42
0.0
 10
1.10213E+002
 20
2.62264E+002
 70
0
  0
VERTEX
  8
T_26397_D_0_000000-_0
 42
0.0
 10
1.10213E+002
 20
2.56464E+002
 70
0
  0
SEQEND
  0
POLYLINE
  8
T_26397_D_0_000000-_0
  6
CONTINUOUS
 62
2
 66
1
 40
5.0E-001
 41
5.0E-001
 70
0
  0
VERTEX
  8
T_26397_D_0_000000-_0
 42
4.1421356E-001
 10
1.45213E+002
 20
2.54464E+002
 70
0
  0
VERTEX
  8
T_26397_D_0_000000-_0
 42
0.0
 10
1.47213E+002
 20
2.56464E+002
 70
0
  0
SEQEND
  0
POLYLINE
  8
T_26397_D_0_000000-_0
  6
CONTINUOUS
 62
2
 66
1
 40
5.0E-001
 41
5.0E-001
 70
0
  0
VERTEX
  8
T_26397_D_0_000000-_0
 42
4.1421356E-001
 10
1.10213E+002
 20
2.56464E+002
 70
0
  0
VERTEX
  8
T_26397_D_0_000000-_0
 42
0.0
 10
1.12213E+002
 20
2.54464E+002
 70
0
  0
SEQEND
  0
LINE
  8
T_26397_D_0_000000-_0
  6
HIDDEN
 62
3
 10
1.12213E+002
 20
2.55964E+002
 11
1.45213E+002
 21
2.55964E+002
  0
LINE
  8
T_26397_D_0_000000-_0
  6
HIDDEN
 62
3
 10
1.45713E+002
 20
2.56464E+002
 11
1.45713E+002
 21
2.70964E+002
  0
LINE
  8
T_26397_D_0_000000-_0
  6
HIDDEN
 62
3
 10
1.11713E+002
 20
2.70964E+002
 11
1.11713E+002
 21
2.56464E+002
  0
POLYLINE
  8
T_26397_D_0_000000-_0
  6
CONTINUOUS
 62
2
 66
1
 40
5.0E-001
 41
5.0E-001
 70
0
  0
VERTEX
  8
T_26397_D_0_000000-_0
 42
0.0
 10
1.45713E+002
 20
2.70964E+002
 70
0
  0
VERTEX
  8
T_26397_D_0_000000-_0
 42
0.0
 10
1.11713E+002
 20
2.70964E+002
 70
0
  0
SEQEND
  0
POLYLINE
  8
T_26397_D_0_000000-_0
  6
CONTINUOUS
 62
2
 66
1
 40
5.0E-001
 41
5.0E-001
 70
0
  0
VERTEX
  8
T_26397_D_0_000000-_0
 42
0.0
 10
1.11713E+002
 20
2.70964E+002
 70
0
  0
VERTEX
  8
T_26397_D_0_000000-_0
 42
0.0
 10
1.10213E+002
 20
2.70964E+002
 70
0
  0
SEQEND
  0
ARC
  8
T_26397_D_0_000000-_0
  6
HIDDEN
 62
3
 10
1.45213E+002
 20
2.56464E+002
 40
5.0E-001
 50
2.7E+002
 51
3.6E+002
  0
ARC
  8
T_26397_D_0_000000-_0
  6
HIDDEN
 62
3
 10
1.12213E+002
 20
2.56464E+002
 40
5.0E-001
 50
1.8E+002
 51
2.7E+002
  0
ARC
  8
2
  6
CENTERLINE
 62
5
 10
1.65713E+002
 20
2.68964E+002
 40
1.5
 50
0.0
 51
9.0E+001
  0
LINE
  8
2
  6
CENTERLINE
 62
5
 10
1.67213E+002
 20
2.67964E+002
 11
1.67213E+002
 21
2.68964E+002
  0
LINE
  8
2
  6
CENTERLINE
 62
5
 10
1.557862E+002
 20
2.565372E+002
 11
1.67213E+002
 21
2.67964E+002
  0
LINE
  8
2
  6
CENTERLINE
 62
5
 10
1.60713E+002
 20
2.70464E+002
 11
1.65713E+002
 21
2.70464E+002
  0
LINE
  8
2
  6
CENTERLINE
 62
5
 10
1.506094E+002
 20
2.56464E+002
 11
1.556094E+002
 21
2.56464E+002
  0
LINE
  8
2
  6
CENTERLINE
 62
5
 10
1.67213E+002
 20
2.67964E+002
 11
1.62213E+002
 21
2.67964E+002
  0
ARC
  8
2
  6
CENTERLINE
 62
5
 10
1.556094E+002
 20
2.56714E+002
 40
2.5E-001
 50
2.7E+002
 51
3.15E+002
  0
POLYLINE
  8
2
  6
CONTINUOUS
 62
2
 66
1
 40
5.0E-001
 41
5.0E-001
 70
0
  0
VERTEX
  8
2
 42
0.0
 10
1.507862E+002
 20
2.565372E+002
 70
0
  0
VERTEX
  8
2
 42
0.0
 10
1.62213E+002
 20
2.67964E+002
 70
0
  0
SEQEND
  0
POLYLINE
  8
2
  6
CONTINUOUS
 62
2
 66
1
 40
5.0E-001
 41
5.0E-001
 70
0
  0
VERTEX
  8
2
 42
0.0
 10
1.62213E+002
 20
2.67964E+002
 70
0
  0
VERTEX
  8
2
 42
0.0
 10
1.62213E+002
 20
2.68964E+002
 70
0
  0
SEQEND
  0
POLYLINE
  8
2
  6
CONTINUOUS
 62
2
 66
1
 40
5.0E-001
 41
5.0E-001
 70
0
  0
VERTEX
  8
2
 42
4.1421356E-001
 10
1.62213E+002
 20
2.68964E+002
 70
0
  0
VERTEX
  8
2
 42
0.0
 10
1.60713E+002
 20
2.70464E+002
 70
0
  0
SEQEND
  0
POLYLINE
  8
2
  6
CONTINUOUS
 62
2
 66
1
 40
5.0E-001
 41
5.0E-001
 70
0
  0
VERTEX
  8
2
 42
0.0
 10
1.50213E+002
 20
2.70464E+002
 70
0
  0
VERTEX
  8
2
 42
0.0
 10
1.60713E+002
 20
2.70464E+002
 70
0
  0
SEQEND
  0
POLYLINE
  8
2
  6
CONTINUOUS
 62
2
 66
1
 40
5.0E-001
 41
5.0E-001
 70
0
  0
VERTEX
  8
2
 42
0.0
 10
1.50213E+002
 20
2.56464E+002
 70
0
  0
VERTEX
  8
2
 42
0.0
 10
1.506094E+002
 20
2.56464E+002
 70
0
  0
SEQEND
  0
POLYLINE
  8
2
  6
CONTINUOUS
 62
2
 66
1
 40
5.0E-001
 41
5.0E-001
 70
0
  0
VERTEX
  8
2
 42
0.0
 10
1.50213E+002
 20
2.67964E+002
 70
0
  0
VERTEX
  8
2
 42
0.0
 10
1.62213E+002
 20
2.67964E+002
 70
0
  0
SEQEND
  0
POLYLINE
  8
2
  6
CONTINUOUS
 62
2
 66
1
 40
5.0E-001
 41
5.0E-001
 70
0
  0
VERTEX
  8
2
 42
1.9891237E-001
 10
1.506094E+002
 20
2.56464E+002
 70
0
  0
VERTEX
  8
2
 42
0.0
 10
1.5078618E+002
 20
2.5653722E+002
 70
0
  0
SEQEND
  0
POLYLINE
  8
3
  6
CONTINUOUS
 62
2
 66
1
 40
5.0E-001
 41
5.0E-001
 70
0
  0
VERTEX
  8
3
 42
0.0
 10
1.47213E+002
 20
2.75464E+002
 70
0
  0
VERTEX
  8
3
 42
0.0
 10
1.47213E+002
 20
2.70564E+002
 70
0
  0
SEQEND
  0
POLYLINE
  8
3
  6
CONTINUOUS
 62
2
 66
1
 40
5.0E-001
 41
5.0E-001
 70
0
  0
VERTEX
  8
3
 42
0.0
 10
1.47213E+002
 20
2.51464E+002
 70
0
  0
VERTEX
  8
3
 42
0.0
 10
1.50213E+002
 20
2.51464E+002
 70
0
  0
SEQEND
  0
POLYLINE
  8
3
  6
CONTINUOUS
 62
2
 66
1
 40
5.0E-001
 41
5.0E-001
 70
0
  0
VERTEX
  8
3
 42
0.0
 10
1.50213E+002
 20
2.51464E+002
 70
0
  0
VERTEX
  8
3
 42
0.0
 10
1.50213E+002
 20
2.56364E+002
 70
0
  0
SEQEND
  0
POLYLINE
  8
3
  6
CONTINUOUS
 62
2
 66
1
 40
5.0E-001
 41
5.0E-001
 70
0
  0
VERTEX
  8
3
 42
0.0
 10
1.50213E+002
 20
2.75464E+002
 70
0
  0
VERTEX
  8
3
 42
0.0
 10
1.47213E+002
 20
2.75464E+002
 70
0
  0
SEQEND
  0
LINE
  8
3
  6
HIDDEN
 62
3
 10
1.47213E+002
 20
2.56364E+002
 11
1.50213E+002
 21
2.56364E+002
  0
LINE
  8
3
  6
HIDDEN
 62
3
 10
1.50213E+002
 20
2.70564E+002
 11
1.47213E+002
 21
2.70564E+002
  0
POLYLINE
  8
3
  6
CONTINUOUS
 62
2
 66
1
 40
5.0E-001
 41
5.0E-001
 70
0
  0
VERTEX
  8
3
 42
0.0
 10
1.47213E+002
 20
2.70564E+002
 70
0
  0
VERTEX
  8
3
 42
0.0
 10
1.47213E+002
 20
2.67864E+002
 70
0
  0
SEQEND
  0
POLYLINE
  8
3
  6
CONTINUOUS
 62
2
 66
1
 40
5.0E-001
 41
5.0E-001
 70
0
  0
VERTEX
  8
3
 42
0.0
 10
1.47213E+002
 20
2.56364E+002
 70
0
  0
VERTEX
  8
3
 42
0.0
 10
1.47213E+002
 20
2.51464E+002
 70
0
  0
SEQEND
  0
POLYLINE
  8
3
  6
CONTINUOUS
 62
2
 66
1
 40
5.0E-001
 41
5.0E-001
 70
0
  0
VERTEX
  8
3
 42
0.0
 10
1.50213E+002
 20
2.56364E+002
 70
0
  0
VERTEX
  8
3
 42
0.0
 10
1.50213E+002
 20
2.59064E+002
 70
0
  0
SEQEND
  0
POLYLINE
  8
3
  6
CONTINUOUS
 62
2
 66
1
 40
5.0E-001
 41
5.0E-001
 70
0
  0
VERTEX
  8
3
 42
0.0
 10
1.50213E+002
 20
2.70564E+002
 70
0
  0
VERTEX
  8
3
 42
0.0
 10
1.50213E+002
 20
2.75464E+002
 70
0
  0
SEQEND
  0
LINE
  8
3
  6
HIDDEN
 62
3
 10
1.50213E+002
 20
2.67864E+002
 11
1.47213E+002
 21
2.67864E+002
  0
POLYLINE
  8
3
  6
CONTINUOUS
 62
2
 66
1
 40
5.0E-001
 41
5.0E-001
 70
0
  0
VERTEX
  8
3
 42
0.0
 10
1.47213E+002
 20
2.67864E+002
 70
0
  0
VERTEX
  8
3
 42
0.0
 10
1.47213E+002
 20
2.59064E+002
 70
0
  0
SEQEND
  0
POLYLINE
  8
3
  6
CONTINUOUS
 62
2
 66
1
 40
5.0E-001
 41
5.0E-001
 70
0
  0
VERTEX
  8
3
 42
0.0
 10
1.47213E+002
 20
2.59064E+002
 70
0
  0
VERTEX
  8
3
 42
0.0
 10
1.47213E+002
 20
2.56364E+002
 70
0
  0
SEQEND
  0
POLYLINE
  8
3
  6
CONTINUOUS
 62
2
 66
1
 40
5.0E-001
 41
5.0E-001
 70
0
  0
VERTEX
  8
3
 42
0.0
 10
1.50213E+002
 20
2.59064E+002
 70
0
  0
VERTEX
  8
3
 42
0.0
 10
1.50213E+002
 20
2.67864E+002
 70
0
  0
SEQEND
  0
POLYLINE
  8
3
  6
CONTINUOUS
 62
2
 66
1
 40
5.0E-001
 41
5.0E-001
 70
0
  0
VERTEX
  8
3
 42
0.0
 10
1.50213E+002
 20
2.67864E+002
 70
0
  0
VERTEX
  8
3
 42
0.0
 10
1.50213E+002
 20
2.70564E+002
 70
0
  0
SEQEND
  0
POLYLINE
  8
4
  6
CONTINUOUS
 62
2
 66
1
 40
5.0E-001
 41
5.0E-001
 70
0
  0
VERTEX
  8
4
 42
0.0
 10
1.10013E+002
 20
2.70964E+002
 70
0
  0
VERTEX
  8
4
 42
0.0
 10
1.25813E+002
 20
2.70964E+002
 70
0
  0
SEQEND
  0
POLYLINE
  8
4
  6
CONTINUOUS
 62
2
 66
1
 40
5.0E-001
 41
5.0E-001
 70
0
  0
VERTEX
  8
4
 42
0.0
 10
1.47013E+002
 20
2.70964E+002
 70
0
  0
VERTEX
  8
4
 42
0.0
 10
1.47013E+002
 20
2.72464E+002
 70
0
  0
SEQEND
  0
POLYLINE
  8
4
  6
CONTINUOUS
 62
2
 66
1
 40
5.0E-001
 41
5.0E-001
 70
0
  0
VERTEX
  8
4
 42
0.0
 10
1.47013E+002
 20
2.72464E+002
 70
0
  0
VERTEX
  8
4
 42
0.0
 10
1.43913E+002
 20
2.72464E+002
 70
0
  0
SEQEND
  0
POLYLINE
  8
4
  6
CONTINUOUS
 62
2
 66
1
 40
5.0E-001
 41
5.0E-001
 70
0
  0
VERTEX
  8
4
 42
0.0
 10
1.10013E+002
 20
2.72464E+002
 70
0
  0
VERTEX
  8
4
 42
0.0
 10
1.10013E+002
 20
2.70964E+002
 70
0
  0
SEQEND
  0
LINE
  8
4
  6
HIDDEN
 62
3
 10
1.17913E+002
 20
2.70964E+002
 11
1.17913E+002
 21
2.72464E+002
  0
POLYLINE
  8
4
  6
CONTINUOUS
 62
2
 66
1
 40
5.0E-001
 41
5.0E-001
 70
0
  0
VERTEX
  8
4
 42
0.0
 10
1.25813E+002
 20
2.70964E+002
 70
0
  0
VERTEX
  8
4
 42
0.0
 10
1.29813E+002
 20
2.70964E+002
 70
0
  0
SEQEND
  0
POLYLINE
  8
4
  6
CONTINUOUS
 62
2
 66
1
 40
5.0E-001
 41
5.0E-001
 70
0
  0
VERTEX
  8
4
 42
0.0
 10
1.31213E+002
 20
2.70964E+002
 70
0
  0
VERTEX
  8
4
 42
0.0
 10
1.31713E+002
 20
2.70964E+002
 70
0
  0
SEQEND
  0
POLYLINE
  8
4
  6
CONTINUOUS
 62
2
 66
1
 40
5.0E-001
 41
5.0E-001
 70
0
  0
VERTEX
  8
4
 42
0.0
 10
1.31213E+002
 20
2.72464E+002
 70
0
  0
VERTEX
  8
4
 42
0.0
 10
1.29813E+002
 20
2.72464E+002
 70
0
  0
SEQEND
  0
POLYLINE
  8
4
  6
CONTINUOUS
 62
2
 66
1
 40
5.0E-001
 41
5.0E-001
 70
0
  0
VERTEX
  8
4
 42
0.0
 10
1.25813E+002
 20
2.72464E+002
 70
0
  0
VERTEX
  8
4
 42
0.0
 10
1.10013E+002
 20
2.72464E+002
 70
0
  0
SEQEND
  0
LINE
  8
4
  6
HIDDEN
 62
3
 10
1.31913E+002
 20
2.70964E+002
 11
1.31913E+002
 21
2.72464E+002
  0
LINE
  8
4
  6
HIDDEN
 62
3
 10
1.30013E+002
 20
2.72464E+002
 11
1.30013E+002
 21
2.70964E+002
  0
POLYLINE
  8
4
  6
CONTINUOUS
 62
2
 66
1
 40
5.0E-001
 41
5.0E-001
 70
0
  0
VERTEX
  8
4
 42
0.0
 10
1.31713E+002
 20
2.72464E+002
 70
0
  0
VERTEX
  8
4
 42
0.0
 10
1.31213E+002
 20
2.72464E+002
 70
0
  0
SEQEND
  0
POLYLINE
  8
4
  6
CONTINUOUS
 62
2
 66
1
 40
5.0E-001
 41
5.0E-001
 70
0
  0
VERTEX
  8
4
 42
0.0
 10
1.29813E+002
 20
2.70964E+002
 70
0
  0
VERTEX
  8
4
 42
0.0
 10
1.31213E+002
 20
2.70964E+002
 70
0
  0
SEQEND
  0
POLYLINE
  8
4
  6
CONTINUOUS
 62
2
 66
1
 40
5.0E-001
 41
5.0E-001
 70
0
  0
VERTEX
  8
4
 42
0.0
 10
1.31713E+002
 20
2.70964E+002
 70
0
  0
VERTEX
  8
4
 42
0.0
 10
1.39513E+002
 20
2.70964E+002
 70
0
  0
SEQEND
  0
POLYLINE
  8
4
  6
CONTINUOUS
 62
2
 66
1
 40
5.0E-001
 41
5.0E-001
 70
0
  0
VERTEX
  8
4
 42
0.0
 10
1.29813E+002
 20
2.72464E+002
 70
0
  0
VERTEX
  8
4
 42
0.0
 10
1.25813E+002
 20
2.72464E+002
 70
0
  0
SEQEND
  0
LINE
  8
4
  6
HIDDEN
 62
3
 10
1.43913E+002
 20
2.70964E+002
 11
1.43913E+002
 21
2.72464E+002
  0
LINE
  8
4
  6
HIDDEN
 62
3
 10
1.39513E+002
 20
2.72464E+002
 11
1.39513E+002
 21
2.70964E+002
  0
POLYLINE
  8
4
  6
CONTINUOUS
 62
2
 66
1
 40
5.0E-001
 41
5.0E-001
 70
0
  0
VERTEX
  8
4
 42
0.0
 10
1.43913E+002
 20
2.72464E+002
 70
0
  0
VERTEX
  8
4
 42
0.0
 10
1.39513E+002
 20
2.72464E+002
 70
0
  0
SEQEND
  0
POLYLINE
  8
4
  6
CONTINUOUS
 62
2
 66
1
 40
5.0E-001
 41
5.0E-001
 70
0
  0
VERTEX
  8
4
 42
0.0
 10
1.39513E+002
 20
2.72464E+002
 70
0
  0
VERTEX
  8
4
 42
0.0
 10
1.31713E+002
 20
2.72464E+002
 70
0
  0
SEQEND
  0
POLYLINE
  8
4
  6
CONTINUOUS
 62
2
 66
1
 40
5.0E-001
 41
5.0E-001
 70
0
  0
VERTEX
  8
4
 42
0.0
 10
1.39513E+002
 20
2.70964E+002
 70
0
  0
VERTEX
  8
4
 42
0.0
 10
1.43913E+002
 20
2.70964E+002
 70
0
  0
SEQEND
  0
POLYLINE
  8
4
  6
CONTINUOUS
 62
2
 66
1
 40
5.0E-001
 41
5.0E-001
 70
0
  0
VERTEX
  8
4
 42
0.0
 10
1.43913E+002
 20
2.70964E+002
 70
0
  0
VERTEX
  8
4
 42
0.0
 10
1.47013E+002
 20
2.70964E+002
 70
0
  0
SEQEND
  0
LINE
  8
4
  6
HIDDEN
 62
3
 10
1.13513E+002
 20
2.70964E+002
 11
1.13513E+002
 21
2.72464E+002
  0
POLYLINE
  8
5
  6
CONTINUOUS
 62
2
 66
1
 40
5.0E-001
 41
5.0E-001
 70
0
  0
VERTEX
  8
5
 42
0.0
 10
1.13013E+002
 20
2.72464E+002
 70
0
  0
VERTEX
  8
5
 42
0.0
 10
1.18413E+002
 20
2.72464E+002
 70
0
  0
SEQEND
  0
POLYLINE
  8
5
  6
CONTINUOUS
 62
2
 66
1
 40
5.0E-001
 41
5.0E-001
 70
0
  0
VERTEX
  8
5
 42
1.8518519E-001
 10
1.18413E+002
 20
2.72464E+002
 70
0
  0
VERTEX
  8
5
 42
0.0
 10
1.13013E+002
 20
2.72464E+002
 70
0
  0
SEQEND
  0
POLYLINE
  8
5
  6
CONTINUOUS
 62
2
 66
1
 40
5.0E-001
 41
5.0E-001
 70
0
  0
VERTEX
  8
5
 42
0.0
 10
1.39013E+002
 20
2.72464E+002
 70
0
  0
VERTEX
  8
5
 42
0.0
 10
1.44413E+002
 20
2.72464E+002
 70
0
  0
SEQEND
  0
POLYLINE
  8
5
  6
CONTINUOUS
 62
2
 66
1
 40
5.0E-001
 41
5.0E-001
 70
0
  0
VERTEX
  8
5
 42
1.8518519E-001
 10
1.44413E+002
 20
2.72464E+002
 70
0
  0
VERTEX
  8
5
 42
0.0
 10
1.39013E+002
 20
2.72464E+002
 70
0
  0
SEQEND
  0
DIMENSION
  8
6
  6
CONTINUOUS
 62
6
  2
*D118
  3
DSTYLE1
 10
1.7452191E+002
 20
2.70464E+002
 11
1.705878E+002
 21
2.7296364E+002
 70
128
 13
1.50213E+002
 23
2.75464E+002
 14
1.65713E+002
 24
2.70464E+002
 40
0.0
 50
9.0E+001
1001
ACAD
1000
DSTYLE
1002
{
1070
173
1070
0
1070
5
1000
_AH13
1002
}
  0
DIMENSION
  8
6
  6
CONTINUOUS
 62
6
  2
*D119
  3
DSTYLE2
 10
1.8567779E+002
 20
2.70464E+002
 11
1.7958757E+002
 21
2.6346364E+002
 70
128
 13
1.55609E+002
 23
2.56464E+002
 14
1.65713E+002
 24
2.70464E+002
 40
0.0
 50
9.0E+001
1001
ACAD
1000
DSTYLE
1002
{
1070
173
1070
0
1070
5
1000
_AH13
1002
}
  0
DIMENSION
  8
6
  6
CONTINUOUS
 62
6
  2
*D120
  3
DSTYLE3
 10
1.62213E+002
 20
2.47463E+002
 11
1.56213E+002
 21
2.50089E+002
 70
128
 13
1.50213E+002
 23
2.51464E+002
 14
1.62213E+002
 24
2.67964E+002
 40
0.0
 50
0.0
1001
ACAD
1000
DSTYLE
1002
{
1070
173
1070
0
1070
5
1000
_AH13
1002
}
  0
DIMENSION
  8
6
  6
CONTINUOUS
 62
6
  2
*D121
  3
DSTYLE3
 10
1.67213E+002
 20
2.38463E+002
 11
1.58713E+002
 21
2.41089E+002
 70
128
 13
1.50213E+002
 23
2.51464E+002
 14
1.67213E+002
 24
2.67964E+002
 40
0.0
 50
0.0
1001
ACAD
1000
DSTYLE
1002
{
1070
173
1070
0
1070
5
1000
_AH13
1002
}
  0
TEXT
  8
6
  6
CONTINUOUS
 62
6
 10
8.2213E+001
 20
2.35964E+002
 40
3.5
  1
Verstellung von  5 mm
 41
5.2721088E-001
 51
-2.104591E-004
  0
TEXT
  8
6
  6
CONTINUOUS
 62
6
 10
8.2213E+001
 20
2.30714E+002
 40
3.5
  1
(12 - 17 mm) stufenlos
 41
5.1623377E-001
 51
-2.104591E-004
  0
TEXT
  8
6
  6
CONTINUOUS
 62
6
 10
8.2213E+001
 20
2.25464E+002
 40
3.5
  1
von Gehaeuserueckwand
 41
5.7482993E-001
 51
-2.104591E-004
  0
TEXT
  8
6
  6
CONTINUOUS
 62
6
 10
8.2213E+001
 20
2.20214E+002
 40
3.5
  1
moeglich.
 41
5.1587302E-001
 51
-2.104591E-004
  0
LINE
  8
6
  6
CONTINUOUS
 62
6
 10
7.9557E+001
 20
2.17546E+002
 11
1.28532E+002
 21
2.17546E+002
  0
LINE
  8
6
  6
CONTINUOUS
 62
6
 10
1.53545E+002
 20
2.44642E+002
 11
1.5162449E+002
 21
2.4165163E+002
  0
LINE
  8
6
  6
CONTINUOUS
 62
6
 10
1.53545E+002
 20
2.44642E+002
 11
1.5071772E+002
 21
2.424886E+002
  0
LINE
  8
6
  6
CONTINUOUS
 62
6
 10
1.5162449E+002
 20
2.4165163E+002
 11
1.5071772E+002
 21
2.424886E+002
  0
LINE
  8
6
  6
CONTINUOUS
 62
6
 10
1.5275354E+002
 20
2.4378453E+002
 11
1.5147336E+002
 21
2.4179112E+002
  0
LINE
  8
6
  6
CONTINUOUS
 62
6
 10
1.5275354E+002
 20
2.4378453E+002
 11
1.5086885E+002
 21
2.423491E+002
  0
LINE
  8
6
  6
CONTINUOUS
 62
6
 10
1.5196232E+002
 20
2.4292732E+002
 11
1.5132217E+002
 21
2.4193067E+002
  0
LINE
  8
6
  6
CONTINUOUS
 62
6
 10
1.5196232E+002
 20
2.4292732E+002
 11
1.5102003E+002
 21
2.4220955E+002
  0
LINE
  8
6
  6
CONTINUOUS
 62
6
 10
1.53545E+002
 20
2.44642E+002
 11
1.51171E+002
 21
2.4207E+002
  0
LINE
  8
6
  6
CONTINUOUS
 62
6
 10
1.53545E+002
 20
2.44642E+002
 11
1.28532E+002
 21
2.17546E+002
  0
LINE
  8
7
  6
HIDDEN
 62
3
 10
1.10213E+002
 20
1.39464E+002
 11
1.132652E+002
 21
1.39464E+002
  0
LINE
  8
7
  6
HIDDEN
 62
3
 10
1.132652E+002
 20
1.39464E+002
 11
1.13513E+002
 21
1.39464E+002
  0
LINE
  8
7
  6
HIDDEN
 62
3
 10
1.13513E+002
 20
1.39464E+002
 11
1.17913E+002
 21
1.39464E+002
  0
LINE
  8
7
  6
HIDDEN
 62
3
 10
1.17913E+002
 20
1.39464E+002
 11
1.181608E+002
 21
1.39464E+002
  0
LINE
  8
7
  6
HIDDEN
 62
3
 10
1.181608E+002
 20
1.39464E+002
 11
1.392652E+002
 21
1.39464E+002
  0
LINE
  8
7
  6
HIDDEN
 62
3
 10
1.392652E+002
 20
1.39464E+002
 11
1.39513E+002
 21
1.39464E+002
  0
LINE
  8
7
  6
HIDDEN
 62
3
 10
1.39513E+002
 20
1.39464E+002
 11
1.43913E+002
 21
1.39464E+002
  0
LINE
  8
7
  6
HIDDEN
 62
3
 10
1.43913E+002
 20
1.39464E+002
 11
1.441608E+002
 21
1.39464E+002
  0
LINE
  8
7
  6
HIDDEN
 62
3
 10
1.441608E+002
 20
1.39464E+002
 11
1.47013E+002
 21
1.39464E+002
  0
POLYLINE
  8
7
  6
CONTINUOUS
 62
2
 66
1
 40
5.0E-001
 41
5.0E-001
 70
0
  0
VERTEX
  8
7
 42
0.0
 10
1.47013E+002
 20
1.39464E+002
 70
0
  0
VERTEX
  8
7
 42
0.0
 10
1.47213E+002
 20
1.39464E+002
 70
0
  0
SEQEND
  0
LINE
  8
7
  6
HIDDEN
 62
3
 10
1.10213E+002
 20
1.39464E+002
 11
1.10213E+002
 21
1.99464E+002
  0
LINE
  8
7
  6
HIDDEN
 62
3
 10
1.10213E+002
 20
1.99464E+002
 11
1.132652E+002
 21
1.99464E+002
  0
LINE
  8
7
  6
HIDDEN
 62
3
 10
1.132652E+002
 20
1.99464E+002
 11
1.13513E+002
 21
1.99464E+002
  0
LINE
  8
7
  6
HIDDEN
 62
3
 10
1.13513E+002
 20
1.99464E+002
 11
1.17913E+002
 21
1.99464E+002
  0
LINE
  8
7
  6
HIDDEN
 62
3
 10
1.17913E+002
 20
1.99464E+002
 11
1.181608E+002
 21
1.99464E+002
  0
LINE
  8
7
  6
HIDDEN
 62
3
 10
1.181608E+002
 20
1.99464E+002
 11
1.392652E+002
 21
1.99464E+002
  0
LINE
  8
7
  6
HIDDEN
 62
3
 10
1.392652E+002
 20
1.99464E+002
 11
1.39513E+002
 21
1.99464E+002
  0
LINE
  8
7
  6
HIDDEN
 62
3
 10
1.39513E+002
 20
1.99464E+002
 11
1.43913E+002
 21
1.99464E+002
  0
LINE
  8
7
  6
HIDDEN
 62
3
 10
1.43913E+002
 20
1.99464E+002
 11
1.441608E+002
 21
1.99464E+002
  0
LINE
  8
7
  6
HIDDEN
 62
3
 10
1.441608E+002
 20
1.99464E+002
 11
1.47013E+002
 21
1.99464E+002
  0
POLYLINE
  8
7
  6
CONTINUOUS
 62
2
 66
1
 40
5.0E-001
 41
5.0E-001
 70
0
  0
VERTEX
  8
7
 42
0.0
 10
1.47013E+002
 20
1.99464E+002
 70
0
  0
VERTEX
  8
7
 42
0.0
 10
1.47213E+002
 20
1.99464E+002
 70
0
  0
SEQEND
  0
LINE
  8
7
  6
HIDDEN
 62
3
 10
1.47213E+002
 20
1.39464E+002
 11
1.47213E+002
 21
1.44214E+002
  0
LINE
  8
7
  6
HIDDEN
 62
3
 10
1.47213E+002
 20
1.44214E+002
 11
1.47213E+002
 21
1.48714E+002
  0
LINE
  8
7
  6
HIDDEN
 62
3
 10
1.47213E+002
 20
1.48714E+002
 11
1.47213E+002
 21
1.53364E+002
  0
LINE
  8
7
  6
HIDDEN
 62
3
 10
1.47213E+002
 20
1.53364E+002
 11
1.47213E+002
 21
1.56364E+002
  0
LINE
  8
7
  6
HIDDEN
 62
3
 10
1.47213E+002
 20
1.56364E+002
 11
1.47213E+002
 21
1.82564E+002
  0
LINE
  8
7
  6
HIDDEN
 62
3
 10
1.47213E+002
 20
1.82564E+002
 11
1.47213E+002
 21
1.85564E+002
  0
LINE
  8
7
  6
HIDDEN
 62
3
 10
1.47213E+002
 20
1.85564E+002
 11
1.47213E+002
 21
1.90214E+002
  0
LINE
  8
7
  6
HIDDEN
 62
3
 10
1.47213E+002
 20
1.90214E+002
 11
1.47213E+002
 21
1.94714E+002
  0
LINE
  8
7
  6
HIDDEN
 62
3
 10
1.47213E+002
 20
1.94714E+002
 11
1.47213E+002
 21
1.99464E+002
  0
LINE
  8
7
  6
HIDDEN
 62
3
 10
1.11713E+002
 20
1.40964E+002
 11
1.132652E+002
 21
1.40964E+002
  0
LINE
  8
7
  6
HIDDEN
 62
3
 10
1.132652E+002
 20
1.40964E+002
 11
1.13513E+002
 21
1.40964E+002
  0
LINE
  8
7
  6
HIDDEN
 62
3
 10
1.13513E+002
 20
1.40964E+002
 11
1.17913E+002
 21
1.40964E+002
  0
LINE
  8
7
  6
HIDDEN
 62
3
 10
1.17913E+002
 20
1.40964E+002
 11
1.181608E+002
 21
1.40964E+002
  0
LINE
  8
7
  6
HIDDEN
 62
3
 10
1.181608E+002
 20
1.40964E+002
 11
1.392652E+002
 21
1.40964E+002
  0
LINE
  8
7
  6
HIDDEN
 62
3
 10
1.392652E+002
 20
1.40964E+002
 11
1.39513E+002
 21
1.40964E+002
  0
LINE
  8
7
  6
HIDDEN
 62
3
 10
1.39513E+002
 20
1.40964E+002
 11
1.43913E+002
 21
1.40964E+002
  0
LINE
  8
7
  6
HIDDEN
 62
3
 10
1.43913E+002
 20
1.40964E+002
 11
1.441608E+002
 21
1.40964E+002
  0
LINE
  8
7
  6
HIDDEN
 62
3
 10
1.441608E+002
 20
1.40964E+002
 11
1.45713E+002
 21
1.40964E+002
  0
LINE
  8
7
  6
HIDDEN
 62
3
 10
1.11713E+002
 20
1.40964E+002
 11
1.11713E+002
 21
1.97964E+002
  0
LINE
  8
7
  6
HIDDEN
 62
3
 10
1.11713E+002
 20
1.97964E+002
 11
1.132651E+002
 21
1.97964E+002
  0
LINE
  8
7
  6
HIDDEN
 62
3
 10
1.132651E+002
 20
1.97964E+002
 11
1.13513E+002
 21
1.97964E+002
  0
LINE
  8
7
  6
HIDDEN
 62
3
 10
1.13513E+002
 20
1.97964E+002
 11
1.17913E+002
 21
1.97964E+002
  0
LINE
  8
7
  6
HIDDEN
 62
3
 10
1.17913E+002
 20
1.97964E+002
 11
1.181609E+002
 21
1.97964E+002
  0
LINE
  8
7
  6
HIDDEN
 62
3
 10
1.181609E+002
 20
1.97964E+002
 11
1.392651E+002
 21
1.97964E+002
  0
LINE
  8
7
  6
HIDDEN
 62
3
 10
1.392651E+002
 20
1.97964E+002
 11
1.39513E+002
 21
1.97964E+002
  0
LINE
  8
7
  6
HIDDEN
 62
3
 10
1.39513E+002
 20
1.97964E+002
 11
1.43913E+002
 21
1.97964E+002
  0
LINE
  8
7
  6
HIDDEN
 62
3
 10
1.43913E+002
 20
1.97964E+002
 11
1.441609E+002
 21
1.97964E+002
  0
LINE
  8
7
  6
HIDDEN
 62
3
 10
1.441609E+002
 20
1.97964E+002
 11
1.45713E+002
 21
1.97964E+002
  0
LINE
  8
7
  6
HIDDEN
 62
3
 10
1.45713E+002
 20
1.40964E+002
 11
1.45713E+002
 21
1.97964E+002
  0
POLYLINE
  8
8
  6
CONTINUOUS
 62
2
 66
1
 40
5.0E-001
 41
5.0E-001
 70
0
  0
VERTEX
  8
8
 42
0.0
 10
1.50213E+002
 20
1.53464E+002
 70
0
  0
VERTEX
  8
8
 42
0.0
 10
1.61963E+002
 20
1.53464E+002
 70
0
  0
SEQEND
  0
POLYLINE
  8
8
  6
CONTINUOUS
 62
2
 66
1
 40
5.0E-001
 41
5.0E-001
 70
0
  0
VERTEX
  8
8
 42
0.0
 10
1.62213E+002
 20
1.53714E+002
 70
0
  0
VERTEX
  8
8
 42
0.0
 10
1.62213E+002
 20
1.56464E+002
 70
0
  0
SEQEND
  0
POLYLINE
  8
8
  6
CONTINUOUS
 62
2
 66
1
 40
5.0E-001
 41
5.0E-001
 70
0
  0
VERTEX
  8
8
 42
0.0
 10
1.61963E+002
 20
1.85464E+002
 70
0
  0
VERTEX
  8
8
 42
0.0
 10
1.50213E+002
 20
1.85464E+002
 70
0
  0
SEQEND
  0
POLYLINE
  8
8
  6
CONTINUOUS
 62
2
 66
1
 40
5.0E-001
 41
5.0E-001
 70
0
  0
VERTEX
  8
8
 42
0.0
 10
1.50213E+002
 20
1.85464E+002
 70
0
  0
VERTEX
  8
8
 42
0.0
 10
1.50213E+002
 20
1.82464E+002
 70
0
  0
SEQEND
  0
POLYLINE
  8
8
  6
CONTINUOUS
 62
2
 66
1
 40
5.0E-001
 41
5.0E-001
 70
0
  0
VERTEX
  8
8
 42
4.1421356E-001
 10
1.62213E+002
 20
1.85214E+002
 70
0
  0
VERTEX
  8
8
 42
0.0
 10
1.61963E+002
 20
1.85464E+002
 70
0
  0
SEQEND
  0
POLYLINE
  8
8
  6
CONTINUOUS
 62
2
 66
1
 40
5.0E-001
 41
5.0E-001
 70
0
  0
VERTEX
  8
8
 42
4.1421356E-001
 10
1.61963E+002
 20
1.53464E+002
 70
0
  0
VERTEX
  8
8
 42
0.0
 10
1.62213E+002
 20
1.53714E+002
 70
0
  0
SEQEND
  0
LINE
  8
8
  6
HIDDEN
 62
3
 10
1.50213E+002
 20
1.56464E+002
 11
1.62213E+002
 21
1.56464E+002
  0
LINE
  8
8
  6
HIDDEN
 62
3
 10
1.62213E+002
 20
1.82464E+002
 11
1.50213E+002
 21
1.82464E+002
  0
POLYLINE
  8
8
  6
CONTINUOUS
 62
2
 66
1
 40
5.0E-001
 41
5.0E-001
 70
0
  0
VERTEX
  8
8
 42
0.0
 10
1.62213E+002
 20
1.56464E+002
 70
0
  0
VERTEX
  8
8
 42
0.0
 10
1.62213E+002
 20
1.82464E+002
 70
0
  0
SEQEND
  0
POLYLINE
  8
8
  6
CONTINUOUS
 62
2
 66
1
 40
5.0E-001
 41
5.0E-001
 70
0
  0
VERTEX
  8
8
 42
0.0
 10
1.62213E+002
 20
1.82464E+002
 70
0
  0
VERTEX
  8
8
 42
0.0
 10
1.62213E+002
 20
1.85214E+002
 70
0
  0
SEQEND
  0
POLYLINE
  8
8
  6
CONTINUOUS
 62
2
 66
1
 40
5.0E-001
 41
5.0E-001
 70
0
  0
VERTEX
  8
8
 42
0.0
 10
1.50213E+002
 20
1.82464E+002
 70
0
  0
VERTEX
  8
8
 42
0.0
 10
1.50213E+002
 20
1.56464E+002
 70
0
  0
SEQEND
  0
POLYLINE
  8
8
  6
CONTINUOUS
 62
2
 66
1
 40
5.0E-001
 41
5.0E-001
 70
0
  0
VERTEX
  8
8
 42
0.0
 10
1.50213E+002
 20
1.56464E+002
 70
0
  0
VERTEX
  8
8
 42
0.0
 10
1.50213E+002
 20
1.53464E+002
 70
0
  0
SEQEND
  0
POLYLINE
  8
9
  6
CONTINUOUS
 62
2
 66
1
 40
5.0E-001
 41
5.0E-001
 70
0
  0
VERTEX
  8
9
 42
0.0
 10
1.47213E+002
 20
1.14464E+002
 70
0
  0
VERTEX
  8
9
 42
0.0
 10
1.50213E+002
 20
1.14464E+002
 70
0
  0
SEQEND
  0
POLYLINE
  8
9
  6
CONTINUOUS
 62
2
 66
1
 40
5.0E-001
 41
5.0E-001
 70
0
  0
VERTEX
  8
9
 42
0.0
 10
1.50213E+002
 20
1.14464E+002
 70
0
  0
VERTEX
  8
9
 42
0.0
 10
1.50213E+002
 20
1.16264E+002
 70
0
  0
SEQEND
  0
POLYLINE
  8
9
  6
CONTINUOUS
 62
2
 66
1
 40
5.0E-001
 41
5.0E-001
 70
0
  0
VERTEX
  8
9
 42
0.0
 10
1.50213E+002
 20
2.24464E+002
 70
0
  0
VERTEX
  8
9
 42
0.0
 10
1.47213E+002
 20
2.24464E+002
 70
0
  0
SEQEND
  0
POLYLINE
  8
9
  6
CONTINUOUS
 62
2
 66
1
 40
5.0E-001
 41
5.0E-001
 70
0
  0
VERTEX
  8
9
 42
0.0
 10
1.47213E+002
 20
2.24464E+002
 70
0
  0
VERTEX
  8
9
 42
0.0
 10
1.47213E+002
 20
2.20214E+002
 70
0
  0
SEQEND
  0
LINE
  8
9
  6
HIDDEN
 62
3
 10
1.50213E+002
 20
2.22664E+002
 11
1.47763E+002
 21
2.20214E+002
  0
LINE
  8
9
  6
HIDDEN
 62
3
 10
1.47763E+002
 20
2.20214E+002
 11
1.47213E+002
 21
2.20214E+002
  0
LINE
  8
9
  6
HIDDEN
 62
3
 10
1.47213E+002
 20
2.14714E+002
 11
1.47763E+002
 21
2.14714E+002
  0
LINE
  8
9
  6
HIDDEN
 62
3
 10
1.47763E+002
 20
2.14714E+002
 11
1.50213E+002
 21
2.12264E+002
  0
LINE
  8
9
  6
HIDDEN
 62
3
 10
1.47763E+002
 20
2.20214E+002
 11
1.47763E+002
 21
2.14714E+002
  0
POLYLINE
  8
9
  6
CONTINUOUS
 62
2
 66
1
 40
5.0E-001
 41
5.0E-001
 70
0
  0
VERTEX
  8
9
 42
0.0
 10
1.50213E+002
 20
2.12264E+002
 70
0
  0
VERTEX
  8
9
 42
0.0
 10
1.50213E+002
 20
2.22664E+002
 70
0
  0
SEQEND
  0
POLYLINE
  8
9
  6
CONTINUOUS
 62
2
 66
1
 40
5.0E-001
 41
5.0E-001
 70
0
  0
VERTEX
  8
9
 42
0.0
 10
1.50213E+002
 20
2.22664E+002
 70
0
  0
VERTEX
  8
9
 42
0.0
 10
1.50213E+002
 20
2.24464E+002
 70
0
  0
SEQEND
  0
POLYLINE
  8
9
  6
CONTINUOUS
 62
2
 66
1
 40
5.0E-001
 41
5.0E-001
 70
0
  0
VERTEX
  8
9
 42
0.0
 10
1.47213E+002
 20
2.20214E+002
 70
0
  0
VERTEX
  8
9
 42
0.0
 10
1.47213E+002
 20
2.14714E+002
 70
0
  0
SEQEND
  0
POLYLINE
  8
9
  6
CONTINUOUS
 62
2
 66
1
 40
5.0E-001
 41
5.0E-001
 70
0
  0
VERTEX
  8
9
 42
0.0
 10
1.47213E+002
 20
2.14714E+002
 70
0
  0
VERTEX
  8
9
 42
0.0
 10
1.47213E+002
 20
1.94714E+002
 70
0
  0
SEQEND
  0
LINE
  8
9
  6
HIDDEN
 62
3
 10
1.50213E+002
 20
1.26664E+002
 11
1.47763E+002
 21
1.24214E+002
  0
LINE
  8
9
  6
HIDDEN
 62
3
 10
1.47763E+002
 20
1.24214E+002
 11
1.47213E+002
 21
1.24214E+002
  0
LINE
  8
9
  6
HIDDEN
 62
3
 10
1.47213E+002
 20
1.18714E+002
 11
1.47763E+002
 21
1.18714E+002
  0
LINE
  8
9
  6
HIDDEN
 62
3
 10
1.47763E+002
 20
1.18714E+002
 11
1.50213E+002
 21
1.16264E+002
  0
LINE
  8
9
  6
HIDDEN
 62
3
 10
1.47763E+002
 20
1.24214E+002
 11
1.47763E+002
 21
1.18714E+002
  0
POLYLINE
  8
9
  6
CONTINUOUS
 62
2
 66
1
 40
5.0E-001
 41
5.0E-001
 70
0
  0
VERTEX
  8
9
 42
0.0
 10
1.50213E+002
 20
1.16264E+002
 70
0
  0
VERTEX
  8
9
 42
0.0
 10
1.50213E+002
 20
1.26664E+002
 70
0
  0
SEQEND
  0
POLYLINE
  8
9
  6
CONTINUOUS
 62
2
 66
1
 40
5.0E-001
 41
5.0E-001
 70
0
  0
VERTEX
  8
9
 42
0.0
 10
1.50213E+002
 20
1.26664E+002
 70
0
  0
VERTEX
  8
9
 42
0.0
 10
1.50213E+002
 20
1.42164E+002
 70
0
  0
SEQEND
  0
POLYLINE
  8
9
  6
CONTINUOUS
 62
2
 66
1
 40
5.0E-001
 41
5.0E-001
 70
0
  0
VERTEX
  8
9
 42
0.0
 10
1.47213E+002
 20
1.24214E+002
 70
0
  0
VERTEX
  8
9
 42
0.0
 10
1.47213E+002
 20
1.18714E+002
 70
0
  0
SEQEND
  0
POLYLINE
  8
9
  6
CONTINUOUS
 62
2
 66
1
 40
5.0E-001
 41
5.0E-001
 70
0
  0
VERTEX
  8
9
 42
0.0
 10
1.47213E+002
 20
1.18714E+002
 70
0
  0
VERTEX
  8
9
 42
0.0
 10
1.47213E+002
 20
1.14464E+002
 70
0
  0
SEQEND
  0
LINE
  8
9
  6
HIDDEN
 62
3
 10
1.50213E+002
 20
1.96764E+002
 11
1.48163E+002
 21
1.94714E+002
  0
LINE
  8
9
  6
HIDDEN
 62
3
 10
1.48163E+002
 20
1.94714E+002
 11
1.47213E+002
 21
1.94714E+002
  0
LINE
  8
9
  6
HIDDEN
 62
3
 10
1.47213E+002
 20
1.90214E+002
 11
1.48163E+002
 21
1.90214E+002
  0
LINE
  8
9
  6
HIDDEN
 62
3
 10
1.48163E+002
 20
1.90214E+002
 11
1.50213E+002
 21
1.88164E+002
  0
LINE
  8
9
  6
HIDDEN
 62
3
 10
1.48163E+002
 20
1.94714E+002
 11
1.48163E+002
 21
1.90214E+002
  0
POLYLINE
  8
9
  6
CONTINUOUS
 62
2
 66
1
 40
5.0E-001
 41
5.0E-001
 70
0
  0
VERTEX
  8
9
 42
0.0
 10
1.47213E+002
 20
1.94714E+002
 70
0
  0
VERTEX
  8
9
 42
0.0
 10
1.47213E+002
 20
1.90214E+002
 70
0
  0
SEQEND
  0
POLYLINE
  8
9
  6
CONTINUOUS
 62
2
 66
1
 40
5.0E-001
 41
5.0E-001
 70
0
  0
VERTEX
  8
9
 42
0.0
 10
1.47213E+002
 20
1.90214E+002
 70
0
  0
VERTEX
  8
9
 42
0.0
 10
1.47213E+002
 20
1.85564E+002
 70
0
  0
SEQEND
  0
POLYLINE
  8
9
  6
CONTINUOUS
 62
2
 66
1
 40
5.0E-001
 41
5.0E-001
 70
0
  0
VERTEX
  8
9
 42
0.0
 10
1.50213E+002
 20
1.88164E+002
 70
0
  0
VERTEX
  8
9
 42
0.0
 10
1.50213E+002
 20
1.96764E+002
 70
0
  0
SEQEND
  0
POLYLINE
  8
9
  6
CONTINUOUS
 62
2
 66
1
 40
5.0E-001
 41
5.0E-001
 70
0
  0
VERTEX
  8
9
 42
0.0
 10
1.50213E+002
 20
1.96764E+002
 70
0
  0
VERTEX
  8
9
 42
0.0
 10
1.50213E+002
 20
2.12264E+002
 70
0
  0
SEQEND
  0
LINE
  8
9
  6
HIDDEN
 62
3
 10
1.50213E+002
 20
1.50764E+002
 11
1.48163E+002
 21
1.48714E+002
  0
LINE
  8
9
  6
HIDDEN
 62
3
 10
1.48163E+002
 20
1.48714E+002
 11
1.47213E+002
 21
1.48714E+002
  0
LINE
  8
9
  6
HIDDEN
 62
3
 10
1.47213E+002
 20
1.44214E+002
 11
1.48163E+002
 21
1.44214E+002
  0
LINE
  8
9
  6
HIDDEN
 62
3
 10
1.48163E+002
 20
1.44214E+002
 11
1.50213E+002
 21
1.42164E+002
  0
LINE
  8
9
  6
HIDDEN
 62
3
 10
1.48163E+002
 20
1.48714E+002
 11
1.48163E+002
 21
1.44214E+002
  0
POLYLINE
  8
9
  6
CONTINUOUS
 62
2
 66
1
 40
5.0E-001
 41
5.0E-001
 70
0
  0
VERTEX
  8
9
 42
0.0
 10
1.50213E+002
 20
1.42164E+002
 70
0
  0
VERTEX
  8
9
 42
0.0
 10
1.50213E+002
 20
1.50764E+002
 70
0
  0
SEQEND
  0
POLYLINE
  8
9
  6
CONTINUOUS
 62
2
 66
1
 40
5.0E-001
 41
5.0E-001
 70
0
  0
VERTEX
  8
9
 42
0.0
 10
1.50213E+002
 20
1.50764E+002
 70
0
  0
VERTEX
  8
9
 42
0.0
 10
1.50213E+002
 20
1.53364E+002
 70
0
  0
SEQEND
  0
POLYLINE
  8
9
  6
CONTINUOUS
 62
2
 66
1
 40
5.0E-001
 41
5.0E-001
 70
0
  0
VERTEX
  8
9
 42
0.0
 10
1.47213E+002
 20
1.48714E+002
 70
0
  0
VERTEX
  8
9
 42
0.0
 10
1.47213E+002
 20
1.44214E+002
 70
0
  0
SEQEND
  0
POLYLINE
  8
9
  6
CONTINUOUS
 62
2
 66
1
 40
5.0E-001
 41
5.0E-001
 70
0
  0
VERTEX
  8
9
 42
0.0
 10
1.47213E+002
 20
1.44214E+002
 70
0
  0
VERTEX
  8
9
 42
0.0
 10
1.47213E+002
 20
1.24214E+002
 70
0
  0
SEQEND
  0
LINE
  8
9
  6
HIDDEN
 62
3
 10
1.47213E+002
 20
1.53364E+002
 11
1.50213E+002
 21
1.53364E+002
  0
LINE
  8
9
  6
HIDDEN
 62
3
 10
1.50213E+002
 20
1.85564E+002
 11
1.47213E+002
 21
1.85564E+002
  0
POLYLINE
  8
9
  6
CONTINUOUS
 62
2
 66
1
 40
5.0E-001
 41
5.0E-001
 70
0
  0
VERTEX
  8
9
 42
0.0
 10
1.47213E+002
 20
1.85564E+002
 70
0
  0
VERTEX
  8
9
 42
0.0
 10
1.47213E+002
 20
1.82564E+002
 70
0
  0
SEQEND
  0
POLYLINE
  8
9
  6
CONTINUOUS
 62
2
 66
1
 40
5.0E-001
 41
5.0E-001
 70
0
  0
VERTEX
  8
9
 42
0.0
 10
1.47213E+002
 20
1.53364E+002
 70
0
  0
VERTEX
  8
9
 42
0.0
 10
1.47213E+002
 20
1.48714E+002
 70
0
  0
SEQEND
  0
POLYLINE
  8
9
  6
CONTINUOUS
 62
2
 66
1
 40
5.0E-001
 41
5.0E-001
 70
0
  0
VERTEX
  8
9
 42
0.0
 10
1.50213E+002
 20
1.53364E+002
 70
0
  0
VERTEX
  8
9
 42
0.0
 10
1.50213E+002
 20
1.56364E+002
 70
0
  0
SEQEND
  0
POLYLINE
  8
9
  6
CONTINUOUS
 62
2
 66
1
 40
5.0E-001
 41
5.0E-001
 70
0
  0
VERTEX
  8
9
 42
0.0
 10
1.50213E+002
 20
1.85564E+002
 70
0
  0
VERTEX
  8
9
 42
0.0
 10
1.50213E+002
 20
1.88164E+002
 70
0
  0
SEQEND
  0
LINE
  8
9
  6
HIDDEN
 62
3
 10
1.47213E+002
 20
1.56364E+002
 11
1.50213E+002
 21
1.56364E+002
  0
LINE
  8
9
  6
HIDDEN
 62
3
 10
1.50213E+002
 20
1.82564E+002
 11
1.47213E+002
 21
1.82564E+002
  0
POLYLINE
  8
9
  6
CONTINUOUS
 62
2
 66
1
 40
5.0E-001
 41
5.0E-001
 70
0
  0
VERTEX
  8
9
 42
0.0
 10
1.47213E+002
 20
1.82564E+002
 70
0
  0
VERTEX
  8
9
 42
0.0
 10
1.47213E+002
 20
1.56364E+002
 70
0
  0
SEQEND
  0
POLYLINE
  8
9
  6
CONTINUOUS
 62
2
 66
1
 40
5.0E-001
 41
5.0E-001
 70
0
  0
VERTEX
  8
9
 42
0.0
 10
1.47213E+002
 20
1.56364E+002
 70
0
  0
VERTEX
  8
9
 42
0.0
 10
1.47213E+002
 20
1.53364E+002
 70
0
  0
SEQEND
  0
POLYLINE
  8
9
  6
CONTINUOUS
 62
2
 66
1
 40
5.0E-001
 41
5.0E-001
 70
0
  0
VERTEX
  8
9
 42
0.0
 10
1.50213E+002
 20
1.56364E+002
 70
0
  0
VERTEX
  8
9
 42
0.0
 10
1.50213E+002
 20
1.82564E+002
 70
0
  0
SEQEND
  0
POLYLINE
  8
9
  6
CONTINUOUS
 62
2
 66
1
 40
5.0E-001
 41
5.0E-001
 70
0
  0
VERTEX
  8
9
 42
0.0
 10
1.50213E+002
 20
1.82564E+002
 70
0
  0
VERTEX
  8
9
 42
0.0
 10
1.50213E+002
 20
1.85564E+002
 70
0
  0
SEQEND
  0
POLYLINE
  8
10
  6
CONTINUOUS
 62
2
 66
1
 40
5.0E-001
 41
5.0E-001
 70
0
  0
VERTEX
  8
10
 42
0.0
 10
1.11013E+002
 20
1.37464E+002
 70
0
  0
VERTEX
  8
10
 42
0.0
 10
1.46013E+002
 20
1.37464E+002
 70
0
  0
SEQEND
  0
POLYLINE
  8
10
  6
CONTINUOUS
 62
2
 66
1
 40
5.0E-001
 41
5.0E-001
 70
0
  0
VERTEX
  8
10
 42
0.0
 10
1.47013E+002
 20
1.38464E+002
 70
0
  0
VERTEX
  8
10
 42
0.0
 10
1.47013E+002
 20
2.00464E+002
 70
0
  0
SEQEND
  0
POLYLINE
  8
10
  6
CONTINUOUS
 62
2
 66
1
 40
5.0E-001
 41
5.0E-001
 70
0
  0
VERTEX
  8
10
 42
0.0
 10
1.46013E+002
 20
2.01464E+002
 70
0
  0
VERTEX
  8
10
 42
0.0
 10
1.11013E+002
 20
2.01464E+002
 70
0
  0
SEQEND
  0
POLYLINE
  8
10
  6
CONTINUOUS
 62
2
 66
1
 40
5.0E-001
 41
5.0E-001
 70
0
  0
VERTEX
  8
10
 42
0.0
 10
1.10013E+002
 20
2.00464E+002
 70
0
  0
VERTEX
  8
10
 42
0.0
 10
1.10013E+002
 20
1.38464E+002
 70
0
  0
SEQEND
  0
POLYLINE
  8
10
  6
CONTINUOUS
 62
2
 66
1
 40
5.0E-001
 41
5.0E-001
 70
0
  0
VERTEX
  8
10
 42
0.0
 10
1.13513E+002
 20
1.97764E+002
 70
0
  0
VERTEX
  8
10
 42
0.0
 10
1.13565E+002
 20
1.97764E+002
 70
0
  0
SEQEND
  0
POLYLINE
  8
10
  6
CONTINUOUS
 62
2
 66
1
 40
5.0E-001
 41
5.0E-001
 70
0
  0
VERTEX
  8
10
 42
0.0
 10
1.17861E+002
 20
1.97764E+002
 70
0
  0
VERTEX
  8
10
 42
0.0
 10
1.17913E+002
 20
1.97764E+002
 70
0
  0
SEQEND
  0
POLYLINE
  8
10
  6
CONTINUOUS
 62
2
 66
1
 40
5.0E-001
 41
5.0E-001
 70
0
  0
VERTEX
  8
10
 42
0.0
 10
1.17913E+002
 20
1.97764E+002
 70
0
  0
VERTEX
  8
10
 42
0.0
 10
1.17913E+002
 20
1.97796E+002
 70
0
  0
SEQEND
  0
POLYLINE
  8
10
  6
CONTINUOUS
 62
2
 66
1
 40
5.0E-001
 41
5.0E-001
 70
0
  0
VERTEX
  8
10
 42
0.0
 10
1.17913E+002
 20
1.99632E+002
 70
0
  0
VERTEX
  8
10
 42
0.0
 10
1.17913E+002
 20
1.99664E+002
 70
0
  0
SEQEND
  0
POLYLINE
  8
10
  6
CONTINUOUS
 62
2
 66
1
 40
5.0E-001
 41
5.0E-001
 70
0
  0
VERTEX
  8
10
 42
0.0
 10
1.13513E+002
 20
1.99664E+002
 70
0
  0
VERTEX
  8
10
 42
0.0
 10
1.13565E+002
 20
1.99664E+002
 70
0
  0
SEQEND
  0
POLYLINE
  8
10
  6
CONTINUOUS
 62
2
 66
1
 40
5.0E-001
 41
5.0E-001
 70
0
  0
VERTEX
  8
10
 42
0.0
 10
1.17861E+002
 20
1.99664E+002
 70
0
  0
VERTEX
  8
10
 42
0.0
 10
1.17913E+002
 20
1.99664E+002
 70
0
  0
SEQEND
  0
POLYLINE
  8
10
  6
CONTINUOUS
 62
2
 66
1
 40
5.0E-001
 41
5.0E-001
 70
0
  0
VERTEX
  8
10
 42
0.0
 10
1.13513E+002
 20
1.97764E+002
 70
0
  0
VERTEX
  8
10
 42
0.0
 10
1.13513E+002
 20
1.97796E+002
 70
0
  0
SEQEND
  0
POLYLINE
  8
10
  6
CONTINUOUS
 62
2
 66
1
 40
5.0E-001
 41
5.0E-001
 70
0
  0
VERTEX
  8
10
 42
0.0
 10
1.13513E+002
 20
1.99632E+002
 70
0
  0
VERTEX
  8
10
 42
0.0
 10
1.13513E+002
 20
1.99664E+002
 70
0
  0
SEQEND
  0
POLYLINE
  8
10
  6
CONTINUOUS
 62
2
 66
1
 40
5.0E-001
 41
5.0E-001
 70
0
  0
VERTEX
  8
10
 42
0.0
 10
1.39513E+002
 20
1.39264E+002
 70
0
  0
VERTEX
  8
10
 42
0.0
 10
1.39565E+002
 20
1.39264E+002
 70
0
  0
SEQEND
  0
POLYLINE
  8
10
  6
CONTINUOUS
 62
2
 66
1
 40
5.0E-001
 41
5.0E-001
 70
0
  0
VERTEX
  8
10
 42
0.0
 10
1.43861E+002
 20
1.39264E+002
 70
0
  0
VERTEX
  8
10
 42
0.0
 10
1.43913E+002
 20
1.39264E+002
 70
0
  0
SEQEND
  0
POLYLINE
  8
10
  6
CONTINUOUS
 62
2
 66
1
 40
5.0E-001
 41
5.0E-001
 70
0
  0
VERTEX
  8
10
 42
0.0
 10
1.43913E+002
 20
1.39264E+002
 70
0
  0
VERTEX
  8
10
 42
0.0
 10
1.43913E+002
 20
1.39296E+002
 70
0
  0
SEQEND
  0
POLYLINE
  8
10
  6
CONTINUOUS
 62
2
 66
1
 40
5.0E-001
 41
5.0E-001
 70
0
  0
VERTEX
  8
10
 42
0.0
 10
1.43913E+002
 20
1.41132E+002
 70
0
  0
VERTEX
  8
10
 42
0.0
 10
1.43913E+002
 20
1.41164E+002
 70
0
  0
SEQEND
  0
POLYLINE
  8
10
  6
CONTINUOUS
 62
2
 66
1
 40
5.0E-001
 41
5.0E-001
 70
0
  0
VERTEX
  8
10
 42
0.0
 10
1.39513E+002
 20
1.41164E+002
 70
0
  0
VERTEX
  8
10
 42
0.0
 10
1.39565E+002
 20
1.41164E+002
 70
0
  0
SEQEND
  0
POLYLINE
  8
10
  6
CONTINUOUS
 62
2
 66
1
 40
5.0E-001
 41
5.0E-001
 70
0
  0
VERTEX
  8
10
 42
0.0
 10
1.43861E+002
 20
1.41164E+002
 70
0
  0
VERTEX
  8
10
 42
0.0
 10
1.43913E+002
 20
1.41164E+002
 70
0
  0
SEQEND
  0
POLYLINE
  8
10
  6
CONTINUOUS
 62
2
 66
1
 40
5.0E-001
 41
5.0E-001
 70
0
  0
VERTEX
  8
10
 42
0.0
 10
1.39513E+002
 20
1.39264E+002
 70
0
  0
VERTEX
  8
10
 42
0.0
 10
1.39513E+002
 20
1.39296E+002
 70
0
  0
SEQEND
  0
POLYLINE
  8
10
  6
CONTINUOUS
 62
2
 66
1
 40
5.0E-001
 41
5.0E-001
 70
0
  0
VERTEX
  8
10
 42
0.0
 10
1.39513E+002
 20
1.41132E+002
 70
0
  0
VERTEX
  8
10
 42
0.0
 10
1.39513E+002
 20
1.41164E+002
 70
0
  0
SEQEND
  0
POLYLINE
  8
10
  6
CONTINUOUS
 62
2
 66
1
 40
5.0E-001
 41
5.0E-001
 70
0
  0
VERTEX
  8
10
 42
0.0
 10
1.30013E+002
 20
1.67764E+002
 70
0
  0
VERTEX
  8
10
 42
0.0
 10
1.31913E+002
 20
1.67764E+002
 70
0
  0
SEQEND
  0
POLYLINE
  8
10
  6
CONTINUOUS
 62
2
 66
1
 40
5.0E-001
 41
5.0E-001
 70
0
  0
VERTEX
  8
10
 42
0.0
 10
1.31913E+002
 20
1.67764E+002
 70
0
  0
VERTEX
  8
10
 42
0.0
 10
1.31913E+002
 20
1.71164E+002
 70
0
  0
SEQEND
  0
POLYLINE
  8
10
  6
CONTINUOUS
 62
2
 66
1
 40
5.0E-001
 41
5.0E-001
 70
0
  0
VERTEX
  8
10
 42
0.0
 10
1.31913E+002
 20
1.71164E+002
 70
0
  0
VERTEX
  8
10
 42
0.0
 10
1.30013E+002
 20
1.71164E+002
 70
0
  0
SEQEND
  0
POLYLINE
  8
10
  6
CONTINUOUS
 62
2
 66
1
 40
5.0E-001
 41
5.0E-001
 70
0
  0
VERTEX
  8
10
 42
0.0
 10
1.30013E+002
 20
1.71164E+002
 70
0
  0
VERTEX
  8
10
 42
0.0
 10
1.30013E+002
 20
1.67764E+002
 70
0
  0
SEQEND
  0
POLYLINE
  8
10
  6
CONTINUOUS
 62
2
 66
1
 40
5.0E-001
 41
5.0E-001
 70
0
  0
VERTEX
  8
10
 42
4.1421356E-001
 10
1.11013E+002
 20
2.01464E+002
 70
0
  0
VERTEX
  8
10
 42
0.0
 10
1.10013E+002
 20
2.00464E+002
 70
0
  0
SEQEND
  0
POLYLINE
  8
10
  6
CONTINUOUS
 62
2
 66
1
 40
5.0E-001
 41
5.0E-001
 70
0
  0
VERTEX
  8
10
 42
4.1421356E-001
 10
1.47013E+002
 20
2.00464E+002
 70
0
  0
VERTEX
  8
10
 42
0.0
 10
1.46013E+002
 20
2.01464E+002
 70
0
  0
SEQEND
  0
POLYLINE
  8
10
  6
CONTINUOUS
 62
2
 66
1
 40
5.0E-001
 41
5.0E-001
 70
0
  0
VERTEX
  8
10
 42
4.1421356E-001
 10
1.46013E+002
 20
1.37464E+002
 70
0
  0
VERTEX
  8
10
 42
0.0
 10
1.47013E+002
 20
1.38464E+002
 70
0
  0
SEQEND
  0
POLYLINE
  8
10
  6
CONTINUOUS
 62
2
 66
1
 40
5.0E-001
 41
5.0E-001
 70
0
  0
VERTEX
  8
10
 42
4.1421356E-001
 10
1.10013E+002
 20
1.38464E+002
 70
0
  0
VERTEX
  8
10
 42
0.0
 10
1.11013E+002
 20
1.37464E+002
 70
0
  0
SEQEND
  0
POLYLINE
  8
10
  6
CONTINUOUS
 62
2
 66
1
 40
5.0E-001
 41
5.0E-001
 70
0
  0
VERTEX
  8
10
 42
0.0
 10
1.39513E+002
 20
1.97764E+002
 70
0
  0
VERTEX
  8
10
 42
0.0
 10
1.39565E+002
 20
1.97764E+002
 70
0
  0
SEQEND
  0
POLYLINE
  8
10
  6
CONTINUOUS
 62
2
 66
1
 40
5.0E-001
 41
5.0E-001
 70
0
  0
VERTEX
  8
10
 42
0.0
 10
1.43861E+002
 20
1.97764E+002
 70
0
  0
VERTEX
  8
10
 42
0.0
 10
1.43913E+002
 20
1.97764E+002
 70
0
  0
SEQEND
  0
POLYLINE
  8
10
  6
CONTINUOUS
 62
2
 66
1
 40
5.0E-001
 41
5.0E-001
 70
0
  0
VERTEX
  8
10
 42
0.0
 10
1.43913E+002
 20
1.97764E+002
 70
0
  0
VERTEX
  8
10
 42
0.0
 10
1.43913E+002
 20
1.97796E+002
 70
0
  0
SEQEND
  0
POLYLINE
  8
10
  6
CONTINUOUS
 62
2
 66
1
 40
5.0E-001
 41
5.0E-001
 70
0
  0
VERTEX
  8
10
 42
0.0
 10
1.43913E+002
 20
1.99632E+002
 70
0
  0
VERTEX
  8
10
 42
0.0
 10
1.43913E+002
 20
1.99664E+002
 70
0
  0
SEQEND
  0
POLYLINE
  8
10
  6
CONTINUOUS
 62
2
 66
1
 40
5.0E-001
 41
5.0E-001
 70
0
  0
VERTEX
  8
10
 42
0.0
 10
1.39513E+002
 20
1.99664E+002
 70
0
  0
VERTEX
  8
10
 42
0.0
 10
1.39565E+002
 20
1.99664E+002
 70
0
  0
SEQEND
  0
POLYLINE
  8
10
  6
CONTINUOUS
 62
2
 66
1
 40
5.0E-001
 41
5.0E-001
 70
0
  0
VERTEX
  8
10
 42
0.0
 10
1.43861E+002
 20
1.99664E+002
 70
0
  0
VERTEX
  8
10
 42
0.0
 10
1.43913E+002
 20
1.99664E+002
 70
0
  0
SEQEND
  0
POLYLINE
  8
10
  6
CONTINUOUS
 62
2
 66
1
 40
5.0E-001
 41
5.0E-001
 70
0
  0
VERTEX
  8
10
 42
0.0
 10
1.39513E+002
 20
1.97764E+002
 70
0
  0
VERTEX
  8
10
 42
0.0
 10
1.39513E+002
 20
1.97796E+002
 70
0
  0
SEQEND
  0
POLYLINE
  8
10
  6
CONTINUOUS
 62
2
 66
1
 40
5.0E-001
 41
5.0E-001
 70
0
  0
VERTEX
  8
10
 42
0.0
 10
1.39513E+002
 20
1.99632E+002
 70
0
  0
VERTEX
  8
10
 42
0.0
 10
1.39513E+002
 20
1.99664E+002
 70
0
  0
SEQEND
  0
POLYLINE
  8
10
  6
CONTINUOUS
 62
2
 66
1
 40
5.0E-001
 41
5.0E-001
 70
0
  0
VERTEX
  8
10
 42
0.0
 10
1.13513E+002
 20
1.39264E+002
 70
0
  0
VERTEX
  8
10
 42
0.0
 10
1.13565E+002
 20
1.39264E+002
 70
0
  0
SEQEND
  0
POLYLINE
  8
10
  6
CONTINUOUS
 62
2
 66
1
 40
5.0E-001
 41
5.0E-001
 70
0
  0
VERTEX
  8
10
 42
0.0
 10
1.17861E+002
 20
1.39264E+002
 70
0
  0
VERTEX
  8
10
 42
0.0
 10
1.17913E+002
 20
1.39264E+002
 70
0
  0
SEQEND
  0
POLYLINE
  8
10
  6
CONTINUOUS
 62
2
 66
1
 40
5.0E-001
 41
5.0E-001
 70
0
  0
VERTEX
  8
10
 42
0.0
 10
1.17913E+002
 20
1.39264E+002
 70
0
  0
VERTEX
  8
10
 42
0.0
 10
1.17913E+002
 20
1.39296E+002
 70
0
  0
SEQEND
  0
POLYLINE
  8
10
  6
CONTINUOUS
 62
2
 66
1
 40
5.0E-001
 41
5.0E-001
 70
0
  0
VERTEX
  8
10
 42
0.0
 10
1.17913E+002
 20
1.41132E+002
 70
0
  0
VERTEX
  8
10
 42
0.0
 10
1.17913E+002
 20
1.41164E+002
 70
0
  0
SEQEND
  0
POLYLINE
  8
10
  6
CONTINUOUS
 62
2
 66
1
 40
5.0E-001
 41
5.0E-001
 70
0
  0
VERTEX
  8
10
 42
0.0
 10
1.13513E+002
 20
1.41164E+002
 70
0
  0
VERTEX
  8
10
 42
0.0
 10
1.13565E+002
 20
1.41164E+002
 70
0
  0
SEQEND
  0
POLYLINE
  8
10
  6
CONTINUOUS
 62
2
 66
1
 40
5.0E-001
 41
5.0E-001
 70
0
  0
VERTEX
  8
10
 42
0.0
 10
1.17861E+002
 20
1.41164E+002
 70
0
  0
VERTEX
  8
10
 42
0.0
 10
1.17913E+002
 20
1.41164E+002
 70
0
  0
SEQEND
  0
POLYLINE
  8
10
  6
CONTINUOUS
 62
2
 66
1
 40
5.0E-001
 41
5.0E-001
 70
0
  0
VERTEX
  8
10
 42
0.0
 10
1.13513E+002
 20
1.39264E+002
 70
0
  0
VERTEX
  8
10
 42
0.0
 10
1.13513E+002
 20
1.39296E+002
 70
0
  0
SEQEND
  0
POLYLINE
  8
10
  6
CONTINUOUS
 62
2
 66
1
 40
5.0E-001
 41
5.0E-001
 70
0
  0
VERTEX
  8
10
 42
0.0
 10
1.13513E+002
 20
1.41132E+002
 70
0
  0
VERTEX
  8
10
 42
0.0
 10
1.13513E+002
 20
1.41164E+002
 70
0
  0
SEQEND
  0
POLYLINE
  8
10
  6
CONTINUOUS
 62
2
 66
1
 40
5.0E-001
 41
5.0E-001
 70
0
  0
VERTEX
  8
10
 42
3.4635088
 10
1.213221E+002
 20
1.861564E+002
 70
0
  0
VERTEX
  8
10
 42
0.0
 10
1.1998963E+002
 20
1.8615645E+002
 70
0
  0
SEQEND
  0
POLYLINE
  8
10
  6
CONTINUOUS
 62
2
 66
1
 40
5.0E-001
 41
5.0E-001
 70
0
  0
VERTEX
  8
10
 42
0.0
 10
1.199894E+002
 20
1.861562E+002
 70
0
  0
VERTEX
  8
10
 42
0.0
 10
1.213223E+002
 20
1.861562E+002
 70
0
  0
SEQEND
  0
POLYLINE
  8
10
  6
CONTINUOUS
 62
2
 66
1
 40
5.0E-001
 41
5.0E-001
 70
0
  0
VERTEX
  8
10
 42
4.0395827
 10
1.199894E+002
 20
1.861562E+002
 70
0
  0
VERTEX
  8
10
 42
0.0
 10
1.2132232E+002
 20
1.8615624E+002
 70
0
  0
SEQEND
  0
POLYLINE
  8
10
  6
CONTINUOUS
 62
2
 66
1
 40
5.0E-001
 41
5.0E-001
 70
0
  0
VERTEX
  8
10
 42
1.0
 10
1.227987E+002
 20
1.848926E+002
 70
0
  0
VERTEX
  8
10
 42
0.0
 10
1.256559E+002
 20
1.848926E+002
 70
0
  0
SEQEND
  0
POLYLINE
  8
10
  6
CONTINUOUS
 62
2
 66
1
 40
5.0E-001
 41
5.0E-001
 70
0
  0
VERTEX
  8
10
 42
0.0
 10
1.227987E+002
 20
1.848926E+002
 70
0
  0
VERTEX
  8
10
 42
0.0
 10
1.227987E+002
 20
1.870354E+002
 70
0
  0
SEQEND
  0
POLYLINE
  8
10
  6
CONTINUOUS
 62
2
 66
1
 40
5.0E-001
 41
5.0E-001
 70
0
  0
VERTEX
  8
10
 42
0.0
 10
1.256559E+002
 20
1.848926E+002
 70
0
  0
VERTEX
  8
10
 42
0.0
 10
1.256559E+002
 20
1.870354E+002
 70
0
  0
SEQEND
  0
POLYLINE
  8
10
  6
CONTINUOUS
 62
2
 66
1
 40
5.0E-001
 41
5.0E-001
 70
0
  0
VERTEX
  8
10
 42
1.0
 10
1.256559E+002
 20
1.870354E+002
 70
0
  0
VERTEX
  8
10
 42
0.0
 10
1.227987E+002
 20
1.870354E+002
 70
0
  0
SEQEND
  0
POLYLINE
  8
10
  6
CONTINUOUS
 62
2
 66
1
 40
5.0E-001
 41
5.0E-001
 70
0
  0
VERTEX
  8
10
 42
0.0
 10
1.263701E+002
 20
1.873926E+002
 70
0
  0
VERTEX
  8
10
 42
0.0
 10
1.263701E+002
 20
1.88464E+002
 70
0
  0
SEQEND
  0
POLYLINE
  8
10
  6
CONTINUOUS
 62
2
 66
1
 40
5.0E-001
 41
5.0E-001
 70
0
  0
VERTEX
  8
10
 42
0.0
 10
1.263701E+002
 20
1.88464E+002
 70
0
  0
VERTEX
  8
10
 42
0.0
 10
1.292273E+002
 20
1.88464E+002
 70
0
  0
SEQEND
  0
POLYLINE
  8
10
  6
CONTINUOUS
 62
2
 66
1
 40
5.0E-001
 41
5.0E-001
 70
0
  0
VERTEX
  8
10
 42
0.0
 10
1.292273E+002
 20
1.88464E+002
 70
0
  0
VERTEX
  8
10
 42
0.0
 10
1.267273E+002
 20
1.83464E+002
 70
0
  0
SEQEND
  0
POLYLINE
  8
10
  6
CONTINUOUS
 62
2
 66
1
 40
5.0E-001
 41
5.0E-001
 70
0
  0
VERTEX
  8
10
 42
0.0
 10
1.299416E+002
 20
1.852497E+002
 70
0
  0
VERTEX
  8
10
 42
0.0
 10
1.320844E+002
 20
1.852497E+002
 70
0
  0
SEQEND
  0
POLYLINE
  8
10
  6
CONTINUOUS
 62
2
 66
1
 40
5.0E-001
 41
5.0E-001
 70
0
  0
VERTEX
  8
10
 42
0.0
 10
1.342273E+002
 20
1.83464E+002
 70
0
  0
VERTEX
  8
10
 42
0.0
 10
1.342273E+002
 20
1.88464E+002
 70
0
  0
SEQEND
  0
POLYLINE
  8
10
  6
CONTINUOUS
 62
2
 66
1
 40
5.0E-001
 41
5.0E-001
 70
0
  0
VERTEX
  8
10
 42
0.0
 10
1.327987E+002
 20
1.873926E+002
 70
0
  0
VERTEX
  8
10
 42
0.0
 10
1.342273E+002
 20
1.88464E+002
 70
0
  0
SEQEND
  0
POLYLINE
  8
10
  6
CONTINUOUS
 62
2
 66
1
 40
5.0E-001
 41
5.0E-001
 70
0
  0
VERTEX
  8
10
 42
1.0
 10
1.349416E+002
 20
1.848926E+002
 70
0
  0
VERTEX
  8
10
 42
0.0
 10
1.377986E+002
 20
1.848926E+002
 70
0
  0
SEQEND
  0
POLYLINE
  8
10
  6
CONTINUOUS
 62
2
 66
1
 40
5.0E-001
 41
5.0E-001
 70
0
  0
VERTEX
  8
10
 42
0.0
 10
1.349416E+002
 20
1.848926E+002
 70
0
  0
VERTEX
  8
10
 42
0.0
 10
1.349416E+002
 20
1.870354E+002
 70
0
  0
SEQEND
  0
POLYLINE
  8
10
  6
CONTINUOUS
 62
2
 66
1
 40
5.0E-001
 41
5.0E-001
 70
0
  0
VERTEX
  8
10
 42
0.0
 10
1.377987E+002
 20
1.848926E+002
 70
0
  0
VERTEX
  8
10
 42
0.0
 10
1.377987E+002
 20
1.870354E+002
 70
0
  0
SEQEND
  0
POLYLINE
  8
10
  6
CONTINUOUS
 62
2
 66
1
 40
5.0E-001
 41
5.0E-001
 70
0
  0
VERTEX
  8
10
 42
1.0
 10
1.377987E+002
 20
1.870354E+002
 70
0
  0
VERTEX
  8
10
 42
0.0
 10
1.349415E+002
 20
1.870354E+002
 70
0
  0
SEQEND
  0
POLYLINE
  8
11
  6
CONTINUOUS
 62
2
 66
1
 40
5.0E-001
 41
5.0E-001
 70
0
  0
VERTEX
  8
11
 42
3.2836808E-001
 10
1.181702E+002
 20
1.409571E+002
 70
0
  0
VERTEX
  8
11
 42
0.0
 10
1.132558E+002
 20
1.409571E+002
 70
0
  0
SEQEND
  0
POLYLINE
  8
11
  6
CONTINUOUS
 62
2
 66
1
 40
5.0E-001
 41
5.0E-001
 70
0
  0
VERTEX
  8
11
 42
4.6127409E-001
 10
1.132558E+002
 20
1.409571E+002
 70
0
  0
VERTEX
  8
11
 42
0.0
 10
1.132558E+002
 20
1.394709E+002
 70
0
  0
SEQEND
  0
POLYLINE
  8
11
  6
CONTINUOUS
 62
2
 66
1
 40
5.0E-001
 41
5.0E-001
 70
0
  0
VERTEX
  8
11
 42
3.2836808E-001
 10
1.132558E+002
 20
1.394709E+002
 70
0
  0
VERTEX
  8
11
 42
0.0
 10
1.181702E+002
 20
1.394709E+002
 70
0
  0
SEQEND
  0
POLYLINE
  8
11
  6
CONTINUOUS
 62
2
 66
1
 40
5.0E-001
 41
5.0E-001
 70
0
  0
VERTEX
  8
11
 42
4.6127409E-001
 10
1.181702E+002
 20
1.394709E+002
 70
0
  0
VERTEX
  8
11
 42
0.0
 10
1.181702E+002
 20
1.409571E+002
 70
0
  0
SEQEND
  0
POLYLINE
  8
11
  6
CONTINUOUS
 62
2
 66
1
 40
5.0E-001
 41
5.0E-001
 70
0
  0
VERTEX
  8
11
 42
3.2836808E-001
 10
1.441702E+002
 20
1.409571E+002
 70
0
  0
VERTEX
  8
11
 42
0.0
 10
1.392558E+002
 20
1.409571E+002
 70
0
  0
SEQEND
  0
POLYLINE
  8
11
  6
CONTINUOUS
 62
2
 66
1
 40
5.0E-001
 41
5.0E-001
 70
0
  0
VERTEX
  8
11
 42
4.6127409E-001
 10
1.392558E+002
 20
1.409571E+002
 70
0
  0
VERTEX
  8
11
 42
0.0
 10
1.392558E+002
 20
1.394709E+002
 70
0
  0
SEQEND
  0
POLYLINE
  8
11
  6
CONTINUOUS
 62
2
 66
1
 40
5.0E-001
 41
5.0E-001
 70
0
  0
VERTEX
  8
11
 42
3.2836808E-001
 10
1.392558E+002
 20
1.394709E+002
 70
0
  0
VERTEX
  8
11
 42
0.0
 10
1.441702E+002
 20
1.394709E+002
 70
0
  0
SEQEND
  0
POLYLINE
  8
11
  6
CONTINUOUS
 62
2
 66
1
 40
5.0E-001
 41
5.0E-001
 70
0
  0
VERTEX
  8
11
 42
4.6127409E-001
 10
1.441702E+002
 20
1.394709E+002
 70
0
  0
VERTEX
  8
11
 42
0.0
 10
1.441702E+002
 20
1.409571E+002
 70
0
  0
SEQEND
  0
POLYLINE
  8
12
  6
CONTINUOUS
 62
2
 66
1
 40
5.0E-001
 41
5.0E-001
 70
0
  0
VERTEX
  8
12
 42
3.2836808E-001
 10
1.181702E+002
 20
1.994571E+002
 70
0
  0
VERTEX
  8
12
 42
0.0
 10
1.132558E+002
 20
1.994571E+002
 70
0
  0
SEQEND
  0
POLYLINE
  8
12
  6
CONTINUOUS
 62
2
 66
1
 40
5.0E-001
 41
5.0E-001
 70
0
  0
VERTEX
  8
12
 42
4.6127409E-001
 10
1.132558E+002
 20
1.994571E+002
 70
0
  0
VERTEX
  8
12
 42
0.0
 10
1.132558E+002
 20
1.979709E+002
 70
0
  0
SEQEND
  0
POLYLINE
  8
12
  6
CONTINUOUS
 62
2
 66
1
 40
5.0E-001
 41
5.0E-001
 70
0
  0
VERTEX
  8
12
 42
3.2836808E-001
 10
1.132558E+002
 20
1.979709E+002
 70
0
  0
VERTEX
  8
12
 42
0.0
 10
1.181702E+002
 20
1.979709E+002
 70
0
  0
SEQEND
  0
POLYLINE
  8
12
  6
CONTINUOUS
 62
2
 66
1
 40
5.0E-001
 41
5.0E-001
 70
0
  0
VERTEX
  8
12
 42
4.6127409E-001
 10
1.181702E+002
 20
1.979709E+002
 70
0
  0
VERTEX
  8
12
 42
0.0
 10
1.181702E+002
 20
1.994571E+002
 70
0
  0
SEQEND
  0
POLYLINE
  8
12
  6
CONTINUOUS
 62
2
 66
1
 40
5.0E-001
 41
5.0E-001
 70
0
  0
VERTEX
  8
12
 42
3.2836808E-001
 10
1.441702E+002
 20
1.994571E+002
 70
0
  0
VERTEX
  8
12
 42
0.0
 10
1.392558E+002
 20
1.994571E+002
 70
0
  0
SEQEND
  0
POLYLINE
  8
12
  6
CONTINUOUS
 62
2
 66
1
 40
5.0E-001
 41
5.0E-001
 70
0
  0
VERTEX
  8
12
 42
4.6127409E-001
 10
1.392558E+002
 20
1.994571E+002
 70
0
  0
VERTEX
  8
12
 42
0.0
 10
1.392558E+002
 20
1.979709E+002
 70
0
  0
SEQEND
  0
POLYLINE
  8
12
  6
CONTINUOUS
 62
2
 66
1
 40
5.0E-001
 41
5.0E-001
 70
0
  0
VERTEX
  8
12
 42
3.2836808E-001
 10
1.392558E+002
 20
1.979709E+002
 70
0
  0
VERTEX
  8
12
 42
0.0
 10
1.441702E+002
 20
1.979709E+002
 70
0
  0
SEQEND
  0
POLYLINE
  8
12
  6
CONTINUOUS
 62
2
 66
1
 40
5.0E-001
 41
5.0E-001
 70
0
  0
VERTEX
  8
12
 42
4.6127409E-001
 10
1.441702E+002
 20
1.979709E+002
 70
0
  0
VERTEX
  8
12
 42
0.0
 10
1.441702E+002
 20
1.994571E+002
 70
0
  0
SEQEND
  0
LINE
  8
14
  6
CONTINUOUS
 62
5
 10
0.0
 20
0.0
 11
2.1E+002
 21
0.0
  0
LINE
  8
14
  6
CONTINUOUS
 62
5
 10
2.1E+002
 20
0.0
 11
2.1E+002
 21
2.97E+002
  0
LINE
  8
14
  6
CONTINUOUS
 62
5
 10
2.1E+002
 20
2.97E+002
 11
0.0
 21
2.97E+002
  0
LINE
  8
14
  6
CONTINUOUS
 62
5
 10
0.0
 20
2.97E+002
 11
0.0
 21
0.0
  0
LINE
  8
15
  6
HIDDEN
 62
3
 10
2.8713E+001
 20
1.39464E+002
 11
3.1213E+001
 21
1.39464E+002
  0
LINE
  8
15
  6
HIDDEN
 62
3
 10
3.1213E+001
 20
1.39464E+002
 11
4.1213E+001
 21
1.39464E+002
  0
LINE
  8
15
  6
HIDDEN
 62
3
 10
4.1213E+001
 20
1.39464E+002
 11
4.3213E+001
 21
1.39464E+002
  0
LINE
  8
15
  6
HIDDEN
 62
3
 10
4.5213E+001
 20
1.41464E+002
 11
4.5213E+001
 21
1.97464E+002
  0
ARC
  8
15
  6
HIDDEN
 62
3
 10
4.3213E+001
 20
1.97464E+002
 40
2.0
 50
0.0
 51
9.0E+001
  0
ARC
  8
15
  6
HIDDEN
 62
3
 10
4.3213E+001
 20
1.41464E+002
 40
2.0
 50
2.7E+002
 51
3.6E+002
  0
LINE
  8
15
  6
HIDDEN
 62
3
 10
2.8713E+001
 20
1.40964E+002
 11
2.8713E+001
 21
1.97964E+002
  0
LINE
  8
15
  6
HIDDEN
 62
3
 10
2.7213E+001
 20
1.37464E+002
 11
2.8713E+001
 21
1.37464E+002
  0
LINE
  8
15
  6
HIDDEN
 62
3
 10
2.8713E+001
 20
1.37464E+002
 11
2.8713E+001
 21
1.39464E+002
  0
LINE
  8
15
  6
HIDDEN
 62
3
 10
2.8713E+001
 20
1.99464E+002
 11
2.8713E+001
 21
2.01464E+002
  0
LINE
  8
15
  6
HIDDEN
 62
3
 10
2.7213E+001
 20
2.01464E+002
 11
2.8713E+001
 21
2.01464E+002
  0
LINE
  8
15
  6
HIDDEN
 62
3
 10
2.8713E+001
 20
1.99464E+002
 11
3.1213E+001
 21
1.99464E+002
  0
LINE
  8
15
  6
HIDDEN
 62
3
 10
3.1213E+001
 20
1.99464E+002
 11
4.1213E+001
 21
1.99464E+002
  0
LINE
  8
15
  6
HIDDEN
 62
3
 10
4.1213E+001
 20
1.99464E+002
 11
4.3213E+001
 21
1.99464E+002
  0
ARC
  8
15
  6
HIDDEN
 62
3
 10
2.98255E+001
 20
1.98714E+002
 40
3.0125
 50
1.5013717E+002
 51
2.0986283E+002
  0
ARC
  8
15
  6
HIDDEN
 62
3
 10
2.98255E+001
 20
1.40214E+002
 40
3.0125
 50
1.5013717E+002
 51
2.0986283E+002
  0
LINE
  8
15
  6
HIDDEN
 62
3
 10
2.7213E+001
 20
1.39464E+002
 11
2.7213E+001
 21
1.41714E+002
  0
LINE
  8
15
  6
HIDDEN
 62
3
 10
2.7213E+001
 20
1.41714E+002
 11
2.7213E+001
 21
1.97214E+002
  0
LINE
  8
15
  6
HIDDEN
 62
3
 10
2.7213E+001
 20
1.97214E+002
 11
2.7213E+001
 21
1.99464E+002
  0
LINE
  8
15
  6
HIDDEN
 62
3
 10
2.7213E+001
 20
1.38714E+002
 11
2.7213E+001
 21
1.39464E+002
  0
LINE
  8
15
  6
HIDDEN
 62
3
 10
2.7213E+001
 20
1.37464E+002
 11
2.7213E+001
 21
1.38714E+002
  0
LINE
  8
15
  6
HIDDEN
 62
3
 10
2.7213E+001
 20
2.00214E+002
 11
2.7213E+001
 21
2.01464E+002
  0
LINE
  8
15
  6
HIDDEN
 62
3
 10
2.7213E+001
 20
1.99464E+002
 11
2.7213E+001
 21
2.00214E+002
  0
POLYLINE
  8
16
  6
CONTINUOUS
 62
2
 66
1
 40
5.0E-001
 41
5.0E-001
 70
0
  0
VERTEX
  8
16
 42
0.0
 10
2.4213E+001
 20
1.14464E+002
 70
0
  0
VERTEX
  8
16
 42
0.0
 10
4.8213E+001
 20
1.14464E+002
 70
0
  0
SEQEND
  0
POLYLINE
  8
16
  6
CONTINUOUS
 62
2
 66
1
 40
5.0E-001
 41
5.0E-001
 70
0
  0
VERTEX
  8
16
 42
0.0
 10
4.8213E+001
 20
1.14464E+002
 70
0
  0
VERTEX
  8
16
 42
0.0
 10
4.8213E+001
 20
2.24464E+002
 70
0
  0
SEQEND
  0
POLYLINE
  8
16
  6
CONTINUOUS
 62
2
 66
1
 40
5.0E-001
 41
5.0E-001
 70
0
  0
VERTEX
  8
16
 42
0.0
 10
4.8213E+001
 20
2.24464E+002
 70
0
  0
VERTEX
  8
16
 42
0.0
 10
2.4213E+001
 20
2.24464E+002
 70
0
  0
SEQEND
  0
POLYLINE
  8
16
  6
CONTINUOUS
 62
2
 66
1
 40
5.0E-001
 41
5.0E-001
 70
0
  0
VERTEX
  8
16
 42
0.0
 10
2.4213E+001
 20
2.24464E+002
 70
0
  0
VERTEX
  8
16
 42
0.0
 10
2.4213E+001
 20
1.14464E+002
 70
0
  0
SEQEND
  0
POLYLINE
  8
16
  6
CONTINUOUS
 62
2
 66
1
 40
5.0E-001
 41
5.0E-001
 70
0
  0
VERTEX
  8
16
 42
1.0
 10
3.8963E+001
 20
2.17464E+002
 70
0
  0
VERTEX
  8
16
 42
1.0
 10
3.3463E+001
 20
2.17464E+002
 70
0
  0
VERTEX
  8
16
 42
0.0
 10
3.8963E+001
 20
2.17464E+002
 70
0
  0
SEQEND
  0
POLYLINE
  8
16
  6
CONTINUOUS
 62
2
 66
1
 40
5.0E-001
 41
5.0E-001
 70
0
  0
VERTEX
  8
16
 42
1.0
 10
3.8963E+001
 20
1.21464E+002
 70
0
  0
VERTEX
  8
16
 42
1.0
 10
3.3463E+001
 20
1.21464E+002
 70
0
  0
VERTEX
  8
16
 42
0.0
 10
3.8963E+001
 20
1.21464E+002
 70
0
  0
SEQEND
  0
POLYLINE
  8
16
  6
CONTINUOUS
 62
2
 66
1
 40
5.0E-001
 41
5.0E-001
 70
0
  0
VERTEX
  8
16
 42
1.0
 10
4.1413E+001
 20
2.17464E+002
 70
0
  0
VERTEX
  8
16
 42
1.0
 10
3.1013E+001
 20
2.17464E+002
 70
0
  0
VERTEX
  8
16
 42
0.0
 10
4.1413E+001
 20
2.17464E+002
 70
0
  0
SEQEND
  0
POLYLINE
  8
16
  6
CONTINUOUS
 62
2
 66
1
 40
5.0E-001
 41
5.0E-001
 70
0
  0
VERTEX
  8
16
 42
1.0
 10
4.1413E+001
 20
1.21464E+002
 70
0
  0
VERTEX
  8
16
 42
1.0
 10
3.1013E+001
 20
1.21464E+002
 70
0
  0
VERTEX
  8
16
 42
0.0
 10
4.1413E+001
 20
1.21464E+002
 70
0
  0
SEQEND
  0
POLYLINE
  8
16
  6
CONTINUOUS
 62
2
 66
1
 40
5.0E-001
 41
5.0E-001
 70
0
  0
VERTEX
  8
16
 42
1.0
 10
4.0513E+001
 20
1.46464E+002
 70
0
  0
VERTEX
  8
16
 42
1.0
 10
3.1913E+001
 20
1.46464E+002
 70
0
  0
VERTEX
  8
16
 42
0.0
 10
4.0513E+001
 20
1.46464E+002
 70
0
  0
SEQEND
  0
POLYLINE
  8
16
  6
CONTINUOUS
 62
2
 66
1
 40
5.0E-001
 41
5.0E-001
 70
0
  0
VERTEX
  8
16
 42
1.0
 10
4.0513E+001
 20
1.92464E+002
 70
0
  0
VERTEX
  8
16
 42
1.0
 10
3.1913E+001
 20
1.92464E+002
 70
0
  0
VERTEX
  8
16
 42
0.0
 10
4.0513E+001
 20
1.92464E+002
 70
0
  0
SEQEND
  0
POLYLINE
  8
16
  6
CONTINUOUS
 62
2
 66
1
 40
5.0E-001
 41
5.0E-001
 70
0
  0
VERTEX
  8
16
 42
0.0
 10
2.9613E+001
 20
1.53364E+002
 70
0
  0
VERTEX
  8
16
 42
0.0
 10
3.1313E+001
 20
1.53364E+002
 70
0
  0
SEQEND
  0
POLYLINE
  8
16
  6
CONTINUOUS
 62
2
 66
1
 40
5.0E-001
 41
5.0E-001
 70
0
  0
VERTEX
  8
16
 42
0.0
 10
4.3313E+001
 20
1.56864E+002
 70
0
  0
VERTEX
  8
16
 42
0.0
 10
4.3313E+001
 20
1.82064E+002
 70
0
  0
SEQEND
  0
POLYLINE
  8
16
  6
CONTINUOUS
 62
2
 66
1
 40
5.0E-001
 41
5.0E-001
 70
0
  0
VERTEX
  8
16
 42
0.0
 10
2.9113E+001
 20
1.85064E+002
 70
0
  0
VERTEX
  8
16
 42
0.0
 10
2.9113E+001
 20
1.53864E+002
 70
0
  0
SEQEND
  0
POLYLINE
  8
16
  6
CONTINUOUS
 62
2
 66
1
 40
5.0E-001
 41
5.0E-001
 70
0
  0
VERTEX
  8
16
 42
0.0
 10
3.2313E+001
 20
1.82564E+002
 70
0
  0
VERTEX
  8
16
 42
0.0
 10
4.2813E+001
 20
1.82564E+002
 70
0
  0
SEQEND
  0
POLYLINE
  8
16
  6
CONTINUOUS
 62
2
 66
1
 40
5.0E-001
 41
5.0E-001
 70
0
  0
VERTEX
  8
16
 42
0.0
 10
3.1813E+001
 20
1.85064E+002
 70
0
  0
VERTEX
  8
16
 42
0.0
 10
3.1813E+001
 20
1.83064E+002
 70
0
  0
SEQEND
  0
POLYLINE
  8
16
  6
CONTINUOUS
 62
2
 66
1
 40
5.0E-001
 41
5.0E-001
 70
0
  0
VERTEX
  8
16
 42
0.0
 10
3.1313E+001
 20
1.85564E+002
 70
0
  0
VERTEX
  8
16
 42
0.0
 10
2.9613E+001
 20
1.85564E+002
 70
0
  0
SEQEND
  0
POLYLINE
  8
16
  6
CONTINUOUS
 62
2
 66
1
 40
5.0E-001
 41
5.0E-001
 70
0
  0
VERTEX
  8
16
 42
0.0
 10
4.2813E+001
 20
1.56364E+002
 70
0
  0
VERTEX
  8
16
 42
0.0
 10
3.2313E+001
 20
1.56364E+002
 70
0
  0
SEQEND
  0
POLYLINE
  8
16
  6
CONTINUOUS
 62
2
 66
1
 40
5.0E-001
 41
5.0E-001
 70
0
  0
VERTEX
  8
16
 42
0.0
 10
3.1813E+001
 20
1.55864E+002
 70
0
  0
VERTEX
  8
16
 42
0.0
 10
3.1813E+001
 20
1.53864E+002
 70
0
  0
SEQEND
  0
POLYLINE
  8
16
  6
CONTINUOUS
 62
2
 66
1
 40
5.0E-001
 41
5.0E-001
 70
0
  0
VERTEX
  8
16
 42
4.1421356E-001
 10
3.1813E+001
 20
1.85064E+002
 70
0
  0
VERTEX
  8
16
 42
0.0
 10
3.1313E+001
 20
1.85564E+002
 70
0
  0
SEQEND
  0
POLYLINE
  8
16
  6
CONTINUOUS
 62
2
 66
1
 40
5.0E-001
 41
5.0E-001
 70
0
  0
VERTEX
  8
16
 42
4.1421356E-001
 10
2.9613E+001
 20
1.85564E+002
 70
0
  0
VERTEX
  8
16
 42
0.0
 10
2.9113E+001
 20
1.85064E+002
 70
0
  0
SEQEND
  0
POLYLINE
  8
16
  6
CONTINUOUS
 62
2
 66
1
 40
5.0E-001
 41
5.0E-001
 70
0
  0
VERTEX
  8
16
 42
4.1421356E-001
 10
3.1813E+001
 20
1.83064E+002
 70
0
  0
VERTEX
  8
16
 42
0.0
 10
3.2313E+001
 20
1.82564E+002
 70
0
  0
SEQEND
  0
POLYLINE
  8
16
  6
CONTINUOUS
 62
2
 66
1
 40
5.0E-001
 41
5.0E-001
 70
0
  0
VERTEX
  8
16
 42
4.1421356E-001
 10
2.9113E+001
 20
1.53864E+002
 70
0
  0
VERTEX
  8
16
 42
0.0
 10
2.9613E+001
 20
1.53364E+002
 70
0
  0
SEQEND
  0
POLYLINE
  8
16
  6
CONTINUOUS
 62
2
 66
1
 40
5.0E-001
 41
5.0E-001
 70
0
  0
VERTEX
  8
16
 42
4.1421356E-001
 10
3.1313E+001
 20
1.53364E+002
 70
0
  0
VERTEX
  8
16
 42
0.0
 10
3.1813E+001
 20
1.53864E+002
 70
0
  0
SEQEND
  0
POLYLINE
  8
16
  6
CONTINUOUS
 62
2
 66
1
 40
5.0E-001
 41
5.0E-001
 70
0
  0
VERTEX
  8
16
 42
4.1421356E-001
 10
3.2313E+001
 20
1.56364E+002
 70
0
  0
VERTEX
  8
16
 42
0.0
 10
3.1813E+001
 20
1.55864E+002
 70
0
  0
SEQEND
  0
POLYLINE
  8
16
  6
CONTINUOUS
 62
2
 66
1
 40
5.0E-001
 41
5.0E-001
 70
0
  0
VERTEX
  8
16
 42
4.1421356E-001
 10
4.3313E+001
 20
1.82064E+002
 70
0
  0
VERTEX
  8
16
 42
0.0
 10
4.2813E+001
 20
1.82564E+002
 70
0
  0
SEQEND
  0
POLYLINE
  8
16
  6
CONTINUOUS
 62
2
 66
1
 40
5.0E-001
 41
5.0E-001
 70
0
  0
VERTEX
  8
16
 42
4.1421356E-001
 10
4.2813E+001
 20
1.56364E+002
 70
0
  0
VERTEX
  8
16
 42
0.0
 10
4.3313E+001
 20
1.56864E+002
 70
0
  0
SEQEND
  0
LINE
  8
17
  6
CONTINUOUS
 62
5
 10
3.23162E+001
 20
2.026753E+002
 11
3.1713E+001
 21
2.02394E+002
  0
LINE
  8
17
  6
CONTINUOUS
 62
5
 10
3.27162E+001
 20
2.028618E+002
 11
3.23162E+001
 21
2.026753E+002
  0
LINE
  8
17
  6
CONTINUOUS
 62
5
 10
3.32756E+001
 20
2.031227E+002
 11
3.27162E+001
 21
2.028618E+002
  0
LINE
  8
17
  6
CONTINUOUS
 62
5
 10
3.36756E+001
 20
2.033092E+002
 11
3.32756E+001
 21
2.031227E+002
  0
LINE
  8
17
  6
CONTINUOUS
 62
5
 10
3.36756E+001
 20
2.033092E+002
 11
3.36756E+001
 21
2.039417E+002
  0
ARC
  8
17
  6
CONTINUOUS
 62
5
 10
3.33756E+001
 20
2.039417E+002
 40
3.0E-001
 50
0.0
 51
1.0947394E+002
  0
LINE
  8
17
  6
CONTINUOUS
 62
5
 10
3.32756E+001
 20
2.042261E+002
 11
3.32756E+001
 21
2.031227E+002
  0
LINE
  8
17
  6
CONTINUOUS
 62
5
 10
3.27162E+001
 20
2.039652E+002
 11
3.32756E+001
 21
2.042261E+002
  0
ARC
  8
17
  6
CONTINUOUS
 62
5
 10
3.28162E+001
 20
2.034601E+002
 40
5.0008019E-001
 50
1.150072E+002
 51
1.8E+002
  0
LINE
  8
17
  6
CONTINUOUS
 62
5
 10
3.23162E+001
 20
2.026753E+002
 11
3.23162E+001
 21
2.034601E+002
  0
LINE
  8
17
  6
CONTINUOUS
 62
5
 10
3.27162E+001
 20
2.039652E+002
 11
3.27162E+001
 21
2.028618E+002
  0
ARC
  8
17
  6
CONTINUOUS
 62
5
 10
3.26162E+001
 20
2.025945E+002
 40
3.0E-001
 50
1.8E+002
 51
2.9498458E+002
  0
LINE
  8
17
  6
CONTINUOUS
 62
5
 10
3.65041E+001
 20
2.040765E+002
 11
3.27429E+001
 21
2.023226E+002
  0
LINE
  8
17
  6
CONTINUOUS
 62
5
 10
3.69041E+001
 20
2.04263E+002
 11
3.65041E+001
 21
2.040765E+002
  0
LINE
  8
17
  6
CONTINUOUS
 62
5
 10
3.74636E+001
 20
2.045239E+002
 11
3.69041E+001
 21
2.04263E+002
  0
LINE
  8
17
  6
CONTINUOUS
 62
5
 10
3.78636E+001
 20
2.047104E+002
 11
3.74636E+001
 21
2.045239E+002
  0
LINE
  8
17
  6
CONTINUOUS
 62
5
 10
3.78636E+001
 20
2.047104E+002
 11
3.78636E+001
 21
2.053429E+002
  0
ARC
  8
17
  6
CONTINUOUS
 62
5
 10
3.75636E+001
 20
2.053429E+002
 40
3.0E-001
 50
0.0
 51
1.0947394E+002
  0
LINE
  8
17
  6
CONTINUOUS
 62
5
 10
3.69041E+001
 20
2.053664E+002
 11
3.74636E+001
 21
2.056273E+002
  0
LINE
  8
17
  6
CONTINUOUS
 62
5
 10
3.74636E+001
 20
2.056273E+002
 11
3.74636E+001
 21
2.045239E+002
  0
LINE
  8
17
  6
CONTINUOUS
 62
5
 10
3.69041E+001
 20
2.053664E+002
 11
3.69041E+001
 21
2.04263E+002
  0
ARC
  8
17
  6
CONTINUOUS
 62
5
 10
3.70041E+001
 20
2.048613E+002
 40
5.0003793E-001
 50
1.1499682E+002
 51
1.8E+002
  0
LINE
  8
17
  6
CONTINUOUS
 62
5
 10
3.65041E+001
 20
2.040765E+002
 11
3.65041E+001
 21
2.048613E+002
  0
ARC
  8
17
  6
CONTINUOUS
 62
5
 10
3.68041E+001
 20
2.039957E+002
 40
3.0E-001
 50
1.8E+002
 51
2.9500189E+002
  0
LINE
  8
17
  6
CONTINUOUS
 62
5
 10
3.69309E+001
 20
2.037238E+002
 11
4.0713E+001
 21
2.054875E+002
  0
LINE
  8
17
  6
CONTINUOUS
 62
5
 10
4.01324E+001
 20
2.063201E+002
 11
3.80636E+001
 21
2.053554E+002
  0
LINE
  8
17
  6
CONTINUOUS
 62
5
 10
3.59444E+001
 20
2.049189E+002
 11
3.38756E+001
 21
2.039542E+002
  0
ARC
  8
17
  6
CONTINUOUS
 62
5
 10
3.47756E+001
 20
2.048733E+002
 40
6.0004034E-001
 50
8.0609888E+001
 51
1.8E+002
  0
LINE
  8
17
  6
CONTINUOUS
 62
5
 10
3.41756E+001
 20
2.048733E+002
 11
3.41756E+001
 21
2.019075E+002
  0
ARC
  8
17
  6
CONTINUOUS
 62
5
 10
3.37756E+001
 20
2.019075E+002
 40
4.0005025E-001
 50
2.7929279E+002
 51
3.6E+002
  0
ARC
  8
17
  6
CONTINUOUS
 62
5
 10
3.39381E+001
 20
2.021047E+002
 40
6.0004034E-001
 50
2.6060989E+002
 51
3.6E+002
  0
LINE
  8
17
  6
CONTINUOUS
 62
5
 10
3.45381E+001
 20
2.050705E+002
 11
3.45381E+001
 21
2.021047E+002
  0
ARC
  8
17
  6
CONTINUOUS
 62
5
 10
3.49381E+001
 20
2.050705E+002
 40
4.0005025E-001
 50
9.9292795E+001
 51
1.8E+002
  0
ARC
  8
17
  6
CONTINUOUS
 62
5
 10
3.56819E+001
 20
2.052959E+002
 40
6.0004034E-001
 50
8.0609888E+001
 51
1.8E+002
  0
ARC
  8
17
  6
CONTINUOUS
 62
5
 10
3.58444E+001
 20
2.054931E+002
 40
4.0005025E-001
 50
9.9292795E+001
 51
1.8E+002
  0
LINE
  8
17
  6
CONTINUOUS
 62
5
 10
3.54444E+001
 20
2.054931E+002
 11
3.54444E+001
 21
2.025273E+002
  0
LINE
  8
17
  6
CONTINUOUS
 62
5
 10
3.50819E+001
 20
2.052959E+002
 11
3.50819E+001
 21
2.023301E+002
  0
ARC
  8
17
  6
CONTINUOUS
 62
5
 10
3.46819E+001
 20
2.023301E+002
 40
4.0005025E-001
 50
2.7929279E+002
 51
3.6E+002
  0
ARC
  8
17
  6
CONTINUOUS
 62
5
 10
3.48444E+001
 20
2.025273E+002
 40
6.0004034E-001
 50
2.6060989E+002
 51
3.6E+002
  0
ARC
  8
17
  6
CONTINUOUS
 62
5
 10
3.89636E+001
 20
2.062745E+002
 40
6.0004034E-001
 50
8.0609888E+001
 51
1.8E+002
  0
ARC
  8
17
  6
CONTINUOUS
 62
5
 10
3.91261E+001
 20
2.064717E+002
 40
4.0005025E-001
 50
9.9292795E+001
 51
1.8E+002
  0
LINE
  8
17
  6
CONTINUOUS
 62
5
 10
3.87261E+001
 20
2.064717E+002
 11
3.87261E+001
 21
2.035059E+002
  0
LINE
  8
17
  6
CONTINUOUS
 62
5
 10
3.83636E+001
 20
2.062745E+002
 11
3.83636E+001
 21
2.033087E+002
  0
ARC
  8
17
  6
CONTINUOUS
 62
5
 10
3.79636E+001
 20
2.033087E+002
 40
4.0005025E-001
 50
2.7929279E+002
 51
3.6E+002
  0
ARC
  8
17
  6
CONTINUOUS
 62
5
 10
3.81261E+001
 20
2.035059E+002
 40
6.0004034E-001
 50
2.6060989E+002
 51
3.6E+002
  0
ARC
  8
17
  6
CONTINUOUS
 62
5
 10
3.88699E+001
 20
2.037313E+002
 40
4.0005025E-001
 50
2.7929279E+002
 51
3.6E+002
  0
ARC
  8
17
  6
CONTINUOUS
 62
5
 10
3.90324E+001
 20
2.039285E+002
 40
6.0004034E-001
 50
2.6060989E+002
 51
3.6E+002
  0
LINE
  8
17
  6
CONTINUOUS
 62
5
 10
3.96324E+001
 20
2.068943E+002
 11
3.96324E+001
 21
2.039285E+002
  0
LINE
  8
17
  6
CONTINUOUS
 62
5
 10
3.92699E+001
 20
2.066971E+002
 11
3.92699E+001
 21
2.037313E+002
  0
ARC
  8
17
  6
CONTINUOUS
 62
5
 10
3.98699E+001
 20
2.066971E+002
 40
6.0004034E-001
 50
8.0609888E+001
 51
1.8E+002
  0
ARC
  8
17
  6
CONTINUOUS
 62
5
 10
4.00324E+001
 20
2.068943E+002
 40
4.0005025E-001
 50
9.9292795E+001
 51
1.8E+002
  0
LINE
  8
17
  6
CONTINUOUS
 62
5
 10
4.0713E+001
 20
1.99964E+002
 11
4.0713E+001
 21
2.08964E+002
  0
LINE
  8
17
  6
CONTINUOUS
 62
5
 10
4.1213E+001
 20
1.99464E+002
 11
4.1213E+001
 21
2.09464E+002
  0
LINE
  8
17
  6
CONTINUOUS
 62
5
 10
4.0713E+001
 20
2.08964E+002
 11
3.1713E+001
 21
2.08964E+002
  0
LINE
  8
17
  6
CONTINUOUS
 62
5
 10
4.1213E+001
 20
2.09464E+002
 11
3.1213E+001
 21
2.09464E+002
  0
LINE
  8
17
  6
CONTINUOUS
 62
5
 10
3.1713E+001
 20
2.08964E+002
 11
3.1713E+001
 21
1.99964E+002
  0
LINE
  8
17
  6
CONTINUOUS
 62
5
 10
3.1213E+001
 20
2.09464E+002
 11
3.1213E+001
 21
1.99464E+002
  0
LINE
  8
17
  6
CONTINUOUS
 62
5
 10
3.1213E+001
 20
1.99464E+002
 11
4.1213E+001
 21
1.99464E+002
  0
LINE
  8
17
  6
CONTINUOUS
 62
5
 10
3.1713E+001
 20
1.99964E+002
 11
4.0713E+001
 21
1.99964E+002
  0
LINE
  8
17
  6
CONTINUOUS
 62
5
 10
3.26048E+001
 20
2.039133E+002
 11
3.27162E+001
 21
2.039652E+002
  0
LINE
  8
17
  6
CONTINUOUS
 62
5
 10
3.67928E+001
 20
2.053145E+002
 11
3.69041E+001
 21
2.053664E+002
  0
LINE
  8
17
  6
CONTINUOUS
 62
5
 10
3.23162E+001
 20
2.025945E+002
 11
3.23162E+001
 21
2.026753E+002
  0
LINE
  8
17
  6
CONTINUOUS
 62
5
 10
3.65041E+001
 20
2.039957E+002
 11
3.65041E+001
 21
2.040765E+002
  0
INSERT
  2
XHXH1
  8
17
 10
4.11775E+001
 20
1.994995E+002
  0
INSERT
  2
XHXH2
  8
17
 10
3.6043E+001
 20
2.09214E+002
  0
LINE
  8
18
  6
CONTINUOUS
 62
5
 10
4.01098E+001
 20
1.362527E+002
 11
4.0713E+001
 21
1.365339E+002
  0
LINE
  8
18
  6
CONTINUOUS
 62
5
 10
3.97098E+001
 20
1.360662E+002
 11
4.01098E+001
 21
1.362527E+002
  0
LINE
  8
18
  6
CONTINUOUS
 62
5
 10
3.91504E+001
 20
1.358053E+002
 11
3.97098E+001
 21
1.360662E+002
  0
LINE
  8
18
  6
CONTINUOUS
 62
5
 10
3.87504E+001
 20
1.356188E+002
 11
3.91504E+001
 21
1.358053E+002
  0
LINE
  8
18
  6
CONTINUOUS
 62
5
 10
3.87504E+001
 20
1.356187E+002
 11
3.87504E+001
 21
1.349863E+002
  0
ARC
  8
18
  6
CONTINUOUS
 62
5
 10
3.90504E+001
 20
1.349863E+002
 40
3.0E-001
 50
1.8E+002
 51
2.8946757E+002
  0
LINE
  8
18
  6
CONTINUOUS
 62
5
 10
3.91504E+001
 20
1.347019E+002
 11
3.91504E+001
 21
1.358053E+002
  0
LINE
  8
18
  6
CONTINUOUS
 62
5
 10
3.97098E+001
 20
1.349628E+002
 11
3.91504E+001
 21
1.347019E+002
  0
ARC
  8
18
  6
CONTINUOUS
 62
5
 10
3.96098E+001
 20
1.354678E+002
 40
4.9998957E-001
 50
2.9501205E+002
 51
3.6E+002
  0
LINE
  8
18
  6
CONTINUOUS
 62
5
 10
4.01098E+001
 20
1.362527E+002
 11
4.01098E+001
 21
1.354678E+002
  0
LINE
  8
18
  6
CONTINUOUS
 62
5
 10
3.97098E+001
 20
1.349628E+002
 11
3.97098E+001
 21
1.360662E+002
  0
ARC
  8
18
  6
CONTINUOUS
 62
5
 10
3.98098E+001
 20
1.363335E+002
 40
3.0E-001
 50
0.0
 51
1.1498458E+002
  0
LINE
  8
18
  6
CONTINUOUS
 62
5
 10
3.59219E+001
 20
1.348515E+002
 11
3.96831E+001
 21
1.366054E+002
  0
LINE
  8
18
  6
CONTINUOUS
 62
5
 10
3.55219E+001
 20
1.34665E+002
 11
3.59219E+001
 21
1.348515E+002
  0
LINE
  8
18
  6
CONTINUOUS
 62
5
 10
3.49624E+001
 20
1.344041E+002
 11
3.55219E+001
 21
1.34665E+002
  0
LINE
  8
18
  6
CONTINUOUS
 62
5
 10
3.45624E+001
 20
1.342175E+002
 11
3.49624E+001
 21
1.344041E+002
  0
LINE
  8
18
  6
CONTINUOUS
 62
5
 10
3.45624E+001
 20
1.342175E+002
 11
3.45624E+001
 21
1.335851E+002
  0
ARC
  8
18
  6
CONTINUOUS
 62
5
 10
3.48624E+001
 20
1.335851E+002
 40
3.0E-001
 50
1.8E+002
 51
2.8946757E+002
  0
LINE
  8
18
  6
CONTINUOUS
 62
5
 10
3.55219E+001
 20
1.335616E+002
 11
3.49624E+001
 21
1.333007E+002
  0
LINE
  8
18
  6
CONTINUOUS
 62
5
 10
3.49624E+001
 20
1.333007E+002
 11
3.49624E+001
 21
1.344041E+002
  0
LINE
  8
18
  6
CONTINUOUS
 62
5
 10
3.55219E+001
 20
1.335616E+002
 11
3.55219E+001
 21
1.34665E+002
  0
ARC
  8
18
  6
CONTINUOUS
 62
5
 10
3.54219E+001
 20
1.340666E+002
 40
4.999473E-001
 50
2.9500166E+002
 51
3.6E+002
  0
LINE
  8
18
  6
CONTINUOUS
 62
5
 10
3.59219E+001
 20
1.348515E+002
 11
3.59219E+001
 21
1.340666E+002
  0
ARC
  8
18
  6
CONTINUOUS
 62
5
 10
3.56219E+001
 20
1.349323E+002
 40
3.0E-001
 50
0.0
 51
1.1500189E+002
  0
LINE
  8
18
  6
CONTINUOUS
 62
5
 10
3.54951E+001
 20
1.352042E+002
 11
3.1713E+001
 21
1.334405E+002
  0
LINE
  8
18
  6
CONTINUOUS
 62
5
 10
3.22936E+001
 20
1.326079E+002
 11
3.43624E+001
 21
1.335726E+002
  0
LINE
  8
18
  6
CONTINUOUS
 62
5
 10
3.64816E+001
 20
1.340091E+002
 11
3.85504E+001
 21
1.349738E+002
  0
ARC
  8
18
  6
CONTINUOUS
 62
5
 10
3.76504E+001
 20
1.340547E+002
 40
6.0004034E-001
 50
2.6060989E+002
 51
3.6E+002
  0
LINE
  8
18
  6
CONTINUOUS
 62
5
 10
3.82504E+001
 20
1.340547E+002
 11
3.82504E+001
 21
1.370205E+002
  0
ARC
  8
18
  6
CONTINUOUS
 62
5
 10
3.86504E+001
 20
1.370205E+002
 40
4.0005025E-001
 50
9.9292795E+001
 51
1.8E+002
  0
ARC
  8
18
  6
CONTINUOUS
 62
5
 10
3.84879E+001
 20
1.368233E+002
 40
6.0004034E-001
 50
8.0609888E+001
 51
1.8E+002
  0
LINE
  8
18
  6
CONTINUOUS
 62
5
 10
3.78879E+001
 20
1.338575E+002
 11
3.78879E+001
 21
1.368233E+002
  0
ARC
  8
18
  6
CONTINUOUS
 62
5
 10
3.74879E+001
 20
1.338575E+002
 40
4.0005025E-001
 50
2.7929279E+002
 51
3.6E+002
  0
ARC
  8
18
  6
CONTINUOUS
 62
5
 10
3.67441E+001
 20
1.336321E+002
 40
6.0004034E-001
 50
2.6060989E+002
 51
3.6E+002
  0
ARC
  8
18
  6
CONTINUOUS
 62
5
 10
3.65816E+001
 20
1.334348E+002
 40
3.9995156E-001
 50
2.7929511E+002
 51
3.6E+002
  0
LINE
  8
18
  6
CONTINUOUS
 62
5
 10
3.69815E+001
 20
1.334348E+002
 11
3.69815E+001
 21
1.364007E+002
  0
LINE
  8
18
  6
CONTINUOUS
 62
5
 10
3.73441E+001
 20
1.336321E+002
 11
3.73441E+001
 21
1.365979E+002
  0
ARC
  8
18
  6
CONTINUOUS
 62
5
 10
3.77441E+001
 20
1.365979E+002
 40
3.9995156E-001
 50
9.9295108E+001
 51
1.8E+002
  0
ARC
  8
18
  6
CONTINUOUS
 62
5
 10
3.75816E+001
 20
1.364007E+002
 40
5.9994168E-001
 50
8.060833E+001
 51
1.8E+002
  0
ARC
  8
18
  6
CONTINUOUS
 62
5
 10
3.34624E+001
 20
1.326535E+002
 40
6.0004034E-001
 50
2.6060989E+002
 51
3.6E+002
  0
ARC
  8
18
  6
CONTINUOUS
 62
5
 10
3.32999E+001
 20
1.324563E+002
 40
4.0005025E-001
 50
2.7929279E+002
 51
3.6E+002
  0
LINE
  8
18
  6
CONTINUOUS
 62
5
 10
3.36999E+001
 20
1.324563E+002
 11
3.36999E+001
 21
1.354221E+002
  0
LINE
  8
18
  6
CONTINUOUS
 62
5
 10
3.40624E+001
 20
1.326535E+002
 11
3.40624E+001
 21
1.356193E+002
  0
ARC
  8
18
  6
CONTINUOUS
 62
5
 10
3.44624E+001
 20
1.356193E+002
 40
4.0005025E-001
 50
9.9292795E+001
 51
1.8E+002
  0
ARC
  8
18
  6
CONTINUOUS
 62
5
 10
3.42999E+001
 20
1.354221E+002
 40
6.0004034E-001
 50
8.0609888E+001
 51
1.8E+002
  0
ARC
  8
18
  6
CONTINUOUS
 62
5
 10
3.35561E+001
 20
1.351967E+002
 40
3.9995156E-001
 50
9.9295108E+001
 51
1.8E+002
  0
ARC
  8
18
  6
CONTINUOUS
 62
5
 10
3.33936E+001
 20
1.349995E+002
 40
5.9994168E-001
 50
8.060833E+001
 51
1.8E+002
  0
LINE
  8
18
  6
CONTINUOUS
 62
5
 10
3.27936E+001
 20
1.320336E+002
 11
3.27936E+001
 21
1.349995E+002
  0
LINE
  8
18
  6
CONTINUOUS
 62
5
 10
3.31561E+001
 20
1.322309E+002
 11
3.31561E+001
 21
1.351967E+002
  0
ARC
  8
18
  6
CONTINUOUS
 62
5
 10
3.25561E+001
 20
1.322309E+002
 40
6.0004034E-001
 50
2.6060989E+002
 51
3.6E+002
  0
ARC
  8
18
  6
CONTINUOUS
 62
5
 10
3.23936E+001
 20
1.320336E+002
 40
3.9995156E-001
 50
2.7929511E+002
 51
3.6E+002
  0
LINE
  8
18
  6
CONTINUOUS
 62
5
 10
3.1713E+001
 20
1.38964E+002
 11
3.1713E+001
 21
1.29964E+002
  0
LINE
  8
18
  6
CONTINUOUS
 62
5
 10
3.1213E+001
 20
1.39464E+002
 11
3.1213E+001
 21
1.29464E+002
  0
LINE
  8
18
  6
CONTINUOUS
 62
5
 10
3.1713E+001
 20
1.29964E+002
 11
4.0713E+001
 21
1.29964E+002
  0
LINE
  8
18
  6
CONTINUOUS
 62
5
 10
3.1213E+001
 20
1.29464E+002
 11
4.1213E+001
 21
1.29464E+002
  0
LINE
  8
18
  6
CONTINUOUS
 62
5
 10
4.0713E+001
 20
1.29964E+002
 11
4.0713E+001
 21
1.38964E+002
  0
LINE
  8
18
  6
CONTINUOUS
 62
5
 10
4.1213E+001
 20
1.29464E+002
 11
4.1213E+001
 21
1.39464E+002
  0
LINE
  8
18
  6
CONTINUOUS
 62
5
 10
4.1213E+001
 20
1.39464E+002
 11
3.1213E+001
 21
1.39464E+002
  0
LINE
  8
18
  6
CONTINUOUS
 62
5
 10
4.0713E+001
 20
1.38964E+002
 11
3.1713E+001
 21
1.38964E+002
  0
LINE
  8
18
  6
CONTINUOUS
 62
5
 10
3.98211E+001
 20
1.350147E+002
 11
3.97098E+001
 21
1.349628E+002
  0
LINE
  8
18
  6
CONTINUOUS
 62
5
 10
3.56332E+001
 20
1.336135E+002
 11
3.55219E+001
 21
1.335616E+002
  0
LINE
  8
18
  6
CONTINUOUS
 62
5
 10
4.01098E+001
 20
1.363335E+002
 11
4.01098E+001
 21
1.362527E+002
  0
LINE
  8
18
  6
CONTINUOUS
 62
5
 10
3.59219E+001
 20
1.349323E+002
 11
3.59219E+001
 21
1.348515E+002
  0
INSERT
  2
XHXH3
  8
18
 10
4.11775E+001
 20
1.294995E+002
  0
INSERT
  2
XHXH4
  8
18
 10
3.5902E+001
 20
1.39214E+002
  0
POLYLINE
  8
19
  6
CONTINUOUS
 62
2
 66
1
 40
5.0E-001
 41
5.0E-001
 70
0
  0
VERTEX
  8
19
 42
0.0
 10
3.1713E+001
 20
1.56214E+002
 70
0
  0
VERTEX
  8
19
 42
0.0
 10
3.1713E+001
 20
1.82714E+002
 70
0
  0
SEQEND
  0
POLYLINE
  8
19
  6
CONTINUOUS
 62
2
 66
1
 40
5.0E-001
 41
5.0E-001
 70
0
  0
VERTEX
  8
19
 42
0.0
 10
4.3213E+001
 20
1.63464E+002
 70
0
  0
VERTEX
  8
19
 42
0.0
 10
4.3213E+001
 20
1.75464E+002
 70
0
  0
SEQEND
  0
POLYLINE
  8
19
  6
CONTINUOUS
 62
2
 66
1
 40
5.0E-001
 41
5.0E-001
 70
0
  0
VERTEX
  8
19
 42
0.0
 10
3.1713E+001
 20
1.82714E+002
 70
0
  0
VERTEX
  8
19
 42
0.0
 10
3.1713E+001
 20
1.85364E+002
 70
0
  0
SEQEND
  0
POLYLINE
  8
19
  6
CONTINUOUS
 62
2
 66
1
 40
5.0E-001
 41
5.0E-001
 70
0
  0
VERTEX
  8
19
 42
0.0
 10
3.1713E+001
 20
1.53564E+002
 70
0
  0
VERTEX
  8
19
 42
0.0
 10
3.1713E+001
 20
1.56214E+002
 70
0
  0
SEQEND
  0
POLYLINE
  8
19
  6
CONTINUOUS
 62
2
 66
1
 40
5.0E-001
 41
5.0E-001
 70
0
  0
VERTEX
  8
19
 42
0.0
 10
4.3213E+001
 20
1.75464E+002
 70
0
  0
VERTEX
  8
19
 42
0.0
 10
4.3213E+001
 20
1.82214E+002
 70
0
  0
SEQEND
  0
POLYLINE
  8
19
  6
CONTINUOUS
 62
2
 66
1
 40
5.0E-001
 41
5.0E-001
 70
0
  0
VERTEX
  8
19
 42
0.0
 10
4.3213E+001
 20
1.56714E+002
 70
0
  0
VERTEX
  8
19
 42
0.0
 10
4.3213E+001
 20
1.63464E+002
 70
0
  0
SEQEND
  0
POLYLINE
  8
19
  6
CONTINUOUS
 62
2
 66
1
 40
5.0E-001
 41
5.0E-001
 70
0
  0
VERTEX
  8
19
 42
4.1421356E-001
 10
3.1713E+001
 20
1.82714E+002
 70
0
  0
VERTEX
  8
19
 42
0.0
 10
3.1963E+001
 20
1.82464E+002
 70
0
  0
SEQEND
  0
POLYLINE
  8
19
  6
CONTINUOUS
 62
2
 66
1
 40
5.0E-001
 41
5.0E-001
 70
0
  0
VERTEX
  8
19
 42
1.0325535E-001
 10
2.9113E+001
 20
1.754849E+002
 70
0
  0
VERTEX
  8
19
 42
0.0
 10
2.9213E+001
 20
1.7546403E+002
 70
0
  0
SEQEND
  0
POLYLINE
  8
19
  6
CONTINUOUS
 62
2
 66
1
 40
5.0E-001
 41
5.0E-001
 70
0
  0
VERTEX
  8
19
 42
1.0325535E-001
 10
2.9213E+001
 20
1.63464E+002
 70
0
  0
VERTEX
  8
19
 42
0.0
 10
2.9112989E+001
 20
1.6344312E+002
 70
0
  0
SEQEND
  0
POLYLINE
  8
19
  6
CONTINUOUS
 62
2
 66
1
 40
5.0E-001
 41
5.0E-001
 70
0
  0
VERTEX
  8
19
 42
4.1421356E-001
 10
3.1963E+001
 20
1.56464E+002
 70
0
  0
VERTEX
  8
19
 42
0.0
 10
3.1713E+001
 20
1.56214E+002
 70
0
  0
SEQEND
  0
POLYLINE
  8
19
  6
CONTINUOUS
 62
2
 66
1
 40
5.0E-001
 41
5.0E-001
 70
0
  0
VERTEX
  8
19
 42
1.0325535E-001
 10
4.3213E+001
 20
1.75464E+002
 70
0
  0
VERTEX
  8
19
 42
0.0
 10
4.3313011E+001
 20
1.7548488E+002
 70
0
  0
SEQEND
  0
POLYLINE
  8
19
  6
CONTINUOUS
 62
2
 66
1
 40
5.0E-001
 41
5.0E-001
 70
0
  0
VERTEX
  8
19
 42
1.0325535E-001
 10
4.3313E+001
 20
1.634431E+002
 70
0
  0
VERTEX
  8
19
 42
0.0
 10
4.3213E+001
 20
1.6346397E+002
 70
0
  0
SEQEND
  0
POLYLINE
  8
19
  6
CONTINUOUS
 62
2
 66
1
 40
5.0E-001
 41
5.0E-001
 70
0
  0
VERTEX
  8
19
 42
0.0
 10
3.1963E+001
 20
1.56464E+002
 70
0
  0
VERTEX
  8
19
 42
0.0
 10
4.2963E+001
 20
1.56464E+002
 70
0
  0
SEQEND
  0
POLYLINE
  8
19
  6
CONTINUOUS
 62
2
 66
1
 40
5.0E-001
 41
5.0E-001
 70
0
  0
VERTEX
  8
19
 42
0.0
 10
3.1963E+001
 20
1.82464E+002
 70
0
  0
VERTEX
  8
19
 42
0.0
 10
4.2963E+001
 20
1.82464E+002
 70
0
  0
SEQEND
  0
POLYLINE
  8
19
  6
CONTINUOUS
 62
2
 66
1
 40
5.0E-001
 41
5.0E-001
 70
0
  0
VERTEX
  8
19
 42
0.0
 10
2.9213E+001
 20
1.53714E+002
 70
0
  0
VERTEX
  8
19
 42
0.0
 10
2.9213E+001
 20
1.59964E+002
 70
0
  0
SEQEND
  0
POLYLINE
  8
19
  6
CONTINUOUS
 62
2
 66
1
 40
5.0E-001
 41
5.0E-001
 70
0
  0
VERTEX
  8
19
 42
0.0
 10
2.9213E+001
 20
1.78964E+002
 70
0
  0
VERTEX
  8
19
 42
0.0
 10
2.9213E+001
 20
1.85214E+002
 70
0
  0
SEQEND
  0
POLYLINE
  8
19
  6
CONTINUOUS
 62
2
 66
1
 40
5.0E-001
 41
5.0E-001
 70
0
  0
VERTEX
  8
19
 42
0.0
 10
2.9213E+001
 20
1.75464E+002
 70
0
  0
VERTEX
  8
19
 42
0.0
 10
2.9213E+001
 20
1.78964E+002
 70
0
  0
SEQEND
  0
POLYLINE
  8
19
  6
CONTINUOUS
 62
2
 66
1
 40
5.0E-001
 41
5.0E-001
 70
0
  0
VERTEX
  8
19
 42
0.0
 10
2.9213E+001
 20
1.63464E+002
 70
0
  0
VERTEX
  8
19
 42
0.0
 10
2.9213E+001
 20
1.75464E+002
 70
0
  0
SEQEND
  0
POLYLINE
  8
19
  6
CONTINUOUS
 62
2
 66
1
 40
5.0E-001
 41
5.0E-001
 70
0
  0
VERTEX
  8
19
 42
0.0
 10
2.9213E+001
 20
1.59964E+002
 70
0
  0
VERTEX
  8
19
 42
0.0
 10
2.9213E+001
 20
1.63464E+002
 70
0
  0
SEQEND
  0
POLYLINE
  8
19
  6
CONTINUOUS
 62
2
 66
1
 40
5.0E-001
 41
5.0E-001
 70
0
  0
VERTEX
  8
19
 42
3.5751077E-001
 10
4.3213E+001
 20
1.82214E+002
 70
0
  0
VERTEX
  8
19
 42
0.0
 10
4.3012029E+001
 20
1.8245915E+002
 70
0
  0
SEQEND
  0
POLYLINE
  8
19
  6
CONTINUOUS
 62
2
 66
1
 40
5.0E-001
 41
5.0E-001
 70
0
  0
VERTEX
  8
19
 42
3.5751077E-001
 10
4.3013E+001
 20
1.56464E+002
 70
0
  0
VERTEX
  8
19
 42
0.0
 10
4.3217951E+001
 20
1.56714E+002
 70
0
  0
SEQEND
  0
POLYLINE
  8
19
  6
CONTINUOUS
 62
2
 66
1
 40
5.0E-001
 41
5.0E-001
 70
0
  0
VERTEX
  8
19
 42
2.4922321E-002
 10
4.3013E+001
 20
1.82464E+002
 70
0
  0
VERTEX
  8
19
 42
0.0
 10
4.2963E+001
 20
1.8246649E+002
 70
0
  0
SEQEND
  0
POLYLINE
  8
19
  6
CONTINUOUS
 62
2
 66
1
 40
5.0E-001
 41
5.0E-001
 70
0
  0
VERTEX
  8
19
 42
7.6916513E-002
 10
4.31608E+001
 20
1.824232E+002
 70
0
  0
VERTEX
  8
19
 42
0.0
 10
4.3012751E+001
 20
1.8246151E+002
 70
0
  0
SEQEND
  0
POLYLINE
  8
19
  6
CONTINUOUS
 62
2
 66
1
 40
5.0E-001
 41
5.0E-001
 70
0
  0
VERTEX
  8
19
 42
2.4922321E-002
 10
4.2963E+001
 20
1.56464E+002
 70
0
  0
VERTEX
  8
19
 42
0.0
 10
4.3012752E+001
 20
1.5646648E+002
 70
0
  0
SEQEND
  0
POLYLINE
  8
19
  6
CONTINUOUS
 62
2
 66
1
 40
5.0E-001
 41
5.0E-001
 70
0
  0
VERTEX
  8
19
 42
7.6916513E-002
 10
4.3013E+001
 20
1.56464E+002
 70
0
  0
VERTEX
  8
19
 42
0.0
 10
4.3161791E+001
 20
1.565025E+002
 70
0
  0
SEQEND
  0
POLYLINE
  8
19
  6
CONTINUOUS
 62
2
 66
1
 40
5.0E-001
 41
5.0E-001
 70
0
  0
VERTEX
  8
19
 42
0.0
 10
2.9463E+001
 20
1.85464E+002
 70
0
  0
VERTEX
  8
19
 42
0.0
 10
3.1463E+001
 20
1.85464E+002
 70
0
  0
SEQEND
  0
POLYLINE
  8
19
  6
CONTINUOUS
 62
2
 66
1
 40
5.0E-001
 41
5.0E-001
 70
0
  0
VERTEX
  8
19
 42
0.0
 10
2.9463E+001
 20
1.53464E+002
 70
0
  0
VERTEX
  8
19
 42
0.0
 10
3.1463E+001
 20
1.53464E+002
 70
0
  0
SEQEND
  0
POLYLINE
  8
19
  6
CONTINUOUS
 62
2
 66
1
 40
5.0E-001
 41
5.0E-001
 70
0
  0
VERTEX
  8
19
 42
4.1421356E-001
 10
2.9213E+001
 20
1.53714E+002
 70
0
  0
VERTEX
  8
19
 42
0.0
 10
2.9463E+001
 20
1.53464E+002
 70
0
  0
SEQEND
  0
POLYLINE
  8
19
  6
CONTINUOUS
 62
2
 66
1
 40
5.0E-001
 41
5.0E-001
 70
0
  0
VERTEX
  8
19
 42
4.1421356E-001
 10
2.9463E+001
 20
1.85464E+002
 70
0
  0
VERTEX
  8
19
 42
0.0
 10
2.9213E+001
 20
1.85214E+002
 70
0
  0
SEQEND
  0
POLYLINE
  8
19
  6
CONTINUOUS
 62
2
 66
1
 40
5.0E-001
 41
5.0E-001
 70
0
  0
VERTEX
  8
19
 42
4.1421356E-001
 10
3.1713E+001
 20
1.85214E+002
 70
0
  0
VERTEX
  8
19
 42
0.0
 10
3.1463E+001
 20
1.85464E+002
 70
0
  0
SEQEND
  0
POLYLINE
  8
19
  6
CONTINUOUS
 62
2
 66
1
 40
5.0E-001
 41
5.0E-001
 70
0
  0
VERTEX
  8
19
 42
4.1421356E-001
 10
3.1463E+001
 20
1.53464E+002
 70
0
  0
VERTEX
  8
19
 42
0.0
 10
3.1713E+001
 20
1.53714E+002
 70
0
  0
SEQEND
  0
POLYLINE
  8
20
  6
CONTINUOUS
 62
2
 66
1
 40
5.0E-001
 41
5.0E-001
 70
0
  0
VERTEX
  8
20
 42
0.0
 10
3.8413E+001
 20
1.92839E+002
 70
0
  0
VERTEX
  8
20
 42
0.0
 10
3.7075E+001
 20
1.93326E+002
 70
0
  0
SEQEND
  0
POLYLINE
  8
20
  6
CONTINUOUS
 62
2
 66
1
 40
5.0E-001
 41
5.0E-001
 70
0
  0
VERTEX
  8
20
 42
0.0
 10
3.7075E+001
 20
1.93326E+002
 70
0
  0
VERTEX
  8
20
 42
0.0
 10
3.6588E+001
 20
1.94664E+002
 70
0
  0
SEQEND
  0
POLYLINE
  8
20
  6
CONTINUOUS
 62
2
 66
1
 40
5.0E-001
 41
5.0E-001
 70
0
  0
VERTEX
  8
20
 42
0.0
 10
3.6588E+001
 20
1.94664E+002
 70
0
  0
VERTEX
  8
20
 42
0.0
 10
3.5838E+001
 20
1.94664E+002
 70
0
  0
SEQEND
  0
POLYLINE
  8
20
  6
CONTINUOUS
 62
2
 66
1
 40
5.0E-001
 41
5.0E-001
 70
0
  0
VERTEX
  8
20
 42
0.0
 10
3.5838E+001
 20
1.94664E+002
 70
0
  0
VERTEX
  8
20
 42
0.0
 10
3.5351E+001
 20
1.93326E+002
 70
0
  0
SEQEND
  0
POLYLINE
  8
20
  6
CONTINUOUS
 62
2
 66
1
 40
5.0E-001
 41
5.0E-001
 70
0
  0
VERTEX
  8
20
 42
0.0
 10
3.5351E+001
 20
1.93326E+002
 70
0
  0
VERTEX
  8
20
 42
0.0
 10
3.4013E+001
 20
1.92839E+002
 70
0
  0
SEQEND
  0
POLYLINE
  8
20
  6
CONTINUOUS
 62
2
 66
1
 40
5.0E-001
 41
5.0E-001
 70
0
  0
VERTEX
  8
20
 42
0.0
 10
3.4013E+001
 20
1.92839E+002
 70
0
  0
VERTEX
  8
20
 42
0.0
 10
3.4013E+001
 20
1.92089E+002
 70
0
  0
SEQEND
  0
POLYLINE
  8
20
  6
CONTINUOUS
 62
2
 66
1
 40
5.0E-001
 41
5.0E-001
 70
0
  0
VERTEX
  8
20
 42
0.0
 10
3.4013E+001
 20
1.92089E+002
 70
0
  0
VERTEX
  8
20
 42
0.0
 10
3.5351E+001
 20
1.91602E+002
 70
0
  0
SEQEND
  0
POLYLINE
  8
20
  6
CONTINUOUS
 62
2
 66
1
 40
5.0E-001
 41
5.0E-001
 70
0
  0
VERTEX
  8
20
 42
0.0
 10
3.5351E+001
 20
1.91602E+002
 70
0
  0
VERTEX
  8
20
 42
0.0
 10
3.5838E+001
 20
1.90264E+002
 70
0
  0
SEQEND
  0
POLYLINE
  8
20
  6
CONTINUOUS
 62
2
 66
1
 40
5.0E-001
 41
5.0E-001
 70
0
  0
VERTEX
  8
20
 42
0.0
 10
3.5838E+001
 20
1.90264E+002
 70
0
  0
VERTEX
  8
20
 42
0.0
 10
3.6588E+001
 20
1.90264E+002
 70
0
  0
SEQEND
  0
POLYLINE
  8
20
  6
CONTINUOUS
 62
2
 66
1
 40
5.0E-001
 41
5.0E-001
 70
0
  0
VERTEX
  8
20
 42
0.0
 10
3.6588E+001
 20
1.90264E+002
 70
0
  0
VERTEX
  8
20
 42
0.0
 10
3.7075E+001
 20
1.91602E+002
 70
0
  0
SEQEND
  0
POLYLINE
  8
20
  6
CONTINUOUS
 62
2
 66
1
 40
5.0E-001
 41
5.0E-001
 70
0
  0
VERTEX
  8
20
 42
0.0
 10
3.7075E+001
 20
1.91602E+002
 70
0
  0
VERTEX
  8
20
 42
0.0
 10
3.8413E+001
 20
1.92089E+002
 70
0
  0
SEQEND
  0
POLYLINE
  8
20
  6
CONTINUOUS
 62
2
 66
1
 40
5.0E-001
 41
5.0E-001
 70
0
  0
VERTEX
  8
20
 42
0.0
 10
3.8413E+001
 20
1.92089E+002
 70
0
  0
VERTEX
  8
20
 42
0.0
 10
3.8413E+001
 20
1.92839E+002
 70
0
  0
SEQEND
  0
POLYLINE
  8
20
  6
CONTINUOUS
 62
2
 66
1
 40
5.0E-001
 41
5.0E-001
 70
0
  0
VERTEX
  8
20
 42
1.0
 10
3.9963E+001
 20
1.92464E+002
 70
0
  0
VERTEX
  8
20
 42
1.0
 10
3.2463E+001
 20
1.92464E+002
 70
0
  0
VERTEX
  8
20
 42
0.0
 10
3.9963E+001
 20
1.92464E+002
 70
0
  0
SEQEND
  0
POLYLINE
  8
21
  6
CONTINUOUS
 62
2
 66
1
 40
5.0E-001
 41
5.0E-001
 70
0
  0
VERTEX
  8
21
 42
0.0
 10
3.8413E+001
 20
1.46839E+002
 70
0
  0
VERTEX
  8
21
 42
0.0
 10
3.7075E+001
 20
1.47326E+002
 70
0
  0
SEQEND
  0
POLYLINE
  8
21
  6
CONTINUOUS
 62
2
 66
1
 40
5.0E-001
 41
5.0E-001
 70
0
  0
VERTEX
  8
21
 42
0.0
 10
3.7075E+001
 20
1.47326E+002
 70
0
  0
VERTEX
  8
21
 42
0.0
 10
3.6588E+001
 20
1.48664E+002
 70
0
  0
SEQEND
  0
POLYLINE
  8
21
  6
CONTINUOUS
 62
2
 66
1
 40
5.0E-001
 41
5.0E-001
 70
0
  0
VERTEX
  8
21
 42
0.0
 10
3.6588E+001
 20
1.48664E+002
 70
0
  0
VERTEX
  8
21
 42
0.0
 10
3.5838E+001
 20
1.48664E+002
 70
0
  0
SEQEND
  0
POLYLINE
  8
21
  6
CONTINUOUS
 62
2
 66
1
 40
5.0E-001
 41
5.0E-001
 70
0
  0
VERTEX
  8
21
 42
0.0
 10
3.5838E+001
 20
1.48664E+002
 70
0
  0
VERTEX
  8
21
 42
0.0
 10
3.5351E+001
 20
1.47326E+002
 70
0
  0
SEQEND
  0
POLYLINE
  8
21
  6
CONTINUOUS
 62
2
 66
1
 40
5.0E-001
 41
5.0E-001
 70
0
  0
VERTEX
  8
21
 42
0.0
 10
3.5351E+001
 20
1.47326E+002
 70
0
  0
VERTEX
  8
21
 42
0.0
 10
3.4013E+001
 20
1.46839E+002
 70
0
  0
SEQEND
  0
POLYLINE
  8
21
  6
CONTINUOUS
 62
2
 66
1
 40
5.0E-001
 41
5.0E-001
 70
0
  0
VERTEX
  8
21
 42
0.0
 10
3.4013E+001
 20
1.46839E+002
 70
0
  0
VERTEX
  8
21
 42
0.0
 10
3.4013E+001
 20
1.46089E+002
 70
0
  0
SEQEND
  0
POLYLINE
  8
21
  6
CONTINUOUS
 62
2
 66
1
 40
5.0E-001
 41
5.0E-001
 70
0
  0
VERTEX
  8
21
 42
0.0
 10
3.4013E+001
 20
1.46089E+002
 70
0
  0
VERTEX
  8
21
 42
0.0
 10
3.5351E+001
 20
1.45602E+002
 70
0
  0
SEQEND
  0
POLYLINE
  8
21
  6
CONTINUOUS
 62
2
 66
1
 40
5.0E-001
 41
5.0E-001
 70
0
  0
VERTEX
  8
21
 42
0.0
 10
3.5351E+001
 20
1.45602E+002
 70
0
  0
VERTEX
  8
21
 42
0.0
 10
3.5838E+001
 20
1.44264E+002
 70
0
  0
SEQEND
  0
POLYLINE
  8
21
  6
CONTINUOUS
 62
2
 66
1
 40
5.0E-001
 41
5.0E-001
 70
0
  0
VERTEX
  8
21
 42
0.0
 10
3.5838E+001
 20
1.44264E+002
 70
0
  0
VERTEX
  8
21
 42
0.0
 10
3.6588E+001
 20
1.44264E+002
 70
0
  0
SEQEND
  0
POLYLINE
  8
21
  6
CONTINUOUS
 62
2
 66
1
 40
5.0E-001
 41
5.0E-001
 70
0
  0
VERTEX
  8
21
 42
0.0
 10
3.6588E+001
 20
1.44264E+002
 70
0
  0
VERTEX
  8
21
 42
0.0
 10
3.7075E+001
 20
1.45602E+002
 70
0
  0
SEQEND
  0
POLYLINE
  8
21
  6
CONTINUOUS
 62
2
 66
1
 40
5.0E-001
 41
5.0E-001
 70
0
  0
VERTEX
  8
21
 42
0.0
 10
3.7075E+001
 20
1.45602E+002
 70
0
  0
VERTEX
  8
21
 42
0.0
 10
3.8413E+001
 20
1.46089E+002
 70
0
  0
SEQEND
  0
POLYLINE
  8
21
  6
CONTINUOUS
 62
2
 66
1
 40
5.0E-001
 41
5.0E-001
 70
0
  0
VERTEX
  8
21
 42
0.0
 10
3.8413E+001
 20
1.46089E+002
 70
0
  0
VERTEX
  8
21
 42
0.0
 10
3.8413E+001
 20
1.46839E+002
 70
0
  0
SEQEND
  0
POLYLINE
  8
21
  6
CONTINUOUS
 62
2
 66
1
 40
5.0E-001
 41
5.0E-001
 70
0
  0
VERTEX
  8
21
 42
1.0
 10
3.9963E+001
 20
1.46464E+002
 70
0
  0
VERTEX
  8
21
 42
1.0
 10
3.2463E+001
 20
1.46464E+002
 70
0
  0
VERTEX
  8
21
 42
0.0
 10
3.9963E+001
 20
1.46464E+002
 70
0
  0
SEQEND
  0
DIMENSION
  8
22
  6
CONTINUOUS
 62
6
  2
*D3200
  3
DSTYLE3
 10
3.8963E+001
 20
1.03463E+002
 11
4.6713E+001
 21
1.06089E+002
 70
128
 13
3.3463E+001
 23
1.21464E+002
 14
3.8963E+001
 24
1.21464E+002
 40
0.0
 50
0.0
1001
ACAD
1000
DSTYLE
1002
{
1070
173
1070
0
1070
5
1000
_AH13
1002
}
  0
DIMENSION
  8
22
  6
CONTINUOUS
 62
6
  2
*D3201
  3
DSTYLE3
 10
4.1413E+001
 20
9.4463E+001
 11
5.5788E+001
 21
9.7089E+001
 70
128
 13
3.1013E+001
 23
1.21464E+002
 14
4.1413E+001
 24
1.21464E+002
 40
0.0
 50
0.0
1001
ACAD
1000
DSTYLE
1002
{
1070
173
1070
0
1070
5
1000
_AH13
1002
}
  0
LINE
  8
24
  6
CENTERLINE
 62
5
 10
1.465695E+002
 20
2.63464E+002
 11
1.508565E+002
 21
2.63464E+002
  0
LINE
  8
24
  6
CENTERLINE
 62
5
 10
1.465695E+002
 20
2.17464E+002
 11
1.508565E+002
 21
2.17464E+002
  0
LINE
  8
24
  6
CENTERLINE
 62
5
 10
1.465695E+002
 20
1.21464E+002
 11
1.508565E+002
 21
1.21464E+002
  0
LINE
  8
24
  6
CENTERLINE
 62
5
 10
1.465695E+002
 20
1.92464E+002
 11
1.508565E+002
 21
1.92464E+002
  0
LINE
  8
24
  6
CENTERLINE
 62
5
 10
1.465695E+002
 20
1.46464E+002
 11
1.508565E+002
 21
1.46464E+002
  0
LINE
  8
24
  6
CENTERLINE
 62
5
 10
2.9233E+001
 20
2.17464E+002
 11
4.3193E+001
 21
2.17464E+002
  0
LINE
  8
24
  6
CENTERLINE
 62
5
 10
3.6213E+001
 20
2.10484E+002
 11
3.6213E+001
 21
2.24444E+002
  0
LINE
  8
24
  6
CENTERLINE
 62
5
 10
2.9233E+001
 20
1.21464E+002
 11
4.3193E+001
 21
1.21464E+002
  0
LINE
  8
24
  6
CENTERLINE
 62
5
 10
3.6213E+001
 20
1.14484E+002
 11
3.6213E+001
 21
1.28444E+002
  0
LINE
  8
24
  6
CENTERLINE
 62
5
 10
3.0493E+001
 20
1.92464E+002
 11
4.1933E+001
 21
1.92464E+002
  0
LINE
  8
24
  6
CENTERLINE
 62
5
 10
3.6213E+001
 20
1.86744E+002
 11
3.6213E+001
 21
1.98184E+002
  0
LINE
  8
24
  6
CENTERLINE
 62
5
 10
3.0493E+001
 20
1.46464E+002
 11
4.1933E+001
 21
1.46464E+002
  0
LINE
  8
24
  6
CENTERLINE
 62
5
 10
3.6213E+001
 20
1.40744E+002
 11
3.6213E+001
 21
1.52184E+002
  0
TEXT
  8
6
  6
CONTINUOUS
 62
6
 10
1.72338E+002
 20
2.71964E+002
 40
3.5
  1
5
 41
5.7142857E-001
 50
9.001167E+001
 51
-2.104591E-004
  0
TEXT
  8
6
  6
CONTINUOUS
 62
6
 10
1.81338E+002
 20
2.61339E+002
 40
3.5
  1
14
 41
6.0714286E-001
 50
9.001167E+001
 51
-2.104591E-004
  0
TEXT
  8
6
  6
CONTINUOUS
 62
6
 10
1.54088E+002
 20
2.48339E+002
 40
3.5
  1
12
 41
6.0714286E-001
 51
-2.104591E-004
  0
TEXT
  8
6
  6
CONTINUOUS
 62
6
 10
1.56588E+002
 20
2.39339E+002
 40
3.5
  1
17
 41
6.0714286E-001
 51
-2.104591E-004
  0
TEXT
  8
22
  6
CONTINUOUS
 62
6
 10
4.4213E+001
 20
1.04339E+002
 40
3.5
  1
5.5
 41
4.7619048E-001
 51
-2.104591E-004
  0
TEXT
  8
22
  6
CONTINUOUS
 62
6
 10
4.6663E+001
 20
9.5339E+001
 40
3.5
  1
10.4
 41
5.5357143E-001
 51
-2.104591E-004
  0
TEXT
  8
22
  6
CONTINUOUS
 62
6
 10
5.4413E+001
 20
9.5339E+001
 40
3.5
  1
g
 41
6.4285714E-001
 51
-2.104591E-004
  0
TEXT
  8
22
  6
CONTINUOUS
 62
6
 10
5.7913E+001
 20
9.5339E+001
 40
3.5
  1
90
 41
7.1428571E-001
 51
-2.104591E-004
  0
INSERT
  2
A4VFRMAT
  8
T_26397_D_0_000000-_0
 10
0.0
 20
0.0
  0
INSERT
  2
DBSFELD
  8
3
 10
2.05E+002
 20
5.0
 66
1
  0
ATTRIB
  8
3
  6
CONTINUOUS
 62
6
 10
1.8982E+002
 20
3.3892471E+001
 40
4.0
  1
Fallenschloss 807-10
 41
7.0E-001
 72
1
 11
1.6182E+002
 21
3.3892471E+001
  2
1
 70
0
  0
ATTRIB
  8
3
  6
CONTINUOUS
 62
6
 10
1.8002E+002
 20
2.5892471E+001
 40
4.0
  1
Masszeichnung
 41
7.0E-001
 72
1
 11
1.6182E+002
 21
2.5892471E+001
  2
2
 70
0
  0
ATTRIB
  8
3
  6
CONTINUOUS
 62
6
 10
1.7367E+002
 20
1.1461417E+001
 40
4.0
  1
807.10 - 1000
 41
7.0E-001
 72
1
 11
1.5547E+002
 21
1.1461417E+001
  2
3
 70
0
  0
ATTRIB
  8
3
  6
CONTINUOUS
 62
6
 10
1.7287E+002
 20
4.9645E+001
 40
3.0
  1
 
 41
7.0E-001
 72
1
 11
1.7182E+002
 21
4.9645E+001
  2
4
 70
0
  0
ATTRIB
  8
3
  6
CONTINUOUS
 62
6
 10
1.7287E+002
 20
4.43575E+001
 40
3.0
  1
 
 41
7.0E-001
 72
1
 11
1.7182E+002
 21
4.43575E+001
  2
5
 70
0
  0
ATTRIB
  8
3
  6
CONTINUOUS
 62
6
 10
1.9247E+002
 20
5.5145E+001
 40
3.0
  1
26397
 41
7.0E-001
 72
1
 11
1.8722E+002
 21
5.5145E+001
  2
6
 70
0
  0
ATTRIB
  8
3
  6
CONTINUOUS
 62
6
 10
8.3194515E+001
 20
5.92306
 40
2.5
  1
 
 41
7.0E-001
  2
7
 70
0
  0
ATTRIB
  8
3
  6
CONTINUOUS
 62
6
 10
1.2637452E+002
 20
5.92306
 40
2.5
  1
 
 41
7.0E-001
  2
8
 70
0
  0
ATTRIB
  8
3
  6
CONTINUOUS
 62
6
 10
7.6879342E+001
 20
3.9891649E+001
 40
2.0
  1
 
 41
7.0E-001
  2
9
 70
0
  0
ATTRIB
  8
3
  6
CONTINUOUS
 62
6
 10
8.662E+001
 20
3.541E+001
 40
2.2
  1
16.01.97
 41
7.0E-001
  2
10
 70
0
  0
ATTRIB
  8
3
  6
CONTINUOUS
 62
6
 10
1.0186E+002
 20
3.541E+001
 40
2.2
  1
Failer
 41
7.0E-001
  2
11
 70
0
  0
ATTRIB
  8
3
  6
CONTINUOUS
 62
6
 10
8.662E+001
 20
3.118E+001
 40
2.2
  1
 
 41
7.0E-001
  2
12
 70
0
  0
ATTRIB
  8
3
  6
CONTINUOUS
 62
6
 10
1.0186E+002
 20
3.118E+001
 40
2.2
  1
 
 41
7.0E-001
  2
13
 70
0
  0
ATTRIB
  8
3
  6
CONTINUOUS
 62
6
 10
8.662E+001
 20
2.695E+001
 40
2.2
  1
 
 41
7.0E-001
  2
14
 70
0
  0
ATTRIB
  8
3
  6
CONTINUOUS
 62
6
 10
1.0186E+002
 20
2.695E+001
 40
2.2
  1
 
 41
7.0E-001
  2
15
 70
0
  0
ATTRIB
  8
3
  6
CONTINUOUS
 62
6
 10
8.662E+001
 20
2.272E+001
 40
2.2
  1
 
 41
7.0E-001
  2
16
 70
0
  0
ATTRIB
  8
3
  6
CONTINUOUS
 62
6
 10
1.9787322E+002
 20
4.0038027E+001
 40
1.0
  1
 
  2
17
 70
0
  0
ATTRIB
  8
3
  6
CONTINUOUS
 62
6
 10
1.9787322E+002
 20
3.8538027E+001
 40
1.0
  1
 
  2
18
 70
0
  0
ATTRIB
  8
3
  6
CONTINUOUS
 62
6
 10
1.9787322E+002
 20
3.7038027E+001
 40
1.0
  1
 
  2
19
 70
0
  0
ATTRIB
  8
3
  6
CONTINUOUS
 62
6
 10
1.9787322E+002
 20
3.5538027E+001
 40
1.0
  1
 
  2
20
 70
0
  0
ATTRIB
  8
3
  6
CONTINUOUS
 62
6
 10
2.312E+001
 20
3.964E+001
 40
2.0
  1
 
 41
7.0E-001
  2
21
 70
0
  0
ATTRIB
  8
3
  6
CONTINUOUS
 62
6
 10
3.074E+001
 20
3.964E+001
 40
2.0
  1
 
 41
7.0E-001
  2
22
 70
0
  0
ATTRIB
  8
3
  6
CONTINUOUS
 62
6
 10
5.614E+001
 20
3.964E+001
 40
2.0
  1
 
 41
7.0E-001
  2
23
 70
0
  0
ATTRIB
  8
3
  6
CONTINUOUS
 62
6
 10
6.834E+001
 20
3.964E+001
 40
2.0
  1
 
 41
7.0E-001
  2
24
 70
0
  0
ATTRIB
  8
3
  6
CONTINUOUS
 62
6
 10
2.312E+001
 20
3.541E+001
 40
2.0
  1
 
 41
7.0E-001
  2
25
 70
0
  0
ATTRIB
  8
3
  6
CONTINUOUS
 62
6
 10
3.074E+001
 20
3.541E+001
 40
2.0
  1
 
 41
7.0E-001
  2
26
 70
0
  0
ATTRIB
  8
3
  6
CONTINUOUS
 62
6
 10
5.614E+001
 20
3.541E+001
 40
2.0
  1
 
 41
7.0E-001
  2
27
 70
0
  0
ATTRIB
  8
3
  6
CONTINUOUS
 62
6
 10
6.834E+001
 20
3.541E+001
 40
2.0
  1
 
 41
7.0E-001
  2
28
 70
0
  0
ATTRIB
  8
3
  6
CONTINUOUS
 62
6
 10
2.312E+001
 20
3.118E+001
 40
2.0
  1
 
 41
7.0E-001
  2
29
 70
0
  0
ATTRIB
  8
3
  6
CONTINUOUS
 62
6
 10
3.074E+001
 20
3.118E+001
 40
2.0
  1
 
 41
7.0E-001
  2
30
 70
0
  0
ATTRIB
  8
3
  6
CONTINUOUS
 62
6
 10
5.614E+001
 20
3.118E+001
 40
2.0
  1
 
 41
7.0E-001
  2
31
 70
0
  0
ATTRIB
  8
3
  6
CONTINUOUS
 62
6
 10
6.834E+001
 20
3.118E+001
 40
2.0
  1
 
 41
7.0E-001
  2
32
 70
0
  0
ATTRIB
  8
3
  6
CONTINUOUS
 62
6
 10
2.312E+001
 20
2.695E+001
 40
2.0
  1
 
 41
7.0E-001
  2
33
 70
0
  0
ATTRIB
  8
3
  6
CONTINUOUS
 62
6
 10
3.074E+001
 20
2.695E+001
 40
2.0
  1
 
 41
7.0E-001
  2
34
 70
0
  0
ATTRIB
  8
3
  6
CONTINUOUS
 62
6
 10
5.614E+001
 20
2.695E+001
 40
2.0
  1
 
 41
7.0E-001
  2
35
 70
0
  0
ATTRIB
  8
3
  6
CONTINUOUS
 62
6
 10
6.834E+001
 20
2.695E+001
 40
2.0
  1
 
 41
7.0E-001
  2
36
 70
0
  0
ATTRIB
  8
3
  6
CONTINUOUS
 62
6
 10
2.312E+001
 20
2.272E+001
 40
2.0
  1
 
 41
7.0E-001
  2
37
 70
0
  0
ATTRIB
  8
3
  6
CONTINUOUS
 62
6
 10
3.074E+001
 20
2.272E+001
 40
2.0
  1
 
 41
7.0E-001
  2
38
 70
0
  0
ATTRIB
  8
3
  6
CONTINUOUS
 62
6
 10
5.614E+001
 20
2.272E+001
 40
2.0
  1
 
 41
7.0E-001
  2
39
 70
0
  0
ATTRIB
  8
3
  6
CONTINUOUS
 62
6
 10
6.834E+001
 20
2.272E+001
 40
2.0
  1
 
 41
7.0E-001
  2
40
 70
0
  0
ATTRIB
  8
3
  6
CONTINUOUS
 62
6
 10
2.312E+001
 20
1.849E+001
 40
2.0
  1
 
 41
7.0E-001
  2
41
 70
0
  0
ATTRIB
  8
3
  6
CONTINUOUS
 62
6
 10
3.074E+001
 20
1.849E+001
 40
2.0
  1
 
 41
7.0E-001
  2
42
 70
0
  0
ATTRIB
  8
3
  6
CONTINUOUS
 62
6
 10
5.614E+001
 20
1.849E+001
 40
2.0
  1
 
 41
7.0E-001
  2
43
 70
0
  0
ATTRIB
  8
3
  6
CONTINUOUS
 62
6
 10
6.834E+001
 20
1.849E+001
 40
2.0
  1
 
 41
7.0E-001
  2
44
 70
0
  0
ATTRIB
  8
3
  6
CONTINUOUS
 62
6
 10
2.312E+001
 20
1.426E+001
 40
2.0
  1
 
 41
7.0E-001
  2
45
 70
0
  0
ATTRIB
  8
3
  6
CONTINUOUS
 62
6
 10
3.074E+001
 20
1.426E+001
 40
2.0
  1
 
 41
7.0E-001
  2
46
 70
0
  0
ATTRIB
  8
3
  6
CONTINUOUS
 62
6
 10
5.614E+001
 20
1.426E+001
 40
2.0
  1
 
 41
7.0E-001
  2
47
 70
0
  0
ATTRIB
  8
3
  6
CONTINUOUS
 62
6
 10
6.834E+001
 20
1.426E+001
 40
2.0
  1
 
 41
7.0E-001
  2
48
 70
0
  0
ATTRIB
  8
3
  6
CONTINUOUS
 62
6
 10
2.312E+001
 20
1.003E+001
 40
2.0
  1
 
 41
7.0E-001
  2
49
 70
0
  0
ATTRIB
  8
3
  6
CONTINUOUS
 62
6
 10
3.074E+001
 20
1.003E+001
 40
2.0
  1
 
 41
7.0E-001
  2
50
 70
0
  0
ATTRIB
  8
3
  6
CONTINUOUS
 62
6
 10
5.614E+001
 20
1.003E+001
 40
2.0
  1
 
 41
7.0E-001
  2
51
 70
0
  0
ATTRIB
  8
3
  6
CONTINUOUS
 62
6
 10
6.834E+001
 20
1.003E+001
 40
2.0
  1
 
 41
7.0E-001
  2
52
 70
0
  0
SEQEND
  0
TEXT
  8
4
  6
CONTINUOUS
 62
1
 10
1.4397018E+002
 20
5.4962122E+001
 40
3.0
  1
1:1
 41
7.5E-001
  0
DIMENSION
  8
5
  6
CONTINUOUS
 62
3
  2
*D3778
  3
DSTYLE4
 10
3.6213E+001
 20
2.316964E+002
 11
3.1257739E+001
 21
2.346974E+002
 70
128
 13
2.4213E+001
 23
2.24464E+002
 14
3.6213E+001
 24
2.24444E+002
 40
3.0
 50
0.0
1001
ACAD
1000
DSTYLE
1002
{
1070
173
1070
0
1070
5
1000
_AH1
1002
}
  0
DIMENSION
  8
5
  6
CONTINUOUS
 62
3
  2
*D3779
  3
DSTYLE4
 10
4.8213E+001
 20
2.410095E+002
 11
3.6181903E+001
 21
2.440105E+002
 70
128
 13
2.4213E+001
 23
2.24464E+002
 14
4.8213E+001
 24
2.24464E+002
 40
3.0
 50
0.0
1001
ACAD
1000
DSTYLE
1002
{
1070
173
1070
0
1070
5
1000
_AH1
1002
}
  0
DIMENSION
  8
5
  6
CONTINUOUS
 62
3
  2
*D3781
  3
DSTYLE4
 10
5.8140741E+001
 20
1.82464E+002
 11
5.5139741E+001
 21
1.6968041E+002
 70
128
 13
4.2963E+001
 23
1.56464E+002
 14
4.2963E+001
 24
1.82464E+002
 40
3.0
 50
9.0E+001
1001
ACAD
1000
DSTYLE
1002
{
1070
173
1070
0
1070
5
1000
_AH1
1002
}
  0
DIMENSION
  8
5
  6
CONTINUOUS
 62
3
  2
*D3782
  3
DSTYLE4
 10
6.7401125E+001
 20
1.21464E+002
 11
6.4400125E+001
 21
1.1801589E+002
 70
128
 13
4.8213E+001
 23
1.14464E+002
 14
4.3193E+001
 24
1.21464E+002
 40
3.0
 50
9.0E+001
1001
ACAD
1000
DSTYLE
1002
{
1070
173
1070
0
1070
5
1000
_AH1
1002
}
  0
DIMENSION
  8
5
  6
CONTINUOUS
 62
3
  2
*D3783
  3
DSTYLE4
 10
6.737014E+001
 20
2.17464E+002
 11
6.436914E+001
 21
1.6897046E+002
 70
128
 13
4.1413E+001
 23
1.21464E+002
 14
4.3193E+001
 24
2.17464E+002
 40
3.0
 50
9.0E+001
1001
ACAD
1000
DSTYLE
1002
{
1070
173
1070
0
1070
5
1000
_AH1
1002
}
  0
DIMENSION
  8
5
  6
CONTINUOUS
 62
3
  2
*D3784
  3
DSTYLE4
 10
9.9553139E+001
 20
1.37464E+002
 11
9.6552139E+001
 21
1.7034294E+002
 70
128
 13
1.11013E+002
 23
2.01464E+002
 14
1.11013E+002
 24
1.37464E+002
 40
3.0
 50
9.0E+001
1001
ACAD
1000
DSTYLE
1002
{
1070
173
1070
0
1070
5
1000
_AH1
1002
}
  0
DIMENSION
  8
5
  6
CONTINUOUS
 62
3
  2
*D3785
  3
DSTYLE4
 10
1.50213E+002
 20
1.0419757E+002
 11
1.5675956E+002
 21
1.0719857E+002
 70
128
 13
1.47213E+002
 23
1.18714E+002
 14
1.50213E+002
 24
1.16264E+002
 40
3.0
 50
0.0
1001
ACAD
1000
DSTYLE
1002
{
1070
173
1070
0
1070
5
1000
_AH1
1002
}
  0
DIMENSION
  8
5
  6
CONTINUOUS
 62
3
  2
*D3786
  3
DSTYLE5
 10
1.47213E+002
 20
9.4652494E+001
 11
1.2995991E+002
 21
9.7653494E+001
 70
128
 13
1.10013E+002
 23
1.38464E+002
 14
1.47213E+002
 24
1.24214E+002
 40
3.0
 50
0.0
1001
ACAD
1000
DSTYLE
1002
{
1070
173
1070
0
1070
5
1000
_AH1
1002
}
  0
DIMENSION
  8
5
  6
CONTINUOUS
 62
3
  2
*D3787
  3
DSTYLE4
 10
1.726097E+002
 20
1.53464E+002
 11
1.696087E+002
 21
1.7034294E+002
 70
128
 13
1.61963E+002
 23
1.85464E+002
 14
1.61963E+002
 24
1.53464E+002
 40
3.0
 50
9.0E+001
1001
ACAD
1000
DSTYLE
1002
{
1070
173
1070
0
1070
5
1000
_AH1
1002
}
  0
DIMENSION
  8
5
  6
CONTINUOUS
 62
3
  2
*D3788
  3
DSTYLE4
 10
1.726097E+002
 20
1.85464E+002
 11
1.696087E+002
 21
2.0595342E+002
 70
128
 13
1.50213E+002
 23
2.24464E+002
 14
1.50213E+002
 24
1.85464E+002
 40
3.0
 50
9.0E+001
1001
ACAD
1000
DSTYLE
1002
{
1070
173
1070
0
1070
5
1000
_AH1
1002
}
  0
DIMENSION
  8
5
  6
CONTINUOUS
 62
3
  2
*D3789
  3
DSTYLE4
 10
1.726097E+002
 20
1.14464E+002
 11
1.696087E+002
 21
1.3840364E+002
 70
128
 13
1.61963E+002
 23
1.53464E+002
 14
1.50213E+002
 24
1.14464E+002
 40
3.0
 50
9.0E+001
1001
ACAD
1000
DSTYLE
1002
{
1070
173
1070
0
1070
5
1000
_AH1
1002
}
  0
DIMENSION
  8
5
  6
CONTINUOUS
 62
3
  2
*D3790
  3
DSTYLE4
 10
1.8472461E+002
 20
1.14464E+002
 11
1.8172361E+002
 21
1.6850735E+002
 70
128
 13
1.47213E+002
 23
2.24464E+002
 14
1.50213E+002
 24
1.14464E+002
 40
3.0
 50
9.0E+001
1001
ACAD
1000
DSTYLE
1002
{
1070
173
1070
0
1070
5
1000
_AH1
1002
}
  0
DIMENSION
  8
5
  6
CONTINUOUS
 62
3
  2
*D3791
  3
DSTYLE4
 10
1.0256486E+002
 20
2.54464E+002
 11
9.9563863E+001
 21
2.6372091E+002
 70
128
 13
1.10013E+002
 23
2.72464E+002
 14
1.12213E+002
 24
2.54464E+002
 40
3.0
 50
9.0E+001
1001
ACAD
1000
DSTYLE
1002
{
1070
173
1070
0
1070
5
1000
_AH1
1002
}
  0
DIMENSION
  8
5
  6
CONTINUOUS
 62
3
  2
*D3792
  3
DSTYLE4
 10
9.432388E+001
 20
2.72464E+002
 11
9.132288E+001
 21
2.8090925E+002
 70
128
 13
1.47213E+002
 23
2.75464E+002
 14
1.39513E+002
 24
2.72464E+002
 40
3.0
 50
9.0E+001
1001
ACAD
1000
DSTYLE
1002
{
1070
173
1070
0
1070
5
1000
_AH1
1002
}
  0
DIMENSION
  8
5
  6
CONTINUOUS
 62
3
  2
*D3794
  3
DSTYLE4
 10
9.4166909E+001
 20
2.51464E+002
 11
9.1165909E+001
 21
2.4629712E+002
 70
128
 13
1.45213E+002
 23
2.54464E+002
 14
1.47213E+002
 24
2.51464E+002
 40
3.0
 50
9.0E+001
1001
ACAD
1000
DSTYLE
1002
{
1070
173
1070
0
1070
5
1000
_AH1
1002
}
  0
ENDSEC
  0
EOF
