999
DXF file: Z:\Entwicklung\5_Service\1_Beschlagsdaten\1_Beschlag\B-7400x_komplett in TB-Datei\Beschlagdaten\dxf\b-74000-40-0_bd01.dxf
999
Pro/ENGINEER 2018300 by Parametric Technology Corporation
  0
SECTION
  2
HEADER
  9
$ACADVER
  1
AC1021
  9
$DWGCODEPAGE
  3
ANSI_1252
  9
$EXTMAX
 10
594.0
 20
420.0
 30
0.0
  9
$EXTMIN
 10
0.0
 20
0.0
 30
0.0
  9
$LIMMIN
 10
0.0
 20
0.0
  9
$LIMMAX
 10
594.0
 20
420.0
  9
$VIEWCTR
 10
297.0
 20
210.0
  9
$VIEWSIZE
 40
420.0
  9
$CLAYER
  8
0
  9
$LTSCALE
 40
32.67
  9
$CELTYPE
  6
BYLAYER
  9
$DIMSCALE
 40
1.0
  9
$DIMASZ
 40
3.5
  9
$DIMEXO
 40
0.0
  9
$DIMDLI
 40
22.572
  9
$DIMEXE
 40
1.5
  9
$DIMCEN
 40
5.346
  9
$DIMLFAC
 40
1.0
  9
$DIMBLK
  1
_FILLED
  9
$DIMALT
 70
0
  9
$DIMALTF
 40
0.0393700787
  9
$DIMTXT
 40
3.5
  9
$DIMTOL
 70
1
  9
$DIMLIM
 70
0
  9
$DIMTFAC
 40
1.0
  9
$DIMTP
 40
0.001
  9
$DIMTM
 40
0.001
  9
$DIMGAP
 40
0.625
  9
$DIMDSEP
 70
46
  9
$AUNITS
 70
0
  9
$PDMODE
 70
3
  9
$PDSIZE
 40
0.3125
  9
$HANDSEED
  5
68C
  9
$TILEMODE
 70
1
  9
$MEASUREMENT
 70
1
  9
$INSUNITS
 70
4
  0
ENDSEC
  0
SECTION
  2
CLASSES
  0
CLASS
  1
ACDBDICTIONARYWDFLT
  2
AcDbDictionaryWithDefault
  3
AutoCAD 2000
 90
0
 91
1
280
0
281
0
  0
CLASS
  1
ACDBPLACEHOLDER
  2
AcDbPlaceHolder
  3
AutoCAD 2000
 90
0
 91
1
280
0
281
0
  0
CLASS
  1
LAYOUT
  2
AcDbLayout
  3
AutoCAD 2000
 90
0
 91
0
280
0
281
0
  0
CLASS
  1
TABLESTYLE
  2
AcDbTableStyle
  3
ObjectDBX Classes
 90
2047
 91
1
280
0
281
0
  0
CLASS
  1
ACAD_TABLE
  2
AcDbTable
  3
ObjectDBX Classes
 90
1025
 91
1
280
0
281
1
  0
ENDSEC
  0
SECTION
  2
TABLES
  0
TABLE
  2
VPORT
  5
8
100
AcDbSymbolTable
 70
2
  0
VPORT
  5
1F4
100
AcDbSymbolTableRecord
100
AcDbViewportTableRecord
  2
*ACTIVE
 70
0
 10
0.0
 20
0.0
 11
1.0
 21
1.0
 12
297.0
 22
210.0
 13
0.0
 23
0.0
 14
1.0
 24
1.0
 15
0.0
 25
0.0
 16
0.0
 26
0.0
 36
1.0
 17
0.0
 27
0.0
 37
0.0
 40
420.0
 41
1.4142857143
 42
50.0
 43
0.0
 44
0.0
 50
0.0
 51
0.0
 71
0
 72
100
 73
1
 74
1
 75
0
 76
0
 77
0
 78
0
  0
ENDTAB
  0
TABLE
  2
LTYPE
  5
5
100
AcDbSymbolTable
 70
6
  0
LTYPE
  5
14
100
AcDbSymbolTableRecord
100
AcDbLinetypeTableRecord
  2
BYBLOCK
 70
0
  3

 72
65
 73
0
 40
0.0
  0
LTYPE
  5
15
100
AcDbSymbolTableRecord
100
AcDbLinetypeTableRecord
  2
BYLAYER
 70
0
  3

 72
65
 73
0
 40
0.0
  0
LTYPE
  5
16
100
AcDbSymbolTableRecord
100
AcDbLinetypeTableRecord
  2
CONTINUOUS
 70
64
  3
Solid line
 72
65
 73
0
 40
0.0
  0
LTYPE
  5
1F5
100
AcDbSymbolTableRecord
100
AcDbLinetypeTableRecord
  2
CENTER
 70
64
  3
____ _ ____ _ ____ _ ____ _ ____ _ ____ _ ____
 72
65
 73
4
 40
0.6
 49
0.375
 74
0
 49
-0.075
 74
0
 49
0.075
 74
0
 49
-0.075
 74
0
  0
LTYPE
  5
1F6
100
AcDbSymbolTableRecord
100
AcDbLinetypeTableRecord
  2
HIDDEN
 70
64
  3
- - - - - - - - - - - - - - - - - - - -
 72
65
 73
2
 40
0.2
 49
0.1
 74
0
 49
-0.1
 74
0
  0
LTYPE
  5
1F7
100
AcDbSymbolTableRecord
100
AcDbLinetypeTableRecord
  2
PHANTOM
 70
64
  3
_____ _ _ _____ _ _ _____ _ _ _____
 72
65
 73
6
 40
0.8
 49
0.45
 74
0
 49
-0.05
 74
0
 49
0.1
 74
0
 49
-0.05
 74
0
 49
0.1
 74
0
 49
-0.05
 74
0
  0
LTYPE
  5
1F8
100
AcDbSymbolTableRecord
100
AcDbLinetypeTableRecord
  2
DOT
 70
64
  3
. . . . . . . . . . . . . . . . . . . .
 72
65
 73
2
 40
0.2
 49
0.1
 74
0
 49
-0.1
 74
0
  0
LTYPE
  5
1F9
100
AcDbSymbolTableRecord
100
AcDbLinetypeTableRecord
  2
DASHED
 70
64
  3
- - - - - - - - - - - - - - - - - - - -
 72
65
 73
2
 40
0.2
 49
0.1
 74
0
 49
-0.1
 74
0
  0
ENDTAB
  0
TABLE
  2
LAYER
  5
2
100
AcDbSymbolTable
 70
36
  0
LAYER
  5
10
100
AcDbSymbolTableRecord
100
AcDbLayerTableRecord
  2
0
 70
0
 62
7
  6
CONTINUOUS
370
-3
390
F
  0
LAYER
  5
1FA
100
AcDbSymbolTableRecord
100
AcDbLayerTableRecord
  2
DEFAULT_1
 70
0
 62
7
  6
CENTER
370
-3
390
F
  0
LAYER
  5
1FB
100
AcDbSymbolTableRecord
100
AcDbLayerTableRecord
  2
DEFAULT_2
 70
0
 62
8
  6
HIDDEN
370
-3
390
F
  0
LAYER
  5
1FC
100
AcDbSymbolTableRecord
100
AcDbLayerTableRecord
  2
DEFAULT_3
 70
0
 62
7
  6
PHANTOM
370
-3
390
F
  0
LAYER
  5
1FD
100
AcDbSymbolTableRecord
100
AcDbLayerTableRecord
  2
ACHSEN
 70
0
 62
7
  6
CONTINUOUS
370
-3
390
F
  0
LAYER
  5
1FE
100
AcDbSymbolTableRecord
100
AcDbLayerTableRecord
  2
AXIS
 70
0
 62
7
  6
CONTINUOUS
370
-3
390
F
  0
LAYER
  5
1FF
100
AcDbSymbolTableRecord
100
AcDbLayerTableRecord
  2
BOHRUNGEN
 70
0
 62
7
  6
CONTINUOUS
370
-3
390
F
  0
LAYER
  5
200
100
AcDbSymbolTableRecord
100
AcDbLayerTableRecord
  2
COORDSYS
 70
0
 62
7
  6
CONTINUOUS
370
-3
390
F
  0
LAYER
  5
201
100
AcDbSymbolTableRecord
100
AcDbLayerTableRecord
  2
CURVES
 70
0
 62
7
  6
CONTINUOUS
370
-3
390
F
  0
LAYER
  5
202
100
AcDbSymbolTableRecord
100
AcDbLayerTableRecord
  2
EBENEN
 70
0
 62
7
  6
CONTINUOUS
370
-3
390
F
  0
LAYER
  5
203
100
AcDbSymbolTableRecord
100
AcDbLayerTableRecord
  2
FLAECHEN
 70
0
 62
7
  6
CONTINUOUS
370
-3
390
F
  0
LAYER
  5
204
100
AcDbSymbolTableRecord
100
AcDbLayerTableRecord
  2
GEWINDE
 70
0
 62
7
  6
CONTINUOUS
370
-3
390
F
  0
LAYER
  5
205
100
AcDbSymbolTableRecord
100
AcDbLayerTableRecord
  2
GUIDES
 70
0
 62
7
  6
CONTINUOUS
370
-3
390
F
  0
LAYER
  5
206
100
AcDbSymbolTableRecord
100
AcDbLayerTableRecord
  2
HIDDEN
 70
0
 62
7
  6
CONTINUOUS
370
-3
390
F
  0
LAYER
  5
207
100
AcDbSymbolTableRecord
100
AcDbLayerTableRecord
  2
INDEX
 70
0
 62
7
  6
CONTINUOUS
370
-3
390
F
  0
LAYER
  5
208
100
AcDbSymbolTableRecord
100
AcDbLayerTableRecord
  2
KURVEN
 70
0
 62
7
  6
CONTINUOUS
370
-3
390
F
  0
LAYER
  5
209
100
AcDbSymbolTableRecord
100
AcDbLayerTableRecord
  2
PLANES
 70
0
 62
7
  6
CONTINUOUS
370
-3
390
F
  0
LAYER
  5
20A
100
AcDbSymbolTableRecord
100
AcDbLayerTableRecord
  2
POINTS
 70
0
 62
7
  6
CONTINUOUS
370
-3
390
F
  0
LAYER
  5
20B
100
AcDbSymbolTableRecord
100
AcDbLayerTableRecord
  2
QUILTS
 70
0
 62
7
  6
CONTINUOUS
370
-3
390
F
  0
LAYER
  5
20C
100
AcDbSymbolTableRecord
100
AcDbLayerTableRecord
  2
S-ACHSEN
 70
0
 62
7
  6
CONTINUOUS
370
-3
390
F
  0
LAYER
  5
20D
100
AcDbSymbolTableRecord
100
AcDbLayerTableRecord
  2
S-AXIS
 70
0
 62
7
  6
CONTINUOUS
370
-3
390
F
  0
LAYER
  5
20E
100
AcDbSymbolTableRecord
100
AcDbLayerTableRecord
  2
S-BG-EBENEN
 70
0
 62
7
  6
CONTINUOUS
370
-3
390
F
  0
LAYER
  5
20F
100
AcDbSymbolTableRecord
100
AcDbLayerTableRecord
  2
S-BG-KOORDSYS
 70
0
 62
7
  6
CONTINUOUS
370
-3
390
F
  0
LAYER
  5
210
100
AcDbSymbolTableRecord
100
AcDbLayerTableRecord
  2
S-COORDSYS
 70
0
 62
7
  6
CONTINUOUS
370
-3
390
F
  0
LAYER
  5
211
100
AcDbSymbolTableRecord
100
AcDbLayerTableRecord
  2
S-EBENEN
 70
0
 62
7
  6
CONTINUOUS
370
-3
390
F
  0
LAYER
  5
212
100
AcDbSymbolTableRecord
100
AcDbLayerTableRecord
  2
S-KOORDSYS
 70
0
 62
7
  6
CONTINUOUS
370
-3
390
F
  0
LAYER
  5
213
100
AcDbSymbolTableRecord
100
AcDbLayerTableRecord
  2
S-PLANES
 70
0
 62
7
  6
CONTINUOUS
370
-3
390
F
  0
LAYER
  5
214
100
AcDbSymbolTableRecord
100
AcDbLayerTableRecord
  2
THREADS
 70
0
 62
7
  6
CONTINUOUS
370
-3
390
F
  0
LAYER
  5
215
100
AcDbSymbolTableRecord
100
AcDbLayerTableRecord
  2
XSEC_DATUMS
 70
0
 62
7
  6
CONTINUOUS
370
-3
390
F
  0
LAYER
  5
216
100
AcDbSymbolTableRecord
100
AcDbLayerTableRecord
  2
HATCHING_BL0
 70
0
 62
7
  6
CONTINUOUS
370
-3
390
F
  0
LAYER
  5
217
100
AcDbSymbolTableRecord
100
AcDbLayerTableRecord
  2
Grp_symbol_75_BL1
 70
0
 62
7
  6
CONTINUOUS
370
-3
390
F
  0
LAYER
  5
218
100
AcDbSymbolTableRecord
100
AcDbLayerTableRecord
  2
Grp_symbol_75_BL2
 70
0
 62
7
  6
CONTINUOUS
370
-3
390
F
  0
LAYER
  5
219
100
AcDbSymbolTableRecord
100
AcDbLayerTableRecord
  2
X48000092_BD01_BL3
 70
0
 62
7
  6
CONTINUOUS
370
-3
390
F
  0
LAYER
  5
21A
100
AcDbSymbolTableRecord
100
AcDbLayerTableRecord
  2
X48002254_BL4
 70
0
 62
7
  6
CONTINUOUS
370
-3
390
F
  0
LAYER
  5
21B
100
AcDbSymbolTableRecord
100
AcDbLayerTableRecord
  2
X48002255_BL5
 70
0
 62
7
  6
CONTINUOUS
370
-3
390
F
  0
LAYER
  5
21C
100
AcDbSymbolTableRecord
100
AcDbLayerTableRecord
  2
X48002256_BL6
 70
0
 62
7
  6
CONTINUOUS
370
-3
390
F
  0
LAYER
  5
21D
100
AcDbSymbolTableRecord
100
AcDbLayerTableRecord
  2
X48002257_BL7
 70
0
 62
7
  6
CONTINUOUS
370
-3
390
F
  0
LAYER
  5
21E
100
AcDbSymbolTableRecord
100
AcDbLayerTableRecord
  2
X48002007_BL8
 70
0
 62
7
  6
CONTINUOUS
370
-3
390
F
  0
LAYER
  5
21F
100
AcDbSymbolTableRecord
100
AcDbLayerTableRecord
  2
C9535200X_BL9
 70
0
 62
7
  6
CONTINUOUS
370
-3
390
F
  0
LAYER
  5
220
100
AcDbSymbolTableRecord
100
AcDbLayerTableRecord
  2
C9535200X_BL10
 70
0
 62
7
  6
CONTINUOUS
370
-3
390
F
  0
LAYER
  5
221
100
AcDbSymbolTableRecord
100
AcDbLayerTableRecord
  2
X48002258_BL11
 70
0
 62
7
  6
CONTINUOUS
370
-3
390
F
  0
LAYER
  5
222
100
AcDbSymbolTableRecord
100
AcDbLayerTableRecord
  2
X48002026_BL12
 70
0
 62
7
  6
CONTINUOUS
370
-3
390
F
  0
LAYER
  5
223
100
AcDbSymbolTableRecord
100
AcDbLayerTableRecord
  2
X48002028_BL13
 70
0
 62
7
  6
CONTINUOUS
370
-3
390
F
  0
LAYER
  5
224
100
AcDbSymbolTableRecord
100
AcDbLayerTableRecord
  2
X48002260_BL14
 70
0
 62
7
  6
CONTINUOUS
370
-3
390
F
  0
LAYER
  5
225
100
AcDbSymbolTableRecord
100
AcDbLayerTableRecord
  2
X48002254_BL15
 70
0
 62
7
  6
CONTINUOUS
370
-3
390
F
  0
LAYER
  5
226
100
AcDbSymbolTableRecord
100
AcDbLayerTableRecord
  2
X48002004_BL16
 70
0
 62
7
  6
CONTINUOUS
370
-3
390
F
  0
LAYER
  5
227
100
AcDbSymbolTableRecord
100
AcDbLayerTableRecord
  2
X48002028_BL17
 70
0
 62
7
  6
CONTINUOUS
370
-3
390
F
  0
LAYER
  5
228
100
AcDbSymbolTableRecord
100
AcDbLayerTableRecord
  2
X48002262_BL18
 70
0
 62
7
  6
CONTINUOUS
370
-3
390
F
  0
LAYER
  5
229
100
AcDbSymbolTableRecord
100
AcDbLayerTableRecord
  2
B_7100_4210_BD01_BL19
 70
0
 62
7
  6
CONTINUOUS
370
-3
390
F
  0
ENDTAB
  0
TABLE
  2
STYLE
  5
3
100
AcDbSymbolTable
 70
1
  0
STYLE
  5
11
100
AcDbSymbolTableRecord
100
AcDbTextStyleTableRecord
  2
STANDARD
 70
0
 40
0.0
 41
0.7
 50
0.0
 71
0
 42
0.2
  3
txt
  4

  0
STYLE
  5
22A
100
AcDbSymbolTableRecord
100
AcDbTextStyleTableRecord
  2
TEXTSTYLE_1
 70
0
 40
0.0
 41
0.8
 50
0.0
 71
0
 42
0.2
  3
gdt
  4

  0
STYLE
  5
22B
100
AcDbSymbolTableRecord
100
AcDbTextStyleTableRecord
  2
TEXTSTYLE_2
 70
0
 40
0.0
 41
1.0
 50
0.0
 71
0
 42
0.2
  3
arialuni.ttf
  4

  0
STYLE
  5
22C
100
AcDbSymbolTableRecord
100
AcDbTextStyleTableRecord
  2
TEXTSTYLE_3
 70
0
 40
0.0
 41
1.0
 50
0.0
 71
0
 42
0.2
  3
symbol_asme.ttf
  4

  0
STYLE
  5
22D
100
AcDbSymbolTableRecord
100
AcDbTextStyleTableRecord
  2
TEXTSTYLE_4
 70
0
 40
0.0
 41
1.0
 50
0.0
 71
0
 42
0.2
  3
arialuni.ttf
  4

  0
ENDTAB
  0
TABLE
  2
VIEW
  5
6
100
AcDbSymbolTable
 70
0
  0
ENDTAB
  0
TABLE
  2
UCS
  5
7
100
AcDbSymbolTable
 70
0
  0
ENDTAB
  0
TABLE
  2
APPID
  5
9
100
AcDbSymbolTable
 70
1
  0
APPID
  5
22E
100
AcDbSymbolTableRecord
100
AcDbRegAppTableRecord
  2
ACAD
 70
0
  0
ENDTAB
  0
TABLE
  2
BLOCK_RECORD
  5
1
100
AcDbSymbolTable
 70
0
  0
BLOCK_RECORD
  5
22F
100
AcDbSymbolTableRecord
100
AcDbBlockTableRecord
  2
*Model_Space
  0
BLOCK_RECORD
  5
230
100
AcDbSymbolTableRecord
100
AcDbBlockTableRecord
  2
*Paper_Space
  0
BLOCK_RECORD
  5
231
100
AcDbSymbolTableRecord
100
AcDbBlockTableRecord
  2
_FILLED
  0
BLOCK_RECORD
  5
232
100
AcDbSymbolTableRecord
100
AcDbBlockTableRecord
  2
XSEC_FILLED
  0
BLOCK_RECORD
  5
233
100
AcDbSymbolTableRecord
100
AcDbBlockTableRecord
  2
*D0
  0
BLOCK_RECORD
  5
234
100
AcDbSymbolTableRecord
100
AcDbBlockTableRecord
  2
*D1
  0
BLOCK_RECORD
  5
235
100
AcDbSymbolTableRecord
100
AcDbBlockTableRecord
  2
*D2
  0
BLOCK_RECORD
  5
236
100
AcDbSymbolTableRecord
100
AcDbBlockTableRecord
  2
*D3
  0
BLOCK_RECORD
  5
237
100
AcDbSymbolTableRecord
100
AcDbBlockTableRecord
  2
*D4
  0
BLOCK_RECORD
  5
238
100
AcDbSymbolTableRecord
100
AcDbBlockTableRecord
  2
*D5
  0
BLOCK_RECORD
  5
239
100
AcDbSymbolTableRecord
100
AcDbBlockTableRecord
  2
*D6
  0
BLOCK_RECORD
  5
23A
100
AcDbSymbolTableRecord
100
AcDbBlockTableRecord
  2
*D7
  0
BLOCK_RECORD
  5
23B
100
AcDbSymbolTableRecord
100
AcDbBlockTableRecord
  2
*D8
  0
BLOCK_RECORD
  5
23C
100
AcDbSymbolTableRecord
100
AcDbBlockTableRecord
  2
*D9
  0
BLOCK_RECORD
  5
23D
100
AcDbSymbolTableRecord
100
AcDbBlockTableRecord
  2
*D10
  0
BLOCK_RECORD
  5
23E
100
AcDbSymbolTableRecord
100
AcDbBlockTableRecord
  2
*D11
  0
BLOCK_RECORD
  5
23F
100
AcDbSymbolTableRecord
100
AcDbBlockTableRecord
  2
*D12
  0
BLOCK_RECORD
  5
240
100
AcDbSymbolTableRecord
100
AcDbBlockTableRecord
  2
*D13
  0
BLOCK_RECORD
  5
241
100
AcDbSymbolTableRecord
100
AcDbBlockTableRecord
  2
*D14
  0
BLOCK_RECORD
  5
242
100
AcDbSymbolTableRecord
100
AcDbBlockTableRecord
  2
*D15
  0
BLOCK_RECORD
  5
243
100
AcDbSymbolTableRecord
100
AcDbBlockTableRecord
  2
*D16
  0
BLOCK_RECORD
  5
244
100
AcDbSymbolTableRecord
100
AcDbBlockTableRecord
  2
*D17
  0
BLOCK_RECORD
  5
245
100
AcDbSymbolTableRecord
100
AcDbBlockTableRecord
  2
*D18
  0
BLOCK_RECORD
  5
246
100
AcDbSymbolTableRecord
100
AcDbBlockTableRecord
  2
HATCHING_BL0
  0
BLOCK_RECORD
  5
247
100
AcDbSymbolTableRecord
100
AcDbBlockTableRecord
  2
GRP_SYMBOL_75_BL1
  0
BLOCK_RECORD
  5
248
100
AcDbSymbolTableRecord
100
AcDbBlockTableRecord
  2
GRP_SYMBOL_75_BL2
  0
BLOCK_RECORD
  5
249
100
AcDbSymbolTableRecord
100
AcDbBlockTableRecord
  2
X48000092_BD01_BL3
  0
BLOCK_RECORD
  5
24A
100
AcDbSymbolTableRecord
100
AcDbBlockTableRecord
  2
X48002254_BL4
  0
BLOCK_RECORD
  5
24B
100
AcDbSymbolTableRecord
100
AcDbBlockTableRecord
  2
X48002255_BL5
  0
BLOCK_RECORD
  5
24C
100
AcDbSymbolTableRecord
100
AcDbBlockTableRecord
  2
X48002256_BL6
  0
BLOCK_RECORD
  5
24D
100
AcDbSymbolTableRecord
100
AcDbBlockTableRecord
  2
X48002257_BL7
  0
BLOCK_RECORD
  5
24E
100
AcDbSymbolTableRecord
100
AcDbBlockTableRecord
  2
X48002007_BL8
  0
BLOCK_RECORD
  5
24F
100
AcDbSymbolTableRecord
100
AcDbBlockTableRecord
  2
C9535200X_BL9
  0
BLOCK_RECORD
  5
250
100
AcDbSymbolTableRecord
100
AcDbBlockTableRecord
  2
C9535200X_BL10
  0
BLOCK_RECORD
  5
251
100
AcDbSymbolTableRecord
100
AcDbBlockTableRecord
  2
X48002258_BL11
  0
BLOCK_RECORD
  5
252
100
AcDbSymbolTableRecord
100
AcDbBlockTableRecord
  2
X48002026_BL12
  0
BLOCK_RECORD
  5
253
100
AcDbSymbolTableRecord
100
AcDbBlockTableRecord
  2
X48002028_BL13
  0
BLOCK_RECORD
  5
254
100
AcDbSymbolTableRecord
100
AcDbBlockTableRecord
  2
X48002260_BL14
  0
BLOCK_RECORD
  5
255
100
AcDbSymbolTableRecord
100
AcDbBlockTableRecord
  2
X48002254_BL15
  0
BLOCK_RECORD
  5
256
100
AcDbSymbolTableRecord
100
AcDbBlockTableRecord
  2
X48002004_BL16
  0
BLOCK_RECORD
  5
257
100
AcDbSymbolTableRecord
100
AcDbBlockTableRecord
  2
X48002028_BL17
  0
BLOCK_RECORD
  5
258
100
AcDbSymbolTableRecord
100
AcDbBlockTableRecord
  2
X48002262_BL18
  0
BLOCK_RECORD
  5
259
100
AcDbSymbolTableRecord
100
AcDbBlockTableRecord
  2
B_7100_4210_BD01_BL19
  0
BLOCK_RECORD
  5
25A
100
AcDbSymbolTableRecord
100
AcDbBlockTableRecord
  2
*T1
  0
ENDTAB
  0
TABLE
  2
DIMSTYLE
  5
A
100
AcDbSymbolTable
 70
1
100
AcDbDimStyleTable
 71
0
  0
DIMSTYLE
105
25B
100
AcDbSymbolTableRecord
100
AcDbDimStyleTableRecord
  2
STANDARD
 70
0
  3

  4

 40
1.0
 41
3.5
 42
0.0
 43
0.38
 44
1.5
 45
0.0
 46
0.0
 47
0.001
 48
0.001
140
3.5
141
0.09
142
0.0
143
25.4
144
1.0
145
0.0
146
1.0
147
0.625
 71
1.0
 72
0.0
 73
0
 74
0
 75
0
 76
0
 77
1
 78
8
 79
2
170
0
171
2
172
0
173
0
174
0
175
0
176
0
177
0
178
5
270
2
179
3
271
3
272
3
273
2
274
2
275
0
280
0
281
0
282
0
283
1
284
8
285
0
286
0
287
3
288
0
340
11
278
46
341
231
342
231
343
231
344
231
  0
DIMSTYLE
105
25C
100
AcDbSymbolTableRecord
100
AcDbDimStyleTableRecord
  2
DIMSTYLE_1
 70
0
  3

  4

 40
1.0
 41
3.5
 42
0.0
 43
0.38
 44
1.5
 45
0.0
 46
0.0
 47
0.3
 48
0.3
140
4.0
141
0.09
142
0.0
143
25.4
144
1.0
145
0.0
146
1.0
147
1.0
 71
0.0
 72
0.0
 73
0
 74
0
 75
0
 76
0
 77
1
 78
8
 79
2
170
0
171
2
172
0
173
0
174
0
175
0
176
0
177
0
178
5
270
2
179
3
271
3
272
3
273
2
274
2
275
0
280
0
281
0
282
0
283
1
284
8
285
0
286
0
287
3
288
0
340
22B
278
46
341
231
342
231
343
231
344
231
  0
DIMSTYLE
105
25D
100
AcDbSymbolTableRecord
100
AcDbDimStyleTableRecord
  2
DIMSTYLE_2
 70
0
  3

  4

 40
1.0
 41
3.5
 42
0.0
 43
0.38
 44
1.5
 45
0.0
 46
0.0
 47
0.2
 48
0.2
140
4.0
141
0.09
142
0.0
143
25.4
144
1.0
145
0.0
146
1.0
147
1.0
 71
0.0
 72
0.0
 73
0
 74
0
 75
0
 76
0
 77
1
 78
8
 79
2
170
0
171
2
172
0
173
0
174
0
175
0
176
0
177
0
178
5
270
2
179
3
271
3
272
3
273
2
274
2
275
0
280
0
281
0
282
0
283
1
284
8
285
0
286
0
287
3
288
0
340
22B
278
46
341
231
342
231
343
231
344
231
  0
DIMSTYLE
105
25E
100
AcDbSymbolTableRecord
100
AcDbDimStyleTableRecord
  2
DIMSTYLE_3
 70
0
  3

  4

 40
1.0
 41
3.5
 42
0.0
 43
0.38
 44
1.5
 45
0.0
 46
0.0
 47
0.5
 48
0.5
140
4.0
141
0.09
142
0.0
143
25.4
144
1.0
145
0.0
146
1.0
147
1.0
 71
0.0
 72
0.0
 73
0
 74
0
 75
0
 76
0
 77
1
 78
8
 79
2
170
0
171
2
172
0
173
0
174
0
175
0
176
0
177
0
178
5
270
2
179
3
271
3
272
3
273
2
274
2
275
0
280
0
281
0
282
0
283
1
284
8
285
0
286
0
287
3
288
0
340
22B
278
46
341
231
342
231
343
231
344
231
  0
DIMSTYLE
105
25F
100
AcDbSymbolTableRecord
100
AcDbDimStyleTableRecord
  2
DIMSTYLE_4
 70
0
  3

  4

 40
1.0
 41
3.5
 42
0.0
 43
0.38
 44
1.5
 45
0.0
 46
0.0
 47
0.3
 48
0.3
140
4.0
141
0.09
142
0.0
143
25.4
144
1.0
145
0.0
146
1.0
147
1.0
 71
0.0
 72
0.0
 73
0
 74
0
 75
0
 76
0
 77
1
 78
8
 79
2
170
0
171
2
172
0
173
0
174
0
175
0
176
0
177
0
178
5
270
2
179
3
271
0
272
0
273
2
274
2
275
0
280
0
281
0
282
0
283
1
284
8
285
0
286
0
287
3
288
0
340
22B
278
46
341
231
342
231
343
231
344
231
  0
DIMSTYLE
105
260
100
AcDbSymbolTableRecord
100
AcDbDimStyleTableRecord
  2
DIMSTYLE_5
 70
0
  3

  4

 40
1.0
 41
3.5
 42
0.0
 43
0.38
 44
1.5
 45
0.0
 46
0.0
 47
0.5
 48
0.5
140
4.0
141
0.09
142
0.0
143
25.4
144
1.0
145
0.0
146
1.0
147
1.0
 71
0.0
 72
0.0
 73
0
 74
0
 75
0
 76
0
 77
1
 78
8
 79
2
170
0
171
2
172
0
173
0
174
0
175
0
176
0
177
0
178
5
270
2
179
3
271
0
272
0
273
2
274
2
275
0
280
0
281
0
282
0
283
1
284
8
285
0
286
0
287
3
288
0
340
22B
278
46
341
231
342
231
343
231
344
231
  0
DIMSTYLE
105
261
100
AcDbSymbolTableRecord
100
AcDbDimStyleTableRecord
  2
DIMSTYLE_6
 70
0
  3

  4

 40
1.0
 41
3.5
 42
0.0
 43
0.38
 44
1.5
 45
0.0
 46
0.0
 47
0.2
 48
0.2
140
4.0
141
0.09
142
0.0
143
25.4
144
1.0
145
0.0
146
1.0
147
1.0
 71
0.0
 72
0.0
 73
0
 74
0
 75
0
 76
0
 77
1
 78
8
 79
2
170
0
171
2
172
0
173
0
174
0
175
0
176
0
177
0
178
5
270
2
179
3
271
0
272
0
273
2
274
2
275
0
280
0
281
0
282
0
283
1
284
8
285
0
286
0
287
3
288
0
340
22B
278
46
341
231
342
231
343
231
344
231
  0
DIMSTYLE
105
262
100
AcDbSymbolTableRecord
100
AcDbDimStyleTableRecord
  2
DIMSTYLE_7
 70
0
  3

  4

 40
1.0
 41
3.5
 42
0.0
 43
0.38
 44
1.5
 45
0.0
 46
0.0
 47
0.5
 48
0.5
140
4.0
141
0.09
142
0.0
143
25.4
144
1.0
145
0.0
146
1.0
147
2.0
 71
0.0
 72
0.0
 73
0
 74
0
 75
0
 76
0
 77
1
 78
8
 79
2
170
0
171
2
172
0
173
0
174
0
175
0
176
0
177
0
178
5
270
2
179
3
271
0
272
0
273
2
274
2
275
0
280
0
281
0
282
0
283
1
284
8
285
0
286
0
287
3
288
0
340
22B
278
46
341
231
342
231
343
231
344
231
  0
DIMSTYLE
105
263
100
AcDbSymbolTableRecord
100
AcDbDimStyleTableRecord
  2
DIMSTYLE_8
 70
0
  3

  4

 40
1.0
 41
3.5
 42
0.0
 43
0.38
 44
1.5
 45
0.0
 46
0.0
 47
0.2
 48
0.2
140
4.0
141
0.09
142
0.0
143
25.4
144
0.5
145
0.0
146
1.0
147
1.0
 71
0.0
 72
0.0
 73
0
 74
0
 75
0
 76
0
 77
1
 78
8
 79
2
170
0
171
2
172
0
173
0
174
0
175
0
176
0
177
0
178
5
270
2
179
3
271
0
272
0
273
2
274
2
275
0
280
0
281
0
282
0
283
1
284
8
285
0
286
0
287
3
288
0
340
22B
278
46
341
231
342
231
343
231
344
231
  0
DIMSTYLE
105
264
100
AcDbSymbolTableRecord
100
AcDbDimStyleTableRecord
  2
DIMSTYLE_9
 70
0
  3

  4

 40
1.0
 41
3.5
 42
0.0
 43
0.38
 44
1.5
 45
0.0
 46
0.0
 47
0.3
 48
0.3
140
4.0
141
0.09
142
0.0
143
25.4
144
0.5
145
0.0
146
1.0
147
1.0
 71
0.0
 72
0.0
 73
0
 74
0
 75
0
 76
0
 77
1
 78
8
 79
2
170
0
171
2
172
0
173
0
174
0
175
0
176
0
177
0
178
5
270
2
179
3
271
0
272
0
273
2
274
2
275
0
280
0
281
0
282
0
283
1
284
8
285
0
286
0
287
3
288
0
340
22B
278
46
341
231
342
231
343
231
344
231
  0
DIMSTYLE
105
265
100
AcDbSymbolTableRecord
100
AcDbDimStyleTableRecord
  2
DIMSTYLE_10
 70
0
  3

  4

 40
1.0
 41
3.5
 42
0.0
 43
0.38
 44
1.5
 45
0.0
 46
0.0
 47
0.1
 48
0.1
140
4.0
141
0.09
142
0.0
143
25.4
144
0.5
145
0.0
146
1.0
147
1.0
 71
0.0
 72
0.0
 73
0
 74
0
 75
0
 76
0
 77
1
 78
8
 79
2
170
0
171
2
172
0
173
0
174
0
175
0
176
0
177
0
178
5
270
2
179
3
271
3
272
3
273
2
274
2
275
0
280
0
281
0
282
0
283
1
284
8
285
0
286
0
287
3
288
0
340
22B
278
46
341
231
342
231
343
231
344
231
  0
ENDTAB
  0
ENDSEC
  0
SECTION
  2
BLOCKS
  0
BLOCK
  5
20
100
AcDbEntity
  8
0
100
AcDbBlockBegin
  2
*Model_Space
 70
0
 10
0.0
 20
0.0
 30
0.0
  3
*Model_Space
  1

  0
ENDBLK
  5
21
100
AcDbEntity
  8
0
100
AcDbBlockEnd
  0
BLOCK
  5
1C
100
AcDbEntity
  8
0
100
AcDbBlockBegin
  2
*Paper_Space
 70
0
 10
0.0
 20
0.0
 30
0.0
  3
*Paper_Space
  1

  0
ENDBLK
  5
1D
100
AcDbEntity
  8
0
100
AcDbBlockEnd
  0
BLOCK
  5
266
100
AcDbEntity
  8
HATCHING_BL0
100
AcDbBlockBegin
  2
HATCHING_BL0
 70
64
 10
229.0473518319
 20
231.1174020069
  3
HATCHING_BL0
  1

  0
MTEXT
  5
267
100
AcDbEntity
  8
HATCHING_BL0
100
AcDbMText
 62
7
  6
CONTINUOUS
  7
STANDARD
 71
1
 72
1
 10
215.747220383
 20
262.6125417695
 30
0.0
 11
1.0
 21
0.0
 31
0.0
 73
2
 44
0.9
  1
A
 40
5.0
 41
6.970260223
  0
LEADER
  5
268
100
AcDbEntity
  8
HATCHING_BL0
100
AcDbLeader
 62
7
  6
CONTINUOUS
  3
STANDARD
 71
1
 72
0
 73
3
 75
0
 76
2
 10
242.3474832807
 20
259.7415846199
 30
0.0
 10
223.9026390612
 20
259.7415846199
 30
0.0
1001
ACAD
1000
DSTYLE
1002
{
1070
77
1070
0
1070
341
1005
232
1070
41
1040
10.0
1002
}
  0
MTEXT
  5
269
100
AcDbEntity
  8
HATCHING_BL0
100
AcDbMText
 62
7
  6
CONTINUOUS
  7
STANDARD
 71
1
 72
1
 10
216.655341725
 20
204.6222622443
 30
0.0
 11
1.0
 21
0.0
 31
0.0
 73
2
 44
0.9
  1
A
 40
5.0
 41
6.970260223
  0
LEADER
  5
26A
100
AcDbEntity
  8
HATCHING_BL0
100
AcDbLeader
 62
7
  6
CONTINUOUS
  3
STANDARD
 71
1
 72
0
 73
3
 75
0
 76
2
 10
242.3474832807
 20
202.3344639308
 30
0.0
 10
223.9026390612
 20
202.3344639308
 30
0.0
1001
ACAD
1000
DSTYLE
1002
{
1070
77
1070
0
1070
341
1005
232
1070
41
1040
10.0
1002
}
  0
LINE
  5
26B
100
AcDbEntity
  8
HATCHING_BL0
100
AcDbLine
 62
7
  6
CENTER
 10
242.3474832807
 20
259.7415846199
 11
242.3474832807
 21
244.7415846199
  0
LINE
  5
26C
100
AcDbEntity
  8
HATCHING_BL0
100
AcDbLine
 62
9
  6
CENTER
 10
242.3474832807
 20
244.7415846199
 11
242.3474832807
 21
217.3344639308
  0
LINE
  5
26D
100
AcDbEntity
  8
HATCHING_BL0
100
AcDbLine
 62
7
  6
CENTER
 10
242.3474832807
 20
217.3344639308
 11
242.3474832807
 21
202.3344639308
  0
ENDBLK
  5
26E
100
AcDbEntity
  8
0
  6
BYBLOCK
 62
0
100
AcDbBlockEnd
  0
BLOCK
  5
26F
100
AcDbEntity
  8
Grp_symbol_75_BL1
100
AcDbBlockBegin
  2
GRP_SYMBOL_75_BL1
 70
64
 10
46.0313322015
 20
45.3702309773
  3
GRP_SYMBOL_75_BL1
  1

  0
LWPOLYLINE
  5
270
100
AcDbEntity
  8
Grp_symbol_75_BL1
100
AcDbPolyline
 62
2
  6
CONTINUOUS
 90
42
 70
0
 10
32.6708225945
 20
52.8632866819
 10
32.8033569672
 20
52.8702316825
 10
59.2593074357
 20
52.8702316825
 10
59.3918418085
 20
52.8632866819
 10
59.5229241069
 20
52.8425266799
 10
59.6511181658
 20
52.8081766767
 10
59.7750194645
 20
52.7606116722
 10
59.8932705142
 20
52.7003566665
 10
60.0045757318
 20
52.6280716597
 10
60.1077156339
 20
52.5445516519
 10
60.2015601983
 20
52.4507116431
 10
60.2850812443
 20
52.3475716334
 10
60.3573636977
 20
52.2362716229
 10
60.417615617
 20
52.1180116118
 10
60.4651768694
 20
51.9941116001
 10
60.499526364
 20
51.8659215881
 10
60.5202877605
 20
51.7348365758
 10
60.5272335926
 20
51.6022965633
 10
39.6846378094
 20
50.6960704153
 10
38.8673148432
 20
50.5461217603
 10
38.0816303182
 20
50.2755644516
 10
37.3452748301
 20
49.8904904
 10
36.6748282744
 20
49.399569993
 10
36.0853865306
 20
48.8138568714
 10
35.5902215614
 20
48.1465390435
 10
35.2004825787
 20
47.4126419421
 10
31.5354308103
 20
39.1381503914
 10
31.5354308103
 20
51.6022965633
 10
31.5423766425
 20
51.7348365758
 10
31.563138039
 20
51.8659215881
 10
31.5974875335
 20
51.9941116001
 10
31.645048786
 20
52.1180116118
 10
31.7053007052
 20
52.2362716229
 10
31.7775831587
 20
52.3475716334
 10
31.8611042047
 20
52.4507116431
 10
31.9549487691
 20
52.5445516519
 10
32.0580886712
 20
52.6280716597
 10
32.1693938888
 20
52.7003566665
 10
32.2876449385
 20
52.7606116722
 10
32.4115462371
 20
52.8081766767
 10
32.5397402961
 20
52.8425266799
 10
32.6708225945
 20
52.8632866819
  0
HATCH
  5
271
100
AcDbEntity
  8
Grp_symbol_75_BL1
100
AcDbHatch
 62
2
  6
CONTINUOUS
 10
0.0
 20
0.0
 30
0.0
210
0.0
220
0.0
230
1.0
  2
SOLID
 70
1
 71
1
 91
1
 92
1
 93
41
 72
1
 10
32.6708225945
 20
52.8632866819
 11
32.8033569672
 21
52.8702316825
 72
1
 10
32.8033569672
 20
52.8702316825
 11
59.2593074357
 21
52.8702316825
 72
1
 10
59.2593074357
 20
52.8702316825
 11
59.3918418085
 21
52.8632866819
 72
1
 10
59.3918418085
 20
52.8632866819
 11
59.5229241069
 21
52.8425266799
 72
1
 10
59.5229241069
 20
52.8425266799
 11
59.6511181658
 21
52.8081766767
 72
1
 10
59.6511181658
 20
52.8081766767
 11
59.7750194645
 21
52.7606116722
 72
1
 10
59.7750194645
 20
52.7606116722
 11
59.8932705142
 21
52.7003566665
 72
1
 10
59.8932705142
 20
52.7003566665
 11
60.0045757318
 21
52.6280716597
 72
1
 10
60.0045757318
 20
52.6280716597
 11
60.1077156339
 21
52.5445516519
 72
1
 10
60.1077156339
 20
52.5445516519
 11
60.2015601983
 21
52.4507116431
 72
1
 10
60.2015601983
 20
52.4507116431
 11
60.2850812443
 21
52.3475716334
 72
1
 10
60.2850812443
 20
52.3475716334
 11
60.3573636977
 21
52.2362716229
 72
1
 10
60.3573636977
 20
52.2362716229
 11
60.417615617
 21
52.1180116118
 72
1
 10
60.417615617
 20
52.1180116118
 11
60.4651768694
 21
51.9941116001
 72
1
 10
60.4651768694
 20
51.9941116001
 11
60.499526364
 21
51.8659215881
 72
1
 10
60.499526364
 20
51.8659215881
 11
60.5202877605
 21
51.7348365758
 72
1
 10
60.5202877605
 20
51.7348365758
 11
60.5272335926
 21
51.6022965633
 72
1
 10
60.5272335926
 20
51.6022965633
 11
39.6846378094
 21
50.6960704153
 72
1
 10
39.6846378094
 20
50.6960704153
 11
38.8673148432
 21
50.5461217603
 72
1
 10
38.8673148432
 20
50.5461217603
 11
38.0816303182
 21
50.2755644516
 72
1
 10
38.0816303182
 20
50.2755644516
 11
37.3452748301
 21
49.8904904
 72
1
 10
37.3452748301
 20
49.8904904
 11
36.6748282744
 21
49.399569993
 72
1
 10
36.6748282744
 20
49.399569993
 11
36.0853865306
 21
48.8138568714
 72
1
 10
36.0853865306
 20
48.8138568714
 11
35.5902215614
 21
48.1465390435
 72
1
 10
35.5902215614
 20
48.1465390435
 11
35.2004825787
 21
47.4126419421
 72
1
 10
35.2004825787
 20
47.4126419421
 11
31.5354308103
 21
39.1381503914
 72
1
 10
31.5354308103
 20
39.1381503914
 11
31.5354308103
 21
51.6022965633
 72
1
 10
31.5354308103
 20
51.6022965633
 11
31.5423766425
 21
51.7348365758
 72
1
 10
31.5423766425
 20
51.7348365758
 11
31.563138039
 21
51.8659215881
 72
1
 10
31.563138039
 20
51.8659215881
 11
31.5974875335
 21
51.9941116001
 72
1
 10
31.5974875335
 20
51.9941116001
 11
31.645048786
 21
52.1180116118
 72
1
 10
31.645048786
 20
52.1180116118
 11
31.7053007052
 21
52.2362716229
 72
1
 10
31.7053007052
 20
52.2362716229
 11
31.7775831587
 21
52.3475716334
 72
1
 10
31.7775831587
 20
52.3475716334
 11
31.8611042047
 21
52.4507116431
 72
1
 10
31.8611042047
 20
52.4507116431
 11
31.9549487691
 21
52.5445516519
 72
1
 10
31.9549487691
 20
52.5445516519
 11
32.0580886712
 21
52.6280716597
 72
1
 10
32.0580886712
 20
52.6280716597
 11
32.1693938888
 21
52.7003566665
 72
1
 10
32.1693938888
 20
52.7003566665
 11
32.2876449385
 21
52.7606116722
 72
1
 10
32.2876449385
 20
52.7606116722
 11
32.4115462371
 21
52.8081766767
 72
1
 10
32.4115462371
 20
52.8081766767
 11
32.5397402961
 21
52.8425266799
 72
1
 10
32.5397402961
 20
52.8425266799
 11
32.6708225945
 21
52.8632866819
 97
1
330
270
 75
0
 76
1
 98
1
 10
0.0
 20
0.0
  0
LWPOLYLINE
  5
272
100
AcDbEntity
  8
Grp_symbol_75_BL1
100
AcDbPolyline
 62
2
  6
CONTINUOUS
 90
23
 70
0
 10
42.1413386508
 20
50.4024732666
 10
41.3402891657
 20
50.6234283584
 10
60.5272335926
 20
51.6022965633
 10
60.5272335926
 20
39.1381503914
 10
55.3142405583
 20
41.5606656191
 10
55.5399649733
 20
42.0183906622
 10
55.7040133356
 20
42.5016607076
 10
55.8035787321
 20
43.0022107547
 10
55.8369575714
 20
43.5114758026
 10
55.8369575714
 20
50.4336914534
 10
53.1100238229
 20
50.4336914534
 10
50.7606655166
 20
50.4336914534
 10
48.0337317682
 20
50.4336914534
 10
48.0337317682
 20
46.2908410639
 10
46.1892744124
 20
46.2908410639
 10
45.8033102597
 20
45.4663749692
 10
45.6996269413
 20
46.2908410639
 10
42.5685234878
 20
46.8109733705
 10
44.7608619995
 20
48.4332185325
 10
44.2249831132
 20
49.068305337
 10
43.6001085705
 20
49.6160582339
 10
42.9003081443
 20
50.0641439329
 10
42.1413386508
 20
50.4024732666
  0
HATCH
  5
273
100
AcDbEntity
  8
Grp_symbol_75_BL1
100
AcDbHatch
 62
2
  6
CONTINUOUS
 10
0.0
 20
0.0
 30
0.0
210
0.0
220
0.0
230
1.0
  2
SOLID
 70
1
 71
1
 91
1
 92
1
 93
22
 72
1
 10
42.1413386508
 20
50.4024732666
 11
41.3402891657
 21
50.6234283584
 72
1
 10
41.3402891657
 20
50.6234283584
 11
60.5272335926
 21
51.6022965633
 72
1
 10
60.5272335926
 20
51.6022965633
 11
60.5272335926
 21
39.1381503914
 72
1
 10
60.5272335926
 20
39.1381503914
 11
55.3142405583
 21
41.5606656191
 72
1
 10
55.3142405583
 20
41.5606656191
 11
55.5399649733
 21
42.0183906622
 72
1
 10
55.5399649733
 20
42.0183906622
 11
55.7040133356
 21
42.5016607076
 72
1
 10
55.7040133356
 20
42.5016607076
 11
55.8035787321
 21
43.0022107547
 72
1
 10
55.8035787321
 20
43.0022107547
 11
55.8369575714
 21
43.5114758026
 72
1
 10
55.8369575714
 20
43.5114758026
 11
55.8369575714
 21
50.4336914534
 72
1
 10
55.8369575714
 20
50.4336914534
 11
53.1100238229
 21
50.4336914534
 72
1
 10
53.1100238229
 20
50.4336914534
 11
50.7606655166
 21
50.4336914534
 72
1
 10
50.7606655166
 20
50.4336914534
 11
48.0337317682
 21
50.4336914534
 72
1
 10
48.0337317682
 20
50.4336914534
 11
48.0337317682
 21
46.2908410639
 72
1
 10
48.0337317682
 20
46.2908410639
 11
46.1892744124
 21
46.2908410639
 72
1
 10
46.1892744124
 20
46.2908410639
 11
45.8033102597
 21
45.4663749692
 72
1
 10
45.8033102597
 20
45.4663749692
 11
45.6996269413
 21
46.2908410639
 72
1
 10
45.6996269413
 20
46.2908410639
 11
42.5685234878
 21
46.8109733705
 72
1
 10
42.5685234878
 20
46.8109733705
 11
44.7608619995
 21
48.4332185325
 72
1
 10
44.7608619995
 20
48.4332185325
 11
44.2249831132
 21
49.068305337
 72
1
 10
44.2249831132
 20
49.068305337
 11
43.6001085705
 21
49.6160582339
 72
1
 10
43.6001085705
 20
49.6160582339
 11
42.9003081443
 21
50.0641439329
 72
1
 10
42.9003081443
 20
50.0641439329
 11
42.1413386508
 21
50.4024732666
 97
1
330
272
 75
0
 76
1
 98
1
 10
0.0
 20
0.0
  0
LWPOLYLINE
  5
274
100
AcDbEntity
  8
Grp_symbol_75_BL1
100
AcDbPolyline
 62
2
  6
CONTINUOUS
 90
20
 70
0
 10
39.6749131296
 20
47.9361736442
 10
40.0816097509
 20
47.9939363459
 10
40.4923823569
 20
47.9918061653
 10
40.8984580303
 20
47.929828597
 10
41.2911641668
 20
47.809327303
 10
41.6621136967
 20
47.632875843
 10
42.0033842089
 20
47.4042427111
 10
42.3076871501
 20
47.1283108509
 10
42.5685234878
 20
46.8109733705
 10
45.6996269413
 20
46.2908410639
 10
40.3773408591
 20
46.2908410639
 10
40.2335973619
 20
46.2814237765
 10
37.6157342322
 20
46.1075338206
 10
37.7778955351
 20
46.4849492195
 10
37.993333509
 20
46.8346993459
 10
38.2574470207
 20
47.1493145464
 10
38.564595368
 20
47.4220755485
 10
38.9082187486
 20
47.6471569645
 10
39.2809783589
 20
47.8197517049
 10
39.6749131296
 20
47.9361736442
  0
HATCH
  5
275
100
AcDbEntity
  8
Grp_symbol_75_BL1
100
AcDbHatch
 62
2
  6
CONTINUOUS
 10
0.0
 20
0.0
 30
0.0
210
0.0
220
0.0
230
1.0
  2
SOLID
 70
1
 71
1
 91
1
 92
1
 93
19
 72
1
 10
39.6749131296
 20
47.9361736442
 11
40.0816097509
 21
47.9939363459
 72
1
 10
40.0816097509
 20
47.9939363459
 11
40.4923823569
 21
47.9918061653
 72
1
 10
40.4923823569
 20
47.9918061653
 11
40.8984580303
 21
47.929828597
 72
1
 10
40.8984580303
 20
47.929828597
 11
41.2911641668
 21
47.809327303
 72
1
 10
41.2911641668
 20
47.809327303
 11
41.6621136967
 21
47.632875843
 72
1
 10
41.6621136967
 20
47.632875843
 11
42.0033842089
 21
47.4042427111
 72
1
 10
42.0033842089
 20
47.4042427111
 11
42.3076871501
 21
47.1283108509
 72
1
 10
42.3076871501
 20
47.1283108509
 11
42.5685234878
 21
46.8109733705
 72
1
 10
42.5685234878
 20
46.8109733705
 11
45.6996269413
 21
46.2908410639
 72
1
 10
45.6996269413
 20
46.2908410639
 11
40.3773408591
 21
46.2908410639
 72
1
 10
40.3773408591
 20
46.2908410639
 11
40.2335973619
 21
46.2814237765
 72
1
 10
40.2335973619
 20
46.2814237765
 11
37.6157342322
 21
46.1075338206
 72
1
 10
37.6157342322
 20
46.1075338206
 11
37.7778955351
 21
46.4849492195
 72
1
 10
37.7778955351
 20
46.4849492195
 11
37.993333509
 21
46.8346993459
 72
1
 10
37.993333509
 20
46.8346993459
 11
38.2574470207
 21
47.1493145464
 72
1
 10
38.2574470207
 20
47.1493145464
 11
38.564595368
 21
47.4220755485
 72
1
 10
38.564595368
 20
47.4220755485
 11
38.9082187486
 21
47.6471569645
 72
1
 10
38.9082187486
 20
47.6471569645
 11
39.2809783589
 21
47.8197517049
 72
1
 10
39.2809783589
 20
47.8197517049
 11
39.6749131296
 21
47.9361736442
 97
1
330
274
 75
0
 76
1
 98
1
 10
0.0
 20
0.0
  0
LWPOLYLINE
  5
276
100
AcDbEntity
  8
Grp_symbol_75_BL1
100
AcDbPolyline
 62
2
  6
CONTINUOUS
 90
8
 70
0
 10
39.826710006
 20
46.1433041307
 10
39.7069352092
 20
46.0632731701
 10
37.5103128979
 20
45.7105136526
 10
37.6157342322
 20
46.1075338206
 10
40.2335973619
 20
46.2814237765
 10
40.0923133559
 20
46.2533206404
 10
39.9559062495
 20
46.2070166672
 10
39.826710006
 20
46.1433041307
  0
HATCH
  5
277
100
AcDbEntity
  8
Grp_symbol_75_BL1
100
AcDbHatch
 62
2
  6
CONTINUOUS
 10
0.0
 20
0.0
 30
0.0
210
0.0
220
0.0
230
1.0
  2
SOLID
 70
1
 71
1
 91
1
 92
1
 93
7
 72
1
 10
39.826710006
 20
46.1433041307
 11
39.7069352092
 21
46.0632731701
 72
1
 10
39.7069352092
 20
46.0632731701
 11
37.5103128979
 21
45.7105136526
 72
1
 10
37.5103128979
 20
45.7105136526
 11
37.6157342322
 21
46.1075338206
 72
1
 10
37.6157342322
 20
46.1075338206
 11
40.2335973619
 21
46.2814237765
 72
1
 10
40.2335973619
 20
46.2814237765
 11
40.0923133559
 21
46.2533206404
 72
1
 10
40.0923133559
 20
46.2533206404
 11
39.9559062495
 21
46.2070166672
 72
1
 10
39.9559062495
 20
46.2070166672
 11
39.826710006
 21
46.1433041307
 97
1
330
276
 75
0
 76
1
 98
1
 10
0.0
 20
0.0
  0
LWPOLYLINE
  5
278
100
AcDbEntity
  8
Grp_symbol_75_BL1
100
AcDbPolyline
 62
2
  6
CONTINUOUS
 90
8
 70
0
 10
39.4236202454
 20
45.74021437
 10
39.3599077089
 20
45.6110181266
 10
37.4638830276
 20
45.3023679205
 10
37.5103128979
 20
45.7105136526
 10
39.7069352092
 20
46.0632731701
 10
39.5986312388
 20
45.9682931372
 10
39.503651206
 20
45.8599891669
 10
39.4236202454
 20
45.74021437
  0
HATCH
  5
279
100
AcDbEntity
  8
Grp_symbol_75_BL1
100
AcDbHatch
 62
2
  6
CONTINUOUS
 10
0.0
 20
0.0
 30
0.0
210
0.0
220
0.0
230
1.0
  2
SOLID
 70
1
 71
1
 91
1
 92
1
 93
7
 72
1
 10
39.4236202454
 20
45.74021437
 11
39.3599077089
 21
45.6110181266
 72
1
 10
39.3599077089
 20
45.6110181266
 11
37.4638830276
 21
45.3023679205
 72
1
 10
37.4638830276
 20
45.3023679205
 11
37.5103128979
 21
45.7105136526
 72
1
 10
37.5103128979
 20
45.7105136526
 11
39.7069352092
 21
46.0632731701
 72
1
 10
39.7069352092
 20
46.0632731701
 11
39.5986312388
 21
45.9682931372
 72
1
 10
39.5986312388
 20
45.9682931372
 11
39.503651206
 21
45.8599891669
 72
1
 10
39.503651206
 20
45.8599891669
 11
39.4236202454
 21
45.74021437
 97
1
330
278
 75
0
 76
1
 98
1
 10
0.0
 20
0.0
  0
LWPOLYLINE
  5
27A
100
AcDbEntity
  8
Grp_symbol_75_BL1
100
AcDbPolyline
 62
2
  6
CONTINUOUS
 90
7
 70
0
 10
46.2736494707
 20
45.6638131348
 10
46.2905728887
 20
45.347811003
 10
45.7824600606
 20
44.6356724356
 10
45.8033102597
 20
45.4663749692
 10
46.1892744124
 20
46.2908410639
 10
46.2398510687
 20
45.9784580416
 10
46.2736494707
 20
45.6638131348
  0
HATCH
  5
27B
100
AcDbEntity
  8
Grp_symbol_75_BL1
100
AcDbHatch
 62
2
  6
CONTINUOUS
 10
0.0
 20
0.0
 30
0.0
210
0.0
220
0.0
230
1.0
  2
SOLID
 70
1
 71
1
 91
1
 92
1
 93
6
 72
1
 10
46.2736494707
 20
45.6638131348
 11
46.2905728887
 21
45.347811003
 72
1
 10
46.2905728887
 20
45.347811003
 11
45.7824600606
 21
44.6356724356
 72
1
 10
45.7824600606
 20
44.6356724356
 11
45.8033102597
 21
45.4663749692
 72
1
 10
45.8033102597
 20
45.4663749692
 11
46.1892744124
 21
46.2908410639
 72
1
 10
46.1892744124
 20
46.2908410639
 11
46.2398510687
 21
45.9784580416
 72
1
 10
46.2398510687
 20
45.9784580416
 11
46.2736494707
 21
45.6638131348
 97
1
330
27A
 75
0
 76
1
 98
1
 10
0.0
 20
0.0
  0
LWPOLYLINE
  5
27C
100
AcDbEntity
  8
Grp_symbol_75_BL1
100
AcDbPolyline
 62
2
  6
CONTINUOUS
 90
7
 70
0
 10
39.2855005996
 20
45.3333270141
 10
39.276079153
 20
45.189583517
 10
37.4774362291
 20
44.8918134391
 10
37.4638830276
 20
45.3023679205
 10
39.3599077089
 20
45.6110181266
 10
39.3136037357
 20
45.4746110202
 10
39.2855005996
 20
45.3333270141
  0
HATCH
  5
27D
100
AcDbEntity
  8
Grp_symbol_75_BL1
100
AcDbHatch
 62
2
  6
CONTINUOUS
 10
0.0
 20
0.0
 30
0.0
210
0.0
220
0.0
230
1.0
  2
SOLID
 70
1
 71
1
 91
1
 92
1
 93
6
 72
1
 10
39.2855005996
 20
45.3333270141
 11
39.276079153
 21
45.189583517
 72
1
 10
39.276079153
 20
45.189583517
 11
37.4774362291
 21
44.8918134391
 72
1
 10
37.4774362291
 20
44.8918134391
 11
37.4638830276
 21
45.3023679205
 72
1
 10
37.4638830276
 20
45.3023679205
 11
39.3599077089
 21
45.6110181266
 72
1
 10
39.3599077089
 20
45.6110181266
 11
39.3136037357
 21
45.4746110202
 72
1
 10
39.3136037357
 20
45.4746110202
 11
39.2855005996
 21
45.3333270141
 97
1
330
27C
 75
0
 76
1
 98
1
 10
0.0
 20
0.0
  0
LWPOLYLINE
  5
27E
100
AcDbEntity
  8
Grp_symbol_75_BL1
100
AcDbPolyline
 62
2
  6
CONTINUOUS
 90
7
 70
0
 10
39.3136037357
 20
44.9045560138
 10
39.3599077089
 20
44.7681489074
 10
37.5506830454
 20
44.487618467
 10
37.4774362291
 20
44.8918134391
 10
39.276079153
 20
45.189583517
 10
39.2855005996
 20
45.0458400199
 10
39.3136037357
 20
44.9045560138
  0
HATCH
  5
27F
100
AcDbEntity
  8
Grp_symbol_75_BL1
100
AcDbHatch
 62
2
  6
CONTINUOUS
 10
0.0
 20
0.0
 30
0.0
210
0.0
220
0.0
230
1.0
  2
SOLID
 70
1
 71
1
 91
1
 92
1
 93
6
 72
1
 10
39.3136037357
 20
44.9045560138
 11
39.3599077089
 21
44.7681489074
 72
1
 10
39.3599077089
 20
44.7681489074
 11
37.5506830454
 21
44.487618467
 72
1
 10
37.5506830454
 20
44.487618467
 11
37.4774362291
 21
44.8918134391
 72
1
 10
37.4774362291
 20
44.8918134391
 11
39.276079153
 21
45.189583517
 72
1
 10
39.276079153
 20
45.189583517
 11
39.2855005996
 21
45.0458400199
 72
1
 10
39.2855005996
 20
45.0458400199
 11
39.3136037357
 21
44.9045560138
 97
1
330
27E
 75
0
 76
1
 98
1
 10
0.0
 20
0.0
  0
LWPOLYLINE
  5
280
100
AcDbEntity
  8
Grp_symbol_75_BL1
100
AcDbPolyline
 62
2
  6
CONTINUOUS
 90
7
 70
0
 10
46.2736494707
 20
44.7153538992
 10
46.2398510687
 20
44.4007089924
 10
45.6375458103
 20
43.8174418506
 10
45.7824600606
 20
44.6356724356
 10
46.2905728887
 20
45.347811003
 10
46.2905728887
 20
45.031356031
 10
46.2736494707
 20
44.7153538992
  0
HATCH
  5
281
100
AcDbEntity
  8
Grp_symbol_75_BL1
100
AcDbHatch
 62
2
  6
CONTINUOUS
 10
0.0
 20
0.0
 30
0.0
210
0.0
220
0.0
230
1.0
  2
SOLID
 70
1
 71
1
 91
1
 92
1
 93
6
 72
1
 10
46.2736494707
 20
44.7153538992
 11
46.2398510687
 21
44.4007089924
 72
1
 10
46.2398510687
 20
44.4007089924
 11
45.6375458103
 21
43.8174418506
 72
1
 10
45.6375458103
 20
43.8174418506
 11
45.7824600606
 21
44.6356724356
 72
1
 10
45.7824600606
 20
44.6356724356
 11
46.2905728887
 21
45.347811003
 72
1
 10
46.2905728887
 20
45.347811003
 11
46.2905728887
 21
45.031356031
 72
1
 10
46.2905728887
 20
45.031356031
 11
46.2736494707
 21
44.7153538992
 97
1
330
280
 75
0
 76
1
 98
1
 10
0.0
 20
0.0
  0
LWPOLYLINE
  5
282
100
AcDbEntity
  8
Grp_symbol_75_BL1
100
AcDbPolyline
 62
2
  6
CONTINUOUS
 90
7
 70
0
 10
39.503651206
 20
44.5191778671
 10
39.5986312388
 20
44.4108738968
 10
37.6820591357
 20
44.0984154424
 10
37.5506830454
 20
44.487618467
 10
39.3599077089
 20
44.7681489074
 10
39.4236202454
 20
44.638952664
 10
39.503651206
 20
44.5191778671
  0
HATCH
  5
283
100
AcDbEntity
  8
Grp_symbol_75_BL1
100
AcDbHatch
 62
2
  6
CONTINUOUS
 10
0.0
 20
0.0
 30
0.0
210
0.0
220
0.0
230
1.0
  2
SOLID
 70
1
 71
1
 91
1
 92
1
 93
6
 72
1
 10
39.503651206
 20
44.5191778671
 11
39.5986312388
 21
44.4108738968
 72
1
 10
39.5986312388
 20
44.4108738968
 11
37.6820591357
 21
44.0984154424
 72
1
 10
37.6820591357
 20
44.0984154424
 11
37.5506830454
 21
44.487618467
 72
1
 10
37.5506830454
 20
44.487618467
 11
39.3599077089
 21
44.7681489074
 72
1
 10
39.3599077089
 20
44.7681489074
 11
39.4236202454
 21
44.638952664
 72
1
 10
39.4236202454
 20
44.638952664
 11
39.503651206
 21
44.5191778671
 97
1
330
282
 75
0
 76
1
 98
1
 10
0.0
 20
0.0
  0
LWPOLYLINE
  5
284
100
AcDbEntity
  8
Grp_symbol_75_BL1
100
AcDbPolyline
 62
2
  6
CONTINUOUS
 90
9
 70
0
 10
40.0923133559
 20
44.1258463936
 10
40.2335973619
 20
44.0977432575
 10
37.8687586861
 20
43.7325166184
 10
37.6820591357
 20
44.0984154424
 10
39.5986312388
 20
44.4108738968
 10
39.7069352092
 20
44.315893864
 10
39.826710006
 20
44.2358629033
 10
39.9559062495
 20
44.1721503668
 10
40.0923133559
 20
44.1258463936
  0
HATCH
  5
285
100
AcDbEntity
  8
Grp_symbol_75_BL1
100
AcDbHatch
 62
2
  6
CONTINUOUS
 10
0.0
 20
0.0
 30
0.0
210
0.0
220
0.0
230
1.0
  2
SOLID
 70
1
 71
1
 91
1
 92
1
 93
8
 72
1
 10
40.0923133559
 20
44.1258463936
 11
40.2335973619
 21
44.0977432575
 72
1
 10
40.2335973619
 20
44.0977432575
 11
37.8687586861
 21
43.7325166184
 72
1
 10
37.8687586861
 20
43.7325166184
 11
37.6820591357
 21
44.0984154424
 72
1
 10
37.6820591357
 20
44.0984154424
 11
39.5986312388
 21
44.4108738968
 72
1
 10
39.5986312388
 20
44.4108738968
 11
39.7069352092
 21
44.315893864
 72
1
 10
39.7069352092
 20
44.315893864
 11
39.826710006
 21
44.2358629033
 72
1
 10
39.826710006
 20
44.2358629033
 11
39.9559062495
 21
44.1721503668
 72
1
 10
39.9559062495
 20
44.1721503668
 11
40.0923133559
 21
44.1258463936
 97
1
330
284
 75
0
 76
1
 98
1
 10
0.0
 20
0.0
  0
LWPOLYLINE
  5
286
100
AcDbEntity
  8
Grp_symbol_75_BL1
100
AcDbPolyline
 62
2
  6
CONTINUOUS
 90
9
 70
0
 10
48.0337317682
 20
44.0883158568
 10
48.0337317682
 20
43.5114758026
 10
48.0671106073
 20
43.0022107547
 10
44.9912967811
 20
42.2913945137
 10
45.3718304207
 20
43.0301066222
 10
45.6375458103
 20
43.8174418506
 10
46.2398510687
 20
44.4007089924
 10
46.1892744124
 20
44.0883158568
 10
48.0337317682
 20
44.0883158568
  0
HATCH
  5
287
100
AcDbEntity
  8
Grp_symbol_75_BL1
100
AcDbHatch
 62
2
  6
CONTINUOUS
 10
0.0
 20
0.0
 30
0.0
210
0.0
220
0.0
230
1.0
  2
SOLID
 70
1
 71
1
 91
1
 92
1
 93
8
 72
1
 10
48.0337317682
 20
44.0883158568
 11
48.0337317682
 21
43.5114758026
 72
1
 10
48.0337317682
 20
43.5114758026
 11
48.0671106073
 21
43.0022107547
 72
1
 10
48.0671106073
 20
43.0022107547
 11
44.9912967811
 21
42.2913945137
 72
1
 10
44.9912967811
 20
42.2913945137
 11
45.3718304207
 21
43.0301066222
 72
1
 10
45.3718304207
 20
43.0301066222
 11
45.6375458103
 21
43.8174418506
 72
1
 10
45.6375458103
 20
43.8174418506
 11
46.2398510687
 21
44.4007089924
 72
1
 10
46.2398510687
 20
44.4007089924
 11
46.1892744124
 21
44.0883158568
 72
1
 10
46.1892744124
 20
44.0883158568
 11
48.0337317682
 21
44.0883158568
 97
1
330
286
 75
0
 76
1
 98
1
 10
0.0
 20
0.0
  0
LWPOLYLINE
  5
288
100
AcDbEntity
  8
Grp_symbol_75_BL1
100
AcDbPolyline
 62
2
  6
CONTINUOUS
 90
19
 70
0
 10
42.8585834601
 20
44.0883158568
 10
42.670458413
 20
43.7231538521
 10
42.4311190153
 20
43.3893045984
 10
42.1456768657
 20
43.0939041062
 10
41.8202281848
 20
42.8432612775
 10
41.4617236169
 20
42.6427291197
 10
41.077819785
 20
42.4965904208
 10
40.6767157667
 20
42.4079662817
 10
40.2669779863
 20
42.3787494582
 10
39.85735726
 20
42.4095639373
 10
39.4566019044
 20
42.4997516106
 10
39.0732708971
 20
42.6473863299
 10
38.715551082
 20
42.8493150435
 10
38.3910823218
 20
43.101225137
 10
38.1067943329
 20
43.3977365379
 10
37.8687586861
 20
43.7325166184
 10
40.2335973619
 20
44.0977432575
 10
40.3773408591
 20
44.0883158568
 10
42.8585834601
 20
44.0883158568
  0
HATCH
  5
289
100
AcDbEntity
  8
Grp_symbol_75_BL1
100
AcDbHatch
 62
2
  6
CONTINUOUS
 10
0.0
 20
0.0
 30
0.0
210
0.0
220
0.0
230
1.0
  2
SOLID
 70
1
 71
1
 91
1
 92
1
 93
18
 72
1
 10
42.8585834601
 20
44.0883158568
 11
42.670458413
 21
43.7231538521
 72
1
 10
42.670458413
 20
43.7231538521
 11
42.4311190153
 21
43.3893045984
 72
1
 10
42.4311190153
 20
43.3893045984
 11
42.1456768657
 21
43.0939041062
 72
1
 10
42.1456768657
 20
43.0939041062
 11
41.8202281848
 21
42.8432612775
 72
1
 10
41.8202281848
 20
42.8432612775
 11
41.4617236169
 21
42.6427291197
 72
1
 10
41.4617236169
 20
42.6427291197
 11
41.077819785
 21
42.4965904208
 72
1
 10
41.077819785
 20
42.4965904208
 11
40.6767157667
 21
42.4079662817
 72
1
 10
40.6767157667
 20
42.4079662817
 11
40.2669779863
 21
42.3787494582
 72
1
 10
40.2669779863
 20
42.3787494582
 11
39.85735726
 21
42.4095639373
 72
1
 10
39.85735726
 20
42.4095639373
 11
39.4566019044
 21
42.4997516106
 72
1
 10
39.4566019044
 20
42.4997516106
 11
39.0732708971
 21
42.6473863299
 72
1
 10
39.0732708971
 20
42.6473863299
 11
38.715551082
 21
42.8493150435
 72
1
 10
38.715551082
 20
42.8493150435
 11
38.3910823218
 21
43.101225137
 72
1
 10
38.3910823218
 20
43.101225137
 11
38.1067943329
 21
43.3977365379
 72
1
 10
38.1067943329
 20
43.3977365379
 11
37.8687586861
 21
43.7325166184
 72
1
 10
37.8687586861
 20
43.7325166184
 11
40.2335973619
 21
44.0977432575
 72
1
 10
40.2335973619
 20
44.0977432575
 11
40.3773408591
 21
44.0883158568
 72
1
 10
40.3773408591
 20
44.0883158568
 11
42.8585834601
 21
44.0883158568
 97
1
330
288
 75
0
 76
1
 98
1
 10
0.0
 20
0.0
  0
LWPOLYLINE
  5
28A
100
AcDbEntity
  8
Grp_symbol_75_BL1
100
AcDbPolyline
 62
2
  6
CONTINUOUS
 90
28
 70
0
 10
50.7606655166
 20
43.5114758026
 10
50.7606655166
 20
50.4336914534
 10
53.1100238229
 20
50.4336914534
 10
53.110023823
 20
43.5114758026
 10
53.0999742799
 20
43.3581457881
 10
53.0699976014
 20
43.207440774
 10
53.0206066966
 20
43.0619407603
 10
52.9526466577
 20
42.9241357473
 10
52.8672802997
 20
42.7963657353
 10
52.7659682647
 20
42.6808507245
 10
52.6504440296
 20
42.5795407149
 10
52.5226842463
 20
42.4941757069
 10
52.38487492
 20
42.4262107005
 10
52.2393740065
 20
42.3768156959
 10
52.0886710667
 20
42.3468456931
 10
51.9353446697
 20
42.3367912879
 10
51.7820182728
 20
42.3468456931
 10
51.631315333
 20
42.3768156959
 10
51.4858144195
 20
42.4262107005
 10
51.3480050931
 20
42.4941757069
 10
51.2202453098
 20
42.5795407149
 10
51.1047210748
 20
42.6808507245
 10
51.0034090398
 20
42.7963657353
 10
50.9180426818
 20
42.9241357473
 10
50.8500826429
 20
43.0619407603
 10
50.8006917381
 20
43.207440774
 10
50.7707150596
 20
43.3581457881
 10
50.7606655166
 20
43.5114758026
  0
HATCH
  5
28B
100
AcDbEntity
  8
Grp_symbol_75_BL1
100
AcDbHatch
 62
2
  6
CONTINUOUS
 10
0.0
 20
0.0
 30
0.0
210
0.0
220
0.0
230
1.0
  2
SOLID
 70
1
 71
1
 91
1
 92
1
 93
27
 72
1
 10
50.7606655166
 20
43.5114758026
 11
50.7606655166
 21
50.4336914534
 72
1
 10
50.7606655166
 20
50.4336914534
 11
53.1100238229
 21
50.4336914534
 72
1
 10
53.1100238229
 20
50.4336914534
 11
53.110023823
 21
43.5114758026
 72
1
 10
53.110023823
 20
43.5114758026
 11
53.0999742799
 21
43.3581457881
 72
1
 10
53.0999742799
 20
43.3581457881
 11
53.0699976014
 21
43.207440774
 72
1
 10
53.0699976014
 20
43.207440774
 11
53.0206066966
 21
43.0619407603
 72
1
 10
53.0206066966
 20
43.0619407603
 11
52.9526466577
 21
42.9241357473
 72
1
 10
52.9526466577
 20
42.9241357473
 11
52.8672802997
 21
42.7963657353
 72
1
 10
52.8672802997
 20
42.7963657353
 11
52.7659682647
 21
42.6808507245
 72
1
 10
52.7659682647
 20
42.6808507245
 11
52.6504440296
 21
42.5795407149
 72
1
 10
52.6504440296
 20
42.5795407149
 11
52.5226842463
 21
42.4941757069
 72
1
 10
52.5226842463
 20
42.4941757069
 11
52.38487492
 21
42.4262107005
 72
1
 10
52.38487492
 20
42.4262107005
 11
52.2393740065
 21
42.3768156959
 72
1
 10
52.2393740065
 20
42.3768156959
 11
52.0886710667
 21
42.3468456931
 72
1
 10
52.0886710667
 20
42.3468456931
 11
51.9353446697
 21
42.3367912879
 72
1
 10
51.9353446697
 20
42.3367912879
 11
51.7820182728
 21
42.3468456931
 72
1
 10
51.7820182728
 20
42.3468456931
 11
51.631315333
 21
42.3768156959
 72
1
 10
51.631315333
 20
42.3768156959
 11
51.4858144195
 21
42.4262107005
 72
1
 10
51.4858144195
 20
42.4262107005
 11
51.3480050931
 21
42.4941757069
 72
1
 10
51.3480050931
 20
42.4941757069
 11
51.2202453098
 21
42.5795407149
 72
1
 10
51.2202453098
 20
42.5795407149
 11
51.1047210748
 21
42.6808507245
 72
1
 10
51.1047210748
 20
42.6808507245
 11
51.0034090398
 21
42.7963657353
 72
1
 10
51.0034090398
 20
42.7963657353
 11
50.9180426818
 21
42.9241357473
 72
1
 10
50.9180426818
 20
42.9241357473
 11
50.8500826429
 21
43.0619407603
 72
1
 10
50.8500826429
 20
43.0619407603
 11
50.8006917381
 21
43.207440774
 72
1
 10
50.8006917381
 20
43.207440774
 11
50.7707150596
 21
43.3581457881
 72
1
 10
50.7707150596
 20
43.3581457881
 11
50.7606655166
 21
43.5114758026
 97
1
330
28A
 75
0
 76
1
 98
1
 10
0.0
 20
0.0
  0
LWPOLYLINE
  5
28C
100
AcDbEntity
  8
Grp_symbol_75_BL1
100
AcDbPolyline
 62
2
  6
CONTINUOUS
 90
8
 70
0
 10
48.1666760039
 20
42.5016607076
 10
48.3307243661
 20
42.0183906622
 10
48.5564487812
 20
41.5606656191
 10
43.922439716
 20
41.0249021701
 10
44.5045130466
 20
41.6179384825
 10
44.9912967811
 20
42.2913945137
 10
48.0671106073
 20
43.0022107547
 10
48.1666760039
 20
42.5016607076
  0
HATCH
  5
28D
100
AcDbEntity
  8
Grp_symbol_75_BL1
100
AcDbHatch
 62
2
  6
CONTINUOUS
 10
0.0
 20
0.0
 30
0.0
210
0.0
220
0.0
230
1.0
  2
SOLID
 70
1
 71
1
 91
1
 92
1
 93
7
 72
1
 10
48.1666760039
 20
42.5016607076
 11
48.3307243661
 21
42.0183906622
 72
1
 10
48.3307243661
 20
42.0183906622
 11
48.5564487812
 21
41.5606656191
 72
1
 10
48.5564487812
 20
41.5606656191
 11
43.922439716
 21
41.0249021701
 72
1
 10
43.922439716
 20
41.0249021701
 11
44.5045130466
 21
41.6179384825
 72
1
 10
44.5045130466
 20
41.6179384825
 11
44.9912967811
 21
42.2913945137
 72
1
 10
44.9912967811
 20
42.2913945137
 11
48.0671106073
 21
43.0022107547
 72
1
 10
48.0671106073
 20
43.0022107547
 11
48.1666760039
 21
42.5016607076
 97
1
330
28C
 75
0
 76
1
 98
1
 10
0.0
 20
0.0
  0
LWPOLYLINE
  5
28E
100
AcDbEntity
  8
Grp_symbol_75_BL1
100
AcDbPolyline
 62
2
  6
CONTINUOUS
 90
8
 70
0
 10
48.8399870417
 20
41.1363155792
 10
49.1764877294
 20
40.7526155432
 10
49.5601932243
 20
40.4161055115
 10
42.5266989406
 20
40.1313888964
 10
43.2581828434
 20
40.5256384749
 10
43.922439716
 20
41.0249021701
 10
48.5564487812
 20
41.5606656191
 10
48.8399870417
 20
41.1363155792
  0
HATCH
  5
28F
100
AcDbEntity
  8
Grp_symbol_75_BL1
100
AcDbHatch
 62
2
  6
CONTINUOUS
 10
0.0
 20
0.0
 30
0.0
210
0.0
220
0.0
230
1.0
  2
SOLID
 70
1
 71
1
 91
1
 92
1
 93
7
 72
1
 10
48.8399870417
 20
41.1363155792
 11
49.1764877294
 21
40.7526155432
 72
1
 10
49.1764877294
 20
40.7526155432
 11
49.5601932243
 21
40.4161055115
 72
1
 10
49.5601932243
 20
40.4161055115
 11
42.5266989406
 21
40.1313888964
 72
1
 10
42.5266989406
 20
40.1313888964
 11
43.2581828434
 21
40.5256384749
 72
1
 10
43.2581828434
 20
40.5256384749
 11
43.922439716
 21
41.0249021701
 72
1
 10
43.922439716
 20
41.0249021701
 11
48.5564487812
 21
41.5606656191
 72
1
 10
48.5564487812
 20
41.5606656191
 11
48.8399870417
 21
41.1363155792
 97
1
330
28E
 75
0
 76
1
 98
1
 10
0.0
 20
0.0
  0
LWPOLYLINE
  5
290
100
AcDbEntity
  8
Grp_symbol_75_BL1
100
AcDbPolyline
 62
2
  6
CONTINUOUS
 90
24
 70
0
 10
49.9845382189
 20
40.1325754849
 10
50.4422620528
 20
39.9068554636
 10
50.9255329442
 20
39.7428004482
 10
51.4260819942
 20
39.6432304389
 10
31.5354308103
 20
39.1381503914
 10
35.2004825787
 20
47.4126419421
 10
34.9249450065
 20
46.6286901091
 10
34.7698128918
 20
45.8123351268
 10
34.7385792138
 20
44.9819581718
 10
34.8319472347
 20
44.1562561415
 10
35.0478146656
 20
43.3538206722
 10
35.3813210016
 20
42.5927195265
 10
35.8249569618
 20
41.890089777
 10
36.3687335696
 20
41.2617519451
 10
37.0004070656
 20
40.7218537838
 10
37.7057545905
 20
40.2825517246
 10
38.4688944291
 20
39.9537371616
 10
39.2726436052
 20
39.7428004482
 10
40.0989047766
 20
39.6545306291
 10
40.9290737174
 20
39.6908756408
 10
41.7444582138
 20
39.85103042
 10
42.5266989406
 20
40.1313888964
 10
49.5601932243
 20
40.4161055115
 10
49.9845382189
 20
40.1325754849
  0
HATCH
  5
291
100
AcDbEntity
  8
Grp_symbol_75_BL1
100
AcDbHatch
 62
2
  6
CONTINUOUS
 10
0.0
 20
0.0
 30
0.0
210
0.0
220
0.0
230
1.0
  2
SOLID
 70
1
 71
1
 91
1
 92
1
 93
23
 72
1
 10
49.9845382189
 20
40.1325754849
 11
50.4422620528
 21
39.9068554636
 72
1
 10
50.4422620528
 20
39.9068554636
 11
50.9255329442
 21
39.7428004482
 72
1
 10
50.9255329442
 20
39.7428004482
 11
51.4260819942
 21
39.6432304389
 72
1
 10
51.4260819942
 20
39.6432304389
 11
31.5354308103
 21
39.1381503914
 72
1
 10
31.5354308103
 20
39.1381503914
 11
35.2004825787
 21
47.4126419421
 72
1
 10
35.2004825787
 20
47.4126419421
 11
34.9249450065
 21
46.6286901091
 72
1
 10
34.9249450065
 20
46.6286901091
 11
34.7698128918
 21
45.8123351268
 72
1
 10
34.7698128918
 20
45.8123351268
 11
34.7385792138
 21
44.9819581718
 72
1
 10
34.7385792138
 20
44.9819581718
 11
34.8319472347
 21
44.1562561415
 72
1
 10
34.8319472347
 20
44.1562561415
 11
35.0478146656
 21
43.3538206722
 72
1
 10
35.0478146656
 20
43.3538206722
 11
35.3813210016
 21
42.5927195265
 72
1
 10
35.3813210016
 20
42.5927195265
 11
35.8249569618
 21
41.890089777
 72
1
 10
35.8249569618
 20
41.890089777
 11
36.3687335696
 21
41.2617519451
 72
1
 10
36.3687335696
 20
41.2617519451
 11
37.0004070656
 21
40.7218537838
 72
1
 10
37.0004070656
 20
40.7218537838
 11
37.7057545905
 21
40.2825517246
 72
1
 10
37.7057545905
 20
40.2825517246
 11
38.4688944291
 21
39.9537371616
 72
1
 10
38.4688944291
 20
39.9537371616
 11
39.2726436052
 21
39.7428004482
 72
1
 10
39.2726436052
 20
39.7428004482
 11
40.0989047766
 21
39.6545306291
 72
1
 10
40.0989047766
 20
39.6545306291
 11
40.9290737174
 21
39.6908756408
 72
1
 10
40.9290737174
 20
39.6908756408
 11
41.7444582138
 21
39.85103042
 72
1
 10
41.7444582138
 20
39.85103042
 11
42.5266989406
 21
40.1313888964
 72
1
 10
42.5266989406
 20
40.1313888964
 11
49.5601932243
 21
40.4161055115
 72
1
 10
49.5601932243
 20
40.4161055115
 11
49.9845382189
 21
40.1325754849
 97
1
330
290
 75
0
 76
1
 98
1
 10
0.0
 20
0.0
  0
LWPOLYLINE
  5
292
100
AcDbEntity
  8
Grp_symbol_75_BL1
100
AcDbPolyline
 62
2
  6
CONTINUOUS
 90
43
 70
0
 10
51.9353446697
 20
39.6098575394
 10
52.4446073453
 20
39.6432304389
 10
52.9451563953
 20
39.7428004482
 10
53.4284272867
 20
39.9068554636
 10
53.8861511205
 20
40.1325754849
 10
54.3104961152
 20
40.4161055115
 10
54.69420161
 20
40.7526155432
 10
55.0307022978
 20
41.1363155792
 10
55.3142405583
 20
41.5606656191
 10
60.5272335926
 20
39.1381503914
 10
60.5202877605
 20
39.0056253789
 10
60.499526364
 20
38.8745403666
 10
60.4651768694
 20
38.7463353545
 10
60.417615617
 20
38.6224353429
 10
60.3573636977
 20
38.5041903318
 10
60.2850812443
 20
38.3928903213
 10
60.2015601983
 20
38.2897503116
 10
60.1077156339
 20
38.1958953028
 10
60.0045757318
 20
38.1123752949
 10
59.8932705142
 20
38.0400902881
 10
59.7750194645
 20
37.9798502825
 10
59.6511181658
 20
37.932285278
 10
59.5229241069
 20
37.8979352748
 10
59.3918418085
 20
37.8771752728
 10
59.2593074357
 20
37.8702302721
 10
32.8033569672
 20
37.8702302721
 10
32.6708225945
 20
37.8771752728
 10
32.5397402961
 20
37.8979352748
 10
32.4115462371
 20
37.932285278
 10
32.2876449385
 20
37.9798502825
 10
32.1693938888
 20
38.0400902881
 10
32.0580886712
 20
38.1123752949
 10
31.9549487691
 20
38.1958953028
 10
31.8611042047
 20
38.2897503116
 10
31.7775831587
 20
38.3928903213
 10
31.7053007052
 20
38.5041903318
 10
31.645048786
 20
38.6224353429
 10
31.5974875335
 20
38.7463353545
 10
31.563138039
 20
38.8745403666
 10
31.5423766425
 20
39.0056253789
 10
31.5354308103
 20
39.1381503914
 10
51.4260819942
 20
39.6432304389
 10
51.9353446697
 20
39.6098575394
  0
HATCH
  5
293
100
AcDbEntity
  8
Grp_symbol_75_BL1
100
AcDbHatch
 62
2
  6
CONTINUOUS
 10
0.0
 20
0.0
 30
0.0
210
0.0
220
0.0
230
1.0
  2
SOLID
 70
1
 71
1
 91
1
 92
1
 93
42
 72
1
 10
51.9353446697
 20
39.6098575394
 11
52.4446073453
 21
39.6432304389
 72
1
 10
52.4446073453
 20
39.6432304389
 11
52.9451563953
 21
39.7428004482
 72
1
 10
52.9451563953
 20
39.7428004482
 11
53.4284272867
 21
39.9068554636
 72
1
 10
53.4284272867
 20
39.9068554636
 11
53.8861511205
 21
40.1325754849
 72
1
 10
53.8861511205
 20
40.1325754849
 11
54.3104961152
 21
40.4161055115
 72
1
 10
54.3104961152
 20
40.4161055115
 11
54.69420161
 21
40.7526155432
 72
1
 10
54.69420161
 20
40.7526155432
 11
55.0307022978
 21
41.1363155792
 72
1
 10
55.0307022978
 20
41.1363155792
 11
55.3142405583
 21
41.5606656191
 72
1
 10
55.3142405583
 20
41.5606656191
 11
60.5272335926
 21
39.1381503914
 72
1
 10
60.5272335926
 20
39.1381503914
 11
60.5202877605
 21
39.0056253789
 72
1
 10
60.5202877605
 20
39.0056253789
 11
60.499526364
 21
38.8745403666
 72
1
 10
60.499526364
 20
38.8745403666
 11
60.4651768694
 21
38.7463353545
 72
1
 10
60.4651768694
 20
38.7463353545
 11
60.417615617
 21
38.6224353429
 72
1
 10
60.417615617
 20
38.6224353429
 11
60.3573636977
 21
38.5041903318
 72
1
 10
60.3573636977
 20
38.5041903318
 11
60.2850812443
 21
38.3928903213
 72
1
 10
60.2850812443
 20
38.3928903213
 11
60.2015601983
 21
38.2897503116
 72
1
 10
60.2015601983
 20
38.2897503116
 11
60.1077156339
 21
38.1958953028
 72
1
 10
60.1077156339
 20
38.1958953028
 11
60.0045757318
 21
38.1123752949
 72
1
 10
60.0045757318
 20
38.1123752949
 11
59.8932705142
 21
38.0400902881
 72
1
 10
59.8932705142
 20
38.0400902881
 11
59.7750194645
 21
37.9798502825
 72
1
 10
59.7750194645
 20
37.9798502825
 11
59.6511181658
 21
37.932285278
 72
1
 10
59.6511181658
 20
37.932285278
 11
59.5229241069
 21
37.8979352748
 72
1
 10
59.5229241069
 20
37.8979352748
 11
59.3918418085
 21
37.8771752728
 72
1
 10
59.3918418085
 20
37.8771752728
 11
59.2593074357
 21
37.8702302721
 72
1
 10
59.2593074357
 20
37.8702302721
 11
32.8033569672
 21
37.8702302721
 72
1
 10
32.8033569672
 20
37.8702302721
 11
32.6708225945
 21
37.8771752728
 72
1
 10
32.6708225945
 20
37.8771752728
 11
32.5397402961
 21
37.8979352748
 72
1
 10
32.5397402961
 20
37.8979352748
 11
32.4115462371
 21
37.932285278
 72
1
 10
32.4115462371
 20
37.932285278
 11
32.2876449385
 21
37.9798502825
 72
1
 10
32.2876449385
 20
37.9798502825
 11
32.1693938888
 21
38.0400902881
 72
1
 10
32.1693938888
 20
38.0400902881
 11
32.0580886712
 21
38.1123752949
 72
1
 10
32.0580886712
 20
38.1123752949
 11
31.9549487691
 21
38.1958953028
 72
1
 10
31.9549487691
 20
38.1958953028
 11
31.8611042047
 21
38.2897503116
 72
1
 10
31.8611042047
 20
38.2897503116
 11
31.7775831587
 21
38.3928903213
 72
1
 10
31.7775831587
 20
38.3928903213
 11
31.7053007052
 21
38.5041903318
 72
1
 10
31.7053007052
 20
38.5041903318
 11
31.645048786
 21
38.6224353429
 72
1
 10
31.645048786
 20
38.6224353429
 11
31.5974875335
 21
38.7463353545
 72
1
 10
31.5974875335
 20
38.7463353545
 11
31.563138039
 21
38.8745403666
 72
1
 10
31.563138039
 20
38.8745403666
 11
31.5423766425
 21
39.0056253789
 72
1
 10
31.5423766425
 20
39.0056253789
 11
31.5354308103
 21
39.1381503914
 72
1
 10
31.5354308103
 20
39.1381503914
 11
51.4260819942
 21
39.6432304389
 72
1
 10
51.4260819942
 20
39.6432304389
 11
51.9353446697
 21
39.6098575394
 97
1
330
292
 75
0
 76
1
 98
1
 10
0.0
 20
0.0
  0
SOLID
  5
294
100
AcDbEntity
  8
Grp_symbol_75_BL1
100
AcDbTrace
 62
2
  6
CONTINUOUS
 10
40.5151962448
 20
50.7220341491
 11
39.6846378094
 21
50.6960704153
 12
41.3402891657
 22
50.6234283584
 13
60.5272335926
 23
51.6022965633
  0
ENDBLK
  5
295
100
AcDbEntity
  8
0
  6
BYBLOCK
 62
0
100
AcDbBlockEnd
  0
BLOCK
  5
296
100
AcDbEntity
  8
Grp_symbol_75_BL2
100
AcDbBlockBegin
  2
GRP_SYMBOL_75_BL2
 70
64
 10
46.0313322015
 20
45.3702272356
  3
GRP_SYMBOL_75_BL2
  1

  0
LINE
  5
297
100
AcDbEntity
  8
Grp_symbol_75_BL2
100
AcDbLine
 62
2
  6
CONTINUOUS
 10
60.3739573131
 20
52.2048929187
 11
60.3928906639
 21
52.1687365129
  0
LINE
  5
298
100
AcDbEntity
  8
Grp_symbol_75_BL2
100
AcDbLine
 62
2
  6
CONTINUOUS
 10
31.5354308104
 20
39.1381526873
 11
31.5354308104
 21
51.6023017838
  0
LINE
  5
299
100
AcDbEntity
  8
Grp_symbol_75_BL2
100
AcDbLine
 62
2
  6
CONTINUOUS
 10
48.0337317682
 20
50.4336868794
 11
48.0337317682
 21
46.2908452231
  0
LINE
  5
29A
100
AcDbEntity
  8
Grp_symbol_75_BL2
100
AcDbLine
 62
2
  6
CONTINUOUS
 10
48.0337317682
 20
44.0883218109
 11
48.0337317682
 21
43.511470441
  0
LINE
  5
29B
100
AcDbEntity
  8
Grp_symbol_75_BL2
100
AcDbLine
 62
2
  6
CONTINUOUS
 10
50.7606655166
 20
43.511470441
 11
50.7606655166
 21
50.4336868794
  0
LINE
  5
29C
100
AcDbEntity
  8
Grp_symbol_75_BL2
100
AcDbLine
 62
2
  6
CONTINUOUS
 10
53.110023823
 20
50.4336868794
 11
53.110023823
 21
43.511470441
  0
LINE
  5
29D
100
AcDbEntity
  8
Grp_symbol_75_BL2
100
AcDbLine
 62
2
  6
CONTINUOUS
 10
55.8369575714
 20
43.511470441
 11
55.8369575714
 21
50.4336868794
  0
LINE
  5
29E
100
AcDbEntity
  8
Grp_symbol_75_BL2
100
AcDbLine
 62
2
  6
CONTINUOUS
 10
60.5272335926
 20
51.6023017838
 11
60.5272335926
 21
39.1381526873
  0
LINE
  5
29F
100
AcDbEntity
  8
Grp_symbol_75_BL2
100
AcDbLine
 62
2
  6
CONTINUOUS
 10
59.2593074357
 20
37.8702265304
 11
32.8033569672
 21
37.8702265304
  0
LINE
  5
2A0
100
AcDbEntity
  8
Grp_symbol_75_BL2
100
AcDbLine
 62
2
  6
CONTINUOUS
 10
40.3773408591
 20
44.0883218109
 11
42.8585834601
 21
44.0883218109
  0
LINE
  5
2A1
100
AcDbEntity
  8
Grp_symbol_75_BL2
100
AcDbLine
 62
2
  6
CONTINUOUS
 10
46.1892744124
 20
44.0883218109
 11
48.0337317682
 21
44.0883218109
  0
LINE
  5
2A2
100
AcDbEntity
  8
Grp_symbol_75_BL2
100
AcDbLine
 62
2
  6
CONTINUOUS
 10
48.0337317682
 20
46.2908452231
 11
46.1892744124
 21
46.2908452231
  0
LINE
  5
2A3
100
AcDbEntity
  8
Grp_symbol_75_BL2
100
AcDbLine
 62
2
  6
CONTINUOUS
 10
45.6996269413
 20
46.2908452231
 11
40.3773408591
 21
46.2908452231
  0
LINE
  5
2A4
100
AcDbEntity
  8
Grp_symbol_75_BL2
100
AcDbLine
 62
2
  6
CONTINUOUS
 10
55.8369575714
 20
50.4336868794
 11
53.1100238229
 21
50.4336868794
  0
LINE
  5
2A5
100
AcDbEntity
  8
Grp_symbol_75_BL2
100
AcDbLine
 62
2
  6
CONTINUOUS
 10
50.7606655166
 20
50.4336868794
 11
48.0337317682
 21
50.4336868794
  0
LINE
  5
2A6
100
AcDbEntity
  8
Grp_symbol_75_BL2
100
AcDbLine
 62
2
  6
CONTINUOUS
 10
32.8033569672
 20
52.8702279407
 11
59.2593074357
 21
52.8702279407
  0
LINE
  5
2A7
100
AcDbEntity
  8
Grp_symbol_75_BL2
100
AcDbLine
 62
2
  6
CONTINUOUS
 10
42.5685234878
 20
46.8109733705
 11
44.7608619995
 21
48.4332185325
  0
ARC
  5
2A8
100
AcDbEntity
  8
Grp_symbol_75_BL2
100
AcDbCircle
 62
2
  6
CONTINUOUS
 10
40.3773408591
 20
45.189583517
 40
5.9153485927
100
AcDbArc
 50
349.2706340045
 51
10.7293659955
  0
ARC
  5
2A9
100
AcDbEntity
  8
Grp_symbol_75_BL2
100
AcDbCircle
 62
2
  6
CONTINUOUS
 10
40.2724587918
 20
45.189583517
 40
5.5377731507
100
AcDbArc
 50
35.8545159817
 51
11.4705154501
  0
ARC
  5
2AA
100
AcDbEntity
  8
Grp_symbol_75_BL2
100
AcDbCircle
 62
2
  6
CONTINUOUS
 10
51.9353446697
 20
43.511470441
 40
3.9016129016
100
AcDbArc
 50
180.0
 51
360.0
  0
ARC
  5
2AB
100
AcDbEntity
  8
Grp_symbol_75_BL2
100
AcDbCircle
 62
2
  6
CONTINUOUS
 10
40.2724587918
 20
45.189583517
 40
2.8108394023
100
AcDbArc
 50
35.2282226131
 51
336.934010569
  0
ARC
  5
2AC
100
AcDbEntity
  8
Grp_symbol_75_BL2
100
AcDbCircle
 62
2
  6
CONTINUOUS
 10
32.8033569672
 20
51.6023017838
 40
1.2679261569
100
AcDbArc
 50
90.0
 51
180.0
  0
ARC
  5
2AD
100
AcDbEntity
  8
Grp_symbol_75_BL2
100
AcDbCircle
 62
2
  6
CONTINUOUS
 10
59.2593074357
 20
51.6023017838
 40
1.2679261569
100
AcDbArc
 50
0.0
 51
90.0
  0
ARC
  5
2AE
100
AcDbEntity
  8
Grp_symbol_75_BL2
100
AcDbCircle
 62
2
  6
CONTINUOUS
 10
59.2593074357
 20
39.1381526873
 40
1.2679261569
100
AcDbArc
 50
270.0
 51
360.0
  0
ARC
  5
2AF
100
AcDbEntity
  8
Grp_symbol_75_BL2
100
AcDbCircle
 62
2
  6
CONTINUOUS
 10
32.8033569672
 20
39.1381526873
 40
1.2679261569
100
AcDbArc
 50
180.0
 51
270.0
  0
ARC
  5
2B0
100
AcDbEntity
  8
Grp_symbol_75_BL2
100
AcDbCircle
 62
2
  6
CONTINUOUS
 10
51.9353446697
 20
43.511470441
 40
1.1746791532
100
AcDbArc
 50
180.0
 51
360.0
  0
ARC
  5
2B1
100
AcDbEntity
  8
Grp_symbol_75_BL2
100
AcDbCircle
 62
2
  6
CONTINUOUS
 10
40.3773408591
 20
45.189583517
 40
1.1012617061
100
AcDbArc
 50
90.0
 51
270.0
  0
ENDBLK
  5
2B2
100
AcDbEntity
  8
0
  6
BYBLOCK
 62
0
100
AcDbBlockEnd
  0
BLOCK
  5
2B3
100
AcDbEntity
  8
X48000092_BD01_BL3
100
AcDbBlockBegin
  2
X48000092_BD01_BL3
 70
64
 10
336.8801583193
 20
134.3978932249
  3
X48000092_BD01_BL3
  1

  0
HATCH
  5
2B4
100
AcDbEntity
  8
X48000092_BD01_BL3
100
AcDbHatch
 62
2
  6
CONTINUOUS
 10
0.0
 20
0.0
 30
0.0
210
0.0
220
0.0
230
1.0
  2
A
 70
0
 71
0
 91
1
 92
1
 93
8
 72
2
 10
564.8782261068
 20
92.2737648452
 40
100.0
 50
164.4065741607
 51
196.8822989843
 73
1
 72
2
 10
484.6056867741
 20
114.6763323114
 40
16.66
 50
16.8822989843
 51
164.4065741607
 73
1
 72
2
 10
404.8573617332
 20
90.4738478692
 40
100.0
 50
344.4065741607
 51
16.8822989843
 73
1
 72
2
 10
485.1299010659
 20
68.0712804031
 40
16.66
 50
196.8822989843
 51
344.4065741607
 73
1
 72
2
 10
485.1299010659
 20
68.0712804031
 40
13.66
 50
196.8822989843
 51
344.4065741607
 73
1
 72
2
 10
404.8573617332
 20
90.4738478692
 40
97.0
 50
344.4065741607
 51
16.8822989843
 73
1
 72
2
 10
484.6056867741
 20
114.6763323114
 40
13.66
 50
16.8822989843
 51
164.4065741607
 73
1
 72
2
 10
564.8782261068
 20
92.2737648452
 40
97.0
 50
164.4065741607
 51
196.8822989843
 73
1
 97
0
 75
0
 76
0
 52
125.0
 41
2.7501161996
 77
0
 78
1
 53
125.0
 43
0.0
 44
0.0
 45
-2.2527633069
 46
-1.5774018493
 79
0
 98
1
 10
0.0
 20
0.0
  0
LINE
  5
2B5
100
AcDbEntity
  8
X48000092_BD01_BL3
100
AcDbLine
 62
8
  6
PHANTOM
 10
172.0500529672
 20
214.6710425719
 11
222.739030348
 21
214.6710425719
  0
LINE
  5
2B6
100
AcDbEntity
  8
X48000092_BD01_BL3
100
AcDbLine
 62
9
  6
PHANTOM
 10
172.0500529672
 20
226.1762424582
 11
220.3590093824
 21
226.1762424582
  0
LINE
  5
2B7
100
AcDbEntity
  8
X48000092_BD01_BL3
100
AcDbLine
 62
9
  6
PHANTOM
 10
172.0500529672
 20
248.016021395
 11
223.5645368498
 21
248.016021395
  0
LINE
  5
2B8
100
AcDbEntity
  8
X48000092_BD01_BL3
100
AcDbLine
 62
8
  6
PHANTOM
 10
172.0500529672
 20
249.5323143378
 11
222.739030348
 21
249.5323143378
  0
LINE
  5
2B9
100
AcDbEntity
  8
X48000092_BD01_BL3
100
AcDbLine
 62
8
  6
PHANTOM
 10
229.5598199893
 20
214.6710425719
 11
271.3474832807
 21
214.6710425719
  0
LINE
  5
2BA
100
AcDbEntity
  8
X48000092_BD01_BL3
100
AcDbLine
 62
9
  6
PHANTOM
 10
227.1797990236
 20
226.1762424582
 11
271.3474832807
 21
226.1762424582
  0
LINE
  5
2BB
100
AcDbEntity
  8
X48000092_BD01_BL3
100
AcDbLine
 62
9
  6
PHANTOM
 10
230.3853264911
 20
248.016021395
 11
271.3474832807
 21
248.016021395
  0
LINE
  5
2BC
100
AcDbEntity
  8
X48000092_BD01_BL3
100
AcDbLine
 62
8
  6
PHANTOM
 10
229.5598199893
 20
249.5323143378
 11
271.3474832807
 21
249.5323143378
  0
LINE
  5
2BD
100
AcDbEntity
  8
X48000092_BD01_BL3
100
AcDbLine
 62
8
  6
PHANTOM
 10
172.0500529672
 20
19.2634721121
 11
222.739030348
 21
19.2634721121
  0
LINE
  5
2BE
100
AcDbEntity
  8
X48000092_BD01_BL3
100
AcDbLine
 62
9
  6
PHANTOM
 10
172.0500529672
 20
19.8923679262
 11
222.739030348
 21
19.8923679262
  0
LINE
  5
2BF
100
AcDbEntity
  8
X48000092_BD01_BL3
100
AcDbLine
 62
9
  6
PHANTOM
 10
172.0369526117
 20
37.3545838577
 11
224.7116031738
 21
37.3545838577
  0
LINE
  5
2C0
100
AcDbEntity
  8
X48000092_BD01_BL3
100
AcDbLine
 62
8
  6
PHANTOM
 10
171.9704155726
 20
50.4764828694
 11
222.739030348
 21
50.4764828694
  0
LINE
  5
2C1
100
AcDbEntity
  8
X48000092_BD01_BL3
100
AcDbLine
 62
8
  6
PHANTOM
 10
229.5598199893
 20
19.2634721121
 11
271.3474832807
 21
19.2634721121
  0
LINE
  5
2C2
100
AcDbEntity
  8
X48000092_BD01_BL3
100
AcDbLine
 62
9
  6
PHANTOM
 10
229.5598199893
 20
19.8923679262
 11
271.3474832807
 21
19.8923679262
  0
LINE
  5
2C3
100
AcDbEntity
  8
X48000092_BD01_BL3
100
AcDbLine
 62
9
  6
PHANTOM
 10
231.5323928151
 20
37.3545838577
 11
271.3605836363
 21
37.3545838577
  0
LINE
  5
2C4
100
AcDbEntity
  8
X48000092_BD01_BL3
100
AcDbLine
 62
8
  6
PHANTOM
 10
229.5598199893
 20
50.4764828694
 11
271.4271206753
 21
50.4764828694
  0
ARC
  5
2C5
100
AcDbEntity
  8
X48000092_BD01_BL3
100
AcDbCircle
 62
7
  6
CONTINUOUS
 10
404.8573617332
 20
90.4738478692
 40
100.0
100
AcDbArc
 50
344.4065741607
 51
16.8822989843
  0
ARC
  5
2C6
100
AcDbEntity
  8
X48000092_BD01_BL3
100
AcDbCircle
 62
7
  6
CONTINUOUS
 10
564.8782261068
 20
92.2737648452
 40
100.0
100
AcDbArc
 50
164.4065741607
 51
196.8822989843
  0
ARC
  5
2C7
100
AcDbEntity
  8
X48000092_BD01_BL3
100
AcDbCircle
 62
7
  6
CONTINUOUS
 10
404.8573617332
 20
90.4738478692
 40
97.0
100
AcDbArc
 50
344.4065741607
 51
16.8822989843
  0
ARC
  5
2C8
100
AcDbEntity
  8
X48000092_BD01_BL3
100
AcDbCircle
 62
7
  6
CONTINUOUS
 10
564.8782261068
 20
92.2737648452
 40
97.0
100
AcDbArc
 50
164.4065741607
 51
196.8822989843
  0
ARC
  5
2C9
100
AcDbEntity
  8
X48000092_BD01_BL3
100
AcDbCircle
 62
7
  6
CONTINUOUS
 10
485.1299010659
 20
68.0712804031
 40
16.66
100
AcDbArc
 50
196.8822989843
 51
344.4065741607
  0
ARC
  5
2CA
100
AcDbEntity
  8
X48000092_BD01_BL3
100
AcDbCircle
 62
7
  6
CONTINUOUS
 10
484.6056867741
 20
114.6763323114
 40
16.66
100
AcDbArc
 50
16.8822989843
 51
164.4065741607
  0
ARC
  5
2CB
100
AcDbEntity
  8
X48000092_BD01_BL3
100
AcDbCircle
 62
7
  6
CONTINUOUS
 10
484.6056867741
 20
114.6763323114
 40
13.66
100
AcDbArc
 50
16.8822989843
 51
164.4065741607
  0
ARC
  5
2CC
100
AcDbEntity
  8
X48000092_BD01_BL3
100
AcDbCircle
 62
7
  6
CONTINUOUS
 10
485.1299010659
 20
68.0712804031
 40
13.66
100
AcDbArc
 50
196.8822989843
 51
344.4065741607
  0
ENDBLK
  5
2CD
100
AcDbEntity
  8
0
  6
BYBLOCK
 62
0
100
AcDbBlockEnd
  0
BLOCK
  5
2CE
100
AcDbEntity
  8
X48002254_BL4
100
AcDbBlockBegin
  2
X48002254_BL4
 70
64
 10
268.1310772485
 20
250.8306637616
  3
X48002254_BL4
  1

  0
LINE
  5
2CF
100
AcDbEntity
  8
X48002254_BL4
100
AcDbLine
 62
9
  6
CONTINUOUS
 10
423.1995559295
 20
389.0390135151
 11
422.0504892649
 21
388.0748321006
  0
LINE
  5
2D0
100
AcDbEntity
  8
X48002254_BL4
100
AcDbLine
 62
3
  6
CONTINUOUS
 10
421.8003455747
 20
182.1106506861
 11
415.0003455747
 21
182.1106506861
  0
LINE
  5
2D1
100
AcDbEntity
  8
X48002254_BL4
100
AcDbLine
 62
7
  6
CONTINUOUS
 10
421.8003455747
 20
183.6106506861
 11
415.0003455747
 21
183.6106506861
  0
LINE
  5
2D2
100
AcDbEntity
  8
X48002254_BL4
100
AcDbLine
 62
9
  6
CONTINUOUS
 10
425.3003455747
 20
185.6106506861
 11
423.8003455747
 21
185.6106506861
  0
LINE
  5
2D3
100
AcDbEntity
  8
X48002254_BL4
100
AcDbLine
 62
7
  6
CONTINUOUS
 10
415.0003455747
 20
390.1106506861
 11
415.0003455747
 21
388.6106506861
  0
LINE
  5
2D4
100
AcDbEntity
  8
X48002254_BL4
100
AcDbLine
 62
7
  6
CONTINUOUS
 10
415.0003455747
 20
182.1106506861
 11
415.0003455747
 21
183.6106506861
  0
LINE
  5
2D5
100
AcDbEntity
  8
X48002254_BL4
100
AcDbLine
 62
9
  6
CONTINUOUS
 10
454.0003484623
 20
352.3320583595
 11
452.8512817976
 21
351.3678769449
  0
LINE
  5
2D6
100
AcDbEntity
  8
X48002254_BL4
100
AcDbLine
 62
9
  6
CONTINUOUS
 10
453.5682457096
 20
347.7849302067
 11
452.3774619793
 21
346.8727711704
  0
LINE
  5
2D7
100
AcDbEntity
  8
X48002254_BL4
100
AcDbLine
 62
9
  6
CONTINUOUS
 10
420.9014226002
 20
390.1106506861
 11
420.9014226002
 21
388.6106506861
  0
LINE
  5
2D8
100
AcDbEntity
  8
X48002254_BL4
100
AcDbLine
 62
9
  6
CONTINUOUS
 10
421.8003455747
 20
182.1106506861
 11
421.8003455747
 21
183.6106506861
  0
LINE
  5
2D9
100
AcDbEntity
  8
X48002254_BL4
100
AcDbLine
 62
7
  6
CONTINUOUS
 10
423.8003455747
 20
295.155718569
 11
423.8003455747
 21
185.6106506861
  0
LINE
  5
2DA
100
AcDbEntity
  8
X48002254_BL4
100
AcDbLine
 62
3
  6
CONTINUOUS
 10
425.3003455747
 20
295.155718569
 11
425.3003455747
 21
185.6106506861
  0
LINE
  5
2DB
100
AcDbEntity
  8
X48002254_BL4
100
AcDbLine
 62
7
  6
CONTINUOUS
 10
447.9718743017
 20
318.3276098003
 11
428.9174283384
 21
304.9855431004
  0
LINE
  5
2DC
100
AcDbEntity
  8
X48002254_BL4
100
AcDbLine
 62
3
  6
CONTINUOUS
 10
448.8322389562
 20
317.0988817339
 11
429.777792993
 21
303.756815034
  0
LINE
  5
2DD
100
AcDbEntity
  8
X48002254_BL4
100
AcDbLine
 62
9
  6
CONTINUOUS
 10
429.777792993
 20
303.756815034
 11
428.9174283384
 21
304.9855431004
  0
LINE
  5
2DE
100
AcDbEntity
  8
X48002254_BL4
100
AcDbLine
 62
9
  6
CONTINUOUS
 10
448.8322389562
 20
317.0988817339
 11
447.9718743017
 21
318.3276098003
  0
LINE
  5
2DF
100
AcDbEntity
  8
X48002254_BL4
100
AcDbLine
 62
9
  6
CONTINUOUS
 10
425.3003455747
 20
295.155718569
 11
423.8003455747
 21
295.155718569
  0
LINE
  5
2E0
100
AcDbEntity
  8
X48002254_BL4
100
AcDbLine
 62
9
  6
CONTINUOUS
 10
453.7204544331
 20
349.160036233
 11
452.7579837879
 21
350.3105362361
  0
LINE
  5
2E1
100
AcDbEntity
  8
X48002254_BL4
100
AcDbLine
 62
7
  6
CONTINUOUS
 10
422.0504892649
 20
388.0748321006
 11
452.8512817976
 21
351.3678769449
  0
LINE
  5
2E2
100
AcDbEntity
  8
X48002254_BL4
100
AcDbLine
 62
3
  6
CONTINUOUS
 10
423.1995559295
 20
389.0390135151
 11
454.0003484623
 21
352.3320583595
  0
LINE
  5
2E3
100
AcDbEntity
  8
X48002254_BL4
100
AcDbLine
 62
7
  6
CONTINUOUS
 10
415.0003455747
 20
388.6106506861
 11
420.9014226002
 21
388.6106506861
  0
LINE
  5
2E4
100
AcDbEntity
  8
X48002254_BL4
100
AcDbLine
 62
3
  6
CONTINUOUS
 10
415.0003455747
 20
390.1106506861
 11
420.9014226002
 21
390.1106506861
  0
LINE
  5
2E5
100
AcDbEntity
  8
X48002254_BL4
100
AcDbLine
 62
3
  6
CONTINUOUS
 10
81.9000529672
 20
182.1106506861
 11
116.2000529672
 21
182.1106506861
  0
LINE
  5
2E6
100
AcDbEntity
  8
X48002254_BL4
100
AcDbLine
 62
9
  6
CONTINUOUS
 10
81.9000529672
 20
185.6106506861
 11
116.2000529672
 21
185.6106506861
  0
LINE
  5
2E7
100
AcDbEntity
  8
X48002254_BL4
100
AcDbLine
 62
3
  6
CONTINUOUS
 10
81.9000529672
 20
390.1106506861
 11
81.9000529672
 21
182.1106506861
  0
LINE
  5
2E8
100
AcDbEntity
  8
X48002254_BL4
100
AcDbLine
 62
3
  6
CONTINUOUS
 10
116.2000529672
 20
390.1106506861
 11
116.2000529672
 21
336.4212939891
  0
LINE
  5
2E9
100
AcDbEntity
  8
X48002254_BL4
100
AcDbLine
 62
3
  6
CONTINUOUS
 10
116.2000529672
 20
294.856112498
 11
116.2000529672
 21
182.1106506861
  0
LINE
  5
2EA
100
AcDbEntity
  8
X48002254_BL4
100
AcDbLine
 62
9
  6
CONTINUOUS
 10
81.9000529672
 20
295.155718569
 11
115.7858040196
 21
295.155718569
  0
LINE
  5
2EB
100
AcDbEntity
  8
X48002254_BL4
100
AcDbLine
 62
9
  6
CONTINUOUS
 10
81.9000529672
 20
303.756815034
 11
101.2455463324
 21
303.756815034
  0
LINE
  5
2EC
100
AcDbEntity
  8
X48002254_BL4
100
AcDbLine
 62
9
  6
CONTINUOUS
 10
81.9000529672
 20
317.0988817339
 11
84.512392763
 21
317.0988817339
  0
LINE
  5
2ED
100
AcDbEntity
  8
X48002254_BL4
100
AcDbLine
 62
9
  6
CONTINUOUS
 10
81.9000529672
 20
347.7849302067
 11
82.3000529672
 21
347.7849302067
  0
LINE
  5
2EE
100
AcDbEntity
  8
X48002254_BL4
100
AcDbLine
 62
9
  6
CONTINUOUS
 10
115.8000529672
 20
347.7849302067
 11
116.2000529672
 21
347.7849302067
  0
LINE
  5
2EF
100
AcDbEntity
  8
X48002254_BL4
100
AcDbLine
 62
9
  6
CONTINUOUS
 10
81.9000529672
 20
349.160036233
 11
82.3000529672
 21
349.160036233
  0
LINE
  5
2F0
100
AcDbEntity
  8
X48002254_BL4
100
AcDbLine
 62
9
  6
CONTINUOUS
 10
115.8000529672
 20
349.160036233
 11
116.2000529672
 21
349.160036233
  0
LINE
  5
2F1
100
AcDbEntity
  8
X48002254_BL4
100
AcDbLine
 62
9
  6
CONTINUOUS
 10
81.9000529672
 20
352.3320583595
 11
116.2000529672
 21
352.3320583595
  0
LINE
  5
2F2
100
AcDbEntity
  8
X48002254_BL4
100
AcDbLine
 62
9
  6
CONTINUOUS
 10
81.9000529672
 20
389.0390135151
 11
116.2000529672
 21
389.0390135151
  0
LINE
  5
2F3
100
AcDbEntity
  8
X48002254_BL4
100
AcDbLine
 62
3
  6
CONTINUOUS
 10
81.9000529672
 20
390.1106506861
 11
116.2000529672
 21
390.1106506861
  0
LINE
  5
2F4
100
AcDbEntity
  8
X48002254_BL4
100
AcDbLine
 62
3
  6
CONTINUOUS
 10
81.9000529672
 20
154.5506768372
 11
81.9000529672
 21
111.550749867
  0
LINE
  5
2F5
100
AcDbEntity
  8
X48002254_BL4
100
AcDbLine
 62
3
  6
CONTINUOUS
 10
116.2000529672
 20
154.5506768372
 11
116.2000529672
 21
111.550749867
  0
LINE
  5
2F6
100
AcDbEntity
  8
X48002254_BL4
100
AcDbLine
 62
3
  6
CONTINUOUS
 10
81.9000529672
 20
111.5506768372
 11
82.3000529672
 21
111.5506768372
  0
LINE
  5
2F7
100
AcDbEntity
  8
X48002254_BL4
100
AcDbLine
 62
3
  6
CONTINUOUS
 10
115.8000529672
 20
111.5506768372
 11
116.2000529672
 21
111.5506768372
  0
LINE
  5
2F8
100
AcDbEntity
  8
X48002254_BL4
100
AcDbLine
 62
3
  6
CONTINUOUS
 10
81.9000529672
 20
115.0242739466
 11
116.2000529672
 21
115.0242739466
  0
LINE
  5
2F9
100
AcDbEntity
  8
X48002254_BL4
100
AcDbLine
 62
9
  6
CONTINUOUS
 10
81.9000529672
 20
115.5506739495
 11
116.2000529672
 21
115.5506739495
  0
LINE
  5
2FA
100
AcDbEntity
  8
X48002254_BL4
100
AcDbLine
 62
9
  6
CONTINUOUS
 10
81.9000529672
 20
146.3514664823
 11
116.2000529672
 21
146.3514664823
  0
LINE
  5
2FB
100
AcDbEntity
  8
X48002254_BL4
100
AcDbLine
 62
9
  6
CONTINUOUS
 10
81.9000529672
 20
148.6495998117
 11
116.2000529672
 21
148.6495998117
  0
LINE
  5
2FC
100
AcDbEntity
  8
X48002254_BL4
100
AcDbLine
 62
3
  6
CONTINUOUS
 10
81.9000529672
 20
154.5506768372
 11
116.2000529672
 21
154.5506768372
  0
ARC
  5
2FD
100
AcDbEntity
  8
X48002254_BL4
100
AcDbCircle
 62
3
  6
CONTINUOUS
 10
421.8003455747
 20
185.6106506861
 40
3.5
100
AcDbArc
 50
270.0
 51
360.0
  0
ARC
  5
2FE
100
AcDbEntity
  8
X48002254_BL4
100
AcDbCircle
 62
7
  6
CONTINUOUS
 10
421.8003455747
 20
185.6106506861
 40
2.0
100
AcDbArc
 50
270.0
 51
360.0
  0
ARC
  5
2FF
100
AcDbEntity
  8
X48002254_BL4
100
AcDbCircle
 62
3
  6
CONTINUOUS
 10
436.5003455747
 20
334.7106506861
 40
21.5
100
AcDbArc
 50
305.0
 51
37.4526818174
  0
ARC
  5
300
100
AcDbEntity
  8
X48002254_BL4
100
AcDbCircle
 62
7
  6
CONTINUOUS
 10
436.5003455747
 20
334.7106506861
 40
20.0
100
AcDbArc
 50
305.0
 51
37.4526818174
  0
ARC
  5
301
100
AcDbEntity
  8
X48002254_BL4
100
AcDbCircle
 62
7
  6
CONTINUOUS
 10
435.8003455747
 20
295.155718569
 40
12.0
100
AcDbArc
 50
125.0
 51
180.0
  0
ARC
  5
302
100
AcDbEntity
  8
X48002254_BL4
100
AcDbCircle
 62
3
  6
CONTINUOUS
 10
435.8003455747
 20
295.155718569
 40
10.5
100
AcDbArc
 50
125.0
 51
180.0
  0
ARC
  5
303
100
AcDbEntity
  8
X48002254_BL4
100
AcDbCircle
 62
3
  6
CONTINUOUS
 10
420.9014226002
 20
387.1106506861
 40
3.0
100
AcDbArc
 50
40.0
 51
90.0
  0
ARC
  5
304
100
AcDbEntity
  8
X48002254_BL4
100
AcDbCircle
 62
7
  6
CONTINUOUS
 10
420.9014226002
 20
387.1106506861
 40
1.5
100
AcDbArc
 50
40.0
 51
90.0
  0
ARC
  5
305
100
AcDbEntity
  8
X48002254_BL4
100
AcDbCircle
 62
7
  6
CONTINUOUS
 10
454.3621015298
 20
348.3930362309
 40
2.5
100
AcDbArc
 50
129.9147492899
 51
217.4526818174
  0
ARC
  5
306
100
AcDbEntity
  8
X48002254_BL4
100
AcDbCircle
 62
3
  6
CONTINUOUS
 10
452.2767484653
 20
350.8857862377
 40
2.25
100
AcDbArc
 50
309.9147492899
 51
40.0
  0
ARC
  5
307
100
AcDbEntity
  8
X48002254_BL4
100
AcDbCircle
 62
3
  6
CONTINUOUS
 10
454.3621015298
 20
348.3930362309
 40
1.0
100
AcDbArc
 50
129.9147492899
 51
217.4526818174
  0
ARC
  5
308
100
AcDbEntity
  8
X48002254_BL4
100
AcDbCircle
 62
7
  6
CONTINUOUS
 10
452.2767484653
 20
350.8857862377
 40
0.75
100
AcDbArc
 50
309.9147492899
 51
40.0
  0
ENDBLK
  5
309
100
AcDbEntity
  8
0
  6
BYBLOCK
 62
0
100
AcDbBlockEnd
  0
BLOCK
  5
30A
100
AcDbEntity
  8
X48002255_BL5
100
AcDbBlockBegin
  2
X48002255_BL5
 70
64
 10
434.6964301882
 20
286.1106506861
  3
X48002255_BL5
  1

  0
LINE
  5
30B
100
AcDbEntity
  8
X48002255_BL5
100
AcDbLine
 62
7
  6
CONTINUOUS
 10
421.7503455747
 20
183.6106506861
 11
415.0003455747
 21
183.6106506861
  0
LINE
  5
30C
100
AcDbEntity
  8
X48002255_BL5
100
AcDbLine
 62
7
  6
CONTINUOUS
 10
415.0003455747
 20
183.6106506861
 11
415.0003455747
 21
388.6106506861
  0
LINE
  5
30D
100
AcDbEntity
  8
X48002255_BL5
100
AcDbLine
 62
7
  6
CONTINUOUS
 10
416.9503455747
 20
388.6106506861
 11
416.9503455747
 21
387.1106506861
  0
LINE
  5
30E
100
AcDbEntity
  8
X48002255_BL5
100
AcDbLine
 62
7
  6
CONTINUOUS
 10
420.0503455747
 20
388.6106506861
 11
420.0503455747
 21
387.1106506861
  0
LINE
  5
30F
100
AcDbEntity
  8
X48002255_BL5
100
AcDbLine
 62
7
  6
CONTINUOUS
 10
423.7503455747
 20
295.155718569
 11
423.7503455747
 21
185.6106506861
  0
LINE
  5
310
100
AcDbEntity
  8
X48002255_BL5
100
AcDbLine
 62
7
  6
CONTINUOUS
 10
447.9431954799
 20
318.3685674025
 11
428.8887495166
 21
305.0265007026
  0
LINE
  5
311
100
AcDbEntity
  8
X48002255_BL5
100
AcDbLine
 62
7
  6
CONTINUOUS
 10
422.2409773508
 20
388.0033896225
 11
452.8316589022
 21
351.5468349837
  0
LINE
  5
312
100
AcDbEntity
  8
X48002255_BL5
100
AcDbLine
 62
7
  6
CONTINUOUS
 10
420.0503455747
 20
387.1106506861
 11
416.9503455747
 21
387.1106506861
  0
LINE
  5
313
100
AcDbEntity
  8
X48002255_BL5
100
AcDbLine
 62
7
  6
CONTINUOUS
 10
415.0003455747
 20
388.6106506861
 11
416.9503455747
 21
388.6106506861
  0
LINE
  5
314
100
AcDbEntity
  8
X48002255_BL5
100
AcDbLine
 62
7
  6
CONTINUOUS
 10
420.0503455747
 20
388.6106506861
 11
420.9387017975
 21
388.6106506861
  0
ARC
  5
315
100
AcDbEntity
  8
X48002255_BL5
100
AcDbCircle
 62
7
  6
CONTINUOUS
 10
421.7503455747
 20
185.6106506861
 40
2.0
100
AcDbArc
 50
270.0
 51
360.0
  0
ARC
  5
316
100
AcDbEntity
  8
X48002255_BL5
100
AcDbCircle
 62
7
  6
CONTINUOUS
 10
436.5003455747
 20
334.7106506861
 40
19.95
100
AcDbArc
 50
305.0
 51
37.3251390605
  0
ARC
  5
317
100
AcDbEntity
  8
X48002255_BL5
100
AcDbCircle
 62
7
  6
CONTINUOUS
 10
435.8003455747
 20
295.155718569
 40
12.05
100
AcDbArc
 50
125.0
 51
180.0
  0
ARC
  5
318
100
AcDbEntity
  8
X48002255_BL5
100
AcDbCircle
 62
7
  6
CONTINUOUS
 10
420.9387017975
 20
386.9106506861
 40
1.7
100
AcDbArc
 50
40.0
 51
90.0
  0
ARC
  5
319
100
AcDbEntity
  8
X48002255_BL5
100
AcDbCircle
 62
7
  6
CONTINUOUS
 10
454.3925148017
 20
348.353241362
 40
2.55
100
AcDbArc
 50
130.7121895648
 51
217.3251390605
  0
ARC
  5
31A
100
AcDbEntity
  8
X48002255_BL5
100
AcDbCircle
 62
7
  6
CONTINUOUS
 10
452.1422189034
 20
350.968326135
 40
0.9
100
AcDbArc
 50
310.7121895648
 51
40.0
  0
ENDBLK
  5
31B
100
AcDbEntity
  8
0
  6
BYBLOCK
 62
0
100
AcDbBlockEnd
  0
BLOCK
  5
31C
100
AcDbEntity
  8
X48002256_BL6
100
AcDbBlockBegin
  2
X48002256_BL6
 70
64
 10
418.5258661801
 20
387.8606506861
  3
X48002256_BL6
  1

  0
LINE
  5
31D
100
AcDbEntity
  8
X48002256_BL6
100
AcDbLine
 62
7
  6
CONTINUOUS
 10
417.0003455747
 20
387.1106506861
 11
417.0003455747
 21
388.6106506861
  0
LINE
  5
31E
100
AcDbEntity
  8
X48002256_BL6
100
AcDbLine
 62
7
  6
CONTINUOUS
 10
420.0003455747
 20
387.1106506861
 11
420.0003455747
 21
388.6106506861
  0
LINE
  5
31F
100
AcDbEntity
  8
X48002256_BL6
100
AcDbLine
 62
3
  6
CONTINUOUS
 10
420.0003455747
 20
387.1106506861
 11
417.0003455747
 21
387.1106506861
  0
LINE
  5
320
100
AcDbEntity
  8
X48002256_BL6
100
AcDbLine
 62
7
  6
CONTINUOUS
 10
420.0003455747
 20
388.6106506861
 11
417.0003455747
 21
388.6106506861
  0
ARC
  5
321
100
AcDbEntity
  8
X48002256_BL6
100
AcDbCircle
 62
7
  6
CONTINUOUS
 10
420.0003455747
 20
386.1106506861
 40
2.5
100
AcDbArc
 50
88.8301403329
 51
90.0
  0
ENDBLK
  5
322
100
AcDbEntity
  8
0
  6
BYBLOCK
 62
0
100
AcDbBlockEnd
  0
BLOCK
  5
323
100
AcDbEntity
  8
X48002257_BL7
100
AcDbBlockBegin
  2
X48002257_BL7
 70
64
 10
317.003427698
 20
183.6641485948
  3
X48002257_BL7
  1

  0
LINE
  5
324
100
AcDbEntity
  8
X48002257_BL7
100
AcDbLine
 62
7
  6
CONTINUOUS
 10
454.7220227708
 20
349.9601423078
 11
454.3155584194
 21
349.6351496284
  0
LINE
  5
325
100
AcDbEntity
  8
X48002257_BL7
100
AcDbLine
 62
9
  6
CONTINUOUS
 10
455.0342655351
 20
349.5696241185
 11
454.6278011837
 21
349.2446314391
  0
LINE
  5
326
100
AcDbEntity
  8
X48002257_BL7
100
AcDbLine
 62
9
  6
CONTINUOUS
 10
455.7370264887
 20
349.4913486935
 11
456.1275446742
 21
349.8035914624
  0
LINE
  5
327
100
AcDbEntity
  8
X48002257_BL7
100
AcDbLine
 62
9
  6
CONTINUOUS
 10
454.5371065879
 20
348.5580702058
 11
454.1341692279
 21
348.2620271618
  0
LINE
  5
328
100
AcDbEntity
  8
X48002257_BL7
100
AcDbLine
 62
9
  6
CONTINUOUS
 10
459.1961080974
 20
334.3321910431
 11
464.8703420776
 21
338.8690821579
  0
LINE
  5
329
100
AcDbEntity
  8
X48002257_BL7
100
AcDbLine
 62
9
  6
CONTINUOUS
 10
465.044738698
 20
305.5837470228
 11
480.782621726
 21
318.1671304231
  0
LINE
  5
32A
100
AcDbEntity
  8
X48002257_BL7
100
AcDbLine
 62
7
  6
CONTINUOUS
 10
453.3436069273
 20
319.4175497104
 11
511.7495731385
 21
246.3699253056
  0
LINE
  5
32B
100
AcDbEntity
  8
X48002257_BL7
100
AcDbLine
 62
9
  6
CONTINUOUS
 10
454.0740523962
 20
319.3046496022
 11
512.1797930932
 21
246.6325135596
  0
LINE
  5
32C
100
AcDbEntity
  8
X48002257_BL7
100
AcDbLine
 62
7
  6
CONTINUOUS
 10
517.4010380133
 20
237.7536508774
 11
517.4182782947
 21
237.7205898764
  0
LINE
  5
32D
100
AcDbEntity
  8
X48002257_BL7
100
AcDbLine
 62
9
  6
CONTINUOUS
 10
454.6278011837
 20
349.2446314391
 11
454.3155584179
 21
349.6351496272
  0
LINE
  5
32E
100
AcDbEntity
  8
X48002257_BL7
100
AcDbLine
 62
9
  6
CONTINUOUS
 10
455.0342655351
 20
349.5696241185
 11
454.7220227708
 21
349.9601423078
  0
LINE
  5
32F
100
AcDbEntity
  8
X48002257_BL7
100
AcDbLine
 62
9
  6
CONTINUOUS
 10
543.7894860142
 20
239.3652193168
 11
455.7370264887
 21
349.4913486935
  0
LINE
  5
330
100
AcDbEntity
  8
X48002257_BL7
100
AcDbLine
 62
7
  6
CONTINUOUS
 10
544.1800042035
 20
239.677462081
 11
456.1275446779
 21
349.8035914578
  0
LINE
  5
331
100
AcDbEntity
  8
X48002257_BL7
100
AcDbLine
 62
9
  6
CONTINUOUS
 10
459.1961080974
 20
334.3321910431
 11
458.696108206
 21
334.3325204818
  0
LINE
  5
332
100
AcDbEntity
  8
X48002257_BL7
100
AcDbLine
 62
9
  6
CONTINUOUS
 10
519.0434889246
 20
235.5836834586
 11
536.3739350966
 21
249.440416813
  0
LINE
  5
333
100
AcDbEntity
  8
X48002257_BL7
100
AcDbLine
 62
9
  6
CONTINUOUS
 10
519.0434889246
 20
235.5836834586
 11
518.5907779642
 21
235.3714270422
  0
LINE
  5
334
100
AcDbEntity
  8
X48002257_BL7
100
AcDbLine
 62
9
  6
CONTINUOUS
 10
519.2756885094
 20
235.0819501593
 11
518.8208856608
 21
234.8742138626
  0
LINE
  5
335
100
AcDbEntity
  8
X48002257_BL7
100
AcDbLine
 62
9
  6
CONTINUOUS
 10
543.7894860142
 20
239.3652193168
 11
544.1800042035
 21
239.677462081
  0
LINE
  5
336
100
AcDbEntity
  8
X48002257_BL7
100
AcDbLine
 62
9
  6
CONTINUOUS
 10
523.2560467315
 20
222.951482523
 11
524.1343250911
 21
223.652682579
  0
LINE
  5
337
100
AcDbEntity
  8
X48002257_BL7
100
AcDbLine
 62
9
  6
CONTINUOUS
 10
536.5965085419
 20
214.6941835713
 11
536.3180079006
 21
214.2789277553
  0
LINE
  5
338
100
AcDbEntity
  8
X48002257_BL7
100
AcDbLine
 62
9
  6
CONTINUOUS
 10
551.2404437029
 20
226.4028899007
 11
551.7068024289
 21
226.5831939183
  0
LWPOLYLINE
  5
339
100
AcDbEntity
  8
X48002257_BL7
100
AcDbPolyline
 62
9
  6
CONTINUOUS
 90
7
 70
0
 10
82.3955443746
 20
349.6748803034
 10
82.4464995386
 20
349.7121376457
 10
82.5061603905
 20
349.7439584186
 10
82.5730578233
 20
349.769559067
 10
82.6455445959
 20
349.7883092346
 10
82.7218358252
 20
349.7997472419
 10
82.8000529672
 20
349.8035914624
  0
LWPOLYLINE
  5
33A
100
AcDbEntity
  8
X48002257_BL7
100
AcDbPolyline
 62
9
  6
CONTINUOUS
 90
5
 70
0
 10
82.3000529672
 20
349.4913486935
 10
82.3062087786
 20
349.5401941512
 10
82.3245246525
 20
349.5878369053
 10
82.3545496152
 20
349.6331038319
 10
82.3955443746
 20
349.6748803034
  0
LWPOLYLINE
  5
33B
100
AcDbEntity
  8
X48002257_BL7
100
AcDbPolyline
 62
9
  6
CONTINUOUS
 90
11
 70
0
 10
82.3000529672
 20
338.5568393937
 10
82.3062087969
 20
338.6056849235
 10
82.3245247091
 20
338.6533277142
 10
82.3545497051
 20
338.6985946423
 10
82.39554447
 20
338.7403710856
 10
82.4464995766
 20
338.7776283697
 10
82.5061603411
 20
338.8094490963
 10
82.5730577174
 20
338.8350497338
 10
82.64554447
 20
338.8537999093
 10
82.7218357347
 20
338.8652379314
 10
82.8000529672
 20
338.8690821579
  0
LWPOLYLINE
  5
33C
100
AcDbEntity
  8
X48002257_BL7
100
AcDbPolyline
 62
9
  6
CONTINUOUS
 90
15
 70
0
 10
82.3000529672
 20
334.3321910431
 10
82.3172473708
 20
333.0110084887
 10
82.3655757185
 20
331.6962248484
 10
82.4404554544
 20
330.3862537221
 10
82.5369629098
 20
329.0880606383
 10
82.6509116836
 20
327.7960278546
 10
82.7750162349
 20
326.5450022012
 10
82.9003279309
 20
325.3665613387
 10
83.0224832218
 20
324.2630153279
 10
83.1359387144
 20
323.2500781679
 10
83.2392255803
 20
322.3187240499
 10
83.3309467158
 20
321.4694516583
 10
83.4112393813
 20
320.6899681577
 10
83.4819639291
 20
319.9670113812
 10
83.5407830202
 20
319.3046496022
  0
LWPOLYLINE
  5
33D
100
AcDbEntity
  8
X48002257_BL7
100
AcDbPolyline
 62
7
  6
CONTINUOUS
 90
8
 70
0
 10
82.3000547139
 20
334.3321910252
 10
82.3147483382
 20
333.1097385001
 10
82.3638655959
 20
331.7234548874
 10
82.4423372569
 20
330.3435382337
 10
82.5446404891
 20
328.9745431529
 10
82.6651440876
 20
327.6208084106
 10
82.7982317513
 20
326.2867556809
 10
82.9382633954
 20
324.9767572927
  0
LINE
  5
33E
100
AcDbEntity
  8
X48002257_BL7
100
AcDbLine
 62
7
  6
CONTINUOUS
 10
82.3000529672
 20
334.3321910431
 11
82.3000529672
 21
349.6790864143
  0
LINE
  5
33F
100
AcDbEntity
  8
X48002257_BL7
100
AcDbLine
 62
9
  6
CONTINUOUS
 10
82.8000529672
 20
338.8690821579
 11
82.8000529672
 21
350.1791059292
  0
LINE
  5
340
100
AcDbEntity
  8
X48002257_BL7
100
AcDbLine
 62
7
  6
CONTINUOUS
 10
171.5500529672
 20
212.5281129146
 11
149.5500529672
 21
212.5281129146
  0
LWPOLYLINE
  5
341
100
AcDbEntity
  8
X48002257_BL7
100
AcDbPolyline
 62
9
  6
CONTINUOUS
 90
11
 70
0
 10
97.5190330173
 20
318.1671304231
 10
97.5220659987
 20
318.2201598054
 10
97.5310902607
 20
318.2802511334
 10
97.5458835963
 20
318.3459247592
 10
97.5660817442
 20
318.4155635801
 10
97.5911873591
 20
318.4874528573
 10
97.6205822574
 20
318.5598224381
 10
97.6535426392
 20
318.6308903433
 10
97.6892569105
 20
318.6989066453
 10
97.7268456673
 20
318.7621965568
 10
97.7653833498
 20
318.8192016702
  0
LINE
  5
342
100
AcDbEntity
  8
X48002257_BL7
100
AcDbLine
 62
9
  6
CONTINUOUS
 10
149.5500529672
 20
226.5831939183
 11
171.5500529672
 21
226.5831939183
  0
LINE
  5
343
100
AcDbEntity
  8
X48002257_BL7
100
AcDbLine
 62
7
  6
CONTINUOUS
 10
83.5277038764
 20
319.3043637597
 11
83.5277138328
 21
319.3043051789
  0
LWPOLYLINE
  5
344
100
AcDbEntity
  8
X48002257_BL7
100
AcDbPolyline
 62
7
  6
CONTINUOUS
 90
5
 70
0
 10
82.9382633954
 20
324.9767572927
 10
83.2172484468
 20
322.4467916223
 10
83.3456992446
 20
321.2358596964
 10
83.4603102124
 20
320.0673091545
 10
83.52770634
 20
319.3043572877
  0
LWPOLYLINE
  5
345
100
AcDbEntity
  8
X48002257_BL7
100
AcDbPolyline
 62
9
  6
CONTINUOUS
 90
5
 70
0
 10
97.5190330173
 20
305.5837470228
 10
97.5220659986
 20
305.5390853456
 10
97.5310902607
 20
305.5038910921
 10
97.5458835963
 20
305.4790308618
 10
97.5631648471
 20
305.4662925766
  0
LINE
  5
346
100
AcDbEntity
  8
X48002257_BL7
100
AcDbLine
 62
9
  6
CONTINUOUS
 10
97.5190330173
 20
305.5837470228
 11
97.5190330173
 21
318.1671304231
  0
LWPOLYLINE
  5
347
100
AcDbEntity
  8
X48002257_BL7
100
AcDbPolyline
 62
9
  6
CONTINUOUS
 90
15
 70
0
 10
83.5407830202
 20
319.3046496022
 10
84.0405018339
 20
318.1086961802
 10
84.6231264382
 20
316.932719939
 10
85.2878027806
 20
315.7798588104
 10
86.0323364728
 20
314.6549730517
 10
86.8541722906
 20
313.5624179076
 10
87.7506048756
 20
312.5059653317
 10
88.7184892991
 20
311.4892873395
 10
89.7542328668
 20
310.5159193456
 10
90.8482306273
 20
309.5936628391
 10
92.0132550221
 20
308.7119189199
 10
93.2637750582
 20
307.8638492021
 10
94.5972424575
 20
307.0567210438
 10
96.0165155067
 20
306.2943395334
 10
97.5190330173
 20
305.5837470228
  0
LWPOLYLINE
  5
348
100
AcDbEntity
  8
X48002257_BL7
100
AcDbPolyline
 62
7
  6
CONTINUOUS
 90
14
 70
0
 10
83.52772331
 20
319.3042799789
 10
83.9393177553
 20
318.2941676966
 10
84.5276977089
 20
317.0669595826
 10
85.202581985
 20
315.8668044311
 10
85.9619222066
 20
314.6976148277
 10
86.8034066047
 20
313.5631419398
 10
87.7244483451
 20
312.4670146722
 10
88.7221998895
 20
311.4127255856
 10
89.7935373705
 20
310.4036466607
 10
90.9350887852
 20
309.44299512
 10
92.1432677842
 20
308.5338081049
 10
93.4142514151
 20
307.678963587
 10
94.7440514332
 20
306.8811323207
 10
96.1284318331
 20
306.1428315866
  0
LINE
  5
349
100
AcDbEntity
  8
X48002257_BL7
100
AcDbLine
 62
9
  6
CONTINUOUS
 10
149.5500529672
 20
239.677462081
 11
171.5500529672
 21
239.677462081
  0
LWPOLYLINE
  5
34A
100
AcDbEntity
  8
X48002257_BL7
100
AcDbPolyline
 62
7
  6
CONTINUOUS
 90
13
 70
0
 10
115.8000529672
 20
338.5568393937
 10
115.8291225291
 20
337.9713181
 10
115.9159641078
 20
337.3901354307
 10
116.0598420388
 20
336.8163727315
 10
116.2596035199
 20
336.2534956745
 10
116.5136425846
 20
335.7049705921
 10
116.8202733329
 20
335.1735898574
 10
117.177409052
 20
334.662336685
 10
117.5830017314
 20
334.1736899885
 10
118.0347698544
 20
333.710145595
 10
118.5301979141
 20
333.2741499699
 10
119.0667404487
 20
332.8679178164
 10
119.6411014185
 20
332.4939398573
  0
LWPOLYLINE
  5
34B
100
AcDbEntity
  8
X48002257_BL7
100
AcDbPolyline
 62
9
  6
CONTINUOUS
 90
13
 70
0
 10
115.3000529672
 20
338.8690821579
 10
115.3302742369
 20
338.2464004651
 10
115.4207135027
 20
337.6293945373
 10
115.5719192681
 20
337.0158814158
 10
115.7822460231
 20
336.4124099764
 10
116.0509001358
 20
335.8238917598
 10
116.3758744761
 20
335.2530558132
 10
116.7557518393
 20
334.7032872575
 10
117.1879688163
 20
334.1775294128
 10
117.6709866103
 20
333.6786899753
 10
118.2003141801
 20
333.2102609371
 10
118.7703220558
 20
332.7772611754
 10
119.3828867275
 20
332.3780177312
  0
LINE
  5
34C
100
AcDbEntity
  8
X48002257_BL7
100
AcDbLine
 62
9
  6
CONTINUOUS
 10
115.3000529672
 20
350.1791059292
 11
115.3000529672
 21
338.8690821579
  0
LINE
  5
34D
100
AcDbEntity
  8
X48002257_BL7
100
AcDbLine
 62
7
  6
CONTINUOUS
 10
115.8000529672
 20
349.6790864143
 11
115.8000529672
 21
338.5568393937
  0
LWPOLYLINE
  5
34E
100
AcDbEntity
  8
X48002257_BL7
100
AcDbPolyline
 62
9
  6
CONTINUOUS
 90
11
 70
0
 10
115.8000529672
 20
338.5568393937
 10
115.7938971378
 20
338.6056849223
 10
115.7755812263
 20
338.6533277124
 10
115.7455562308
 20
338.6985946404
 10
115.704561466
 20
338.7403710843
 10
115.6536063585
 20
338.7776283692
 10
115.5939455926
 20
338.8094490967
 10
115.5270482154
 20
338.8350497343
 10
115.4545614624
 20
338.8537999097
 10
115.3782701983
 20
338.8652379315
 10
115.3000529672
 20
338.8690821579
  0
LWPOLYLINE
  5
34F
100
AcDbEntity
  8
X48002257_BL7
100
AcDbPolyline
 62
9
  6
CONTINUOUS
 90
5
 70
0
 10
115.8000529672
 20
349.4913486935
 10
115.7938971375
 20
349.5401942233
 10
115.7755812254
 20
349.587837014
 10
115.7455562293
 20
349.6331039421
 10
115.7045614644
 20
349.6748803855
  0
LINE
  5
350
100
AcDbEntity
  8
X48002257_BL7
100
AcDbLine
 62
9
  6
CONTINUOUS
 10
148.2255819506
 20
246.6325135596
 11
148.228125189
 21
246.6011870312
  0
LWPOLYLINE
  5
351
100
AcDbEntity
  8
X48002257_BL7
100
AcDbPolyline
 62
7
  6
CONTINUOUS
 90
23
 70
0
 10
148.228125189
 20
246.6011870312
 10
147.5945936187
 20
249.9060060157
 10
146.7829485162
 20
253.1868790953
 10
145.7946649921
 20
256.4379868904
 10
144.6315212754
 20
259.6535870926
 10
143.2956016828
 20
262.8279949557
 10
141.7893056463
 20
265.9555709235
 10
140.1153358874
 20
269.0307583117
 10
138.2766889977
 20
272.0481005135
 10
136.2766736376
 20
275.0022143108
 10
134.118819628
 20
277.8879212307
 10
131.8069359484
 20
280.7001422889
 10
129.3451291965
 20
283.4338867781
 10
126.7377522151
 20
286.0843193518
 10
123.9894567199
 20
288.6467075787
 10
121.1051538872
 20
291.1164726588
 10
118.0899321218
 20
293.4892550287
 10
114.9491191364
 20
295.7608519604
 10
111.6882788565
 20
297.9272249656
 10
108.3131731999
 20
299.9845282255
 10
104.8298005248
 20
301.9290861392
 10
101.2443311862
 20
303.7574346769
 10
97.5631648471
 20
305.4662925766
  0
LWPOLYLINE
  5
352
100
AcDbEntity
  8
X48002257_BL7
100
AcDbPolyline
 62
7
  6
CONTINUOUS
 90
5
 70
0
 10
148.228125167
 20
246.6011840853
 10
148.4690656481
 20
244.9806404209
 10
148.6821660346
 20
243.1766691108
 10
148.8464673129
 20
241.3178617635
 10
148.9621670107
 20
239.407756499
  0
LWPOLYLINE
  5
353
100
AcDbEntity
  8
X48002257_BL7
100
AcDbPolyline
 62
9
  6
CONTINUOUS
 90
5
 70
0
 10
148.2255819506
 20
246.6325135596
 10
148.4798611443
 20
244.9124480761
 10
148.6866779776
 20
243.1426983478
 10
148.8465629906
 20
241.3240386242
 10
148.9600308812
 20
239.4574047939
  0
LWPOLYLINE
  5
354
100
AcDbEntity
  8
X48002257_BL7
100
AcDbPolyline
 62
9
  6
CONTINUOUS
 90
3
 70
0
 10
148.9600308812
 20
239.4574047939
 10
149.0276523805
 20
237.5437144644
 10
149.0500529585
 20
235.5849234275
  0
LWPOLYLINE
  5
355
100
AcDbEntity
  8
X48002257_BL7
100
AcDbPolyline
 62
7
  6
CONTINUOUS
 90
3
 70
0
 10
148.9621670107
 20
239.407756499
 10
149.0297065189
 20
237.4500167588
 10
149.0500524929
 20
235.5849207715
  0
LWPOLYLINE
  5
356
100
AcDbEntity
  8
X48002257_BL7
100
AcDbPolyline
 62
9
  6
CONTINUOUS
 90
25
 70
0
 10
149.0500529672
 20
249.1281740487
 10
148.951813593
 20
252.6165738065
 10
148.657285488
 20
256.0982261588
 10
148.1670383413
 20
259.5663967345
 10
147.4820204047
 20
263.0143772703
 10
146.6035566504
 20
266.4354985845
 10
145.5333462619
 20
269.8231432964
 10
144.2734592745
 20
273.1707589151
 10
142.8263327762
 20
276.4718699899
 10
141.1947661818
 20
279.7200908898
 10
139.3819151806
 20
282.9091393012
 10
137.3912860855
 20
286.0328471969
 10
135.2267293007
 20
289.0851724969
 10
132.8924315827
 20
292.0602112984
 10
130.392908001
 20
294.9522091866
 10
127.7329932976
 20
297.7555722711
 10
124.9178320742
 20
300.4648784703
 10
121.9528690184
 20
303.0748876976
 10
118.8438394661
 20
305.5805511066
 10
115.5967573457
 20
307.9770218545
 10
112.2179032672
 20
310.2596646107
 10
108.7138128582
 20
312.4240641252
 10
105.0912638333
 20
314.4660339616
 10
101.3572630612
 20
316.3816244683
 10
97.5190330173
 20
318.1671304231
  0
LWPOLYLINE
  5
357
100
AcDbEntity
  8
X48002257_BL7
100
AcDbPolyline
 62
9
  6
CONTINUOUS
 90
25
 70
0
 10
149.5500529672
 20
249.440416813
 10
149.451288619
 20
252.9463945894
 10
149.1558564545
 20
256.4403102139
 10
148.6631651194
 20
259.9259529952
 10
147.9749886771
 20
263.3919550074
 10
147.0921761278
 20
266.8301641756
 10
146.016911307
 20
270.2347222562
 10
144.7506404608
 20
273.5992553727
 10
143.2964253571
 20
276.9171583488
 10
141.6565859013
 20
280.1817230995
 10
139.8347939258
 20
283.3868844741
 10
137.8340294474
 20
286.5263084113
 10
135.658687818
 20
289.5940935575
 10
133.3124791439
 20
292.584079505
 10
130.8004391784
 20
295.4907093544
 10
128.1269774398
 20
298.3080881048
 10
125.2976827405
 20
301.0310696526
 10
122.3175034152
 20
303.6541701955
 10
119.1927704163
 20
306.1725078277
 10
115.929334485
 20
308.5807471615
 10
112.5335845905
 20
310.8747648398
 10
109.0109720365
 20
313.0501901248
 10
105.3701605596
 20
315.1024297708
 10
101.6229411021
 20
317.0246773495
 10
97.7653833498
 20
318.8192016702
  0
LINE
  5
358
100
AcDbEntity
  8
X48002257_BL7
100
AcDbLine
 62
7
  6
CONTINUOUS
 10
149.0500529672
 20
213.0282004152
 11
149.0500529672
 21
249.1281740487
  0
LINE
  5
359
100
AcDbEntity
  8
X48002257_BL7
100
AcDbLine
 62
9
  6
CONTINUOUS
 10
149.5500529672
 20
212.5281129146
 11
149.5500529672
 21
249.440416813
  0
LWPOLYLINE
  5
35A
100
AcDbEntity
  8
X48002257_BL7
100
AcDbPolyline
 62
9
  6
CONTINUOUS
 90
11
 70
0
 10
149.0500529672
 20
249.1281740487
 10
149.0562087969
 20
249.1770195785
 10
149.0745247091
 20
249.2246623693
 10
149.1045497051
 20
249.2699292973
 10
149.14554447
 20
249.3117057407
 10
149.1964995766
 20
249.3489630247
 10
149.2561603411
 20
249.3807837514
 10
149.3230577174
 20
249.4063843888
 10
149.39554447
 20
249.4251345644
 10
149.4718357347
 20
249.4365725864
 10
149.5500529672
 20
249.440416813
  0
LWPOLYLINE
  5
35B
100
AcDbEntity
  8
X48002257_BL7
100
AcDbPolyline
 62
9
  6
CONTINUOUS
 90
23
 70
0
 10
97.5190330173
 20
305.5837470228
 10
101.2024625304
 20
303.8737522055
 10
104.7902786488
 20
302.0439478174
 10
108.2760969791
 20
300.0975899298
 10
111.6537146193
 20
298.0381420231
 10
114.917121197
 20
295.8692688258
 10
118.0605096272
 20
293.5948297495
 10
121.0782865057
 20
291.2188719554
 10
123.9650814259
 20
288.7456236785
 10
126.7157570557
 20
286.1794863953
 10
129.3254190863
 20
283.5250261661
 10
131.7894239245
 20
280.7869663357
 10
134.1033870285
 20
277.9701791147
 10
136.2631909161
 20
275.0796766842
 10
138.2649921699
 20
272.1206027153
 10
140.1052285881
 20
269.0982228673
 10
141.7806255704
 20
266.0179152978
 10
143.2882018177
 20
262.8851612654
 10
144.6252746286
 20
259.7055354176
 10
145.7894647195
 20
256.4846957884
 10
146.7787004388
 20
253.2283737756
 10
147.5912214655
 20
249.9423639233
 10
148.2255819506
 20
246.6325135596
  0
LINE
  5
35C
100
AcDbEntity
  8
X48002257_BL7
100
AcDbLine
 62
7
  6
CONTINUOUS
 10
96.1284318331
 20
306.1428315866
 11
97.5631648471
 21
305.4662925766
  0
LWPOLYLINE
  5
35D
100
AcDbEntity
  8
X48002257_BL7
100
AcDbPolyline
 62
9
  6
CONTINUOUS
 90
11
 70
0
 10
149.0500529672
 20
239.3652193168
 10
149.0562087969
 20
239.4140648466
 10
149.0745247091
 20
239.4617076373
 10
149.1045497051
 20
239.5069745654
 10
149.14554447
 20
239.5487510087
 10
149.1964995766
 20
239.5860082928
 10
149.2561603411
 20
239.6178290194
 10
149.3230577174
 20
239.6434296569
 10
149.39554447
 20
239.6621798324
 10
149.4718357347
 20
239.6736178545
 10
149.5500529672
 20
239.677462081
  0
LWPOLYLINE
  5
35E
100
AcDbEntity
  8
X48002257_BL7
100
AcDbPolyline
 62
9
  6
CONTINUOUS
 90
11
 70
0
 10
149.0500529672
 20
226.4028899007
 10
149.0562087969
 20
226.4310956632
 10
149.0745247091
 20
226.4586069063
 10
149.1045497051
 20
226.4847462117
 10
149.14554447
 20
226.5088699431
 10
149.1964995766
 20
226.5303840942
 10
149.2561603411
 20
226.5487589151
 10
149.3230577174
 20
226.5635419567
 10
149.3955444701
 20
226.5743692115
 10
149.4718357347
 20
226.5809740766
 10
149.5500529672
 20
226.5831939183
  0
LWPOLYLINE
  5
35F
100
AcDbEntity
  8
X48002257_BL7
100
AcDbPolyline
 62
9
  6
CONTINUOUS
 90
19
 70
0
 10
97.7653833498
 20
318.8192016702
 10
96.2873485337
 20
319.518149422
 10
94.8671083276
 20
320.282017194
 10
93.5017679893
 20
321.1125777841
 10
92.2000117453
 20
322.0045127984
 10
90.9685622341
 20
322.9541150371
 10
89.8104094786
 20
323.9583237171
 10
88.7296089611
 20
325.0141964919
 10
87.7296869426
 20
326.1176708522
 10
86.8146472868
 20
327.2650612856
 10
85.9871126689
 20
328.4522944538
 10
85.2503292493
 20
329.6755807762
 10
84.6064304365
 20
330.9303834669
 10
84.0582049338
 20
332.2123046368
 10
83.6069330162
 20
333.5171380147
 10
83.2545518079
 20
334.8413436711
 10
83.0018794649
 20
336.1785246923
 10
82.8505628344
 20
337.5201570766
 10
82.8000529672
 20
338.8690821579
  0
LWPOLYLINE
  5
360
100
AcDbEntity
  8
X48002257_BL7
100
AcDbPolyline
 62
9
  6
CONTINUOUS
 90
19
 70
0
 10
97.5190330173
 20
318.1671304231
 10
96.0143422563
 20
318.8788200093
 10
94.5656454062
 20
319.6581670298
 10
93.1779234221
 20
320.5024919089
 10
91.8559475709
 20
321.4088916905
 10
90.6042630255
 20
322.374250038
 10
89.4271735281
 20
323.3952477081
 10
88.3287262712
 20
324.4683741642
 10
87.3126979575
 20
325.5899396984
 10
86.38258204
 20
326.7560878693
 10
85.5415760693
 20
327.9628096104
 10
84.7925713483
 20
329.2059564143
 10
84.1381433393
 20
330.4812538607
 10
83.58054218
 20
331.7843171666
 10
83.1216851128
 20
333.1106659859
 10
82.7631498463
 20
334.4557398577
 10
82.5061690663
 20
335.8149142014
 10
82.351626322
 20
337.1835159032
 10
82.3000529672
 20
338.5568393937
  0
LWPOLYLINE
  5
361
100
AcDbEntity
  8
X48002257_BL7
100
AcDbPolyline
 62
9
  6
CONTINUOUS
 90
11
 70
0
 10
172.0500529672
 20
226.4028899007
 10
172.0438971376
 20
226.431095663
 10
172.0255812257
 20
226.458606906
 10
171.9955562297
 20
226.4847462115
 10
171.9545614647
 20
226.508869943
 10
171.9036063576
 20
226.5303840943
 10
171.8439455925
 20
226.5487589153
 10
171.7770482159
 20
226.5635419569
 10
171.7045614632
 20
226.5743692117
 10
171.6282701989
 20
226.5809740767
 10
171.5500529672
 20
226.5831939183
  0
LWPOLYLINE
  5
362
100
AcDbEntity
  8
X48002257_BL7
100
AcDbPolyline
 62
7
  6
CONTINUOUS
 90
25
 70
0
 10
172.0500529672
 20
249.1281740487
 10
171.9525226951
 20
253.1351085931
 10
171.6600643121
 20
257.1363231167
 10
171.1730914775
 20
261.1259922846
 10
170.4922982955
 20
265.0983366781
 10
169.6186644756
 20
269.0475768688
 10
168.5534292328
 20
272.9680462918
 10
167.2980908167
 20
276.8541374137
 10
165.8544643311
 20
280.7001478596
 10
164.2246346427
 20
284.5004699175
 10
162.4109533725
 20
288.2495804033
 10
160.4160523964
 20
291.942010582
 10
158.2427834545
 20
295.5724538383
 10
155.894229132
 20
299.1357168363
 10
153.3738387294
 20
302.626529558
 10
150.6853085742
 20
306.0397610294
 10
147.8325318693
 20
309.37046689
 10
144.8196719754
 20
312.613789011
 10
141.6510543958
 20
315.7650726699
 10
138.3312020737
 20
318.8198094576
 10
134.8650081513
 20
321.773490074
 10
131.2575741942
 20
324.6217770711
 10
127.5141203798
 20
327.3605639192
 10
123.6400966615
 20
329.985878126
 10
119.6411014185
 20
332.4939398573
  0
LINE
  5
363
100
AcDbEntity
  8
X48002257_BL7
100
AcDbLine
 62
9
  6
CONTINUOUS
 10
171.5500529672
 20
249.440416813
 11
171.5500529672
 21
212.5281129146
  0
LWPOLYLINE
  5
364
100
AcDbEntity
  8
X48002257_BL7
100
AcDbPolyline
 62
9
  6
CONTINUOUS
 90
11
 70
0
 10
172.0500529672
 20
239.3652193168
 10
172.0438971375
 20
239.4140648465
 10
172.0255812254
 20
239.4617076373
 10
171.9955562293
 20
239.5069745653
 10
171.9545614644
 20
239.5487510087
 10
171.9036063578
 20
239.5860082928
 10
171.8439455934
 20
239.6178290194
 10
171.7770482171
 20
239.6434296569
 10
171.7045614644
 20
239.6621798324
 10
171.6282701997
 20
239.6736178545
 10
171.5500529672
 20
239.677462081
  0
LWPOLYLINE
  5
365
100
AcDbEntity
  8
X48002257_BL7
100
AcDbPolyline
 62
9
  6
CONTINUOUS
 90
11
 70
0
 10
172.0500529672
 20
249.1281740487
 10
172.0438971375
 20
249.1770195785
 10
172.0255812254
 20
249.2246623693
 10
171.9955562293
 20
249.2699292973
 10
171.9545614644
 20
249.3117057407
 10
171.9036063578
 20
249.3489630247
 10
171.8439455934
 20
249.3807837514
 10
171.7770482171
 20
249.4063843888
 10
171.7045614644
 20
249.4251345644
 10
171.6282701998
 20
249.4365725864
 10
171.5500529672
 20
249.440416813
  0
LINE
  5
366
100
AcDbEntity
  8
X48002257_BL7
100
AcDbLine
 62
7
  6
CONTINUOUS
 10
172.0500529672
 20
249.1281740487
 11
172.0500529672
 21
213.0281360405
  0
LWPOLYLINE
  5
367
100
AcDbEntity
  8
X48002257_BL7
100
AcDbPolyline
 62
7
  6
CONTINUOUS
 90
3
 70
0
 10
83.5277138328
 20
319.3043051789
 10
83.5309446257
 20
319.303990992
 10
83.5407830202
 20
319.3046496022
  0
LWPOLYLINE
  5
368
100
AcDbEntity
  8
X48002257_BL7
100
AcDbPolyline
 62
9
  6
CONTINUOUS
 90
25
 70
0
 10
119.3828867275
 20
332.3780177312
 10
123.362876074
 20
329.881995634
 10
127.2144852379
 20
327.2722740931
 10
130.9408239788
 20
324.5465475195
 10
134.5325630177
 20
321.7117326802
 10
137.9827462069
 20
318.7726420559
 10
141.2873639119
 20
315.7332829151
 10
144.4415550961
 20
312.5976371233
 10
147.4409178182
 20
309.3705933705
 10
150.2806660076
 20
306.0567240693
 10
152.9570910145
 20
302.6609599174
 10
155.4659815114
 20
299.1880210547
 10
157.8040594603
 20
295.6431115677
 10
159.967560437
 20
292.0312174796
 10
161.9537322735
 20
288.3577131201
 10
163.7593045556
 20
284.6278053943
 10
165.382067598
 20
280.8469826002
 10
166.819291113
 20
277.0205509961
 10
168.0692664931
 20
273.154263607
 10
169.1297298463
 20
269.2538292954
 10
169.9996167378
 20
265.3246868063
 10
170.6773166647
 20
261.3717638983
 10
171.1622039394
 20
257.4023023928
 10
171.452970725
 20
253.4262972487
 10
171.5500529672
 20
249.440416813
  0
LWPOLYLINE
  5
369
100
AcDbEntity
  8
X48002257_BL7
100
AcDbPolyline
 62
9
  6
CONTINUOUS
 90
8
 70
0
 10
119.6411014185
 20
332.4939398573
 10
119.6301056105
 20
332.4993724414
 10
119.5989639543
 20
332.5051294512
 10
119.5625017597
 20
332.5000680954
 10
119.5216168469
 20
332.4843130014
 10
119.4773159381
 20
332.458252112
 10
119.4306898688
 20
332.4225271328
 10
119.3828867275
 20
332.3780177312
  0
LWPOLYLINE
  5
36A
100
AcDbEntity
  8
X48002257_BL7
100
AcDbPolyline
 62
9
  6
CONTINUOUS
 90
7
 70
0
 10
115.7045614644
 20
349.6748803855
 10
115.6536063578
 20
349.7121376695
 10
115.5939455934
 20
349.7439583962
 10
115.5270482171
 20
349.7695590336
 10
115.4545614644
 20
349.7883092091
 10
115.3782701997
 20
349.7997472312
 10
115.3000529672
 20
349.8035914578
  0
LINE
  5
36B
100
AcDbEntity
  8
X48002257_BL7
100
AcDbLine
 62
9
  6
CONTINUOUS
 10
82.8000529672
 20
349.8035914578
 11
115.3000529672
 21
349.8035914578
  0
LINE
  5
36C
100
AcDbEntity
  8
X48002257_BL7
100
AcDbLine
 62
7
  6
CONTINUOUS
 10
82.8000529672
 20
350.1791059292
 11
115.3000529672
 21
350.1791059292
  0
LWPOLYLINE
  5
36D
100
AcDbEntity
  8
X48002257_BL7
100
AcDbPolyline
 62
9
  6
CONTINUOUS
 90
4
 70
0
 10
82.3000529672
 20
114.9232212282
 10
82.3062087678
 20
114.9720666433
 10
82.3245246192
 20
115.0197093759
 10
82.3275522375
 20
115.0242739466
  0
LWPOLYLINE
  5
36E
100
AcDbEntity
  8
X48002257_BL7
100
AcDbPolyline
 62
9
  6
CONTINUOUS
 90
11
 70
0
 10
82.3000529672
 20
114.5167568767
 10
82.3062087969
 20
114.5656024066
 10
82.3245247091
 20
114.6132451973
 10
82.3545497051
 20
114.6585121253
 10
82.3955444701
 20
114.7002885687
 10
82.4464995767
 20
114.7375458528
 10
82.5061603412
 20
114.7693665794
 10
82.5730577175
 20
114.7949672169
 10
82.6455444702
 20
114.8137173924
 10
82.7218357348
 20
114.8251554145
 10
82.8000529672
 20
114.828999641
  0
LWPOLYLINE
  5
36F
100
AcDbEntity
  8
X48002257_BL7
100
AcDbPolyline
 62
9
  6
CONTINUOUS
 90
11
 70
0
 10
82.3000529672
 20
105.0711985235
 10
82.3062087969
 20
105.0101080195
 10
82.3245247091
 20
104.9505217664
 10
82.3545497051
 20
104.8939069756
 10
82.39554447
 20
104.8416576911
 10
82.4464995766
 20
104.7950604637
 10
82.5061603411
 20
104.7552626717
 10
82.5730577174
 20
104.723244269
 10
82.64554447
 20
104.6997936548
 10
82.7218357347
 20
104.6854882611
 10
82.8000529672
 20
104.6806803342
  0
LWPOLYLINE
  5
370
100
AcDbEntity
  8
X48002257_BL7
100
AcDbPolyline
 62
9
  6
CONTINUOUS
 90
11
 70
0
 10
82.3000529672
 20
113.8139959232
 10
82.3062087786
 20
113.7529055094
 10
82.3245246525
 20
113.693319302
 10
82.3545496152
 20
113.6367045131
 10
82.3955443746
 20
113.5844551934
 10
82.4464995386
 20
113.5378578931
 10
82.5061603905
 20
113.4980600434
 10
82.5730578233
 20
113.4660416263
 10
82.6455445959
 20
113.4425910226
 10
82.7218358252
 20
113.428285651
 10
82.8000529672
 20
113.4234777376
  0
LWPOLYLINE
  5
371
100
AcDbEntity
  8
X48002257_BL7
100
AcDbPolyline
 62
7
  6
CONTINUOUS
 90
19
 70
0
 10
82.3000529672
 20
105.0711985235
 10
82.3511584602
 20
103.9639933715
 10
82.5045480289
 20
102.8593325846
 10
82.7599981146
 20
101.7613585735
 10
83.1170734089
 20
100.6735674115
 10
83.5751872898
 20
99.5993077703
 10
84.1330827901
 20
98.5427833719
 10
84.7892717794
 20
97.5077288424
 10
85.5415642281
 20
96.4982557157
 10
86.3873960898
 20
95.5181992233
 10
87.323742183
 20
94.5712816212
 10
88.3471016937
 20
93.6611063718
 10
89.4537920436
 20
92.7909153451
 10
90.639643623
 20
91.9638876486
 10
91.9004430992
 20
91.1828236456
 10
93.2315486733
 20
90.4504443355
 10
94.6283020283
 20
89.7691521402
 10
96.0856800942
 20
89.1412413942
 10
97.5987057631
 20
88.5687133233
  0
LINE
  5
372
100
AcDbEntity
  8
X48002257_BL7
100
AcDbLine
 62
7
  6
CONTINUOUS
 10
82.3000529672
 20
105.0711985235
 11
82.3000529672
 21
115.0242739466
  0
LINE
  5
373
100
AcDbEntity
  8
X48002257_BL7
100
AcDbLine
 62
9
  6
CONTINUOUS
 10
82.8000529672
 20
104.6806803342
 11
82.8000529672
 21
115.0242739466
  0
LINE
  5
374
100
AcDbEntity
  8
X48002257_BL7
100
AcDbLine
 62
7
  6
CONTINUOUS
 10
171.5500529672
 20
17.1491912604
 11
149.5500529672
 21
17.1491912604
  0
LINE
  5
375
100
AcDbEntity
  8
X48002257_BL7
100
AcDbLine
 62
9
  6
CONTINUOUS
 10
149.5500529672
 20
17.844219983
 11
171.5500529672
 21
17.844219983
  0
LINE
  5
376
100
AcDbEntity
  8
X48002257_BL7
100
AcDbLine
 62
9
  6
CONTINUOUS
 10
149.5500529672
 20
25.3710182083
 11
171.5500529672
 21
25.3710182083
  0
LWPOLYLINE
  5
377
100
AcDbEntity
  8
X48002257_BL7
100
AcDbPolyline
 62
9
  6
CONTINUOUS
 90
11
 70
0
 10
115.8000529672
 20
113.8139959232
 10
115.7938971375
 20
113.7529054191
 10
115.7755812254
 20
113.6933191661
 10
115.7455562293
 20
113.6367043753
 10
115.7045614644
 20
113.5844550908
 10
115.6536063578
 20
113.5378578634
 10
115.5939455934
 20
113.4980600714
 10
115.5270482171
 20
113.4660416687
 10
115.4545614644
 20
113.4425910545
 10
115.3782701997
 20
113.4282856608
 10
115.3000529672
 20
113.4234777339
  0
LWPOLYLINE
  5
378
100
AcDbEntity
  8
X48002257_BL7
100
AcDbPolyline
 62
9
  6
CONTINUOUS
 90
11
 70
0
 10
115.8000529672
 20
105.0711985235
 10
115.7938971378
 20
105.0101080209
 10
115.7755812263
 20
104.9505217686
 10
115.7455562308
 20
104.8939069779
 10
115.704561466
 20
104.8416576928
 10
115.6536063585
 20
104.7950604642
 10
115.5939455926
 20
104.7552626713
 10
115.5270482154
 20
104.7232442684
 10
115.4545614624
 20
104.6997936543
 10
115.3782701983
 20
104.685488261
 10
115.3000529672
 20
104.6806803342
  0
LINE
  5
379
100
AcDbEntity
  8
X48002257_BL7
100
AcDbLine
 62
9
  6
CONTINUOUS
 10
119.5541246641
 20
116.0895365005
 11
119.5141035084
 21
116.0018230926
  0
LWPOLYLINE
  5
37A
100
AcDbEntity
  8
X48002257_BL7
100
AcDbPolyline
 62
9
  6
CONTINUOUS
 90
5
 70
0
 10
119.7991850579
 20
115.8127827706
 10
119.7725671257
 20
115.7561619805
 10
119.7452415965
 20
115.6993240133
 10
119.7172080542
 20
115.6422685306
 10
119.4714508815
 20
115.1490099889
  0
LWPOLYLINE
  5
37B
100
AcDbEntity
  8
X48002257_BL7
100
AcDbPolyline
 62
9
  6
CONTINUOUS
 90
4
 70
0
 10
119.5141035084
 20
116.0018230926
 10
119.472223467
 20
115.9133116152
 10
119.42848454
 20
115.8240385415
 10
119.3828867275
 20
115.7340411904
  0
LWPOLYLINE
  5
37C
100
AcDbEntity
  8
X48002257_BL7
100
AcDbPolyline
 62
9
  6
CONTINUOUS
 90
11
 70
0
 10
119.3828867275
 20
115.7340411904
 10
119.1534914948
 20
115.3131537425
 10
118.9012984764
 20
114.8877853282
 10
118.6253194673
 20
114.4621873678
 10
118.3285190822
 20
114.0375111368
 10
118.0121759868
 20
113.6168362992
 10
117.6803598226
 20
113.2027109369
 10
117.3351330891
 20
112.7993491526
 10
116.9837958781
 20
112.4110608847
 10
116.6267668099
 20
112.0392043691
 10
116.286752799
 20
111.7059658172
  0
LWPOLYLINE
  5
37D
100
AcDbEntity
  8
X48002257_BL7
100
AcDbPolyline
 62
9
  6
CONTINUOUS
 90
16
 70
0
 10
119.4714508815
 20
115.1490099889
 10
119.2299502447
 20
114.7092236239
 10
118.967445377
 20
114.2670150321
 10
118.6844698078
 20
113.8248566819
 10
118.3837102198
 20
113.3849900932
 10
118.0671893546
 20
112.9508714893
 10
117.739268234
 20
112.5252227468
 10
117.4037965483
 20
112.1139722453
 10
117.0629554938
 20
111.7174077989
 10
116.7399013755
 20
111.3563671854
 10
116.4481579736
 20
111.0466924797
 10
116.2060994062
 20
110.793749981
 10
116.0250980555
 20
110.6090631147
 10
115.89857089
 20
110.4790000576
 10
115.8242782594
 20
110.3943425085
 10
115.8000529672
 20
110.3549143144
  0
LINE
  5
37E
100
AcDbEntity
  8
X48002257_BL7
100
AcDbLine
 62
9
  6
CONTINUOUS
 10
116.286752799
 20
111.7059658172
 11
116.2000529672
 21
111.6248783344
  0
LWPOLYLINE
  5
37F
100
AcDbEntity
  8
X48002257_BL7
100
AcDbPolyline
 62
9
  6
CONTINUOUS
 90
3
 70
0
 10
116.1207157244
 20
111.5506768372
 10
115.9831452043
 20
111.4220116834
 10
115.8000529672
 20
111.2625263007
  0
LWPOLYLINE
  5
380
100
AcDbEntity
  8
X48002257_BL7
100
AcDbPolyline
 62
9
  6
CONTINUOUS
 90
13
 70
0
 10
115.8000529672
 20
105.0711985235
 10
115.8289996498
 20
104.5963858922
 10
115.9156721162
 20
104.1243221082
 10
116.0595685928
 20
103.6577401038
 10
116.2598560111
 20
103.1993410911
 10
116.5153748289
 20
102.7517789104
 10
116.8246457646
 20
102.3176446352
 10
117.1858783489
 20
101.8994516078
 10
117.5969812901
 20
101.4996208838
 10
118.0555745897
 20
101.1204672087
 10
118.5590032867
 20
100.7641856437
 10
119.1043528506
 20
100.4328388309
 10
119.6884660722
 20
100.1283450453
  0
LWPOLYLINE
  5
381
100
AcDbEntity
  8
X48002257_BL7
100
AcDbPolyline
 62
9
  6
CONTINUOUS
 90
13
 70
0
 10
115.3000529672
 20
104.6806803342
 10
115.3302742369
 20
104.1828088947
 10
115.4207135027
 20
103.6894755705
 10
115.5719192681
 20
103.1989349549
 10
115.7822460231
 20
102.7164232678
 10
116.0509001358
 20
102.2458675809
 10
116.3758744761
 20
101.7894499317
 10
116.7557518393
 20
101.3498769278
 10
117.1879688163
 20
100.9295019304
 10
117.6709866103
 20
100.5306498176
 10
118.2003141801
 20
100.1561126468
 10
118.7703220558
 20
99.8099033121
 10
119.3828867275
 20
99.4906841821
  0
LINE
  5
382
100
AcDbEntity
  8
X48002257_BL7
100
AcDbLine
 62
9
  6
CONTINUOUS
 10
115.3000529672
 20
115.0242739466
 11
115.3000529672
 21
104.6806803342
  0
LINE
  5
383
100
AcDbEntity
  8
X48002257_BL7
100
AcDbLine
 62
7
  6
CONTINUOUS
 10
115.8000529672
 20
115.0242739466
 11
115.8000529672
 21
105.0711985235
  0
LINE
  5
384
100
AcDbEntity
  8
X48002257_BL7
100
AcDbLine
 62
9
  6
CONTINUOUS
 10
119.6884660722
 20
115.5849951853
 11
119.6884660722
 21
100.1283450453
  0
LWPOLYLINE
  5
385
100
AcDbEntity
  8
X48002257_BL7
100
AcDbPolyline
 62
9
  6
CONTINUOUS
 90
11
 70
0
 10
119.6884660722
 20
100.1283450453
 10
119.6847038834
 20
100.0642118048
 10
119.6735099546
 20
99.9955722647
 10
119.6551599173
 20
99.9241165583
 10
119.6301056105
 20
99.8516041622
 10
119.5989639543
 20
99.7798205722
 10
119.5625017597
 20
99.7105333385
 10
119.5216168469
 20
99.6454485429
 10
119.4773159381
 20
99.586168789
 10
119.4306898688
 20
99.534153741
 10
119.3828867275
 20
99.4906841821
  0
LINE
  5
386
100
AcDbEntity
  8
X48002257_BL7
100
AcDbLine
 62
9
  6
CONTINUOUS
 10
171.8854209273
 20
50.173019511
 11
172.0369526117
 21
50.1742529338
  0
LWPOLYLINE
  5
387
100
AcDbEntity
  8
X48002257_BL7
100
AcDbPolyline
 62
9
  6
CONTINUOUS
 90
11
 70
0
 10
115.8000529672
 20
114.5167568767
 10
115.7938971694
 20
114.565602281
 10
115.7755813238
 20
114.6132450082
 10
115.7455563858
 20
114.6585119335
 10
115.7045616305
 20
114.700288426
 10
115.6536064241
 20
114.7375458114
 10
115.5939455074
 20
114.7693666184
 10
115.5270480327
 20
114.7949672756
 10
115.4545612454
 20
114.8137174368
 10
115.3782700423
 20
114.8251554295
 10
115.3000529672
 20
114.8289996397
  0
LWPOLYLINE
  5
388
100
AcDbEntity
  8
X48002257_BL7
100
AcDbPolyline
 62
9
  6
CONTINUOUS
 90
4
 70
0
 10
115.8000529672
 20
114.9232212282
 10
115.7938971375
 20
114.972066758
 10
115.7755812254
 20
115.0197095487
 10
115.7725537165
 20
115.0242739466
  0
LINE
  5
389
100
AcDbEntity
  8
X48002257_BL7
100
AcDbLine
 62
7
  6
CONTINUOUS
 10
101.4331190132
 20
87.1426547112
 11
97.5987057631
 21
88.5687133233
  0
LWPOLYLINE
  5
38A
100
AcDbEntity
  8
X48002257_BL7
100
AcDbPolyline
 62
9
  6
CONTINUOUS
 90
19
 70
0
 10
97.7653833498
 20
88.6495957939
 10
96.2873485337
 20
89.2084465314
 10
94.8671083276
 20
89.8192047271
 10
93.5017679893
 20
90.4832878394
 10
92.2000117453
 20
91.1964434928
 10
90.9685622341
 20
91.9557075581
 10
89.8104094786
 20
92.7586327553
 10
88.7296089611
 20
93.6028665016
 10
87.7296869426
 20
94.4851605766
 10
86.8146472868
 20
95.4025681916
 10
85.9871126689
 20
96.3518324677
 10
85.2503292493
 20
97.3299234076
 10
84.6064304365
 20
98.3332135783
 10
84.0582049338
 20
99.358186603
 10
83.6069330162
 20
100.4014793151
 10
83.2545518079
 20
101.4602613283
 10
83.0018794649
 20
102.5294179255
 10
82.8505628344
 20
103.6021336551
 10
82.8000529672
 20
104.6806803342
  0
LWPOLYLINE
  5
38B
100
AcDbEntity
  8
X48002257_BL7
100
AcDbPolyline
 62
9
  6
CONTINUOUS
 90
4
 70
0
 10
119.6628300528
 20
116.0020666087
 10
119.6422246511
 20
116.0353795499
 10
119.6161925055
 20
116.0599813788
 10
119.6000546885
 20
116.0694608835
  0
LWPOLYLINE
  5
38C
100
AcDbEntity
  8
X48002257_BL7
100
AcDbPolyline
 62
7
  6
CONTINUOUS
 90
3
 70
0
 10
119.7588532393
 20
115.8817765967
 10
119.7796812858
 20
115.8479148869
 10
119.7991850579
 20
115.8127827706
  0
LWPOLYLINE
  5
38D
100
AcDbEntity
  8
X48002257_BL7
100
AcDbPolyline
 62
9
  6
CONTINUOUS
 90
11
 70
0
 10
149.0500529672
 20
25.7615363976
 10
149.0562087969
 20
25.7004458936
 10
149.0745247091
 20
25.6408596405
 10
149.1045497051
 20
25.5842448497
 10
149.14554447
 20
25.5319955652
 10
149.1964995766
 20
25.4853983378
 10
149.2561603411
 20
25.4456005459
 10
149.3230577174
 20
25.4135821432
 10
149.39554447
 20
25.390131529
 10
149.4718357347
 20
25.3758261353
 10
149.5500529672
 20
25.3710182083
  0
LWPOLYLINE
  5
38E
100
AcDbEntity
  8
X48002257_BL7
100
AcDbPolyline
 62
9
  6
CONTINUOUS
 90
11
 70
0
 10
149.0500529672
 20
33.5676055045
 10
149.0562087969
 20
33.5065150005
 10
149.0745247091
 20
33.4469287474
 10
149.1045497051
 20
33.3903139566
 10
149.14554447
 20
33.3380646721
 10
149.1964995766
 20
33.2914674447
 10
149.2561603411
 20
33.2516696528
 10
149.3230577174
 20
33.21965125
 10
149.39554447
 20
33.1962006358
 10
149.4718357347
 20
33.1818952422
 10
149.5500529672
 20
33.1770873152
  0
LWPOLYLINE
  5
38F
100
AcDbEntity
  8
X48002257_BL7
100
AcDbPolyline
 62
9
  6
CONTINUOUS
 90
11
 70
0
 10
149.0500529672
 20
18.3105787089
 10
149.0562087969
 20
18.2376241311
 10
149.0745247091
 20
18.1664659372
 10
149.1045497051
 20
18.0988562779
 10
149.14554447
 20
18.0364599276
 10
149.1964995766
 20
17.9808132914
 10
149.2561603411
 20
17.9332865741
 10
149.3230577174
 20
17.8950500415
 10
149.3955444701
 20
17.8670452037
 10
149.4718357347
 20
17.8499616328
 10
149.5500529672
 20
17.844219983
  0
LWPOLYLINE
  5
390
100
AcDbEntity
  8
X48002257_BL7
100
AcDbPolyline
 62
7
  6
CONTINUOUS
 90
24
 70
0
 10
149.0500529672
 20
33.5676055045
 10
148.9518249855
 20
36.3458797057
 10
148.6573866008
 20
39.1184372034
 10
148.1673707025
 20
41.8800598463
 10
147.4828123462
 20
44.6253699147
 10
146.6051529325
 20
47.3490020631
 10
145.5361654596
 20
50.0457940854
 10
144.2780300236
 20
52.7105208187
 10
142.8332014392
 20
55.3381932313
 10
141.20450849
 20
57.923806741
 10
139.3950775963
 20
60.4624867737
 10
137.4083620295
 20
62.9494275742
 10
135.2481787804
 20
65.3798602858
 10
132.9186706959
 20
67.7491163927
 10
130.4242428054
 20
70.0526874176
 10
127.7695783888
 20
72.2861934489
 10
124.9597656571
 20
74.445286475
 10
122.0001398922
 20
76.5257964001
 10
118.8963840796
 20
78.5236561018
 10
115.6544250754
 20
80.4349794784
 10
112.2805095855
 20
82.256015082
 10
108.7811158237
 20
83.9832019424
 10
105.1629978533
 20
85.6131461484
 10
101.4331190132
 20
87.1426547112
  0
LWPOLYLINE
  5
391
100
AcDbEntity
  8
X48002257_BL7
100
AcDbPolyline
 62
9
  6
CONTINUOUS
 90
25
 70
0
 10
149.5500529672
 20
33.1770873152
 10
149.451288619
 20
35.9803272729
 10
149.1558564545
 20
38.7739228152
 10
148.6631651194
 20
41.560903722
 10
147.9749886771
 20
44.3321806535
 10
147.0921761278
 20
47.0812355357
 10
146.016911307
 20
49.8033843508
 10
144.7506404608
 20
52.4935308014
 10
143.2964253571
 20
55.1463936521
 10
141.6565859013
 20
57.7566093857
 10
139.8347939258
 20
60.3193285497
 10
137.8340294474
 20
62.8294866814
 10
135.658687818
 20
65.2823652938
 10
133.3124791439
 20
67.6730387708
 10
130.8004391784
 20
69.9970640372
 10
128.1269774398
 20
72.2497276857
 10
125.2976827405
 20
74.4269150969
 10
122.3175034152
 20
76.5242416415
 10
119.1927704163
 20
78.5378039421
 10
115.929334485
 20
80.4633360358
 10
112.5335845905
 20
82.2975410506
 10
109.0109720365
 20
84.0369243191
 10
105.3701605596
 20
85.6778132652
 10
101.6229411021
 20
87.2147657402
 10
97.7653833498
 20
88.6495957939
  0
LWPOLYLINE
  5
392
100
AcDbEntity
  8
X48002257_BL7
100
AcDbPolyline
 62
9
  6
CONTINUOUS
 90
6
 70
0
 10
97.5987057631
 20
88.5687133233
 10
97.6205822574
 20
88.5644690624
 10
97.6535426392
 20
88.5688044731
 10
97.6892569105
 20
88.5847450881
 10
97.7268456673
 20
88.6118983965
 10
97.7653833498
 20
88.6495957939
  0
LWPOLYLINE
  5
393
100
AcDbEntity
  8
X48002257_BL7
100
AcDbPolyline
 62
7
  6
CONTINUOUS
 90
4
 70
0
 10
119.6886286825
 20
115.974510171
 10
119.7132374772
 20
115.9451922893
 10
119.7366745124
 20
115.914240231
 10
119.7588532393
 20
115.8817765967
  0
LINE
  5
394
100
AcDbEntity
  8
X48002257_BL7
100
AcDbLine
 62
7
  6
CONTINUOUS
 10
149.0500529672
 20
17.6493056533
 11
149.0500529672
 21
33.5676055045
  0
LINE
  5
395
100
AcDbEntity
  8
X48002257_BL7
100
AcDbLine
 62
9
  6
CONTINUOUS
 10
149.5500529672
 20
17.1491912604
 11
149.5500529672
 21
33.1770873152
  0
LWPOLYLINE
  5
396
100
AcDbEntity
  8
X48002257_BL7
100
AcDbPolyline
 62
9
  6
CONTINUOUS
 90
25
 70
0
 10
119.3828867275
 20
99.4906841821
 10
123.362876074
 20
97.4949644929
 10
127.2144852379
 20
95.4083352646
 10
130.9408239788
 20
93.2289530403
 10
134.5325630177
 20
90.9623481908
 10
137.9827462069
 20
88.6123685837
 10
141.2873639119
 20
86.1822182712
 10
144.4415550961
 20
83.6750809939
 10
147.4409178182
 20
81.0948655533
 10
150.2806660076
 20
78.4452278681
 10
152.9570910145
 20
75.7301103276
 10
155.4659815114
 20
72.9532869672
 10
157.8040594603
 20
70.1189187669
 10
159.967560437
 20
67.2309923519
 10
161.9537322735
 20
64.293804822
 10
163.7593045556
 20
61.3115194105
 10
165.382067598
 20
58.2885243417
 10
166.819291113
 20
55.229062288
 10
168.0692664931
 20
52.1377331387
 10
169.1297298463
 20
49.0191014725
 10
169.9996167378
 20
45.8775158929
 10
170.6773166647
 20
42.7169164389
 10
171.1622039394
 20
39.5430933824
 10
171.452970725
 20
36.3640382934
 10
171.5500529672
 20
33.1770873152
  0
LWPOLYLINE
  5
397
100
AcDbEntity
  8
X48002257_BL7
100
AcDbPolyline
 62
9
  6
CONTINUOUS
 90
23
 70
0
 10
119.6884660722
 20
100.1283450453
 10
123.6837876009
 20
98.124914825
 10
127.5541672325
 20
96.0280147736
 10
131.2940012046
 20
93.8406809058
 10
134.8978747722
 20
91.5660801684
 10
138.3605700434
 20
89.2075058558
 10
141.6770735168
 20
86.768372855
 10
144.8425833753
 20
84.2522126766
 10
147.8525163622
 20
81.6626684039
 10
150.7025144657
 20
79.0034893922
 10
153.3884513694
 20
76.2785256988
 10
155.9064382667
 20
73.4917226369
 10
158.2528294525
 20
70.6471151184
 10
160.424227685
 20
67.7488217318
 10
162.4174890872
 20
64.8010387953
 10
164.2297276889
 20
61.8080342989
 10
165.8583196566
 20
58.7741416351
 10
167.3009070449
 20
55.7037533778
 10
168.5554011469
 20
52.6013150793
 10
169.619985611
 20
49.4713186781
 10
170.4931190742
 20
46.3182959556
 10
171.1735373617
 20
43.1468120498
 10
171.6602553266
 20
39.9614588139
  0
LINE
  5
398
100
AcDbEntity
  8
X48002257_BL7
100
AcDbLine
 62
7
  6
CONTINUOUS
 10
119.6449402129
 20
116.0195147706
 11
119.6628300528
 21
116.0020666087
  0
LINE
  5
399
100
AcDbEntity
  8
X48002257_BL7
100
AcDbLine
 62
7
  6
CONTINUOUS
 10
119.6628300528
 20
116.0020666087
 11
119.6886286825
 21
115.974510171
  0
LWPOLYLINE
  5
39A
100
AcDbEntity
  8
X48002257_BL7
100
AcDbPolyline
 62
7
  6
CONTINUOUS
 90
4
 70
0
 10
119.5541246641
 20
116.0895365021
 10
119.5723245533
 20
116.0778479624
 10
119.5905427003
 20
116.0650051549
 10
119.608758972
 20
116.0509914718
  0
LWPOLYLINE
  5
39B
100
AcDbEntity
  8
X48002257_BL7
100
AcDbPolyline
 62
9
  6
CONTINUOUS
 90
7
 70
0
 10
119.6884694875
 20
115.5849979476
 10
119.6440407243
 20
115.6205494088
 10
119.5961233939
 20
115.6523243603
 10
119.5453576112
 20
115.6798983291
 10
119.4924215425
 20
115.7029029624
 10
119.4380223465
 20
115.7210309475
 10
119.3828867275
 20
115.7340401179
  0
LWPOLYLINE
  5
39C
100
AcDbEntity
  8
X48002257_BL7
100
AcDbPolyline
 62
7
  6
CONTINUOUS
 90
3
 70
0
 10
119.608758972
 20
116.0509914718
 10
119.6269112097
 20
116.0358212349
 10
119.6449402129
 20
116.0195147706
  0
LWPOLYLINE
  5
39D
100
AcDbEntity
  8
X48002257_BL7
100
AcDbPolyline
 62
9
  6
CONTINUOUS
 90
3
 70
0
 10
169.3810260803
 20
65.9653484135
 10
169.3749920798
 20
66.0256782261
 10
169.3666412286
 20
66.0574533396
  0
LWPOLYLINE
  5
39E
100
AcDbEntity
  8
X48002257_BL7
100
AcDbPolyline
 62
9
  6
CONTINUOUS
 90
3
 70
0
 10
171.6602553266
 20
39.9614588139
 10
171.9525682711
 20
36.766848184
 10
172.0500529672
 20
33.5676055045
  0
LINE
  5
39F
100
AcDbEntity
  8
X48002257_BL7
100
AcDbLine
 62
7
  6
CONTINUOUS
 10
119.515765743
 20
116.1104599915
 11
119.5054368577
 21
116.1154299827
  0
LINE
  5
3A0
100
AcDbEntity
  8
X48002257_BL7
100
AcDbLine
 62
7
  6
CONTINUOUS
 10
123.3541367246
 20
114.1914719978
 11
119.6000546885
 21
116.0694608835
  0
LINE
  5
3A1
100
AcDbEntity
  8
X48002257_BL7
100
AcDbLine
 62
7
  6
CONTINUOUS
 10
119.5541246641
 20
116.0895365005
 11
119.515765743
 21
116.1104599915
  0
LWPOLYLINE
  5
3A2
100
AcDbEntity
  8
X48002257_BL7
100
AcDbPolyline
 62
9
  6
CONTINUOUS
 90
21
 70
0
 10
169.3810260803
 20
65.9653484135
 10
168.3466083592
 20
68.8918508462
 10
167.1458638035
 20
71.7934769083
 10
165.7803174622
 20
74.6665412852
 10
164.251703698
 20
77.5073949347
 10
162.5619639811
 20
80.31242973
 10
160.7132444362
 20
83.078083021
 10
158.7078931035
 20
85.8008421839
 10
156.5484569723
 20
88.4772490605
 10
154.2376787586
 20
91.1039043423
 10
151.7784933014
 20
93.6774720185
 10
149.1740239329
 20
96.1946834818
 10
146.4275785382
 20
98.6523416636
 10
143.5426452829
 20
101.0473251638
 10
140.5228883365
 20
103.3765920893
 10
137.3721431078
 20
105.6371840257
 10
134.0944112947
 20
107.8262298436
 10
130.6938558976
 20
109.9409492674
 10
127.1747959143
 20
111.9786564221
 10
123.5417008528
 20
113.9367632448
 10
119.7991850579
 20
115.8127827706
  0
LWPOLYLINE
  5
3A3
100
AcDbEntity
  8
X48002257_BL7
100
AcDbPolyline
 62
7
  6
CONTINUOUS
 90
20
 70
0
 10
169.3666412286
 20
66.0574533396
 10
168.3279902198
 20
68.9961179596
 10
167.1223805113
 20
71.90989348
 10
165.7512711285
 20
74.7950874394
 10
164.2164035054
 20
77.6479034585
 10
162.5197272401
 20
80.4646312477
 10
160.6634019775
 20
83.2416268859
 10
158.6497995647
 20
85.9753041428
 10
156.4815072232
 20
88.6621304069
 10
154.1613199778
 20
91.2986380408
 10
151.6922243808
 20
93.8814412077
 10
149.0774129515
 20
96.4072182291
 10
146.3202488152
 20
98.872745555
 10
143.4242947428
 20
101.2748676282
 10
140.3932682073
 20
103.6105347824
 10
137.2310762837
 20
105.8767722154
 10
133.9417691843
 20
108.0707142257
 10
130.529574165
 20
110.1895782077
 10
126.9988526903
 20
112.230692228
 10
123.3541367246
 20
114.1914719978
  0
LINE
  5
3A4
100
AcDbEntity
  8
X48002257_BL7
100
AcDbLine
 62
7
  6
CONTINUOUS
 10
169.9783059511
 20
64.0817235296
 11
169.3666378146
 21
66.0574615845
  0
LWPOLYLINE
  5
3A5
100
AcDbEntity
  8
X48002257_BL7
100
AcDbPolyline
 62
7
  6
CONTINUOUS
 90
6
 70
0
 10
172.0369526117
 20
50.1742529338
 10
172.0258328105
 20
50.4046858018
 10
172.0119681763
 20
50.5760732519
 10
171.9956812306
 20
50.6887358921
 10
171.9775502021
 20
50.7416970577
 10
171.9704155726
 20
50.7458566243
  0
LWPOLYLINE
  5
3A6
100
AcDbEntity
  8
X48002257_BL7
100
AcDbPolyline
 62
9
  6
CONTINUOUS
 90
9
 70
0
 10
172.0500529672
 20
52.1002394674
 10
172.009672633
 20
53.5023951198
 10
171.8876761919
 20
55.0027252762
 10
171.6827236409
 20
56.6007859822
 10
171.3938801277
 20
58.2927294156
 10
171.0208423313
 20
60.0738374136
 10
170.5621182217
 20
61.9461427231
 10
170.0158270594
 20
63.9107604459
 10
169.3810260803
 20
65.9653484135
  0
LWPOLYLINE
  5
3A7
100
AcDbEntity
  8
X48002257_BL7
100
AcDbPolyline
 62
7
  6
CONTINUOUS
 90
8
 70
0
 10
172.0500522644
 20
52.1002137072
 10
172.011911259
 20
53.4697908908
 10
171.8891122672
 20
55.0056311662
 10
171.6804523006
 20
56.6390978369
 10
171.3852727085
 20
58.3671011513
 10
171.0031050727
 20
60.18623663
 10
170.5340192708
 20
62.0924866478
 10
169.9783059511
 20
64.0817235296
  0
LWPOLYLINE
  5
3A8
100
AcDbEntity
  8
X48002257_BL7
100
AcDbPolyline
 62
7
  6
CONTINUOUS
 90
6
 70
0
 10
171.9581997317
 20
40.8104505883
 10
171.9775504123
 20
40.1099676264
 10
171.995681355
 20
39.4235439706
 10
172.0119682181
 20
38.7570317803
 10
172.0258328203
 20
38.1184215087
 10
172.0369526117
 20
37.505054618
  0
LWPOLYLINE
  5
3A9
100
AcDbEntity
  8
X48002257_BL7
100
AcDbPolyline
 62
7
  6
CONTINUOUS
 90
7
 70
0
 10
172.0369526117
 20
37.505054618
 10
172.0409413709
 20
37.2343893335
 10
172.0442125514
 20
36.9651193185
 10
172.0467627631
 20
36.6972424173
 10
172.0485884757
 20
36.4307692153
 10
172.0496862958
 20
36.165710308
 10
172.0500529672
 20
35.9020635694
  0
LWPOLYLINE
  5
3AA
100
AcDbEntity
  8
X48002257_BL7
100
AcDbPolyline
 62
7
  6
CONTINUOUS
 90
7
 70
0
 10
172.0500529672
 20
49.43129506
 10
172.0496862958
 20
49.5601358146
 10
172.0485884757
 20
49.6869753904
 10
172.0467627631
 20
49.81181573
 10
172.0442125514
 20
49.9346467888
 10
172.0409413709
 20
50.0554585327
 10
172.0369526117
 20
50.1742529338
  0
LINE
  5
3AB
100
AcDbEntity
  8
X48002257_BL7
100
AcDbLine
 62
9
  6
CONTINUOUS
 10
171.5500529672
 20
33.1770873152
 11
171.5500529672
 21
17.1491912604
  0
LINE
  5
3AC
100
AcDbEntity
  8
X48002257_BL7
100
AcDbLine
 62
7
  6
CONTINUOUS
 10
172.0500529672
 20
52.1002394674
 11
172.0500529672
 21
50.1742529338
  0
LINE
  5
3AD
100
AcDbEntity
  8
X48002257_BL7
100
AcDbLine
 62
7
  6
CONTINUOUS
 10
172.0500529672
 20
35.9020635694
 11
172.0500529672
 21
17.649304352
  0
LINE
  5
3AE
100
AcDbEntity
  8
X48002257_BL7
100
AcDbLine
 62
7
  6
CONTINUOUS
 10
172.0500529672
 20
48.7764828694
 11
172.0500529672
 21
49.43129506
  0
LWPOLYLINE
  5
3AF
100
AcDbEntity
  8
X48002257_BL7
100
AcDbPolyline
 62
7
  6
CONTINUOUS
 90
3
 70
0
 10
119.5054368577
 20
116.1154299827
 10
119.4500689597
 20
116.1383562253
 10
119.3877691845
 20
116.15837116
  0
LWPOLYLINE
  5
3B0
100
AcDbEntity
  8
X48002257_BL7
100
AcDbPolyline
 62
9
  6
CONTINUOUS
 90
11
 70
0
 10
172.0500529672
 20
18.3105787089
 10
172.0438971376
 20
18.2376241317
 10
172.0255812257
 20
18.166465938
 10
171.9955562297
 20
18.0988562786
 10
171.9545614647
 20
18.0364599279
 10
171.9036063576
 20
17.9808132911
 10
171.8439455925
 20
17.9332865735
 10
171.7770482159
 20
17.8950500409
 10
171.7045614632
 20
17.8670452033
 10
171.6282701989
 20
17.8499616327
 10
171.5500529672
 20
17.844219983
  0
LWPOLYLINE
  5
3B1
100
AcDbEntity
  8
X48002257_BL7
100
AcDbPolyline
 62
9
  6
CONTINUOUS
 90
11
 70
0
 10
172.0500529672
 20
33.5676055045
 10
172.0438971375
 20
33.5065150005
 10
172.0255812254
 20
33.4469287474
 10
171.9955562293
 20
33.3903139566
 10
171.9545614644
 20
33.3380646721
 10
171.9036063578
 20
33.2914674447
 10
171.8439455934
 20
33.2516696528
 10
171.7770482171
 20
33.21965125
 10
171.7045614644
 20
33.1962006358
 10
171.6282701998
 20
33.1818952422
 10
171.5500529672
 20
33.1770873152
  0
LWPOLYLINE
  5
3B2
100
AcDbEntity
  8
X48002257_BL7
100
AcDbPolyline
 62
9
  6
CONTINUOUS
 90
11
 70
0
 10
172.0500529672
 20
25.7615363976
 10
172.0438971375
 20
25.7004458936
 10
172.0255812254
 20
25.6408596405
 10
171.9955562293
 20
25.5842448497
 10
171.9545614644
 20
25.5319955652
 10
171.9036063578
 20
25.4853983378
 10
171.8439455934
 20
25.4456005459
 10
171.7770482171
 20
25.4135821431
 10
171.7045614644
 20
25.390131529
 10
171.6282701997
 20
25.3758261353
 10
171.5500529672
 20
25.3710182083
  0
LWPOLYLINE
  5
3B3
100
AcDbEntity
  8
X48002257_BL7
100
AcDbPolyline
 62
7
  6
CONTINUOUS
 90
6
 70
0
 10
119.3877691845
 20
116.15837116
 10
119.319292889
 20
116.1752402323
 10
119.2452273646
 20
116.1888455988
 10
119.1658250218
 20
116.1989028521
 10
119.0815900571
 20
116.205056177
 10
118.9923544049
 20
116.2074153868
  0
LINE
  5
3B4
100
AcDbEntity
  8
X48002257_BL7
100
AcDbLine
 62
9
  6
CONTINUOUS
 10
82.8000529672
 20
113.4234777339
 11
115.3000529672
 21
113.4234777339
  0
LINE
  5
3B5
100
AcDbEntity
  8
X48002257_BL7
100
AcDbLine
 62
9
  6
CONTINUOUS
 10
82.8000529672
 20
114.828999641
 11
115.3000529672
 21
114.828999641
  0
LINE
  5
3B6
100
AcDbEntity
  8
X48002257_BL7
100
AcDbLine
 62
7
  6
CONTINUOUS
 10
116.2000529672
 20
116.2074153946
 11
118.9923544049
 21
116.2074153868
  0
LWPOLYLINE
  5
3B7
100
AcDbEntity
  8
X48002257_BL7
100
AcDbPolyline
 62
7
  6
CONTINUOUS
 90
21
 70
0
 10
171.9704155726
 20
50.7458566243
 10
171.9581995429
 20
50.7338965189
 10
171.9381936972
 20
50.6659266115
 10
171.9181222793
 20
50.5373639322
 10
171.898632412
 20
50.3502116944
 10
171.8804121128
 20
50.1058413853
 10
171.8639389702
 20
49.805736624
 10
171.8496846788
 20
49.4503340903
 10
171.8380988469
 20
49.0441459612
 10
171.8296121623
 20
48.591233467
 10
171.8244129181
 20
48.0933785939
 10
171.8226721099
 20
47.5515255402
 10
171.8244129498
 20
46.9722337316
 10
171.8296122321
 20
46.3616912305
 10
171.8380989494
 20
45.7219390616
 10
171.8496847908
 20
45.0545202466
 10
171.8639390961
 20
44.3671016891
 10
171.8804122943
 20
43.6669957736
 10
171.8986326307
 20
42.9568015449
 10
171.9181224543
 20
42.2390921438
 10
171.9581997317
 20
40.8104505883
  0
ARC
  5
3B8
100
AcDbEntity
  8
X48002257_BL7
100
AcDbCircle
 62
7
  6
CONTINUOUS
 10
425.1533766757
 20
194.5429111666
 40
100.0
100
AcDbArc
 50
20.7573176336
 51
38.6444365725
  0
ARC
  5
3B9
100
AcDbEntity
  8
X48002257_BL7
100
AcDbCircle
 62
9
  6
CONTINUOUS
 10
456.6403758699
 20
207.1538625042
 40
67.1778595933
100
AcDbArc
 50
23.7344524095
 51
26.6660234274
  0
ARC
  5
3BA
100
AcDbEntity
  8
X48002257_BL7
100
AcDbCircle
 62
9
  6
CONTINUOUS
 10
468.7925723178
 20
212.0232212354
 40
55.5
100
AcDbArc
 50
24.5490814532
 51
25.1198312183
  0
ARC
  5
3BB
100
AcDbEntity
  8
X48002257_BL7
100
AcDbCircle
 62
7
  6
CONTINUOUS
 10
468.7925723178
 20
212.0232212354
 40
55.0
100
AcDbArc
 50
24.5490814532
 51
38.6444365725
  0
ARC
  5
3BC
100
AcDbEntity
  8
X48002257_BL7
100
AcDbCircle
 62
9
  6
CONTINUOUS
 10
469.2457083976
 20
212.3048989419
 40
54.970180589
100
AcDbArc
 50
25.0545045479
 51
38.6438124723
  0
ARC
  5
3BD
100
AcDbEntity
  8
X48002257_BL7
100
AcDbCircle
 62
7
  6
CONTINUOUS
 10
486.3433083653
 20
221.5370921251
 40
35.0365427752
100
AcDbArc
 50
27.5709631699
 51
27.742378236
  0
ARC
  5
3BE
100
AcDbEntity
  8
X48002257_BL7
100
AcDbCircle
 62
7
  6
CONTINUOUS
 10
486.9018490815
 20
221.8302118516
 40
34.4057602684
100
AcDbArc
 50
27.7433331562
 51
28.4370812273
  0
ARC
  5
3BF
100
AcDbEntity
  8
X48002257_BL7
100
AcDbCircle
 62
9
  6
CONTINUOUS
 10
435.1961133069
 20
334.348004094
 40
24.0
100
AcDbArc
 50
359.962249119
 51
36.3051834983
  0
ARC
  5
3C0
100
AcDbEntity
  8
X48002257_BL7
100
AcDbCircle
 62
7
  6
CONTINUOUS
 10
435.1961133069
 20
334.348004094
 40
23.5
100
AcDbArc
 50
320.5549060196
 51
36.3051834983
  0
ARC
  5
3C1
100
AcDbEntity
  8
X48002257_BL7
100
AcDbCircle
 62
7
  6
CONTINUOUS
 10
455.3465082994
 20
349.1791059292
 40
1.0
100
AcDbArc
 50
38.6444365725
 51
128.6444365725
  0
ARC
  5
3C2
100
AcDbEntity
  8
X48002257_BL7
100
AcDbCircle
 62
7
  6
CONTINUOUS
 10
454.9400439479
 20
348.8541132498
 40
1.0
100
AcDbArc
 50
128.6444365725
 51
216.3051834983
  0
ARC
  5
3C3
100
AcDbEntity
  8
X48002257_BL7
100
AcDbCircle
 62
9
  6
CONTINUOUS
 10
454.9400439479
 20
348.8541132498
 40
0.5
100
AcDbArc
 50
128.6444365725
 51
216.3051834983
  0
ARC
  5
3C4
100
AcDbEntity
  8
X48002257_BL7
100
AcDbCircle
 62
9
  6
CONTINUOUS
 10
455.3465082994
 20
349.1791059292
 40
0.5
100
AcDbArc
 50
38.6444365725
 51
128.6444365725
  0
ARC
  5
3C5
100
AcDbEntity
  8
X48002257_BL7
100
AcDbCircle
 62
7
  6
CONTINUOUS
 10
505.4230050515
 20
208.6889117844
 40
49.6225274725
100
AcDbArc
 50
21.1375422371
 51
38.6444365725
  0
ARC
  5
3C6
100
AcDbEntity
  8
X48002257_BL7
100
AcDbCircle
 62
9
  6
CONTINUOUS
 10
505.4230050515
 20
208.6889117844
 40
49.1225274725
100
AcDbArc
 50
21.1375422371
 51
38.6444365725
  0
ARC
  5
3C7
100
AcDbEntity
  8
X48002257_BL7
100
AcDbCircle
 62
9
  6
CONTINUOUS
 10
524.8798547427
 20
241.2336454523
 40
11.0869402978
100
AcDbArc
 50
169.0661341923
 51
182.1324540708
  0
ARC
  5
3C8
100
AcDbEntity
  8
X48002257_BL7
100
AcDbCircle
 62
7
  6
CONTINUOUS
 10
524.8018850569
 20
241.1280458922
 40
10.0
100
AcDbArc
 50
174.5920210611
 51
205.055825615
  0
ARC
  5
3C9
100
AcDbEntity
  8
X48002257_BL7
100
AcDbCircle
 62
9
  6
CONTINUOUS
 10
526.2455735919
 20
242.3698448116
 40
9.9768113863
100
AcDbArc
 50
207.5613608704
 51
207.7753600756
  0
ARC
  5
3CA
100
AcDbEntity
  8
X48002257_BL7
100
AcDbCircle
 62
7
  6
CONTINUOUS
 10
542.0718311515
 20
222.8581129146
 40
10.33
100
AcDbArc
 50
236.151330908
 51
21.1375422371
  0
ARC
  5
3CB
100
AcDbEntity
  8
X48002257_BL7
100
AcDbCircle
 62
9
  6
CONTINUOUS
 10
542.0718311515
 20
222.8581129146
 40
9.83
100
AcDbArc
 50
236.151330908
 51
21.1375422371
  0
ARC
  5
3CC
100
AcDbEntity
  8
X48002257_BL7
100
AcDbCircle
 62
9
  6
CONTINUOUS
 10
547.389524107
 20
242.2552820898
 40
29.7802080148
100
AcDbArc
 50
212.5375174502
 51
218.6417596986
  0
ARC
  5
3CD
100
AcDbEntity
  8
X48002257_BL7
100
AcDbCircle
 62
9
  6
CONTINUOUS
 10
547.290652288
 20
242.1484855712
 40
29.6363015854
100
AcDbArc
 50
218.5998561163
 51
225.5657817638
  0
ARC
  5
3CE
100
AcDbEntity
  8
X48002257_BL7
100
AcDbCircle
 62
7
  6
CONTINUOUS
 10
544.1276650437
 20
239.6356137769
 40
27.2329875519
100
AcDbArc
 50
200.7573176336
 51
263.0140773423
  0
ARC
  5
3CF
100
AcDbEntity
  8
X48002257_BL7
100
AcDbCircle
 62
7
  6
CONTINUOUS
 10
563.9578193566
 20
255.4910140339
 40
49.6225274725
100
AcDbArc
 50
204.5490814532
 51
236.151330908
  0
ARC
  5
3D0
100
AcDbEntity
  8
X48002257_BL7
100
AcDbCircle
 62
9
  6
CONTINUOUS
 10
563.9578193566
 20
255.4910140339
 40
49.1225274725
100
AcDbArc
 50
204.5490814532
 51
236.151330908
  0
ARC
  5
3D1
100
AcDbEntity
  8
X48002257_BL7
100
AcDbCircle
 62
7
  6
CONTINUOUS
 10
82.8000529672
 20
349.6791059292
 40
0.5
100
AcDbArc
 50
90.0
 51
180.0
  0
ARC
  5
3D2
100
AcDbEntity
  8
X48002257_BL7
100
AcDbCircle
 62
7
  6
CONTINUOUS
 10
149.5500529672
 20
213.0281129146
 40
0.5
100
AcDbArc
 50
180.0
 51
270.0
  0
ARC
  5
3D3
100
AcDbEntity
  8
X48002257_BL7
100
AcDbCircle
 62
7
  6
CONTINUOUS
 10
115.3000529672
 20
349.6791059292
 40
0.5
100
AcDbArc
 50
0.0
 51
90.0
  0
ARC
  5
3D4
100
AcDbEntity
  8
X48002257_BL7
100
AcDbCircle
 62
7
  6
CONTINUOUS
 10
171.5500529672
 20
213.0281129146
 40
0.5
100
AcDbArc
 50
270.0
 51
360.0
  0
ARC
  5
3D5
100
AcDbEntity
  8
X48002257_BL7
100
AcDbCircle
 62
7
  6
CONTINUOUS
 10
149.5500529672
 20
17.6491912604
 40
0.5
100
AcDbArc
 50
180.0
 51
270.0
  0
ARC
  5
3D6
100
AcDbEntity
  8
X48002257_BL7
100
AcDbCircle
 62
7
  6
CONTINUOUS
 10
171.5500529672
 20
17.6491912604
 40
0.5
100
AcDbArc
 50
270.0
 51
360.0
  0
SPLINE
  5
3D7
100
AcDbEntity
  8
X48002257_BL7
100
AcDbSpline
 62
2
  6
CONTINUOUS
 70
0
 71
3
 72
15
 73
11
 74
0
 42
0.0000001
 43
0.0000001
 44
0.0000000001
 40
0.0
 40
0.0
 40
0.0
 40
0.0
 40
0.125
 40
0.25
 40
0.375
 40
0.5
 40
0.625
 40
0.75
 40
0.875
 40
1.0
 40
1.0
 40
1.0
 40
1.0
 10
522.8577110689
 20
222.6290071516
 30
0.0
 10
522.7351802508
 20
222.7822549404
 30
0.0
 10
522.4933141807
 20
223.0916329687
 30
0.0
 10
522.1534878809
 20
223.5461213995
 30
0.0
 10
521.8483544742
 20
223.9719991437
 30
0.0
 10
521.5891013389
 20
224.3481358965
 30
0.0
 10
521.3799365216
 20
224.6618871539
 30
0.0
 10
521.2275095199
 20
224.8967150794
 30
0.0
 10
521.1344748737
 20
225.0427166788
 30
0.0
 10
521.1137074784
 20
225.0756217377
 30
0.0
 10
521.1137074784
 20
225.0756217377
 30
0.0
  0
SPLINE
  5
3D8
100
AcDbEntity
  8
X48002257_BL7
100
AcDbSpline
 62
2
  6
CONTINUOUS
 70
0
 71
3
 72
15
 73
11
 74
0
 42
0.0000001
 43
0.0000001
 44
0.0000000001
 40
0.0
 40
0.0
 40
0.0
 40
0.0
 40
0.125
 40
0.25
 40
0.375
 40
0.5
 40
0.625
 40
0.75
 40
0.875
 40
1.0
 40
1.0
 40
1.0
 40
1.0
 10
524.8606206497
 20
220.3894034663
 30
0.0
 10
524.8606206497
 20
220.3894034663
 30
0.0
 10
524.8352619264
 20
220.4147320465
 30
0.0
 10
524.7080724475
 20
220.5428242204
 30
0.0
 10
524.4953371684
 20
220.7610702027
 30
0.0
 10
524.2229544734
 20
221.0479245823
 30
0.0
 10
523.9021120654
 20
221.3970427409
 30
0.0
 10
523.5607277524
 20
221.7825773605
 30
0.0
 10
523.2074242007
 20
222.1976784022
 30
0.0
 10
522.9727247149
 20
222.4851609974
 30
0.0
 10
522.8577110689
 20
222.6290071516
 30
0.0
  0
SPLINE
  5
3D9
100
AcDbEntity
  8
X48002257_BL7
100
AcDbSpline
 62
2
  6
CONTINUOUS
 70
0
 71
3
 72
12
 73
8
 74
0
 42
0.0000001
 43
0.0000001
 44
0.0000000001
 40
0.0
 40
0.0
 40
0.0
 40
0.0
 40
0.0668257454
 40
0.3001193091
 40
0.5334128727
 40
0.7667064364
 40
1.0
 40
1.0
 40
1.0
 40
1.0
 10
524.128360053
 20
221.1514899042
 30
0.0
 10
524.1578995763
 20
221.119524849
 30
0.0
 10
524.2880805925
 20
220.9793346768
 30
0.0
 10
524.4957257378
 20
220.7606656555
 30
0.0
 10
524.7084336571
 20
220.5424579084
 30
0.0
 10
524.8353580137
 20
220.4146363661
 30
0.0
 10
524.8606206497
 20
220.3894034663
 30
0.0
 10
524.8606206497
 20
220.3894034663
 30
0.0
  0
SPLINE
  5
3DA
100
AcDbEntity
  8
X48002257_BL7
100
AcDbSpline
 62
2
  6
CONTINUOUS
 70
0
 71
3
 72
12
 73
8
 74
0
 42
0.0000001
 43
0.0000001
 44
0.0000000001
 40
0.0
 40
0.0
 40
0.0
 40
0.0
 40
0.2208368902
 40
0.4416737805
 40
0.6625106707
 40
0.8833475609
 40
1.0
 40
1.0
 40
1.0
 40
1.0
 10
521.1137074784
 20
225.0756217377
 30
0.0
 10
521.1137074784
 20
225.0756217377
 30
0.0
 10
521.1344790624
 20
225.0427101744
 30
0.0
 10
521.2275018567
 20
224.8967268368
 30
0.0
 10
521.379942463
 20
224.6618784695
 30
0.0
 10
521.5561858324
 20
224.3975090135
 30
0.0
 10
521.6822483569
 20
224.2133756374
 30
0.0
 10
521.728048176
 20
224.1471388474
 30
0.0
  0
SPLINE
  5
3DB
100
AcDbEntity
  8
X48002257_BL7
100
AcDbSpline
 62
7
  6
CONTINUOUS
 70
0
 71
3
 72
16
 73
12
 74
0
 42
0.0000001
 43
0.0000001
 44
0.0000000001
 40
0.0
 40
0.0
 40
0.0
 40
0.0
 40
0.010855458
 40
0.0280469065
 40
0.0533712654
 40
0.0871544958
 40
0.1795556046
 40
0.302653182
 40
0.4521524443
 40
0.6225823019
 40
1.0
 40
1.0
 40
1.0
 40
1.0
 10
521.4810619666
 20
224.7291686841
 30
0.0
 10
521.488239068
 20
224.7349072081
 30
0.0
 10
521.5144900919
 20
224.7376130778
 30
0.0
 10
521.5565444896
 20
224.7212092125
 30
0.0
 10
521.6131180111
 20
224.6894934976
 30
0.0
 10
521.7176623659
 20
224.6150618181
 30
0.0
 10
521.8782118184
 20
224.4776269716
 30
0.0
 10
522.1013026548
 20
224.2638128726
 30
0.0
 10
522.3617322599
 20
223.9938229084
 30
0.0
 10
522.7585369824
 20
223.5567138741
 30
0.0
 10
523.0564940566
 20
223.2009953539
 30
0.0
 10
523.2560401178
 20
222.9514904007
 30
0.0
  0
SPLINE
  5
3DC
100
AcDbEntity
  8
X48002257_BL7
100
AcDbSpline
 62
7
  6
CONTINUOUS
 70
0
 71
3
 72
16
 73
12
 74
0
 42
0.0000001
 43
0.0000001
 44
0.0000000001
 40
0.0
 40
0.0
 40
0.0
 40
0.0
 40
0.377190217
 40
0.5476286835
 40
0.6971828132
 40
0.8203547148
 40
0.91282079
 40
0.9466245239
 40
0.9719612046
 40
0.9891542288
 40
1.0
 40
1.0
 40
1.0
 40
1.0
 10
523.2560401178
 20
222.9514904007
 30
0.0
 10
523.4559460083
 20
222.7015160373
 30
0.0
 10
523.7380714284
 20
222.3319168278
 30
0.0
 10
524.0780852088
 20
221.8477081233
 30
0.0
 10
524.2847999108
 20
221.5334354221
 30
0.0
 10
524.4448191001
 20
221.2680088553
 30
0.0
 10
524.5439133125
 20
221.0806003543
 30
0.0
 10
524.593715072
 20
220.9618931974
 30
0.0
 10
524.6122908917
 20
220.8995550096
 30
0.0
 10
524.61909422
 20
220.8548197548
 30
0.0
 10
524.6106841857
 20
220.8297392876
 30
0.0
 10
524.6034958839
 20
220.8239918082
 30
0.0
  0
SPLINE
  5
3DD
100
AcDbEntity
  8
X48002257_BL7
100
AcDbSpline
 62
9
  6
CONTINUOUS
 70
0
 71
3
 72
11
 73
7
 74
0
 42
0.0000001
 43
0.0000001
 44
0.0000000001
 40
0.0
 40
0.0
 40
0.0
 40
0.0
 40
0.2658261818
 40
0.5226200254
 40
0.766188707
 40
1.0
 40
1.0
 40
1.0
 40
1.0
 10
480.782621726
 20
318.1671304231
 30
0.0
 10
480.8331833161
 20
318.2075574534
 30
0.0
 10
480.9199336299
 20
318.3046814124
 30
0.0
 10
480.9902502977
 20
318.4818969024
 30
0.0
 10
480.9890584209
 20
318.665622991
 30
0.0
 10
480.9369848017
 20
318.7747294866
 30
0.0
 10
480.901426618
 20
318.8192016702
 30
0.0
  0
SPLINE
  5
3DE
100
AcDbEntity
  8
X48002257_BL7
100
AcDbSpline
 62
9
  6
CONTINUOUS
 70
0
 71
3
 72
13
 73
9
 74
0
 42
0.0000001
 43
0.0000001
 44
0.0000000001
 40
0.0
 40
0.0
 40
0.0
 40
0.0
 40
0.3744999109
 40
0.6929155916
 40
0.8160456231
 40
0.9089540965
 40
0.9693091143
 40
1.0
 40
1.0
 40
1.0
 40
1.0
 10
512.1797930932
 20
246.6325135596
 30
0.0
 10
512.1299564417
 20
246.5926661613
 30
0.0
 10
512.0360835045
 20
246.5211172075
 30
0.0
 10
511.9207838421
 20
246.442755586
 30
0.0
 10
511.8425853474
 20
246.396733559
 30
0.0
 10
511.7993190677
 20
246.3762030119
 30
0.0
 10
511.771422754
 20
246.3655030927
 30
0.0
 10
511.7528386985
 20
246.3658411098
 30
0.0
 10
511.7495731385
 20
246.3699253056
 30
0.0
  0
SPLINE
  5
3DF
100
AcDbEntity
  8
X48002257_BL7
100
AcDbSpline
 62
9
  6
CONTINUOUS
 70
0
 71
3
 72
11
 73
7
 74
0
 42
0.0000001
 43
0.0000001
 44
0.0000000001
 40
0.0
 40
0.0
 40
0.0
 40
0.0
 40
0.2658261818
 40
0.5226200254
 40
0.766188707
 40
1.0
 40
1.0
 40
1.0
 40
1.0
 10
465.044738698
 20
305.5837470228
 30
0.0
 10
464.9941771079
 20
305.5433199925
 30
0.0
 10
464.8803453176
 20
305.4800665035
 30
0.0
 10
464.6920008811
 20
305.4504668938
 30
0.0
 10
464.5130398378
 20
305.492055849
 30
0.0
 10
464.4180653952
 20
305.5668605578
 30
0.0
 10
464.3825072115
 20
305.6113327414
 30
0.0
  0
SPLINE
  5
3E0
100
AcDbEntity
  8
X48002257_BL7
100
AcDbSpline
 62
7
  6
CONTINUOUS
 70
0
 71
3
 72
9
 73
5
 74
0
 42
0.0000001
 43
0.0000001
 44
0.0000000001
 40
0.0
 40
0.0
 40
0.0
 40
0.0
 40
0.412070134
 40
1.0
 40
1.0
 40
1.0
 40
1.0
 10
453.3557808384
 20
319.4023239494
 30
0.0
 10
453.361327493
 20
319.3953868167
 30
0.0
 10
453.3796193879
 20
319.3828662707
 30
0.0
 10
453.3993535536
 20
319.3743809226
 30
0.0
 10
453.4112323937
 20
319.3699666248
 30
0.0
  0
SPLINE
  5
3E1
100
AcDbEntity
  8
X48002257_BL7
100
AcDbSpline
 62
7
  6
CONTINUOUS
 70
0
 71
3
 72
9
 73
5
 74
0
 42
0.0000001
 43
0.0000001
 44
0.0000000001
 40
0.0
 40
0.0
 40
0.0
 40
0.0
 40
0.2186852316
 40
1.0
 40
1.0
 40
1.0
 40
1.0
 10
453.4112323937
 20
319.3699666248
 30
0.0
 10
453.4182184769
 20
319.3673705252
 30
0.0
 10
453.4505475519
 20
319.3565324292
 30
0.0
 10
453.4838211505
 20
319.3487592379
 30
0.0
 10
453.5099200651
 20
319.3434802946
 30
0.0
  0
SPLINE
  5
3E2
100
AcDbEntity
  8
X48002257_BL7
100
AcDbSpline
 62
7
  6
CONTINUOUS
 70
0
 71
3
 72
9
 73
5
 74
0
 42
0.0000001
 43
0.0000001
 44
0.0000000001
 40
0.0
 40
0.0
 40
0.0
 40
0.0
 40
0.4769018776
 40
1.0
 40
1.0
 40
1.0
 40
1.0
 10
453.5099200651
 20
319.3434802946
 30
0.0
 10
453.5981397875
 20
319.3256363759
 30
0.0
 10
453.7865562523
 20
319.3062798023
 30
0.0
 10
453.9753547109
 20
319.3023308096
 30
0.0
 10
454.0740523962
 20
319.3046496022
 30
0.0
  0
SPLINE
  5
3E3
100
AcDbEntity
  8
X48002257_BL7
100
AcDbSpline
 62
9
  6
CONTINUOUS
 70
0
 71
3
 72
9
 73
5
 74
0
 42
0.0000001
 43
0.0000001
 44
0.0000000001
 40
0.0
 40
0.0
 40
0.0
 40
0.0
 40
0.5016293674
 40
1.0
 40
1.0
 40
1.0
 40
1.0
 10
516.6730430069
 20
237.3025562953
 30
0.0
 10
516.3813828487
 20
237.865182315
 30
0.0
 10
515.9016472557
 20
239.0425979223
 30
0.0
 10
515.6476812299
 20
240.2886576841
 30
0.0
 10
515.580622247
 20
240.9146894099
 30
0.0
  0
SPLINE
  5
3E4
100
AcDbEntity
  8
X48002257_BL7
100
AcDbSpline
 62
9
  6
CONTINUOUS
 70
0
 71
3
 72
9
 73
5
 74
0
 42
0.0000001
 43
0.0000001
 44
0.0000000001
 40
0.0
 40
0.0
 40
0.0
 40
0.0
 40
0.5054989962
 40
1.0
 40
1.0
 40
1.0
 40
1.0
 10
534.6571646969
 20
214.9713120454
 30
0.0
 10
534.9552360918
 20
214.9085522489
 30
0.0
 10
535.5353242531
 20
214.7313182623
 30
0.0
 10
536.0705327261
 20
214.4449033558
 30
0.0
 10
536.3180082547
 20
214.2789282833
 30
0.0
  0
SPLINE
  5
3E5
100
AcDbEntity
  8
X48002257_BL7
100
AcDbSpline
 62
9
  6
CONTINUOUS
 70
0
 71
3
 72
11
 73
7
 74
0
 42
0.0000001
 43
0.0000001
 44
0.0000000001
 40
0.0
 40
0.0
 40
0.0
 40
0.0
 40
0.2323017873
 40
0.4722577685
 40
0.726492282
 40
1.0
 40
1.0
 40
1.0
 40
1.0
 10
518.6623707441
 20
229.9839574528
 30
0.0
 10
518.8084748692
 20
229.5984714732
 30
0.0
 10
519.1911573354
 20
228.8445865559
 30
0.0
 10
520.0040334317
 20
227.8334767154
 30
0.0
 10
521.0463265508
 20
226.9454802693
 30
0.0
 10
521.8520175522
 20
226.4600239507
 30
0.0
 10
522.2835844441
 20
226.2379127223
 30
0.0
  0
SPLINE
  5
3E6
100
AcDbEntity
  8
X48002257_BL7
100
AcDbSpline
 62
9
  6
CONTINUOUS
 70
0
 71
3
 72
14
 73
10
 74
0
 42
0.0000001
 43
0.0000001
 44
0.0000000001
 40
0.0
 40
0.0
 40
0.0
 40
0.0
 40
0.0574507576
 40
0.126330744
 40
0.2136166736
 40
0.3227427928
 40
0.4553599541
 40
0.6122919789
 40
1.0
 40
1.0
 40
1.0
 40
1.0
 10
518.1663812034
 20
231.2659418925
 30
0.0
 10
518.1762587851
 20
231.2409237389
 30
0.0
 10
518.2129978748
 20
231.1915031172
 30
0.0
 10
518.300723909
 20
231.1403727719
 30
0.0
 10
518.4202603832
 20
231.1043581368
 30
0.0
 10
518.5731142131
 20
231.0824020251
 30
0.0
 10
518.7597852253
 20
231.0741772395
 30
0.0
 10
519.0769312824
 20
231.0824467903
 30
0.0
 10
519.330889581
 20
231.1094697104
 30
0.0
 10
519.5108556327
 20
231.1331583894
 30
0.0
  0
SPLINE
  5
3E7
100
AcDbEntity
  8
X48002257_BL7
100
AcDbSpline
 62
9
  6
CONTINUOUS
 70
0
 71
3
 72
14
 73
10
 74
0
 42
0.0000001
 43
0.0000001
 44
0.0000000001
 40
0.0
 40
0.0
 40
0.0
 40
0.0
 40
0.0228692937
 40
0.0722452654
 40
0.1513416024
 40
0.2606955047
 40
0.4003769934
 40
0.5703214303
 40
1.0
 40
1.0
 40
1.0
 40
1.0
 10
517.0825702291
 20
233.9005451245
 30
0.0
 10
517.0858762567
 20
233.8928232349
 30
0.0
 10
517.1182253397
 20
233.8873262322
 30
0.0
 10
517.1692926002
 20
233.8941614488
 30
0.0
 10
517.2572085975
 20
233.9113419562
 30
0.0
 10
517.3727989408
 20
233.9422227251
 30
0.0
 10
517.5207442906
 20
233.9858686077
 30
0.0
 10
517.7792465042
 20
234.0685213337
 30
0.0
 10
517.9875612712
 20
234.1403208134
 30
0.0
 10
518.136412304
 20
234.1927664307
 30
0.0
  0
SPLINE
  5
3E8
100
AcDbEntity
  8
X48002257_BL7
100
AcDbSpline
 62
9
  6
CONTINUOUS
 70
0
 71
3
 72
14
 73
10
 74
0
 42
0.0000001
 43
0.0000001
 44
0.0000000001
 40
0.0
 40
0.0
 40
0.0
 40
0.0
 40
0.4308590892
 40
0.7402960208
 40
0.8490872833
 40
0.9273913447
 40
0.9553445804
 40
0.9761618091
 40
1.0
 40
1.0
 40
1.0
 40
1.0
 10
516.6730423365
 20
237.3025559659
 30
0.0
 10
516.5432011001
 20
237.2323417327
 30
0.0
 10
516.3190157383
 20
237.1136795223
 30
0.0
 10
516.0581803275
 20
236.9848068647
 30
0.0
 10
515.9011253689
 20
236.9188313937
 30
0.0
 10
515.831945071
 20
236.894150137
 30
0.0
 10
515.7888057655
 20
236.8846645212
 30
0.0
 10
515.7652771348
 20
236.8816375507
 30
0.0
 10
515.7463908609
 20
236.8856394215
 30
0.0
 10
515.7429288611
 20
236.8930361765
 30
0.0
  0
SPLINE
  5
3E9
100
AcDbEntity
  8
X48002257_BL7
100
AcDbSpline
 62
9
  6
CONTINUOUS
 70
0
 71
3
 72
11
 73
7
 74
0
 42
0.0000001
 43
0.0000001
 44
0.0000000001
 40
0.0
 40
0.0
 40
0.0
 40
0.0
 40
0.2486921465
 40
0.4980632362
 40
0.7497250078
 40
1.0
 40
1.0
 40
1.0
 40
1.0
 10
529.4195859425
 20
219.8608940911
 30
0.0
 10
529.8463592357
 20
219.4471593168
 30
0.0
 10
530.6935200863
 20
218.6107346984
 30
0.0
 10
531.9586941441
 20
217.3419670465
 30
0.0
 10
533.2520067746
 20
216.0950743607
 30
0.0
 10
534.1805359949
 20
215.3327653549
 30
0.0
 10
534.6571643221
 20
214.9713112206
 30
0.0
  0
SPLINE
  5
3EA
100
AcDbEntity
  8
X48002257_BL7
100
AcDbSpline
 62
9
  6
CONTINUOUS
 70
0
 71
3
 72
11
 73
7
 74
0
 42
0.0000001
 43
0.0000001
 44
0.0000000001
 40
0.0
 40
0.0
 40
0.0
 40
0.0
 40
0.2369202711
 40
0.4873284505
 40
0.742533779
 40
1.0
 40
1.0
 40
1.0
 40
1.0
 10
534.6571643221
 20
214.9713112206
 30
0.0
 10
535.0765714098
 20
214.6532390667
 30
0.0
 10
535.9985044499
 20
214.0761063901
 30
0.0
 10
537.5027562544
 20
213.3893781644
 30
0.0
 10
539.1245873343
 20
212.881079943
 30
0.0
 10
540.2479913919
 20
212.6743179407
 30
0.0
 10
540.8157698959
 20
212.6047519665
 30
0.0
  0
SPLINE
  5
3EB
100
AcDbEntity
  8
X48002257_BL7
100
AcDbSpline
 62
9
  6
CONTINUOUS
 70
0
 71
3
 72
11
 73
7
 74
0
 42
0.0000001
 43
0.0000001
 44
0.0000000001
 40
0.0
 40
0.0
 40
0.0
 40
0.0
 40
0.3160285577
 40
0.5803331582
 40
0.8025312849
 40
1.0
 40
1.0
 40
1.0
 40
1.0
 10
519.510713447
 20
231.1334309845
 30
0.0
 10
519.6057099762
 20
231.294953372
 30
0.0
 10
519.7645552031
 20
231.6016184082
 30
0.0
 10
519.9113830377
 20
232.0574253509
 30
0.0
 10
519.9406299227
 20
232.4673690029
 30
0.0
 10
519.8716158257
 20
232.7134900336
 30
0.0
 10
519.8181165038
 20
232.8176405795
 30
0.0
  0
SPLINE
  5
3EC
100
AcDbEntity
  8
X48002257_BL7
100
AcDbSpline
 62
9
  6
CONTINUOUS
 70
0
 71
3
 72
9
 73
5
 74
0
 42
0.0000001
 43
0.0000001
 44
0.0000000001
 40
0.0
 40
0.0
 40
0.0
 40
0.0
 40
0.5018739843
 40
1.0
 40
1.0
 40
1.0
 40
1.0
 10
522.2836342306
 20
226.2379451414
 30
0.0
 10
521.7775429611
 20
227.0319032007
 30
0.0
 10
520.8114947337
 20
228.6412008939
 30
0.0
 10
519.9280740461
 20
230.2972989937
 30
0.0
 10
519.510713447
 20
231.1334309845
 30
0.0
  0
SPLINE
  5
3ED
100
AcDbEntity
  8
X48002257_BL7
100
AcDbSpline
 62
9
  6
CONTINUOUS
 70
0
 71
3
 72
34
 73
30
 74
0
 42
0.0000001
 43
0.0000001
 44
0.0000000001
 40
0.0
 40
0.0
 40
0.0
 40
0.0
 40
0.0737418777
 40
0.112845705
 40
0.1528398897
 40
0.192857234
 40
0.212442791
 40
0.2313764208
 40
0.2492580805
 40
0.2654692947
 40
0.2727339502
 40
0.27930979
 40
0.2852395341
 40
0.2908167764
 40
0.2968511266
 40
0.3045152351
 40
0.3148588526
 40
0.328384783
 40
0.344984706
 40
0.364121625
 40
0.4072467954
 40
0.453822155
 40
0.50201723
 40
0.5510125005
 40
0.6004569125
 40
0.6999832038
 40
0.7998519213
 40
0.8998817082
 40
1.0
 40
1.0
 40
1.0
 40
1.0
 10
529.4197397401
 20
219.8607450762
 30
0.0
 10
529.5402492937
 20
219.7439307017
 30
0.0
 10
529.7123066607
 20
219.552215911
 30
0.0
 10
529.9250215023
 20
219.2769222116
 30
0.0
 10
530.0803725637
 20
219.0546051789
 30
0.0
 10
530.2007264428
 20
218.8623488284
 30
0.0
 10
530.2877710791
 20
218.7061859867
 30
0.0
 10
530.3452460921
 20
218.5913313096
 30
0.0
 10
530.3926281154
 20
218.4802626901
 30
0.0
 10
530.4211315416
 20
218.3901905216
 30
0.0
 10
530.4325027554
 20
218.3225909303
 30
0.0
 10
530.4334666615
 20
218.2773964489
 30
0.0
 10
530.4254940344
 20
218.2365016086
 30
0.0
 10
530.4041984373
 20
218.2013455659
 30
0.0
 10
530.3657922281
 20
218.177215063
 30
0.0
 10
530.3107433949
 20
218.1685835874
 30
0.0
 10
530.2389096624
 20
218.1757937445
 30
0.0
 10
530.1496562873
 20
218.1995545781
 30
0.0
 10
530.0447461019
 20
218.2394730378
 30
0.0
 10
529.881908044
 20
218.3152093985
 30
0.0
 10
529.6653122731
 20
218.4359366536
 30
0.0
 10
529.3994848791
 20
218.6028902365
 30
0.0
 10
529.1289508984
 20
218.7870525782
 30
0.0
 10
528.858359857
 20
218.9824537699
 30
0.0
 10
528.4994033628
 20
219.2548298659
 30
0.0
 10
528.0585619338
 20
219.61056356
 30
0.0
 10
527.5407651098
 20
220.0537485787
 30
0.0
 10
527.0347801448
 20
220.5123885576
 30
0.0
 10
526.7054168366
 20
220.8271536426
 30
0.0
 10
526.5425764681
 20
220.9865451726
 30
0.0
  0
SPLINE
  5
3EE
100
AcDbEntity
  8
X48002257_BL7
100
AcDbSpline
 62
9
  6
CONTINUOUS
 70
0
 71
3
 72
13
 73
9
 74
0
 42
0.0000001
 43
0.0000001
 44
0.0000000001
 40
0.0
 40
0.0
 40
0.0
 40
0.0
 40
0.4062477185
 40
0.5687796688
 40
0.7042947748
 40
0.8132632905
 40
0.8967767245
 40
1.0
 40
1.0
 40
1.0
 40
1.0
 10
518.1363788856
 20
234.1928353774
 30
0.0
 10
518.2466837339
 20
234.2695017991
 30
0.0
 10
518.3992672929
 20
234.379612664
 30
0.0
 10
518.5796227588
 20
234.5273388049
 30
0.0
 10
518.6789871775
 20
234.6176675279
 30
0.0
 10
518.7536255418
 20
234.698094494
 30
0.0
 10
518.8103665321
 20
234.7739548735
 30
0.0
 10
518.8350666939
 20
234.8431670668
 30
0.0
 10
518.8208857881
 20
234.8742139208
 30
0.0
  0
SPLINE
  5
3EF
100
AcDbEntity
  8
X48002257_BL7
100
AcDbSpline
 62
9
  6
CONTINUOUS
 70
0
 71
3
 72
9
 73
5
 74
0
 42
0.0000001
 43
0.0000001
 44
0.0000000001
 40
0.0
 40
0.0
 40
0.0
 40
0.0
 40
0.2497276642
 40
1.0
 40
1.0
 40
1.0
 40
1.0
 10
519.5107220456
 20
231.1334456305
 30
0.0
 10
519.3948837809
 20
231.3874686807
 30
0.0
 10
518.9325946045
 20
232.4053841539
 30
0.0
 10
518.4760562889
 20
233.4259085659
 30
0.0
 10
518.1363788856
 20
234.1928353774
 30
0.0
  0
SPLINE
  5
3F0
100
AcDbEntity
  8
X48002257_BL7
100
AcDbSpline
 62
9
  6
CONTINUOUS
 70
0
 71
3
 72
9
 73
5
 74
0
 42
0.0000001
 43
0.0000001
 44
0.0000000001
 40
0.0
 40
0.0
 40
0.0
 40
0.0
 40
0.4927459401
 40
1.0
 40
1.0
 40
1.0
 40
1.0
 10
517.4182845699
 20
237.7205936419
 30
0.0
 10
517.4176327137
 20
237.7211302177
 30
0.0
 10
517.4162467062
 20
237.7221443912
 30
0.0
 10
517.4147600586
 20
237.7230031799
 30
0.0
 10
517.413986954
 20
237.7234003369
 30
0.0
  0
SPLINE
  5
3F1
100
AcDbEntity
  8
X48002257_BL7
100
AcDbSpline
 62
9
  6
CONTINUOUS
 70
0
 71
3
 72
9
 73
5
 74
0
 42
0.0000001
 43
0.0000001
 44
0.0000000001
 40
0.0
 40
0.0
 40
0.0
 40
0.0
 40
0.3597240882
 40
1.0
 40
1.0
 40
1.0
 40
1.0
 10
517.413986954
 20
237.7234003369
 30
0.0
 10
517.4016868481
 20
237.7297191108
 30
0.0
 10
517.3598500616
 20
237.724293911
 30
0.0
 10
517.3252516154
 20
237.7105901325
 30
0.0
 10
517.3026977506
 20
237.7007351492
 30
0.0
  0
SPLINE
  5
3F2
100
AcDbEntity
  8
X48002257_BL7
100
AcDbSpline
 62
9
  6
CONTINUOUS
 70
0
 71
3
 72
10
 73
6
 74
0
 42
0.0000001
 43
0.0000001
 44
0.0000000001
 40
0.0
 40
0.0
 40
0.0
 40
0.0
 40
0.1622586604
 40
0.3829265317
 40
1.0
 40
1.0
 40
1.0
 40
1.0
 10
517.3026977506
 20
237.7007351492
 30
0.0
 10
517.2657340627
 20
237.6845837476
 30
0.0
 10
517.1814093943
 20
237.6399964835
 30
0.0
 10
516.9690768985
 20
237.5106737909
 30
0.0
 10
516.7979316348
 20
237.3916443694
 30
0.0
 10
516.6730423819
 20
237.3025568538
 30
0.0
  0
SPLINE
  5
3F3
100
AcDbEntity
  8
X48002257_BL7
100
AcDbSpline
 62
9
  6
CONTINUOUS
 70
0
 71
3
 72
11
 73
7
 74
0
 42
0.0000001
 43
0.0000001
 44
0.0000000001
 40
0.0
 40
0.0
 40
0.0
 40
0.0
 40
0.2506560873
 40
0.5005740628
 40
0.7501239228
 40
1.0
 40
1.0
 40
1.0
 40
1.0
 10
459.1961080974
 20
334.3321910431
 30
0.0
 10
459.2062332316
 20
332.9817576458
 30
0.0
 10
459.0012010408
 20
330.2777123197
 30
0.0
 10
458.0216526987
 20
326.3377064605
 30
0.0
 10
456.396387098
 20
322.621683382
 30
0.0
 10
454.9077808906
 20
320.3616910562
 30
0.0
 10
454.0740523962
 20
319.3046496022
 30
0.0
  0
SPLINE
  5
3F4
100
AcDbEntity
  8
X48002257_BL7
100
AcDbSpline
 62
7
  6
CONTINUOUS
 70
0
 71
3
 72
15
 73
11
 74
0
 42
0.0000001
 43
0.0000001
 44
0.0000000001
 40
0.0
 40
0.0
 40
0.0
 40
0.0
 40
0.3925294223
 40
0.5626161819
 40
0.7089378333
 40
0.8276484529
 40
0.9159040293
 40
0.9481122037
 40
0.9724064821
 40
1.0
 40
1.0
 40
1.0
 40
1.0
 10
522.4979100671
 20
223.0890910866
 30
0.0
 10
522.3427415406
 20
223.291894506
 30
0.0
 10
522.1244515322
 20
223.5857891311
 30
0.0
 10
521.861469901
 20
223.9647598595
 30
0.0
 10
521.706566173
 20
224.2015943822
 30
0.0
 10
521.5886055831
 20
224.3993328245
 30
0.0
 10
521.5167917068
 20
224.5366621177
 30
0.0
 10
521.4822623208
 20
224.62583598
 30
0.0
 10
521.4682086507
 20
224.6758956639
 30
0.0
 10
521.467041852
 20
224.7179587599
 30
0.0
 10
521.4810619666
 20
224.7291686841
 30
0.0
  0
SPLINE
  5
3F5
100
AcDbEntity
  8
X48002257_BL7
100
AcDbSpline
 62
7
  6
CONTINUOUS
 70
0
 71
3
 72
15
 73
11
 74
0
 42
0.0000001
 43
0.0000001
 44
0.0000000001
 40
0.0
 40
0.0
 40
0.0
 40
0.0
 40
0.027570752
 40
0.05185953
 40
0.084075238
 40
0.1723371934
 40
0.2910743663
 40
0.4374377092
 40
0.6075240789
 40
1.0
 40
1.0
 40
1.0
 40
1.0
 10
524.6034958839
 20
220.8239918082
 30
0.0
 10
524.5894621686
 20
220.8127710093
 30
0.0
 10
524.5486342382
 20
220.8232422138
 30
0.0
 10
524.5028420368
 20
220.8480179687
 30
0.0
 10
524.4233441054
 20
220.9014918861
 30
0.0
 10
524.3050063223
 20
221.0020165113
 30
0.0
 10
524.1377901123
 20
221.160976136
 30
0.0
 10
523.940499794
 20
221.3646281539
 30
0.0
 10
523.6280552609
 20
221.7050907783
 30
0.0
 10
523.3890293575
 20
221.9832057843
 30
0.0
 10
523.2250456259
 20
222.1795027781
 30
0.0
  0
ENDBLK
  5
3F6
100
AcDbEntity
  8
0
  6
BYBLOCK
 62
0
100
AcDbBlockEnd
  0
BLOCK
  5
3F7
100
AcDbEntity
  8
X48002007_BL8
100
AcDbBlockBegin
  2
X48002007_BL8
 70
64
 10
455.9509037096
 20
332.4465620645
  3
X48002007_BL8
  1

  0
LINE
  5
3F8
100
AcDbEntity
  8
X48002007_BL8
100
AcDbLine
 62
7
  6
CONTINUOUS
 10
458.5381009568
 20
337.0011337605
 11
457.9267169205
 21
336.3841703037
  0
LINE
  5
3F9
100
AcDbEntity
  8
X48002007_BL8
100
AcDbLine
 62
7
  6
CONTINUOUS
 10
456.4902655783
 20
334.9346100715
 11
456.4385493277
 21
334.8824218643
  0
LINE
  5
3FA
100
AcDbEntity
  8
X48002007_BL8
100
AcDbLine
 62
7
  6
CONTINUOUS
 10
458.5371922783
 20
337.0107221225
 11
457.919747198
 21
336.4926241834
  0
LINE
  5
3FB
100
AcDbEntity
  8
X48002007_BL8
100
AcDbLine
 62
7
  6
CONTINUOUS
 10
456.4895727669
 20
335.2925653457
 11
456.4335655851
 21
335.2455697402
  0
LINE
  5
3FC
100
AcDbEntity
  8
X48002007_BL8
100
AcDbLine
 62
7
  6
CONTINUOUS
 10
453.3637064624
 20
324.0581330993
 11
453.4036899237
 21
324.0378873074
  0
LINE
  5
3FD
100
AcDbEntity
  8
X48002007_BL8
100
AcDbLine
 62
7
  6
CONTINUOUS
 10
454.7464272368
 20
323.3579866864
 11
455.2367710829
 21
323.1096990412
  0
LINE
  5
3FE
100
AcDbEntity
  8
X48002007_BL8
100
AcDbLine
 62
7
  6
CONTINUOUS
 10
455.144331773
 20
341.7834250877
 11
455.2254443651
 21
341.7170136267
  0
LINE
  5
3FF
100
AcDbEntity
  8
X48002007_BL8
100
AcDbLine
 62
7
  6
CONTINUOUS
 10
457.3305088468
 20
339.9934784244
 11
458.1527477625
 21
339.3202649774
  0
ARC
  5
400
100
AcDbEntity
  8
X48002007_BL8
100
AcDbCircle
 62
7
  6
CONTINUOUS
 10
436.5003455747
 20
334.7106506861
 40
22.5
100
AcDbArc
 50
329.5331413631
 51
331.7407439252
  0
ARC
  5
401
100
AcDbEntity
  8
X48002007_BL8
100
AcDbCircle
 62
7
  6
CONTINUOUS
 10
455.4626425463
 20
323.555773118
 40
0.5
100
AcDbArc
 50
243.1444365725
 51
329.5331413631
  0
ENDBLK
  5
402
100
AcDbEntity
  8
0
  6
BYBLOCK
 62
0
100
AcDbBlockEnd
  0
BLOCK
  5
403
100
AcDbEntity
  8
C9535200X_BL9
100
AcDbBlockBegin
  2
C9535200X_BL9
 70
64
 10
456.0075077918
 20
316.0368925699
  3
C9535200X_BL9
  1

  0
LINE
  5
404
100
AcDbEntity
  8
C9535200X_BL9
100
AcDbLine
 62
2
  6
CONTINUOUS
 10
454.3447077051
 20
317.3648262006
 11
454.7352258943
 21
317.6770689648
  0
LINE
  5
405
100
AcDbEntity
  8
C9535200X_BL9
100
AcDbLine
 62
7
  6
CONTINUOUS
 10
454.1731889187
 20
318.3800017055
 11
454.0949134936
 21
317.677240752
  0
LINE
  5
406
100
AcDbEntity
  8
C9535200X_BL9
100
AcDbLine
 62
2
  6
CONTINUOUS
 10
456.967546925
 20
314.0844734106
 11
457.3580651143
 21
314.3967161749
  0
LINE
  5
407
100
AcDbEntity
  8
C9535200X_BL9
100
AcDbLine
 62
7
  6
CONTINUOUS
 10
454.0949134936
 20
317.677240752
 11
457.2173411364
 21
313.7720588592
  0
LINE
  5
408
100
AcDbEntity
  8
C9535200X_BL9
100
AcDbLine
 62
7
  6
CONTINUOUS
 10
457.92010209
 20
313.6937834342
 11
457.2173411364
 21
313.7720588592
  0
ENDBLK
  5
409
100
AcDbEntity
  8
0
  6
BYBLOCK
 62
0
100
AcDbBlockEnd
  0
BLOCK
  5
40A
100
AcDbEntity
  8
C9535200X_BL10
100
AcDbBlockBegin
  2
C9535200X_BL10
 70
64
 10
461.1907376788
 20
309.5542906278
  3
C9535200X_BL10
  1

  0
LINE
  5
40B
100
AcDbEntity
  8
C9535200X_BL10
100
AcDbLine
 62
2
  6
CONTINUOUS
 10
459.527937592
 20
310.8822242585
 11
459.9184557813
 21
311.1944670228
  0
LINE
  5
40C
100
AcDbEntity
  8
C9535200X_BL10
100
AcDbLine
 62
7
  6
CONTINUOUS
 10
459.3564188056
 20
311.8973997635
 11
459.2781433806
 21
311.19463881
  0
LINE
  5
40D
100
AcDbEntity
  8
C9535200X_BL10
100
AcDbLine
 62
2
  6
CONTINUOUS
 10
462.1507768119
 20
307.6018714686
 11
462.5412950012
 21
307.9141142329
  0
LINE
  5
40E
100
AcDbEntity
  8
C9535200X_BL10
100
AcDbLine
 62
7
  6
CONTINUOUS
 10
459.2781433806
 20
311.19463881
 11
462.4005710234
 21
307.2894569172
  0
LINE
  5
40F
100
AcDbEntity
  8
C9535200X_BL10
100
AcDbLine
 62
7
  6
CONTINUOUS
 10
463.1033319769
 20
307.2111814922
 11
462.4005710234
 21
307.2894569172
  0
ENDBLK
  5
410
100
AcDbEntity
  8
0
  6
BYBLOCK
 62
0
100
AcDbBlockEnd
  0
BLOCK
  5
411
100
AcDbEntity
  8
X48002258_BL11
100
AcDbBlockBegin
  2
X48002258_BL11
 70
64
 10
411.5271428548
 20
183.6641485948
  3
X48002258_BL11
  1

  0
LINE
  5
412
100
AcDbEntity
  8
X48002258_BL11
100
AcDbLine
 62
2
  6
CONTINUOUS
 10
524.8606206497
 20
220.3894034663
 11
524.8605420924
 21
220.3894819467
  0
LINE
  5
413
100
AcDbEntity
  8
X48002258_BL11
100
AcDbLine
 62
7
  6
CONTINUOUS
 10
293.8474832807
 20
212.5281129146
 11
271.8474832807
 21
212.5281129146
  0
LINE
  5
414
100
AcDbEntity
  8
X48002258_BL11
100
AcDbLine
 62
9
  6
CONTINUOUS
 10
293.8474832807
 20
226.5831939183
 11
271.8474832807
 21
226.5831939183
  0
LINE
  5
415
100
AcDbEntity
  8
X48002258_BL11
100
AcDbLine
 62
9
  6
CONTINUOUS
 10
293.8474832807
 20
239.677462081
 11
271.8474832807
 21
239.677462081
  0
LWPOLYLINE
  5
416
100
AcDbEntity
  8
X48002258_BL11
100
AcDbPolyline
 62
9
  6
CONTINUOUS
 90
7
 70
0
 10
327.6929747835
 20
349.6748803855
 10
327.7439298901
 20
349.7121376695
 10
327.8035906546
 20
349.7439583962
 10
327.8704880309
 20
349.7695590336
 10
327.9429747835
 20
349.7883092091
 10
328.0192660482
 20
349.7997472312
 10
328.0974832807
 20
349.8035914578
  0
LWPOLYLINE
  5
417
100
AcDbEntity
  8
X48002258_BL11
100
AcDbPolyline
 62
9
  6
CONTINUOUS
 90
8
 70
0
 10
323.7564348294
 20
332.4939398573
 10
323.7674306374
 20
332.4993724414
 10
323.7985722936
 20
332.5051294512
 10
323.8350344882
 20
332.5000680954
 10
323.875919401
 20
332.4843130014
 10
323.9202203098
 20
332.458252112
 10
323.9668463791
 20
332.4225271328
 10
324.0146495204
 20
332.3780177312
  0
LINE
  5
418
100
AcDbEntity
  8
X48002258_BL11
100
AcDbLine
 62
7
  6
CONTINUOUS
 10
271.3474832807
 20
249.1281740487
 11
271.3474832807
 21
213.0281360405
  0
LINE
  5
419
100
AcDbEntity
  8
X48002258_BL11
100
AcDbLine
 62
9
  6
CONTINUOUS
 10
271.8474832807
 20
249.440416813
 11
271.8474832807
 21
212.5281129146
  0
LWPOLYLINE
  5
41A
100
AcDbEntity
  8
X48002258_BL11
100
AcDbPolyline
 62
7
  6
CONTINUOUS
 90
25
 70
0
 10
271.3474832807
 20
249.1281740487
 10
271.4450135528
 20
253.1351085931
 10
271.7374719358
 20
257.1363231167
 10
272.2244447705
 20
261.1259922846
 10
272.9052379524
 20
265.0983366781
 10
273.7788717723
 20
269.0475768688
 10
274.8441070152
 20
272.9680462918
 10
276.0994454312
 20
276.8541374137
 10
277.5430719168
 20
280.7001478596
 10
279.1729016052
 20
284.5004699175
 10
280.9865828754
 20
288.2495804033
 10
282.9814838515
 20
291.942010582
 10
285.1547527935
 20
295.5724538383
 10
287.5033071159
 20
299.1357168363
 10
290.0236975185
 20
302.626529558
 10
292.7122276737
 20
306.0397610294
 10
295.5650043786
 20
309.37046689
 10
298.5778642725
 20
312.613789011
 10
301.7464818521
 20
315.7650726699
 10
305.0663341742
 20
318.8198094576
 10
308.5325280966
 20
321.773490074
 10
312.1399620537
 20
324.6217770711
 10
315.8834158681
 20
327.3605639192
 10
319.7574395865
 20
329.985878126
 10
323.7564348294
 20
332.4939398573
  0
LWPOLYLINE
  5
41B
100
AcDbEntity
  8
X48002258_BL11
100
AcDbPolyline
 62
9
  6
CONTINUOUS
 90
11
 70
0
 10
271.3474832807
 20
249.1281740487
 10
271.3536391104
 20
249.1770195785
 10
271.3719550225
 20
249.2246623693
 10
271.4019800186
 20
249.2699292973
 10
271.4429747835
 20
249.3117057407
 10
271.4939298901
 20
249.3489630247
 10
271.5535906545
 20
249.3807837514
 10
271.6204880308
 20
249.4063843888
 10
271.6929747835
 20
249.4251345644
 10
271.7692660482
 20
249.4365725864
 10
271.8474832807
 20
249.440416813
  0
LWPOLYLINE
  5
41C
100
AcDbEntity
  8
X48002258_BL11
100
AcDbPolyline
 62
9
  6
CONTINUOUS
 90
11
 70
0
 10
271.3474832807
 20
239.3652193168
 10
271.3536391104
 20
239.4140648465
 10
271.3719550225
 20
239.4617076373
 10
271.4019800186
 20
239.5069745653
 10
271.4429747835
 20
239.5487510087
 10
271.4939298901
 20
239.5860082928
 10
271.5535906545
 20
239.6178290194
 10
271.6204880308
 20
239.6434296569
 10
271.6929747835
 20
239.6621798324
 10
271.7692660482
 20
239.6736178545
 10
271.8474832807
 20
239.677462081
  0
LWPOLYLINE
  5
41D
100
AcDbEntity
  8
X48002258_BL11
100
AcDbPolyline
 62
9
  6
CONTINUOUS
 90
25
 70
0
 10
324.0146495204
 20
332.3780177312
 10
320.0346601739
 20
329.881995634
 10
316.1830510101
 20
327.2722740931
 10
312.4567122691
 20
324.5465475195
 10
308.8649732302
 20
321.7117326802
 10
305.414790041
 20
318.7726420559
 10
302.1101723361
 20
315.7332829151
 10
298.9559811518
 20
312.5976371233
 10
295.9566184298
 20
309.3705933705
 10
293.1168702403
 20
306.0567240693
 10
290.4404452334
 20
302.6609599174
 10
287.9315547365
 20
299.1880210547
 10
285.5934767876
 20
295.6431115677
 10
283.4299758109
 20
292.0312174796
 10
281.4438039744
 20
288.3577131201
 10
279.6382316923
 20
284.6278053943
 10
278.0154686499
 20
280.8469826002
 10
276.5782451349
 20
277.0205509961
 10
275.3282697549
 20
273.154263607
 10
274.2678064016
 20
269.2538292954
 10
273.3979195101
 20
265.3246868063
 10
272.7202195833
 20
261.3717638983
 10
272.2353323086
 20
257.4023023928
 10
271.9445655229
 20
253.4262972487
 10
271.8474832807
 20
249.440416813
  0
LWPOLYLINE
  5
41E
100
AcDbEntity
  8
X48002258_BL11
100
AcDbPolyline
 62
9
  6
CONTINUOUS
 90
11
 70
0
 10
271.3474832807
 20
226.4028899007
 10
271.3536391103
 20
226.431095663
 10
271.3719550222
 20
226.458606906
 10
271.4019800182
 20
226.4847462115
 10
271.4429747832
 20
226.508869943
 10
271.4939298903
 20
226.5303840943
 10
271.5535906554
 20
226.5487589153
 10
271.620488032
 20
226.5635419569
 10
271.6929747847
 20
226.5743692117
 10
271.769266049
 20
226.5809740767
 10
271.8474832807
 20
226.5831939183
  0
LWPOLYLINE
  5
41F
100
AcDbEntity
  8
X48002258_BL11
100
AcDbPolyline
 62
9
  6
CONTINUOUS
 90
19
 70
0
 10
345.6321528982
 20
318.8192016702
 10
347.1101877142
 20
319.518149422
 10
348.5304279203
 20
320.282017194
 10
349.8957682587
 20
321.1125777841
 10
351.1975245026
 20
322.0045127984
 10
352.4289740138
 20
322.9541150371
 10
353.5871267693
 20
323.9583237171
 10
354.6679272868
 20
325.0141964919
 10
355.6678493053
 20
326.1176708522
 10
356.5828889611
 20
327.2650612856
 10
357.410423579
 20
328.4522944538
 10
358.1472069986
 20
329.6755807762
 10
358.7911058114
 20
330.9303834669
 10
359.3393313142
 20
332.2123046368
 10
359.7906032317
 20
333.5171380147
 10
360.14298444
 20
334.8413436711
 10
360.395656783
 20
336.1785246923
 10
360.5469734136
 20
337.5201570766
 10
360.5974832807
 20
338.8690821579
  0
LWPOLYLINE
  5
420
100
AcDbEntity
  8
X48002258_BL11
100
AcDbPolyline
 62
9
  6
CONTINUOUS
 90
11
 70
0
 10
294.3474832807
 20
226.4028899007
 10
294.341327451
 20
226.4310956632
 10
294.3230115388
 20
226.4586069063
 10
294.2929865428
 20
226.4847462117
 10
294.2519917779
 20
226.5088699431
 10
294.2010366713
 20
226.5303840942
 10
294.1413759068
 20
226.5487589151
 10
294.0744785305
 20
226.5635419567
 10
294.0019917778
 20
226.5743692115
 10
293.9257005132
 20
226.5809740766
 10
293.8474832807
 20
226.5831939183
  0
LINE
  5
421
100
AcDbEntity
  8
X48002258_BL11
100
AcDbLine
 62
9
  6
CONTINUOUS
 10
293.8474832807
 20
212.5281129146
 11
293.8474832807
 21
249.440416813
  0
LINE
  5
422
100
AcDbEntity
  8
X48002258_BL11
100
AcDbLine
 62
7
  6
CONTINUOUS
 10
294.3474832807
 20
213.0282004152
 11
294.3474832807
 21
249.1281740487
  0
LINE
  5
423
100
AcDbEntity
  8
X48002258_BL11
100
AcDbLine
 62
7
  6
CONTINUOUS
 10
294.34748374
 20
235.5836853659
 11
294.367829729
 21
237.4500167588
  0
LWPOLYLINE
  5
424
100
AcDbEntity
  8
X48002258_BL11
100
AcDbPolyline
 62
9
  6
CONTINUOUS
 90
25
 70
0
 10
293.8474832807
 20
249.440416813
 10
293.9462476289
 20
252.9463945894
 10
294.2416797934
 20
256.4403102139
 10
294.7343711285
 20
259.9259529952
 10
295.4225475708
 20
263.3919550074
 10
296.3053601201
 20
266.8301641756
 10
297.380624941
 20
270.2347222562
 10
298.6468957871
 20
273.5992553727
 10
300.1011108909
 20
276.9171583488
 10
301.7409503466
 20
280.1817230995
 10
303.5627423221
 20
283.3868844741
 10
305.5635068005
 20
286.5263084113
 10
307.7388484299
 20
289.5940935575
 10
310.0850571041
 20
292.584079505
 10
312.5970970695
 20
295.4907093544
 10
315.2705588081
 20
298.3080881048
 10
318.0998535074
 20
301.0310696526
 10
321.0800328327
 20
303.6541701955
 10
324.2047658316
 20
306.1725078277
 10
327.4682017629
 20
308.5807471615
 10
330.8639516575
 20
310.8747648398
 10
334.3865642114
 20
313.0501901248
 10
338.0273756883
 20
315.1024297708
 10
341.7745951459
 20
317.0246773495
 10
345.6321528982
 20
318.8192016702
  0
LWPOLYLINE
  5
425
100
AcDbEntity
  8
X48002258_BL11
100
AcDbPolyline
 62
9
  6
CONTINUOUS
 90
19
 70
0
 10
345.8785032307
 20
318.1671304231
 10
347.3831939916
 20
318.8788200093
 10
348.8318908417
 20
319.6581670298
 10
350.2196128258
 20
320.5024919089
 10
351.541588677
 20
321.4088916905
 10
352.7932732224
 20
322.374250038
 10
353.9703627198
 20
323.3952477081
 10
355.0688099767
 20
324.4683741642
 10
356.0848382904
 20
325.5899396984
 10
357.0149542079
 20
326.7560878693
 10
357.8559601786
 20
327.9628096104
 10
358.6049648996
 20
329.2059564143
 10
359.2593929086
 20
330.4812538607
 10
359.8169940679
 20
331.7843171666
 10
360.2758511352
 20
333.1106659859
 10
360.6343864016
 20
334.4557398577
 10
360.8913671816
 20
335.8149142014
 10
361.0459099259
 20
337.1835159032
 10
361.0974832807
 20
338.5568393937
  0
LWPOLYLINE
  5
426
100
AcDbEntity
  8
X48002258_BL11
100
AcDbPolyline
 62
9
  6
CONTINUOUS
 90
11
 70
0
 10
294.3474832807
 20
239.3652193168
 10
294.341327451
 20
239.4140648466
 10
294.3230115388
 20
239.4617076373
 10
294.2929865428
 20
239.5069745654
 10
294.2519917779
 20
239.5487510087
 10
294.2010366713
 20
239.5860082928
 10
294.1413759068
 20
239.6178290194
 10
294.0744785306
 20
239.6434296569
 10
294.0019917779
 20
239.6621798324
 10
293.9257005132
 20
239.6736178545
 10
293.8474832807
 20
239.677462081
  0
LWPOLYLINE
  5
427
100
AcDbEntity
  8
X48002258_BL11
100
AcDbPolyline
 62
9
  6
CONTINUOUS
 90
11
 70
0
 10
294.3474832807
 20
249.1281740487
 10
294.341327451
 20
249.1770195785
 10
294.3230115388
 20
249.2246623693
 10
294.2929865428
 20
249.2699292973
 10
294.2519917779
 20
249.3117057407
 10
294.2010366713
 20
249.3489630247
 10
294.1413759068
 20
249.3807837514
 10
294.0744785306
 20
249.4063843888
 10
294.0019917779
 20
249.4251345644
 10
293.9257005132
 20
249.4365725864
 10
293.8474832807
 20
249.440416813
  0
LWPOLYLINE
  5
428
100
AcDbEntity
  8
X48002258_BL11
100
AcDbPolyline
 62
9
  6
CONTINUOUS
 90
25
 70
0
 10
294.3474832807
 20
249.1281740487
 10
294.4457226549
 20
252.6165738065
 10
294.7402507599
 20
256.0982261588
 10
295.2304979066
 20
259.5663967345
 10
295.9155158433
 20
263.0143772703
 10
296.7939795975
 20
266.4354985845
 10
297.8641899861
 20
269.8231432964
 10
299.1240769735
 20
273.1707589151
 10
300.5712034718
 20
276.4718699899
 10
302.2027700661
 20
279.7200908898
 10
304.0156210673
 20
282.9091393012
 10
306.0062501624
 20
286.0328471969
 10
308.1708069472
 20
289.0851724969
 10
310.5051046652
 20
292.0602112984
 10
313.0046282469
 20
294.9522091866
 10
315.6645429503
 20
297.7555722711
 10
318.4797041737
 20
300.4648784703
 10
321.4446672295
 20
303.0748876976
 10
324.5536967818
 20
305.5805511066
 10
327.8007789022
 20
307.9770218545
 10
331.1796329807
 20
310.2596646107
 10
334.6837233897
 20
312.4240641252
 10
338.3062724146
 20
314.4660339616
 10
342.0402731867
 20
316.3816244683
 10
345.8785032307
 20
318.1671304231
  0
LINE
  5
429
100
AcDbEntity
  8
X48002258_BL11
100
AcDbLine
 62
7
  6
CONTINUOUS
 10
294.367829729
 20
237.4500167588
 11
294.4353692372
 21
239.407756499
  0
LWPOLYLINE
  5
42A
100
AcDbEntity
  8
X48002258_BL11
100
AcDbPolyline
 62
9
  6
CONTINUOUS
 90
3
 70
0
 10
294.4375053667
 20
239.4574047939
 10
294.3698838674
 20
237.5437144644
 10
294.3474832807
 20
235.5836834586
  0
LWPOLYLINE
  5
42B
100
AcDbEntity
  8
X48002258_BL11
100
AcDbPolyline
 62
7
  6
CONTINUOUS
 90
5
 70
0
 10
294.4353692372
 20
239.407756499
 10
294.551068935
 20
241.3178617635
 10
294.7153702133
 20
243.1766691108
 10
294.9284705998
 20
244.9806404209
 10
295.1694110809
 20
246.6011840853
  0
LINE
  5
42C
100
AcDbEntity
  8
X48002258_BL11
100
AcDbLine
 62
9
  6
CONTINUOUS
 10
295.1719542973
 20
246.6325135596
 11
295.1694110589
 21
246.6011870312
  0
LWPOLYLINE
  5
42D
100
AcDbEntity
  8
X48002258_BL11
100
AcDbPolyline
 62
9
  6
CONTINUOUS
 90
5
 70
0
 10
295.1719542973
 20
246.6325135596
 10
294.9176751036
 20
244.9124480761
 10
294.7108582703
 20
243.1426983478
 10
294.5509732573
 20
241.3240386242
 10
294.4375053667
 20
239.4574047939
  0
LWPOLYLINE
  5
42E
100
AcDbEntity
  8
X48002258_BL11
100
AcDbPolyline
 62
7
  6
CONTINUOUS
 90
23
 70
0
 10
295.1694110589
 20
246.6011870312
 10
295.8029426292
 20
249.9060060157
 10
296.6145877317
 20
253.1868790953
 10
297.6028712558
 20
256.4379868904
 10
298.7660149725
 20
259.6535870926
 10
300.1019345651
 20
262.8279949557
 10
301.6082306017
 20
265.9555709235
 10
303.2822003605
 20
269.0307583117
 10
305.1208472502
 20
272.0481005135
 10
307.1208626103
 20
275.0022143108
 10
309.2787166199
 20
277.8879212307
 10
311.5906002995
 20
280.7001422889
 10
314.0524070514
 20
283.4338867781
 10
316.6597840328
 20
286.0843193518
 10
319.408079528
 20
288.6467075787
 10
322.2923823607
 20
291.1164726588
 10
325.3076041262
 20
293.4892550287
 10
328.4484171115
 20
295.7608519604
 10
331.7092573914
 20
297.9272249656
 10
335.084363048
 20
299.9845282255
 10
338.5677357231
 20
301.9290861392
 10
342.1532050617
 20
303.7574346769
 10
345.8343714008
 20
305.4662925766
  0
LINE
  5
42F
100
AcDbEntity
  8
X48002258_BL11
100
AcDbLine
 62
7
  6
CONTINUOUS
 10
347.2691044149
 20
306.1428315866
 11
345.8343714008
 21
305.4662925766
  0
LWPOLYLINE
  5
430
100
AcDbEntity
  8
X48002258_BL11
100
AcDbPolyline
 62
9
  6
CONTINUOUS
 90
23
 70
0
 10
345.8785032307
 20
305.5837470228
 10
342.1950737176
 20
303.8737522055
 10
338.6072575992
 20
302.0439478174
 10
335.1214392688
 20
300.0975899298
 10
331.7438216286
 20
298.0381420231
 10
328.4804150509
 20
295.8692688258
 10
325.3370266207
 20
293.5948297495
 10
322.3192497422
 20
291.2188719554
 10
319.432454822
 20
288.7456236785
 10
316.6817791922
 20
286.1794863953
 10
314.0721171616
 20
283.5250261661
 10
311.6081123234
 20
280.7869663357
 10
309.2941492194
 20
277.9701791147
 10
307.1343453318
 20
275.0796766842
 10
305.132544078
 20
272.1206027153
 10
303.2923076598
 20
269.0982228673
 10
301.6169106776
 20
266.0179152978
 10
300.1093344303
 20
262.8851612654
 10
298.7722616193
 20
259.7055354176
 10
297.6080715285
 20
256.4846957884
 10
296.6188358091
 20
253.2283737756
 10
295.8063147824
 20
249.9423639233
 10
295.1719542973
 20
246.6325135596
  0
LWPOLYLINE
  5
431
100
AcDbEntity
  8
X48002258_BL11
100
AcDbPolyline
 62
9
  6
CONTINUOUS
 90
5
 70
0
 10
327.5974832807
 20
349.4913486935
 10
327.6036391104
 20
349.5401942233
 10
327.6219550225
 20
349.587837014
 10
327.6519800186
 20
349.6331039421
 10
327.6929747835
 20
349.6748803855
  0
LINE
  5
432
100
AcDbEntity
  8
X48002258_BL11
100
AcDbLine
 62
7
  6
CONTINUOUS
 10
327.5974832807
 20
349.6790864143
 11
327.5974832807
 21
338.5568393937
  0
LINE
  5
433
100
AcDbEntity
  8
X48002258_BL11
100
AcDbLine
 62
9
  6
CONTINUOUS
 10
328.0974832807
 20
350.1791059292
 11
328.0974832807
 21
338.8690821579
  0
LWPOLYLINE
  5
434
100
AcDbEntity
  8
X48002258_BL11
100
AcDbPolyline
 62
9
  6
CONTINUOUS
 90
13
 70
0
 10
328.0974832807
 20
338.8690821579
 10
328.0672620111
 20
338.2464004651
 10
327.9768227452
 20
337.6293945373
 10
327.8256169798
 20
337.0158814158
 10
327.6152902248
 20
336.4124099764
 10
327.3466361121
 20
335.8238917598
 10
327.0216617718
 20
335.2530558132
 10
326.6417844086
 20
334.7032872575
 10
326.2095674316
 20
334.1775294128
 10
325.7265496377
 20
333.6786899753
 10
325.1972220678
 20
333.2102609371
 10
324.6272141921
 20
332.7772611754
 10
324.0146495204
 20
332.3780177312
  0
LWPOLYLINE
  5
435
100
AcDbEntity
  8
X48002258_BL11
100
AcDbPolyline
 62
7
  6
CONTINUOUS
 90
13
 70
0
 10
327.5974832807
 20
338.5568393937
 10
327.5684137188
 20
337.9713181
 10
327.4815721401
 20
337.3901354307
 10
327.3376942091
 20
336.8163727315
 10
327.137932728
 20
336.2534956745
 10
326.8838936633
 20
335.7049705921
 10
326.577262915
 20
335.1735898574
 10
326.2201271959
 20
334.662336685
 10
325.8145345165
 20
334.1736899885
 10
325.3627663935
 20
333.710145595
 10
324.8673383339
 20
333.2741499699
 10
324.3307957992
 20
332.8679178164
 10
323.7564348294
 20
332.4939398573
  0
LWPOLYLINE
  5
436
100
AcDbEntity
  8
X48002258_BL11
100
AcDbPolyline
 62
9
  6
CONTINUOUS
 90
11
 70
0
 10
327.5974832807
 20
338.5568393937
 10
327.6036391101
 20
338.6056849223
 10
327.6219550216
 20
338.6533277124
 10
327.6519800171
 20
338.6985946404
 10
327.6929747819
 20
338.7403710843
 10
327.7439298894
 20
338.7776283692
 10
327.8035906553
 20
338.8094490967
 10
327.8704880325
 20
338.8350497343
 10
327.9429747855
 20
338.8537999097
 10
328.0192660496
 20
338.8652379315
 10
328.0974832807
 20
338.8690821579
  0
LWPOLYLINE
  5
437
100
AcDbEntity
  8
X48002258_BL11
100
AcDbPolyline
 62
7
  6
CONTINUOUS
 90
3
 70
0
 10
359.8698224151
 20
319.3043051789
 10
359.8665916222
 20
319.303990992
 10
359.8567532277
 20
319.3046496022
  0
LWPOLYLINE
  5
438
100
AcDbEntity
  8
X48002258_BL11
100
AcDbPolyline
 62
9
  6
CONTINUOUS
 90
5
 70
0
 10
345.8785032307
 20
305.5837470228
 10
345.8754702493
 20
305.5390853456
 10
345.8664459872
 20
305.5038910921
 10
345.8516526517
 20
305.4790308618
 10
345.8343714008
 20
305.4662925766
  0
LWPOLYLINE
  5
439
100
AcDbEntity
  8
X48002258_BL11
100
AcDbPolyline
 62
7
  6
CONTINUOUS
 90
14
 70
0
 10
359.869812938
 20
319.3042799789
 10
359.4582184926
 20
318.2941676966
 10
358.869838539
 20
317.0669595826
 10
358.1949542629
 20
315.8668044311
 10
357.4356140413
 20
314.6976148277
 10
356.5941296432
 20
313.5631419398
 10
355.6730879028
 20
312.4670146722
 10
354.6753363584
 20
311.4127255856
 10
353.6039988774
 20
310.4036466607
 10
352.4624474627
 20
309.44299512
 10
351.2542684637
 20
308.5338081049
 10
349.9832848328
 20
307.678963587
 10
348.6534848147
 20
306.8811323207
 10
347.2691044149
 20
306.1428315866
  0
LWPOLYLINE
  5
43A
100
AcDbEntity
  8
X48002258_BL11
100
AcDbPolyline
 62
9
  6
CONTINUOUS
 90
15
 70
0
 10
359.8567532277
 20
319.3046496022
 10
359.3570344141
 20
318.1086961802
 10
358.7744098097
 20
316.932719939
 10
358.1097334673
 20
315.7798588104
 10
357.3651997751
 20
314.6549730517
 10
356.5433639573
 20
313.5624179076
 10
355.6469313724
 20
312.5059653317
 10
354.6790469488
 20
311.4892873395
 10
353.6433033811
 20
310.5159193456
 10
352.5493056206
 20
309.5936628391
 10
351.3842812258
 20
308.7119189199
 10
350.1337611897
 20
307.8638492021
 10
348.8002937904
 20
307.0567210438
 10
347.3810207412
 20
306.2943395334
 10
345.8785032307
 20
305.5837470228
  0
LWPOLYLINE
  5
43B
100
AcDbEntity
  8
X48002258_BL11
100
AcDbPolyline
 62
9
  6
CONTINUOUS
 90
11
 70
0
 10
345.8785032306
 20
318.1671304231
 10
345.8754702493
 20
318.2201598054
 10
345.8664459872
 20
318.2802511334
 10
345.8516526517
 20
318.3459247592
 10
345.8314545037
 20
318.4155635801
 10
345.8063488888
 20
318.4874528573
 10
345.7769539905
 20
318.5598224381
 10
345.7439936087
 20
318.6308903433
 10
345.7082793374
 20
318.6989066453
 10
345.6706905806
 20
318.7621965568
 10
345.6321528982
 20
318.8192016702
  0
LINE
  5
43C
100
AcDbEntity
  8
X48002258_BL11
100
AcDbLine
 62
9
  6
CONTINUOUS
 10
345.8785032307
 20
305.5837470228
 11
345.8785032307
 21
318.1671304231
  0
LINE
  5
43D
100
AcDbEntity
  8
X48002258_BL11
100
AcDbLine
 62
9
  6
CONTINUOUS
 10
360.5974832807
 20
338.8690821579
 11
360.5974832807
 21
350.1791059292
  0
LINE
  5
43E
100
AcDbEntity
  8
X48002258_BL11
100
AcDbLine
 62
7
  6
CONTINUOUS
 10
361.0974832807
 20
349.6790864143
 11
361.0974830059
 21
334.3270209841
  0
LWPOLYLINE
  5
43F
100
AcDbEntity
  8
X48002258_BL11
100
AcDbPolyline
 62
9
  6
CONTINUOUS
 90
15
 70
0
 10
361.0974830059
 20
334.3270209841
 10
361.0802888771
 20
333.0110084887
 10
361.0319605295
 20
331.6962248484
 10
360.9570807935
 20
330.3862537221
 10
360.8605733381
 20
329.0880606383
 10
360.7466245643
 20
327.7960278546
 10
360.622520013
 20
326.5450022012
 10
360.4972083171
 20
325.3665613387
 10
360.3750530261
 20
324.2630153279
 10
360.2615975335
 20
323.2500781679
 10
360.1583106676
 20
322.3187240499
 10
360.0665895321
 20
321.4694516583
 10
359.9862968666
 20
320.6899681577
 10
359.9155723188
 20
319.9670113812
 10
359.8567532277
 20
319.3046496022
  0
LWPOLYLINE
  5
440
100
AcDbEntity
  8
X48002258_BL11
100
AcDbPolyline
 62
7
  6
CONTINUOUS
 90
4
 70
0
 10
359.8698299079
 20
319.3043572877
 10
359.9372260355
 20
320.0673091545
 10
360.0518370033
 20
321.2358596964
 10
360.1802878011
 20
322.4467916223
  0
LWPOLYLINE
  5
441
100
AcDbEntity
  8
X48002258_BL11
100
AcDbPolyline
 62
7
  6
CONTINUOUS
 90
9
 70
0
 10
360.1802878011
 20
322.4467916223
 10
360.4592728525
 20
324.9767572927
 10
360.5993044966
 20
326.2867556809
 10
360.7323921603
 20
327.6208084106
 10
360.8528957588
 20
328.9745431529
 10
360.955198991
 20
330.3435382337
 10
361.033670652
 20
331.7234548874
 10
361.0827879097
 20
333.1097385001
 10
361.0974811966
 20
334.3270430784
  0
LINE
  5
442
100
AcDbEntity
  8
X48002258_BL11
100
AcDbLine
 62
7
  6
CONTINUOUS
 10
359.8698323715
 20
319.3043637597
 11
359.8698224151
 21
319.3043051789
  0
LINE
  5
443
100
AcDbEntity
  8
X48002258_BL11
100
AcDbLine
 62
9
  6
CONTINUOUS
 10
360.5974832807
 20
349.8035914578
 11
328.0974832807
 21
349.8035914578
  0
LINE
  5
444
100
AcDbEntity
  8
X48002258_BL11
100
AcDbLine
 62
7
  6
CONTINUOUS
 10
328.0974832807
 20
350.1791059292
 11
360.5974832807
 21
350.1791059292
  0
LWPOLYLINE
  5
445
100
AcDbEntity
  8
X48002258_BL11
100
AcDbPolyline
 62
9
  6
CONTINUOUS
 90
11
 70
0
 10
361.0974832807
 20
338.5568393937
 10
361.091327451
 20
338.6056849235
 10
361.0730115388
 20
338.6533277142
 10
361.0429865428
 20
338.6985946423
 10
361.0019917779
 20
338.7403710856
 10
360.9510366713
 20
338.7776283697
 10
360.8913759068
 20
338.8094490963
 10
360.8244785306
 20
338.8350497338
 10
360.7519917779
 20
338.8537999093
 10
360.6757005132
 20
338.8652379314
 10
360.5974832807
 20
338.8690821579
  0
LWPOLYLINE
  5
446
100
AcDbEntity
  8
X48002258_BL11
100
AcDbPolyline
 62
9
  6
CONTINUOUS
 90
5
 70
0
 10
361.0974832807
 20
349.4913486935
 10
361.0913274693
 20
349.5401941512
 10
361.0730115954
 20
349.5878369053
 10
361.0429866327
 20
349.6331038319
 10
361.0019918733
 20
349.6748803034
  0
LWPOLYLINE
  5
447
100
AcDbEntity
  8
X48002258_BL11
100
AcDbPolyline
 62
9
  6
CONTINUOUS
 90
7
 70
0
 10
361.0019918733
 20
349.6748803034
 10
360.9510367093
 20
349.7121376457
 10
360.8913758574
 20
349.7439584186
 10
360.8244784246
 20
349.769559067
 10
360.751991652
 20
349.7883092346
 10
360.6757004227
 20
349.7997472419
 10
360.5974832807
 20
349.8035914624
  0
LINE
  5
448
100
AcDbEntity
  8
X48002258_BL11
100
AcDbLine
 62
7
  6
CONTINUOUS
 10
293.8474832807
 20
17.1491912604
 11
271.8474832807
 21
17.1491912604
  0
LINE
  5
449
100
AcDbEntity
  8
X48002258_BL11
100
AcDbLine
 62
9
  6
CONTINUOUS
 10
293.8474832807
 20
17.844219983
 11
271.8474832807
 21
17.844219983
  0
LINE
  5
44A
100
AcDbEntity
  8
X48002258_BL11
100
AcDbLine
 62
9
  6
CONTINUOUS
 10
293.8474832807
 20
25.3710182083
 11
271.8474832807
 21
25.3710182083
  0
LWPOLYLINE
  5
44B
100
AcDbEntity
  8
X48002258_BL11
100
AcDbPolyline
 62
7
  6
CONTINUOUS
 90
20
 70
0
 10
271.4271206753
 20
50.7458566243
 10
271.439336705
 20
50.7338965189
 10
271.4593425507
 20
50.6659266115
 10
271.4794139686
 20
50.5373639322
 10
271.4989038359
 20
50.3502116944
 10
271.5171241351
 20
50.1058413853
 10
271.5335972778
 20
49.805736624
 10
271.5478515691
 20
49.4503340903
 10
271.559437401
 20
49.0441459612
 10
271.5679240857
 20
48.591233467
 10
271.5731233298
 20
48.0933785939
 10
271.574864138
 20
47.5515255402
 10
271.5731232981
 20
46.9722337316
 10
271.5679240158
 20
46.3616912305
 10
271.5594372985
 20
45.7219390616
 10
271.5478514571
 20
45.0545202466
 10
271.5335971518
 20
44.3671016891
 10
271.5171239536
 20
43.6669957736
 10
271.4989036172
 20
42.9568015449
 10
271.4794137936
 20
42.2390921438
  0
LINE
  5
44C
100
AcDbEntity
  8
X48002258_BL11
100
AcDbLine
 62
9
  6
CONTINUOUS
 10
271.5121153206
 20
50.173019511
 11
271.3605836363
 21
50.1742529338
  0
LWPOLYLINE
  5
44D
100
AcDbEntity
  8
X48002258_BL11
100
AcDbPolyline
 62
9
  6
CONTINUOUS
 90
11
 70
0
 10
271.3474832807
 20
25.7615363976
 10
271.3536391104
 20
25.7004458936
 10
271.3719550225
 20
25.6408596405
 10
271.4019800186
 20
25.5842448497
 10
271.4429747835
 20
25.5319955652
 10
271.4939298901
 20
25.4853983378
 10
271.5535906545
 20
25.4456005459
 10
271.6204880308
 20
25.4135821431
 10
271.6929747835
 20
25.390131529
 10
271.7692660482
 20
25.3758261353
 10
271.8474832807
 20
25.3710182083
  0
LWPOLYLINE
  5
44E
100
AcDbEntity
  8
X48002258_BL11
100
AcDbPolyline
 62
9
  6
CONTINUOUS
 90
11
 70
0
 10
271.3474832807
 20
33.5676055045
 10
271.3536391104
 20
33.5065150005
 10
271.3719550225
 20
33.4469287474
 10
271.4019800186
 20
33.3903139566
 10
271.4429747835
 20
33.3380646721
 10
271.4939298901
 20
33.2914674447
 10
271.5535906545
 20
33.2516696528
 10
271.6204880308
 20
33.21965125
 10
271.6929747835
 20
33.1962006358
 10
271.7692660482
 20
33.1818952422
 10
271.8474832807
 20
33.1770873152
  0
LWPOLYLINE
  5
44F
100
AcDbEntity
  8
X48002258_BL11
100
AcDbPolyline
 62
9
  6
CONTINUOUS
 90
11
 70
0
 10
271.3474832807
 20
18.3105787089
 10
271.3536391103
 20
18.2376241317
 10
271.3719550222
 20
18.166465938
 10
271.4019800182
 20
18.0988562786
 10
271.4429747832
 20
18.0364599279
 10
271.4939298903
 20
17.9808132911
 10
271.5535906554
 20
17.9332865735
 10
271.620488032
 20
17.8950500409
 10
271.6929747847
 20
17.8670452033
 10
271.769266049
 20
17.8499616327
 10
271.8474832807
 20
17.844219983
  0
LINE
  5
450
100
AcDbEntity
  8
X48002258_BL11
100
AcDbLine
 62
7
  6
CONTINUOUS
 10
271.3474832807
 20
52.1002394674
 11
271.3474832807
 21
50.1742529338
  0
LINE
  5
451
100
AcDbEntity
  8
X48002258_BL11
100
AcDbLine
 62
7
  6
CONTINUOUS
 10
271.3474832807
 20
35.9020635694
 11
271.3474832807
 21
17.649304352
  0
LINE
  5
452
100
AcDbEntity
  8
X48002258_BL11
100
AcDbLine
 62
7
  6
CONTINUOUS
 10
271.3474832807
 20
48.7764828694
 11
271.3474832807
 21
49.43129506
  0
LINE
  5
453
100
AcDbEntity
  8
X48002258_BL11
100
AcDbLine
 62
7
  6
CONTINUOUS
 10
271.3474832807
 20
52.1002394674
 11
271.3474833389
 21
52.1018683884
  0
LINE
  5
454
100
AcDbEntity
  8
X48002258_BL11
100
AcDbLine
 62
9
  6
CONTINUOUS
 10
271.8474832807
 20
33.1770873152
 11
271.8474832807
 21
17.1491912604
  0
LWPOLYLINE
  5
455
100
AcDbEntity
  8
X48002258_BL11
100
AcDbPolyline
 62
7
  6
CONTINUOUS
 90
7
 70
0
 10
271.3474832807
 20
49.43129506
 10
271.3478499521
 20
49.5601358146
 10
271.3489477722
 20
49.6869753904
 10
271.3507734848
 20
49.81181573
 10
271.3533236965
 20
49.9346467888
 10
271.3565948771
 20
50.0554585327
 10
271.3605836363
 20
50.1742529338
  0
LWPOLYLINE
  5
456
100
AcDbEntity
  8
X48002258_BL11
100
AcDbPolyline
 62
7
  6
CONTINUOUS
 90
7
 70
0
 10
271.3605836363
 20
37.505054618
 10
271.3565948771
 20
37.2343893335
 10
271.3533236965
 20
36.9651193185
 10
271.3507734848
 20
36.6972424173
 10
271.3489477722
 20
36.4307692153
 10
271.3478499521
 20
36.165710308
 10
271.3474832807
 20
35.9020635694
  0
LWPOLYLINE
  5
457
100
AcDbEntity
  8
X48002258_BL11
100
AcDbPolyline
 62
7
  6
CONTINUOUS
 90
7
 70
0
 10
271.4794137936
 20
42.2390921438
 10
271.4393365163
 20
40.8104505883
 10
271.4199858356
 20
40.1099676264
 10
271.4018548929
 20
39.4235439706
 10
271.3855680298
 20
38.7570317803
 10
271.3717034276
 20
38.1184215087
 10
271.3605836363
 20
37.505054618
  0
LWPOLYLINE
  5
458
100
AcDbEntity
  8
X48002258_BL11
100
AcDbPolyline
 62
9
  6
CONTINUOUS
 90
9
 70
0
 10
271.3474833389
 20
52.1018683884
 10
271.3878636149
 20
53.5023951198
 10
271.509860056
 20
55.0027252762
 10
271.7148126071
 20
56.6007859822
 10
272.0036561203
 20
58.2927294156
 10
272.3766939167
 20
60.0738374136
 10
272.8354180262
 20
61.9461427231
 10
273.3817091885
 20
63.9107604459
 10
274.0165101676
 20
65.9653484135
  0
LWPOLYLINE
  5
459
100
AcDbEntity
  8
X48002258_BL11
100
AcDbPolyline
 62
7
  6
CONTINUOUS
 90
6
 70
0
 10
271.3605836363
 20
50.1742529338
 10
271.3717034374
 20
50.4046858018
 10
271.3855680716
 20
50.5760732519
 10
271.4018550174
 20
50.6887358921
 10
271.4199860458
 20
50.7416970577
 10
271.4271206753
 20
50.7458566243
  0
LWPOLYLINE
  5
45A
100
AcDbEntity
  8
X48002258_BL11
100
AcDbPolyline
 62
9
  6
CONTINUOUS
 90
3
 70
0
 10
271.7372809213
 20
39.9614588139
 10
271.4449679768
 20
36.766848184
 10
271.3474832807
 20
33.5676055045
  0
LWPOLYLINE
  5
45B
100
AcDbEntity
  8
X48002258_BL11
100
AcDbPolyline
 62
9
  6
CONTINUOUS
 90
3
 70
0
 10
274.0165101676
 20
65.9653484135
 10
274.0225441681
 20
66.0256782261
 10
274.0308950193
 20
66.0574533396
  0
LWPOLYLINE
  5
45C
100
AcDbEntity
  8
X48002258_BL11
100
AcDbPolyline
 62
7
  6
CONTINUOUS
 90
9
 70
0
 10
274.0308984333
 20
66.0574615845
 10
273.4192302968
 20
64.0817235296
 10
272.8635169771
 20
62.0924866478
 10
272.3944311752
 20
60.18623663
 10
272.0122635394
 20
58.3671011513
 10
271.7170839474
 20
56.6390978369
 10
271.5084239807
 20
55.0056311662
 10
271.385624989
 20
53.4697908908
 10
271.347484062
 20
52.1018648473
  0
LWPOLYLINE
  5
45D
100
AcDbEntity
  8
X48002258_BL11
100
AcDbPolyline
 62
7
  6
CONTINUOUS
 90
20
 70
0
 10
274.0308950193
 20
66.0574533396
 10
275.0695460282
 20
68.9961179596
 10
276.2751557366
 20
71.90989348
 10
277.6462651194
 20
74.7950874394
 10
279.1811327426
 20
77.6479034585
 10
280.8778090078
 20
80.4646312477
 10
282.7341342704
 20
83.2416268859
 10
284.7477366832
 20
85.9753041428
 10
286.9160290247
 20
88.6621304069
 10
289.2362162701
 20
91.2986380408
 10
291.7053118671
 20
93.8814412077
 10
294.3201232964
 20
96.4072182291
 10
297.0772874327
 20
98.872745555
 10
299.9732415051
 20
101.2748676282
 10
303.0042680406
 20
103.6105347824
 10
306.1664599642
 20
105.8767722154
 10
309.4557670636
 20
108.0707142257
 10
312.8679620829
 20
110.1895782077
 10
316.3986835576
 20
112.230692228
 10
320.0433995233
 20
114.1914719978
  0
LWPOLYLINE
  5
45E
100
AcDbEntity
  8
X48002258_BL11
100
AcDbPolyline
 62
9
  6
CONTINUOUS
 90
21
 70
0
 10
274.0165101676
 20
65.9653484135
 10
275.0509278888
 20
68.8918508462
 10
276.2516724444
 20
71.7934769083
 10
277.6172187858
 20
74.6665412852
 10
279.1458325499
 20
77.5073949347
 10
280.8355722668
 20
80.31242973
 10
282.6842918117
 20
83.078083021
 10
284.6896431444
 20
85.8008421839
 10
286.8490792756
 20
88.4772490605
 10
289.1598574893
 20
91.1039043423
 10
291.6190429465
 20
93.6774720185
 10
294.223512315
 20
96.1946834818
 10
296.9699577097
 20
98.6523416636
 10
299.854890965
 20
101.0473251638
 10
302.8746479114
 20
103.3765920893
 10
306.0253931401
 20
105.6371840257
 10
309.3031249532
 20
107.8262298436
 10
312.7036803504
 20
109.9409492674
 10
316.2227403336
 20
111.9786564221
 10
319.8558353952
 20
113.9367632448
 10
323.5983511901
 20
115.8127827706
  0
LINE
  5
45F
100
AcDbEntity
  8
X48002258_BL11
100
AcDbLine
 62
7
  6
CONTINUOUS
 10
323.8434115838
 20
116.0895365005
 11
323.8817705049
 21
116.1104599915
  0
LINE
  5
460
100
AcDbEntity
  8
X48002258_BL11
100
AcDbLine
 62
7
  6
CONTINUOUS
 10
320.0433995233
 20
114.1914719978
 11
323.7974815595
 21
116.0694608835
  0
LINE
  5
461
100
AcDbEntity
  8
X48002258_BL11
100
AcDbLine
 62
7
  6
CONTINUOUS
 10
323.8817705049
 20
116.1104599915
 11
323.8920993902
 21
116.1154299827
  0
LWPOLYLINE
  5
462
100
AcDbEntity
  8
X48002258_BL11
100
AcDbPolyline
 62
7
  6
CONTINUOUS
 90
3
 70
0
 10
323.8920993902
 20
116.1154299827
 10
323.9474672882
 20
116.1383562253
 10
324.0097670634
 20
116.15837116
  0
LWPOLYLINE
  5
463
100
AcDbEntity
  8
X48002258_BL11
100
AcDbPolyline
 62
7
  6
CONTINUOUS
 90
4
 70
0
 10
323.8434115838
 20
116.0895365021
 10
323.8252116946
 20
116.0778479624
 10
323.8069935477
 20
116.0650051549
 10
323.7887772759
 20
116.0509914718
  0
LWPOLYLINE
  5
464
100
AcDbEntity
  8
X48002258_BL11
100
AcDbPolyline
 62
9
  6
CONTINUOUS
 90
6
 70
0
 10
345.7988304848
 20
88.5687133233
 10
345.7769539905
 20
88.5644690624
 10
345.7439936087
 20
88.5688044731
 10
345.7082793374
 20
88.5847450881
 10
345.6706905806
 20
88.6118983965
 10
345.6321528982
 20
88.6495957939
  0
LINE
  5
465
100
AcDbEntity
  8
X48002258_BL11
100
AcDbLine
 62
9
  6
CONTINUOUS
 10
293.8474832807
 20
17.1491912604
 11
293.8474832807
 21
33.1770873152
  0
LINE
  5
466
100
AcDbEntity
  8
X48002258_BL11
100
AcDbLine
 62
7
  6
CONTINUOUS
 10
294.3474832807
 20
17.6493056533
 11
294.3474832807
 21
33.5676055045
  0
LINE
  5
467
100
AcDbEntity
  8
X48002258_BL11
100
AcDbLine
 62
7
  6
CONTINUOUS
 10
323.7525960351
 20
116.0195147706
 11
323.7347061951
 21
116.0020666087
  0
LWPOLYLINE
  5
468
100
AcDbEntity
  8
X48002258_BL11
100
AcDbPolyline
 62
7
  6
CONTINUOUS
 90
3
 70
0
 10
323.7887772759
 20
116.0509914718
 10
323.7706250382
 20
116.0358212349
 10
323.7525960351
 20
116.0195147706
  0
LWPOLYLINE
  5
469
100
AcDbEntity
  8
X48002258_BL11
100
AcDbPolyline
 62
9
  6
CONTINUOUS
 90
7
 70
0
 10
323.7090667604
 20
115.5849979476
 10
323.7534955236
 20
115.6205494088
 10
323.801412854
 20
115.6523243603
 10
323.8521786367
 20
115.6798983291
 10
323.9051147054
 20
115.7029029624
 10
323.9595139014
 20
115.7210309475
 10
324.0146495204
 20
115.7340401179
  0
LWPOLYLINE
  5
46A
100
AcDbEntity
  8
X48002258_BL11
100
AcDbPolyline
 62
9
  6
CONTINUOUS
 90
23
 70
0
 10
323.7090701757
 20
100.1283450453
 10
319.713748647
 20
98.124914825
 10
315.8433690154
 20
96.0280147736
 10
312.1035350433
 20
93.8406809058
 10
308.4996614757
 20
91.5660801684
 10
305.0369662045
 20
89.2075058558
 10
301.7204627311
 20
86.768372855
 10
298.5549528726
 20
84.2522126766
 10
295.5450198858
 20
81.6626684039
 10
292.6950217823
 20
79.0034893922
 10
290.0090848785
 20
76.2785256988
 10
287.4910979813
 20
73.4917226369
 10
285.1447067954
 20
70.6471151184
 10
282.973308563
 20
67.7488217318
 10
280.9800471608
 20
64.8010387953
 10
279.167808559
 20
61.8080342989
 10
277.5392165913
 20
58.7741416351
 10
276.096629203
 20
55.7037533778
 10
274.842135101
 20
52.6013150793
 10
273.7775506369
 20
49.4713186781
 10
272.9044171737
 20
46.3182959556
 10
272.2239988862
 20
43.1468120498
 10
271.7372809213
 20
39.9614588139
  0
LWPOLYLINE
  5
46B
100
AcDbEntity
  8
X48002258_BL11
100
AcDbPolyline
 62
9
  6
CONTINUOUS
 90
25
 70
0
 10
293.8474832807
 20
33.1770873152
 10
293.9462476289
 20
35.9803272729
 10
294.2416797934
 20
38.7739228152
 10
294.7343711285
 20
41.560903722
 10
295.4225475708
 20
44.3321806535
 10
296.3053601201
 20
47.0812355357
 10
297.380624941
 20
49.8033843508
 10
298.6468957871
 20
52.4935308014
 10
300.1011108909
 20
55.1463936521
 10
301.7409503466
 20
57.7566093857
 10
303.5627423221
 20
60.3193285497
 10
305.5635068005
 20
62.8294866814
 10
307.7388484299
 20
65.2823652938
 10
310.0850571041
 20
67.6730387708
 10
312.5970970695
 20
69.9970640372
 10
315.2705588081
 20
72.2497276857
 10
318.0998535074
 20
74.4269150969
 10
321.0800328327
 20
76.5242416415
 10
324.2047658316
 20
78.5378039421
 10
327.4682017629
 20
80.4633360358
 10
330.8639516575
 20
82.2975410506
 10
334.3865642114
 20
84.0369243191
 10
338.0273756883
 20
85.6778132652
 10
341.7745951459
 20
87.2147657402
 10
345.6321528982
 20
88.6495957939
  0
LWPOLYLINE
  5
46C
100
AcDbEntity
  8
X48002258_BL11
100
AcDbPolyline
 62
7
  6
CONTINUOUS
 90
24
 70
0
 10
294.3474832807
 20
33.5676055045
 10
294.4457112624
 20
36.3458797057
 10
294.7401496471
 20
39.1184372034
 10
295.2301655454
 20
41.8800598463
 10
295.9147239017
 20
44.6253699147
 10
296.7923833154
 20
47.3490020631
 10
297.8613707883
 20
50.0457940854
 10
299.1195062243
 20
52.7105208187
 10
300.5643348088
 20
55.3381932313
 10
302.1930277579
 20
57.923806741
 10
304.0024586516
 20
60.4624867737
 10
305.9891742184
 20
62.9494275742
 10
308.1493574675
 20
65.3798602858
 10
310.478865552
 20
67.7491163927
 10
312.9732934425
 20
70.0526874176
 10
315.6279578592
 20
72.2861934489
 10
318.4377705908
 20
74.445286475
 10
321.3973963557
 20
76.5257964001
 10
324.5011521684
 20
78.5236561018
 10
327.7431111725
 20
80.4349794784
 10
331.1170266625
 20
82.256015082
 10
334.6164204242
 20
83.9832019424
 10
338.2345383946
 20
85.6131461484
 10
341.9644172348
 20
87.1426547112
  0
LWPOLYLINE
  5
46D
100
AcDbEntity
  8
X48002258_BL11
100
AcDbPolyline
 62
9
  6
CONTINUOUS
 90
11
 70
0
 10
294.3474832807
 20
18.3105787089
 10
294.341327451
 20
18.2376241311
 10
294.3230115388
 20
18.1664659372
 10
294.2929865428
 20
18.0988562779
 10
294.2519917779
 20
18.0364599276
 10
294.2010366713
 20
17.9808132914
 10
294.1413759068
 20
17.9332865741
 10
294.0744785305
 20
17.8950500415
 10
294.0019917778
 20
17.8670452037
 10
293.9257005132
 20
17.8499616328
 10
293.8474832807
 20
17.844219983
  0
LWPOLYLINE
  5
46E
100
AcDbEntity
  8
X48002258_BL11
100
AcDbPolyline
 62
9
  6
CONTINUOUS
 90
11
 70
0
 10
294.3474832807
 20
33.5676055045
 10
294.341327451
 20
33.5065150005
 10
294.3230115388
 20
33.4469287474
 10
294.2929865428
 20
33.3903139566
 10
294.2519917779
 20
33.3380646721
 10
294.2010366713
 20
33.2914674447
 10
294.1413759068
 20
33.2516696528
 10
294.0744785306
 20
33.21965125
 10
294.0019917779
 20
33.1962006358
 10
293.9257005132
 20
33.1818952422
 10
293.8474832807
 20
33.1770873152
  0
LWPOLYLINE
  5
46F
100
AcDbEntity
  8
X48002258_BL11
100
AcDbPolyline
 62
9
  6
CONTINUOUS
 90
11
 70
0
 10
294.3474832807
 20
25.7615363976
 10
294.341327451
 20
25.7004458936
 10
294.3230115388
 20
25.6408596405
 10
294.2929865428
 20
25.5842448497
 10
294.2519917779
 20
25.5319955652
 10
294.2010366713
 20
25.4853983378
 10
294.1413759068
 20
25.4456005459
 10
294.0744785306
 20
25.4135821432
 10
294.0019917779
 20
25.390131529
 10
293.9257005132
 20
25.3758261353
 10
293.8474832807
 20
25.3710182083
  0
LWPOLYLINE
  5
470
100
AcDbEntity
  8
X48002258_BL11
100
AcDbPolyline
 62
7
  6
CONTINUOUS
 90
4
 70
0
 10
323.7089075655
 20
115.974510171
 10
323.6842987707
 20
115.9451922893
 10
323.6608617355
 20
115.914240231
 10
323.6386830086
 20
115.8817765967
  0
LINE
  5
471
100
AcDbEntity
  8
X48002258_BL11
100
AcDbLine
 62
7
  6
CONTINUOUS
 10
323.7347061951
 20
116.0020666087
 11
323.7089075655
 21
115.974510171
  0
LWPOLYLINE
  5
472
100
AcDbEntity
  8
X48002258_BL11
100
AcDbPolyline
 62
9
  6
CONTINUOUS
 90
25
 70
0
 10
324.0146495204
 20
99.4906841821
 10
320.0346601739
 20
97.4949644929
 10
316.1830510101
 20
95.4083352646
 10
312.4567122691
 20
93.2289530403
 10
308.8649732302
 20
90.9623481908
 10
305.414790041
 20
88.6123685837
 10
302.1101723361
 20
86.1822182712
 10
298.9559811518
 20
83.6750809939
 10
295.9566184298
 20
81.0948655533
 10
293.1168702403
 20
78.4452278681
 10
290.4404452334
 20
75.7301103276
 10
287.9315547365
 20
72.9532869672
 10
285.5934767876
 20
70.1189187669
 10
283.4299758109
 20
67.2309923519
 10
281.4438039744
 20
64.293804822
 10
279.6382316923
 20
61.3115194105
 10
278.0154686499
 20
58.2885243417
 10
276.5782451349
 20
55.229062288
 10
275.3282697549
 20
52.1377331387
 10
274.2678064016
 20
49.0191014725
 10
273.3979195101
 20
45.8775158929
 10
272.7202195833
 20
42.7169164389
 10
272.2353323086
 20
39.5430933824
 10
271.9445655229
 20
36.3640382934
 10
271.8474832807
 20
33.1770873152
  0
LWPOLYLINE
  5
473
100
AcDbEntity
  8
X48002258_BL11
100
AcDbPolyline
 62
7
  6
CONTINUOUS
 90
3
 70
0
 10
323.6386830086
 20
115.8817765967
 10
323.6178549622
 20
115.8479148869
 10
323.5983511901
 20
115.8127827706
  0
LWPOLYLINE
  5
474
100
AcDbEntity
  8
X48002258_BL11
100
AcDbPolyline
 62
9
  6
CONTINUOUS
 90
4
 70
0
 10
323.7347061951
 20
116.0020666087
 10
323.7553115968
 20
116.0353795499
 10
323.7813437425
 20
116.0599813788
 10
323.7974815595
 20
116.0694608835
  0
LWPOLYLINE
  5
475
100
AcDbEntity
  8
X48002258_BL11
100
AcDbPolyline
 62
9
  6
CONTINUOUS
 90
19
 70
0
 10
345.6321528982
 20
88.6495957939
 10
347.1101877142
 20
89.2084465314
 10
348.5304279203
 20
89.8192047271
 10
349.8957682587
 20
90.4832878394
 10
351.1975245026
 20
91.1964434928
 10
352.4289740138
 20
91.9557075581
 10
353.5871267693
 20
92.7586327553
 10
354.6679272868
 20
93.6028665016
 10
355.6678493053
 20
94.4851605766
 10
356.5828889611
 20
95.4025681916
 10
357.410423579
 20
96.3518324677
 10
358.1472069986
 20
97.3299234076
 10
358.7911058114
 20
98.3332135783
 10
359.3393313142
 20
99.358186603
 10
359.7906032317
 20
100.4014793151
 10
360.14298444
 20
101.4602613283
 10
360.395656783
 20
102.5294179255
 10
360.5469734136
 20
103.6021336551
 10
360.5974832807
 20
104.6806803342
  0
LINE
  5
476
100
AcDbEntity
  8
X48002258_BL11
100
AcDbLine
 62
7
  6
CONTINUOUS
 10
341.9644172348
 20
87.1426547112
 11
345.7988304848
 21
88.5687133233
  0
LWPOLYLINE
  5
477
100
AcDbEntity
  8
X48002258_BL11
100
AcDbPolyline
 62
7
  6
CONTINUOUS
 90
6
 70
0
 10
324.0097670634
 20
116.15837116
 10
324.0782433589
 20
116.1752402323
 10
324.1523088833
 20
116.1888455988
 10
324.2317112261
 20
116.1989028521
 10
324.3159461908
 20
116.205056177
 10
324.4051818431
 20
116.2074153868
  0
LWPOLYLINE
  5
478
100
AcDbEntity
  8
X48002258_BL11
100
AcDbPolyline
 62
9
  6
CONTINUOUS
 90
11
 70
0
 10
323.7090701757
 20
100.1283450453
 10
323.7128323645
 20
100.0642118048
 10
323.7240262934
 20
99.9955722647
 10
323.7423763306
 20
99.9241165583
 10
323.7674306374
 20
99.8516041622
 10
323.7985722936
 20
99.7798205722
 10
323.8350344882
 20
99.7105333385
 10
323.875919401
 20
99.6454485429
 10
323.9202203098
 20
99.586168789
 10
323.9668463791
 20
99.534153741
 10
324.0146495204
 20
99.4906841821
  0
LINE
  5
479
100
AcDbEntity
  8
X48002258_BL11
100
AcDbLine
 62
9
  6
CONTINUOUS
 10
323.7090701757
 20
115.5849951853
 11
323.7090701757
 21
100.1283450453
  0
LWPOLYLINE
  5
47A
100
AcDbEntity
  8
X48002258_BL11
100
AcDbPolyline
 62
9
  6
CONTINUOUS
 90
13
 70
0
 10
327.5974832807
 20
105.0711985235
 10
327.5685365981
 20
104.5963858922
 10
327.4818641317
 20
104.1243221082
 10
327.3379676551
 20
103.6577401038
 10
327.1376802368
 20
103.1993410911
 10
326.8821614191
 20
102.7517789104
 10
326.5728904833
 20
102.3176446352
 10
326.211657899
 20
101.8994516078
 10
325.8005549578
 20
101.4996208838
 10
325.3419616582
 20
101.1204672087
 10
324.8385329612
 20
100.7641856437
 10
324.2931833974
 20
100.4328388309
 10
323.7090701757
 20
100.1283450453
  0
LWPOLYLINE
  5
47B
100
AcDbEntity
  8
X48002258_BL11
100
AcDbPolyline
 62
9
  6
CONTINUOUS
 90
4
 70
0
 10
327.5974832807
 20
114.9232212282
 10
327.6036391104
 20
114.972066758
 10
327.6219550225
 20
115.0197095487
 10
327.6249825314
 20
115.0242739466
  0
LWPOLYLINE
  5
47C
100
AcDbEntity
  8
X48002258_BL11
100
AcDbPolyline
 62
9
  6
CONTINUOUS
 90
11
 70
0
 10
327.5974832807
 20
114.5167568767
 10
327.6036390786
 20
114.565602281
 10
327.6219549241
 20
114.6132450082
 10
327.6519798621
 20
114.6585119335
 10
327.6929746174
 20
114.700288426
 10
327.7439298239
 20
114.7375458114
 10
327.8035907405
 20
114.7693666184
 10
327.8704882152
 20
114.7949672756
 10
327.9429750025
 20
114.8137174368
 10
328.0192662056
 20
114.8251554295
 10
328.0974832807
 20
114.8289996397
  0
LINE
  5
47D
100
AcDbEntity
  8
X48002258_BL11
100
AcDbLine
 62
9
  6
CONTINUOUS
 10
360.5974832807
 20
113.4234777339
 11
328.0974832807
 21
113.4234777339
  0
LINE
  5
47E
100
AcDbEntity
  8
X48002258_BL11
100
AcDbLine
 62
9
  6
CONTINUOUS
 10
360.5974832807
 20
114.828999641
 11
328.0974832807
 21
114.828999641
  0
LINE
  5
47F
100
AcDbEntity
  8
X48002258_BL11
100
AcDbLine
 62
7
  6
CONTINUOUS
 10
327.1974832807
 20
116.2074153946
 11
324.4051818431
 21
116.2074153868
  0
LWPOLYLINE
  5
480
100
AcDbEntity
  8
X48002258_BL11
100
AcDbPolyline
 62
9
  6
CONTINUOUS
 90
11
 70
0
 10
327.5974832807
 20
105.0711985235
 10
327.6036391101
 20
105.0101080209
 10
327.6219550216
 20
104.9505217686
 10
327.6519800171
 20
104.8939069779
 10
327.6929747819
 20
104.8416576928
 10
327.7439298894
 20
104.7950604642
 10
327.8035906553
 20
104.7552626713
 10
327.8704880325
 20
104.7232442684
 10
327.9429747855
 20
104.6997936543
 10
328.0192660496
 20
104.685488261
 10
328.0974832807
 20
104.6806803342
  0
LWPOLYLINE
  5
481
100
AcDbEntity
  8
X48002258_BL11
100
AcDbPolyline
 62
9
  6
CONTINUOUS
 90
11
 70
0
 10
327.5974832807
 20
113.8139959232
 10
327.6036391104
 20
113.7529054191
 10
327.6219550225
 20
113.6933191661
 10
327.6519800186
 20
113.6367043753
 10
327.6929747835
 20
113.5844550908
 10
327.7439298901
 20
113.5378578634
 10
327.8035906546
 20
113.4980600714
 10
327.8704880309
 20
113.4660416687
 10
327.9429747835
 20
113.4425910545
 10
328.0192660482
 20
113.4282856608
 10
328.0974832807
 20
113.4234777339
  0
LINE
  5
482
100
AcDbEntity
  8
X48002258_BL11
100
AcDbLine
 62
7
  6
CONTINUOUS
 10
327.5974832807
 20
115.0242739466
 11
327.5974832807
 21
105.0711985235
  0
LINE
  5
483
100
AcDbEntity
  8
X48002258_BL11
100
AcDbLine
 62
9
  6
CONTINUOUS
 10
328.0974832807
 20
115.0242739466
 11
328.0974832807
 21
104.6806803342
  0
LWPOLYLINE
  5
484
100
AcDbEntity
  8
X48002258_BL11
100
AcDbPolyline
 62
9
  6
CONTINUOUS
 90
13
 70
0
 10
328.0974832807
 20
104.6806803342
 10
328.0672620111
 20
104.1828088947
 10
327.9768227452
 20
103.6894755705
 10
327.8256169798
 20
103.1989349549
 10
327.6152902248
 20
102.7164232678
 10
327.3466361121
 20
102.2458675809
 10
327.0216617718
 20
101.7894499317
 10
326.6417844086
 20
101.3498769278
 10
326.2095674316
 20
100.9295019304
 10
325.7265496377
 20
100.5306498176
 10
325.1972220678
 20
100.1561126468
 10
324.6272141921
 20
99.8099033121
 10
324.0146495204
 20
99.4906841821
  0
LINE
  5
485
100
AcDbEntity
  8
X48002258_BL11
100
AcDbLine
 62
9
  6
CONTINUOUS
 10
327.1107834489
 20
111.7059658172
 11
327.1974832807
 21
111.6248783344
  0
LWPOLYLINE
  5
486
100
AcDbEntity
  8
X48002258_BL11
100
AcDbPolyline
 62
9
  6
CONTINUOUS
 90
3
 70
0
 10
327.2768205235
 20
111.5506768372
 10
327.4143910436
 20
111.4220116834
 10
327.5974832807
 20
111.2625263007
  0
LWPOLYLINE
  5
487
100
AcDbEntity
  8
X48002258_BL11
100
AcDbPolyline
 62
9
  6
CONTINUOUS
 90
11
 70
0
 10
324.0146495204
 20
115.7340411904
 10
324.2440447531
 20
115.3131537425
 10
324.4962377715
 20
114.8877853282
 10
324.7722167806
 20
114.4621873678
 10
325.0690171657
 20
114.0375111368
 10
325.3853602611
 20
113.6168362992
 10
325.7171764253
 20
113.2027109369
 10
326.0624031588
 20
112.7993491526
 10
326.4137403698
 20
112.4110608847
 10
326.7707694381
 20
112.0392043691
 10
327.1107834489
 20
111.7059658172
  0
LWPOLYLINE
  5
488
100
AcDbEntity
  8
X48002258_BL11
100
AcDbPolyline
 62
9
  6
CONTINUOUS
 90
17
 70
0
 10
323.6803281937
 20
115.6422685306
 10
323.9260853664
 20
115.1490099889
 10
324.1675860032
 20
114.7092236239
 10
324.4300908709
 20
114.2670150321
 10
324.7130664401
 20
113.8248566819
 10
325.0138260281
 20
113.3849900932
 10
325.3303468933
 20
112.9508714893
 10
325.6582680139
 20
112.5252227468
 10
325.9937396996
 20
112.1139722453
 10
326.3345807542
 20
111.7174077989
 10
326.6576348724
 20
111.3563671854
 10
326.9493782743
 20
111.0466924797
 10
327.1914368417
 20
110.793749981
 10
327.3724381924
 20
110.6090631147
 10
327.4989653579
 20
110.4790000576
 10
327.5732579885
 20
110.3943425085
 10
327.5974832807
 20
110.3549143144
  0
LWPOLYLINE
  5
489
100
AcDbEntity
  8
X48002258_BL11
100
AcDbPolyline
 62
9
  6
CONTINUOUS
 90
4
 70
0
 10
323.8834327396
 20
116.0018230926
 10
323.9253127809
 20
115.9133116152
 10
323.9690517079
 20
115.8240385415
 10
324.0146495204
 20
115.7340411904
  0
LWPOLYLINE
  5
48A
100
AcDbEntity
  8
X48002258_BL11
100
AcDbPolyline
 62
9
  6
CONTINUOUS
 90
4
 70
0
 10
323.5983511901
 20
115.8127827706
 10
323.6249691222
 20
115.7561619805
 10
323.6522946514
 20
115.6993240133
 10
323.6803281937
 20
115.6422685306
  0
LINE
  5
48B
100
AcDbEntity
  8
X48002258_BL11
100
AcDbLine
 62
9
  6
CONTINUOUS
 10
323.8434115838
 20
116.0895365005
 11
323.8834327396
 21
116.0018230926
  0
LWPOLYLINE
  5
48C
100
AcDbEntity
  8
X48002258_BL11
100
AcDbPolyline
 62
9
  6
CONTINUOUS
 90
11
 70
0
 10
361.0974832807
 20
113.8139959232
 10
361.0913274693
 20
113.7529055094
 10
361.0730115954
 20
113.693319302
 10
361.0429866327
 20
113.6367045131
 10
361.0019918733
 20
113.5844551934
 10
360.9510367093
 20
113.5378578931
 10
360.8913758574
 20
113.4980600434
 10
360.8244784246
 20
113.4660416263
 10
360.751991652
 20
113.4425910226
 10
360.6757004227
 20
113.428285651
 10
360.5974832807
 20
113.4234777376
  0
LWPOLYLINE
  5
48D
100
AcDbEntity
  8
X48002258_BL11
100
AcDbPolyline
 62
9
  6
CONTINUOUS
 90
11
 70
0
 10
361.0974832807
 20
105.0711985235
 10
361.091327451
 20
105.0101080195
 10
361.0730115388
 20
104.9505217664
 10
361.0429865428
 20
104.8939069756
 10
361.0019917779
 20
104.8416576911
 10
360.9510366713
 20
104.7950604637
 10
360.8913759068
 20
104.7552626717
 10
360.8244785306
 20
104.723244269
 10
360.7519917779
 20
104.6997936548
 10
360.6757005132
 20
104.6854882611
 10
360.5974832807
 20
104.6806803342
  0
LINE
  5
48E
100
AcDbEntity
  8
X48002258_BL11
100
AcDbLine
 62
9
  6
CONTINUOUS
 10
360.5974832807
 20
104.6806803342
 11
360.5974832807
 21
115.0242739466
  0
LINE
  5
48F
100
AcDbEntity
  8
X48002258_BL11
100
AcDbLine
 62
7
  6
CONTINUOUS
 10
361.0974832807
 20
105.0711985235
 11
361.0974832807
 21
115.0242739466
  0
LWPOLYLINE
  5
490
100
AcDbEntity
  8
X48002258_BL11
100
AcDbPolyline
 62
7
  6
CONTINUOUS
 90
19
 70
0
 10
361.0974832807
 20
105.0711985235
 10
361.0463777877
 20
103.9639933715
 10
360.892988219
 20
102.8593325846
 10
360.6375381333
 20
101.7613585735
 10
360.280462839
 20
100.6735674115
 10
359.8223489581
 20
99.5993077703
 10
359.2644534578
 20
98.5427833719
 10
358.6082644685
 20
97.5077288424
 10
357.8559720198
 20
96.4982557157
 10
357.0101401581
 20
95.5181992233
 10
356.0737940649
 20
94.5712816212
 10
355.0504345542
 20
93.6611063718
 10
353.9437442043
 20
92.7909153451
 10
352.7578926249
 20
91.9638876486
 10
351.4970931487
 20
91.1828236456
 10
350.1659875746
 20
90.4504443355
 10
348.7692342196
 20
89.7691521402
 10
347.3118561538
 20
89.1412413942
 10
345.7988304848
 20
88.5687133233
  0
LWPOLYLINE
  5
491
100
AcDbEntity
  8
X48002258_BL11
100
AcDbPolyline
 62
9
  6
CONTINUOUS
 90
11
 70
0
 10
361.0974832807
 20
114.5167568767
 10
361.091327451
 20
114.5656024066
 10
361.0730115388
 20
114.6132451973
 10
361.0429865428
 20
114.6585121253
 10
361.0019917779
 20
114.7002885687
 10
360.9510366712
 20
114.7375458528
 10
360.8913759068
 20
114.7693665794
 10
360.8244785304
 20
114.7949672169
 10
360.7519917777
 20
114.8137173924
 10
360.6757005131
 20
114.8251554145
 10
360.5974832807
 20
114.828999641
  0
LWPOLYLINE
  5
492
100
AcDbEntity
  8
X48002258_BL11
100
AcDbPolyline
 62
9
  6
CONTINUOUS
 90
4
 70
0
 10
361.0974832807
 20
114.9232212282
 10
361.0913274801
 20
114.9720666433
 10
361.0730116288
 20
115.0197093759
 10
361.0699840104
 20
115.0242739466
  0
LINE
  5
493
100
AcDbEntity
  8
X48002258_BL11
100
AcDbLine
 62
7
  6
CENTER
 10
484.3731259769
 20
135.35205251
 11
485.3504793628
 21
48.4608593656
  0
ARC
  5
494
100
AcDbEntity
  8
X48002258_BL11
100
AcDbCircle
 62
7
  6
CONTINUOUS
 10
455.3465082994
 20
349.1791059292
 40
1.0
100
AcDbArc
 50
38.6444365725
 51
128.6444365725
  0
ARC
  5
495
100
AcDbEntity
  8
X48002258_BL11
100
AcDbCircle
 62
7
  6
CONTINUOUS
 10
454.9400439479
 20
348.8541132498
 40
1.0
100
AcDbArc
 50
128.6444365725
 51
135.9494988109
  0
ARC
  5
496
100
AcDbEntity
  8
X48002258_BL11
100
AcDbCircle
 62
7
  6
CONTINUOUS
 10
505.4230050515
 20
208.6889117844
 40
49.6225274725
100
AcDbArc
 50
21.1375422371
 51
38.6444365725
  0
ARC
  5
497
100
AcDbEntity
  8
X48002258_BL11
100
AcDbCircle
 62
7
  6
CONTINUOUS
 10
542.0718311515
 20
222.8581129146
 40
10.33
100
AcDbArc
 50
263.1747616666
 51
21.1375422371
  0
ARC
  5
498
100
AcDbEntity
  8
X48002258_BL11
100
AcDbCircle
 62
7
  6
CONTINUOUS
 10
544.1276650437
 20
239.6356137769
 40
27.2329875519
100
AcDbArc
 50
220.8466800429
 51
224.9691220486
  0
ARC
  5
499
100
AcDbEntity
  8
X48002258_BL11
100
AcDbCircle
 62
7
  6
CONTINUOUS
 10
544.1276650437
 20
239.6356137769
 40
27.2329875519
100
AcDbArc
 50
211.4564413616
 51
214.6229198204
  0
ARC
  5
49A
100
AcDbEntity
  8
X48002258_BL11
100
AcDbCircle
 62
7
  6
CONTINUOUS
 10
544.1276650437
 20
239.6356137769
 40
27.2329875519
100
AcDbArc
 50
207.1311933508
 51
210.4377636796
  0
ARC
  5
49B
100
AcDbEntity
  8
X48002258_BL11
100
AcDbCircle
 62
7
  6
CONTINUOUS
 10
544.1276650437
 20
239.6356137769
 40
27.2329875519
100
AcDbArc
 50
203.9276376013
 51
204.9200866015
  0
ARC
  5
49C
100
AcDbEntity
  8
X48002258_BL11
100
AcDbCircle
 62
2
  6
CONTINUOUS
 10
544.1152436799
 20
239.6234412554
 40
27.2155968929
100
AcDbArc
 50
222.7442277335
 51
224.9691214448
  0
ARC
  5
49D
100
AcDbEntity
  8
X48002258_BL11
100
AcDbCircle
 62
2
  6
CONTINUOUS
 10
544.1075088011
 20
239.6160087141
 40
27.2048710195
100
AcDbArc
 50
222.7438172
 51
224.9695602828
  0
ARC
  5
49E
100
AcDbEntity
  8
X48002258_BL11
100
AcDbCircle
 62
7
  6
CONTINUOUS
 10
360.5974832807
 20
349.6791059292
 40
0.5
100
AcDbArc
 50
0.0
 51
90.0
  0
ARC
  5
49F
100
AcDbEntity
  8
X48002258_BL11
100
AcDbCircle
 62
7
  6
CONTINUOUS
 10
293.8474832807
 20
213.0281129146
 40
0.5
100
AcDbArc
 50
270.0
 51
360.0
  0
ARC
  5
4A0
100
AcDbEntity
  8
X48002258_BL11
100
AcDbCircle
 62
7
  6
CONTINUOUS
 10
328.0974832807
 20
349.6791059292
 40
0.5
100
AcDbArc
 50
90.0
 51
180.0
  0
ARC
  5
4A1
100
AcDbEntity
  8
X48002258_BL11
100
AcDbCircle
 62
7
  6
CONTINUOUS
 10
271.8474832807
 20
213.0281129146
 40
0.5
100
AcDbArc
 50
180.0
 51
270.0
  0
ARC
  5
4A2
100
AcDbEntity
  8
X48002258_BL11
100
AcDbCircle
 62
7
  6
CONTINUOUS
 10
293.8474832807
 20
17.6491912604
 40
0.5
100
AcDbArc
 50
270.0
 51
360.0
  0
ARC
  5
4A3
100
AcDbEntity
  8
X48002258_BL11
100
AcDbCircle
 62
7
  6
CONTINUOUS
 10
271.8474832807
 20
17.6491912604
 40
0.5
100
AcDbArc
 50
180.0
 51
270.0
  0
SPLINE
  5
4A4
100
AcDbEntity
  8
X48002258_BL11
100
AcDbSpline
 62
2
  6
CONTINUOUS
 70
0
 71
3
 72
12
 73
8
 74
0
 42
0.0000001
 43
0.0000001
 44
0.0000000001
 40
0.0
 40
0.0
 40
0.0
 40
0.0
 40
0.2244288446
 40
0.4488576893
 40
0.6732865339
 40
0.8977153785
 40
1.0
 40
1.0
 40
1.0
 40
1.0
 10
521.1137074784
 20
225.0756217377
 30
0.0
 10
521.1137074784
 20
225.0756217377
 30
0.0
 10
521.1344790624
 20
225.0427101744
 30
0.0
 10
521.2275018567
 20
224.8967268368
 30
0.0
 10
521.379942463
 20
224.6618784695
 30
0.0
 10
521.5511336746
 20
224.4050873763
 30
0.0
 10
521.6703356672
 20
224.2307853554
 30
0.0
 10
521.7093228045
 20
224.1742550111
 30
0.0
  0
LINE
  5
4A5
100
AcDbEntity
  8
X48002258_BL11
100
AcDbLine
 62
2
  6
CONTINUOUS
 10
521.7093228045
 20
224.1742550111
 11
521.728048176
 21
224.1471388474
  0
ENDBLK
  5
4A6
100
AcDbEntity
  8
0
  6
BYBLOCK
 62
0
100
AcDbBlockEnd
  0
BLOCK
  5
4A7
100
AcDbEntity
  8
X48002026_BL12
100
AcDbBlockBegin
  2
X48002026_BL12
 70
64
 10
99.0500529672
 20
283.7106506861
  3
X48002026_BL12
  1

  0
LINE
  5
4A8
100
AcDbEntity
  8
X48002026_BL12
100
AcDbLine
 62
7
  6
CENTER
 10
99.0500529672
 20
199.7106506861
 11
93.0500529672
 21
199.7106506861
  0
LINE
  5
4A9
100
AcDbEntity
  8
X48002026_BL12
100
AcDbLine
 62
7
  6
CENTER
 10
99.0500529672
 20
199.7106506861
 11
105.0500529672
 21
199.7106506861
  0
LINE
  5
4AA
100
AcDbEntity
  8
X48002026_BL12
100
AcDbLine
 62
7
  6
CENTER
 10
99.0500529672
 20
222.7106506861
 11
93.0500529672
 21
222.7106506861
  0
LINE
  5
4AB
100
AcDbEntity
  8
X48002026_BL12
100
AcDbLine
 62
7
  6
CENTER
 10
99.0500529672
 20
222.7106506861
 11
105.0500529672
 21
222.7106506861
  0
LINE
  5
4AC
100
AcDbEntity
  8
X48002026_BL12
100
AcDbLine
 62
7
  6
CENTER
 10
99.0500529672
 20
367.7106506861
 11
99.0500529672
 21
361.7106506861
  0
LINE
  5
4AD
100
AcDbEntity
  8
X48002026_BL12
100
AcDbLine
 62
7
  6
CENTER
 10
99.0500529672
 20
313.2106506861
 11
99.0500529672
 21
307.2106506861
  0
LINE
  5
4AE
100
AcDbEntity
  8
X48002026_BL12
100
AcDbLine
 62
7
  6
CENTER
 10
99.0500529672
 20
222.7106506861
 11
99.0500529672
 21
216.7106506861
  0
LINE
  5
4AF
100
AcDbEntity
  8
X48002026_BL12
100
AcDbLine
 62
7
  6
CENTER
 10
99.0500529672
 20
199.7106506861
 11
99.0500529672
 21
193.7106506861
  0
LINE
  5
4B0
100
AcDbEntity
  8
X48002026_BL12
100
AcDbLine
 62
7
  6
CENTER
 10
99.0500529672
 20
199.7106506861
 11
99.0500529672
 21
205.7106506861
  0
LINE
  5
4B1
100
AcDbEntity
  8
X48002026_BL12
100
AcDbLine
 62
7
  6
CENTER
 10
99.0500529672
 20
222.7106506861
 11
99.0500529672
 21
228.7106506861
  0
LINE
  5
4B2
100
AcDbEntity
  8
X48002026_BL12
100
AcDbLine
 62
7
  6
CENTER
 10
99.0500529672
 20
313.2106506861
 11
99.0500529672
 21
319.2106506861
  0
LINE
  5
4B3
100
AcDbEntity
  8
X48002026_BL12
100
AcDbLine
 62
7
  6
CENTER
 10
99.0500529672
 20
367.7106506861
 11
99.0500529672
 21
373.7106506861
  0
LINE
  5
4B4
100
AcDbEntity
  8
X48002026_BL12
100
AcDbLine
 62
7
  6
CENTER
 10
99.0500529672
 20
313.2106506861
 11
93.0500529672
 21
313.2106506861
  0
LINE
  5
4B5
100
AcDbEntity
  8
X48002026_BL12
100
AcDbLine
 62
7
  6
CENTER
 10
99.0500529672
 20
313.2106506861
 11
105.0500529672
 21
313.2106506861
  0
LINE
  5
4B6
100
AcDbEntity
  8
X48002026_BL12
100
AcDbLine
 62
7
  6
CENTER
 10
99.0500529672
 20
367.7106506861
 11
93.0500529672
 21
367.7106506861
  0
LINE
  5
4B7
100
AcDbEntity
  8
X48002026_BL12
100
AcDbLine
 62
7
  6
CENTER
 10
99.0500529672
 20
367.7106506861
 11
105.0500529672
 21
367.7106506861
  0
ENDBLK
  5
4B8
100
AcDbEntity
  8
0
  6
BYBLOCK
 62
0
100
AcDbBlockEnd
  0
BLOCK
  5
4B9
100
AcDbEntity
  8
X48002028_BL13
100
AcDbBlockBegin
  2
X48002028_BL13
 70
64
 10
179.4415681685
 20
134.388525942
  3
X48002028_BL13
  1

  0
LINE
  5
4BA
100
AcDbEntity
  8
X48002028_BL13
100
AcDbLine
 62
7
  6
CONTINUOUS
 10
185.0500529672
 20
216.3476114805
 11
172.0500529672
 21
216.3476114805
  0
LINE
  5
4BB
100
AcDbEntity
  8
X48002028_BL13
100
AcDbLine
 62
9
  6
CONTINUOUS
 10
172.0500529672
 20
225.5025129882
 11
185.0500529672
 21
225.5025129882
  0
LINE
  5
4BC
100
AcDbEntity
  8
X48002028_BL13
100
AcDbLine
 62
9
  6
CONTINUOUS
 10
172.0500529672
 20
246.6268985895
 11
185.0500529672
 21
246.6268985895
  0
LINE
  5
4BD
100
AcDbEntity
  8
X48002028_BL13
100
AcDbLine
 62
7
  6
CONTINUOUS
 10
185.0500529672
 20
247.8323143378
 11
172.0500529672
 21
247.8323143378
  0
LWPOLYLINE
  5
4BE
100
AcDbEntity
  8
X48002028_BL13
100
AcDbPolyline
 62
9
  6
CONTINUOUS
 90
13
 70
0
 10
187.0500529672
 20
224.7408534082
 10
187.0329427562
 20
224.8402697373
 10
186.9819048564
 20
224.9379850696
 10
186.8978124992
 20
225.032327471
 10
186.7821044869
 20
225.1216827161
 10
186.6367605747
 20
225.2045219088
 10
186.4642676066
 20
225.2794276377
 10
186.2675769584
 20
225.345118235
 10
186.0500540518
 20
225.4004697023
 10
185.8154207595
 20
225.4445349479
 10
185.5676917352
 20
225.4765599904
 10
185.3111057182
 20
225.4959968624
 10
185.0500529672
 20
225.5025129886
  0
LWPOLYLINE
  5
4BF
100
AcDbEntity
  8
X48002028_BL13
100
AcDbPolyline
 62
9
  6
CONTINUOUS
 90
13
 70
0
 10
187.0500529672
 20
244.9905232496
 10
187.0329426951
 20
245.2041130599
 10
186.9819046379
 20
245.4140482974
 10
186.8978120672
 20
245.6167369122
 10
186.7821038272
 20
245.8087108452
 10
186.636759715
 20
245.9866853682
 10
186.4642666066
 20
246.1476152859
 10
186.2675759053
 20
246.2887470411
 10
186.0500530431
 20
246.4076658281
 10
185.8154198964
 20
246.5023369117
 10
185.5676911042
 20
246.5711404416
 10
185.3111053768
 20
246.6128991689
 10
185.0500529672
 20
246.6268985895
  0
LINE
  5
4C0
100
AcDbEntity
  8
X48002028_BL13
100
AcDbLine
 62
7
  6
CONTINUOUS
 10
187.0500529672
 20
234.6465060047
 11
187.0413280049
 21
235.7957997538
  0
LWPOLYLINE
  5
4C1
100
AcDbEntity
  8
X48002028_BL13
100
AcDbPolyline
 62
7
  6
CONTINUOUS
 90
6
 70
0
 10
187.0413280049
 20
235.7957997538
 10
187.0396857531
 20
236.149620865
 10
187.0413321738
 20
236.4845899754
 10
187.0442736625
 20
236.7986620284
 10
187.0470143904
 20
237.0897482767
 10
187.0500529672
 20
237.3570948288
  0
LINE
  5
4C2
100
AcDbEntity
  8
X48002028_BL13
100
AcDbLine
 62
9
  6
CONTINUOUS
 10
185.0500529672
 20
247.8323143378
 11
185.0500529672
 21
216.3476114805
  0
LINE
  5
4C3
100
AcDbEntity
  8
X48002028_BL13
100
AcDbLine
 62
7
  6
CONTINUOUS
 10
187.0500529672
 20
245.8322263625
 11
187.0500529672
 21
237.3570948288
  0
LINE
  5
4C4
100
AcDbEntity
  8
X48002028_BL13
100
AcDbLine
 62
7
  6
CONTINUOUS
 10
187.0500529672
 20
237.1666993698
 11
187.0500529672
 21
234.6721061287
  0
LINE
  5
4C5
100
AcDbEntity
  8
X48002028_BL13
100
AcDbLine
 62
7
  6
CONTINUOUS
 10
187.0500529672
 20
234.6465060047
 11
187.0500529672
 21
218.3476994558
  0
LINE
  5
4C6
100
AcDbEntity
  8
X48002028_BL13
100
AcDbLine
 62
7
  6
CONTINUOUS
 10
185.0500529672
 20
20.9447375462
 11
172.0500529672
 21
20.9447375462
  0
LINE
  5
4C7
100
AcDbEntity
  8
X48002028_BL13
100
AcDbLine
 62
9
  6
CONTINUOUS
 10
172.0500529672
 20
21.4443401385
 11
185.0500529672
 21
21.4443401385
  0
LINE
  5
4C8
100
AcDbEntity
  8
X48002028_BL13
100
AcDbLine
 62
9
  6
CONTINUOUS
 10
172.021140412
 20
38.3345560999
 11
185.0500529672
 21
38.3345560999
  0
LINE
  5
4C9
100
AcDbEntity
  8
X48002028_BL13
100
AcDbLine
 62
7
  6
CONTINUOUS
 10
185.0500529672
 20
48.7764828694
 11
171.8330833698
 21
48.7764828694
  0
LINE
  5
4CA
100
AcDbEntity
  8
X48002028_BL13
100
AcDbLine
 62
7
  6
CONTINUOUS
 10
187.0500529672
 20
28.8844837533
 11
187.0470093878
 21
29.0696098672
  0
LWPOLYLINE
  5
4CB
100
AcDbEntity
  8
X48002028_BL13
100
AcDbPolyline
 62
7
  6
CONTINUOUS
 90
5
 70
0
 10
187.0470093878
 20
29.0696098672
 10
187.0413280049
 20
29.5205003512
 10
187.0396857531
 20
29.7842751833
 10
187.0413321738
 20
30.0713249846
 10
187.0442736625
 20
30.3797450453
  0
LINE
  5
4CC
100
AcDbEntity
  8
X48002028_BL13
100
AcDbLine
 62
9
  6
CONTINUOUS
 10
185.0500529672
 20
48.7764828694
 11
185.0500529672
 21
20.9447375462
  0
LINE
  5
4CD
100
AcDbEntity
  8
X48002028_BL13
100
AcDbLine
 62
7
  6
CONTINUOUS
 10
187.0500529672
 20
46.7764169265
 11
187.0500529672
 21
31.0517624371
  0
LINE
  5
4CE
100
AcDbEntity
  8
X48002028_BL13
100
AcDbLine
 62
7
  6
CONTINUOUS
 10
187.0500529672
 20
30.8014542722
 11
187.0500529672
 21
28.8955002848
  0
LINE
  5
4CF
100
AcDbEntity
  8
X48002028_BL13
100
AcDbLine
 62
7
  6
CONTINUOUS
 10
187.0500529672
 20
28.8844837533
 11
187.0500529672
 21
22.9448034892
  0
LINE
  5
4D0
100
AcDbEntity
  8
X48002028_BL13
100
AcDbLine
 62
7
  6
CONTINUOUS
 10
187.0442736625
 20
30.3797450453
 11
187.0500529672
 21
31.0517624371
  0
LINE
  5
4D1
100
AcDbEntity
  8
X48002028_BL13
100
AcDbLine
 62
9
  6
CONTINUOUS
 10
187.0500529672
 20
23.2936304576
 11
187.0329427562
 21
23.0522500977
  0
LWPOLYLINE
  5
4D2
100
AcDbEntity
  8
X48002028_BL13
100
AcDbPolyline
 62
9
  6
CONTINUOUS
 90
13
 70
0
 10
187.0500529672
 20
39.4844585944
 10
187.0329426951
 20
39.3343662227
 10
186.9819046379
 20
39.1868419675
 10
186.8978120672
 20
39.0444100094
 10
186.7821038272
 20
38.9095073992
 10
186.636759715
 20
38.7844423589
 10
186.4642666066
 20
38.671354787
 10
186.2675759053
 20
38.5721796446
 10
186.0500530431
 20
38.4886138473
 10
185.8154198964
 20
38.4220872306
 10
185.5676911042
 20
38.3737380843
 10
185.3111053768
 20
38.344393677
 10
185.0500529672
 20
38.3345560999
  0
LWPOLYLINE
  5
4D3
100
AcDbEntity
  8
X48002028_BL13
100
AcDbPolyline
 62
9
  6
CONTINUOUS
 90
12
 70
0
 10
187.0329427562
 20
23.0522500977
 10
186.9819048564
 20
22.8149997166
 10
186.8978124992
 20
22.585938729
 10
186.7821044869
 20
22.3689864334
 10
186.6367605747
 20
22.1678549515
 10
186.4642676066
 20
21.9859857226
 10
186.2675769584
 20
21.826490604
 10
186.0500540518
 20
21.692098636
 10
185.8154207595
 20
21.5851093329
 10
185.5676917352
 20
21.5073533428
 10
185.3111057182
 20
21.4601611165
 10
185.0500529672
 20
21.4443401387
  0
ARC
  5
4D4
100
AcDbEntity
  8
X48002028_BL13
100
AcDbCircle
 62
7
  6
CONTINUOUS
 10
185.0500529672
 20
245.8323143378
 40
2.0
100
AcDbArc
 50
0.0
 51
90.0
  0
ARC
  5
4D5
100
AcDbEntity
  8
X48002028_BL13
100
AcDbCircle
 62
7
  6
CONTINUOUS
 10
185.0500529672
 20
218.3476114805
 40
2.0
100
AcDbArc
 50
270.0
 51
360.0
  0
ARC
  5
4D6
100
AcDbEntity
  8
X48002028_BL13
100
AcDbCircle
 62
7
  6
CONTINUOUS
 10
185.0500529672
 20
46.7764828694
 40
2.0
100
AcDbArc
 50
0.0
 51
90.0
  0
ARC
  5
4D7
100
AcDbEntity
  8
X48002028_BL13
100
AcDbCircle
 62
7
  6
CONTINUOUS
 10
185.0500529672
 20
22.9447375462
 40
2.0
100
AcDbArc
 50
270.0
 51
360.0
  0
ENDBLK
  5
4D8
100
AcDbEntity
  8
0
  6
BYBLOCK
 62
0
100
AcDbBlockEnd
  0
BLOCK
  5
4D9
100
AcDbEntity
  8
X48002260_BL14
100
AcDbBlockBegin
  2
X48002260_BL14
 70
64
 10
99.0500529672
 20
286.1106506861
  3
X48002260_BL14
  1

  0
LINE
  5
4DA
100
AcDbEntity
  8
X48002260_BL14
100
AcDbLine
 62
7
  6
CENTER
 10
99.0500529672
 20
179.1406506861
 11
99.0500529672
 21
393.0806506861
  0
ENDBLK
  5
4DB
100
AcDbEntity
  8
0
  6
BYBLOCK
 62
0
100
AcDbBlockEnd
  0
BLOCK
  5
4DC
100
AcDbEntity
  8
X48002254_BL15
100
AcDbBlockBegin
  2
X48002254_BL15
 70
64
 10
344.3474832807
 20
250.8306637616
  3
X48002254_BL15
  1

  0
LINE
  5
4DD
100
AcDbEntity
  8
X48002254_BL15
100
AcDbLine
 62
3
  6
CONTINUOUS
 10
327.1974832807
 20
182.1106506861
 11
361.4974832807
 21
182.1106506861
  0
LINE
  5
4DE
100
AcDbEntity
  8
X48002254_BL15
100
AcDbLine
 62
9
  6
CONTINUOUS
 10
327.1974832807
 20
185.6106506861
 11
361.4974832807
 21
185.6106506861
  0
LINE
  5
4DF
100
AcDbEntity
  8
X48002254_BL15
100
AcDbLine
 62
9
  6
CONTINUOUS
 10
327.6117322283
 20
295.155718569
 11
361.4974832807
 21
295.155718569
  0
LINE
  5
4E0
100
AcDbEntity
  8
X48002254_BL15
100
AcDbLine
 62
9
  6
CONTINUOUS
 10
342.1519899156
 20
303.756815034
 11
361.4974832807
 21
303.756815034
  0
LINE
  5
4E1
100
AcDbEntity
  8
X48002254_BL15
100
AcDbLine
 62
3
  6
CONTINUOUS
 10
327.1974832807
 20
390.1106506861
 11
327.1974832807
 21
336.4212939891
  0
LINE
  5
4E2
100
AcDbEntity
  8
X48002254_BL15
100
AcDbLine
 62
3
  6
CONTINUOUS
 10
327.1974832807
 20
294.856112498
 11
327.1974832807
 21
182.1106506861
  0
LINE
  5
4E3
100
AcDbEntity
  8
X48002254_BL15
100
AcDbLine
 62
9
  6
CONTINUOUS
 10
358.885143485
 20
317.0988817339
 11
361.4974832807
 21
317.0988817339
  0
LINE
  5
4E4
100
AcDbEntity
  8
X48002254_BL15
100
AcDbLine
 62
3
  6
CONTINUOUS
 10
339.0974832807
 20
221.7106506861
 11
339.0974832807
 21
230.760776315
  0
LINE
  5
4E5
100
AcDbEntity
  8
X48002254_BL15
100
AcDbLine
 62
3
  6
CONTINUOUS
 10
349.5974832807
 20
230.760776315
 11
349.5974832807
 21
221.7106506861
  0
LINE
  5
4E6
100
AcDbEntity
  8
X48002254_BL15
100
AcDbLine
 62
9
  6
CONTINUOUS
 10
327.1974832807
 20
347.7849302067
 11
327.5974832807
 21
347.7849302067
  0
LINE
  5
4E7
100
AcDbEntity
  8
X48002254_BL15
100
AcDbLine
 62
9
  6
CONTINUOUS
 10
361.0974832807
 20
347.7849302067
 11
361.4974832807
 21
347.7849302067
  0
LINE
  5
4E8
100
AcDbEntity
  8
X48002254_BL15
100
AcDbLine
 62
9
  6
CONTINUOUS
 10
327.1974832807
 20
349.160036233
 11
327.5974832807
 21
349.160036233
  0
LINE
  5
4E9
100
AcDbEntity
  8
X48002254_BL15
100
AcDbLine
 62
9
  6
CONTINUOUS
 10
361.0974832807
 20
349.160036233
 11
361.4974832807
 21
349.160036233
  0
LINE
  5
4EA
100
AcDbEntity
  8
X48002254_BL15
100
AcDbLine
 62
9
  6
CONTINUOUS
 10
327.1974832807
 20
352.3320583595
 11
361.4974832807
 21
352.3320583595
  0
LINE
  5
4EB
100
AcDbEntity
  8
X48002254_BL15
100
AcDbLine
 62
3
  6
CONTINUOUS
 10
361.4974832807
 20
390.1106506861
 11
361.4974832807
 21
182.1106506861
  0
LINE
  5
4EC
100
AcDbEntity
  8
X48002254_BL15
100
AcDbLine
 62
9
  6
CONTINUOUS
 10
327.1974832807
 20
389.0390135151
 11
361.4974832807
 21
389.0390135151
  0
LINE
  5
4ED
100
AcDbEntity
  8
X48002254_BL15
100
AcDbLine
 62
3
  6
CONTINUOUS
 10
327.1974832807
 20
390.1106506861
 11
361.4974832807
 21
390.1106506861
  0
LINE
  5
4EE
100
AcDbEntity
  8
X48002254_BL15
100
AcDbLine
 62
3
  6
CONTINUOUS
 10
327.1974832807
 20
111.5506768372
 11
327.5974832807
 21
111.5506768372
  0
LINE
  5
4EF
100
AcDbEntity
  8
X48002254_BL15
100
AcDbLine
 62
3
  6
CONTINUOUS
 10
361.0974832807
 20
111.5506768372
 11
361.4974832807
 21
111.5506768372
  0
LINE
  5
4F0
100
AcDbEntity
  8
X48002254_BL15
100
AcDbLine
 62
3
  6
CONTINUOUS
 10
327.1974832807
 20
115.0242739466
 11
361.4974832807
 21
115.0242739466
  0
LINE
  5
4F1
100
AcDbEntity
  8
X48002254_BL15
100
AcDbLine
 62
9
  6
CONTINUOUS
 10
327.1974832807
 20
115.5506739495
 11
361.4974832807
 21
115.5506739495
  0
LINE
  5
4F2
100
AcDbEntity
  8
X48002254_BL15
100
AcDbLine
 62
3
  6
CONTINUOUS
 10
327.1974832807
 20
154.5506768372
 11
327.1974832807
 21
111.550749867
  0
LINE
  5
4F3
100
AcDbEntity
  8
X48002254_BL15
100
AcDbLine
 62
9
  6
CONTINUOUS
 10
327.1974832807
 20
146.3514664823
 11
361.4974832807
 21
146.3514664823
  0
LINE
  5
4F4
100
AcDbEntity
  8
X48002254_BL15
100
AcDbLine
 62
9
  6
CONTINUOUS
 10
327.1974832807
 20
148.6495998117
 11
361.4974832807
 21
148.6495998117
  0
LINE
  5
4F5
100
AcDbEntity
  8
X48002254_BL15
100
AcDbLine
 62
3
  6
CONTINUOUS
 10
361.4974832807
 20
154.5506768372
 11
361.4974832807
 21
111.550749867
  0
LINE
  5
4F6
100
AcDbEntity
  8
X48002254_BL15
100
AcDbLine
 62
3
  6
CONTINUOUS
 10
327.1974832807
 20
154.5506768372
 11
361.4974832807
 21
154.5506768372
  0
ARC
  5
4F7
100
AcDbEntity
  8
X48002254_BL15
100
AcDbCircle
 62
3
  6
CONTINUOUS
 10
344.3474832807
 20
240.7106506861
 40
11.25
100
AcDbArc
 50
297.8181392847
 51
242.1818607153
  0
ARC
  5
4F8
100
AcDbEntity
  8
X48002254_BL15
100
AcDbCircle
 62
3
  6
CONTINUOUS
 10
344.3474832807
 20
221.7106506861
 40
5.25
100
AcDbArc
 50
180.0
 51
360.0
  0
ENDBLK
  5
4F9
100
AcDbEntity
  8
0
  6
BYBLOCK
 62
0
100
AcDbBlockEnd
  0
BLOCK
  5
4FA
100
AcDbEntity
  8
X48002004_BL16
100
AcDbBlockBegin
  2
X48002004_BL16
 70
64
 10
344.3474832807
 20
282.5606506861
  3
X48002004_BL16
  1

  0
LINE
  5
4FB
100
AcDbEntity
  8
X48002004_BL16
100
AcDbLine
 62
7
  6
CENTER
 10
344.3474832807
 20
199.7106506861
 11
338.3474832807
 21
199.7106506861
  0
LINE
  5
4FC
100
AcDbEntity
  8
X48002004_BL16
100
AcDbLine
 62
7
  6
CENTER
 10
344.3474832807
 20
199.7106506861
 11
350.3474832807
 21
199.7106506861
  0
LINE
  5
4FD
100
AcDbEntity
  8
X48002004_BL16
100
AcDbLine
 62
7
  6
CENTER
 10
344.3474832807
 20
313.2106506861
 11
338.3474832807
 21
313.2106506861
  0
LINE
  5
4FE
100
AcDbEntity
  8
X48002004_BL16
100
AcDbLine
 62
7
  6
CENTER
 10
344.3474832807
 20
313.2106506861
 11
350.3474832807
 21
313.2106506861
  0
LINE
  5
4FF
100
AcDbEntity
  8
X48002004_BL16
100
AcDbLine
 62
7
  6
CONTINUOUS
 10
338.9474832807
 20
230.8471907559
 11
338.9474832807
 21
230.8984134285
  0
LINE
  5
500
100
AcDbEntity
  8
X48002004_BL16
100
AcDbLine
 62
7
  6
CENTER
 10
344.3474832807
 20
367.7106506861
 11
344.3474832807
 21
364.0106506861
  0
LINE
  5
501
100
AcDbEntity
  8
X48002004_BL16
100
AcDbLine
 62
7
  6
CENTER
 10
344.3474832807
 20
313.2106506861
 11
344.3474832807
 21
307.2106506861
  0
LINE
  5
502
100
AcDbEntity
  8
X48002004_BL16
100
AcDbLine
 62
7
  6
CENTER
 10
344.3474832807
 20
199.7106506861
 11
344.3474832807
 21
193.7106506861
  0
LINE
  5
503
100
AcDbEntity
  8
X48002004_BL16
100
AcDbLine
 62
7
  6
CENTER
 10
344.3474832807
 20
199.7106506861
 11
344.3474832807
 21
205.7106506861
  0
LINE
  5
504
100
AcDbEntity
  8
X48002004_BL16
100
AcDbLine
 62
7
  6
CENTER
 10
344.3474832807
 20
313.2106506861
 11
344.3474832807
 21
319.2106506861
  0
LINE
  5
505
100
AcDbEntity
  8
X48002004_BL16
100
AcDbLine
 62
7
  6
CENTER
 10
344.3474832807
 20
367.7106506861
 11
344.3474832807
 21
371.4106506861
  0
LINE
  5
506
100
AcDbEntity
  8
X48002004_BL16
100
AcDbLine
 62
7
  6
CONTINUOUS
 10
349.7474832807
 20
230.8984134285
 11
349.7474832807
 21
230.8471907559
  0
LINE
  5
507
100
AcDbEntity
  8
X48002004_BL16
100
AcDbLine
 62
7
  6
CENTER
 10
344.3474832807
 20
367.7106506861
 11
340.6474832807
 21
367.7106506861
  0
LINE
  5
508
100
AcDbEntity
  8
X48002004_BL16
100
AcDbLine
 62
7
  6
CENTER
 10
344.3474832807
 20
367.7106506861
 11
348.0474832807
 21
367.7106506861
  0
ARC
  5
509
100
AcDbEntity
  8
X48002004_BL16
100
AcDbCircle
 62
7
  6
CONTINUOUS
 10
344.3474832807
 20
240.7106506861
 40
11.2
100
AcDbArc
 50
298.8254491604
 51
241.1745508396
  0
ARC
  5
50A
100
AcDbEntity
  8
X48002004_BL16
100
AcDbCircle
 62
7
  6
CONTINUOUS
 10
344.3474832807
 20
222.7106506861
 40
5.4
100
AcDbArc
 50
193.9983462585
 51
196.2782913302
  0
ARC
  5
50B
100
AcDbEntity
  8
X48002004_BL16
100
AcDbCircle
 62
7
  6
CONTINUOUS
 10
344.3474832807
 20
222.7106506861
 40
5.4
100
AcDbArc
 50
343.7217086698
 51
346.0016537415
  0
ARC
  5
50C
100
AcDbEntity
  8
X48002004_BL16
100
AcDbCircle
 62
7
  6
CONTINUOUS
 10
344.3474832807
 20
221.6106506861
 40
5.2
100
AcDbArc
 50
184.5624389353
 51
211.2650106455
  0
ARC
  5
50D
100
AcDbEntity
  8
X48002004_BL16
100
AcDbCircle
 62
7
  6
CONTINUOUS
 10
344.3474832807
 20
221.6106506861
 40
5.2
100
AcDbArc
 50
328.7349893545
 51
355.4375610647
  0
ENDBLK
  5
50E
100
AcDbEntity
  8
0
  6
BYBLOCK
 62
0
100
AcDbBlockEnd
  0
BLOCK
  5
50F
100
AcDbEntity
  8
X48002028_BL17
100
AcDbBlockBegin
  2
X48002028_BL17
 70
64
 10
263.9559680794
 20
134.388525942
  3
X48002028_BL17
  1

  0
LINE
  5
510
100
AcDbEntity
  8
X48002028_BL17
100
AcDbLine
 62
7
  6
CONTINUOUS
 10
258.3474832807
 20
216.3476114805
 11
271.3474832807
 21
216.3476114805
  0
LINE
  5
511
100
AcDbEntity
  8
X48002028_BL17
100
AcDbLine
 62
9
  6
CONTINUOUS
 10
271.3474832807
 20
225.5025129882
 11
258.3474832807
 21
225.5025129882
  0
LINE
  5
512
100
AcDbEntity
  8
X48002028_BL17
100
AcDbLine
 62
7
  6
CONTINUOUS
 10
256.3474832807
 20
237.3570948288
 11
256.3505268601
 21
237.0894907882
  0
LWPOLYLINE
  5
513
100
AcDbEntity
  8
X48002028_BL17
100
AcDbPolyline
 62
7
  6
CONTINUOUS
 90
5
 70
0
 10
256.3505268601
 20
237.0894907882
 10
256.356208243
 20
236.4837802367
 10
256.3578504948
 20
236.1486167848
 10
256.3562040741
 20
235.7948969026
 10
256.3474832807
 20
234.6465060047
  0
LINE
  5
514
100
AcDbEntity
  8
X48002028_BL17
100
AcDbLine
 62
7
  6
CONTINUOUS
 10
256.3474832807
 20
218.3476997849
 11
256.3474832807
 21
234.6465060047
  0
LINE
  5
515
100
AcDbEntity
  8
X48002028_BL17
100
AcDbLine
 62
7
  6
CONTINUOUS
 10
256.3474832807
 20
234.6721061287
 11
256.3474832807
 21
237.1666993698
  0
LINE
  5
516
100
AcDbEntity
  8
X48002028_BL17
100
AcDbLine
 62
7
  6
CONTINUOUS
 10
256.3474832807
 20
237.3570948288
 11
256.3474832807
 21
245.8322260334
  0
LINE
  5
517
100
AcDbEntity
  8
X48002028_BL17
100
AcDbLine
 62
9
  6
CONTINUOUS
 10
258.3474832807
 20
216.3476114805
 11
258.3474832807
 21
247.8323143378
  0
LWPOLYLINE
  5
518
100
AcDbEntity
  8
X48002028_BL17
100
AcDbPolyline
 62
9
  6
CONTINUOUS
 90
13
 70
0
 10
256.3474832807
 20
244.9905232496
 10
256.3645934917
 20
245.2041126824
 10
256.4156313915
 20
245.4140476345
 10
256.4997237487
 20
245.6167360653
 10
256.615431761
 20
245.808709918
 10
256.7607756733
 20
245.9866844601
 10
256.9332686413
 20
246.1476144766
 10
257.1299592895
 20
246.2887463887
 10
257.3474821961
 20
246.4076653597
 10
257.5821154885
 20
246.5023366259
 10
257.8298445128
 20
246.5711403081
 10
258.0864305297
 20
246.6128991346
 10
258.3474832807
 20
246.6268985892
  0
LINE
  5
519
100
AcDbEntity
  8
X48002028_BL17
100
AcDbLine
 62
9
  6
CONTINUOUS
 10
271.3474832807
 20
246.6268985895
 11
258.3474832807
 21
246.6268985895
  0
LINE
  5
51A
100
AcDbEntity
  8
X48002028_BL17
100
AcDbLine
 62
7
  6
CONTINUOUS
 10
258.3474832807
 20
247.8323143378
 11
271.3474832807
 21
247.8323143378
  0
LWPOLYLINE
  5
51B
100
AcDbEntity
  8
X48002028_BL17
100
AcDbPolyline
 62
9
  6
CONTINUOUS
 90
13
 70
0
 10
256.3474832807
 20
224.7408534082
 10
256.3645935528
 20
224.8402699182
 10
256.4156316101
 20
224.9379853878
 10
256.4997241807
 20
225.0323278785
 10
256.6154324207
 20
225.1216831637
 10
256.7607765329
 20
225.2045223493
 10
256.9332696413
 20
225.2794280329
 10
257.1299603426
 20
225.3451185568
 10
257.3474832048
 20
225.4004699369
 10
257.5821163515
 20
225.4445350948
 10
257.8298451437
 20
225.4765600626
 10
258.0864308711
 20
225.4959968836
 10
258.3474832807
 20
225.5025129882
  0
LINE
  5
51C
100
AcDbEntity
  8
X48002028_BL17
100
AcDbLine
 62
7
  6
CONTINUOUS
 10
258.3474832807
 20
20.9447375462
 11
271.3474832807
 21
20.9447375462
  0
LINE
  5
51D
100
AcDbEntity
  8
X48002028_BL17
100
AcDbLine
 62
9
  6
CONTINUOUS
 10
271.3474832807
 20
21.4443401385
 11
258.3474832807
 21
21.4443401385
  0
LINE
  5
51E
100
AcDbEntity
  8
X48002028_BL17
100
AcDbLine
 62
9
  6
CONTINUOUS
 10
271.3763958359
 20
38.3345560999
 11
258.3474832807
 21
38.3345560999
  0
LWPOLYLINE
  5
51F
100
AcDbEntity
  8
X48002028_BL17
100
AcDbPolyline
 62
9
  6
CONTINUOUS
 90
12
 70
0
 10
256.3645935528
 20
23.0522496699
 10
256.4156316101
 20
22.8149989654
 10
256.4997241807
 20
22.5859377689
 10
256.6154324207
 20
22.368985382
 10
256.7607765329
 20
22.1678539213
 10
256.9332696413
 20
21.9859848038
 10
257.1299603426
 20
21.8264898626
 10
257.3474832048
 20
21.6920981028
 10
257.5821163515
 20
21.5851090068
 10
257.8298451437
 20
21.5073531897
 10
258.0864308711
 20
21.4601610766
 10
258.3474832807
 20
21.4443401385
  0
LINE
  5
520
100
AcDbEntity
  8
X48002028_BL17
100
AcDbLine
 62
9
  6
CONTINUOUS
 10
256.3474832807
 20
23.2936304576
 11
256.3645935528
 21
23.0522496699
  0
LWPOLYLINE
  5
521
100
AcDbEntity
  8
X48002028_BL17
100
AcDbPolyline
 62
7
  6
CONTINUOUS
 90
5
 70
0
 10
256.3474832807
 20
31.0517624371
 10
256.3532692556
 20
30.3792006721
 10
256.356208243
 20
30.0705820981
 10
256.3578504948
 20
29.7834723608
 10
256.3562040741
 20
29.5198739193
  0
LWPOLYLINE
  5
522
100
AcDbEntity
  8
X48002028_BL17
100
AcDbPolyline
 62
9
  6
CONTINUOUS
 90
13
 70
0
 10
256.3474832807
 20
39.4844585944
 10
256.3645934917
 20
39.3343664933
 10
256.4156313915
 20
39.1868424431
 10
256.4997237487
 20
39.0444106181
 10
256.615431761
 20
38.9095080673
 10
256.7607756733
 20
38.7844430152
 10
256.9332686413
 20
38.6713553747
 10
257.1299592895
 20
38.5721801216
 10
257.3474821961
 20
38.4886141936
 10
257.5821154885
 20
38.4220874457
 10
257.8298445128
 20
38.3737381885
 10
258.0864305297
 20
38.3443937065
 10
258.3474832807
 20
38.3345560995
  0
LINE
  5
523
100
AcDbEntity
  8
X48002028_BL17
100
AcDbLine
 62
7
  6
CONTINUOUS
 10
256.3474832807
 20
22.9448023875
 11
256.3474832807
 21
28.8844837533
  0
LINE
  5
524
100
AcDbEntity
  8
X48002028_BL17
100
AcDbLine
 62
7
  6
CONTINUOUS
 10
256.3474832807
 20
28.8955002848
 11
256.3474832807
 21
30.8014542722
  0
LINE
  5
525
100
AcDbEntity
  8
X48002028_BL17
100
AcDbLine
 62
7
  6
CONTINUOUS
 10
256.3474832807
 20
31.0517624371
 11
256.3474832807
 21
46.7764180281
  0
LINE
  5
526
100
AcDbEntity
  8
X48002028_BL17
100
AcDbLine
 62
9
  6
CONTINUOUS
 10
258.3474832807
 20
20.9447375462
 11
258.3474832807
 21
48.7764828694
  0
LWPOLYLINE
  5
527
100
AcDbEntity
  8
X48002028_BL17
100
AcDbPolyline
 62
7
  6
CONTINUOUS
 90
3
 70
0
 10
256.3562040741
 20
29.5198739193
 10
256.3505218575
 20
29.0694268844
 10
256.3474832807
 20
28.8844837533
  0
LINE
  5
528
100
AcDbEntity
  8
X48002028_BL17
100
AcDbLine
 62
7
  6
CONTINUOUS
 10
258.3474832807
 20
48.7764828694
 11
271.5644528781
 21
48.7764828694
  0
ARC
  5
529
100
AcDbEntity
  8
X48002028_BL17
100
AcDbCircle
 62
7
  6
CONTINUOUS
 10
258.3474832807
 20
245.8323143378
 40
2.0
100
AcDbArc
 50
90.0
 51
180.0
  0
ARC
  5
52A
100
AcDbEntity
  8
X48002028_BL17
100
AcDbCircle
 62
7
  6
CONTINUOUS
 10
258.3474832807
 20
218.3476114805
 40
2.0
100
AcDbArc
 50
180.0
 51
270.0
  0
ARC
  5
52B
100
AcDbEntity
  8
X48002028_BL17
100
AcDbCircle
 62
7
  6
CONTINUOUS
 10
258.3474832807
 20
46.7764828694
 40
2.0
100
AcDbArc
 50
90.0
 51
180.0
  0
ARC
  5
52C
100
AcDbEntity
  8
X48002028_BL17
100
AcDbCircle
 62
7
  6
CONTINUOUS
 10
258.3474832807
 20
22.9447375462
 40
2.0
100
AcDbArc
 50
180.0
 51
270.0
  0
ENDBLK
  5
52D
100
AcDbEntity
  8
0
  6
BYBLOCK
 62
0
100
AcDbBlockEnd
  0
BLOCK
  5
52E
100
AcDbEntity
  8
X48002262_BL18
100
AcDbBlockBegin
  2
X48002262_BL18
 70
64
 10
344.3474832807
 20
286.1106506861
  3
X48002262_BL18
  1

  0
LINE
  5
52F
100
AcDbEntity
  8
X48002262_BL18
100
AcDbLine
 62
7
  6
CENTER
 10
344.3474832807
 20
179.1406506861
 11
344.3474832807
 21
393.0806506861
  0
ENDBLK
  5
530
100
AcDbEntity
  8
0
  6
BYBLOCK
 62
0
100
AcDbBlockEnd
  0
BLOCK
  5
531
100
AcDbEntity
  8
B_7100_4210_BD01_BL19
100
AcDbBlockBegin
  2
B_7100_4210_BD01_BL19
 70
64
 10
484.86779392
 20
91.3738063572
  3
B_7100_4210_BD01_BL19
  1

  0
LINE
  5
532
100
AcDbEntity
  8
B_7100_4210_BD01_BL19
100
AcDbLine
 62
7
  6
CENTER
 10
507.8752979873
 20
91.6325950927
 11
461.8602898527
 21
91.1150176217
  0
ENDBLK
  5
533
100
AcDbEntity
  8
0
  6
BYBLOCK
 62
0
100
AcDbBlockEnd
  0
BLOCK
  5
534
100
AcDbEntity
  8
0
100
AcDbBlockBegin
  2
_FILLED
 70
64
 10
0.0
 20
0.0
  3
_FILLED
  1

  0
SOLID
  5
535
100
AcDbEntity
  8
0
  6
BYBLOCK
 62
0
100
AcDbTrace
 10
0.0
 20
0.0
 11
-1.0
 21
0.125
 12
-1.0
 22
-0.125
 13
-1.0
 23
-0.125
  0
ENDBLK
  5
536
100
AcDbEntity
  8
0
  6
BYBLOCK
 62
0
100
AcDbBlockEnd
  0
BLOCK
  5
537
100
AcDbEntity
  8
0
100
AcDbBlockBegin
  2
XSEC_FILLED
 70
64
 10
0.0
 20
0.0
  3
XSEC_FILLED
  1

  0
SOLID
  5
538
100
AcDbEntity
  8
0
  6
BYBLOCK
 62
0
100
AcDbTrace
 10
0.0
 20
0.0
 11
-1.0
 21
0.15
 12
-1.0
 22
-0.15
 13
-1.0
 23
-0.15
  0
ENDBLK
  5
539
100
AcDbEntity
  8
0
  6
BYBLOCK
 62
0
100
AcDbBlockEnd
  0
BLOCK
  5
53A
100
AcDbEntity
  8
0
100
AcDbBlockBegin
 62
2
  6
CONTINUOUS
  2
*D0
 70
65
 10
0.0
 20
0.0
  3
*D0
  1

  0
MTEXT
  5
53B
100
AcDbEntity
  8
0
100
AcDbMText
 62
5
  6
CONTINUOUS
  7
TEXTSTYLE_2
 71
2
 72
1
 10
61.9000529672
 20
351.2106506861
 30
0.0
 11
0.0
 21
1.0
 31
0.0
 73
2
 44
0.9
  1
33
 40
4.0
 41
6.2388059701
  0
LINE
  5
53C
100
AcDbEntity
  8
0
100
AcDbLine
 62
2
  6
CONTINUOUS
 10
78.9300529672
 20
334.7106506861
 11
65.4000529672
 21
334.7106506861
  0
LINE
  5
53D
100
AcDbEntity
  8
0
100
AcDbLine
 62
2
  6
CONTINUOUS
 10
93.0500529672
 20
367.7106506861
 11
65.4000529672
 21
367.7106506861
  0
LINE
  5
53E
100
AcDbEntity
  8
0
100
AcDbLine
 62
2
  6
CONTINUOUS
 10
66.9000529672
 20
334.7106506861
 11
66.9000529672
 21
351.2106506861
  0
LINE
  5
53F
100
AcDbEntity
  8
0
100
AcDbLine
 62
2
  6
CONTINUOUS
 10
66.9000529672
 20
367.7106506861
 11
66.9000529672
 21
351.2106506861
  0
INSERT
  5
540
100
AcDbEntity
  8
0
100
AcDbBlockReference
 62
2
  6
CONTINUOUS
  2
_FILLED
 10
66.9000529672
 20
334.7106506861
 41
3.5
 42
3.5
 43
3.5
 50
270.0
  0
INSERT
  5
541
100
AcDbEntity
  8
0
100
AcDbBlockReference
 62
2
  6
CONTINUOUS
  2
_FILLED
 10
66.9000529672
 20
367.7106506861
 41
3.5
 42
3.5
 43
3.5
 50
90.0
  0
ENDBLK
  5
542
100
AcDbEntity
  8
0
  6
BYBLOCK
 62
0
100
AcDbBlockEnd
  0
BLOCK
  5
543
100
AcDbEntity
  8
0
100
AcDbBlockBegin
 62
2
  6
CONTINUOUS
  2
*D1
 70
65
 10
0.0
 20
0.0
  3
*D1
  1

  0
MTEXT
  5
544
100
AcDbEntity
  8
0
100
AcDbMText
 62
5
  6
CONTINUOUS
  7
TEXTSTYLE_2
 71
2
 72
1
 10
61.9000529672
 20
323.9606506861
 30
0.0
 11
0.0
 21
1.0
 31
0.0
 73
2
 44
0.9
  1
21.5
 40
4.0
 41
10.9104477612
  0
LINE
  5
545
100
AcDbEntity
  8
0
100
AcDbLine
 62
2
  6
CONTINUOUS
 10
78.9300529672
 20
334.7106506861
 11
65.4000529672
 21
334.7106506861
  0
LINE
  5
546
100
AcDbEntity
  8
0
100
AcDbLine
 62
2
  6
CONTINUOUS
 10
93.0500529672
 20
313.2106506861
 11
65.4000529672
 21
313.2106506861
  0
LINE
  5
547
100
AcDbEntity
  8
0
100
AcDbLine
 62
2
  6
CONTINUOUS
 10
66.9000529672
 20
334.7106506861
 11
66.9000529672
 21
323.9606506861
  0
LINE
  5
548
100
AcDbEntity
  8
0
100
AcDbLine
 62
2
  6
CONTINUOUS
 10
66.9000529672
 20
313.2106506861
 11
66.9000529672
 21
323.9606506861
  0
INSERT
  5
549
100
AcDbEntity
  8
0
100
AcDbBlockReference
 62
2
  6
CONTINUOUS
  2
_FILLED
 10
66.9000529672
 20
334.7106506861
 41
3.5
 42
3.5
 43
3.5
 50
90.0
  0
INSERT
  5
54A
100
AcDbEntity
  8
0
100
AcDbBlockReference
 62
2
  6
CONTINUOUS
  2
_FILLED
 10
66.9000529672
 20
313.2106506861
 41
3.5
 42
3.5
 43
3.5
 50
270.0
  0
ENDBLK
  5
54B
100
AcDbEntity
  8
0
  6
BYBLOCK
 62
0
100
AcDbBlockEnd
  0
BLOCK
  5
54C
100
AcDbEntity
  8
0
100
AcDbBlockBegin
 62
2
  6
CONTINUOUS
  2
*D2
 70
65
 10
0.0
 20
0.0
  3
*D2
  1

  0
MTEXT
  5
54D
100
AcDbEntity
  8
0
100
AcDbMText
 62
5
  6
CONTINUOUS
  7
TEXTSTYLE_2
 71
2
 72
1
 10
51.9000529672
 20
278.7106506861
 30
0.0
 11
0.0
 21
1.0
 31
0.0
 73
2
 44
0.9
  1
112
 40
4.0
 41
9.3582089552
  0
LINE
  5
54E
100
AcDbEntity
  8
0
100
AcDbLine
 62
2
  6
CONTINUOUS
 10
78.9300529672
 20
334.7106506861
 11
55.4000529672
 21
334.7106506861
  0
LINE
  5
54F
100
AcDbEntity
  8
0
100
AcDbLine
 62
2
  6
CONTINUOUS
 10
93.0500529672
 20
222.7106506861
 11
55.4000529672
 21
222.7106506861
  0
LINE
  5
550
100
AcDbEntity
  8
0
100
AcDbLine
 62
2
  6
CONTINUOUS
 10
56.9000529672
 20
334.7106506861
 11
56.9000529672
 21
278.7106506861
  0
LINE
  5
551
100
AcDbEntity
  8
0
100
AcDbLine
 62
2
  6
CONTINUOUS
 10
56.9000529672
 20
222.7106506861
 11
56.9000529672
 21
278.7106506861
  0
INSERT
  5
552
100
AcDbEntity
  8
0
100
AcDbBlockReference
 62
2
  6
CONTINUOUS
  2
_FILLED
 10
56.9000529672
 20
334.7106506861
 41
3.5
 42
3.5
 43
3.5
 50
90.0
  0
INSERT
  5
553
100
AcDbEntity
  8
0
100
AcDbBlockReference
 62
2
  6
CONTINUOUS
  2
_FILLED
 10
56.9000529672
 20
222.7106506861
 41
3.5
 42
3.5
 43
3.5
 50
270.0
  0
ENDBLK
  5
554
100
AcDbEntity
  8
0
  6
BYBLOCK
 62
0
100
AcDbBlockEnd
  0
BLOCK
  5
555
100
AcDbEntity
  8
0
100
AcDbBlockBegin
 62
2
  6
CONTINUOUS
  2
*D3
 70
65
 10
0.0
 20
0.0
  3
*D3
  1

  0
MTEXT
  5
556
100
AcDbEntity
  8
0
100
AcDbMText
 62
5
  6
CONTINUOUS
  7
TEXTSTYLE_2
 71
2
 72
1
 10
41.9000529672
 20
267.2106506861
 30
0.0
 11
0.0
 21
1.0
 31
0.0
 73
2
 44
0.9
  1
135
 40
4.0
 41
9.3582089552
  0
LINE
  5
557
100
AcDbEntity
  8
0
100
AcDbLine
 62
2
  6
CONTINUOUS
 10
78.9300529672
 20
334.7106506861
 11
45.4000529672
 21
334.7106506861
  0
LINE
  5
558
100
AcDbEntity
  8
0
100
AcDbLine
 62
2
  6
CONTINUOUS
 10
93.0500529672
 20
199.7106506861
 11
45.4000529672
 21
199.7106506861
  0
LINE
  5
559
100
AcDbEntity
  8
0
100
AcDbLine
 62
2
  6
CONTINUOUS
 10
46.9000529672
 20
334.7106506861
 11
46.9000529672
 21
267.2106506861
  0
LINE
  5
55A
100
AcDbEntity
  8
0
100
AcDbLine
 62
2
  6
CONTINUOUS
 10
46.9000529672
 20
199.7106506861
 11
46.9000529672
 21
267.2106506861
  0
INSERT
  5
55B
100
AcDbEntity
  8
0
100
AcDbBlockReference
 62
2
  6
CONTINUOUS
  2
_FILLED
 10
46.9000529672
 20
334.7106506861
 41
3.5
 42
3.5
 43
3.5
 50
90.0
  0
INSERT
  5
55C
100
AcDbEntity
  8
0
100
AcDbBlockReference
 62
2
  6
CONTINUOUS
  2
_FILLED
 10
46.9000529672
 20
199.7106506861
 41
3.5
 42
3.5
 43
3.5
 50
270.0
  0
ENDBLK
  5
55D
100
AcDbEntity
  8
0
  6
BYBLOCK
 62
0
100
AcDbBlockEnd
  0
BLOCK
  5
55E
100
AcDbEntity
  8
0
100
AcDbBlockBegin
 62
2
  6
CONTINUOUS
  2
*D4
 70
65
 10
0.0
 20
0.0
  3
*D4
  1

  0
MTEXT
  5
55F
100
AcDbEntity
  8
0
100
AcDbMText
 62
5
  6
CONTINUOUS
  7
TEXTSTYLE_2
 71
2
 72
1
 10
372.9428854414
 20
287.7106506861
 30
0.0
 11
0.0
 21
1.0
 31
0.0
 73
2
 44
0.9
  1
94
 40
4.0
 41
6.2388059701
  0
LINE
  5
560
100
AcDbEntity
  8
0
100
AcDbLine
 62
2
  6
CONTINUOUS
 10
356.4516342241
 20
240.7106506861
 11
379.4428854414
 21
240.7106506861
  0
LINE
  5
561
100
AcDbEntity
  8
0
100
AcDbLine
 62
2
  6
CONTINUOUS
 10
377.9428854414
 20
334.7106506861
 11
377.9428854414
 21
287.7106506861
  0
LINE
  5
562
100
AcDbEntity
  8
0
100
AcDbLine
 62
2
  6
CONTINUOUS
 10
377.9428854414
 20
240.7106506861
 11
377.9428854414
 21
287.7106506861
  0
INSERT
  5
563
100
AcDbEntity
  8
0
100
AcDbBlockReference
 62
2
  6
CONTINUOUS
  2
_FILLED
 10
377.9428854414
 20
334.7106506861
 41
3.5
 42
3.5
 43
3.5
 50
90.0
  0
INSERT
  5
564
100
AcDbEntity
  8
0
100
AcDbBlockReference
 62
2
  6
CONTINUOUS
  2
_FILLED
 10
377.9428854414
 20
240.7106506861
 41
3.5
 42
3.5
 43
3.5
 50
270.0
  0
ENDBLK
  5
565
100
AcDbEntity
  8
0
  6
BYBLOCK
 62
0
100
AcDbBlockEnd
  0
BLOCK
  5
566
100
AcDbEntity
  8
0
100
AcDbBlockBegin
 62
2
  6
CONTINUOUS
  2
*D5
 70
65
 10
0.0
 20
0.0
  3
*D5
  1

  0
MTEXT
  5
567
100
AcDbEntity
  8
0
100
AcDbMText
 62
5
  6
CONTINUOUS
  7
TEXTSTYLE_2
 71
2
 72
1
 10
382.7376447622
 20
294.9171975626
 30
0.0
 11
0.0
 21
1.0
 31
0.0
 73
2
 44
0.9
  1
208
 40
4.0
 41
9.3582089552
  0
LINE
  5
568
100
AcDbEntity
  8
0
100
AcDbLine
 62
2
  6
CONTINUOUS
 10
361.4974832807
 20
182.1106506861
 11
389.2376447622
 21
182.1106506861
  0
LINE
  5
569
100
AcDbEntity
  8
0
100
AcDbLine
 62
2
  6
CONTINUOUS
 10
361.4974832807
 20
390.1106506861
 11
389.2376447622
 21
390.1106506861
  0
LINE
  5
56A
100
AcDbEntity
  8
0
100
AcDbLine
 62
2
  6
CONTINUOUS
 10
387.7376447622
 20
182.1106506861
 11
387.7376447622
 21
286.1106506861
  0
LINE
  5
56B
100
AcDbEntity
  8
0
100
AcDbLine
 62
2
  6
CONTINUOUS
 10
387.7376447622
 20
390.1106506861
 11
387.7376447622
 21
286.1106506861
  0
INSERT
  5
56C
100
AcDbEntity
  8
0
100
AcDbBlockReference
 62
2
  6
CONTINUOUS
  2
_FILLED
 10
387.7376447622
 20
182.1106506861
 41
3.5
 42
3.5
 43
3.5
 50
270.0
  0
INSERT
  5
56D
100
AcDbEntity
  8
0
100
AcDbBlockReference
 62
2
  6
CONTINUOUS
  2
_FILLED
 10
387.7376447622
 20
390.1106506861
 41
3.5
 42
3.5
 43
3.5
 50
90.0
  0
ENDBLK
  5
56E
100
AcDbEntity
  8
0
  6
BYBLOCK
 62
0
100
AcDbBlockEnd
  0
BLOCK
  5
56F
100
AcDbEntity
  8
0
100
AcDbBlockBegin
 62
2
  6
CONTINUOUS
  2
*D6
 70
65
 10
0.0
 20
0.0
  3
*D6
  1

  0
MTEXT
  5
570
100
AcDbEntity
  8
0
100
AcDbMText
 62
5
  6
CONTINUOUS
  7
TEXTSTYLE_2
 71
2
 72
1
 10
99.0500529672
 20
410.1106506861
 30
0.0
 11
1.0
 21
0.0
 31
0.0
 73
2
 44
0.9
  1
34
 40
4.0
 41
6.2388059701
  0
LINE
  5
571
100
AcDbEntity
  8
0
100
AcDbLine
 62
2
  6
CONTINUOUS
 10
81.9000529672
 20
389.0390135151
 11
81.9000529672
 21
406.6106506861
  0
LINE
  5
572
100
AcDbEntity
  8
0
100
AcDbLine
 62
2
  6
CONTINUOUS
 10
116.2000529672
 20
389.0390135151
 11
116.2000529672
 21
406.6106506861
  0
LINE
  5
573
100
AcDbEntity
  8
0
100
AcDbLine
 62
2
  6
CONTINUOUS
 10
81.9000529672
 20
405.1106506861
 11
99.0500529672
 21
405.1106506861
  0
LINE
  5
574
100
AcDbEntity
  8
0
100
AcDbLine
 62
2
  6
CONTINUOUS
 10
116.2000529672
 20
405.1106506861
 11
99.0500529672
 21
405.1106506861
  0
INSERT
  5
575
100
AcDbEntity
  8
0
100
AcDbBlockReference
 62
2
  6
CONTINUOUS
  2
_FILLED
 10
81.9000529672
 20
405.1106506861
 41
3.5
 42
3.5
 43
3.5
 50
180.0
  0
INSERT
  5
576
100
AcDbEntity
  8
0
100
AcDbBlockReference
 62
2
  6
CONTINUOUS
  2
_FILLED
 10
116.2000529672
 20
405.1106506861
 41
3.5
 42
3.5
 43
3.5
  0
ENDBLK
  5
577
100
AcDbEntity
  8
0
  6
BYBLOCK
 62
0
100
AcDbBlockEnd
  0
BLOCK
  5
578
100
AcDbEntity
  8
0
100
AcDbBlockBegin
 62
2
  6
CONTINUOUS
  2
*D7
 70
65
 10
0.0
 20
0.0
  3
*D7
  1

  0
MTEXT
  5
579
100
AcDbEntity
  8
0
100
AcDbMText
 62
5
  6
CONTINUOUS
  7
TEXTSTYLE_2
 71
2
 72
1
 10
193.2753314847
 20
362.4106506861
 30
0.0
 11
0.0
 21
1.0
 31
0.0
 73
2
 44
0.9
  1
55
 40
4.0
 41
6.2388059701
  0
LINE
  5
57A
100
AcDbEntity
  8
0
100
AcDbLine
 62
2
  6
CONTINUOUS
 10
116.2000529672
 20
390.1106506861
 11
199.7753314847
 21
390.1106506861
  0
LINE
  5
57B
100
AcDbEntity
  8
0
100
AcDbLine
 62
2
  6
CONTINUOUS
 10
198.2753314847
 20
334.7106506861
 11
198.2753314847
 21
362.4106506861
  0
LINE
  5
57C
100
AcDbEntity
  8
0
100
AcDbLine
 62
2
  6
CONTINUOUS
 10
198.2753314847
 20
390.1106506861
 11
198.2753314847
 21
362.4106506861
  0
INSERT
  5
57D
100
AcDbEntity
  8
0
100
AcDbBlockReference
 62
2
  6
CONTINUOUS
  2
_FILLED
 10
198.2753314847
 20
334.7106506861
 41
3.5
 42
3.5
 43
3.5
 50
270.0
  0
INSERT
  5
57E
100
AcDbEntity
  8
0
100
AcDbBlockReference
 62
2
  6
CONTINUOUS
  2
_FILLED
 10
198.2753314847
 20
390.1106506861
 41
3.5
 42
3.5
 43
3.5
 50
90.0
  0
ENDBLK
  5
57F
100
AcDbEntity
  8
0
  6
BYBLOCK
 62
0
100
AcDbBlockEnd
  0
BLOCK
  5
580
100
AcDbEntity
  8
0
100
AcDbBlockBegin
 62
2
  6
CONTINUOUS
  2
*D8
 70
65
 10
0.0
 20
0.0
  3
*D8
  1

  0
MTEXT
  5
581
100
AcDbEntity
  8
0
100
AcDbMText
 62
5
  6
CONTINUOUS
  7
TEXTSTYLE_2
 71
2
 72
1
 10
193.2753314847
 20
281.4048166225
 30
0.0
 11
0.0
 21
1.0
 31
0.0
 73
2
 44
0.9
  1
122
 40
4.0
 41
9.3582089552
  0
LINE
  5
582
100
AcDbEntity
  8
0
100
AcDbLine
 62
2
  6
CONTINUOUS
 10
171.5500529672
 20
212.5281129146
 11
199.7753314847
 21
212.5281129146
  0
LINE
  5
583
100
AcDbEntity
  8
0
100
AcDbLine
 62
2
  6
CONTINUOUS
 10
198.2753314847
 20
334.7106506861
 11
198.2753314847
 21
273.6193818003
  0
LINE
  5
584
100
AcDbEntity
  8
0
100
AcDbLine
 62
2
  6
CONTINUOUS
 10
198.2753314847
 20
212.5281129146
 11
198.2753314847
 21
273.6193818003
  0
INSERT
  5
585
100
AcDbEntity
  8
0
100
AcDbBlockReference
 62
2
  6
CONTINUOUS
  2
_FILLED
 10
198.2753314847
 20
334.7106506861
 41
3.5
 42
3.5
 43
3.5
 50
90.0
  0
INSERT
  5
586
100
AcDbEntity
  8
0
100
AcDbBlockReference
 62
2
  6
CONTINUOUS
  2
_FILLED
 10
198.2753314847
 20
212.5281129146
 41
3.5
 42
3.5
 43
3.5
 50
270.0
  0
ENDBLK
  5
587
100
AcDbEntity
  8
0
  6
BYBLOCK
 62
0
100
AcDbBlockEnd
  0
BLOCK
  5
588
100
AcDbEntity
  8
0
100
AcDbBlockBegin
 62
2
  6
CONTINUOUS
  2
*D9
 70
65
 10
0.0
 20
0.0
  3
*D9
  1

  0
MTEXT
  5
589
100
AcDbEntity
  8
0
100
AcDbMText
 62
5
  6
CONTINUOUS
  7
TEXTSTYLE_2
 71
2
 72
1
 10
115.4750529672
 20
172.1106506861
 30
0.0
 11
1.0
 21
0.0
 31
0.0
 73
2
 44
0.9
  1
67
 40
4.0
 41
6.2388059701
  0
LINE
  5
58A
100
AcDbEntity
  8
0
100
AcDbLine
 62
2
  6
CONTINUOUS
 10
81.9000529672
 20
185.6106506861
 11
81.9000529672
 21
165.6106506861
  0
LINE
  5
58B
100
AcDbEntity
  8
0
100
AcDbLine
 62
2
  6
CONTINUOUS
 10
149.0500529672
 20
213.0281129146
 11
149.0500529672
 21
165.6106506861
  0
LINE
  5
58C
100
AcDbEntity
  8
0
100
AcDbLine
 62
2
  6
CONTINUOUS
 10
81.9000529672
 20
167.1106506861
 11
115.4750529672
 21
167.1106506861
  0
LINE
  5
58D
100
AcDbEntity
  8
0
100
AcDbLine
 62
2
  6
CONTINUOUS
 10
149.0500529672
 20
167.1106506861
 11
115.4750529672
 21
167.1106506861
  0
INSERT
  5
58E
100
AcDbEntity
  8
0
100
AcDbBlockReference
 62
2
  6
CONTINUOUS
  2
_FILLED
 10
81.9000529672
 20
167.1106506861
 41
3.5
 42
3.5
 43
3.5
 50
180.0
  0
INSERT
  5
58F
100
AcDbEntity
  8
0
100
AcDbBlockReference
 62
2
  6
CONTINUOUS
  2
_FILLED
 10
149.0500529672
 20
167.1106506861
 41
3.5
 42
3.5
 43
3.5
  0
ENDBLK
  5
590
100
AcDbEntity
  8
0
  6
BYBLOCK
 62
0
100
AcDbBlockEnd
  0
BLOCK
  5
591
100
AcDbEntity
  8
0
100
AcDbBlockBegin
 62
2
  6
CONTINUOUS
  2
*D10
 70
65
 10
0.0
 20
0.0
  3
*D10
  1

  0
MTEXT
  5
592
100
AcDbEntity
  8
0
100
AcDbMText
 62
5
  6
CONTINUOUS
  7
TEXTSTYLE_2
 71
2
 72
1
 10
160.5500529672
 20
172.1106506861
 30
0.0
 11
1.0
 21
0.0
 31
0.0
 73
2
 44
0.9
  1
23
 40
4.0
 41
6.2388059701
  0
LINE
  5
593
100
AcDbEntity
  8
0
100
AcDbLine
 62
2
  6
CONTINUOUS
 10
149.0500529672
 20
213.0281129146
 11
149.0500529672
 21
165.6106506861
  0
LINE
  5
594
100
AcDbEntity
  8
0
100
AcDbLine
 62
2
  6
CONTINUOUS
 10
172.0500529672
 20
213.0281129146
 11
172.0500529672
 21
165.6106506861
  0
LINE
  5
595
100
AcDbEntity
  8
0
100
AcDbLine
 62
2
  6
CONTINUOUS
 10
149.0500529672
 20
167.1106506861
 11
160.5500529672
 21
167.1106506861
  0
LINE
  5
596
100
AcDbEntity
  8
0
100
AcDbLine
 62
2
  6
CONTINUOUS
 10
172.0500529672
 20
167.1106506861
 11
160.5500529672
 21
167.1106506861
  0
INSERT
  5
597
100
AcDbEntity
  8
0
100
AcDbBlockReference
 62
2
  6
CONTINUOUS
  2
_FILLED
 10
149.0500529672
 20
167.1106506861
 41
3.5
 42
3.5
 43
3.5
 50
180.0
  0
INSERT
  5
598
100
AcDbEntity
  8
0
100
AcDbBlockReference
 62
2
  6
CONTINUOUS
  2
_FILLED
 10
172.0500529672
 20
167.1106506861
 41
3.5
 42
3.5
 43
3.5
  0
ENDBLK
  5
599
100
AcDbEntity
  8
0
  6
BYBLOCK
 62
0
100
AcDbBlockEnd
  0
BLOCK
  5
59A
100
AcDbEntity
  8
0
100
AcDbBlockBegin
 62
2
  6
CONTINUOUS
  2
*D11
 70
65
 10
0.0
 20
0.0
  3
*D11
  1

  0
MTEXT
  5
59B
100
AcDbEntity
  8
0
100
AcDbMText
 62
5
  6
CONTINUOUS
  7
TEXTSTYLE_2
 71
2
 72
1
 10
420.1503455747
 20
172.1106506861
 30
0.0
 11
1.0
 21
0.0
 31
0.0
 73
2
 44
0.9
  1
10
 40
4.0
 41
6.2388059701
  0
LINE
  5
59C
100
AcDbEntity
  8
0
100
AcDbLine
 62
2
  6
CONTINUOUS
 10
415.0003455747
 20
183.6106506861
 11
415.0003455747
 21
165.6106506861
  0
LINE
  5
59D
100
AcDbEntity
  8
0
100
AcDbLine
 62
2
  6
CONTINUOUS
 10
425.3003455747
 20
185.6106506861
 11
425.3003455747
 21
165.6106506861
  0
LINE
  5
59E
100
AcDbEntity
  8
0
100
AcDbLine
 62
2
  6
CONTINUOUS
 10
415.0003455747
 20
167.1106506861
 11
409.0003455747
 21
167.1106506861
  0
LINE
  5
59F
100
AcDbEntity
  8
0
100
AcDbLine
 62
2
  6
CONTINUOUS
 10
409.0003455747
 20
167.1106506861
 11
420.1503455747
 21
167.1106506861
  0
LINE
  5
5A0
100
AcDbEntity
  8
0
100
AcDbLine
 62
2
  6
CONTINUOUS
 10
425.3003455747
 20
167.1106506861
 11
431.3003455747
 21
167.1106506861
  0
LINE
  5
5A1
100
AcDbEntity
  8
0
100
AcDbLine
 62
2
  6
CONTINUOUS
 10
431.3003455747
 20
167.1106506861
 11
420.1503455747
 21
167.1106506861
  0
INSERT
  5
5A2
100
AcDbEntity
  8
0
100
AcDbBlockReference
 62
2
  6
CONTINUOUS
  2
_FILLED
 10
415.0003455747
 20
167.1106506861
 41
3.5
 42
3.5
 43
3.5
  0
INSERT
  5
5A3
100
AcDbEntity
  8
0
100
AcDbBlockReference
 62
2
  6
CONTINUOUS
  2
_FILLED
 10
425.3003455747
 20
167.1106506861
 41
3.5
 42
3.5
 43
3.5
 50
180.0
  0
ENDBLK
  5
5A4
100
AcDbEntity
  8
0
  6
BYBLOCK
 62
0
100
AcDbBlockEnd
  0
BLOCK
  5
5A5
100
AcDbEntity
  8
0
100
AcDbBlockBegin
 62
2
  6
CONTINUOUS
  2
*D12
 70
65
 10
0.0
 20
0.0
  3
*D12
  1

  0
MTEXT
  5
5A6
100
AcDbEntity
  8
0
100
AcDbMText
 62
5
  6
CONTINUOUS
  7
TEXTSTYLE_2
 71
2
 72
1
 10
459.0879826878
 20
258.1283735737
 30
0.0
 11
0.943672713
 21
0.3308803571
 31
0.0
 73
2
 44
0.9
  1
(39\fSymbol_ASME;°\fArial Unicode MS;)
 40
4.0
 41
12.1679514515
  0
ARC
  5
5A7
100
AcDbEntity
  8
0
100
AcDbCircle
 62
2
  6
CONTINUOUS
 10
425.3003455747
 20
354.490912164
 40
100.1143636579
100
AcDbArc
 50
270.0
 51
289.3222182863
  0
ARC
  5
5A8
100
AcDbEntity
  8
0
100
AcDbCircle
 62
2
  6
CONTINUOUS
 10
425.3003455747
 20
354.490912164
 40
100.1143636579
100
AcDbArc
 50
289.3222182863
 51
308.6444365725
  0
SOLID
  5
5A9
100
AcDbEntity
  8
0
100
AcDbTrace
 62
2
  6
CONTINUOUS
 10
428.7921637599
 20
254.8751585853
 11
425.3003455747
 21
254.3765485061
 12
428.8074579891
 22
254.0002922604
 13
428.8074579891
 23
254.0002922604
  0
SOLID
  5
5AA
100
AcDbEntity
  8
0
100
AcDbTrace
 62
2
  6
CONTINUOUS
 10
485.3161010801
 20
273.8139413656
 11
487.820316879
 21
276.297952131
 12
484.7817050702
 22
274.5067948165
 13
484.7817050702
 23
274.5067948165
  0
ENDBLK
  5
5AB
100
AcDbEntity
  8
0
  6
BYBLOCK
 62
0
100
AcDbBlockEnd
  0
BLOCK
  5
5AC
100
AcDbEntity
  8
0
100
AcDbBlockBegin
 62
2
  6
CONTINUOUS
  2
*D13
 70
65
 10
0.0
 20
0.0
  3
*D13
  1

  0
MTEXT
  5
5AD
100
AcDbEntity
  8
0
100
AcDbMText
 62
5
  6
CONTINUOUS
  7
TEXTSTYLE_2
 71
2
 72
1
 10
562.3880052125
 20
301.3193818003
 30
0.0
 11
0.0
 21
1.0
 31
0.0
 73
2
 44
0.9
  1
(178)
 40
4.0
 41
13.0895522388
  0
LINE
  5
5AE
100
AcDbEntity
  8
0
100
AcDbLine
 62
2
  6
CONTINUOUS
 10
420.9014226002
 20
390.1106506861
 11
568.8880052125
 21
390.1106506861
  0
LINE
  5
5AF
100
AcDbEntity
  8
0
100
AcDbLine
 62
2
  6
CONTINUOUS
 10
542.0718311515
 20
212.5281129146
 11
568.8880052125
 21
212.5281129146
  0
LINE
  5
5B0
100
AcDbEntity
  8
0
100
AcDbLine
 62
2
  6
CONTINUOUS
 10
567.3880052125
 20
390.1106506861
 11
567.3880052125
 21
301.3193818003
  0
LINE
  5
5B1
100
AcDbEntity
  8
0
100
AcDbLine
 62
2
  6
CONTINUOUS
 10
567.3880052125
 20
212.5281129146
 11
567.3880052125
 21
301.3193818003
  0
INSERT
  5
5B2
100
AcDbEntity
  8
0
100
AcDbBlockReference
 62
2
  6
CONTINUOUS
  2
_FILLED
 10
567.3880052125
 20
390.1106506861
 41
3.5
 42
3.5
 43
3.5
 50
90.0
  0
INSERT
  5
5B3
100
AcDbEntity
  8
0
100
AcDbBlockReference
 62
2
  6
CONTINUOUS
  2
_FILLED
 10
567.3880052125
 20
212.5281129146
 41
3.5
 42
3.5
 43
3.5
 50
270.0
  0
ENDBLK
  5
5B4
100
AcDbEntity
  8
0
  6
BYBLOCK
 62
0
100
AcDbBlockEnd
  0
BLOCK
  5
5B5
100
AcDbEntity
  8
0
100
AcDbBlockBegin
 62
2
  6
CONTINUOUS
  2
*D14
 70
65
 10
0.0
 20
0.0
  3
*D14
  1

  0
MTEXT
  5
5B6
100
AcDbEntity
  8
0
100
AcDbMText
 62
5
  6
CONTINUOUS
  7
TEXTSTYLE_2
 71
2
 72
1
 10
483.7010883631
 20
410.1106506861
 30
0.0
 11
1.0
 21
0.0
 31
0.0
 73
2
 44
0.9
  1
137
 40
4.0
 41
9.3582089552
  0
LINE
  5
5B7
100
AcDbEntity
  8
0
100
AcDbLine
 62
2
  6
CONTINUOUS
 10
415.0003455747
 20
388.6106506861
 11
415.0003455747
 21
406.6106506861
  0
LINE
  5
5B8
100
AcDbEntity
  8
0
100
AcDbLine
 62
2
  6
CONTINUOUS
 10
552.4018311515
 20
222.8581129146
 11
552.4018311515
 21
406.6106506861
  0
LINE
  5
5B9
100
AcDbEntity
  8
0
100
AcDbLine
 62
2
  6
CONTINUOUS
 10
415.0003455747
 20
405.1106506861
 11
483.7010883631
 21
405.1106506861
  0
LINE
  5
5BA
100
AcDbEntity
  8
0
100
AcDbLine
 62
2
  6
CONTINUOUS
 10
552.4018311515
 20
405.1106506861
 11
483.7010883631
 21
405.1106506861
  0
INSERT
  5
5BB
100
AcDbEntity
  8
0
100
AcDbBlockReference
 62
2
  6
CONTINUOUS
  2
_FILLED
 10
415.0003455747
 20
405.1106506861
 41
3.5
 42
3.5
 43
3.5
 50
180.0
  0
INSERT
  5
5BC
100
AcDbEntity
  8
0
100
AcDbBlockReference
 62
2
  6
CONTINUOUS
  2
_FILLED
 10
552.4018311515
 20
405.1106506861
 41
3.5
 42
3.5
 43
3.5
  0
ENDBLK
  5
5BD
100
AcDbEntity
  8
0
  6
BYBLOCK
 62
0
100
AcDbBlockEnd
  0
BLOCK
  5
5BE
100
AcDbEntity
  8
0
100
AcDbBlockBegin
 62
2
  6
CONTINUOUS
  2
*D15
 70
65
 10
0.0
 20
0.0
  3
*D15
  1

  0
MTEXT
  5
5BF
100
AcDbEntity
  8
0
100
AcDbMText
 62
5
  6
CONTINUOUS
  7
TEXTSTYLE_2
 71
2
 72
1
 10
61.9000529672
 20
134.7874753919
 30
0.0
 11
0.0
 21
1.0
 31
0.0
 73
2
 44
0.9
  1
40
 40
4.0
 41
6.2388059701
  0
LINE
  5
5C0
100
AcDbEntity
  8
0
100
AcDbLine
 62
2
  6
CONTINUOUS
 10
81.9000529672
 20
154.5506768372
 11
65.4000529672
 21
154.5506768372
  0
LINE
  5
5C1
100
AcDbEntity
  8
0
100
AcDbLine
 62
2
  6
CONTINUOUS
 10
81.9000529672
 20
115.0242739466
 11
65.4000529672
 21
115.0242739466
  0
LINE
  5
5C2
100
AcDbEntity
  8
0
100
AcDbLine
 62
2
  6
CONTINUOUS
 10
66.9000529672
 20
154.5506768372
 11
66.9000529672
 21
134.7874753919
  0
LINE
  5
5C3
100
AcDbEntity
  8
0
100
AcDbLine
 62
2
  6
CONTINUOUS
 10
66.9000529672
 20
115.0242739466
 11
66.9000529672
 21
134.7874753919
  0
INSERT
  5
5C4
100
AcDbEntity
  8
0
100
AcDbBlockReference
 62
2
  6
CONTINUOUS
  2
_FILLED
 10
66.9000529672
 20
154.5506768372
 41
3.5
 42
3.5
 43
3.5
 50
90.0
  0
INSERT
  5
5C5
100
AcDbEntity
  8
0
100
AcDbBlockReference
 62
2
  6
CONTINUOUS
  2
_FILLED
 10
66.9000529672
 20
115.0242739466
 41
3.5
 42
3.5
 43
3.5
 50
270.0
  0
ENDBLK
  5
5C6
100
AcDbEntity
  8
0
  6
BYBLOCK
 62
0
100
AcDbBlockEnd
  0
BLOCK
  5
5C7
100
AcDbEntity
  8
0
100
AcDbBlockBegin
 62
2
  6
CONTINUOUS
  2
*D16
 70
65
 10
0.0
 20
0.0
  3
*D16
  1

  0
MTEXT
  5
5C8
100
AcDbEntity
  8
0
100
AcDbMText
 62
5
  6
CONTINUOUS
  7
TEXTSTYLE_2
 71
2
 72
1
 10
484.86779392
 20
42.3494390828
 30
0.0
 11
1.0
 21
0.0
 31
0.0
 73
2
 44
0.9
  1
20
 40
4.0
 41
6.2388059701
  0
LINE
  5
5C9
100
AcDbEntity
  8
0
100
AcDbLine
 62
2
  6
CONTINUOUS
 10
464.8782261068
 20
92.2737648452
 11
464.8782261068
 21
35.8494390828
  0
LINE
  5
5CA
100
AcDbEntity
  8
0
100
AcDbLine
 62
2
  6
CONTINUOUS
 10
504.8573617332
 20
90.4738478692
 11
504.8573617332
 21
35.8494390828
  0
LINE
  5
5CB
100
AcDbEntity
  8
0
100
AcDbLine
 62
2
  6
CONTINUOUS
 10
464.8782261068
 20
37.3494390828
 11
484.86779392
 21
37.3494390828
  0
LINE
  5
5CC
100
AcDbEntity
  8
0
100
AcDbLine
 62
2
  6
CONTINUOUS
 10
504.8573617332
 20
37.3494390828
 11
484.86779392
 21
37.3494390828
  0
INSERT
  5
5CD
100
AcDbEntity
  8
0
100
AcDbBlockReference
 62
2
  6
CONTINUOUS
  2
_FILLED
 10
464.8782261068
 20
37.3494390828
 41
3.5
 42
3.5
 43
3.5
 50
180.0
  0
INSERT
  5
5CE
100
AcDbEntity
  8
0
100
AcDbBlockReference
 62
2
  6
CONTINUOUS
  2
_FILLED
 10
504.8573617332
 20
37.3494390828
 41
3.5
 42
3.5
 43
3.5
  0
ENDBLK
  5
5CF
100
AcDbEntity
  8
0
  6
BYBLOCK
 62
0
100
AcDbBlockEnd
  0
BLOCK
  5
5D0
100
AcDbEntity
  8
0
100
AcDbBlockBegin
 62
2
  6
CONTINUOUS
  2
*D17
 70
65
 10
0.0
 20
0.0
  3
*D17
  1

  0
MTEXT
  5
5D1
100
AcDbEntity
  8
0
100
AcDbMText
 62
5
  6
CONTINUOUS
  7
TEXTSTYLE_2
 71
2
 72
1
 10
444.7280389807
 20
91.3738063572
 30
0.0
 11
0.0
 21
1.0
 31
0.0
 73
2
 44
0.9
  1
40
 40
4.0
 41
6.2388059701
  0
LINE
  5
5D2
100
AcDbEntity
  8
0
100
AcDbLine
 62
2
  6
CONTINUOUS
 10
484.6056867741
 20
131.3363323114
 11
448.2280389807
 21
131.3363323114
  0
LINE
  5
5D3
100
AcDbEntity
  8
0
100
AcDbLine
 62
2
  6
CONTINUOUS
 10
485.1299010659
 20
51.4112804031
 11
448.2280389807
 21
51.4112804031
  0
LINE
  5
5D4
100
AcDbEntity
  8
0
100
AcDbLine
 62
2
  6
CONTINUOUS
 10
449.7280389807
 20
131.3363323114
 11
449.7280389807
 21
91.3738063572
  0
LINE
  5
5D5
100
AcDbEntity
  8
0
100
AcDbLine
 62
2
  6
CONTINUOUS
 10
449.7280389807
 20
51.4112804031
 11
449.7280389807
 21
91.3738063572
  0
INSERT
  5
5D6
100
AcDbEntity
  8
0
100
AcDbBlockReference
 62
2
  6
CONTINUOUS
  2
_FILLED
 10
449.7280389807
 20
131.3363323114
 41
3.5
 42
3.5
 43
3.5
 50
90.0
  0
INSERT
  5
5D7
100
AcDbEntity
  8
0
100
AcDbBlockReference
 62
2
  6
CONTINUOUS
  2
_FILLED
 10
449.7280389807
 20
51.4112804031
 41
3.5
 42
3.5
 43
3.5
 50
270.0
  0
ENDBLK
  5
5D8
100
AcDbEntity
  8
0
  6
BYBLOCK
 62
0
100
AcDbBlockEnd
  0
BLOCK
  5
5D9
100
AcDbEntity
  8
0
100
AcDbBlockBegin
 62
2
  6
CONTINUOUS
  2
*D18
 70
65
 10
0.0
 20
0.0
  3
*D18
  1

  0
MTEXT
  5
5DA
100
AcDbEntity
  8
0
100
AcDbMText
 62
5
  6
CONTINUOUS
  7
TEXTSTYLE_2
 71
1
 72
1
 10
507.6618913123
 20
114.6001668455
 30
0.0
 11
0.983276179
 21
0.1821207179
 31
0.0
 73
2
 44
0.9
  1
1.5
 40
4.0
 41
7.7910447761
  0
LINE
  5
5DB
100
AcDbEntity
  8
0
100
AcDbLine
 62
2
  6
CONTINUOUS
 10
500.2351510915
 20
108.1395575101
 11
494.3354940178
 21
107.0468332024
  0
LINE
  5
5DC
100
AcDbEntity
  8
0
100
AcDbLine
 62
2
  6
CONTINUOUS
 10
494.3354940178
 20
107.0468332024
 11
501.71006536
 21
108.412738587
  0
LINE
  5
5DD
100
AcDbEntity
  8
0
100
AcDbLine
 62
2
  6
CONTINUOUS
 10
503.1849796284
 20
108.6859196639
 11
516.2332436396
 21
111.1026966189
  0
LINE
  5
5DE
100
AcDbEntity
  8
0
100
AcDbLine
 62
2
  6
CONTINUOUS
 10
516.2332436396
 20
111.1026966189
 11
501.71006536
 21
108.412738587
  0
INSERT
  5
5DF
100
AcDbEntity
  8
0
100
AcDbBlockReference
 62
2
  6
CONTINUOUS
  2
_FILLED
 10
500.2351510915
 20
108.1395575101
 41
3.5
 42
3.5
 43
3.5
 50
10.4933100597
  0
INSERT
  5
5E0
100
AcDbEntity
  8
0
100
AcDbBlockReference
 62
2
  6
CONTINUOUS
  2
_FILLED
 10
503.1849796284
 20
108.6859196639
 41
3.5
 42
3.5
 43
3.5
 50
190.4933100597
  0
ENDBLK
  5
5E1
100
AcDbEntity
  8
0
  6
BYBLOCK
 62
0
100
AcDbBlockEnd
  0
BLOCK
  5
5E2
100
AcDbEntity
  8
0
100
AcDbBlockBegin
  2
*T1
 70
1
 10
0.0
 20
0.0
  3
*T1
  1

  0
LINE
  5
5E3
100
AcDbEntity
  8
0
100
AcDbLine
 62
2
  6
CONTINUOUS
 10
0.0
 20
0.0
 11
42.0
 21
0.0
  0
LINE
  5
5E4
100
AcDbEntity
  8
0
100
AcDbLine
 62
2
  6
CONTINUOUS
 10
0.0
 20
0.0
 11
0.0
 21
-50.0
  0
LINE
  5
5E5
100
AcDbEntity
  8
0
100
AcDbLine
 62
2
  6
CONTINUOUS
 10
0.0
 20
-20.0
 11
42.0
 21
-20.0
  0
LINE
  5
5E6
100
AcDbEntity
  8
0
100
AcDbLine
 62
2
  6
CONTINUOUS
 10
0.0
 20
-32.0
 11
42.0
 21
-32.0
  0
LINE
  5
5E7
100
AcDbEntity
  8
0
100
AcDbLine
 62
2
  6
CONTINUOUS
 10
0.0
 20
-41.0
 11
42.0
 21
-41.0
  0
LINE
  5
5E8
100
AcDbEntity
  8
0
100
AcDbLine
 62
2
  6
CONTINUOUS
 10
0.0
 20
-50.0
 11
42.0
 21
-50.0
  0
LINE
  5
5E9
100
AcDbEntity
  8
0
100
AcDbLine
 62
2
  6
CONTINUOUS
 10
11.0
 20
-41.0
 11
11.0
 21
-50.0
  0
LINE
  5
5EA
100
AcDbEntity
  8
0
100
AcDbLine
 62
2
  6
CONTINUOUS
 10
33.0
 20
-41.0
 11
33.0
 21
-50.0
  0
LINE
  5
5EB
100
AcDbEntity
  8
0
100
AcDbLine
 62
2
  6
CONTINUOUS
 10
42.0
 20
0.0
 11
42.0
 21
-50.0
  0
MTEXT
  5
5EC
100
AcDbEntity
  8
0
100
AcDbMText
 62
5
  6
CONTINUOUS
  7
TEXTSTYLE_4
 71
2
 72
1
 10
21.0
 20
-24.5
 30
0.0
 11
1.0
 21
0.0
 31
0.0
 73
2
 44
0.9
  1
B-74000-40-0_BD01
 40
3.0
 41
76.6567164179
  0
MTEXT
  5
5ED
100
AcDbEntity
  8
0
100
AcDbMText
 62
5
  6
CONTINUOUS
  7
TEXTSTYLE_4
 71
1
 72
1
 10
1.4
 20
-33.75
 30
0.0
 11
1.0
 21
0.0
 31
0.0
 73
2
 44
0.9
  1
Scale\P1:1 
 40
2.5
 41
17.5186567164
  0
MTEXT
  5
5EE
100
AcDbEntity
  8
0
100
AcDbMText
 62
5
  6
CONTINUOUS
  7
TEXTSTYLE_4
 71
2
 72
1
 10
5.5
 20
-44.25
 30
0.0
 11
1.0
 21
0.0
 31
0.0
 73
2
 44
0.9
  1
Draft
 40
2.5
 41
15.1679104478
  0
MTEXT
  5
5EF
100
AcDbEntity
  8
0
100
AcDbMText
 62
5
  6
CONTINUOUS
  7
TEXTSTYLE_4
 71
2
 72
1
 10
22.0
 20
-44.25
 30
0.0
 11
1.0
 21
0.0
 31
0.0
 73
2
 44
0.9
  1
06.08.2019
 40
2.5
 41
35.0746268657
  0
MTEXT
  5
5F0
100
AcDbEntity
  8
0
100
AcDbMText
 62
5
  6
CONTINUOUS
  7
TEXTSTYLE_4
 71
2
 72
1
 10
37.5
 20
-44.5
 30
0.0
 11
1.0
 21
0.0
 31
0.0
 73
2
 44
0.9
  1
EB-RT
 40
2.0
 41
16.7910447761
  0
ENDBLK
  5
5F1
100
AcDbEntity
  8
0
  6
BYBLOCK
 62
0
100
AcDbBlockEnd
  0
ENDSEC
  0
SECTION
  2
ENTITIES
  0
INSERT
  5
5F2
100
AcDbEntity
  8
Grp_symbol_75_BL1
100
AcDbBlockReference
  2
GRP_SYMBOL_75_BL1
 10
46.0313322015
 20
45.3702309773
  0
DIMENSION
  5
5F3
100
AcDbEntity
  8
0
100
AcDbDimension
 62
2
  6
CONTINUOUS
  2
*D0
 10
66.9000529672
 20
367.7106506861
 11
66.9000529672
 21
351.2148086559
 70
160
 71
2
 72
2
 41
0.9
 42
33.0
  3
DIMSTYLE_1
100
AcDbAlignedDimension
 13
78.9300529672
 23
334.7106506861
 14
93.0500529672
 24
367.7106506861
 50
90.0
100
AcDbRotatedDimension
  0
DIMENSION
  5
5F4
100
AcDbEntity
  8
0
100
AcDbDimension
 62
2
  6
CONTINUOUS
  2
*D1
 10
66.9000529672
 20
313.2106506861
 11
66.9000529672
 21
323.9330490092
 70
160
 71
2
 72
2
 41
0.9
 42
21.5
  3
DIMSTYLE_2
100
AcDbAlignedDimension
 13
78.9300529672
 23
334.7106506861
 14
93.0500529672
 24
313.2106506861
 50
270.0
100
AcDbRotatedDimension
  0
DIMENSION
  5
5F5
100
AcDbEntity
  8
0
100
AcDbDimension
 62
2
  6
CONTINUOUS
  2
*D2
 10
56.9000529672
 20
222.7106506861
 11
56.9000529672
 21
278.8756815423
 70
160
 71
2
 72
2
 41
0.9
 42
112.0
  3
DIMSTYLE_1
100
AcDbAlignedDimension
 13
78.9300529672
 23
334.7106506861
 14
93.0500529672
 24
222.7106506861
 50
270.0
100
AcDbRotatedDimension
  0
DIMENSION
  5
5F6
100
AcDbEntity
  8
0
100
AcDbDimension
 62
2
  6
CONTINUOUS
  2
*D3
 10
46.9000529672
 20
199.7106506861
 11
46.9000529672
 21
267.4055343866
 70
160
 71
2
 72
2
 41
0.9
 42
135.0
  3
DIMSTYLE_3
100
AcDbAlignedDimension
 13
78.9300529672
 23
334.7106506861
 14
93.0500529672
 24
199.7106506861
 50
270.0
100
AcDbRotatedDimension
  0
DIMENSION
  5
5F7
100
AcDbEntity
  8
0
100
AcDbDimension
 62
2
  6
CONTINUOUS
  2
*D4
 10
377.9428854414
 20
240.7106506861
 11
377.9428854414
 21
287.6924191444
 70
160
 71
2
 72
2
 41
0.9
 42
94.0
  3
DIMSTYLE_1
100
AcDbAlignedDimension
 13
379.3465444247
 23
334.7106506861
 14
356.4516342241
 24
240.7106506861
 50
270.0
100
AcDbRotatedDimension
  0
DIMENSION
  5
5F8
100
AcDbEntity
  8
0
100
AcDbDimension
 62
2
  6
CONTINUOUS
  2
*D5
 10
387.7376447622
 20
390.1106506861
 11
387.7376447622
 21
294.8807363477
 70
160
 71
2
 72
2
 41
0.9
 42
208.0
  3
DIMSTYLE_3
100
AcDbAlignedDimension
 13
361.4974832807
 23
182.1106506861
 14
361.4974832807
 24
390.1106506861
 50
90.0
100
AcDbRotatedDimension
  0
DIMENSION
  5
5F9
100
AcDbEntity
  8
0
100
AcDbDimension
 62
2
  6
CONTINUOUS
  2
*D6
 10
116.2000529672
 20
405.1106506861
 11
99.0392851868
 21
405.1106506861
 70
160
 71
2
 72
2
 41
0.9
 42
34.3
  3
DIMSTYLE_4
100
AcDbAlignedDimension
 13
81.9000529672
 23
389.0390135151
 14
116.2000529672
 24
389.0390135151
100
AcDbRotatedDimension
  0
DIMENSION
  5
5FA
100
AcDbEntity
  8
0
100
AcDbDimension
 62
2
  6
CONTINUOUS
  2
*D7
 10
198.2753314847
 20
390.1106506861
 11
198.2753314847
 21
362.4148081535
 70
160
 71
2
 72
2
 41
0.9
 42
55.4
  3
DIMSTYLE_4
100
AcDbAlignedDimension
 13
78.9300529672
 23
334.7106506861
 14
116.2000529672
 24
390.1106506861
 50
90.0
100
AcDbRotatedDimension
  0
DIMENSION
  5
5FB
100
AcDbEntity
  8
0
100
AcDbDimension
 62
2
  6
CONTINUOUS
  2
*D8
 10
198.2753314847
 20
212.5281129146
 11
198.2753314847
 21
281.5698477622
 70
160
 71
2
 72
2
 41
0.9
 42
122.1825377715
  3
DIMSTYLE_5
100
AcDbAlignedDimension
 13
78.9300529672
 23
334.7106506861
 14
171.5500529672
 24
212.5281129146
 50
270.0
100
AcDbRotatedDimension
  0
DIMENSION
  5
5FC
100
AcDbEntity
  8
0
100
AcDbDimension
 62
2
  6
CONTINUOUS
  2
*D9
 10
149.0500529672
 20
167.1106506861
 11
115.4642879333
 21
167.1106506861
 70
160
 71
2
 72
2
 41
0.9
 42
67.15
  3
DIMSTYLE_4
100
AcDbAlignedDimension
 13
81.9000529672
 23
185.6106506861
 14
149.0500529672
 24
213.0281129146
100
AcDbRotatedDimension
  0
DIMENSION
  5
5FD
100
AcDbEntity
  8
0
100
AcDbDimension
 62
2
  6
CONTINUOUS
  2
*D10
 10
172.0500529672
 20
167.1106506861
 11
160.5168893738
 21
167.1106506861
 70
160
 71
2
 72
2
 41
0.9
 42
23.0
  3
DIMSTYLE_6
100
AcDbAlignedDimension
 13
149.0500529672
 23
213.0281129146
 14
172.0500529672
 24
213.0281129146
100
AcDbRotatedDimension
  0
DIMENSION
  5
5FE
100
AcDbEntity
  8
0
100
AcDbDimension
 62
2
  6
CONTINUOUS
  2
*D11
 10
425.3003455747
 20
167.1106506861
 11
420.3336005859
 21
167.1106506861
 70
160
 71
2
 72
2
 41
0.9
 42
10.3
  3
DIMSTYLE_6
100
AcDbAlignedDimension
 13
415.0003455747
 23
183.6106506861
 14
425.3003455747
 24
185.6106506861
100
AcDbRotatedDimension
  0
DIMENSION
  5
5FF
100
AcDbEntity
  8
0
100
AcDbDimension
 62
2
  6
CONTINUOUS
  2
*D12
 10
487.820316879
 20
276.297952131
 11
458.4262219736
 21
260.0157189997
 70
162
 71
2
 72
2
 41
0.9
 42
0.6744726558
  1
(<>)
  3
DIMSTYLE_7
100
AcDb2LineAngularDimension
 13
425.3003455747
 23
255.3776921427
 14
425.3003455747
 24
254.3765485061
 15
487.195117166
 25
277.0798817313
 16
458.4262219736
 26
260.0157189997
1001
ACAD
1000
DSTYLE
1002
{
1070
77
1070
2
1002
}
  0
DIMENSION
  5
600
100
AcDbEntity
  8
0
100
AcDbDimension
 62
2
  6
CONTINUOUS
  2
*D13
 10
567.3880052125
 20
212.5281129146
 11
567.3880052125
 21
301.3193818003
 70
160
 71
2
 72
2
 41
0.9
 42
177.5825377715
  1
(<>)
  3
DIMSTYLE_5
100
AcDbAlignedDimension
 13
420.9014226002
 23
390.1106506861
 14
542.0718311515
 24
212.5281129146
 50
270.0
100
AcDbRotatedDimension
  0
DIMENSION
  5
601
100
AcDbEntity
  8
0
100
AcDbDimension
 62
2
  6
CONTINUOUS
  2
*D14
 10
552.4018311515
 20
405.1106506861
 11
483.8810322876
 21
405.1106506861
 70
160
 71
2
 72
2
 41
0.9
 42
137.4014855768
  3
DIMSTYLE_5
100
AcDbAlignedDimension
 13
415.0003455747
 23
388.6106506861
 14
552.4018311515
 24
222.8581129146
100
AcDbRotatedDimension
  0
DIMENSION
  5
602
100
AcDbEntity
  8
0
100
AcDbDimension
 62
2
  6
CONTINUOUS
  2
*D15
 10
66.9000529672
 20
115.0242739466
 11
66.9000529672
 21
134.7020815352
 70
160
 71
2
 72
2
 41
0.9
 42
39.5264028906
  3
DIMSTYLE_4
100
AcDbAlignedDimension
 13
81.9000529672
 23
154.5506768372
 14
81.9000529672
 24
115.0242739466
 50
270.0
100
AcDbRotatedDimension
  0
DIMENSION
  5
603
100
AcDbEntity
  8
0
100
AcDbDimension
 62
2
  6
CONTINUOUS
  2
*D16
 10
504.8573617332
 20
37.3494390828
 11
484.8271759644
 21
37.3494390828
 70
160
 71
2
 72
2
 41
0.9
 42
19.9895678132
  3
DIMSTYLE_8
100
AcDbAlignedDimension
 13
464.8782261068
 23
92.2737648452
 14
504.8573617332
 24
90.4738478692
100
AcDbRotatedDimension
  0
DIMENSION
  5
604
100
AcDbEntity
  8
0
100
AcDbDimension
 62
2
  6
CONTINUOUS
  2
*D17
 10
449.7280389807
 20
51.4112804031
 11
449.7280389807
 21
91.288398388
 70
160
 71
2
 72
2
 41
0.9
 42
39.9625259542
  3
DIMSTYLE_9
100
AcDbAlignedDimension
 13
484.6056867741
 23
131.3363323114
 14
485.1299010659
 24
51.4112804031
 50
270.0
100
AcDbRotatedDimension
  0
DIMENSION
  5
605
100
AcDbEntity
  8
0
100
AcDbDimension
 62
2
  6
CONTINUOUS
  2
*D18
 10
503.1849796284
 20
108.6859196639
 11
512.5991171024
 21
110.4295899697
 70
160
 71
1
 72
2
 41
0.9
 42
1.5
  3
DIMSTYLE_10
100
AcDbAlignedDimension
 13
500.2351510915
 23
108.1395575101
 14
503.1849796284
 24
108.6859196639
 50
10.4933100597
100
AcDbRotatedDimension
  0
ACAD_TABLE
  5
606
100
AcDbEntity
  8
0
 62
2
  6
CONTINUOUS
100
AcDbBlockReference
  2
*T1
 10
25.0000035102
 20
54.999995862
 30
0.0
100
AcDbTable
342
       68A
343
25A
 11
1.0
 21
0.0
 31
0.0
 90
22
 91
4
 92
3
 93
0
 94
0
 95
0
 96
0
141
20.0
141
12.0
141
9.0
141
9.0
142
11.0
142
22.0
142
9.0
171
1
172
0
173
0
174
0
175
3
176
1
 91
41
178
0
145
0.0
301
CELL_VALUE
 90
4
  1
 
304
ACVALUE_END
170
1
140
3.5
 64
5
171
1
172
0
173
1
174
0
175
1
176
1
 91
1
178
0
145
0.0
170
1
171
1
172
0
173
1
174
0
175
1
176
1
 91
1
178
0
145
0.0
170
1
171
1
172
0
173
0
174
0
175
3
176
1
 91
57
178
0
145
0.0
  7
TEXTSTYLE_4
301
CELL_VALUE
 90
4
  1
B-74000-40-0_BD01
304
ACVALUE_END
170
5
140
3.0
 64
5
171
1
172
0
173
1
174
0
175
1
176
1
 91
1
178
0
145
0.0
170
1
171
1
172
0
173
1
174
0
175
1
176
1
 91
1
178
0
145
0.0
170
1
171
1
172
0
173
0
174
0
175
3
176
1
 91
57
178
0
145
0.0
  7
TEXTSTYLE_4
301
CELL_VALUE
 90
4
  1
Scale\P1:1 
304
ACVALUE_END
170
1
140
2.5
 64
5
171
1
172
0
173
1
174
0
175
1
176
1
 91
1
178
0
145
0.0
170
1
171
1
172
0
173
1
174
0
175
1
176
1
 91
1
178
0
145
0.0
170
1
171
1
172
0
173
0
174
0
175
1
176
1
 91
57
178
0
145
0.0
  7
TEXTSTYLE_4
301
CELL_VALUE
 90
4
  1
Draft
304
ACVALUE_END
170
5
140
2.5
 64
5
171
1
172
0
173
0
174
0
175
1
176
1
 91
57
178
0
145
0.0
  7
TEXTSTYLE_4
301
CELL_VALUE
 90
4
  1
06.08.2019
304
ACVALUE_END
170
5
140
2.5
 64
5
171
1
172
0
173
0
174
0
175
1
176
1
 91
57
178
0
145
0.0
  7
TEXTSTYLE_4
301
CELL_VALUE
 90
4
  1
EB-RT
304
ACVALUE_END
170
5
140
2.0
 64
5
  0
MTEXT
  5
607
100
AcDbEntity
  8
0
100
AcDbMText
 62
5
  6
CONTINUOUS
  7
TEXTSTYLE_2
 71
1
 72
1
 10
514.7368248193
 20
95.9547298251
 30
0.0
 11
1.0
 21
0.0
 31
0.0
 73
2
 44
0.9
  1
Griffrohr\Pkein Lieferumfang
 40
4.0
 41
44.5373134328
  0
MTEXT
  5
608
100
AcDbEntity
  8
0
100
AcDbMText
 62
5
  6
CONTINUOUS
  7
STANDARD
 71
3
 72
1
 10
490.536224402
 20
30.6230324695
 30
0.0
 11
1.0
 21
0.0
 31
0.0
 73
2
 44
0.9
  1
A-A\P\H3.5;2:1
 40
5.0
 41
17.4256505576
  0
LINE
  5
609
100
AcDbEntity
  8
0
100
AcDbLine
 62
5
  6
CONTINUOUS
 10
25.0
 20
415.0
 11
25.0
 21
5.0
  0
LINE
  5
60A
100
AcDbEntity
  8
0
100
AcDbLine
 62
5
  6
CONTINUOUS
 10
25.0
 20
5.0
 11
589.0
 21
5.0
  0
LINE
  5
60B
100
AcDbEntity
  8
0
100
AcDbLine
 62
5
  6
CONTINUOUS
 10
25.0
 20
415.0
 11
589.0
 21
415.0
  0
LINE
  5
60C
100
AcDbEntity
  8
0
100
AcDbLine
 62
5
  6
CONTINUOUS
 10
589.0
 20
415.0
 11
589.0
 21
5.0
  0
LINE
  5
60D
100
AcDbEntity
  8
0
100
AcDbLine
 62
2
  6
CONTINUOUS
 10
222.739030348
 20
214.6710425719
 11
222.4174156883
 21
215.2338988083
  0
LINE
  5
60E
100
AcDbEntity
  8
0
100
AcDbLine
 62
2
  6
CONTINUOUS
 10
222.4174156883
 20
215.2338988083
 11
221.6894189515
 21
216.6125088041
  0
LINE
  5
60F
100
AcDbEntity
  8
0
100
AcDbLine
 62
2
  6
CONTINUOUS
 10
221.6894189515
 20
216.6125088041
 11
220.9103110015
 21
218.3419344888
  0
LINE
  5
610
100
AcDbEntity
  8
0
100
AcDbLine
 62
2
  6
CONTINUOUS
 10
223.066881615
 20
248.9586559809
 11
222.739030348
 21
249.5323143378
  0
LINE
  5
611
100
AcDbEntity
  8
S-AXIS
100
AcDbLine
 62
7
  6
CENTER
 10
379.3465444247
 20
334.7106506861
 11
78.9300529672
 21
334.7106506861
  0
LINE
  5
612
100
AcDbEntity
  8
0
100
AcDbLine
 62
2
  6
CONTINUOUS
 10
223.7928649589
 20
247.5835332839
 11
223.066881615
 21
248.9586559809
  0
LINE
  5
613
100
AcDbEntity
  8
0
100
AcDbLine
 62
2
  6
CONTINUOUS
 10
224.5677496946
 20
245.8614224208
 11
223.7928649589
 21
247.5835332839
  0
LINE
  5
614
100
AcDbEntity
  8
0
100
AcDbLine
 62
2
  6
CONTINUOUS
 10
220.9103110015
 20
218.3419344888
 11
220.3695345837
 21
220.0461502196
  0
LINE
  5
615
100
AcDbEntity
  8
0
100
AcDbLine
 62
2
  6
CONTINUOUS
 10
225.1068564695
 20
244.1600985964
 11
224.5677496946
 21
245.8614224208
  0
LINE
  5
616
100
AcDbEntity
  8
0
100
AcDbLine
 62
2
  6
CONTINUOUS
 10
220.3695345837
 20
220.0461502196
 11
220.0932199695
 21
221.704780063
  0
LINE
  5
617
100
AcDbEntity
  8
0
100
AcDbLine
 62
2
  6
CONTINUOUS
 10
220.0932199695
 20
221.704780063
 11
220.0416693119
 21
223.3863605133
  0
LINE
  5
618
100
AcDbEntity
  8
0
100
AcDbLine
 62
2
  6
CONTINUOUS
 10
225.3837112623
 20
242.5005331362
 11
225.1068564695
 21
244.1600985964
  0
LINE
  5
619
100
AcDbEntity
  8
0
100
AcDbLine
 62
2
  6
CONTINUOUS
 10
225.4363913841
 20
240.8169963963
 11
225.3837112623
 21
242.5005331362
  0
LINE
  5
61A
100
AcDbEntity
  8
0
100
AcDbLine
 62
2
  6
CONTINUOUS
 10
225.3006627708
 20
239.0736590407
 11
225.4363913841
 21
240.8169963963
  0
LINE
  5
61B
100
AcDbEntity
  8
0
100
AcDbLine
 62
2
  6
CONTINUOUS
 10
220.0416693119
 20
223.3863605133
 11
220.1778398896
 21
225.1289323643
  0
LINE
  5
61C
100
AcDbEntity
  8
0
100
AcDbLine
 62
2
  6
CONTINUOUS
 10
220.1778398896
 20
225.1289323643
 11
220.4753094837
 21
226.8485536084
  0
LINE
  5
61D
100
AcDbEntity
  8
0
100
AcDbLine
 62
2
  6
CONTINUOUS
 10
225.0030458552
 20
237.3542929648
 11
225.3006627708
 21
239.0736590407
  0
LINE
  5
61E
100
AcDbEntity
  8
0
100
AcDbLine
 62
2
  6
CONTINUOUS
 10
220.4753094837
 20
226.8485536084
 11
220.9103110015
 21
228.4307865379
  0
LINE
  5
61F
100
AcDbEntity
  8
0
100
AcDbLine
 62
2
  6
CONTINUOUS
 10
224.5677496946
 20
235.7725703718
 11
225.0030458552
 21
237.3542929648
  0
LINE
  5
620
100
AcDbEntity
  8
0
100
AcDbLine
 62
2
  6
CONTINUOUS
 10
220.9103110015
 20
228.4307865379
 11
221.4567141715
 21
229.7942638187
  0
LINE
  5
621
100
AcDbEntity
  8
0
100
AcDbLine
 62
2
  6
CONTINUOUS
 10
224.0212483103
 20
234.4092632031
 11
224.5677496946
 21
235.7725703718
  0
LINE
  5
622
100
AcDbEntity
  8
0
100
AcDbLine
 62
2
  6
CONTINUOUS
 10
223.3990755807
 20
233.2135423533
 11
224.0212483103
 21
234.4092632031
  0
LINE
  5
623
100
AcDbEntity
  8
0
100
AcDbLine
 62
2
  6
CONTINUOUS
 10
221.4567141715
 20
229.7942638187
 11
222.0789360082
 21
230.9898996125
  0
LINE
  5
624
100
AcDbEntity
  8
0
100
AcDbLine
 62
2
  6
CONTINUOUS
 10
222.0789360082
 20
230.9898996125
 11
223.3990755807
 21
233.2135423533
  0
LINE
  5
625
100
AcDbEntity
  8
0
100
AcDbLine
 62
2
  6
CONTINUOUS
 10
229.2382053295
 20
215.2338988083
 11
229.5598199893
 21
214.6710425719
  0
LINE
  5
626
100
AcDbEntity
  8
0
100
AcDbLine
 62
2
  6
CONTINUOUS
 10
228.5102085927
 20
216.6125088041
 11
229.2382053295
 21
215.2338988083
  0
LINE
  5
627
100
AcDbEntity
  8
0
100
AcDbLine
 62
2
  6
CONTINUOUS
 10
227.7311006428
 20
218.3419344888
 11
228.5102085927
 21
216.6125088041
  0
LINE
  5
628
100
AcDbEntity
  8
0
100
AcDbLine
 62
2
  6
CONTINUOUS
 10
227.190324225
 20
220.0461502196
 11
227.7311006428
 21
218.3419344888
  0
LINE
  5
629
100
AcDbEntity
  8
0
100
AcDbLine
 62
2
  6
CONTINUOUS
 10
229.5598199893
 20
249.5323143378
 11
229.8876712562
 21
248.9586559809
  0
LINE
  5
62A
100
AcDbEntity
  8
0
100
AcDbLine
 62
2
  6
CONTINUOUS
 10
229.8876712562
 20
248.9586559809
 11
230.6136546001
 21
247.5835332839
  0
LINE
  5
62B
100
AcDbEntity
  8
0
100
AcDbLine
 62
2
  6
CONTINUOUS
 10
230.6136546001
 20
247.5835332839
 11
231.3885393358
 21
245.8614224208
  0
LINE
  5
62C
100
AcDbEntity
  8
0
100
AcDbLine
 62
2
  6
CONTINUOUS
 10
226.9140096108
 20
221.704780063
 11
227.190324225
 21
220.0461502196
  0
LINE
  5
62D
100
AcDbEntity
  8
0
100
AcDbLine
 62
2
  6
CONTINUOUS
 10
226.8624589532
 20
223.3863605133
 11
226.9140096108
 21
221.704780063
  0
LINE
  5
62E
100
AcDbEntity
  8
0
100
AcDbLine
 62
2
  6
CONTINUOUS
 10
231.3885393358
 20
245.8614224208
 11
231.9276461107
 21
244.1600985964
  0
LINE
  5
62F
100
AcDbEntity
  8
0
100
AcDbLine
 62
2
  6
CONTINUOUS
 10
231.9276461107
 20
244.1600985964
 11
232.2045009035
 21
242.5005331362
  0
LINE
  5
630
100
AcDbEntity
  8
0
100
AcDbLine
 62
2
  6
CONTINUOUS
 10
232.2045009035
 20
242.5005331362
 11
232.2571810254
 21
240.8169963963
  0
LINE
  5
631
100
AcDbEntity
  8
0
100
AcDbLine
 62
2
  6
CONTINUOUS
 10
232.2571810254
 20
240.8169963963
 11
232.1214524121
 21
239.0736590407
  0
LINE
  5
632
100
AcDbEntity
  8
0
100
AcDbLine
 62
2
  6
CONTINUOUS
 10
226.9986295308
 20
225.1289323643
 11
226.8624589532
 21
223.3863605133
  0
LINE
  5
633
100
AcDbEntity
  8
0
100
AcDbLine
 62
2
  6
CONTINUOUS
 10
227.296099125
 20
226.8485536084
 11
226.9986295308
 21
225.1289323643
  0
LINE
  5
634
100
AcDbEntity
  8
0
100
AcDbLine
 62
2
  6
CONTINUOUS
 10
232.1214524121
 20
239.0736590407
 11
231.8238354964
 21
237.3542929648
  0
LINE
  5
635
100
AcDbEntity
  8
0
100
AcDbLine
 62
2
  6
CONTINUOUS
 10
227.7311006428
 20
228.4307865379
 11
227.296099125
 21
226.8485536084
  0
LINE
  5
636
100
AcDbEntity
  8
0
100
AcDbLine
 62
2
  6
CONTINUOUS
 10
231.8238354964
 20
237.3542929648
 11
231.3885393358
 21
235.7725703718
  0
LINE
  5
637
100
AcDbEntity
  8
0
100
AcDbLine
 62
2
  6
CONTINUOUS
 10
228.2775038127
 20
229.7942638187
 11
227.7311006428
 21
228.4307865379
  0
LINE
  5
638
100
AcDbEntity
  8
AXIS
100
AcDbLine
 62
7
  6
CENTER
 10
344.3474832807
 20
240.7106506861
 11
332.0974832807
 21
240.7106506861
  0
LINE
  5
639
100
AcDbEntity
  8
AXIS
100
AcDbLine
 62
7
  6
CENTER
 10
344.3474832807
 20
240.7106506861
 11
356.5974832807
 21
240.7106506861
  0
LINE
  5
63A
100
AcDbEntity
  8
0
100
AcDbLine
 62
2
  6
CONTINUOUS
 10
231.3885393358
 20
235.7725703718
 11
230.8420379516
 21
234.4092632031
  0
LINE
  5
63B
100
AcDbEntity
  8
0
100
AcDbLine
 62
2
  6
CONTINUOUS
 10
230.8420379516
 20
234.4092632031
 11
230.219865222
 21
233.2135423533
  0
LINE
  5
63C
100
AcDbEntity
  8
0
100
AcDbLine
 62
2
  6
CONTINUOUS
 10
228.8997256495
 20
230.9898996125
 11
228.2775038127
 21
229.7942638187
  0
LINE
  5
63D
100
AcDbEntity
  8
0
100
AcDbLine
 62
2
  6
CONTINUOUS
 10
230.219865222
 20
233.2135423533
 11
229.5598199893
 21
232.1016784548
  0
LINE
  5
63E
100
AcDbEntity
  8
0
100
AcDbLine
 62
2
  6
CONTINUOUS
 10
229.5598199893
 20
232.1016784548
 11
228.8997256495
 21
230.9898996125
  0
LINE
  5
63F
100
AcDbEntity
  8
AXIS
100
AcDbLine
 62
7
  6
CENTER
 10
344.3474832807
 20
240.7106506861
 11
344.3474832807
 21
228.4606506861
  0
LINE
  5
640
100
AcDbEntity
  8
AXIS
100
AcDbLine
 62
7
  6
CENTER
 10
344.3474832807
 20
240.7106506861
 11
344.3474832807
 21
252.9606506861
  0
LINE
  5
641
100
AcDbEntity
  8
0
100
AcDbLine
 62
2
  6
CONTINUOUS
 10
222.739030348
 20
19.8923679262
 11
222.3206409786
 21
20.3760130487
  0
LINE
  5
642
100
AcDbEntity
  8
0
100
AcDbLine
 62
2
  6
CONTINUOUS
 10
222.3206409786
 20
20.3760130487
 11
221.3735879842
 21
21.5606102987
  0
LINE
  5
643
100
AcDbEntity
  8
0
100
AcDbLine
 62
2
  6
CONTINUOUS
 10
221.3735879842
 20
21.5606102987
 11
220.3600440355
 21
23.0466525005
  0
LINE
  5
644
100
AcDbEntity
  8
0
100
AcDbLine
 62
2
  6
CONTINUOUS
 10
223.1636563246
 20
49.3531398124
 11
222.739030348
 21
49.8475870553
  0
LINE
  5
645
100
AcDbEntity
  8
0
100
AcDbLine
 62
2
  6
CONTINUOUS
 10
224.1086959261
 20
48.172029861
 11
223.1636563246
 21
49.3531398124
  0
LINE
  5
646
100
AcDbEntity
  8
0
100
AcDbLine
 62
2
  6
CONTINUOUS
 10
220.3600440355
 20
23.0466525005
 11
219.656545965
 21
24.511032317
  0
LINE
  5
647
100
AcDbEntity
  8
0
100
AcDbLine
 62
2
  6
CONTINUOUS
 10
225.1180166605
 20
46.693302481
 11
224.1086959261
 21
48.172029861
  0
LINE
  5
648
100
AcDbEntity
  8
0
100
AcDbLine
 62
2
  6
CONTINUOUS
 10
225.8198450882
 20
45.2318145707
 11
225.1180166605
 21
46.693302481
  0
LINE
  5
649
100
AcDbEntity
  8
0
100
AcDbLine
 62
2
  6
CONTINUOUS
 10
219.656545965
 20
24.511032317
 11
219.2970872519
 21
25.9362417671
  0
LINE
  5
64A
100
AcDbEntity
  8
0
100
AcDbLine
 62
2
  6
CONTINUOUS
 10
226.1798439799
 20
43.8056695039
 11
225.8198450882
 21
45.2318145707
  0
LINE
  5
64B
100
AcDbEntity
  8
0
100
AcDbLine
 62
2
  6
CONTINUOUS
 10
219.2970872519
 20
25.9362417671
 11
219.2300255371
 21
27.3811727085
  0
LINE
  5
64C
100
AcDbEntity
  8
0
100
AcDbLine
 62
2
  6
CONTINUOUS
 10
226.248035159
 20
42.358782273
 11
226.1798439799
 21
43.8056695039
  0
LINE
  5
64D
100
AcDbEntity
  8
0
100
AcDbLine
 62
2
  6
CONTINUOUS
 10
222.739030348
 20
19.2634721121
 11
222.739030348
 21
19.8923679262
  0
LINE
  5
64E
100
AcDbEntity
  8
0
100
AcDbLine
 62
2
  6
CONTINUOUS
 10
222.739030348
 20
49.8475870553
 11
222.739030348
 21
50.4764828694
  0
LINE
  5
64F
100
AcDbEntity
  8
0
100
AcDbLine
 62
2
  6
CONTINUOUS
 10
219.2300255371
 20
27.3811727085
 11
219.4071719891
 21
28.8785125493
  0
LINE
  5
650
100
AcDbEntity
  8
0
100
AcDbLine
 62
2
  6
CONTINUOUS
 10
226.0713306712
 20
40.8606769276
 11
226.248035159
 21
42.358782273
  0
LINE
  5
651
100
AcDbEntity
  8
0
100
AcDbLine
 62
2
  6
CONTINUOUS
 10
219.4071719891
 20
28.8785125493
 11
219.7941518865
 21
30.3561308988
  0
LINE
  5
652
100
AcDbEntity
  8
0
100
AcDbLine
 62
2
  6
CONTINUOUS
 10
225.6842034524
 20
39.3833137463
 11
226.0713306712
 21
40.8606769276
  0
LINE
  5
653
100
AcDbEntity
  8
0
100
AcDbLine
 62
2
  6
CONTINUOUS
 10
219.7941518865
 20
30.3561308988
 11
220.3600440355
 21
31.7156929165
  0
LINE
  5
654
100
AcDbEntity
  8
0
100
AcDbLine
 62
2
  6
CONTINUOUS
 10
225.1180166605
 20
38.024262065
 11
225.6842034524
 21
39.3833137463
  0
LINE
  5
655
100
AcDbEntity
  8
0
100
AcDbLine
 62
2
  6
CONTINUOUS
 10
220.3600440355
 20
31.7156929165
 11
221.0708549569
 21
32.8872817218
  0
LINE
  5
656
100
AcDbEntity
  8
0
100
AcDbLine
 62
2
  6
CONTINUOUS
 10
224.4071075249
 20
36.8528433719
 11
225.1180166605
 21
38.024262065
  0
LINE
  5
657
100
AcDbEntity
  8
0
100
AcDbLine
 62
2
  6
CONTINUOUS
 10
223.5977095592
 20
35.825387764
 11
224.4071075249
 21
36.8528433719
  0
LINE
  5
658
100
AcDbEntity
  8
0
100
AcDbLine
 62
2
  6
CONTINUOUS
 10
221.0708549569
 20
32.8872817218
 11
221.8803020297
 21
33.9146522736
  0
LINE
  5
659
100
AcDbEntity
  8
0
100
AcDbLine
 62
2
  6
CONTINUOUS
 10
221.8803020297
 20
33.9146522736
 11
223.5977095592
 21
35.825387764
  0
LINE
  5
65A
100
AcDbEntity
  8
0
100
AcDbLine
 62
2
  6
CONTINUOUS
 10
229.1414306199
 20
20.3760130487
 11
229.5598199893
 21
19.8923679262
  0
LINE
  5
65B
100
AcDbEntity
  8
0
100
AcDbLine
 62
2
  6
CONTINUOUS
 10
228.1943776255
 20
21.5606102987
 11
229.1414306199
 21
20.3760130487
  0
LINE
  5
65C
100
AcDbEntity
  8
0
100
AcDbLine
 62
2
  6
CONTINUOUS
 10
227.1808336768
 20
23.0466525005
 11
228.1943776255
 21
21.5606102987
  0
LINE
  5
65D
100
AcDbEntity
  8
0
100
AcDbLine
 62
2
  6
CONTINUOUS
 10
226.4773356063
 20
24.511032317
 11
227.1808336768
 21
23.0466525005
  0
LINE
  5
65E
100
AcDbEntity
  8
0
100
AcDbLine
 62
2
  6
CONTINUOUS
 10
226.1178768931
 20
25.9362417671
 11
226.4773356063
 21
24.511032317
  0
LINE
  5
65F
100
AcDbEntity
  8
0
100
AcDbLine
 62
2
  6
CONTINUOUS
 10
226.0508151784
 20
27.3811727085
 11
226.1178768931
 21
25.9362417671
  0
LINE
  5
660
100
AcDbEntity
  8
0
100
AcDbLine
 62
2
  6
CONTINUOUS
 10
229.5598199893
 20
49.8475870553
 11
229.9844459658
 21
49.3531398124
  0
LINE
  5
661
100
AcDbEntity
  8
0
100
AcDbLine
 62
2
  6
CONTINUOUS
 10
229.9844459658
 20
49.3531398124
 11
230.9294855674
 21
48.172029861
  0
LINE
  5
662
100
AcDbEntity
  8
0
100
AcDbLine
 62
2
  6
CONTINUOUS
 10
230.9294855674
 20
48.172029861
 11
231.9388063018
 21
46.693302481
  0
LINE
  5
663
100
AcDbEntity
  8
0
100
AcDbLine
 62
2
  6
CONTINUOUS
 10
231.9388063018
 20
46.693302481
 11
232.6406347295
 21
45.2318145707
  0
LINE
  5
664
100
AcDbEntity
  8
0
100
AcDbLine
 62
2
  6
CONTINUOUS
 10
229.5598199893
 20
50.4764828694
 11
229.5598199893
 21
49.8475870553
  0
LINE
  5
665
100
AcDbEntity
  8
0
100
AcDbLine
 62
2
  6
CONTINUOUS
 10
229.5598199893
 20
19.8923679262
 11
229.5598199893
 21
19.2634721121
  0
LINE
  5
666
100
AcDbEntity
  8
0
100
AcDbLine
 62
2
  6
CONTINUOUS
 10
232.6406347295
 20
45.2318145707
 11
233.0006336212
 21
43.8056695039
  0
LINE
  5
667
100
AcDbEntity
  8
0
100
AcDbLine
 62
2
  6
CONTINUOUS
 10
233.0006336212
 20
43.8056695039
 11
233.0688248002
 21
42.358782273
  0
LINE
  5
668
100
AcDbEntity
  8
0
100
AcDbLine
 62
2
  6
CONTINUOUS
 10
226.2279616304
 20
28.8785125493
 11
226.0508151784
 21
27.3811727085
  0
LINE
  5
669
100
AcDbEntity
  8
0
100
AcDbLine
 62
2
  6
CONTINUOUS
 10
233.0688248002
 20
42.358782273
 11
232.8921203125
 21
40.8606769276
  0
LINE
  5
66A
100
AcDbEntity
  8
0
100
AcDbLine
 62
2
  6
CONTINUOUS
 10
226.6149415278
 20
30.3561308988
 11
226.2279616304
 21
28.8785125493
  0
LINE
  5
66B
100
AcDbEntity
  8
0
100
AcDbLine
 62
2
  6
CONTINUOUS
 10
232.8921203125
 20
40.8606769276
 11
232.5049930936
 21
39.3833137463
  0
LINE
  5
66C
100
AcDbEntity
  8
0
100
AcDbLine
 62
2
  6
CONTINUOUS
 10
227.1808336768
 20
31.7156929165
 11
226.6149415278
 21
30.3561308988
  0
LINE
  5
66D
100
AcDbEntity
  8
0
100
AcDbLine
 62
2
  6
CONTINUOUS
 10
232.5049930936
 20
39.3833137463
 11
231.9388063018
 21
38.024262065
  0
LINE
  5
66E
100
AcDbEntity
  8
0
100
AcDbLine
 62
2
  6
CONTINUOUS
 10
227.8916445981
 20
32.8872817218
 11
227.1808336768
 21
31.7156929165
  0
LINE
  5
66F
100
AcDbEntity
  8
0
100
AcDbLine
 62
2
  6
CONTINUOUS
 10
231.9388063018
 20
38.024262065
 11
231.2278971662
 21
36.8528433719
  0
LINE
  5
670
100
AcDbEntity
  8
0
100
AcDbLine
 62
2
  6
CONTINUOUS
 10
231.2278971662
 20
36.8528433719
 11
230.4184992005
 21
35.825387764
  0
LINE
  5
671
100
AcDbEntity
  8
0
100
AcDbLine
 62
2
  6
CONTINUOUS
 10
228.701091671
 20
33.9146522736
 11
227.8916445981
 21
32.8872817218
  0
LINE
  5
672
100
AcDbEntity
  8
0
100
AcDbLine
 62
2
  6
CONTINUOUS
 10
230.4184992005
 20
35.825387764
 11
229.5598199893
 21
34.8699774907
  0
LINE
  5
673
100
AcDbEntity
  8
0
100
AcDbLine
 62
2
  6
CONTINUOUS
 10
229.5598199893
 20
34.8699774907
 11
228.701091671
 21
33.9146522736
  0
INSERT
  5
674
100
AcDbEntity
  8
HATCHING_BL0
100
AcDbBlockReference
  2
HATCHING_BL0
 10
229.0473518319
 20
231.1174020069
  0
INSERT
  5
675
100
AcDbEntity
  8
Grp_symbol_75_BL2
100
AcDbBlockReference
  2
GRP_SYMBOL_75_BL2
 10
46.0313322015
 20
45.3702272356
  0
INSERT
  5
676
100
AcDbEntity
  8
X48000092_BD01_BL3
100
AcDbBlockReference
  2
X48000092_BD01_BL3
 10
336.8801583193
 20
134.3978932249
  0
INSERT
  5
677
100
AcDbEntity
  8
X48002254_BL4
100
AcDbBlockReference
  2
X48002254_BL4
 10
268.1310772485
 20
250.8306637616
  0
INSERT
  5
678
100
AcDbEntity
  8
X48002255_BL5
100
AcDbBlockReference
  2
X48002255_BL5
 10
434.6964301882
 20
286.1106506861
  0
INSERT
  5
679
100
AcDbEntity
  8
X48002256_BL6
100
AcDbBlockReference
  2
X48002256_BL6
 10
418.5258661801
 20
387.8606506861
  0
INSERT
  5
67A
100
AcDbEntity
  8
X48002257_BL7
100
AcDbBlockReference
  2
X48002257_BL7
 10
317.003427698
 20
183.6641485948
  0
INSERT
  5
67B
100
AcDbEntity
  8
X48002007_BL8
100
AcDbBlockReference
  2
X48002007_BL8
 10
455.9509037096
 20
332.4465620645
  0
INSERT
  5
67C
100
AcDbEntity
  8
C9535200X_BL9
100
AcDbBlockReference
  2
C9535200X_BL9
 10
456.0075077918
 20
316.0368925699
  0
INSERT
  5
67D
100
AcDbEntity
  8
C9535200X_BL10
100
AcDbBlockReference
  2
C9535200X_BL10
 10
461.1907376788
 20
309.5542906278
  0
INSERT
  5
67E
100
AcDbEntity
  8
X48002258_BL11
100
AcDbBlockReference
  2
X48002258_BL11
 10
411.5271428548
 20
183.6641485948
  0
INSERT
  5
67F
100
AcDbEntity
  8
X48002026_BL12
100
AcDbBlockReference
  2
X48002026_BL12
 10
99.0500529672
 20
283.7106506861
  0
INSERT
  5
680
100
AcDbEntity
  8
X48002028_BL13
100
AcDbBlockReference
  2
X48002028_BL13
 10
179.4415681685
 20
134.388525942
  0
INSERT
  5
681
100
AcDbEntity
  8
X48002260_BL14
100
AcDbBlockReference
  2
X48002260_BL14
 10
99.0500529672
 20
286.1106506861
  0
INSERT
  5
682
100
AcDbEntity
  8
X48002254_BL15
100
AcDbBlockReference
  2
X48002254_BL15
 10
344.3474832807
 20
250.8306637616
  0
INSERT
  5
683
100
AcDbEntity
  8
X48002004_BL16
100
AcDbBlockReference
  2
X48002004_BL16
 10
344.3474832807
 20
282.5606506861
  0
INSERT
  5
684
100
AcDbEntity
  8
X48002028_BL17
100
AcDbBlockReference
  2
X48002028_BL17
 10
263.9559680794
 20
134.388525942
  0
INSERT
  5
685
100
AcDbEntity
  8
X48002262_BL18
100
AcDbBlockReference
  2
X48002262_BL18
 10
344.3474832807
 20
286.1106506861
  0
INSERT
  5
686
100
AcDbEntity
  8
B_7100_4210_BD01_BL19
100
AcDbBlockReference
  2
B_7100_4210_BD01_BL19
 10
484.86779392
 20
91.3738063572
  0
ENDSEC
  0
SECTION
  2
OBJECTS
  0
DICTIONARY
  5
C
100
AcDbDictionary
280
0
281
1
  3
ACAD_GROUP
350
D
  3
ACAD_MLINESTYLE
350
17
  3
ACAD_LAYOUT
350
1A
  3
ACAD_PLOTSETTINGS
350
19
  3
ACAD_PLOTSTYLENAME
350
E
  3
ACAD_TABLESTYLE
350
       687
  0
DICTIONARY
  5
D
102
{ACAD_REACTORS
330
C
102
}
100
AcDbDictionary
280
0
281
1
  0
ACDBDICTIONARYWDFLT
  5
E
102
{ACAD_REACTORS
330
C
102
}
100
AcDbDictionary
281
1
  3
Normal
350
F
100
AcDbDictionaryWithDefault
340
F
  0
DICTIONARY
  5
17
102
{ACAD_REACTORS
330
C
102
}
100
AcDbDictionary
280
0
281
1
  3
Standard
350
18
  0
DICTIONARY
  5
687
330
C
100
AcDbDictionary
281
1
  3
Standard
350
       68A
  3
Standard1
350
       68B
  0
DICTIONARY
  5
19
102
{ACAD_REACTORS
330
C
102
}
100
AcDbDictionary
281
1
  0
DICTIONARY
  5
1A
102
{ACAD_REACTORS
330
C
102
}
100
AcDbDictionary
281
1
  3
Model
350
688
  3
Layout1
350
689
  0
ACDBPLACEHOLDER
  5
F
102
{ACAD_REACTORS
330
E
102
}
  0
MLINESTYLE
  5
18
102
{ACAD_REACTORS
330
17
102
}
100
AcDbMlineStyle
  2
STANDARD
 70
0
  3

 62
256
 51
90.0
 52
90.0
 71
2
 49
0.5
 62
256
  6
BYLAYER
 49
-0.5
 62
256
  6
BYLAYER
  0
LAYOUT
  5
688
102
{ACAD_REACTORS
330
1A
102
}
100
AcDbPlotSettings
  1

  2
none_device
  4
ISO_A2_(594.00_x_420.00_MM)
  6

 40
0.0
 41
0.0
 42
0.0
 43
0.0
 44
594.0
 45
420.0
 46
0.0
 47
0.0
 48
0.0
 49
0.0
140
0.0
141
0.0
142
1.0
143
1.0
 70
1024
 72
1
 73
0
 74
0
  7

 75
0
147
1.0
148
0.0
149
0.0
100
AcDbLayout
  1
Model
 70
0
 71
0
 10
0.0
 20
0.0
 11
594.0
 21
420.0
 12
0.0
 22
0.0
 32
0.0
 14
0.0
 24
0.0
 34
0.0
 15
0.0
 25
0.0
 35
0.0
146
0.0
 13
0.0
 23
0.0
 33
0.0
 16
1.0
 26
0.0
 36
0.0
 17
0.0
 27
1.0
 37
0.0
 76
0
330
22F
345
0
346
0
  0
LAYOUT
  5
689
102
{ACAD_REACTORS
330
1A
102
}
100
AcDbPlotSettings
  1

  2
none_device
  4
ISO_A2_(594.00_x_420.00_MM)
  6

 40
0.0
 41
0.0
 42
0.0
 43
0.0
 44
594.0
 45
420.0
 46
0.0
 47
0.0
 48
0.0
 49
0.0
140
0.0
141
0.0
142
1.0
143
1.0
 70
0
 72
1
 73
0
 74
0
  7

 75
0
147
1.0
148
0.0
149
0.0
100
AcDbLayout
  1
Layout1
 70
0
 71
1
 10
0.0
 20
0.0
 11
594.0
 21
420.0
 12
0.0
 22
0.0
 32
0.0
 14
0.0
 24
0.0
 34
0.0
 15
0.0
 25
0.0
 35
0.0
146
0.0
 13
0.0
 23
0.0
 33
0.0
 16
1.0
 26
0.0
 36
0.0
 17
0.0
 27
1.0
 37
0.0
 76
0
330
230
345
0
346
0
  0
TABLESTYLE
  5
68A
102
{ACAD_REACTORS
330
687
330
606
102
}
330
687
100
AcDbTableStyle
  3
Standard
 70
0
 71
0
 40
0.06
 41
0.06
280
1
281
1
  7
Standard
140
0.18
170
1
 62
0
 63
7
283
0
  7
Standard
140
0.18
170
1
 62
0
 63
7
283
0
  7
Standard
140
0.18
170
1
 62
0
 63
7
283
0
  0
TABLESTYLE
  5
68B
102
{ACAD_REACTORS
330
687
102
}
330
687
100
AcDbTableStyle
  3
Standard1
 70
1
 71
0
 40
0.06
 41
0.06
280
1
281
1
  7
Standard
140
0.18
170
1
 62
0
 63
7
283
0
  7
Standard
140
0.18
170
1
 62
0
 63
7
283
0
  7
Standard
140
0.18
170
1
 62
0
 63
7
283
0
  0
ENDSEC
  0
EOF
