999
DXF file: Z:\Entwicklung\5_Service\1_Beschlagsdaten\1_Beschlag\B-7400x_komplett in TB-Datei\Beschlagdaten\dxf\B-74000-00-0_bd01.dxf
999
Pro/ENGINEER 2017380 by Parametric Technology Corporation
  0
SECTION
  2
HEADER
  9
$ACADVER
  1
AC1021
  9
$DWGCODEPAGE
  3
ANSI_1252
  9
$EXTMAX
 10
594.0
 20
420.0
 30
0.0
  9
$EXTMIN
 10
0.0
 20
0.0
 30
0.0
  9
$LIMMIN
 10
0.0
 20
0.0
  9
$LIMMAX
 10
594.0
 20
420.0
  9
$VIEWCTR
 10
297.0
 20
210.0
  9
$VIEWSIZE
 40
420.0
  9
$CLAYER
  8
0
  9
$LTSCALE
 40
32.67
  9
$CELTYPE
  6
BYLAYER
  9
$DIMSCALE
 40
1.0
  9
$DIMASZ
 40
3.5
  9
$DIMEXO
 40
0.0
  9
$DIMDLI
 40
22.572
  9
$DIMEXE
 40
1.5
  9
$DIMCEN
 40
5.346
  9
$DIMLFAC
 40
1.0
  9
$DIMBLK
  1
_FILLED
  9
$DIMALT
 70
0
  9
$DIMALTF
 40
25.4
  9
$DIMTXT
 40
3.5
  9
$DIMTOL
 70
1
  9
$DIMLIM
 70
0
  9
$DIMTFAC
 40
1.0
  9
$DIMTP
 40
0.001
  9
$DIMTM
 40
0.001
  9
$DIMGAP
 40
0.625
  9
$DIMDSEP
 70
46
  9
$AUNITS
 70
0
  9
$PDMODE
 70
3
  9
$PDSIZE
 40
0.3125
  9
$HANDSEED
  5
739
  9
$TILEMODE
 70
1
  9
$MEASUREMENT
 70
1
  9
$INSUNITS
 70
4
  0
ENDSEC
  0
SECTION
  2
CLASSES
  0
CLASS
  1
ACDBDICTIONARYWDFLT
  2
AcDbDictionaryWithDefault
  3
AutoCAD 2000
 90
0
 91
1
280
0
281
0
  0
CLASS
  1
ACDBPLACEHOLDER
  2
AcDbPlaceHolder
  3
AutoCAD 2000
 90
0
 91
1
280
0
281
0
  0
CLASS
  1
LAYOUT
  2
AcDbLayout
  3
AutoCAD 2000
 90
0
 91
0
280
0
281
0
  0
CLASS
  1
TABLESTYLE
  2
AcDbTableStyle
  3
ObjectDBX Classes
 90
2047
 91
1
280
0
281
0
  0
CLASS
  1
ACAD_TABLE
  2
AcDbTable
  3
ObjectDBX Classes
 90
1025
 91
1
280
0
281
1
  0
ENDSEC
  0
SECTION
  2
TABLES
  0
TABLE
  2
VPORT
  5
8
100
AcDbSymbolTable
 70
2
  0
VPORT
  5
1F4
100
AcDbSymbolTableRecord
100
AcDbViewportTableRecord
  2
*ACTIVE
 70
0
 10
0.0
 20
0.0
 11
1.0
 21
1.0
 12
297.0
 22
210.0
 13
0.0
 23
0.0
 14
1.0
 24
1.0
 15
0.0
 25
0.0
 16
0.0
 26
0.0
 36
1.0
 17
0.0
 27
0.0
 37
0.0
 40
420.0
 41
1.4142857143
 42
50.0
 43
0.0
 44
0.0
 50
0.0
 51
0.0
 71
0
 72
100
 73
1
 74
1
 75
0
 76
0
 77
0
 78
0
  0
ENDTAB
  0
TABLE
  2
LTYPE
  5
5
100
AcDbSymbolTable
 70
6
  0
LTYPE
  5
14
100
AcDbSymbolTableRecord
100
AcDbLinetypeTableRecord
  2
BYBLOCK
 70
0
  3

 72
65
 73
0
 40
0.0
  0
LTYPE
  5
15
100
AcDbSymbolTableRecord
100
AcDbLinetypeTableRecord
  2
BYLAYER
 70
0
  3

 72
65
 73
0
 40
0.0
  0
LTYPE
  5
16
100
AcDbSymbolTableRecord
100
AcDbLinetypeTableRecord
  2
CONTINUOUS
 70
64
  3
Solid line
 72
65
 73
0
 40
0.0
  0
LTYPE
  5
1F5
100
AcDbSymbolTableRecord
100
AcDbLinetypeTableRecord
  2
CENTER
 70
64
  3
____ _ ____ _ ____ _ ____ _ ____ _ ____ _ ____
 72
65
 73
4
 40
0.6
 49
0.375
 74
0
 49
-0.075
 74
0
 49
0.075
 74
0
 49
-0.075
 74
0
  0
LTYPE
  5
1F6
100
AcDbSymbolTableRecord
100
AcDbLinetypeTableRecord
  2
HIDDEN
 70
64
  3
- - - - - - - - - - - - - - - - - - - -
 72
65
 73
2
 40
0.2
 49
0.1
 74
0
 49
-0.1
 74
0
  0
LTYPE
  5
1F7
100
AcDbSymbolTableRecord
100
AcDbLinetypeTableRecord
  2
PHANTOM
 70
64
  3
_____ _ _ _____ _ _ _____ _ _ _____
 72
65
 73
6
 40
0.8
 49
0.45
 74
0
 49
-0.05
 74
0
 49
0.1
 74
0
 49
-0.05
 74
0
 49
0.1
 74
0
 49
-0.05
 74
0
  0
LTYPE
  5
1F8
100
AcDbSymbolTableRecord
100
AcDbLinetypeTableRecord
  2
DOT
 70
64
  3
. . . . . . . . . . . . . . . . . . . .
 72
65
 73
2
 40
0.2
 49
0.1
 74
0
 49
-0.1
 74
0
  0
LTYPE
  5
1F9
100
AcDbSymbolTableRecord
100
AcDbLinetypeTableRecord
  2
DASHED
 70
64
  3
- - - - - - - - - - - - - - - - - - - -
 72
65
 73
2
 40
0.2
 49
0.1
 74
0
 49
-0.1
 74
0
  0
ENDTAB
  0
TABLE
  2
LAYER
  5
2
100
AcDbSymbolTable
 70
36
  0
LAYER
  5
10
100
AcDbSymbolTableRecord
100
AcDbLayerTableRecord
  2
0
 70
0
 62
7
  6
CONTINUOUS
370
-3
390
F
  0
LAYER
  5
1FA
100
AcDbSymbolTableRecord
100
AcDbLayerTableRecord
  2
DEFAULT_1
 70
0
 62
7
  6
CENTER
370
-3
390
F
  0
LAYER
  5
1FB
100
AcDbSymbolTableRecord
100
AcDbLayerTableRecord
  2
DEFAULT_2
 70
0
 62
8
  6
HIDDEN
370
-3
390
F
  0
LAYER
  5
1FC
100
AcDbSymbolTableRecord
100
AcDbLayerTableRecord
  2
DEFAULT_3
 70
0
 62
7
  6
PHANTOM
370
-3
390
F
  0
LAYER
  5
1FD
100
AcDbSymbolTableRecord
100
AcDbLayerTableRecord
  2
ACHSEN
 70
0
 62
7
  6
CONTINUOUS
370
-3
390
F
  0
LAYER
  5
1FE
100
AcDbSymbolTableRecord
100
AcDbLayerTableRecord
  2
AXIS
 70
0
 62
7
  6
CONTINUOUS
370
-3
390
F
  0
LAYER
  5
1FF
100
AcDbSymbolTableRecord
100
AcDbLayerTableRecord
  2
BOHRUNGEN
 70
0
 62
7
  6
CONTINUOUS
370
-3
390
F
  0
LAYER
  5
200
100
AcDbSymbolTableRecord
100
AcDbLayerTableRecord
  2
COORDSYS
 70
0
 62
7
  6
CONTINUOUS
370
-3
390
F
  0
LAYER
  5
201
100
AcDbSymbolTableRecord
100
AcDbLayerTableRecord
  2
CURVES
 70
0
 62
7
  6
CONTINUOUS
370
-3
390
F
  0
LAYER
  5
202
100
AcDbSymbolTableRecord
100
AcDbLayerTableRecord
  2
EBENEN
 70
0
 62
7
  6
CONTINUOUS
370
-3
390
F
  0
LAYER
  5
203
100
AcDbSymbolTableRecord
100
AcDbLayerTableRecord
  2
FLAECHEN
 70
0
 62
7
  6
CONTINUOUS
370
-3
390
F
  0
LAYER
  5
204
100
AcDbSymbolTableRecord
100
AcDbLayerTableRecord
  2
GEWINDE
 70
0
 62
7
  6
CONTINUOUS
370
-3
390
F
  0
LAYER
  5
205
100
AcDbSymbolTableRecord
100
AcDbLayerTableRecord
  2
GUIDES
 70
0
 62
7
  6
CONTINUOUS
370
-3
390
F
  0
LAYER
  5
206
100
AcDbSymbolTableRecord
100
AcDbLayerTableRecord
  2
HIDDEN
 70
0
 62
7
  6
CONTINUOUS
370
-3
390
F
  0
LAYER
  5
207
100
AcDbSymbolTableRecord
100
AcDbLayerTableRecord
  2
INDEX
 70
0
 62
7
  6
CONTINUOUS
370
-3
390
F
  0
LAYER
  5
208
100
AcDbSymbolTableRecord
100
AcDbLayerTableRecord
  2
KURVEN
 70
0
 62
7
  6
CONTINUOUS
370
-3
390
F
  0
LAYER
  5
209
100
AcDbSymbolTableRecord
100
AcDbLayerTableRecord
  2
PLANES
 70
0
 62
7
  6
CONTINUOUS
370
-3
390
F
  0
LAYER
  5
20A
100
AcDbSymbolTableRecord
100
AcDbLayerTableRecord
  2
POINTS
 70
0
 62
7
  6
CONTINUOUS
370
-3
390
F
  0
LAYER
  5
20B
100
AcDbSymbolTableRecord
100
AcDbLayerTableRecord
  2
QUILTS
 70
0
 62
7
  6
CONTINUOUS
370
-3
390
F
  0
LAYER
  5
20C
100
AcDbSymbolTableRecord
100
AcDbLayerTableRecord
  2
S-ACHSEN
 70
0
 62
7
  6
CONTINUOUS
370
-3
390
F
  0
LAYER
  5
20D
100
AcDbSymbolTableRecord
100
AcDbLayerTableRecord
  2
S-AXIS
 70
0
 62
7
  6
CONTINUOUS
370
-3
390
F
  0
LAYER
  5
20E
100
AcDbSymbolTableRecord
100
AcDbLayerTableRecord
  2
S-BG-EBENEN
 70
0
 62
7
  6
CONTINUOUS
370
-3
390
F
  0
LAYER
  5
20F
100
AcDbSymbolTableRecord
100
AcDbLayerTableRecord
  2
S-BG-KOORDSYS
 70
0
 62
7
  6
CONTINUOUS
370
-3
390
F
  0
LAYER
  5
210
100
AcDbSymbolTableRecord
100
AcDbLayerTableRecord
  2
S-COORDSYS
 70
0
 62
7
  6
CONTINUOUS
370
-3
390
F
  0
LAYER
  5
211
100
AcDbSymbolTableRecord
100
AcDbLayerTableRecord
  2
S-EBENEN
 70
0
 62
7
  6
CONTINUOUS
370
-3
390
F
  0
LAYER
  5
212
100
AcDbSymbolTableRecord
100
AcDbLayerTableRecord
  2
S-KOORDSYS
 70
0
 62
7
  6
CONTINUOUS
370
-3
390
F
  0
LAYER
  5
213
100
AcDbSymbolTableRecord
100
AcDbLayerTableRecord
  2
S-PLANES
 70
0
 62
7
  6
CONTINUOUS
370
-3
390
F
  0
LAYER
  5
214
100
AcDbSymbolTableRecord
100
AcDbLayerTableRecord
  2
THREADS
 70
0
 62
7
  6
CONTINUOUS
370
-3
390
F
  0
LAYER
  5
215
100
AcDbSymbolTableRecord
100
AcDbLayerTableRecord
  2
XSEC_DATUMS
 70
0
 62
7
  6
CONTINUOUS
370
-3
390
F
  0
LAYER
  5
216
100
AcDbSymbolTableRecord
100
AcDbLayerTableRecord
  2
HATCHING_BL0
 70
0
 62
7
  6
CONTINUOUS
370
-3
390
F
  0
LAYER
  5
217
100
AcDbSymbolTableRecord
100
AcDbLayerTableRecord
  2
Grp_symbol_75_BL1
 70
0
 62
7
  6
CONTINUOUS
370
-3
390
F
  0
LAYER
  5
218
100
AcDbSymbolTableRecord
100
AcDbLayerTableRecord
  2
Grp_symbol_75_BL2
 70
0
 62
7
  6
CONTINUOUS
370
-3
390
F
  0
LAYER
  5
219
100
AcDbSymbolTableRecord
100
AcDbLayerTableRecord
  2
X48000092_BD01_BL3
 70
0
 62
7
  6
CONTINUOUS
370
-3
390
F
  0
LAYER
  5
21A
100
AcDbSymbolTableRecord
100
AcDbLayerTableRecord
  2
X48002257_BL4
 70
0
 62
7
  6
CONTINUOUS
370
-3
390
F
  0
LAYER
  5
21B
100
AcDbSymbolTableRecord
100
AcDbLayerTableRecord
  2
X48002254_BL5
 70
0
 62
7
  6
CONTINUOUS
370
-3
390
F
  0
LAYER
  5
21C
100
AcDbSymbolTableRecord
100
AcDbLayerTableRecord
  2
X48002028_BL6
 70
0
 62
7
  6
CONTINUOUS
370
-3
390
F
  0
LAYER
  5
21D
100
AcDbSymbolTableRecord
100
AcDbLayerTableRecord
  2
X48002258_BL7
 70
0
 62
7
  6
CONTINUOUS
370
-3
390
F
  0
LAYER
  5
21E
100
AcDbSymbolTableRecord
100
AcDbLayerTableRecord
  2
X48002028_BL8
 70
0
 62
7
  6
CONTINUOUS
370
-3
390
F
  0
LAYER
  5
21F
100
AcDbSymbolTableRecord
100
AcDbLayerTableRecord
  2
X48002254_BL9
 70
0
 62
7
  6
CONTINUOUS
370
-3
390
F
  0
LAYER
  5
220
100
AcDbSymbolTableRecord
100
AcDbLayerTableRecord
  2
X48002121_BL10
 70
0
 62
7
  6
CONTINUOUS
370
-3
390
F
  0
LAYER
  5
221
100
AcDbSymbolTableRecord
100
AcDbLayerTableRecord
  2
X48002120_BL11
 70
0
 62
7
  6
CONTINUOUS
370
-3
390
F
  0
LAYER
  5
222
100
AcDbSymbolTableRecord
100
AcDbLayerTableRecord
  2
X48002260_BL12
 70
0
 62
7
  6
CONTINUOUS
370
-3
390
F
  0
LAYER
  5
223
100
AcDbSymbolTableRecord
100
AcDbLayerTableRecord
  2
X48002255_BL13
 70
0
 62
7
  6
CONTINUOUS
370
-3
390
F
  0
LAYER
  5
224
100
AcDbSymbolTableRecord
100
AcDbLayerTableRecord
  2
X48002256_BL14
 70
0
 62
7
  6
CONTINUOUS
370
-3
390
F
  0
LAYER
  5
225
100
AcDbSymbolTableRecord
100
AcDbLayerTableRecord
  2
C9535200X_BL15
 70
0
 62
7
  6
CONTINUOUS
370
-3
390
F
  0
LAYER
  5
226
100
AcDbSymbolTableRecord
100
AcDbLayerTableRecord
  2
X48002007_BL16
 70
0
 62
7
  6
CONTINUOUS
370
-3
390
F
  0
LAYER
  5
227
100
AcDbSymbolTableRecord
100
AcDbLayerTableRecord
  2
C9535200X_BL17
 70
0
 62
7
  6
CONTINUOUS
370
-3
390
F
  0
LAYER
  5
228
100
AcDbSymbolTableRecord
100
AcDbLayerTableRecord
  2
C9535200X_BL18
 70
0
 62
7
  6
CONTINUOUS
370
-3
390
F
  0
LAYER
  5
229
100
AcDbSymbolTableRecord
100
AcDbLayerTableRecord
  2
B_7100_4210_BD01_BL19
 70
0
 62
7
  6
CONTINUOUS
370
-3
390
F
  0
ENDTAB
  0
TABLE
  2
STYLE
  5
3
100
AcDbSymbolTable
 70
1
  0
STYLE
  5
11
100
AcDbSymbolTableRecord
100
AcDbTextStyleTableRecord
  2
STANDARD
 70
0
 40
0.0
 41
0.7
 50
0.0
 71
0
 42
0.2
  3
txt
  4

  0
STYLE
  5
22A
100
AcDbSymbolTableRecord
100
AcDbTextStyleTableRecord
  2
TEXTSTYLE_1
 70
0
 40
0.0
 41
0.8
 50
0.0
 71
0
 42
0.2
  3
gdt
  4

  0
STYLE
  5
22B
100
AcDbSymbolTableRecord
100
AcDbTextStyleTableRecord
  2
TEXTSTYLE_2
 70
0
 40
0.0
 41
1.0
 50
0.0
 71
0
 42
0.2
  3
arialuni.ttf
  4

  0
STYLE
  5
22C
100
AcDbSymbolTableRecord
100
AcDbTextStyleTableRecord
  2
TEXTSTYLE_3
 70
0
 40
0.0
 41
1.0
 50
0.0
 71
0
 42
0.2
  3
symbol_asme.ttf
  4

  0
STYLE
  5
22D
100
AcDbSymbolTableRecord
100
AcDbTextStyleTableRecord
  2
TEXTSTYLE_4
 70
0
 40
0.0
 41
1.0
 50
0.0
 71
0
 42
0.2
  3
arialuni.ttf
  4

  0
ENDTAB
  0
TABLE
  2
VIEW
  5
6
100
AcDbSymbolTable
 70
0
  0
ENDTAB
  0
TABLE
  2
UCS
  5
7
100
AcDbSymbolTable
 70
0
  0
ENDTAB
  0
TABLE
  2
APPID
  5
9
100
AcDbSymbolTable
 70
1
  0
APPID
  5
22E
100
AcDbSymbolTableRecord
100
AcDbRegAppTableRecord
  2
ACAD
 70
0
  0
ENDTAB
  0
TABLE
  2
BLOCK_RECORD
  5
1
100
AcDbSymbolTable
 70
0
  0
BLOCK_RECORD
  5
22F
100
AcDbSymbolTableRecord
100
AcDbBlockTableRecord
  2
*Model_Space
  0
BLOCK_RECORD
  5
230
100
AcDbSymbolTableRecord
100
AcDbBlockTableRecord
  2
*Paper_Space
  0
BLOCK_RECORD
  5
231
100
AcDbSymbolTableRecord
100
AcDbBlockTableRecord
  2
_FILLED
  0
BLOCK_RECORD
  5
232
100
AcDbSymbolTableRecord
100
AcDbBlockTableRecord
  2
XSEC_FILLED
  0
BLOCK_RECORD
  5
233
100
AcDbSymbolTableRecord
100
AcDbBlockTableRecord
  2
*D0
  0
BLOCK_RECORD
  5
234
100
AcDbSymbolTableRecord
100
AcDbBlockTableRecord
  2
*D1
  0
BLOCK_RECORD
  5
235
100
AcDbSymbolTableRecord
100
AcDbBlockTableRecord
  2
*D2
  0
BLOCK_RECORD
  5
236
100
AcDbSymbolTableRecord
100
AcDbBlockTableRecord
  2
*D3
  0
BLOCK_RECORD
  5
237
100
AcDbSymbolTableRecord
100
AcDbBlockTableRecord
  2
*D4
  0
BLOCK_RECORD
  5
238
100
AcDbSymbolTableRecord
100
AcDbBlockTableRecord
  2
*D5
  0
BLOCK_RECORD
  5
239
100
AcDbSymbolTableRecord
100
AcDbBlockTableRecord
  2
*D6
  0
BLOCK_RECORD
  5
23A
100
AcDbSymbolTableRecord
100
AcDbBlockTableRecord
  2
*D7
  0
BLOCK_RECORD
  5
23B
100
AcDbSymbolTableRecord
100
AcDbBlockTableRecord
  2
*D8
  0
BLOCK_RECORD
  5
23C
100
AcDbSymbolTableRecord
100
AcDbBlockTableRecord
  2
*D9
  0
BLOCK_RECORD
  5
23D
100
AcDbSymbolTableRecord
100
AcDbBlockTableRecord
  2
*D10
  0
BLOCK_RECORD
  5
23E
100
AcDbSymbolTableRecord
100
AcDbBlockTableRecord
  2
*D11
  0
BLOCK_RECORD
  5
23F
100
AcDbSymbolTableRecord
100
AcDbBlockTableRecord
  2
*D12
  0
BLOCK_RECORD
  5
240
100
AcDbSymbolTableRecord
100
AcDbBlockTableRecord
  2
*D13
  0
BLOCK_RECORD
  5
241
100
AcDbSymbolTableRecord
100
AcDbBlockTableRecord
  2
*D14
  0
BLOCK_RECORD
  5
242
100
AcDbSymbolTableRecord
100
AcDbBlockTableRecord
  2
*D15
  0
BLOCK_RECORD
  5
243
100
AcDbSymbolTableRecord
100
AcDbBlockTableRecord
  2
*D16
  0
BLOCK_RECORD
  5
244
100
AcDbSymbolTableRecord
100
AcDbBlockTableRecord
  2
*D17
  0
BLOCK_RECORD
  5
245
100
AcDbSymbolTableRecord
100
AcDbBlockTableRecord
  2
HATCHING_BL0
  0
BLOCK_RECORD
  5
246
100
AcDbSymbolTableRecord
100
AcDbBlockTableRecord
  2
GRP_SYMBOL_75_BL1
  0
BLOCK_RECORD
  5
247
100
AcDbSymbolTableRecord
100
AcDbBlockTableRecord
  2
GRP_SYMBOL_75_BL2
  0
BLOCK_RECORD
  5
248
100
AcDbSymbolTableRecord
100
AcDbBlockTableRecord
  2
X48000092_BD01_BL3
  0
BLOCK_RECORD
  5
249
100
AcDbSymbolTableRecord
100
AcDbBlockTableRecord
  2
X48002257_BL4
  0
BLOCK_RECORD
  5
24A
100
AcDbSymbolTableRecord
100
AcDbBlockTableRecord
  2
X48002254_BL5
  0
BLOCK_RECORD
  5
24B
100
AcDbSymbolTableRecord
100
AcDbBlockTableRecord
  2
X48002028_BL6
  0
BLOCK_RECORD
  5
24C
100
AcDbSymbolTableRecord
100
AcDbBlockTableRecord
  2
X48002258_BL7
  0
BLOCK_RECORD
  5
24D
100
AcDbSymbolTableRecord
100
AcDbBlockTableRecord
  2
X48002028_BL8
  0
BLOCK_RECORD
  5
24E
100
AcDbSymbolTableRecord
100
AcDbBlockTableRecord
  2
X48002254_BL9
  0
BLOCK_RECORD
  5
24F
100
AcDbSymbolTableRecord
100
AcDbBlockTableRecord
  2
X48002121_BL10
  0
BLOCK_RECORD
  5
250
100
AcDbSymbolTableRecord
100
AcDbBlockTableRecord
  2
X48002120_BL11
  0
BLOCK_RECORD
  5
251
100
AcDbSymbolTableRecord
100
AcDbBlockTableRecord
  2
X48002260_BL12
  0
BLOCK_RECORD
  5
252
100
AcDbSymbolTableRecord
100
AcDbBlockTableRecord
  2
X48002255_BL13
  0
BLOCK_RECORD
  5
253
100
AcDbSymbolTableRecord
100
AcDbBlockTableRecord
  2
X48002256_BL14
  0
BLOCK_RECORD
  5
254
100
AcDbSymbolTableRecord
100
AcDbBlockTableRecord
  2
C9535200X_BL15
  0
BLOCK_RECORD
  5
255
100
AcDbSymbolTableRecord
100
AcDbBlockTableRecord
  2
X48002007_BL16
  0
BLOCK_RECORD
  5
256
100
AcDbSymbolTableRecord
100
AcDbBlockTableRecord
  2
C9535200X_BL17
  0
BLOCK_RECORD
  5
257
100
AcDbSymbolTableRecord
100
AcDbBlockTableRecord
  2
C9535200X_BL18
  0
BLOCK_RECORD
  5
258
100
AcDbSymbolTableRecord
100
AcDbBlockTableRecord
  2
B_7100_4210_BD01_BL19
  0
BLOCK_RECORD
  5
259
100
AcDbSymbolTableRecord
100
AcDbBlockTableRecord
  2
*T1
  0
ENDTAB
  0
TABLE
  2
DIMSTYLE
  5
A
100
AcDbSymbolTable
 70
1
100
AcDbDimStyleTable
 71
0
  0
DIMSTYLE
105
25A
100
AcDbSymbolTableRecord
100
AcDbDimStyleTableRecord
  2
STANDARD
 70
0
  3

  4

 40
1.0
 41
3.5
 42
0.0
 43
0.38
 44
1.5
 45
0.0
 46
0.0
 47
0.001
 48
0.001
140
3.5
141
0.09
142
0.0
143
25.4
144
1.0
145
0.0
146
1.0
147
0.625
 71
1.0
 72
0.0
 73
0
 74
0
 75
0
 76
0
 77
1
 78
8
 79
2
170
0
171
2
172
0
173
0
174
0
175
0
176
0
177
0
178
5
270
2
179
3
271
3
272
3
273
2
274
2
275
0
280
0
281
0
282
0
283
1
284
8
285
0
286
0
287
3
288
0
340
11
278
46
341
231
342
231
343
231
344
231
  0
DIMSTYLE
105
25B
100
AcDbSymbolTableRecord
100
AcDbDimStyleTableRecord
  2
DIMSTYLE_1
 70
0
  3

  4

 40
1.0
 41
3.5
 42
0.0
 43
0.38
 44
1.5
 45
0.0
 46
0.0
 47
0.3
 48
0.3
140
4.0
141
0.09
142
0.0
143
25.4
144
1.0
145
0.0
146
1.0
147
1.0
 71
0.0
 72
0.0
 73
0
 74
0
 75
0
 76
0
 77
1
 78
8
 79
2
170
0
171
2
172
0
173
0
174
0
175
0
176
0
177
0
178
5
270
2
179
0
271
0
272
0
273
2
274
2
275
0
280
0
281
0
282
0
283
1
284
8
285
0
286
0
287
3
288
0
340
22B
278
46
341
231
342
231
343
231
344
231
  0
DIMSTYLE
105
25C
100
AcDbSymbolTableRecord
100
AcDbDimStyleTableRecord
  2
DIMSTYLE_2
 70
0
  3

  4

 40
1.0
 41
3.5
 42
0.0
 43
0.38
 44
1.5
 45
0.0
 46
0.0
 47
0.5
 48
0.5
140
4.0
141
0.09
142
0.0
143
25.4
144
1.0
145
0.0
146
1.0
147
1.0
 71
0.0
 72
0.0
 73
0
 74
0
 75
0
 76
0
 77
1
 78
8
 79
2
170
0
171
2
172
0
173
0
174
0
175
0
176
0
177
0
178
5
270
2
179
3
271
3
272
3
273
2
274
2
275
0
280
0
281
0
282
0
283
1
284
8
285
0
286
0
287
3
288
0
340
22B
278
46
341
231
342
231
343
231
344
231
  0
DIMSTYLE
105
25D
100
AcDbSymbolTableRecord
100
AcDbDimStyleTableRecord
  2
DIMSTYLE_3
 70
0
  3

  4

 40
1.0
 41
3.5
 42
0.0
 43
0.38
 44
1.5
 45
0.0
 46
0.0
 47
0.5
 48
0.5
140
4.0
141
0.09
142
0.0
143
25.4
144
1.0
145
0.0
146
1.0
147
1.0
 71
0.0
 72
0.0
 73
0
 74
0
 75
0
 76
0
 77
1
 78
8
 79
2
170
0
171
2
172
0
173
0
174
0
175
0
176
0
177
0
178
5
270
2
179
0
271
0
272
0
273
2
274
2
275
0
280
0
281
0
282
0
283
1
284
8
285
0
286
0
287
3
288
0
340
22B
278
46
341
231
342
231
343
231
344
231
  0
DIMSTYLE
105
25E
100
AcDbSymbolTableRecord
100
AcDbDimStyleTableRecord
  2
DIMSTYLE_4
 70
0
  3

  4

 40
1.0
 41
3.5
 42
0.0
 43
0.38
 44
1.5
 45
0.0
 46
0.0
 47
0.2
 48
0.2
140
4.0
141
0.09
142
0.0
143
25.4
144
1.0
145
0.0
146
1.0
147
1.0
 71
0.0
 72
0.0
 73
0
 74
0
 75
0
 76
0
 77
1
 78
8
 79
2
170
0
171
2
172
0
173
0
174
0
175
0
176
0
177
0
178
5
270
2
179
3
271
3
272
3
273
2
274
2
275
0
280
0
281
0
282
0
283
1
284
8
285
0
286
0
287
3
288
0
340
22B
278
46
341
231
342
231
343
231
344
231
  0
DIMSTYLE
105
25F
100
AcDbSymbolTableRecord
100
AcDbDimStyleTableRecord
  2
DIMSTYLE_5
 70
0
  3

  4

 40
1.0
 41
3.5
 42
0.0
 43
0.38
 44
1.5
 45
0.0
 46
0.0
 47
0.3
 48
0.3
140
4.0
141
0.09
142
0.0
143
25.4
144
1.0
145
0.0
146
1.0
147
1.0
 71
0.0
 72
0.0
 73
0
 74
0
 75
0
 76
0
 77
1
 78
8
 79
2
170
0
171
2
172
0
173
0
174
0
175
0
176
0
177
0
178
5
270
2
179
3
271
3
272
3
273
2
274
2
275
0
280
0
281
0
282
0
283
1
284
8
285
0
286
0
287
3
288
0
340
22B
278
46
341
231
342
231
343
231
344
231
  0
DIMSTYLE
105
260
100
AcDbSymbolTableRecord
100
AcDbDimStyleTableRecord
  2
DIMSTYLE_6
 70
0
  3

  4

 40
1.0
 41
3.5
 42
0.0
 43
0.38
 44
1.5
 45
0.0
 46
0.0
 47
0.2
 48
0.2
140
4.0
141
0.09
142
0.0
143
25.4
144
1.0
145
0.0
146
1.0
147
1.0
 71
0.0
 72
0.0
 73
0
 74
0
 75
0
 76
0
 77
1
 78
8
 79
2
170
0
171
2
172
0
173
0
174
0
175
0
176
0
177
0
178
5
270
2
179
0
271
0
272
0
273
2
274
2
275
0
280
0
281
0
282
0
283
1
284
8
285
0
286
0
287
3
288
0
340
22B
278
46
341
231
342
231
343
231
344
231
  0
DIMSTYLE
105
261
100
AcDbSymbolTableRecord
100
AcDbDimStyleTableRecord
  2
DIMSTYLE_7
 70
0
  3

  4

 40
1.0
 41
3.5
 42
0.0
 43
0.38
 44
1.5
 45
0.0
 46
0.0
 47
0.2
 48
0.2
140
4.0
141
0.09
142
0.0
143
25.4
144
0.5
145
0.0
146
1.0
147
1.0
 71
0.0
 72
0.0
 73
0
 74
0
 75
0
 76
0
 77
1
 78
8
 79
2
170
0
171
2
172
0
173
0
174
0
175
0
176
0
177
0
178
5
270
2
179
0
271
0
272
0
273
2
274
2
275
0
280
0
281
0
282
0
283
1
284
8
285
0
286
0
287
3
288
0
340
22B
278
46
341
231
342
231
343
231
344
231
  0
DIMSTYLE
105
262
100
AcDbSymbolTableRecord
100
AcDbDimStyleTableRecord
  2
DIMSTYLE_8
 70
0
  3

  4

 40
1.0
 41
3.5
 42
0.0
 43
0.38
 44
1.5
 45
0.0
 46
0.0
 47
0.3
 48
0.3
140
4.0
141
0.09
142
0.0
143
25.4
144
0.5
145
0.0
146
1.0
147
1.0
 71
0.0
 72
0.0
 73
0
 74
0
 75
0
 76
0
 77
1
 78
8
 79
2
170
0
171
2
172
0
173
0
174
0
175
0
176
0
177
0
178
5
270
2
179
0
271
0
272
0
273
2
274
2
275
0
280
0
281
0
282
0
283
1
284
8
285
0
286
0
287
3
288
0
340
22B
278
46
341
231
342
231
343
231
344
231
  0
DIMSTYLE
105
263
100
AcDbSymbolTableRecord
100
AcDbDimStyleTableRecord
  2
DIMSTYLE_9
 70
0
  3

  4

 40
1.0
 41
3.5
 42
0.0
 43
0.38
 44
1.5
 45
0.0
 46
0.0
 47
0.1
 48
0.1
140
4.0
141
0.09
142
0.0
143
25.4
144
0.5
145
0.0
146
1.0
147
1.0
 71
0.0
 72
0.0
 73
0
 74
0
 75
0
 76
0
 77
1
 78
8
 79
2
170
0
171
2
172
0
173
0
174
0
175
0
176
0
177
0
178
5
270
2
179
3
271
3
272
3
273
2
274
2
275
0
280
0
281
0
282
0
283
1
284
8
285
0
286
0
287
3
288
0
340
22B
278
46
341
231
342
231
343
231
344
231
  0
DIMSTYLE
105
264
100
AcDbSymbolTableRecord
100
AcDbDimStyleTableRecord
  2
DIMSTYLE_10
 70
0
  3

  4

 40
1.0
 41
3.5
 42
0.0
 43
0.38
 44
1.5
 45
0.0
 46
0.0
 47
0.5
 48
0.5
140
4.0
141
0.09
142
0.0
143
25.4
144
1.0
145
0.0
146
1.0
147
2.0
 71
0.0
 72
0.0
 73
0
 74
0
 75
0
 76
0
 77
1
 78
8
 79
2
170
0
171
2
172
0
173
0
174
0
175
0
176
0
177
0
178
5
270
2
179
0
271
0
272
0
273
2
274
2
275
0
280
0
281
0
282
0
283
1
284
8
285
0
286
0
287
3
288
0
340
22B
278
46
341
231
342
231
343
231
344
231
  0
ENDTAB
  0
ENDSEC
  0
SECTION
  2
BLOCKS
  0
BLOCK
  5
20
100
AcDbEntity
  8
0
100
AcDbBlockBegin
  2
*Model_Space
 70
0
 10
0.0
 20
0.0
 30
0.0
  3
*Model_Space
  1

  0
ENDBLK
  5
21
100
AcDbEntity
  8
0
100
AcDbBlockEnd
  0
BLOCK
  5
1C
100
AcDbEntity
  8
0
100
AcDbBlockBegin
  2
*Paper_Space
 70
0
 10
0.0
 20
0.0
 30
0.0
  3
*Paper_Space
  1

  0
ENDBLK
  5
1D
100
AcDbEntity
  8
0
100
AcDbBlockEnd
  0
BLOCK
  5
265
100
AcDbEntity
  8
HATCHING_BL0
100
AcDbBlockBegin
  2
HATCHING_BL0
 70
64
 10
267.3590665735
 20
236.3116141201
  3
HATCHING_BL0
  1

  0
MTEXT
  5
266
100
AcDbEntity
  8
HATCHING_BL0
100
AcDbMText
 62
7
  6
CONTINUOUS
  7
STANDARD
 71
1
 72
1
 10
276.5177828422
 20
270.2133527281
 30
0.0
 11
1.0
 21
0.0
 31
0.0
 73
2
 44
0.9
  1
A
 40
5.0
 41
6.970260223
  0
LEADER
  5
267
100
AcDbEntity
  8
HATCHING_BL0
100
AcDbLeader
 62
7
  6
CONTINUOUS
  3
STANDARD
 71
1
 72
0
 73
3
 75
0
 76
2
 10
253.553510156
 20
266.8968947393
 30
0.0
 10
272.6184880936
 20
266.8968947393
 30
0.0
1001
ACAD
1000
DSTYLE
1002
{
1070
77
1070
0
1070
341
1005
232
1070
41
1040
10.0
1002
}
  0
MTEXT
  5
268
100
AcDbEntity
  8
HATCHING_BL0
100
AcDbMText
 62
7
  6
CONTINUOUS
  7
STANDARD
 71
1
 72
1
 10
275.8440076466
 20
207.4098755121
 30
0.0
 11
1.0
 21
0.0
 31
0.0
 73
2
 44
0.9
  1
A
 40
5.0
 41
6.970260223
  0
LEADER
  5
269
100
AcDbEntity
  8
HATCHING_BL0
100
AcDbLeader
 62
7
  6
CONTINUOUS
  3
STANDARD
 71
1
 72
0
 73
3
 75
0
 76
2
 10
253.553510156
 20
204.5602218808
 30
0.0
 10
272.6184880936
 20
204.5602218808
 30
0.0
1001
ACAD
1000
DSTYLE
1002
{
1070
77
1070
0
1070
341
1005
232
1070
41
1040
10.0
1002
}
  0
LINE
  5
26A
100
AcDbEntity
  8
HATCHING_BL0
100
AcDbLine
 62
7
  6
CENTER
 10
253.553510156
 20
266.8968947393
 11
253.553510156
 21
251.8968947393
  0
LINE
  5
26B
100
AcDbEntity
  8
HATCHING_BL0
100
AcDbLine
 62
9
  6
CENTER
 10
253.553510156
 20
251.8968947393
 11
253.553510156
 21
219.5602218808
  0
LINE
  5
26C
100
AcDbEntity
  8
HATCHING_BL0
100
AcDbLine
 62
7
  6
CENTER
 10
253.553510156
 20
219.5602218808
 11
253.553510156
 21
204.5602218808
  0
ENDBLK
  5
26D
100
AcDbEntity
  8
0
  6
BYBLOCK
 62
0
100
AcDbBlockEnd
  0
BLOCK
  5
26E
100
AcDbEntity
  8
Grp_symbol_75_BL1
100
AcDbBlockBegin
  2
GRP_SYMBOL_75_BL1
 70
64
 10
46.9666526624
 20
45.1364008621
  3
GRP_SYMBOL_75_BL1
  1

  0
LWPOLYLINE
  5
26F
100
AcDbEntity
  8
Grp_symbol_75_BL1
100
AcDbPolyline
 62
2
  6
CONTINUOUS
 90
42
 70
0
 10
33.6061430555
 20
52.6294565666
 10
33.7386774282
 20
52.6364015673
 10
60.1946278967
 20
52.6364015673
 10
60.3271622694
 20
52.6294565666
 10
60.4582445678
 20
52.6086965647
 10
60.5864386268
 20
52.5743465614
 10
60.7103399254
 20
52.526781557
 10
60.8285909751
 20
52.4665265513
 10
60.9398961927
 20
52.3942415445
 10
61.0430360949
 20
52.3107215366
 10
61.1368806593
 20
52.2168815278
 10
61.2204017052
 20
52.1137415181
 10
61.2926841587
 20
52.0024415077
 10
61.352936078
 20
51.8841814965
 10
61.4004973304
 20
51.7602814849
 10
61.434846825
 20
51.6320914728
 10
61.4556082214
 20
51.5010064605
 10
61.4625540536
 20
51.3684664481
 10
40.6199582704
 20
50.4622403
 10
39.8026353042
 20
50.3122916451
 10
39.0169507792
 20
50.0417343364
 10
38.2805952911
 20
49.6566602847
 10
37.6101487353
 20
49.1657398778
 10
37.0207069915
 20
48.5800267562
 10
36.5255420223
 20
47.9127089283
 10
36.1358030396
 20
47.1788118269
 10
32.4707512713
 20
38.9043202761
 10
32.4707512713
 20
51.3684664481
 10
32.4776971035
 20
51.5010064605
 10
32.4984584999
 20
51.6320914728
 10
32.5328079945
 20
51.7602814849
 10
32.5803692469
 20
51.8841814965
 10
32.6406211662
 20
52.0024415077
 10
32.7129036197
 20
52.1137415181
 10
32.7964246656
 20
52.2168815278
 10
32.89026923
 20
52.3107215366
 10
32.9934091322
 20
52.3942415445
 10
33.1047143497
 20
52.4665265513
 10
33.2229653995
 20
52.526781557
 10
33.3468666981
 20
52.5743465614
 10
33.4750607571
 20
52.6086965647
 10
33.6061430555
 20
52.6294565666
  0
HATCH
  5
270
100
AcDbEntity
  8
Grp_symbol_75_BL1
100
AcDbHatch
 62
2
  6
CONTINUOUS
 10
0.0
 20
0.0
 30
0.0
210
0.0
220
0.0
230
1.0
  2
SOLID
 70
1
 71
1
 91
1
 92
1
 93
41
 72
1
 10
33.6061430555
 20
52.6294565666
 11
33.7386774282
 21
52.6364015673
 72
1
 10
33.7386774282
 20
52.6364015673
 11
60.1946278967
 21
52.6364015673
 72
1
 10
60.1946278967
 20
52.6364015673
 11
60.3271622694
 21
52.6294565666
 72
1
 10
60.3271622694
 20
52.6294565666
 11
60.4582445678
 21
52.6086965647
 72
1
 10
60.4582445678
 20
52.6086965647
 11
60.5864386268
 21
52.5743465614
 72
1
 10
60.5864386268
 20
52.5743465614
 11
60.7103399254
 21
52.526781557
 72
1
 10
60.7103399254
 20
52.526781557
 11
60.8285909751
 21
52.4665265513
 72
1
 10
60.8285909751
 20
52.4665265513
 11
60.9398961927
 21
52.3942415445
 72
1
 10
60.9398961927
 20
52.3942415445
 11
61.0430360949
 21
52.3107215366
 72
1
 10
61.0430360949
 20
52.3107215366
 11
61.1368806593
 21
52.2168815278
 72
1
 10
61.1368806593
 20
52.2168815278
 11
61.2204017052
 21
52.1137415181
 72
1
 10
61.2204017052
 20
52.1137415181
 11
61.2926841587
 21
52.0024415077
 72
1
 10
61.2926841587
 20
52.0024415077
 11
61.352936078
 21
51.8841814965
 72
1
 10
61.352936078
 20
51.8841814965
 11
61.4004973304
 21
51.7602814849
 72
1
 10
61.4004973304
 20
51.7602814849
 11
61.434846825
 21
51.6320914728
 72
1
 10
61.434846825
 20
51.6320914728
 11
61.4556082214
 21
51.5010064605
 72
1
 10
61.4556082214
 20
51.5010064605
 11
61.4625540536
 21
51.3684664481
 72
1
 10
61.4625540536
 20
51.3684664481
 11
40.6199582704
 21
50.4622403
 72
1
 10
40.6199582704
 20
50.4622403
 11
39.8026353042
 21
50.3122916451
 72
1
 10
39.8026353042
 20
50.3122916451
 11
39.0169507792
 21
50.0417343364
 72
1
 10
39.0169507792
 20
50.0417343364
 11
38.2805952911
 21
49.6566602847
 72
1
 10
38.2805952911
 20
49.6566602847
 11
37.6101487353
 21
49.1657398778
 72
1
 10
37.6101487353
 20
49.1657398778
 11
37.0207069915
 21
48.5800267562
 72
1
 10
37.0207069915
 20
48.5800267562
 11
36.5255420223
 21
47.9127089283
 72
1
 10
36.5255420223
 20
47.9127089283
 11
36.1358030396
 21
47.1788118269
 72
1
 10
36.1358030396
 20
47.1788118269
 11
32.4707512713
 21
38.9043202761
 72
1
 10
32.4707512713
 20
38.9043202761
 11
32.4707512713
 21
51.3684664481
 72
1
 10
32.4707512713
 20
51.3684664481
 11
32.4776971035
 21
51.5010064605
 72
1
 10
32.4776971035
 20
51.5010064605
 11
32.4984584999
 21
51.6320914728
 72
1
 10
32.4984584999
 20
51.6320914728
 11
32.5328079945
 21
51.7602814849
 72
1
 10
32.5328079945
 20
51.7602814849
 11
32.5803692469
 21
51.8841814965
 72
1
 10
32.5803692469
 20
51.8841814965
 11
32.6406211662
 21
52.0024415077
 72
1
 10
32.6406211662
 20
52.0024415077
 11
32.7129036197
 21
52.1137415181
 72
1
 10
32.7129036197
 20
52.1137415181
 11
32.7964246656
 21
52.2168815278
 72
1
 10
32.7964246656
 20
52.2168815278
 11
32.89026923
 21
52.3107215366
 72
1
 10
32.89026923
 20
52.3107215366
 11
32.9934091322
 21
52.3942415445
 72
1
 10
32.9934091322
 20
52.3942415445
 11
33.1047143497
 21
52.4665265513
 72
1
 10
33.1047143497
 20
52.4665265513
 11
33.2229653995
 21
52.526781557
 72
1
 10
33.2229653995
 20
52.526781557
 11
33.3468666981
 21
52.5743465614
 72
1
 10
33.3468666981
 20
52.5743465614
 11
33.4750607571
 21
52.6086965647
 72
1
 10
33.4750607571
 20
52.6086965647
 11
33.6061430555
 21
52.6294565666
 97
1
330
26F
 75
0
 76
1
 98
1
 10
0.0
 20
0.0
  0
LWPOLYLINE
  5
271
100
AcDbEntity
  8
Grp_symbol_75_BL1
100
AcDbPolyline
 62
2
  6
CONTINUOUS
 90
23
 70
0
 10
43.0766591117
 20
50.1686431513
 10
42.2756096267
 20
50.3895982432
 10
61.4625540536
 20
51.3684664481
 10
61.4625540535
 20
38.9043202761
 10
56.2495610192
 20
41.3268355039
 10
56.4752854343
 20
41.7845605469
 10
56.6393337966
 20
42.2678305924
 10
56.7388991931
 20
42.7683806394
 10
56.7722780323
 20
43.2776456873
 10
56.7722780323
 20
50.1998613382
 10
54.0453442839
 20
50.1998613382
 10
51.6959859775
 20
50.1998613382
 10
48.9690522291
 20
50.1998613382
 10
48.9690522291
 20
46.0570109487
 10
47.1245948734
 20
46.0570109487
 10
46.7386307207
 20
45.2325448539
 10
46.6349474023
 20
46.0570109487
 10
43.5038439488
 20
46.5771432553
 10
45.6961824605
 20
48.1993884172
 10
45.1603035741
 20
48.8344752218
 10
44.5354290314
 20
49.3822281186
 10
43.8356286053
 20
49.8303138177
 10
43.0766591117
 20
50.1686431513
  0
HATCH
  5
272
100
AcDbEntity
  8
Grp_symbol_75_BL1
100
AcDbHatch
 62
2
  6
CONTINUOUS
 10
0.0
 20
0.0
 30
0.0
210
0.0
220
0.0
230
1.0
  2
SOLID
 70
1
 71
1
 91
1
 92
1
 93
22
 72
1
 10
43.0766591117
 20
50.1686431513
 11
42.2756096267
 21
50.3895982432
 72
1
 10
42.2756096267
 20
50.3895982432
 11
61.4625540536
 21
51.3684664481
 72
1
 10
61.4625540536
 20
51.3684664481
 11
61.4625540535
 21
38.9043202761
 72
1
 10
61.4625540535
 20
38.9043202761
 11
56.2495610192
 21
41.3268355039
 72
1
 10
56.2495610192
 20
41.3268355039
 11
56.4752854343
 21
41.7845605469
 72
1
 10
56.4752854343
 20
41.7845605469
 11
56.6393337966
 21
42.2678305924
 72
1
 10
56.6393337966
 20
42.2678305924
 11
56.7388991931
 21
42.7683806394
 72
1
 10
56.7388991931
 20
42.7683806394
 11
56.7722780323
 21
43.2776456873
 72
1
 10
56.7722780323
 20
43.2776456873
 11
56.7722780323
 21
50.1998613382
 72
1
 10
56.7722780323
 20
50.1998613382
 11
54.0453442839
 21
50.1998613382
 72
1
 10
54.0453442839
 20
50.1998613382
 11
51.6959859775
 21
50.1998613382
 72
1
 10
51.6959859775
 20
50.1998613382
 11
48.9690522291
 21
50.1998613382
 72
1
 10
48.9690522291
 20
50.1998613382
 11
48.9690522291
 21
46.0570109487
 72
1
 10
48.9690522291
 20
46.0570109487
 11
47.1245948734
 21
46.0570109487
 72
1
 10
47.1245948734
 20
46.0570109487
 11
46.7386307207
 21
45.2325448539
 72
1
 10
46.7386307207
 20
45.2325448539
 11
46.6349474023
 21
46.0570109487
 72
1
 10
46.6349474023
 20
46.0570109487
 11
43.5038439488
 21
46.5771432553
 72
1
 10
43.5038439488
 20
46.5771432553
 11
45.6961824605
 21
48.1993884172
 72
1
 10
45.6961824605
 20
48.1993884172
 11
45.1603035741
 21
48.8344752218
 72
1
 10
45.1603035741
 20
48.8344752218
 11
44.5354290314
 21
49.3822281186
 72
1
 10
44.5354290314
 20
49.3822281186
 11
43.8356286053
 21
49.8303138177
 72
1
 10
43.8356286053
 20
49.8303138177
 11
43.0766591117
 21
50.1686431513
 97
1
330
271
 75
0
 76
1
 98
1
 10
0.0
 20
0.0
  0
LWPOLYLINE
  5
273
100
AcDbEntity
  8
Grp_symbol_75_BL1
100
AcDbPolyline
 62
2
  6
CONTINUOUS
 90
20
 70
0
 10
40.6102335905
 20
47.702343529
 10
41.0169302119
 20
47.7601062306
 10
41.4277028178
 20
47.7579760501
 10
41.8337784912
 20
47.6959984818
 10
42.2264846277
 20
47.5754971878
 10
42.5974341577
 20
47.3990457278
 10
42.9387046698
 20
47.1704125958
 10
43.243007611
 20
46.8944807356
 10
43.5038439488
 20
46.5771432553
 10
46.6349474023
 20
46.0570109487
 10
41.31266132
 20
46.0570109487
 10
41.1689178229
 20
46.0475936613
 10
38.5510546932
 20
45.8737037053
 10
38.713215996
 20
46.2511191043
 10
38.9286539699
 20
46.6008692306
 10
39.1927674817
 20
46.9154844312
 10
39.499915829
 20
47.1882454333
 10
39.8435392096
 20
47.4133268492
 10
40.2162988199
 20
47.5859215896
 10
40.6102335905
 20
47.702343529
  0
HATCH
  5
274
100
AcDbEntity
  8
Grp_symbol_75_BL1
100
AcDbHatch
 62
2
  6
CONTINUOUS
 10
0.0
 20
0.0
 30
0.0
210
0.0
220
0.0
230
1.0
  2
SOLID
 70
1
 71
1
 91
1
 92
1
 93
19
 72
1
 10
40.6102335905
 20
47.702343529
 11
41.0169302119
 21
47.7601062306
 72
1
 10
41.0169302119
 20
47.7601062306
 11
41.4277028178
 21
47.7579760501
 72
1
 10
41.4277028178
 20
47.7579760501
 11
41.8337784912
 21
47.6959984818
 72
1
 10
41.8337784912
 20
47.6959984818
 11
42.2264846277
 21
47.5754971878
 72
1
 10
42.2264846277
 20
47.5754971878
 11
42.5974341577
 21
47.3990457278
 72
1
 10
42.5974341577
 20
47.3990457278
 11
42.9387046698
 21
47.1704125958
 72
1
 10
42.9387046698
 20
47.1704125958
 11
43.243007611
 21
46.8944807356
 72
1
 10
43.243007611
 20
46.8944807356
 11
43.5038439488
 21
46.5771432553
 72
1
 10
43.5038439488
 20
46.5771432553
 11
46.6349474023
 21
46.0570109487
 72
1
 10
46.6349474023
 20
46.0570109487
 11
41.31266132
 21
46.0570109487
 72
1
 10
41.31266132
 20
46.0570109487
 11
41.1689178229
 21
46.0475936613
 72
1
 10
41.1689178229
 20
46.0475936613
 11
38.5510546932
 21
45.8737037053
 72
1
 10
38.5510546932
 20
45.8737037053
 11
38.713215996
 21
46.2511191043
 72
1
 10
38.713215996
 20
46.2511191043
 11
38.9286539699
 21
46.6008692306
 72
1
 10
38.9286539699
 20
46.6008692306
 11
39.1927674817
 21
46.9154844312
 72
1
 10
39.1927674817
 20
46.9154844312
 11
39.499915829
 21
47.1882454333
 72
1
 10
39.499915829
 20
47.1882454333
 11
39.8435392096
 21
47.4133268492
 72
1
 10
39.8435392096
 20
47.4133268492
 11
40.2162988199
 21
47.5859215896
 72
1
 10
40.2162988199
 20
47.5859215896
 11
40.6102335905
 21
47.702343529
 97
1
330
273
 75
0
 76
1
 98
1
 10
0.0
 20
0.0
  0
LWPOLYLINE
  5
275
100
AcDbEntity
  8
Grp_symbol_75_BL1
100
AcDbPolyline
 62
2
  6
CONTINUOUS
 90
8
 70
0
 10
40.762030467
 20
45.9094740154
 10
40.6422556701
 20
45.8294430548
 10
38.4456333589
 20
45.4766835374
 10
38.5510546932
 20
45.8737037053
 10
41.1689178229
 20
46.0475936613
 10
41.0276338169
 20
46.0194905252
 10
40.8912267104
 20
45.9731865519
 10
40.762030467
 20
45.9094740154
  0
HATCH
  5
276
100
AcDbEntity
  8
Grp_symbol_75_BL1
100
AcDbHatch
 62
2
  6
CONTINUOUS
 10
0.0
 20
0.0
 30
0.0
210
0.0
220
0.0
230
1.0
  2
SOLID
 70
1
 71
1
 91
1
 92
1
 93
7
 72
1
 10
40.762030467
 20
45.9094740154
 11
40.6422556701
 21
45.8294430548
 72
1
 10
40.6422556701
 20
45.8294430548
 11
38.4456333589
 21
45.4766835374
 72
1
 10
38.4456333589
 20
45.4766835374
 11
38.5510546932
 21
45.8737037053
 72
1
 10
38.5510546932
 20
45.8737037053
 11
41.1689178229
 21
46.0475936613
 72
1
 10
41.1689178229
 20
46.0475936613
 11
41.0276338169
 21
46.0194905252
 72
1
 10
41.0276338169
 20
46.0194905252
 11
40.8912267104
 21
45.9731865519
 72
1
 10
40.8912267104
 20
45.9731865519
 11
40.762030467
 21
45.9094740154
 97
1
330
275
 75
0
 76
1
 98
1
 10
0.0
 20
0.0
  0
LWPOLYLINE
  5
277
100
AcDbEntity
  8
Grp_symbol_75_BL1
100
AcDbPolyline
 62
2
  6
CONTINUOUS
 90
8
 70
0
 10
40.3589407064
 20
45.5063842548
 10
40.2952281699
 20
45.3771880114
 10
38.3992034885
 20
45.0685378052
 10
38.4456333589
 20
45.4766835374
 10
40.6422556701
 20
45.8294430548
 10
40.5339516998
 20
45.734463022
 10
40.438971667
 20
45.6261590517
 10
40.3589407064
 20
45.5063842548
  0
HATCH
  5
278
100
AcDbEntity
  8
Grp_symbol_75_BL1
100
AcDbHatch
 62
2
  6
CONTINUOUS
 10
0.0
 20
0.0
 30
0.0
210
0.0
220
0.0
230
1.0
  2
SOLID
 70
1
 71
1
 91
1
 92
1
 93
7
 72
1
 10
40.3589407064
 20
45.5063842548
 11
40.2952281699
 21
45.3771880114
 72
1
 10
40.2952281699
 20
45.3771880114
 11
38.3992034885
 21
45.0685378052
 72
1
 10
38.3992034885
 20
45.0685378052
 11
38.4456333589
 21
45.4766835374
 72
1
 10
38.4456333589
 20
45.4766835374
 11
40.6422556701
 21
45.8294430548
 72
1
 10
40.6422556701
 20
45.8294430548
 11
40.5339516998
 21
45.734463022
 72
1
 10
40.5339516998
 20
45.734463022
 11
40.438971667
 21
45.6261590517
 72
1
 10
40.438971667
 20
45.6261590517
 11
40.3589407064
 21
45.5063842548
 97
1
330
277
 75
0
 76
1
 98
1
 10
0.0
 20
0.0
  0
LWPOLYLINE
  5
279
100
AcDbEntity
  8
Grp_symbol_75_BL1
100
AcDbPolyline
 62
2
  6
CONTINUOUS
 90
7
 70
0
 10
47.2089699316
 20
45.4299830195
 10
47.2258933497
 20
45.1139808878
 10
46.7177805216
 20
44.4018423203
 10
46.7386307207
 20
45.2325448539
 10
47.1245948734
 20
46.0570109487
 10
47.1751715297
 20
45.7446279263
 10
47.2089699316
 20
45.4299830195
  0
HATCH
  5
27A
100
AcDbEntity
  8
Grp_symbol_75_BL1
100
AcDbHatch
 62
2
  6
CONTINUOUS
 10
0.0
 20
0.0
 30
0.0
210
0.0
220
0.0
230
1.0
  2
SOLID
 70
1
 71
1
 91
1
 92
1
 93
6
 72
1
 10
47.2089699316
 20
45.4299830195
 11
47.2258933497
 21
45.1139808878
 72
1
 10
47.2258933497
 20
45.1139808878
 11
46.7177805216
 21
44.4018423203
 72
1
 10
46.7177805216
 20
44.4018423203
 11
46.7386307207
 21
45.2325448539
 72
1
 10
46.7386307207
 20
45.2325448539
 11
47.1245948734
 21
46.0570109487
 72
1
 10
47.1245948734
 20
46.0570109487
 11
47.1751715297
 21
45.7446279263
 72
1
 10
47.1751715297
 20
45.7446279263
 11
47.2089699316
 21
45.4299830195
 97
1
330
279
 75
0
 76
1
 98
1
 10
0.0
 20
0.0
  0
LWPOLYLINE
  5
27B
100
AcDbEntity
  8
Grp_symbol_75_BL1
100
AcDbPolyline
 62
2
  6
CONTINUOUS
 90
7
 70
0
 10
40.2208210605
 20
45.0994968989
 10
40.211399614
 20
44.9557534018
 10
38.4127566901
 20
44.6579833238
 10
38.3992034885
 20
45.0685378052
 10
40.2952281699
 20
45.3771880114
 10
40.2489241966
 20
45.2407809049
 10
40.2208210605
 20
45.0994968989
  0
HATCH
  5
27C
100
AcDbEntity
  8
Grp_symbol_75_BL1
100
AcDbHatch
 62
2
  6
CONTINUOUS
 10
0.0
 20
0.0
 30
0.0
210
0.0
220
0.0
230
1.0
  2
SOLID
 70
1
 71
1
 91
1
 92
1
 93
6
 72
1
 10
40.2208210605
 20
45.0994968989
 11
40.211399614
 21
44.9557534018
 72
1
 10
40.211399614
 20
44.9557534018
 11
38.4127566901
 21
44.6579833238
 72
1
 10
38.4127566901
 20
44.6579833238
 11
38.3992034885
 21
45.0685378052
 72
1
 10
38.3992034885
 20
45.0685378052
 11
40.2952281699
 21
45.3771880114
 72
1
 10
40.2952281699
 20
45.3771880114
 11
40.2489241966
 21
45.2407809049
 72
1
 10
40.2489241966
 20
45.2407809049
 11
40.2208210605
 21
45.0994968989
 97
1
330
27B
 75
0
 76
1
 98
1
 10
0.0
 20
0.0
  0
LWPOLYLINE
  5
27D
100
AcDbEntity
  8
Grp_symbol_75_BL1
100
AcDbPolyline
 62
2
  6
CONTINUOUS
 90
7
 70
0
 10
40.2489241966
 20
44.6707258986
 10
40.2952281699
 20
44.5343187921
 10
38.4860035063
 20
44.2537883518
 10
38.4127566901
 20
44.6579833238
 10
40.211399614
 20
44.9557534018
 10
40.2208210605
 20
44.8120099046
 10
40.2489241966
 20
44.6707258986
  0
HATCH
  5
27E
100
AcDbEntity
  8
Grp_symbol_75_BL1
100
AcDbHatch
 62
2
  6
CONTINUOUS
 10
0.0
 20
0.0
 30
0.0
210
0.0
220
0.0
230
1.0
  2
SOLID
 70
1
 71
1
 91
1
 92
1
 93
6
 72
1
 10
40.2489241966
 20
44.6707258986
 11
40.2952281699
 21
44.5343187921
 72
1
 10
40.2952281699
 20
44.5343187921
 11
38.4860035063
 21
44.2537883518
 72
1
 10
38.4860035063
 20
44.2537883518
 11
38.4127566901
 21
44.6579833238
 72
1
 10
38.4127566901
 20
44.6579833238
 11
40.211399614
 21
44.9557534018
 72
1
 10
40.211399614
 20
44.9557534018
 11
40.2208210605
 21
44.8120099046
 72
1
 10
40.2208210605
 20
44.8120099046
 11
40.2489241966
 21
44.6707258986
 97
1
330
27D
 75
0
 76
1
 98
1
 10
0.0
 20
0.0
  0
LWPOLYLINE
  5
27F
100
AcDbEntity
  8
Grp_symbol_75_BL1
100
AcDbPolyline
 62
2
  6
CONTINUOUS
 90
7
 70
0
 10
47.2089699316
 20
44.481523784
 10
47.1751715297
 20
44.1668788772
 10
46.5728662712
 20
43.5836117354
 10
46.7177805216
 20
44.4018423203
 10
47.2258933497
 20
45.1139808878
 10
47.2258933497
 20
44.7975259157
 10
47.2089699316
 20
44.481523784
  0
HATCH
  5
280
100
AcDbEntity
  8
Grp_symbol_75_BL1
100
AcDbHatch
 62
2
  6
CONTINUOUS
 10
0.0
 20
0.0
 30
0.0
210
0.0
220
0.0
230
1.0
  2
SOLID
 70
1
 71
1
 91
1
 92
1
 93
6
 72
1
 10
47.2089699316
 20
44.481523784
 11
47.1751715297
 21
44.1668788772
 72
1
 10
47.1751715297
 20
44.1668788772
 11
46.5728662712
 21
43.5836117354
 72
1
 10
46.5728662712
 20
43.5836117354
 11
46.7177805216
 21
44.4018423203
 72
1
 10
46.7177805216
 20
44.4018423203
 11
47.2258933497
 21
45.1139808878
 72
1
 10
47.2258933497
 20
45.1139808878
 11
47.2258933497
 21
44.7975259157
 72
1
 10
47.2258933497
 20
44.7975259157
 11
47.2089699316
 21
44.481523784
 97
1
330
27F
 75
0
 76
1
 98
1
 10
0.0
 20
0.0
  0
LWPOLYLINE
  5
281
100
AcDbEntity
  8
Grp_symbol_75_BL1
100
AcDbPolyline
 62
2
  6
CONTINUOUS
 90
7
 70
0
 10
40.438971667
 20
44.2853477519
 10
40.5339516998
 20
44.1770437815
 10
38.6173795967
 20
43.8645853272
 10
38.4860035063
 20
44.2537883518
 10
40.2952281699
 20
44.5343187921
 10
40.3589407064
 20
44.4051225487
 10
40.438971667
 20
44.2853477519
  0
HATCH
  5
282
100
AcDbEntity
  8
Grp_symbol_75_BL1
100
AcDbHatch
 62
2
  6
CONTINUOUS
 10
0.0
 20
0.0
 30
0.0
210
0.0
220
0.0
230
1.0
  2
SOLID
 70
1
 71
1
 91
1
 92
1
 93
6
 72
1
 10
40.438971667
 20
44.2853477519
 11
40.5339516998
 21
44.1770437815
 72
1
 10
40.5339516998
 20
44.1770437815
 11
38.6173795967
 21
43.8645853272
 72
1
 10
38.6173795967
 20
43.8645853272
 11
38.4860035063
 21
44.2537883518
 72
1
 10
38.4860035063
 20
44.2537883518
 11
40.2952281699
 21
44.5343187921
 72
1
 10
40.2952281699
 20
44.5343187921
 11
40.3589407064
 21
44.4051225487
 72
1
 10
40.3589407064
 20
44.4051225487
 11
40.438971667
 21
44.2853477519
 97
1
330
281
 75
0
 76
1
 98
1
 10
0.0
 20
0.0
  0
LWPOLYLINE
  5
283
100
AcDbEntity
  8
Grp_symbol_75_BL1
100
AcDbPolyline
 62
2
  6
CONTINUOUS
 90
9
 70
0
 10
41.0276338169
 20
43.8920162784
 10
41.1689178229
 20
43.8639131422
 10
38.8040791471
 20
43.4986865032
 10
38.6173795967
 20
43.8645853272
 10
40.5339516998
 20
44.1770437815
 10
40.6422556701
 20
44.0820637487
 10
40.762030467
 20
44.0020327881
 10
40.8912267104
 20
43.9383202516
 10
41.0276338169
 20
43.8920162784
  0
HATCH
  5
284
100
AcDbEntity
  8
Grp_symbol_75_BL1
100
AcDbHatch
 62
2
  6
CONTINUOUS
 10
0.0
 20
0.0
 30
0.0
210
0.0
220
0.0
230
1.0
  2
SOLID
 70
1
 71
1
 91
1
 92
1
 93
8
 72
1
 10
41.0276338169
 20
43.8920162784
 11
41.1689178229
 21
43.8639131422
 72
1
 10
41.1689178229
 20
43.8639131422
 11
38.8040791471
 21
43.4986865032
 72
1
 10
38.8040791471
 20
43.4986865032
 11
38.6173795967
 21
43.8645853272
 72
1
 10
38.6173795967
 20
43.8645853272
 11
40.5339516998
 21
44.1770437815
 72
1
 10
40.5339516998
 20
44.1770437815
 11
40.6422556701
 21
44.0820637487
 72
1
 10
40.6422556701
 20
44.0820637487
 11
40.762030467
 21
44.0020327881
 72
1
 10
40.762030467
 20
44.0020327881
 11
40.8912267104
 21
43.9383202516
 72
1
 10
40.8912267104
 20
43.9383202516
 11
41.0276338169
 21
43.8920162784
 97
1
330
283
 75
0
 76
1
 98
1
 10
0.0
 20
0.0
  0
LWPOLYLINE
  5
285
100
AcDbEntity
  8
Grp_symbol_75_BL1
100
AcDbPolyline
 62
2
  6
CONTINUOUS
 90
9
 70
0
 10
48.9690522291
 20
43.8544857416
 10
48.9690522291
 20
43.2776456873
 10
49.0024310683
 20
42.7683806394
 10
45.9266172421
 20
42.0575643985
 10
46.3071508816
 20
42.796276507
 10
46.5728662712
 20
43.5836117354
 10
47.1751715297
 20
44.1668788772
 10
47.1245948734
 20
43.8544857416
 10
48.9690522291
 20
43.8544857416
  0
HATCH
  5
286
100
AcDbEntity
  8
Grp_symbol_75_BL1
100
AcDbHatch
 62
2
  6
CONTINUOUS
 10
0.0
 20
0.0
 30
0.0
210
0.0
220
0.0
230
1.0
  2
SOLID
 70
1
 71
1
 91
1
 92
1
 93
8
 72
1
 10
48.9690522291
 20
43.8544857416
 11
48.9690522291
 21
43.2776456873
 72
1
 10
48.9690522291
 20
43.2776456873
 11
49.0024310683
 21
42.7683806394
 72
1
 10
49.0024310683
 20
42.7683806394
 11
45.9266172421
 21
42.0575643985
 72
1
 10
45.9266172421
 20
42.0575643985
 11
46.3071508816
 21
42.796276507
 72
1
 10
46.3071508816
 20
42.796276507
 11
46.5728662712
 21
43.5836117354
 72
1
 10
46.5728662712
 20
43.5836117354
 11
47.1751715297
 21
44.1668788772
 72
1
 10
47.1751715297
 20
44.1668788772
 11
47.1245948734
 21
43.8544857416
 72
1
 10
47.1245948734
 20
43.8544857416
 11
48.9690522291
 21
43.8544857416
 97
1
330
285
 75
0
 76
1
 98
1
 10
0.0
 20
0.0
  0
LWPOLYLINE
  5
287
100
AcDbEntity
  8
Grp_symbol_75_BL1
100
AcDbPolyline
 62
2
  6
CONTINUOUS
 90
19
 70
0
 10
43.7939039211
 20
43.8544857416
 10
43.6057788739
 20
43.4893237368
 10
43.3664394762
 20
43.1554744831
 10
43.0809973267
 20
42.860073991
 10
42.7555486458
 20
42.6094311623
 10
42.3970440779
 20
42.4088990045
 10
42.0131402459
 20
42.2627603056
 10
41.6120362277
 20
42.1741361665
 10
41.2022984472
 20
42.144919343
 10
40.792677721
 20
42.1757338221
 10
40.3919223653
 20
42.2659214954
 10
40.008591358
 20
42.4135562146
 10
39.6508715429
 20
42.6154849282
 10
39.3264027828
 20
42.8673950217
 10
39.0421147939
 20
43.1639064226
 10
38.8040791471
 20
43.4986865032
 10
41.1689178229
 20
43.8639131422
 10
41.31266132
 20
43.8544857416
 10
43.7939039211
 20
43.8544857416
  0
HATCH
  5
288
100
AcDbEntity
  8
Grp_symbol_75_BL1
100
AcDbHatch
 62
2
  6
CONTINUOUS
 10
0.0
 20
0.0
 30
0.0
210
0.0
220
0.0
230
1.0
  2
SOLID
 70
1
 71
1
 91
1
 92
1
 93
18
 72
1
 10
43.7939039211
 20
43.8544857416
 11
43.6057788739
 21
43.4893237368
 72
1
 10
43.6057788739
 20
43.4893237368
 11
43.3664394762
 21
43.1554744831
 72
1
 10
43.3664394762
 20
43.1554744831
 11
43.0809973267
 21
42.860073991
 72
1
 10
43.0809973267
 20
42.860073991
 11
42.7555486458
 21
42.6094311623
 72
1
 10
42.7555486458
 20
42.6094311623
 11
42.3970440779
 21
42.4088990045
 72
1
 10
42.3970440779
 20
42.4088990045
 11
42.0131402459
 21
42.2627603056
 72
1
 10
42.0131402459
 20
42.2627603056
 11
41.6120362277
 21
42.1741361665
 72
1
 10
41.6120362277
 20
42.1741361665
 11
41.2022984472
 21
42.144919343
 72
1
 10
41.2022984472
 20
42.144919343
 11
40.792677721
 21
42.1757338221
 72
1
 10
40.792677721
 20
42.1757338221
 11
40.3919223653
 21
42.2659214954
 72
1
 10
40.3919223653
 20
42.2659214954
 11
40.008591358
 21
42.4135562146
 72
1
 10
40.008591358
 20
42.4135562146
 11
39.6508715429
 21
42.6154849282
 72
1
 10
39.6508715429
 20
42.6154849282
 11
39.3264027828
 21
42.8673950217
 72
1
 10
39.3264027828
 20
42.8673950217
 11
39.0421147939
 21
43.1639064226
 72
1
 10
39.0421147939
 20
43.1639064226
 11
38.8040791471
 21
43.4986865032
 72
1
 10
38.8040791471
 20
43.4986865032
 11
41.1689178229
 21
43.8639131422
 72
1
 10
41.1689178229
 20
43.8639131422
 11
41.31266132
 21
43.8544857416
 72
1
 10
41.31266132
 20
43.8544857416
 11
43.7939039211
 21
43.8544857416
 97
1
330
287
 75
0
 76
1
 98
1
 10
0.0
 20
0.0
  0
LWPOLYLINE
  5
289
100
AcDbEntity
  8
Grp_symbol_75_BL1
100
AcDbPolyline
 62
2
  6
CONTINUOUS
 90
28
 70
0
 10
51.6959859775
 20
43.2776456873
 10
51.6959859775
 20
50.1998613382
 10
54.0453442839
 20
50.1998613382
 10
54.0453442839
 20
43.2776456873
 10
54.0352947409
 20
43.1243156729
 10
54.0053180623
 20
42.9736106587
 10
53.9559271576
 20
42.8281106451
 10
53.8879671186
 20
42.6903056321
 10
53.8026007606
 20
42.5625356201
 10
53.7012887256
 20
42.4470206092
 10
53.5857644906
 20
42.3457105997
 10
53.4580047073
 20
42.2603455917
 10
53.3201953809
 20
42.1923805853
 10
53.1746944674
 20
42.1429855806
 10
53.0239915276
 20
42.1130155778
 10
52.8706651307
 20
42.1029611726
 10
52.7173387337
 20
42.1130155778
 10
52.566635794
 20
42.1429855806
 10
52.4211348804
 20
42.1923805853
 10
52.2833255541
 20
42.2603455917
 10
52.1555657708
 20
42.3457105997
 10
52.0400415358
 20
42.4470206092
 10
51.9387295008
 20
42.5625356201
 10
51.8533631428
 20
42.6903056321
 10
51.7854031038
 20
42.8281106451
 10
51.736012199
 20
42.9736106587
 10
51.7060355205
 20
43.1243156729
 10
51.6959859775
 20
43.2776456873
  0
HATCH
  5
28A
100
AcDbEntity
  8
Grp_symbol_75_BL1
100
AcDbHatch
 62
2
  6
CONTINUOUS
 10
0.0
 20
0.0
 30
0.0
210
0.0
220
0.0
230
1.0
  2
SOLID
 70
1
 71
1
 91
1
 92
1
 93
27
 72
1
 10
51.6959859775
 20
43.2776456873
 11
51.6959859775
 21
50.1998613382
 72
1
 10
51.6959859775
 20
50.1998613382
 11
54.0453442839
 21
50.1998613382
 72
1
 10
54.0453442839
 20
50.1998613382
 11
54.0453442839
 21
43.2776456873
 72
1
 10
54.0453442839
 20
43.2776456873
 11
54.0352947409
 21
43.1243156729
 72
1
 10
54.0352947409
 20
43.1243156729
 11
54.0053180623
 21
42.9736106587
 72
1
 10
54.0053180623
 20
42.9736106587
 11
53.9559271576
 21
42.8281106451
 72
1
 10
53.9559271576
 20
42.8281106451
 11
53.8879671186
 21
42.6903056321
 72
1
 10
53.8879671186
 20
42.6903056321
 11
53.8026007606
 21
42.5625356201
 72
1
 10
53.8026007606
 20
42.5625356201
 11
53.7012887256
 21
42.4470206092
 72
1
 10
53.7012887256
 20
42.4470206092
 11
53.5857644906
 21
42.3457105997
 72
1
 10
53.5857644906
 20
42.3457105997
 11
53.4580047073
 21
42.2603455917
 72
1
 10
53.4580047073
 20
42.2603455917
 11
53.3201953809
 21
42.1923805853
 72
1
 10
53.3201953809
 20
42.1923805853
 11
53.1746944674
 21
42.1429855806
 72
1
 10
53.1746944674
 20
42.1429855806
 11
53.0239915276
 21
42.1130155778
 72
1
 10
53.0239915276
 20
42.1130155778
 11
52.8706651307
 21
42.1029611726
 72
1
 10
52.8706651307
 20
42.1029611726
 11
52.7173387337
 21
42.1130155778
 72
1
 10
52.7173387337
 20
42.1130155778
 11
52.566635794
 21
42.1429855806
 72
1
 10
52.566635794
 20
42.1429855806
 11
52.4211348804
 21
42.1923805853
 72
1
 10
52.4211348804
 20
42.1923805853
 11
52.2833255541
 21
42.2603455917
 72
1
 10
52.2833255541
 20
42.2603455917
 11
52.1555657708
 21
42.3457105997
 72
1
 10
52.1555657708
 20
42.3457105997
 11
52.0400415358
 21
42.4470206092
 72
1
 10
52.0400415358
 20
42.4470206092
 11
51.9387295008
 21
42.5625356201
 72
1
 10
51.9387295008
 20
42.5625356201
 11
51.8533631428
 21
42.6903056321
 72
1
 10
51.8533631428
 20
42.6903056321
 11
51.7854031038
 21
42.8281106451
 72
1
 10
51.7854031038
 20
42.8281106451
 11
51.736012199
 21
42.9736106587
 72
1
 10
51.736012199
 20
42.9736106587
 11
51.7060355205
 21
43.1243156729
 72
1
 10
51.7060355205
 20
43.1243156729
 11
51.6959859775
 21
43.2776456873
 97
1
330
289
 75
0
 76
1
 98
1
 10
0.0
 20
0.0
  0
LWPOLYLINE
  5
28B
100
AcDbEntity
  8
Grp_symbol_75_BL1
100
AcDbPolyline
 62
2
  6
CONTINUOUS
 90
8
 70
0
 10
49.1019964648
 20
42.2678305924
 10
49.2660448271
 20
41.7845605469
 10
49.4917692421
 20
41.3268355039
 10
44.8577601769
 20
40.7910720548
 10
45.4398335076
 20
41.3841083673
 10
45.9266172421
 20
42.0575643985
 10
49.0024310683
 20
42.7683806394
 10
49.1019964648
 20
42.2678305924
  0
HATCH
  5
28C
100
AcDbEntity
  8
Grp_symbol_75_BL1
100
AcDbHatch
 62
2
  6
CONTINUOUS
 10
0.0
 20
0.0
 30
0.0
210
0.0
220
0.0
230
1.0
  2
SOLID
 70
1
 71
1
 91
1
 92
1
 93
7
 72
1
 10
49.1019964648
 20
42.2678305924
 11
49.2660448271
 21
41.7845605469
 72
1
 10
49.2660448271
 20
41.7845605469
 11
49.4917692421
 21
41.3268355039
 72
1
 10
49.4917692421
 20
41.3268355039
 11
44.8577601769
 21
40.7910720548
 72
1
 10
44.8577601769
 20
40.7910720548
 11
45.4398335076
 21
41.3841083673
 72
1
 10
45.4398335076
 20
41.3841083673
 11
45.9266172421
 21
42.0575643985
 72
1
 10
45.9266172421
 20
42.0575643985
 11
49.0024310683
 21
42.7683806394
 72
1
 10
49.0024310683
 20
42.7683806394
 11
49.1019964648
 21
42.2678305924
 97
1
330
28B
 75
0
 76
1
 98
1
 10
0.0
 20
0.0
  0
LWPOLYLINE
  5
28D
100
AcDbEntity
  8
Grp_symbol_75_BL1
100
AcDbPolyline
 62
2
  6
CONTINUOUS
 90
8
 70
0
 10
49.7753075027
 20
40.902485464
 10
50.1118081904
 20
40.5187854279
 10
50.4955136853
 20
40.1822753963
 10
43.4620194016
 20
39.8975587812
 10
44.1935033044
 20
40.2918083596
 10
44.8577601769
 20
40.7910720548
 10
49.4917692421
 20
41.3268355039
 10
49.7753075027
 20
40.902485464
  0
HATCH
  5
28E
100
AcDbEntity
  8
Grp_symbol_75_BL1
100
AcDbHatch
 62
2
  6
CONTINUOUS
 10
0.0
 20
0.0
 30
0.0
210
0.0
220
0.0
230
1.0
  2
SOLID
 70
1
 71
1
 91
1
 92
1
 93
7
 72
1
 10
49.7753075027
 20
40.902485464
 11
50.1118081904
 21
40.5187854279
 72
1
 10
50.1118081904
 20
40.5187854279
 11
50.4955136853
 21
40.1822753963
 72
1
 10
50.4955136853
 20
40.1822753963
 11
43.4620194016
 21
39.8975587812
 72
1
 10
43.4620194016
 20
39.8975587812
 11
44.1935033044
 21
40.2918083596
 72
1
 10
44.1935033044
 20
40.2918083596
 11
44.8577601769
 21
40.7910720548
 72
1
 10
44.8577601769
 20
40.7910720548
 11
49.4917692421
 21
41.3268355039
 72
1
 10
49.4917692421
 20
41.3268355039
 11
49.7753075027
 21
40.902485464
 97
1
330
28D
 75
0
 76
1
 98
1
 10
0.0
 20
0.0
  0
LWPOLYLINE
  5
28F
100
AcDbEntity
  8
Grp_symbol_75_BL1
100
AcDbPolyline
 62
2
  6
CONTINUOUS
 90
24
 70
0
 10
50.9198586799
 20
39.8987453696
 10
51.3775825137
 20
39.6730253484
 10
51.8608534051
 20
39.508970333
 10
52.3614024551
 20
39.4094003236
 10
32.4707512713
 20
38.9043202761
 10
36.1358030396
 20
47.1788118269
 10
35.8602654674
 20
46.3948599939
 10
35.7051333528
 20
45.5785050116
 10
35.6738996747
 20
44.7481280565
 10
35.7672676957
 20
43.9224260263
 10
35.9831351265
 20
43.119990557
 10
36.3166414625
 20
42.3588894113
 10
36.7602774228
 20
41.6562596618
 10
37.3040540305
 20
41.0279218299
 10
37.9357275265
 20
40.4880236686
 10
38.6410750515
 20
40.0487216094
 10
39.4042148901
 20
39.7199070463
 10
40.2079640662
 20
39.508970333
 10
41.0342252376
 20
39.4207005138
 10
41.8643941784
 20
39.4570455256
 10
42.6797786747
 20
39.6172003047
 10
43.4620194016
 20
39.8975587812
 10
50.4955136853
 20
40.1822753963
 10
50.9198586799
 20
39.8987453696
  0
HATCH
  5
290
100
AcDbEntity
  8
Grp_symbol_75_BL1
100
AcDbHatch
 62
2
  6
CONTINUOUS
 10
0.0
 20
0.0
 30
0.0
210
0.0
220
0.0
230
1.0
  2
SOLID
 70
1
 71
1
 91
1
 92
1
 93
23
 72
1
 10
50.9198586799
 20
39.8987453696
 11
51.3775825137
 21
39.6730253484
 72
1
 10
51.3775825137
 20
39.6730253484
 11
51.8608534051
 21
39.508970333
 72
1
 10
51.8608534051
 20
39.508970333
 11
52.3614024551
 21
39.4094003236
 72
1
 10
52.3614024551
 20
39.4094003236
 11
32.4707512713
 21
38.9043202761
 72
1
 10
32.4707512713
 20
38.9043202761
 11
36.1358030396
 21
47.1788118269
 72
1
 10
36.1358030396
 20
47.1788118269
 11
35.8602654674
 21
46.3948599939
 72
1
 10
35.8602654674
 20
46.3948599939
 11
35.7051333528
 21
45.5785050116
 72
1
 10
35.7051333528
 20
45.5785050116
 11
35.6738996747
 21
44.7481280565
 72
1
 10
35.6738996747
 20
44.7481280565
 11
35.7672676957
 21
43.9224260263
 72
1
 10
35.7672676957
 20
43.9224260263
 11
35.9831351265
 21
43.119990557
 72
1
 10
35.9831351265
 20
43.119990557
 11
36.3166414625
 21
42.3588894113
 72
1
 10
36.3166414625
 20
42.3588894113
 11
36.7602774228
 21
41.6562596618
 72
1
 10
36.7602774228
 20
41.6562596618
 11
37.3040540305
 21
41.0279218299
 72
1
 10
37.3040540305
 20
41.0279218299
 11
37.9357275265
 21
40.4880236686
 72
1
 10
37.9357275265
 20
40.4880236686
 11
38.6410750515
 21
40.0487216094
 72
1
 10
38.6410750515
 20
40.0487216094
 11
39.4042148901
 21
39.7199070463
 72
1
 10
39.4042148901
 20
39.7199070463
 11
40.2079640662
 21
39.508970333
 72
1
 10
40.2079640662
 20
39.508970333
 11
41.0342252376
 21
39.4207005138
 72
1
 10
41.0342252376
 20
39.4207005138
 11
41.8643941784
 21
39.4570455256
 72
1
 10
41.8643941784
 20
39.4570455256
 11
42.6797786747
 21
39.6172003047
 72
1
 10
42.6797786747
 20
39.6172003047
 11
43.4620194016
 21
39.8975587812
 72
1
 10
43.4620194016
 20
39.8975587812
 11
50.4955136853
 21
40.1822753963
 72
1
 10
50.4955136853
 20
40.1822753963
 11
50.9198586799
 21
39.8987453696
 97
1
330
28F
 75
0
 76
1
 98
1
 10
0.0
 20
0.0
  0
LWPOLYLINE
  5
291
100
AcDbEntity
  8
Grp_symbol_75_BL1
100
AcDbPolyline
 62
2
  6
CONTINUOUS
 90
43
 70
0
 10
52.8706651307
 20
39.3760274242
 10
53.3799278063
 20
39.4094003236
 10
53.8804768562
 20
39.508970333
 10
54.3637477476
 20
39.6730253484
 10
54.8214715815
 20
39.8987453696
 10
55.2458165761
 20
40.1822753963
 10
55.629522071
 20
40.5187854279
 10
55.9660227587
 20
40.902485464
 10
56.2495610192
 20
41.3268355039
 10
61.4625540535
 20
38.9043202761
 10
61.4556082214
 20
38.7717952637
 10
61.434846825
 20
38.6407102513
 10
61.4004973304
 20
38.5125052393
 10
61.352936078
 20
38.3886052276
 10
61.2926841587
 20
38.2703602165
 10
61.2204017052
 20
38.1590602061
 10
61.1368806593
 20
38.0559201964
 10
61.0430360949
 20
37.9620651875
 10
60.9398961927
 20
37.8785451797
 10
60.8285909751
 20
37.8062601729
 10
60.7103399254
 20
37.7460201672
 10
60.5864386268
 20
37.6984551627
 10
60.4582445678
 20
37.6641051595
 10
60.3271622694
 20
37.6433451576
 10
60.1946278967
 20
37.6364001569
 10
33.7386774282
 20
37.6364001569
 10
33.6061430555
 20
37.6433451576
 10
33.4750607571
 20
37.6641051595
 10
33.3468666981
 20
37.6984551627
 10
33.2229653995
 20
37.7460201672
 10
33.1047143497
 20
37.8062601729
 10
32.9934091322
 20
37.8785451797
 10
32.89026923
 20
37.9620651875
 10
32.7964246656
 20
38.0559201964
 10
32.7129036197
 20
38.1590602061
 10
32.6406211662
 20
38.2703602165
 10
32.5803692469
 20
38.3886052276
 10
32.5328079945
 20
38.5125052393
 10
32.4984584999
 20
38.6407102513
 10
32.4776971035
 20
38.7717952637
 10
32.4707512713
 20
38.9043202761
 10
52.3614024551
 20
39.4094003236
 10
52.8706651307
 20
39.3760274242
  0
HATCH
  5
292
100
AcDbEntity
  8
Grp_symbol_75_BL1
100
AcDbHatch
 62
2
  6
CONTINUOUS
 10
0.0
 20
0.0
 30
0.0
210
0.0
220
0.0
230
1.0
  2
SOLID
 70
1
 71
1
 91
1
 92
1
 93
42
 72
1
 10
52.8706651307
 20
39.3760274242
 11
53.3799278063
 21
39.4094003236
 72
1
 10
53.3799278063
 20
39.4094003236
 11
53.8804768562
 21
39.508970333
 72
1
 10
53.8804768562
 20
39.508970333
 11
54.3637477476
 21
39.6730253484
 72
1
 10
54.3637477476
 20
39.6730253484
 11
54.8214715815
 21
39.8987453696
 72
1
 10
54.8214715815
 20
39.8987453696
 11
55.2458165761
 21
40.1822753963
 72
1
 10
55.2458165761
 20
40.1822753963
 11
55.629522071
 21
40.5187854279
 72
1
 10
55.629522071
 20
40.5187854279
 11
55.9660227587
 21
40.902485464
 72
1
 10
55.9660227587
 20
40.902485464
 11
56.2495610192
 21
41.3268355039
 72
1
 10
56.2495610192
 20
41.3268355039
 11
61.4625540535
 21
38.9043202761
 72
1
 10
61.4625540535
 20
38.9043202761
 11
61.4556082214
 21
38.7717952637
 72
1
 10
61.4556082214
 20
38.7717952637
 11
61.434846825
 21
38.6407102513
 72
1
 10
61.434846825
 20
38.6407102513
 11
61.4004973304
 21
38.5125052393
 72
1
 10
61.4004973304
 20
38.5125052393
 11
61.352936078
 21
38.3886052276
 72
1
 10
61.352936078
 20
38.3886052276
 11
61.2926841587
 21
38.2703602165
 72
1
 10
61.2926841587
 20
38.2703602165
 11
61.2204017052
 21
38.1590602061
 72
1
 10
61.2204017052
 20
38.1590602061
 11
61.1368806593
 21
38.0559201964
 72
1
 10
61.1368806593
 20
38.0559201964
 11
61.0430360949
 21
37.9620651875
 72
1
 10
61.0430360949
 20
37.9620651875
 11
60.9398961927
 21
37.8785451797
 72
1
 10
60.9398961927
 20
37.8785451797
 11
60.8285909751
 21
37.8062601729
 72
1
 10
60.8285909751
 20
37.8062601729
 11
60.7103399254
 21
37.7460201672
 72
1
 10
60.7103399254
 20
37.7460201672
 11
60.5864386268
 21
37.6984551627
 72
1
 10
60.5864386268
 20
37.6984551627
 11
60.4582445678
 21
37.6641051595
 72
1
 10
60.4582445678
 20
37.6641051595
 11
60.3271622694
 21
37.6433451576
 72
1
 10
60.3271622694
 20
37.6433451576
 11
60.1946278967
 21
37.6364001569
 72
1
 10
60.1946278967
 20
37.6364001569
 11
33.7386774282
 21
37.6364001569
 72
1
 10
33.7386774282
 20
37.6364001569
 11
33.6061430555
 21
37.6433451576
 72
1
 10
33.6061430555
 20
37.6433451576
 11
33.4750607571
 21
37.6641051595
 72
1
 10
33.4750607571
 20
37.6641051595
 11
33.3468666981
 21
37.6984551627
 72
1
 10
33.3468666981
 20
37.6984551627
 11
33.2229653995
 21
37.7460201672
 72
1
 10
33.2229653995
 20
37.7460201672
 11
33.1047143497
 21
37.8062601729
 72
1
 10
33.1047143497
 20
37.8062601729
 11
32.9934091322
 21
37.8785451797
 72
1
 10
32.9934091322
 20
37.8785451797
 11
32.89026923
 21
37.9620651875
 72
1
 10
32.89026923
 20
37.9620651875
 11
32.7964246656
 21
38.0559201964
 72
1
 10
32.7964246656
 20
38.0559201964
 11
32.7129036197
 21
38.1590602061
 72
1
 10
32.7129036197
 20
38.1590602061
 11
32.6406211662
 21
38.2703602165
 72
1
 10
32.6406211662
 20
38.2703602165
 11
32.5803692469
 21
38.3886052276
 72
1
 10
32.5803692469
 20
38.3886052276
 11
32.5328079945
 21
38.5125052393
 72
1
 10
32.5328079945
 20
38.5125052393
 11
32.4984584999
 21
38.6407102513
 72
1
 10
32.4984584999
 20
38.6407102513
 11
32.4776971035
 21
38.7717952637
 72
1
 10
32.4776971035
 20
38.7717952637
 11
32.4707512713
 21
38.9043202761
 72
1
 10
32.4707512713
 20
38.9043202761
 11
52.3614024551
 21
39.4094003236
 72
1
 10
52.3614024551
 20
39.4094003236
 11
52.8706651307
 21
39.3760274242
 97
1
330
291
 75
0
 76
1
 98
1
 10
0.0
 20
0.0
  0
SOLID
  5
293
100
AcDbEntity
  8
Grp_symbol_75_BL1
100
AcDbTrace
 62
2
  6
CONTINUOUS
 10
41.4505167058
 20
50.4882040339
 11
40.6199582704
 21
50.4622403
 12
42.2756096267
 22
50.3895982432
 13
61.4625540536
 23
51.3684664481
  0
ENDBLK
  5
294
100
AcDbEntity
  8
0
  6
BYBLOCK
 62
0
100
AcDbBlockEnd
  0
BLOCK
  5
295
100
AcDbEntity
  8
Grp_symbol_75_BL2
100
AcDbBlockBegin
  2
GRP_SYMBOL_75_BL2
 70
64
 10
46.9666526624
 20
45.1363971203
  3
GRP_SYMBOL_75_BL2
  1

  0
LINE
  5
296
100
AcDbEntity
  8
Grp_symbol_75_BL2
100
AcDbLine
 62
2
  6
CONTINUOUS
 10
61.3092777741
 20
51.9710628035
 11
61.3282111248
 21
51.9349063977
  0
LINE
  5
297
100
AcDbEntity
  8
Grp_symbol_75_BL2
100
AcDbLine
 62
2
  6
CONTINUOUS
 10
32.4707512714
 20
38.904322572
 11
32.4707512714
 21
51.3684716686
  0
LINE
  5
298
100
AcDbEntity
  8
Grp_symbol_75_BL2
100
AcDbLine
 62
2
  6
CONTINUOUS
 10
48.9690522291
 20
50.1998567641
 11
48.9690522291
 21
46.0570151078
  0
LINE
  5
299
100
AcDbEntity
  8
Grp_symbol_75_BL2
100
AcDbLine
 62
2
  6
CONTINUOUS
 10
48.9690522291
 20
43.8544916956
 11
48.9690522291
 21
43.2776403258
  0
LINE
  5
29A
100
AcDbEntity
  8
Grp_symbol_75_BL2
100
AcDbLine
 62
2
  6
CONTINUOUS
 10
51.6959859775
 20
43.2776403258
 11
51.6959859775
 21
50.1998567641
  0
LINE
  5
29B
100
AcDbEntity
  8
Grp_symbol_75_BL2
100
AcDbLine
 62
2
  6
CONTINUOUS
 10
54.0453442839
 20
50.1998567641
 11
54.0453442839
 21
43.2776403258
  0
LINE
  5
29C
100
AcDbEntity
  8
Grp_symbol_75_BL2
100
AcDbLine
 62
2
  6
CONTINUOUS
 10
56.7722780323
 20
43.2776403258
 11
56.7722780323
 21
50.1998567641
  0
LINE
  5
29D
100
AcDbEntity
  8
Grp_symbol_75_BL2
100
AcDbLine
 62
2
  6
CONTINUOUS
 10
61.4625540535
 20
51.3684716686
 11
61.4625540535
 21
38.904322572
  0
LINE
  5
29E
100
AcDbEntity
  8
Grp_symbol_75_BL2
100
AcDbLine
 62
2
  6
CONTINUOUS
 10
60.1946278967
 20
37.6363964151
 11
33.7386774282
 21
37.6363964151
  0
LINE
  5
29F
100
AcDbEntity
  8
Grp_symbol_75_BL2
100
AcDbLine
 62
2
  6
CONTINUOUS
 10
41.31266132
 20
43.8544916956
 11
43.7939039211
 21
43.8544916956
  0
LINE
  5
2A0
100
AcDbEntity
  8
Grp_symbol_75_BL2
100
AcDbLine
 62
2
  6
CONTINUOUS
 10
47.1245948734
 20
43.8544916956
 11
48.9690522291
 21
43.8544916956
  0
LINE
  5
2A1
100
AcDbEntity
  8
Grp_symbol_75_BL2
100
AcDbLine
 62
2
  6
CONTINUOUS
 10
48.9690522291
 20
46.0570151078
 11
47.1245948734
 21
46.0570151078
  0
LINE
  5
2A2
100
AcDbEntity
  8
Grp_symbol_75_BL2
100
AcDbLine
 62
2
  6
CONTINUOUS
 10
46.6349474023
 20
46.0570151078
 11
41.31266132
 21
46.0570151078
  0
LINE
  5
2A3
100
AcDbEntity
  8
Grp_symbol_75_BL2
100
AcDbLine
 62
2
  6
CONTINUOUS
 10
56.7722780323
 20
50.1998567641
 11
54.0453442839
 21
50.1998567641
  0
LINE
  5
2A4
100
AcDbEntity
  8
Grp_symbol_75_BL2
100
AcDbLine
 62
2
  6
CONTINUOUS
 10
51.6959859775
 20
50.1998567641
 11
48.9690522291
 21
50.1998567641
  0
LINE
  5
2A5
100
AcDbEntity
  8
Grp_symbol_75_BL2
100
AcDbLine
 62
2
  6
CONTINUOUS
 10
33.7386774282
 20
52.6363978255
 11
60.1946278967
 21
52.6363978255
  0
LINE
  5
2A6
100
AcDbEntity
  8
Grp_symbol_75_BL2
100
AcDbLine
 62
2
  6
CONTINUOUS
 10
43.5038439488
 20
46.5771432553
 11
45.6961824605
 21
48.1993884172
  0
ARC
  5
2A7
100
AcDbEntity
  8
Grp_symbol_75_BL2
100
AcDbCircle
 62
2
  6
CONTINUOUS
 10
41.31266132
 20
44.9557534018
 40
5.9153485927
100
AcDbArc
 50
349.2706340045
 51
10.7293659955
  0
ARC
  5
2A8
100
AcDbEntity
  8
Grp_symbol_75_BL2
100
AcDbCircle
 62
2
  6
CONTINUOUS
 10
41.2077792528
 20
44.9557534018
 40
5.5377731507
100
AcDbArc
 50
35.8545159817
 51
11.4705154501
  0
ARC
  5
2A9
100
AcDbEntity
  8
Grp_symbol_75_BL2
100
AcDbCircle
 62
2
  6
CONTINUOUS
 10
52.8706651307
 20
43.2776403258
 40
3.9016129016
100
AcDbArc
 50
180.0
 51
360.0
  0
ARC
  5
2AA
100
AcDbEntity
  8
Grp_symbol_75_BL2
100
AcDbCircle
 62
2
  6
CONTINUOUS
 10
41.2077792528
 20
44.9557534018
 40
2.8108394023
100
AcDbArc
 50
35.2282226131
 51
336.934010569
  0
ARC
  5
2AB
100
AcDbEntity
  8
Grp_symbol_75_BL2
100
AcDbCircle
 62
2
  6
CONTINUOUS
 10
33.7386774282
 20
51.3684716686
 40
1.2679261569
100
AcDbArc
 50
90.0
 51
180.0
  0
ARC
  5
2AC
100
AcDbEntity
  8
Grp_symbol_75_BL2
100
AcDbCircle
 62
2
  6
CONTINUOUS
 10
60.1946278967
 20
51.3684716686
 40
1.2679261569
100
AcDbArc
 50
0.0
 51
90.0
  0
ARC
  5
2AD
100
AcDbEntity
  8
Grp_symbol_75_BL2
100
AcDbCircle
 62
2
  6
CONTINUOUS
 10
60.1946278967
 20
38.904322572
 40
1.2679261569
100
AcDbArc
 50
270.0
 51
360.0
  0
ARC
  5
2AE
100
AcDbEntity
  8
Grp_symbol_75_BL2
100
AcDbCircle
 62
2
  6
CONTINUOUS
 10
33.7386774282
 20
38.904322572
 40
1.2679261569
100
AcDbArc
 50
180.0
 51
270.0
  0
ARC
  5
2AF
100
AcDbEntity
  8
Grp_symbol_75_BL2
100
AcDbCircle
 62
2
  6
CONTINUOUS
 10
52.8706651307
 20
43.2776403258
 40
1.1746791532
100
AcDbArc
 50
180.0
 51
360.0
  0
ARC
  5
2B0
100
AcDbEntity
  8
Grp_symbol_75_BL2
100
AcDbCircle
 62
2
  6
CONTINUOUS
 10
41.31266132
 20
44.9557534018
 40
1.1012617061
100
AcDbArc
 50
90.0
 51
270.0
  0
ENDBLK
  5
2B1
100
AcDbEntity
  8
0
  6
BYBLOCK
 62
0
100
AcDbBlockEnd
  0
BLOCK
  5
2B2
100
AcDbEntity
  8
X48000092_BD01_BL3
100
AcDbBlockBegin
  2
X48000092_BD01_BL3
 70
64
 10
318.8903911359
 20
135.7457262786
  3
X48000092_BD01_BL3
  1

  0
HATCH
  5
2B3
100
AcDbEntity
  8
X48000092_BD01_BL3
100
AcDbHatch
 62
2
  6
CONTINUOUS
 10
0.0
 20
0.0
 30
0.0
210
0.0
220
0.0
230
1.0
  2
A
 70
0
 71
0
 91
1
 92
1
 93
8
 72
2
 10
404.6414398356
 20
98.0328343641
 40
100.0
 50
343.7577010157
 51
16.2334258393
 73
1
 72
2
 10
484.6551285015
 20
74.7226386105
 40
16.66
 50
196.2334258393
 51
343.7577010157
 73
1
 72
2
 10
564.6724261552
 20
98.0204427171
 40
100.0
 50
163.7577010157
 51
196.2334258393
 73
1
 72
2
 10
484.6587374893
 20
121.3306384708
 40
16.66
 50
16.2334258393
 51
163.7577010157
 73
1
 72
2
 10
484.6551285015
 20
74.7226386105
 40
13.66
 50
196.2334258393
 51
343.7577010157
 73
1
 72
2
 10
404.6414398356
 20
98.0328343641
 40
97.0
 50
343.7577010157
 51
16.2334258393
 73
1
 72
2
 10
484.6587374893
 20
121.3306384708
 40
13.66
 50
16.2334258393
 51
163.7577010157
 73
1
 72
2
 10
564.6724261552
 20
98.0204427171
 40
97.0
 50
163.7577010157
 51
196.2334258393
 73
1
 97
0
 75
0
 76
0
 52
125.0
 41
2.7501161996
 77
0
 78
1
 53
125.0
 43
0.0
 44
0.0
 45
-2.2527633069
 46
-1.5774018493
 79
0
 98
1
 10
0.0
 20
0.0
  0
LINE
  5
2B4
100
AcDbEntity
  8
X48000092_BD01_BL3
100
AcDbLine
 62
8
  6
PHANTOM
 10
136.5452911649
 20
18.0301143771
 11
210.9014400215
 21
18.0301143771
  0
LINE
  5
2B5
100
AcDbEntity
  8
X48000092_BD01_BL3
100
AcDbLine
 62
9
  6
PHANTOM
 10
136.5452911649
 20
18.6590101913
 11
210.9041332981
 21
18.6590101913
  0
LINE
  5
2B6
100
AcDbEntity
  8
X48000092_BD01_BL3
100
AcDbLine
 62
9
  6
PHANTOM
 10
136.5321908093
 20
36.1212261228
 11
210.8964999398
 21
36.1212261228
  0
LINE
  5
2B7
100
AcDbEntity
  8
X48000092_BD01_BL3
100
AcDbLine
 62
8
  6
PHANTOM
 10
136.4656537703
 20
49.2431251345
 11
210.9014400215
 21
49.2431251345
  0
LINE
  5
2B8
100
AcDbEntity
  8
X48000092_BD01_BL3
100
AcDbLine
 62
8
  6
PHANTOM
 10
219.7804171893
 20
18.0301143771
 11
296.903510156
 21
18.0301143771
  0
LINE
  5
2B9
100
AcDbEntity
  8
X48000092_BD01_BL3
100
AcDbLine
 62
9
  6
PHANTOM
 10
219.7831104659
 20
18.6590101913
 11
296.903510156
 21
18.6590101913
  0
LINE
  5
2BA
100
AcDbEntity
  8
X48000092_BD01_BL3
100
AcDbLine
 62
9
  6
PHANTOM
 10
219.7754771075
 20
36.1212261228
 11
296.9166105116
 21
36.1212261228
  0
LINE
  5
2BB
100
AcDbEntity
  8
X48000092_BD01_BL3
100
AcDbLine
 62
8
  6
PHANTOM
 10
219.7804171893
 20
49.2431251345
 11
296.9831475506
 21
49.2431251345
  0
LINE
  5
2BC
100
AcDbEntity
  8
X48000092_BD01_BL3
100
AcDbLine
 62
8
  6
PHANTOM
 10
136.5452911649
 20
218.6000664142
 11
209.1804635949
 21
218.6000664142
  0
LINE
  5
2BD
100
AcDbEntity
  8
X48000092_BD01_BL3
100
AcDbLine
 62
9
  6
PHANTOM
 10
136.5452911649
 20
230.1052663005
 11
209.1962098803
 21
230.1052663005
  0
LINE
  5
2BE
100
AcDbEntity
  8
X48000092_BD01_BL3
100
AcDbLine
 62
9
  6
PHANTOM
 10
136.5452911649
 20
251.9450452373
 11
209.1696004273
 21
251.9450452373
  0
LINE
  5
2BF
100
AcDbEntity
  8
X48000092_BD01_BL3
100
AcDbLine
 62
8
  6
PHANTOM
 10
136.5452911649
 20
253.4613381801
 11
209.1716353928
 21
253.4613381801
  0
LINE
  5
2C0
100
AcDbEntity
  8
X48000092_BD01_BL3
100
AcDbLine
 62
8
  6
PHANTOM
 10
221.0845212728
 20
218.6000664142
 11
296.903510156
 21
218.6000664142
  0
LINE
  5
2C1
100
AcDbEntity
  8
X48000092_BD01_BL3
100
AcDbLine
 62
9
  6
PHANTOM
 10
221.1002675582
 20
230.1052663005
 11
296.903510156
 21
230.1052663005
  0
LINE
  5
2C2
100
AcDbEntity
  8
X48000092_BD01_BL3
100
AcDbLine
 62
9
  6
PHANTOM
 10
221.0736581051
 20
251.9450452373
 11
296.903510156
 21
251.9450452373
  0
LINE
  5
2C3
100
AcDbEntity
  8
X48000092_BD01_BL3
100
AcDbLine
 62
8
  6
PHANTOM
 10
221.0756930707
 20
253.4613381801
 11
296.903510156
 21
253.4613381801
  0
ARC
  5
2C4
100
AcDbEntity
  8
X48000092_BD01_BL3
100
AcDbCircle
 62
7
  6
CONTINUOUS
 10
564.6724261552
 20
98.0204427171
 40
100.0
100
AcDbArc
 50
163.7577010157
 51
196.2334258393
  0
ARC
  5
2C5
100
AcDbEntity
  8
X48000092_BD01_BL3
100
AcDbCircle
 62
7
  6
CONTINUOUS
 10
404.6414398356
 20
98.0328343641
 40
100.0
100
AcDbArc
 50
343.7577010157
 51
16.2334258393
  0
ARC
  5
2C6
100
AcDbEntity
  8
X48000092_BD01_BL3
100
AcDbCircle
 62
7
  6
CONTINUOUS
 10
564.6724261552
 20
98.0204427171
 40
97.0
100
AcDbArc
 50
163.7577010157
 51
196.2334258393
  0
ARC
  5
2C7
100
AcDbEntity
  8
X48000092_BD01_BL3
100
AcDbCircle
 62
7
  6
CONTINUOUS
 10
404.6414398356
 20
98.0328343641
 40
97.0
100
AcDbArc
 50
343.7577010157
 51
16.2334258393
  0
ARC
  5
2C8
100
AcDbEntity
  8
X48000092_BD01_BL3
100
AcDbCircle
 62
7
  6
CONTINUOUS
 10
484.6551285015
 20
74.7226386105
 40
16.66
100
AcDbArc
 50
196.2334258393
 51
343.7577010157
  0
ARC
  5
2C9
100
AcDbEntity
  8
X48000092_BD01_BL3
100
AcDbCircle
 62
7
  6
CONTINUOUS
 10
484.6587374893
 20
121.3306384708
 40
16.66
100
AcDbArc
 50
16.2334258393
 51
163.7577010157
  0
ARC
  5
2CA
100
AcDbEntity
  8
X48000092_BD01_BL3
100
AcDbCircle
 62
7
  6
CONTINUOUS
 10
484.6587374893
 20
121.3306384708
 40
13.66
100
AcDbArc
 50
16.2334258393
 51
163.7577010157
  0
ARC
  5
2CB
100
AcDbEntity
  8
X48000092_BD01_BL3
100
AcDbCircle
 62
7
  6
CONTINUOUS
 10
484.6551285015
 20
74.7226386105
 40
13.66
100
AcDbArc
 50
196.2334258393
 51
343.7577010157
  0
ENDBLK
  5
2CC
100
AcDbEntity
  8
0
  6
BYBLOCK
 62
0
100
AcDbBlockEnd
  0
BLOCK
  5
2CD
100
AcDbEntity
  8
X48002257_BL4
100
AcDbBlockBegin
  2
X48002257_BL4
 70
64
 10
308.048017196
 20
185.0119816485
  3
X48002257_BL4
  1

  0
LWPOLYLINE
  5
2CE
100
AcDbEntity
  8
X48002257_BL4
100
AcDbPolyline
 62
9
  6
CONTINUOUS
 90
11
 70
0
 10
46.7952911649
 20
113.2833991418
 10
46.8014469946
 20
113.3322446716
 10
46.8197629068
 20
113.3798874623
 10
46.8497879028
 20
113.4251543904
 10
46.8907826677
 20
113.4669308338
 10
46.9417377743
 20
113.5041881178
 10
47.0013985388
 20
113.5360088445
 10
47.0682959152
 20
113.5616094819
 10
47.1407826679
 20
113.5803596574
 10
47.2170739325
 20
113.5917976795
 10
47.2952911649
 20
113.5956419061
  0
LWPOLYLINE
  5
2CF
100
AcDbEntity
  8
X48002257_BL4
100
AcDbPolyline
 62
9
  6
CONTINUOUS
 90
11
 70
0
 10
46.7952911649
 20
103.8378407885
 10
46.8014469946
 20
103.7767502845
 10
46.8197629068
 20
103.7171640314
 10
46.8497879028
 20
103.6605492406
 10
46.8907826677
 20
103.6082999561
 10
46.9417377743
 20
103.5617027287
 10
47.0013985388
 20
103.5219049368
 10
47.068295915
 20
103.4898865341
 10
47.1407826677
 20
103.4664359199
 10
47.2170739324
 20
103.4521305262
 10
47.2952911649
 20
103.4473225992
  0
LWPOLYLINE
  5
2D0
100
AcDbEntity
  8
X48002257_BL4
100
AcDbPolyline
 62
9
  6
CONTINUOUS
 90
11
 70
0
 10
46.7952911649
 20
112.5806381882
 10
46.8014469763
 20
112.5195477744
 10
46.8197628502
 20
112.459961567
 10
46.8497878129
 20
112.4033467781
 10
46.8907825723
 20
112.3510974584
 10
46.9417377363
 20
112.3045001581
 10
47.0013985881
 20
112.2647023085
 10
47.068296021
 20
112.2326838914
 10
47.1407827935
 20
112.2092332876
 10
47.2170740229
 20
112.1949279161
 10
47.2952911649
 20
112.1901200026
  0
LWPOLYLINE
  5
2D1
100
AcDbEntity
  8
X48002257_BL4
100
AcDbPolyline
 62
7
  6
CONTINUOUS
 90
19
 70
0
 10
46.7952911649
 20
103.8378407885
 10
46.8463966579
 20
102.7306356365
 10
46.9997862265
 20
101.6259748497
 10
47.2552363123
 20
100.5280008385
 10
47.6123116066
 20
99.4402096765
 10
48.0704254875
 20
98.3659500353
 10
48.6283209878
 20
97.309425637
 10
49.2845099771
 20
96.2743711074
 10
50.0368024258
 20
95.2648979808
 10
50.8826342875
 20
94.2848414884
 10
51.8189803807
 20
93.3379238862
 10
52.8423398914
 20
92.4277486369
 10
53.9490302413
 20
91.5575576101
 10
55.1348818207
 20
90.7305299136
 10
56.3956812969
 20
89.9494659106
 10
57.726786871
 20
89.2170866006
 10
59.1235402259
 20
88.5357944053
 10
60.5809182918
 20
87.9078836592
 10
62.0939439608
 20
87.3353555883
  0
LINE
  5
2D2
100
AcDbEntity
  8
X48002257_BL4
100
AcDbLine
 62
7
  6
CONTINUOUS
 10
46.7952911649
 20
103.8378407885
 11
46.7952911649
 21
113.6898634932
  0
LINE
  5
2D3
100
AcDbEntity
  8
X48002257_BL4
100
AcDbLine
 62
9
  6
CONTINUOUS
 10
47.2952911649
 20
103.4473225992
 11
47.2952911649
 21
113.6970900726
  0
LINE
  5
2D4
100
AcDbEntity
  8
X48002257_BL4
100
AcDbLine
 62
7
  6
CONTINUOUS
 10
136.0452911649
 20
15.9158335254
 11
114.0452911649
 21
15.9158335254
  0
LINE
  5
2D5
100
AcDbEntity
  8
X48002257_BL4
100
AcDbLine
 62
9
  6
CONTINUOUS
 10
114.0452911649
 20
16.610862248
 11
136.0452911649
 21
16.610862248
  0
LINE
  5
2D6
100
AcDbEntity
  8
X48002257_BL4
100
AcDbLine
 62
9
  6
CONTINUOUS
 10
114.0452911649
 20
24.1376604734
 11
136.0452911649
 21
24.1376604734
  0
LINE
  5
2D7
100
AcDbEntity
  8
X48002257_BL4
100
AcDbLine
 62
9
  6
CONTINUOUS
 10
79.7952911649
 20
113.6970900726
 11
79.7952911649
 21
103.4473225992
  0
LINE
  5
2D8
100
AcDbEntity
  8
X48002257_BL4
100
AcDbLine
 62
7
  6
CONTINUOUS
 10
80.2952911649
 20
113.6898634932
 11
80.2952911649
 21
103.8378407885
  0
LWPOLYLINE
  5
2D9
100
AcDbEntity
  8
X48002257_BL4
100
AcDbPolyline
 62
9
  6
CONTINUOUS
 90
11
 70
0
 10
80.2952911649
 20
112.5806381882
 10
80.2891353352
 20
112.5195476842
 10
80.270819423
 20
112.4599614311
 10
80.240794427
 20
112.4033466403
 10
80.1997996621
 20
112.3510973558
 10
80.1488445555
 20
112.3045001284
 10
80.089183791
 20
112.2647023365
 10
80.0222864147
 20
112.2326839337
 10
79.949799662
 20
112.2092333196
 10
79.8735083974
 20
112.1949279259
 10
79.7952911649
 20
112.1901199989
  0
LWPOLYLINE
  5
2DA
100
AcDbEntity
  8
X48002257_BL4
100
AcDbPolyline
 62
9
  6
CONTINUOUS
 90
11
 70
0
 10
80.2952911649
 20
103.8378407885
 10
80.2891353355
 20
103.776750286
 10
80.270819424
 20
103.7171640337
 10
80.2407944285
 20
103.6605492429
 10
80.1997996637
 20
103.6082999578
 10
80.1488445562
 20
103.5617027292
 10
80.0891837903
 20
103.5219049364
 10
80.0222864131
 20
103.4898865334
 10
79.9497996601
 20
103.4664359194
 10
79.873508396
 20
103.452130526
 10
79.7952911649
 20
103.4473225992
  0
LINE
  5
2DB
100
AcDbEntity
  8
X48002257_BL4
100
AcDbLine
 62
9
  6
CONTINUOUS
 10
84.0493628618
 20
114.8561787655
 11
84.009341706
 21
114.7684653576
  0
LWPOLYLINE
  5
2DC
100
AcDbEntity
  8
X48002257_BL4
100
AcDbPolyline
 62
9
  6
CONTINUOUS
 90
5
 70
0
 10
84.2944232555
 20
114.5794250357
 10
84.2678053233
 20
114.5228042455
 10
84.2404797941
 20
114.4659662783
 10
84.2124462519
 20
114.4089107957
 10
83.9666890792
 20
113.915652254
  0
LWPOLYLINE
  5
2DD
100
AcDbEntity
  8
X48002257_BL4
100
AcDbPolyline
 62
9
  6
CONTINUOUS
 90
4
 70
0
 10
84.009341706
 20
114.7684653576
 10
83.9674616647
 20
114.6799538802
 10
83.9237227377
 20
114.5906808066
 10
83.8781249252
 20
114.5006834554
  0
LWPOLYLINE
  5
2DE
100
AcDbEntity
  8
X48002257_BL4
100
AcDbPolyline
 62
9
  6
CONTINUOUS
 90
12
 70
0
 10
83.8781249252
 20
114.5006834554
 10
83.6487296925
 20
114.0797960075
 10
83.3965366741
 20
113.6544275932
 10
83.120557665
 20
113.2288296328
 10
82.8237572799
 20
112.8041534018
 10
82.5074141845
 20
112.3834785643
 10
82.1755980203
 20
111.9693532019
 10
81.8303712868
 20
111.5659914177
 10
81.4790340758
 20
111.1777031497
 10
81.1220050075
 20
110.8058466341
 10
80.7819909967
 20
110.4726080823
 10
80.6952911649
 20
110.3915205994
  0
LWPOLYLINE
  5
2DF
100
AcDbEntity
  8
X48002257_BL4
100
AcDbPolyline
 62
9
  6
CONTINUOUS
 90
16
 70
0
 10
83.9666890792
 20
113.915652254
 10
83.7251884424
 20
113.475865889
 10
83.4626835747
 20
113.0336572972
 10
83.1797080055
 20
112.591498947
 10
82.8789484175
 20
112.1516323582
 10
82.5624275523
 20
111.7175137543
 10
82.2345064316
 20
111.2918650119
 10
81.899034746
 20
110.8806145103
 10
81.5581936914
 20
110.484050064
 10
81.2351395731
 20
110.1230094504
 10
80.9433961713
 20
109.8133347447
 10
80.7013376038
 20
109.5603922461
 10
80.5203362532
 20
109.3757053797
 10
80.3938090876
 20
109.2456423226
 10
80.319516457
 20
109.1609847735
 10
80.2952911649
 20
109.1215565794
  0
LWPOLYLINE
  5
2E0
100
AcDbEntity
  8
X48002257_BL4
100
AcDbPolyline
 62
9
  6
CONTINUOUS
 90
3
 70
0
 10
80.5156337471
 20
110.2234929632
 10
80.478383402
 20
110.1886539484
 10
80.2952911649
 20
110.0291685658
  0
LWPOLYLINE
  5
2E1
100
AcDbEntity
  8
X48002257_BL4
100
AcDbPolyline
 62
9
  6
CONTINUOUS
 90
13
 70
0
 10
80.2952911649
 20
103.8378407885
 10
80.3242378475
 20
103.3630281573
 10
80.4109103139
 20
102.8909643733
 10
80.5548067905
 20
102.4243823688
 10
80.7550942088
 20
101.9659833561
 10
81.0106130265
 20
101.5184211754
 10
81.3198839623
 20
101.0842869002
 10
81.6811165466
 20
100.6660938728
 10
82.0922194877
 20
100.2662631488
 10
82.5508127874
 20
99.8871094738
 10
83.0542414844
 20
99.5308279087
 10
83.5995910482
 20
99.199481096
 10
84.1837042699
 20
98.8949873103
  0
LWPOLYLINE
  5
2E2
100
AcDbEntity
  8
X48002257_BL4
100
AcDbPolyline
 62
9
  6
CONTINUOUS
 90
13
 70
0
 10
79.7952911649
 20
103.4473225992
 10
79.8255124345
 20
102.9494511598
 10
79.9159517004
 20
102.4561178356
 10
80.0671574657
 20
101.96557722
 10
80.2774842208
 20
101.4830655328
 10
80.5461383335
 20
101.0125098459
 10
80.8711126737
 20
100.5560921967
 10
81.2509900369
 20
100.1165191928
 10
81.683207014
 20
99.6961441955
 10
82.1662248079
 20
99.2972920827
 10
82.6955523778
 20
98.9227549119
 10
83.2655602535
 20
98.5765455771
 10
83.8781249252
 20
98.2573264471
  0
LINE
  5
2E3
100
AcDbEntity
  8
X48002257_BL4
100
AcDbLine
 62
9
  6
CONTINUOUS
 10
84.1837042699
 20
114.3516374503
 11
84.1837042699
 21
98.8949873103
  0
LWPOLYLINE
  5
2E4
100
AcDbEntity
  8
X48002257_BL4
100
AcDbPolyline
 62
9
  6
CONTINUOUS
 90
11
 70
0
 10
84.1837042699
 20
98.8949873103
 10
84.1799420811
 20
98.8308540698
 10
84.1687481522
 20
98.7622145298
 10
84.150398115
 20
98.6907588233
 10
84.1253438082
 20
98.6182464272
 10
84.094202152
 20
98.5464628372
 10
84.0577399574
 20
98.4771756036
 10
84.0168550446
 20
98.4120908079
 10
83.9725541358
 20
98.352811054
 10
83.9259280665
 20
98.300796006
 10
83.8781249252
 20
98.2573264471
  0
LWPOLYLINE
  5
2E5
100
AcDbEntity
  8
X48002257_BL4
100
AcDbPolyline
 62
9
  6
CONTINUOUS
 90
11
 70
0
 10
80.2952911649
 20
113.2833991418
 10
80.289135367
 20
113.3322445461
 10
80.2708195214
 20
113.3798872732
 10
80.2407945835
 20
113.4251541986
 10
80.1997998282
 20
113.466930691
 10
80.1488446217
 20
113.5041880764
 10
80.0891837051
 20
113.5360088834
 10
80.0222862304
 20
113.5616095406
 10
79.9497994431
 20
113.5803597018
 10
79.87350824
 20
113.5917976946
 10
79.7952911649
 20
113.5956419047
  0
LINE
  5
2E6
100
AcDbEntity
  8
X48002257_BL4
100
AcDbLine
 62
9
  6
CONTINUOUS
 10
136.380659125
 20
48.9396617761
 11
136.5321908093
 21
48.9408951988
  0
LWPOLYLINE
  5
2E7
100
AcDbEntity
  8
X48002257_BL4
100
AcDbPolyline
 62
9
  6
CONTINUOUS
 90
11
 70
0
 10
113.5452911649
 20
24.5281786627
 10
113.5514469946
 20
24.4670881586
 10
113.5697629068
 20
24.4075019056
 10
113.5997879028
 20
24.3508871147
 10
113.6407826677
 20
24.2986378302
 10
113.6917377743
 20
24.2520406028
 10
113.7513985388
 20
24.2122428109
 10
113.818295915
 20
24.1802244082
 10
113.8907826677
 20
24.156773794
 10
113.9670739324
 20
24.1424684003
 10
114.0452911649
 20
24.1376604734
  0
LWPOLYLINE
  5
2E8
100
AcDbEntity
  8
X48002257_BL4
100
AcDbPolyline
 62
9
  6
CONTINUOUS
 90
11
 70
0
 10
113.5452911649
 20
32.3342477695
 10
113.5514469946
 20
32.2731572655
 10
113.5697629068
 20
32.2135710124
 10
113.5997879028
 20
32.1569562216
 10
113.6407826677
 20
32.1047069371
 10
113.6917377743
 20
32.0581097097
 10
113.7513985388
 20
32.0183119178
 10
113.818295915
 20
31.9862935151
 10
113.8907826677
 20
31.9628429009
 10
113.9670739324
 20
31.9485375072
 10
114.0452911649
 20
31.9437295803
  0
LWPOLYLINE
  5
2E9
100
AcDbEntity
  8
X48002257_BL4
100
AcDbPolyline
 62
9
  6
CONTINUOUS
 90
11
 70
0
 10
113.5452911649
 20
17.0772209739
 10
113.5514469946
 20
17.0042663962
 10
113.5697629067
 20
16.9331082022
 10
113.5997879028
 20
16.865498543
 10
113.6407826677
 20
16.8031021926
 10
113.6917377743
 20
16.7474555564
 10
113.7513985388
 20
16.6999288392
 10
113.8182959151
 20
16.6616923065
 10
113.8907826678
 20
16.6336874687
 10
113.9670739324
 20
16.6166038978
 10
114.0452911649
 20
16.610862248
  0
LINE
  5
2EA
100
AcDbEntity
  8
X48002257_BL4
100
AcDbLine
 62
7
  6
CONTINUOUS
 10
65.9283572108
 20
85.9092969763
 11
62.0939439608
 21
87.3353555883
  0
LWPOLYLINE
  5
2EB
100
AcDbEntity
  8
X48002257_BL4
100
AcDbPolyline
 62
9
  6
CONTINUOUS
 90
19
 70
0
 10
62.2606215474
 20
87.4162380589
 10
60.7825867314
 20
87.9750887965
 10
59.3623465253
 20
88.5858469922
 10
57.9970061869
 20
89.2499301044
 10
56.695249943
 20
89.9630857578
 10
55.4638004317
 20
90.7223498231
 10
54.3056476763
 20
91.5252750203
 10
53.2248471587
 20
92.3695087667
 10
52.2249251403
 20
93.2518028416
 10
51.3098854844
 20
94.1692104566
 10
50.4823508666
 20
95.1184747328
 10
49.745567447
 20
96.0965656727
 10
49.1016686342
 20
97.0998558433
 10
48.5534431314
 20
98.124828868
 10
48.1021712138
 20
99.1681215802
 10
47.7497900055
 20
100.2269035934
 10
47.4971176626
 20
101.2960601905
 10
47.345801032
 20
102.3687759201
 10
47.2952911649
 20
103.4473225992
  0
LWPOLYLINE
  5
2EC
100
AcDbEntity
  8
X48002257_BL4
100
AcDbPolyline
 62
9
  6
CONTINUOUS
 90
4
 70
0
 10
84.1580682505
 20
114.7687088738
 10
84.1374628488
 20
114.8020218149
 10
84.1114307031
 20
114.8266236438
 10
84.0952928861
 20
114.8361031485
  0
LWPOLYLINE
  5
2ED
100
AcDbEntity
  8
X48002257_BL4
100
AcDbPolyline
 62
7
  6
CONTINUOUS
 90
3
 70
0
 10
84.254091437
 20
114.6484188618
 10
84.2749194834
 20
114.614557152
 10
84.2944232555
 20
114.5794250357
  0
LWPOLYLINE
  5
2EE
100
AcDbEntity
  8
X48002257_BL4
100
AcDbPolyline
 62
7
  6
CONTINUOUS
 90
24
 70
0
 10
113.5452911649
 20
32.3342477695
 10
113.4470631832
 20
35.1125219708
 10
113.1526247985
 20
37.8850794684
 10
112.6626089001
 20
40.6467021113
 10
111.9780505438
 20
43.3920121797
 10
111.1003911301
 20
46.1156443281
 10
110.0314036573
 20
48.8124363505
 10
108.7732682213
 20
51.4771630838
 10
107.3284396368
 20
54.1048354963
 10
105.6997466877
 20
56.690449006
 10
103.8903157939
 20
59.2291290388
 10
101.9036002271
 20
61.7160698392
 10
99.7434169781
 20
64.1465025509
 10
97.4139088936
 20
66.5157586578
 10
94.919481003
 20
68.8193296826
 10
92.2648165864
 20
71.0528357139
 10
89.4550038547
 20
73.21192874
 10
86.4953780899
 20
75.2924386651
 10
83.3916222772
 20
77.2902983668
 10
80.1496632731
 20
79.2016217435
 10
76.7757477831
 20
81.0226573471
 10
73.2763540214
 20
82.7498442075
 10
69.658236051
 20
84.3797884135
 10
65.9283572108
 20
85.9092969763
  0
LWPOLYLINE
  5
2EF
100
AcDbEntity
  8
X48002257_BL4
100
AcDbPolyline
 62
9
  6
CONTINUOUS
 90
25
 70
0
 10
114.0452911649
 20
31.9437295803
 10
113.9465268166
 20
34.7469695379
 10
113.6510946522
 20
37.5405650802
 10
113.1584033171
 20
40.327545987
 10
112.4702268748
 20
43.0988229185
 10
111.5874143255
 20
45.8478778008
 10
110.5121495046
 20
48.5700266159
 10
109.2458786585
 20
51.2601730665
 10
107.7916635547
 20
53.9130359171
 10
106.151824099
 20
56.5232516508
 10
104.3300321234
 20
59.0859708147
 10
102.3292676451
 20
61.5961289464
 10
100.1539260157
 20
64.0490075589
 10
97.8077173415
 20
66.4396810359
 10
95.2956773761
 20
68.7637063023
 10
92.6222156374
 20
71.0163699507
 10
89.7929209382
 20
73.1935573619
 10
86.8127416128
 20
75.2908839065
 10
83.688008614
 20
77.3044462072
 10
80.4245726827
 20
79.2299783008
 10
77.0288227881
 20
81.0641833156
 10
73.5062102342
 20
82.8035665841
 10
69.8653987573
 20
84.4444555302
 10
66.1181792997
 20
85.9814080053
 10
62.2606215474
 20
87.4162380589
  0
LINE
  5
2F0
100
AcDbEntity
  8
X48002257_BL4
100
AcDbLine
 62
7
  6
CONTINUOUS
 10
113.5452911649
 20
16.4159479184
 11
113.5452911649
 21
32.3342477695
  0
LINE
  5
2F1
100
AcDbEntity
  8
X48002257_BL4
100
AcDbLine
 62
9
  6
CONTINUOUS
 10
114.0452911649
 20
15.9158335254
 11
114.0452911649
 21
31.9437295803
  0
LWPOLYLINE
  5
2F2
100
AcDbEntity
  8
X48002257_BL4
100
AcDbPolyline
 62
7
  6
CONTINUOUS
 90
4
 70
0
 10
84.1838668801
 20
114.741152436
 10
84.2084756749
 20
114.7118345543
 10
84.23191271
 20
114.680882496
 10
84.254091437
 20
114.6484188618
  0
LWPOLYLINE
  5
2F3
100
AcDbEntity
  8
X48002257_BL4
100
AcDbPolyline
 62
9
  6
CONTINUOUS
 90
6
 70
0
 10
62.0939439608
 20
87.3353555883
 10
62.1158204551
 20
87.3311113275
 10
62.1487808369
 20
87.3354467381
 10
62.1844951081
 20
87.3513873531
 10
62.222083865
 20
87.3785406616
 10
62.2606215474
 20
87.4162380589
  0
LWPOLYLINE
  5
2F4
100
AcDbEntity
  8
X48002257_BL4
100
AcDbPolyline
 62
9
  6
CONTINUOUS
 90
25
 70
0
 10
83.8781249252
 20
98.2573264471
 10
87.8581142717
 20
96.2616067579
 10
91.7097234355
 20
94.1749775297
 10
95.4360621765
 20
91.9955953054
 10
99.0278012154
 20
89.7289904558
 10
102.4779844046
 20
87.3790108488
 10
105.7826021095
 20
84.9488605362
 10
108.9367932938
 20
82.4417232589
 10
111.9361560158
 20
79.8615078183
 10
114.7759042053
 20
77.2118701331
 10
117.4523292122
 20
74.4967525926
 10
119.9612197091
 20
71.7199292322
 10
122.299297658
 20
68.8855610319
 10
124.4627986347
 20
65.9976346169
 10
126.4489704712
 20
63.060447087
 10
128.2545427533
 20
60.0781616755
 10
129.8773057956
 20
57.0551666067
 10
131.3145293107
 20
53.9957045531
 10
132.5645046907
 20
50.9043754037
 10
133.624968044
 20
47.7857437375
 10
134.4948549355
 20
44.6441581579
 10
135.1725548623
 20
41.483558704
 10
135.657442137
 20
38.3097356474
 10
135.9482089227
 20
35.1306805584
 10
136.0452911649
 20
31.9437295803
  0
LWPOLYLINE
  5
2F5
100
AcDbEntity
  8
X48002257_BL4
100
AcDbPolyline
 62
9
  6
CONTINUOUS
 90
23
 70
0
 10
84.1837042699
 20
98.8949873103
 10
88.1790257986
 20
96.89155709
 10
92.0494054302
 20
94.7946570386
 10
95.7892394023
 20
92.6073231709
 10
99.3931129698
 20
90.3327224334
 10
102.8558082411
 20
87.9741481208
 10
106.1723117145
 20
85.53501512
 10
109.337821573
 20
83.0188549416
 10
112.3477545598
 20
80.429310669
 10
115.1977526633
 20
77.7701316572
 10
117.8836895671
 20
75.0451679638
 10
120.4016764643
 20
72.2583649019
 10
122.7480676502
 20
69.4137573834
 10
124.9194658826
 20
66.5154639968
 10
126.9127272848
 20
63.5676810603
 10
128.7249658866
 20
60.5746765639
 10
130.3535578543
 20
57.5407839002
 10
131.7961452426
 20
54.4703956428
 10
133.0506393446
 20
51.3679573443
 10
134.1152238087
 20
48.2379609432
 10
134.9883572719
 20
45.0849382206
 10
135.6687755594
 20
41.9134543149
 10
136.1554935243
 20
38.7281010789
  0
LWPOLYLINE
  5
2F6
100
AcDbEntity
  8
X48002257_BL4
100
AcDbPolyline
 62
7
  6
CONTINUOUS
 90
3
 70
0
 10
84.1039971697
 20
114.8176337369
 10
84.1221494074
 20
114.8024634999
 10
84.1401784105
 20
114.7861570357
  0
LINE
  5
2F7
100
AcDbEntity
  8
X48002257_BL4
100
AcDbLine
 62
7
  6
CONTINUOUS
 10
84.1401784105
 20
114.7861570357
 11
84.1580682505
 21
114.7687088738
  0
LINE
  5
2F8
100
AcDbEntity
  8
X48002257_BL4
100
AcDbLine
 62
7
  6
CONTINUOUS
 10
84.1580682505
 20
114.7687088738
 11
84.1838668801
 21
114.741152436
  0
LWPOLYLINE
  5
2F9
100
AcDbEntity
  8
X48002257_BL4
100
AcDbPolyline
 62
7
  6
CONTINUOUS
 90
4
 70
0
 10
84.0493628618
 20
114.8561787671
 10
84.067562751
 20
114.8444902275
 10
84.0857808979
 20
114.8316474199
 10
84.1039971697
 20
114.8176337369
  0
LWPOLYLINE
  5
2FA
100
AcDbEntity
  8
X48002257_BL4
100
AcDbPolyline
 62
9
  6
CONTINUOUS
 90
7
 70
0
 10
84.1837076851
 20
114.3516402126
 10
84.139278922
 20
114.3871916739
 10
84.0913615916
 20
114.4189666253
 10
84.0405958089
 20
114.4465405942
 10
83.9876597402
 20
114.4695452274
 10
83.9332605442
 20
114.4876732125
 10
83.8781249252
 20
114.5006823829
  0
LWPOLYLINE
  5
2FB
100
AcDbEntity
  8
X48002257_BL4
100
AcDbPolyline
 62
9
  6
CONTINUOUS
 90
21
 70
0
 10
133.876264278
 20
64.7319906786
 10
132.8418465568
 20
67.6584931112
 10
131.6411020012
 20
70.5601191734
 10
130.2755556598
 20
73.4331835503
 10
128.7469418957
 20
76.2740371997
 10
127.0572021788
 20
79.0790719951
 10
125.2084826339
 20
81.8447252861
 10
123.2031313012
 20
84.5674844489
 10
121.04369517
 20
87.2438913255
 10
118.7329169563
 20
89.8705466074
 10
116.2737314991
 20
92.4441142835
 10
113.6692621306
 20
94.9613257468
 10
110.9228167359
 20
97.4189839287
 10
108.0378834806
 20
99.8139674289
 10
105.0181265342
 20
102.1432343543
 10
101.8673813055
 20
104.4038262908
 10
98.5896494924
 20
106.5928721086
 10
95.1890940952
 20
108.7075915325
 10
91.670034112
 20
110.7452986871
 10
88.0369390504
 20
112.7034055099
 10
84.2944232555
 20
114.5794250357
  0
LWPOLYLINE
  5
2FC
100
AcDbEntity
  8
X48002257_BL4
100
AcDbPolyline
 62
7
  6
CONTINUOUS
 90
20
 70
0
 10
133.8618794262
 20
64.8240956046
 10
132.8232284174
 20
67.7627602247
 10
131.617618709
 20
70.6765357451
 10
130.2465093262
 20
73.5617297044
 10
128.711641703
 20
76.4145457235
 10
127.0149654378
 20
79.2312735128
 10
125.1586401752
 20
82.008269151
 10
123.1450377624
 20
84.7419464079
 10
120.9767454209
 20
87.4287726719
 10
118.6565581755
 20
90.0652803058
 10
116.1874625785
 20
92.6480834727
 10
113.5726511492
 20
95.1738604941
 10
110.8154870128
 20
97.63938782
 10
107.9195329405
 20
100.0415098932
 10
104.888506405
 20
102.3771770474
 10
101.7263144814
 20
104.6434144804
 10
98.437007382
 20
106.8373564907
 10
95.0248123627
 20
108.9562204727
 10
91.494090888
 20
110.997334493
 10
87.8493749223
 20
112.9581142628
  0
LINE
  5
2FD
100
AcDbEntity
  8
X48002257_BL4
100
AcDbLine
 62
7
  6
CONTINUOUS
 10
134.4735441488
 20
62.8483657947
 11
133.8618760123
 21
64.8241038496
  0
LWPOLYLINE
  5
2FE
100
AcDbEntity
  8
X48002257_BL4
100
AcDbPolyline
 62
9
  6
CONTINUOUS
 90
3
 70
0
 10
133.876264278
 20
64.7319906785
 10
133.8702302775
 20
64.7923204911
 10
133.8618794262
 20
64.8240956046
  0
LWPOLYLINE
  5
2FF
100
AcDbEntity
  8
X48002257_BL4
100
AcDbPolyline
 62
9
  6
CONTINUOUS
 90
3
 70
0
 10
136.1554935243
 20
38.7281010789
 10
136.4478064688
 20
35.533490449
 10
136.5452911649
 20
32.3342477695
  0
LWPOLYLINE
  5
300
100
AcDbEntity
  8
X48002257_BL4
100
AcDbPolyline
 62
7
  6
CONTINUOUS
 90
6
 70
0
 10
136.5321908093
 20
48.9408951988
 10
136.5210710082
 20
49.1713280669
 10
136.507206374
 20
49.342715517
 10
136.4909194282
 20
49.4553781571
 10
136.4727883998
 20
49.5083393228
 10
136.4656537703
 20
49.5124988893
  0
LWPOLYLINE
  5
301
100
AcDbEntity
  8
X48002257_BL4
100
AcDbPolyline
 62
9
  6
CONTINUOUS
 90
9
 70
0
 10
136.5452911649
 20
50.8668817324
 10
136.5049108307
 20
52.2690373849
 10
136.3829143896
 20
53.7693675412
 10
136.1779618385
 20
55.3674282473
 10
135.8891183253
 20
57.0593716807
 10
135.5160805289
 20
58.8404796786
 10
135.0573564194
 20
60.7127849882
 10
134.5110652571
 20
62.677402711
 10
133.876264278
 20
64.7319906786
  0
LWPOLYLINE
  5
302
100
AcDbEntity
  8
X48002257_BL4
100
AcDbPolyline
 62
7
  6
CONTINUOUS
 90
8
 70
0
 10
136.5452904621
 20
50.8668559722
 10
136.5071494566
 20
52.2364331559
 10
136.3843504649
 20
53.7722734313
 10
136.1756904982
 20
55.4057401019
 10
135.8805109062
 20
57.1337434163
 10
135.4983432704
 20
58.952878895
 10
135.0292574685
 20
60.8591289129
 10
134.4735441488
 20
62.8483657947
  0
LWPOLYLINE
  5
303
100
AcDbEntity
  8
X48002257_BL4
100
AcDbPolyline
 62
7
  6
CONTINUOUS
 90
6
 70
0
 10
136.4534379293
 20
39.5770928533
 10
136.4727886099
 20
38.8766098915
 10
136.4909195526
 20
38.1901862357
 10
136.5072064158
 20
37.5236740453
 10
136.521071018
 20
36.8850637737
 10
136.5321908093
 20
36.2716968831
  0
LWPOLYLINE
  5
304
100
AcDbEntity
  8
X48002257_BL4
100
AcDbPolyline
 62
7
  6
CONTINUOUS
 90
7
 70
0
 10
136.5321908093
 20
36.2716968831
 10
136.5361795685
 20
36.0010315985
 10
136.5394507491
 20
35.7317615835
 10
136.5420009608
 20
35.4638846824
 10
136.5438266734
 20
35.1974114803
 10
136.5449244935
 20
34.932352573
 10
136.5452911649
 20
34.6687058344
  0
LWPOLYLINE
  5
305
100
AcDbEntity
  8
X48002257_BL4
100
AcDbPolyline
 62
7
  6
CONTINUOUS
 90
7
 70
0
 10
136.5452911649
 20
48.1979373251
 10
136.5449244935
 20
48.3267780796
 10
136.5438266734
 20
48.4536176555
 10
136.5420009608
 20
48.578457995
 10
136.5394507491
 20
48.7012890538
 10
136.5361795685
 20
48.8221007977
 10
136.5321908093
 20
48.9408951988
  0
LINE
  5
306
100
AcDbEntity
  8
X48002257_BL4
100
AcDbLine
 62
9
  6
CONTINUOUS
 10
136.0452911649
 20
31.9437295803
 11
136.0452911649
 21
15.9158335254
  0
LINE
  5
307
100
AcDbEntity
  8
X48002257_BL4
100
AcDbLine
 62
7
  6
CONTINUOUS
 10
136.5452911649
 20
50.8668817324
 11
136.5452911649
 21
48.9408951988
  0
LINE
  5
308
100
AcDbEntity
  8
X48002257_BL4
100
AcDbLine
 62
7
  6
CONTINUOUS
 10
136.5452911649
 20
34.6687058344
 11
136.5452911649
 21
16.4159466171
  0
LINE
  5
309
100
AcDbEntity
  8
X48002257_BL4
100
AcDbLine
 62
7
  6
CONTINUOUS
 10
136.5452911649
 20
47.5431251345
 11
136.5452911649
 21
48.1979373251
  0
LINE
  5
30A
100
AcDbEntity
  8
X48002257_BL4
100
AcDbLine
 62
7
  6
CONTINUOUS
 10
84.0110039407
 20
114.8771022566
 11
84.0006750554
 21
114.8820722477
  0
LINE
  5
30B
100
AcDbEntity
  8
X48002257_BL4
100
AcDbLine
 62
7
  6
CONTINUOUS
 10
87.8493749223
 20
112.9581142628
 11
84.0952928861
 21
114.8361031485
  0
LINE
  5
30C
100
AcDbEntity
  8
X48002257_BL4
100
AcDbLine
 62
7
  6
CONTINUOUS
 10
84.0493628618
 20
114.8561787655
 11
84.0110039407
 21
114.8771022566
  0
LWPOLYLINE
  5
30D
100
AcDbEntity
  8
X48002257_BL4
100
AcDbPolyline
 62
9
  6
CONTINUOUS
 90
11
 70
0
 10
136.5452911649
 20
17.0772209739
 10
136.5391353353
 20
17.0042663967
 10
136.5208194233
 20
16.933108203
 10
136.4907944274
 20
16.8654985436
 10
136.4497996624
 20
16.8031021929
 10
136.3988445552
 20
16.7474555561
 10
136.3391837901
 20
16.6999288386
 10
136.2722864135
 20
16.6616923059
 10
136.1997996609
 20
16.6336874684
 10
136.1235083966
 20
16.6166038977
 10
136.0452911649
 20
16.610862248
  0
LWPOLYLINE
  5
30E
100
AcDbEntity
  8
X48002257_BL4
100
AcDbPolyline
 62
9
  6
CONTINUOUS
 90
11
 70
0
 10
136.5452911649
 20
32.3342477695
 10
136.5391353352
 20
32.2731572655
 10
136.5208194231
 20
32.2135710124
 10
136.490794427
 20
32.1569562216
 10
136.4497996621
 20
32.1047069371
 10
136.3988445555
 20
32.0581097097
 10
136.339183791
 20
32.0183119178
 10
136.2722864148
 20
31.9862935151
 10
136.1997996621
 20
31.9628429009
 10
136.1235083974
 20
31.9485375072
 10
136.0452911649
 20
31.9437295803
  0
LWPOLYLINE
  5
30F
100
AcDbEntity
  8
X48002257_BL4
100
AcDbPolyline
 62
9
  6
CONTINUOUS
 90
11
 70
0
 10
136.5452911649
 20
24.5281786627
 10
136.5391353352
 20
24.4670881586
 10
136.5208194231
 20
24.4075019056
 10
136.490794427
 20
24.3508871148
 10
136.4497996621
 20
24.2986378303
 10
136.3988445555
 20
24.2520406028
 10
136.339183791
 20
24.2122428109
 10
136.2722864148
 20
24.1802244082
 10
136.1997996621
 20
24.156773794
 10
136.1235083974
 20
24.1424684003
 10
136.0452911649
 20
24.1376604734
  0
LWPOLYLINE
  5
310
100
AcDbEntity
  8
X48002257_BL4
100
AcDbPolyline
 62
7
  6
CONTINUOUS
 90
3
 70
0
 10
84.0006750554
 20
114.8820722477
 10
83.9453071574
 20
114.9049984904
 10
83.8830073822
 20
114.925013425
  0
LWPOLYLINE
  5
311
100
AcDbEntity
  8
X48002257_BL4
100
AcDbPolyline
 62
7
  6
CONTINUOUS
 90
6
 70
0
 10
83.8830073822
 20
114.925013425
 10
83.8145310867
 20
114.9418824973
 10
83.7404655622
 20
114.9554878638
 10
83.6610632195
 20
114.9655451171
 10
83.5768282547
 20
114.971698442
 10
83.4875926025
 20
114.9740576519
  0
LWPOLYLINE
  5
312
100
AcDbEntity
  8
X48002257_BL4
100
AcDbPolyline
 62
7
  6
CONTINUOUS
 90
21
 70
0
 10
136.4656537703
 20
49.5124988893
 10
136.4534377405
 20
49.500538784
 10
136.4334318949
 20
49.4325688766
 10
136.413360477
 20
49.3040061973
 10
136.3938706097
 20
49.1168539595
 10
136.3756503105
 20
48.8724836504
 10
136.3591771678
 20
48.5723788891
 10
136.3449228765
 20
48.2169763553
 10
136.3333370445
 20
47.8107882262
 10
136.3248503599
 20
47.3578757321
 10
136.3196511158
 20
46.8600208589
 10
136.3179103076
 20
46.3181678052
 10
136.3196511474
 20
45.7388759966
 10
136.3248504297
 20
45.1283334955
 10
136.3333371471
 20
44.4885813266
 10
136.3449229885
 20
43.8211625116
 10
136.3591772938
 20
43.1337439542
 10
136.375650492
 20
42.4336380386
 10
136.3938708284
 20
41.72344381
 10
136.413360652
 20
41.0057344089
 10
136.4534379293
 20
39.5770928533
  0
LINE
  5
313
100
AcDbEntity
  8
X48002257_BL4
100
AcDbLine
 62
9
  6
CONTINUOUS
 10
47.2952911649
 20
112.1901199989
 11
79.7952911649
 21
112.1901199989
  0
LINE
  5
314
100
AcDbEntity
  8
X48002257_BL4
100
AcDbLine
 62
9
  6
CONTINUOUS
 10
47.2952911649
 20
113.5956419061
 11
79.7952911649
 21
113.5956419061
  0
LINE
  5
315
100
AcDbEntity
  8
X48002257_BL4
100
AcDbLine
 62
7
  6
CONTINUOUS
 10
80.6952911649
 20
114.9740576597
 11
83.4875926025
 21
114.9740576519
  0
LWPOLYLINE
  5
316
100
AcDbEntity
  8
X48002257_BL4
100
AcDbPolyline
 62
9
  6
CONTINUOUS
 90
7
 70
0
 10
46.8907825723
 20
353.6039041457
 10
46.9417377363
 20
353.641161488
 10
47.0013985881
 20
353.6729822609
 10
47.068296021
 20
353.6985829093
 10
47.1407827935
 20
353.717333077
 10
47.2170740229
 20
353.7287710842
 10
47.2952911649
 20
353.7326153047
  0
LWPOLYLINE
  5
317
100
AcDbEntity
  8
X48002257_BL4
100
AcDbPolyline
 62
9
  6
CONTINUOUS
 90
5
 70
0
 10
46.7952911649
 20
353.4203725358
 10
46.8014469763
 20
353.4692179935
 10
46.8197628502
 20
353.5168607477
 10
46.8497878129
 20
353.5621276742
 10
46.8907825723
 20
353.6039041457
  0
LWPOLYLINE
  5
318
100
AcDbEntity
  8
X48002257_BL4
100
AcDbPolyline
 62
9
  6
CONTINUOUS
 90
11
 70
0
 10
46.7952911649
 20
342.485863236
 10
46.8014469946
 20
342.5347087658
 10
46.8197629068
 20
342.5823515565
 10
46.8497879028
 20
342.6276184846
 10
46.8907826677
 20
342.6693949279
 10
46.9417377743
 20
342.706652212
 10
47.0013985388
 20
342.7384729386
 10
47.068295915
 20
342.7640735761
 10
47.1407826677
 20
342.7828237516
 10
47.2170739324
 20
342.7942617737
 10
47.2952911649
 20
342.7981060002
  0
LWPOLYLINE
  5
319
100
AcDbEntity
  8
X48002257_BL4
100
AcDbPolyline
 62
9
  6
CONTINUOUS
 90
15
 70
0
 10
46.7952911649
 20
338.2612148854
 10
46.8124855684
 20
336.940032331
 10
46.8608139161
 20
335.6252486907
 10
46.9356936521
 20
334.3152775644
 10
47.0322011074
 20
333.0170844806
 10
47.1461498812
 20
331.725051697
 10
47.2702544326
 20
330.4740260435
 10
47.3955661285
 20
329.295585181
 10
47.5177214195
 20
328.1920391702
 10
47.6311769121
 20
327.1791020102
 10
47.7344637779
 20
326.2477478922
 10
47.8261849135
 20
325.3984755006
 10
47.906477579
 20
324.618992
 10
47.9772021268
 20
323.8960352235
 10
48.0360212179
 20
323.2336734445
  0
LWPOLYLINE
  5
31A
100
AcDbEntity
  8
X48002257_BL4
100
AcDbPolyline
 62
7
  6
CONTINUOUS
 90
8
 70
0
 10
46.7952929116
 20
338.2612148676
 10
46.8099865359
 20
337.0387623424
 10
46.8591037936
 20
335.6524787297
 10
46.9375754546
 20
334.272562076
 10
47.0398786868
 20
332.9035669952
 10
47.1603822853
 20
331.5498322529
 10
47.293469949
 20
330.2157795232
 10
47.4335015931
 20
328.905781135
  0
LINE
  5
31B
100
AcDbEntity
  8
X48002257_BL4
100
AcDbLine
 62
7
  6
CONTINUOUS
 10
46.7952911649
 20
338.2612148854
 11
46.7952911649
 21
353.6081102566
  0
LINE
  5
31C
100
AcDbEntity
  8
X48002257_BL4
100
AcDbLine
 62
9
  6
CONTINUOUS
 10
47.2952911649
 20
342.7981060002
 11
47.2952911649
 21
354.1081297715
  0
LINE
  5
31D
100
AcDbEntity
  8
X48002257_BL4
100
AcDbLine
 62
7
  6
CONTINUOUS
 10
136.0452911649
 20
216.4571367569
 11
114.0452911649
 21
216.4571367569
  0
LINE
  5
31E
100
AcDbEntity
  8
X48002257_BL4
100
AcDbLine
 62
7
  6
CONTINUOUS
 10
48.0229420741
 20
323.233387602
 11
48.0229520305
 21
323.2333290213
  0
LWPOLYLINE
  5
31F
100
AcDbEntity
  8
X48002257_BL4
100
AcDbPolyline
 62
7
  6
CONTINUOUS
 90
5
 70
0
 10
47.4335015931
 20
328.905781135
 10
47.7124866444
 20
326.3758154647
 10
47.8409374422
 20
325.1648835387
 10
47.9555484101
 20
323.9963329968
 10
48.0229445377
 20
323.23338113
  0
LWPOLYLINE
  5
320
100
AcDbEntity
  8
X48002257_BL4
100
AcDbPolyline
 62
9
  6
CONTINUOUS
 90
5
 70
0
 10
62.0142712149
 20
309.5127708651
 10
62.0173041963
 20
309.4681091879
 10
62.0263284584
 20
309.4329149344
 10
62.0411217939
 20
309.4080547041
 10
62.0584030448
 20
309.3953164189
  0
LINE
  5
321
100
AcDbEntity
  8
X48002257_BL4
100
AcDbLine
 62
9
  6
CONTINUOUS
 10
62.0142712149
 20
309.5127708651
 11
62.0142712149
 21
322.0961542654
  0
LWPOLYLINE
  5
322
100
AcDbEntity
  8
X48002257_BL4
100
AcDbPolyline
 62
9
  6
CONTINUOUS
 90
11
 70
0
 10
62.014271215
 20
322.0961542654
 10
62.0173041963
 20
322.1491836477
 10
62.0263284584
 20
322.2092749757
 10
62.0411217939
 20
322.2749486015
 10
62.0613199419
 20
322.3445874224
 10
62.0864255568
 20
322.4164766996
 10
62.1158204551
 20
322.4888462804
 10
62.1487808369
 20
322.5599141857
 10
62.1844951081
 20
322.6279304876
 10
62.222083865
 20
322.6912203991
 10
62.2606215474
 20
322.7482255125
  0
LWPOLYLINE
  5
323
100
AcDbEntity
  8
X48002257_BL4
100
AcDbPolyline
 62
9
  6
CONTINUOUS
 90
15
 70
0
 10
48.0360212179
 20
323.2336734445
 10
48.5357400315
 20
322.0377200225
 10
49.1183646359
 20
320.8617437813
 10
49.7830409782
 20
319.7088826527
 10
50.5275746705
 20
318.583996894
 10
51.3494104882
 20
317.4914417499
 10
52.2458430732
 20
316.434989174
 10
53.2137274968
 20
315.4183111818
 10
54.2494710645
 20
314.4449431879
 10
55.3434688249
 20
313.5226866814
 10
56.5084932198
 20
312.6409427622
 10
57.7590132559
 20
311.7928730444
 10
59.0924806552
 20
310.9857448862
 10
60.5117537044
 20
310.2233633757
 10
62.0142712149
 20
309.5127708651
  0
LWPOLYLINE
  5
324
100
AcDbEntity
  8
X48002257_BL4
100
AcDbPolyline
 62
7
  6
CONTINUOUS
 90
14
 70
0
 10
48.0229615076
 20
323.2333038212
 10
48.434555953
 20
322.2231915389
 10
49.0229359066
 20
320.9959834249
 10
49.6978201826
 20
319.7958282734
 10
50.4571604043
 20
318.62663867
 10
51.2986448024
 20
317.4921657821
 10
52.2196865428
 20
316.3960385145
 10
53.2174380872
 20
315.3417494279
 10
54.2887755681
 20
314.332670503
 10
55.4303269828
 20
313.3720189623
 10
56.6385059819
 20
312.4628319472
 10
57.9094896128
 20
311.6079874293
 10
59.2392896309
 20
310.810156163
 10
60.6236700307
 20
310.0718554289
  0
LINE
  5
325
100
AcDbEntity
  8
X48002257_BL4
100
AcDbLine
 62
9
  6
CONTINUOUS
 10
114.0452911649
 20
230.5122177606
 11
136.0452911649
 21
230.5122177606
  0
LWPOLYLINE
  5
326
100
AcDbEntity
  8
X48002257_BL4
100
AcDbPolyline
 62
7
  6
CONTINUOUS
 90
13
 70
0
 10
80.2952911649
 20
342.485863236
 10
80.3243607267
 20
341.9003419423
 10
80.4112023055
 20
341.319159273
 10
80.5550802365
 20
340.7453965738
 10
80.7548417176
 20
340.1825195168
 10
81.0088807822
 20
339.6339944344
 10
81.3155115306
 20
339.1026136997
 10
81.6726472496
 20
338.5913605273
 10
82.0782399291
 20
338.1027138308
 10
82.5300080521
 20
337.6391694374
 10
83.0254361117
 20
337.2031738122
 10
83.5619786463
 20
336.7969416588
 10
84.1363396162
 20
336.4229636996
  0
LWPOLYLINE
  5
327
100
AcDbEntity
  8
X48002257_BL4
100
AcDbPolyline
 62
9
  6
CONTINUOUS
 90
13
 70
0
 10
79.7952911649
 20
342.7981060002
 10
79.8255124345
 20
342.1754243074
 10
79.9159517004
 20
341.5584183796
 10
80.0671574657
 20
340.9449052581
 10
80.2774842208
 20
340.3414338188
 10
80.5461383335
 20
339.7529156021
 10
80.8711126737
 20
339.1820796555
 10
81.2509900369
 20
338.6323110998
 10
81.683207014
 20
338.1065532551
 10
82.1662248079
 20
337.6077138176
 10
82.6955523778
 20
337.1392847794
 10
83.2655602535
 20
336.7062850177
 10
83.8781249252
 20
336.3070415735
  0
LINE
  5
328
100
AcDbEntity
  8
X48002257_BL4
100
AcDbLine
 62
9
  6
CONTINUOUS
 10
79.7952911649
 20
354.1081297715
 11
79.7952911649
 21
342.7981060002
  0
LINE
  5
329
100
AcDbEntity
  8
X48002257_BL4
100
AcDbLine
 62
7
  6
CONTINUOUS
 10
80.2952911649
 20
353.6081102566
 11
80.2952911649
 21
342.485863236
  0
LINE
  5
32A
100
AcDbEntity
  8
X48002257_BL4
100
AcDbLine
 62
9
  6
CONTINUOUS
 10
114.0452911649
 20
243.6064859233
 11
136.0452911649
 21
243.6064859233
  0
LWPOLYLINE
  5
32B
100
AcDbEntity
  8
X48002257_BL4
100
AcDbPolyline
 62
9
  6
CONTINUOUS
 90
11
 70
0
 10
80.2952911649
 20
342.485863236
 10
80.2891353355
 20
342.5347087646
 10
80.270819424
 20
342.5823515547
 10
80.2407944285
 20
342.6276184827
 10
80.1997996637
 20
342.6693949266
 10
80.1488445562
 20
342.7066522115
 10
80.0891837903
 20
342.738472939
 10
80.0222864131
 20
342.7640735766
 10
79.9497996601
 20
342.782823752
 10
79.873508396
 20
342.7942617738
 10
79.7952911649
 20
342.7981060003
  0
LWPOLYLINE
  5
32C
100
AcDbEntity
  8
X48002257_BL4
100
AcDbPolyline
 62
9
  6
CONTINUOUS
 90
5
 70
0
 10
80.2952911649
 20
353.4203725358
 10
80.2891353352
 20
353.4692180656
 10
80.270819423
 20
353.5168608563
 10
80.240794427
 20
353.5621277844
 10
80.1997996621
 20
353.6039042278
  0
LINE
  5
32D
100
AcDbEntity
  8
X48002257_BL4
100
AcDbLine
 62
9
  6
CONTINUOUS
 10
112.7208201483
 20
250.5615374019
 11
112.7233633867
 21
250.5302108735
  0
LWPOLYLINE
  5
32E
100
AcDbEntity
  8
X48002257_BL4
100
AcDbPolyline
 62
9
  6
CONTINUOUS
 90
3
 70
0
 10
113.4552690789
 20
243.3864286362
 10
113.5228905782
 20
241.4727383067
 10
113.5452911562
 20
239.5139472698
  0
LWPOLYLINE
  5
32F
100
AcDbEntity
  8
X48002257_BL4
100
AcDbPolyline
 62
7
  6
CONTINUOUS
 90
3
 70
0
 10
113.4574052083
 20
243.3367803413
 10
113.5249447166
 20
241.3790406011
 10
113.5452906906
 20
239.5139446138
  0
LWPOLYLINE
  5
330
100
AcDbEntity
  8
X48002257_BL4
100
AcDbPolyline
 62
9
  6
CONTINUOUS
 90
25
 70
0
 10
113.5452911649
 20
253.057197891
 10
113.4470517906
 20
256.5455976488
 10
113.1525236857
 20
260.0272500011
 10
112.662276539
 20
263.4954205768
 10
111.9772586023
 20
266.9434011126
 10
111.0987948481
 20
270.3645224269
 10
110.0285844595
 20
273.7521671387
 10
108.7686974721
 20
277.0997827574
 10
107.3215709738
 20
280.4008938322
 10
105.6900043795
 20
283.6491147321
 10
103.8771533783
 20
286.8381631435
 10
101.8865242832
 20
289.9618710392
 10
99.7219674984
 20
293.0141963392
 10
97.3876697804
 20
295.9892351407
 10
94.8881461987
 20
298.8812330289
 10
92.2282314953
 20
301.6845961134
 10
89.4130702719
 20
304.3939023126
 10
86.4481072161
 20
307.0039115399
 10
83.3390776638
 20
309.5095749489
 10
80.0919955434
 20
311.9060456968
 10
76.7131414649
 20
314.188688453
 10
73.2090510558
 20
316.3530879675
 10
69.586502031
 20
318.3950578039
 10
65.8525012589
 20
320.3106483106
 10
62.0142712149
 20
322.0961542654
  0
LWPOLYLINE
  5
331
100
AcDbEntity
  8
X48002257_BL4
100
AcDbPolyline
 62
7
  6
CONTINUOUS
 90
23
 70
0
 10
112.7233633867
 20
250.5302108735
 10
112.0898318163
 20
253.835029858
 10
111.2781867139
 20
257.1159029376
 10
110.2899031898
 20
260.3670107327
 10
109.1267594731
 20
263.5826109349
 10
107.7908398805
 20
266.757018798
 10
106.2845438439
 20
269.8845947658
 10
104.6105740851
 20
272.959782154
 10
102.7719271954
 20
275.9771243558
 10
100.7719118352
 20
278.9312381531
 10
98.6140578257
 20
281.816945073
 10
96.3021741461
 20
284.6291661313
 10
93.8403673942
 20
287.3629106204
 10
91.2329904128
 20
290.0133431941
 10
88.4846949176
 20
292.5757314211
 10
85.6003920849
 20
295.0454965011
 10
82.5851703194
 20
297.418278871
 10
79.444357334
 20
299.6898758027
 10
76.1835170541
 20
301.8562488079
 10
72.8084113976
 20
303.9135520678
 10
69.3250387225
 20
305.8581099815
 10
65.7395693839
 20
307.6864585192
 10
62.0584030448
 20
309.3953164189
  0
LWPOLYLINE
  5
332
100
AcDbEntity
  8
X48002257_BL4
100
AcDbPolyline
 62
7
  6
CONTINUOUS
 90
5
 70
0
 10
112.7233633647
 20
250.5302079276
 10
112.9643038458
 20
248.9096642632
 10
113.1774042323
 20
247.1056929531
 10
113.3417055105
 20
245.2468856058
 10
113.4574052083
 20
243.3367803413
  0
LWPOLYLINE
  5
333
100
AcDbEntity
  8
X48002257_BL4
100
AcDbPolyline
 62
9
  6
CONTINUOUS
 90
5
 70
0
 10
112.7208201483
 20
250.5615374019
 10
112.975099342
 20
248.8414719184
 10
113.1819161753
 20
247.0717221901
 10
113.3418011883
 20
245.2530624665
 10
113.4552690789
 20
243.3864286362
  0
LWPOLYLINE
  5
334
100
AcDbEntity
  8
X48002257_BL4
100
AcDbPolyline
 62
9
  6
CONTINUOUS
 90
25
 70
0
 10
114.0452911649
 20
253.3694406553
 10
113.9465268166
 20
256.8754184317
 10
113.6510946522
 20
260.3693340563
 10
113.1584033171
 20
263.8549768375
 10
112.4702268748
 20
267.3209788497
 10
111.5874143255
 20
270.7591880179
 10
110.5121495046
 20
274.1637460985
 10
109.2458786585
 20
277.528279215
 10
107.7916635547
 20
280.8461821911
 10
106.151824099
 20
284.1107469418
 10
104.3300321234
 20
287.3159083164
 10
102.3292676451
 20
290.4553322536
 10
100.1539260157
 20
293.5231173998
 10
97.8077173415
 20
296.5131033473
 10
95.2956773761
 20
299.4197331967
 10
92.6222156374
 20
302.2371119471
 10
89.7929209382
 20
304.9600934949
 10
86.8127416128
 20
307.5831940378
 10
83.688008614
 20
310.10153167
 10
80.4245726827
 20
312.5097710038
 10
77.0288227881
 20
314.8037886821
 10
73.5062102342
 20
316.9792139671
 10
69.8653987573
 20
319.0314536131
 10
66.1181792997
 20
320.9537011918
 10
62.2606215474
 20
322.7482255125
  0
LINE
  5
335
100
AcDbEntity
  8
X48002257_BL4
100
AcDbLine
 62
7
  6
CONTINUOUS
 10
113.5452911649
 20
216.9572242575
 11
113.5452911649
 21
253.057197891
  0
LINE
  5
336
100
AcDbEntity
  8
X48002257_BL4
100
AcDbLine
 62
9
  6
CONTINUOUS
 10
114.0452911649
 20
216.4571367569
 11
114.0452911649
 21
253.3694406553
  0
LWPOLYLINE
  5
337
100
AcDbEntity
  8
X48002257_BL4
100
AcDbPolyline
 62
9
  6
CONTINUOUS
 90
11
 70
0
 10
113.5452911649
 20
253.057197891
 10
113.5514469946
 20
253.1060434208
 10
113.5697629068
 20
253.1536862116
 10
113.5997879028
 20
253.1989531396
 10
113.6407826677
 20
253.240729583
 10
113.6917377743
 20
253.277986867
 10
113.7513985388
 20
253.3098075937
 10
113.818295915
 20
253.3354082311
 10
113.8907826677
 20
253.3541584067
 10
113.9670739324
 20
253.3655964288
 10
114.0452911649
 20
253.3694406553
  0
LWPOLYLINE
  5
338
100
AcDbEntity
  8
X48002257_BL4
100
AcDbPolyline
 62
9
  6
CONTINUOUS
 90
11
 70
0
 10
113.5452911649
 20
243.2942431591
 10
113.5514469946
 20
243.3430886889
 10
113.5697629068
 20
243.3907314796
 10
113.5997879028
 20
243.4359984077
 10
113.6407826677
 20
243.477774851
 10
113.6917377743
 20
243.5150321351
 10
113.7513985388
 20
243.5468528617
 10
113.818295915
 20
243.5724534992
 10
113.8907826677
 20
243.5912036747
 10
113.9670739324
 20
243.6026416968
 10
114.0452911649
 20
243.6064859233
  0
LWPOLYLINE
  5
339
100
AcDbEntity
  8
X48002257_BL4
100
AcDbPolyline
 62
9
  6
CONTINUOUS
 90
23
 70
0
 10
62.0142712149
 20
309.5127708651
 10
65.697700728
 20
307.8027760478
 10
69.2855168464
 20
305.9729716597
 10
72.7713351767
 20
304.0266137721
 10
76.1489528169
 20
301.9671658654
 10
79.4123593947
 20
299.7982926681
 10
82.5557478249
 20
297.5238535918
 10
85.5735247034
 20
295.1478957977
 10
88.4603196236
 20
292.6746475208
 10
91.2109952534
 20
290.1085102376
 10
93.820657284
 20
287.4540500084
 10
96.2846621222
 20
284.715990178
 10
98.5986252262
 20
281.899202957
 10
100.7584291138
 20
279.0087005265
 10
102.7602303676
 20
276.0496265576
 10
104.6004667858
 20
273.0272467096
 10
106.275863768
 20
269.9469391401
 10
107.7834400153
 20
266.8141851077
 10
109.1205128263
 20
263.6345592599
 10
110.2847029171
 20
260.4137196307
 10
111.2739386365
 20
257.1573976179
 10
112.0864596632
 20
253.8713877656
 10
112.7208201483
 20
250.5615374019
  0
LINE
  5
33A
100
AcDbEntity
  8
X48002257_BL4
100
AcDbLine
 62
7
  6
CONTINUOUS
 10
60.6236700307
 20
310.0718554289
 11
62.0584030448
 21
309.3953164189
  0
LWPOLYLINE
  5
33B
100
AcDbEntity
  8
X48002257_BL4
100
AcDbPolyline
 62
9
  6
CONTINUOUS
 90
11
 70
0
 10
113.5452911649
 20
230.331913743
 10
113.5514469946
 20
230.3601195055
 10
113.5697629067
 20
230.3876307486
 10
113.5997879028
 20
230.413770054
 10
113.6407826677
 20
230.4378937855
 10
113.6917377743
 20
230.4594079365
 10
113.7513985388
 20
230.4777827574
 10
113.8182959151
 20
230.492565799
 10
113.8907826678
 20
230.5033930539
 10
113.9670739324
 20
230.5099979189
 10
114.0452911649
 20
230.5122177606
  0
LWPOLYLINE
  5
33C
100
AcDbEntity
  8
X48002257_BL4
100
AcDbPolyline
 62
9
  6
CONTINUOUS
 90
19
 70
0
 10
62.2606215474
 20
322.7482255125
 10
60.7825867314
 20
323.4471732644
 10
59.3623465253
 20
324.2110410363
 10
57.9970061869
 20
325.0416016264
 10
56.695249943
 20
325.9335366408
 10
55.4638004317
 20
326.8831388794
 10
54.3056476763
 20
327.8873475594
 10
53.2248471587
 20
328.9432203342
 10
52.2249251403
 20
330.0466946945
 10
51.3098854844
 20
331.1940851279
 10
50.4823508666
 20
332.3813182961
 10
49.745567447
 20
333.6046046185
 10
49.1016686342
 20
334.8594073092
 10
48.5534431314
 20
336.1413284791
 10
48.1021712138
 20
337.446161857
 10
47.7497900055
 20
338.7703675134
 10
47.4971176626
 20
340.1075485346
 10
47.345801032
 20
341.4491809189
 10
47.2952911649
 20
342.7981060002
  0
LWPOLYLINE
  5
33D
100
AcDbEntity
  8
X48002257_BL4
100
AcDbPolyline
 62
9
  6
CONTINUOUS
 90
19
 70
0
 10
62.0142712149
 20
322.0961542654
 10
60.509580454
 20
322.8078438516
 10
59.0608836039
 20
323.5871908721
 10
57.6731616198
 20
324.4315157512
 10
56.3511857686
 20
325.3379155328
 10
55.0995012232
 20
326.3032738803
 10
53.9224117258
 20
327.3242715504
 10
52.8239644689
 20
328.3973980065
 10
51.8079361552
 20
329.5189635407
 10
50.8778202377
 20
330.6851117116
 10
50.036814267
 20
331.8918334527
 10
49.2878095459
 20
333.1349802566
 10
48.633381537
 20
334.410277703
 10
48.0757803777
 20
335.7133410089
 10
47.6169233104
 20
337.0396898282
 10
47.258388044
 20
338.3847637
 10
47.001407264
 20
339.7439380437
 10
46.8468645197
 20
341.1125397455
 10
46.7952911649
 20
342.485863236
  0
LWPOLYLINE
  5
33E
100
AcDbEntity
  8
X48002257_BL4
100
AcDbPolyline
 62
9
  6
CONTINUOUS
 90
11
 70
0
 10
136.5452911649
 20
230.331913743
 10
136.5391353353
 20
230.3601195053
 10
136.5208194233
 20
230.3876307483
 10
136.4907944274
 20
230.4137700538
 10
136.4497996624
 20
230.4378937853
 10
136.3988445552
 20
230.4594079366
 10
136.3391837901
 20
230.4777827576
 10
136.2722864135
 20
230.4925657992
 10
136.1997996609
 20
230.503393054
 10
136.1235083966
 20
230.509997919
 10
136.0452911649
 20
230.5122177606
  0
LWPOLYLINE
  5
33F
100
AcDbEntity
  8
X48002257_BL4
100
AcDbPolyline
 62
7
  6
CONTINUOUS
 90
25
 70
0
 10
136.5452911649
 20
253.057197891
 10
136.4477608927
 20
257.0641324354
 10
136.1553025098
 20
261.065346959
 10
135.6683296751
 20
265.0550161269
 10
134.9875364931
 20
269.0273605204
 10
134.1139026733
 20
272.9766007111
 10
133.0486674304
 20
276.8970701341
 10
131.7933290144
 20
280.783161256
 10
130.3497025288
 20
284.6291717019
 10
128.7198728404
 20
288.4294937598
 10
126.9061915702
 20
292.1786042456
 10
124.9112905941
 20
295.8710344243
 10
122.7380216521
 20
299.5014776806
 10
120.3894673297
 20
303.0647406786
 10
117.8690769271
 20
306.5555534003
 10
115.1805467719
 20
309.9687848717
 10
112.327770067
 20
313.2994907323
 10
109.3149101731
 20
316.5428128533
 10
106.1462925935
 20
319.6940965122
 10
102.8264402714
 20
322.7488332999
 10
99.360246349
 20
325.7025139163
 10
95.7528123919
 20
328.5508009134
 10
92.0093585774
 20
331.2895877615
 10
88.1353348591
 20
333.9149019683
 10
84.1363396162
 20
336.4229636996
  0
LINE
  5
340
100
AcDbEntity
  8
X48002257_BL4
100
AcDbLine
 62
9
  6
CONTINUOUS
 10
136.0452911649
 20
253.3694406553
 11
136.0452911649
 21
216.4571367569
  0
LINE
  5
341
100
AcDbEntity
  8
X48002257_BL4
100
AcDbLine
 62
7
  6
CONTINUOUS
 10
136.5452911649
 20
253.057197891
 11
136.5452911649
 21
216.9571598828
  0
LWPOLYLINE
  5
342
100
AcDbEntity
  8
X48002257_BL4
100
AcDbPolyline
 62
9
  6
CONTINUOUS
 90
11
 70
0
 10
136.5452911649
 20
243.2942431591
 10
136.5391353352
 20
243.3430886889
 10
136.5208194231
 20
243.3907314796
 10
136.490794427
 20
243.4359984076
 10
136.4497996621
 20
243.477774851
 10
136.3988445555
 20
243.5150321351
 10
136.339183791
 20
243.5468528617
 10
136.2722864148
 20
243.5724534992
 10
136.1997996621
 20
243.5912036747
 10
136.1235083974
 20
243.6026416968
 10
136.0452911649
 20
243.6064859234
  0
LWPOLYLINE
  5
343
100
AcDbEntity
  8
X48002257_BL4
100
AcDbPolyline
 62
9
  6
CONTINUOUS
 90
11
 70
0
 10
136.5452911649
 20
253.057197891
 10
136.5391353352
 20
253.1060434208
 10
136.5208194231
 20
253.1536862116
 10
136.490794427
 20
253.1989531396
 10
136.4497996621
 20
253.240729583
 10
136.3988445555
 20
253.277986867
 10
136.339183791
 20
253.3098075937
 10
136.2722864148
 20
253.3354082311
 10
136.1997996621
 20
253.3541584067
 10
136.1235083974
 20
253.3655964288
 10
136.0452911649
 20
253.3694406553
  0
LWPOLYLINE
  5
344
100
AcDbEntity
  8
X48002257_BL4
100
AcDbPolyline
 62
9
  6
CONTINUOUS
 90
25
 70
0
 10
83.8781249252
 20
336.3070415735
 10
87.8581142717
 20
333.8110194763
 10
91.7097234355
 20
331.2012979354
 10
95.4360621765
 20
328.4755713619
 10
99.0278012154
 20
325.6407565225
 10
102.4779844046
 20
322.7016658982
 10
105.7826021095
 20
319.6623067574
 10
108.9367932938
 20
316.5266609656
 10
111.9361560158
 20
313.2996172128
 10
114.7759042053
 20
309.9857479116
 10
117.4523292122
 20
306.5899837597
 10
119.9612197091
 20
303.117044897
 10
122.299297658
 20
299.57213541
 10
124.4627986347
 20
295.9602413219
 10
126.4489704712
 20
292.2867369624
 10
128.2545427533
 20
288.5568292366
 10
129.8773057956
 20
284.7760064425
 10
131.3145293107
 20
280.9495748385
 10
132.5645046907
 20
277.0832874493
 10
133.624968044
 20
273.1828531377
 10
134.4948549355
 20
269.2537106487
 10
135.1725548623
 20
265.3007877406
 10
135.657442137
 20
261.3313262351
 10
135.9482089227
 20
257.355321091
 10
136.0452911649
 20
253.3694406553
  0
LWPOLYLINE
  5
345
100
AcDbEntity
  8
X48002257_BL4
100
AcDbPolyline
 62
7
  6
CONTINUOUS
 90
3
 70
0
 10
48.0229520305
 20
323.2333290213
 10
48.0261828234
 20
323.2330148343
 10
48.0360212179
 20
323.2336734445
  0
LWPOLYLINE
  5
346
100
AcDbEntity
  8
X48002257_BL4
100
AcDbPolyline
 62
9
  6
CONTINUOUS
 90
8
 70
0
 10
84.1363396162
 20
336.4229636996
 10
84.1253438082
 20
336.4283962837
 10
84.094202152
 20
336.4341532935
 10
84.0577399574
 20
336.4290919377
 10
84.0168550446
 20
336.4133368437
 10
83.9725541358
 20
336.3872759543
 10
83.9259280665
 20
336.3515509751
 10
83.8781249252
 20
336.3070415735
  0
LWPOLYLINE
  5
347
100
AcDbEntity
  8
X48002257_BL4
100
AcDbPolyline
 62
9
  6
CONTINUOUS
 90
7
 70
0
 10
80.1997996621
 20
353.6039042278
 10
80.1488445555
 20
353.6411615118
 10
80.089183791
 20
353.6729822385
 10
80.0222864147
 20
353.6985828759
 10
79.949799662
 20
353.7173330514
 10
79.8735083974
 20
353.7287710735
 10
79.7952911649
 20
353.7326153001
  0
LINE
  5
348
100
AcDbEntity
  8
X48002257_BL4
100
AcDbLine
 62
9
  6
CONTINUOUS
 10
47.2952911649
 20
353.7326153001
 11
79.7952911649
 21
353.7326153001
  0
LINE
  5
349
100
AcDbEntity
  8
X48002257_BL4
100
AcDbLine
 62
7
  6
CONTINUOUS
 10
47.2952911649
 20
354.1081297715
 11
79.7952911649
 21
354.1081297715
  0
LINE
  5
34A
100
AcDbEntity
  8
X48002257_BL4
100
AcDbLine
 62
7
  6
CONTINUOUS
 10
472.3159635691
 20
353.8891661501
 11
471.9094992176
 21
353.5641734707
  0
LINE
  5
34B
100
AcDbEntity
  8
X48002257_BL4
100
AcDbLine
 62
9
  6
CONTINUOUS
 10
472.6282063333
 20
353.4986479608
 11
472.2217419819
 21
353.1736552814
  0
LINE
  5
34C
100
AcDbEntity
  8
X48002257_BL4
100
AcDbLine
 62
9
  6
CONTINUOUS
 10
473.3309672869
 20
353.4203725358
 11
473.7214854725
 21
353.7326153047
  0
LINE
  5
34D
100
AcDbEntity
  8
X48002257_BL4
100
AcDbLine
 62
9
  6
CONTINUOUS
 10
472.1310473861
 20
352.4870940482
 11
471.7281100261
 21
352.1910510042
  0
LINE
  5
34E
100
AcDbEntity
  8
X48002257_BL4
100
AcDbLine
 62
9
  6
CONTINUOUS
 10
476.7900488957
 20
338.2612148854
 11
482.4642828759
 21
342.7981060002
  0
LINE
  5
34F
100
AcDbEntity
  8
X48002257_BL4
100
AcDbLine
 62
9
  6
CONTINUOUS
 10
482.6386794963
 20
309.5127708651
 11
498.3765625242
 21
322.0961542654
  0
LINE
  5
350
100
AcDbEntity
  8
X48002257_BL4
100
AcDbLine
 62
7
  6
CONTINUOUS
 10
470.9375477256
 20
323.3465735527
 11
529.3435139367
 21
250.298949148
  0
LINE
  5
351
100
AcDbEntity
  8
X48002257_BL4
100
AcDbLine
 62
9
  6
CONTINUOUS
 10
471.6679931944
 20
323.2336734445
 11
529.7737338914
 21
250.5615374019
  0
LINE
  5
352
100
AcDbEntity
  8
X48002257_BL4
100
AcDbLine
 62
7
  6
CONTINUOUS
 10
534.9949788115
 20
241.6826747197
 11
535.0122190929
 21
241.6496137187
  0
LINE
  5
353
100
AcDbEntity
  8
X48002257_BL4
100
AcDbLine
 62
9
  6
CONTINUOUS
 10
472.2217419819
 20
353.1736552814
 11
471.9094992161
 21
353.5641734695
  0
LINE
  5
354
100
AcDbEntity
  8
X48002257_BL4
100
AcDbLine
 62
9
  6
CONTINUOUS
 10
472.6282063333
 20
353.4986479608
 11
472.3159635691
 21
353.8891661501
  0
LINE
  5
355
100
AcDbEntity
  8
X48002257_BL4
100
AcDbLine
 62
9
  6
CONTINUOUS
 10
561.3834268125
 20
243.2942431591
 11
473.3309672869
 21
353.4203725358
  0
LINE
  5
356
100
AcDbEntity
  8
X48002257_BL4
100
AcDbLine
 62
7
  6
CONTINUOUS
 10
561.7739450017
 20
243.6064859233
 11
473.7214854762
 21
353.7326153001
  0
LINE
  5
357
100
AcDbEntity
  8
X48002257_BL4
100
AcDbLine
 62
9
  6
CONTINUOUS
 10
476.7900488957
 20
338.2612148854
 11
476.2900490042
 21
338.2615443241
  0
LINE
  5
358
100
AcDbEntity
  8
X48002257_BL4
100
AcDbLine
 62
9
  6
CONTINUOUS
 10
536.6374297228
 20
239.5127073009
 11
553.9678758949
 21
253.3694406553
  0
LINE
  5
359
100
AcDbEntity
  8
X48002257_BL4
100
AcDbLine
 62
9
  6
CONTINUOUS
 10
536.6374297228
 20
239.5127073009
 11
536.1847187624
 21
239.3004508845
  0
LINE
  5
35A
100
AcDbEntity
  8
X48002257_BL4
100
AcDbLine
 62
9
  6
CONTINUOUS
 10
536.8696293076
 20
239.0109740016
 11
536.414826459
 21
238.803237705
  0
LINE
  5
35B
100
AcDbEntity
  8
X48002257_BL4
100
AcDbLine
 62
9
  6
CONTINUOUS
 10
561.3834268125
 20
243.2942431591
 11
561.7739450017
 21
243.6064859233
  0
LINE
  5
35C
100
AcDbEntity
  8
X48002257_BL4
100
AcDbLine
 62
9
  6
CONTINUOUS
 10
540.8499875297
 20
226.8805063653
 11
541.7282658893
 21
227.5817064213
  0
LINE
  5
35D
100
AcDbEntity
  8
X48002257_BL4
100
AcDbLine
 62
9
  6
CONTINUOUS
 10
554.1904493402
 20
218.6232074137
 11
553.9119486988
 21
218.2079515976
  0
LINE
  5
35E
100
AcDbEntity
  8
X48002257_BL4
100
AcDbLine
 62
9
  6
CONTINUOUS
 10
568.8343845012
 20
230.331913743
 11
569.3007432271
 21
230.5122177606
  0
ARC
  5
35F
100
AcDbEntity
  8
X48002257_BL4
100
AcDbCircle
 62
7
  6
CONTINUOUS
 10
114.0452911649
 20
16.4158335254
 40
0.5
100
AcDbArc
 50
180.0
 51
270.0
  0
ARC
  5
360
100
AcDbEntity
  8
X48002257_BL4
100
AcDbCircle
 62
7
  6
CONTINUOUS
 10
136.0452911649
 20
16.4158335254
 40
0.5
100
AcDbArc
 50
270.0
 51
360.0
  0
ARC
  5
361
100
AcDbEntity
  8
X48002257_BL4
100
AcDbCircle
 62
7
  6
CONTINUOUS
 10
47.2952911649
 20
353.6081297715
 40
0.5
100
AcDbArc
 50
90.0
 51
180.0
  0
ARC
  5
362
100
AcDbEntity
  8
X48002257_BL4
100
AcDbCircle
 62
7
  6
CONTINUOUS
 10
114.0452911649
 20
216.9571367569
 40
0.5
100
AcDbArc
 50
180.0
 51
270.0
  0
ARC
  5
363
100
AcDbEntity
  8
X48002257_BL4
100
AcDbCircle
 62
7
  6
CONTINUOUS
 10
79.7952911649
 20
353.6081297715
 40
0.5
100
AcDbArc
 50
0.0
 51
90.0
  0
ARC
  5
364
100
AcDbEntity
  8
X48002257_BL4
100
AcDbCircle
 62
7
  6
CONTINUOUS
 10
136.0452911649
 20
216.9571367569
 40
0.5
100
AcDbArc
 50
270.0
 51
360.0
  0
ARC
  5
365
100
AcDbEntity
  8
X48002257_BL4
100
AcDbCircle
 62
7
  6
CONTINUOUS
 10
442.747317474
 20
198.4719350089
 40
100.0
100
AcDbArc
 50
20.7573176336
 51
38.6444365725
  0
ARC
  5
366
100
AcDbEntity
  8
X48002257_BL4
100
AcDbCircle
 62
9
  6
CONTINUOUS
 10
474.2343166681
 20
211.0828863465
 40
67.1778595933
100
AcDbArc
 50
23.7344524095
 51
26.6660234274
  0
ARC
  5
367
100
AcDbEntity
  8
X48002257_BL4
100
AcDbCircle
 62
9
  6
CONTINUOUS
 10
486.386513116
 20
215.9522450777
 40
55.5
100
AcDbArc
 50
24.5490814532
 51
25.1198312183
  0
ARC
  5
368
100
AcDbEntity
  8
X48002257_BL4
100
AcDbCircle
 62
7
  6
CONTINUOUS
 10
486.386513116
 20
215.9522450777
 40
55.0
100
AcDbArc
 50
24.5490814532
 51
38.6444365725
  0
ARC
  5
369
100
AcDbEntity
  8
X48002257_BL4
100
AcDbCircle
 62
9
  6
CONTINUOUS
 10
486.8396491959
 20
216.2339227842
 40
54.970180589
100
AcDbArc
 50
25.0545045479
 51
38.6438124723
  0
ARC
  5
36A
100
AcDbEntity
  8
X48002257_BL4
100
AcDbCircle
 62
7
  6
CONTINUOUS
 10
503.937249122
 20
225.4661159457
 40
35.0365428221
100
AcDbArc
 50
27.57096317
 51
27.7423782359
  0
ARC
  5
36B
100
AcDbEntity
  8
X48002257_BL4
100
AcDbCircle
 62
7
  6
CONTINUOUS
 10
504.4957898797
 20
225.7592356939
 40
34.4057602684
100
AcDbArc
 50
27.7433331562
 51
28.4370812273
  0
ARC
  5
36C
100
AcDbEntity
  8
X48002257_BL4
100
AcDbCircle
 62
9
  6
CONTINUOUS
 10
452.7900541051
 20
338.2770279363
 40
24.0
100
AcDbArc
 50
359.962249119
 51
36.3051834983
  0
ARC
  5
36D
100
AcDbEntity
  8
X48002257_BL4
100
AcDbCircle
 62
7
  6
CONTINUOUS
 10
452.7900541051
 20
338.2770279363
 40
23.5
100
AcDbArc
 50
320.5549060196
 51
36.3051834983
  0
ARC
  5
36E
100
AcDbEntity
  8
X48002257_BL4
100
AcDbCircle
 62
7
  6
CONTINUOUS
 10
472.9404490976
 20
353.1081297715
 40
1.0
100
AcDbArc
 50
38.6444365725
 51
128.6444365725
  0
ARC
  5
36F
100
AcDbEntity
  8
X48002257_BL4
100
AcDbCircle
 62
7
  6
CONTINUOUS
 10
472.5339847462
 20
352.7831370922
 40
1.0
100
AcDbArc
 50
157.8387161406
 51
216.3051834983
  0
ARC
  5
370
100
AcDbEntity
  8
X48002257_BL4
100
AcDbCircle
 62
9
  6
CONTINUOUS
 10
472.5339847462
 20
352.7831370922
 40
0.5
100
AcDbArc
 50
128.6444365725
 51
216.3051834983
  0
ARC
  5
371
100
AcDbEntity
  8
X48002257_BL4
100
AcDbCircle
 62
9
  6
CONTINUOUS
 10
472.9404490976
 20
353.1081297715
 40
0.5
100
AcDbArc
 50
38.6444365725
 51
128.6444365725
  0
ARC
  5
372
100
AcDbEntity
  8
X48002257_BL4
100
AcDbCircle
 62
7
  6
CONTINUOUS
 10
523.0169458497
 20
212.6179356267
 40
49.6225274725
100
AcDbArc
 50
21.1375422371
 51
38.6444365725
  0
ARC
  5
373
100
AcDbEntity
  8
X48002257_BL4
100
AcDbCircle
 62
9
  6
CONTINUOUS
 10
523.0169458497
 20
212.6179356267
 40
49.1225274725
100
AcDbArc
 50
21.1375422371
 51
38.6444365725
  0
ARC
  5
374
100
AcDbEntity
  8
X48002257_BL4
100
AcDbCircle
 62
9
  6
CONTINUOUS
 10
542.4737955409
 20
245.1626692946
 40
11.0869402978
100
AcDbArc
 50
169.0661341923
 51
182.1324540708
  0
ARC
  5
375
100
AcDbEntity
  8
X48002257_BL4
100
AcDbCircle
 62
7
  6
CONTINUOUS
 10
542.3958258552
 20
245.0570697345
 40
10.0
100
AcDbArc
 50
174.5920210611
 51
205.055825615
  0
ARC
  5
376
100
AcDbEntity
  8
X48002257_BL4
100
AcDbCircle
 62
9
  6
CONTINUOUS
 10
543.8395144091
 20
246.2988686639
 40
9.9768114078
100
AcDbArc
 50
207.5613608708
 51
207.7753600756
  0
ARC
  5
377
100
AcDbEntity
  8
X48002257_BL4
100
AcDbCircle
 62
7
  6
CONTINUOUS
 10
559.6657719497
 20
226.7871367569
 40
10.33
100
AcDbArc
 50
236.151330908
 51
21.1375422371
  0
ARC
  5
378
100
AcDbEntity
  8
X48002257_BL4
100
AcDbCircle
 62
9
  6
CONTINUOUS
 10
559.6657719497
 20
226.7871367569
 40
9.83
100
AcDbArc
 50
236.151330908
 51
21.1375422371
  0
ARC
  5
379
100
AcDbEntity
  8
X48002257_BL4
100
AcDbCircle
 62
7
  6
CONTINUOUS
 10
581.5517601548
 20
259.4200378762
 40
49.6225274725
100
AcDbArc
 50
204.5490814532
 51
236.151330908
  0
ARC
  5
37A
100
AcDbEntity
  8
X48002257_BL4
100
AcDbCircle
 62
9
  6
CONTINUOUS
 10
581.5517601548
 20
259.4200378762
 40
49.1225274725
100
AcDbArc
 50
204.5490814532
 51
236.151330908
  0
ARC
  5
37B
100
AcDbEntity
  8
X48002257_BL4
100
AcDbCircle
 62
9
  6
CONTINUOUS
 10
564.9834649052
 20
246.1843059321
 40
29.7802080148
100
AcDbArc
 50
212.5375174502
 51
218.6417596986
  0
ARC
  5
37C
100
AcDbEntity
  8
X48002257_BL4
100
AcDbCircle
 62
9
  6
CONTINUOUS
 10
564.8845930862
 20
246.0775094135
 40
29.6363015854
100
AcDbArc
 50
218.5998561163
 51
225.5657817638
  0
ARC
  5
37D
100
AcDbEntity
  8
X48002257_BL4
100
AcDbCircle
 62
7
  6
CONTINUOUS
 10
561.7216058419
 20
243.5646376193
 40
27.2329875519
100
AcDbArc
 50
200.7573176336
 51
212.320046093
  0
ARC
  5
37E
100
AcDbEntity
  8
X48002257_BL4
100
AcDbCircle
 62
7
  6
CONTINUOUS
 10
561.7216058419
 20
243.5646376193
 40
27.2329875519
100
AcDbArc
 50
224.9691220486
 51
263.0140773423
  0
SPLINE
  5
37F
100
AcDbEntity
  8
X48002257_BL4
100
AcDbSpline
 62
2
  6
CONTINUOUS
 70
0
 71
3
 72
15
 73
11
 74
0
 42
0.0000001
 43
0.0000001
 44
0.0000000001
 40
0.0
 40
0.0
 40
0.0
 40
0.0
 40
0.125
 40
0.25
 40
0.375
 40
0.5
 40
0.625
 40
0.75
 40
0.875
 40
1.0
 40
1.0
 40
1.0
 40
1.0
 10
540.4516518671
 20
226.5580309939
 30
0.0
 10
540.3291210491
 20
226.7112787827
 30
0.0
 10
540.0872549789
 20
227.020656811
 30
0.0
 10
539.7474286791
 20
227.4751452418
 30
0.0
 10
539.4422952724
 20
227.901022986
 30
0.0
 10
539.1830421371
 20
228.2771597388
 30
0.0
 10
538.9738773198
 20
228.5909109962
 30
0.0
 10
538.8214503181
 20
228.8257389217
 30
0.0
 10
538.728415672
 20
228.9717405211
 30
0.0
 10
538.7076482766
 20
229.00464558
 30
0.0
 10
538.7076482766
 20
229.00464558
 30
0.0
  0
SPLINE
  5
380
100
AcDbEntity
  8
X48002257_BL4
100
AcDbSpline
 62
2
  6
CONTINUOUS
 70
0
 71
3
 72
15
 73
11
 74
0
 42
0.0000001
 43
0.0000001
 44
0.0000000001
 40
0.0
 40
0.0
 40
0.0
 40
0.0
 40
0.125
 40
0.25
 40
0.375
 40
0.5
 40
0.625
 40
0.75
 40
0.875
 40
1.0
 40
1.0
 40
1.0
 40
1.0
 10
542.4545614479
 20
224.3184273086
 30
0.0
 10
542.4545614479
 20
224.3184273086
 30
0.0
 10
542.4292027246
 20
224.3437558888
 30
0.0
 10
542.3020132457
 20
224.4718480628
 30
0.0
 10
542.0892779667
 20
224.690094045
 30
0.0
 10
541.8168952716
 20
224.9769484246
 30
0.0
 10
541.4960528636
 20
225.3260665832
 30
0.0
 10
541.1546685507
 20
225.7116012028
 30
0.0
 10
540.8013649989
 20
226.1267022445
 30
0.0
 10
540.5666655132
 20
226.4141848398
 30
0.0
 10
540.4516518671
 20
226.5580309939
 30
0.0
  0
SPLINE
  5
381
100
AcDbEntity
  8
X48002257_BL4
100
AcDbSpline
 62
9
  6
CONTINUOUS
 70
0
 71
3
 72
11
 73
7
 74
0
 42
0.0000001
 43
0.0000001
 44
0.0000000001
 40
0.0
 40
0.0
 40
0.0
 40
0.0
 40
0.2658261818
 40
0.5226200254
 40
0.766188707
 40
1.0
 40
1.0
 40
1.0
 40
1.0
 10
498.3765625242
 20
322.0961542654
 30
0.0
 10
498.4271241143
 20
322.1365812957
 30
0.0
 10
498.5138744281
 20
322.2337052547
 30
0.0
 10
498.5841910959
 20
322.4109207447
 30
0.0
 10
498.5829992192
 20
322.5946468334
 30
0.0
 10
498.5309256
 20
322.703753329
 30
0.0
 10
498.4953674162
 20
322.7482255125
 30
0.0
  0
SPLINE
  5
382
100
AcDbEntity
  8
X48002257_BL4
100
AcDbSpline
 62
9
  6
CONTINUOUS
 70
0
 71
3
 72
13
 73
9
 74
0
 42
0.0000001
 43
0.0000001
 44
0.0000000001
 40
0.0
 40
0.0
 40
0.0
 40
0.0
 40
0.3744999109
 40
0.6929155916
 40
0.8160456231
 40
0.9089540965
 40
0.9693091143
 40
1.0
 40
1.0
 40
1.0
 40
1.0
 10
529.7737338915
 20
250.5615374019
 30
0.0
 10
529.7238972399
 20
250.5216900036
 30
0.0
 10
529.6300243027
 20
250.4501410498
 30
0.0
 10
529.5147246403
 20
250.3717794283
 30
0.0
 10
529.4365261456
 20
250.3257574013
 30
0.0
 10
529.3932598659
 20
250.3052268543
 30
0.0
 10
529.3653635522
 20
250.294526935
 30
0.0
 10
529.3467794967
 20
250.2948649521
 30
0.0
 10
529.3435139367
 20
250.298949148
 30
0.0
  0
SPLINE
  5
383
100
AcDbEntity
  8
X48002257_BL4
100
AcDbSpline
 62
9
  6
CONTINUOUS
 70
0
 71
3
 72
11
 73
7
 74
0
 42
0.0000001
 43
0.0000001
 44
0.0000000001
 40
0.0
 40
0.0
 40
0.0
 40
0.0
 40
0.2658261818
 40
0.5226200254
 40
0.766188707
 40
1.0
 40
1.0
 40
1.0
 40
1.0
 10
482.6386794963
 20
309.5127708651
 30
0.0
 10
482.5881179062
 20
309.4723438349
 30
0.0
 10
482.4742861159
 20
309.4090903458
 30
0.0
 10
482.2859416794
 20
309.3794907361
 30
0.0
 10
482.106980636
 20
309.4210796913
 30
0.0
 10
482.0120061934
 20
309.4958844001
 30
0.0
 10
481.9764480097
 20
309.5403565837
 30
0.0
  0
SPLINE
  5
384
100
AcDbEntity
  8
X48002257_BL4
100
AcDbSpline
 62
7
  6
CONTINUOUS
 70
0
 71
3
 72
9
 73
5
 74
0
 42
0.0000001
 43
0.0000001
 44
0.0000000001
 40
0.0
 40
0.0
 40
0.0
 40
0.0
 40
0.412070134
 40
1.0
 40
1.0
 40
1.0
 40
1.0
 10
470.9497216366
 20
323.3313477917
 30
0.0
 10
470.9552682912
 20
323.324410659
 30
0.0
 10
470.9735601861
 20
323.311890113
 30
0.0
 10
470.9932943519
 20
323.3034047649
 30
0.0
 10
471.005173192
 20
323.2989904671
 30
0.0
  0
SPLINE
  5
385
100
AcDbEntity
  8
X48002257_BL4
100
AcDbSpline
 62
7
  6
CONTINUOUS
 70
0
 71
3
 72
9
 73
5
 74
0
 42
0.0000001
 43
0.0000001
 44
0.0000000001
 40
0.0
 40
0.0
 40
0.0
 40
0.0
 40
0.2186852316
 40
1.0
 40
1.0
 40
1.0
 40
1.0
 10
471.005173192
 20
323.2989904671
 30
0.0
 10
471.0121592752
 20
323.2963943675
 30
0.0
 10
471.0444883501
 20
323.2855562715
 30
0.0
 10
471.0777619487
 20
323.2777830802
 30
0.0
 10
471.1038608634
 20
323.2725041369
 30
0.0
  0
SPLINE
  5
386
100
AcDbEntity
  8
X48002257_BL4
100
AcDbSpline
 62
7
  6
CONTINUOUS
 70
0
 71
3
 72
9
 73
5
 74
0
 42
0.0000001
 43
0.0000001
 44
0.0000000001
 40
0.0
 40
0.0
 40
0.0
 40
0.0
 40
0.4769018776
 40
1.0
 40
1.0
 40
1.0
 40
1.0
 10
471.1038608634
 20
323.2725041369
 30
0.0
 10
471.1920805858
 20
323.2546602182
 30
0.0
 10
471.3804970505
 20
323.2353036446
 30
0.0
 10
471.5692955091
 20
323.231354652
 30
0.0
 10
471.6679931944
 20
323.2336734445
 30
0.0
  0
SPLINE
  5
387
100
AcDbEntity
  8
X48002257_BL4
100
AcDbSpline
 62
9
  6
CONTINUOUS
 70
0
 71
3
 72
9
 73
5
 74
0
 42
0.0000001
 43
0.0000001
 44
0.0000000001
 40
0.0
 40
0.0
 40
0.0
 40
0.0
 40
0.5016293674
 40
1.0
 40
1.0
 40
1.0
 40
1.0
 10
534.2669838051
 20
241.2315801376
 30
0.0
 10
533.9753236469
 20
241.7942061573
 30
0.0
 10
533.4955880539
 20
242.9716217647
 30
0.0
 10
533.2416220282
 20
244.2176815265
 30
0.0
 10
533.1745630453
 20
244.8437132522
 30
0.0
  0
SPLINE
  5
388
100
AcDbEntity
  8
X48002257_BL4
100
AcDbSpline
 62
9
  6
CONTINUOUS
 70
0
 71
3
 72
9
 73
5
 74
0
 42
0.0000001
 43
0.0000001
 44
0.0000000001
 40
0.0
 40
0.0
 40
0.0
 40
0.0
 40
0.5054989962
 40
1.0
 40
1.0
 40
1.0
 40
1.0
 10
552.2511054952
 20
218.9003358877
 30
0.0
 10
552.54917689
 20
218.8375760912
 30
0.0
 10
553.1292650513
 20
218.6603421046
 30
0.0
 10
553.6644735243
 20
218.3739271981
 30
0.0
 10
553.9119490529
 20
218.2079521256
 30
0.0
  0
SPLINE
  5
389
100
AcDbEntity
  8
X48002257_BL4
100
AcDbSpline
 62
9
  6
CONTINUOUS
 70
0
 71
3
 72
11
 73
7
 74
0
 42
0.0000001
 43
0.0000001
 44
0.0000000001
 40
0.0
 40
0.0
 40
0.0
 40
0.0
 40
0.2323017873
 40
0.4722577685
 40
0.726492282
 40
1.0
 40
1.0
 40
1.0
 40
1.0
 10
536.2563115423
 20
233.9129812951
 30
0.0
 10
536.4024156674
 20
233.5274953155
 30
0.0
 10
536.7850981336
 20
232.7736103982
 30
0.0
 10
537.5979742299
 20
231.7625005577
 30
0.0
 10
538.640267349
 20
230.8745041116
 30
0.0
 10
539.4459583505
 20
230.389047793
 30
0.0
 10
539.8775252424
 20
230.1669365646
 30
0.0
  0
SPLINE
  5
38A
100
AcDbEntity
  8
X48002257_BL4
100
AcDbSpline
 62
9
  6
CONTINUOUS
 70
0
 71
3
 72
14
 73
10
 74
0
 42
0.0000001
 43
0.0000001
 44
0.0000000001
 40
0.0
 40
0.0
 40
0.0
 40
0.0
 40
0.0574507576
 40
0.126330744
 40
0.2136166736
 40
0.3227427928
 40
0.4553599541
 40
0.6122919789
 40
1.0
 40
1.0
 40
1.0
 40
1.0
 10
535.7603220016
 20
235.1949657348
 30
0.0
 10
535.7701995834
 20
235.1699475812
 30
0.0
 10
535.806938673
 20
235.1205269595
 30
0.0
 10
535.8946647073
 20
235.0693966142
 30
0.0
 10
536.0142011814
 20
235.0333819791
 30
0.0
 10
536.1670550113
 20
235.0114258674
 30
0.0
 10
536.3537260235
 20
235.0032010818
 30
0.0
 10
536.6708720807
 20
235.0114706326
 30
0.0
 10
536.9248303793
 20
235.0384935527
 30
0.0
 10
537.1047964309
 20
235.0621822318
 30
0.0
  0
SPLINE
  5
38B
100
AcDbEntity
  8
X48002257_BL4
100
AcDbSpline
 62
9
  6
CONTINUOUS
 70
0
 71
3
 72
14
 73
10
 74
0
 42
0.0000001
 43
0.0000001
 44
0.0000000001
 40
0.0
 40
0.0
 40
0.0
 40
0.0
 40
0.0228692937
 40
0.0722452654
 40
0.1513416024
 40
0.2606955047
 40
0.4003769934
 40
0.5703214303
 40
1.0
 40
1.0
 40
1.0
 40
1.0
 10
534.6765110273
 20
237.8295689668
 30
0.0
 10
534.679817055
 20
237.8218470772
 30
0.0
 10
534.7121661379
 20
237.8163500745
 30
0.0
 10
534.7632333984
 20
237.8231852911
 30
0.0
 10
534.8511493957
 20
237.8403657985
 30
0.0
 10
534.9667397391
 20
237.8712465674
 30
0.0
 10
535.1146850888
 20
237.91489245
 30
0.0
 10
535.3731873024
 20
237.997545176
 30
0.0
 10
535.5815020694
 20
238.0693446557
 30
0.0
 10
535.7303531023
 20
238.121790273
 30
0.0
  0
SPLINE
  5
38C
100
AcDbEntity
  8
X48002257_BL4
100
AcDbSpline
 62
9
  6
CONTINUOUS
 70
0
 71
3
 72
14
 73
10
 74
0
 42
0.0000001
 43
0.0000001
 44
0.0000000001
 40
0.0
 40
0.0
 40
0.0
 40
0.0
 40
0.4308590892
 40
0.7402960208
 40
0.8490872833
 40
0.9273913447
 40
0.9553445804
 40
0.9761618091
 40
1.0
 40
1.0
 40
1.0
 40
1.0
 10
534.2669831347
 20
241.2315798082
 30
0.0
 10
534.1371418984
 20
241.161365575
 30
0.0
 10
533.9129565365
 20
241.0427033646
 30
0.0
 10
533.6521211257
 20
240.913830707
 30
0.0
 10
533.4950661671
 20
240.8478552361
 30
0.0
 10
533.4258858692
 20
240.8231739793
 30
0.0
 10
533.3827465637
 20
240.8136883636
 30
0.0
 10
533.359217933
 20
240.810661393
 30
0.0
 10
533.3403316591
 20
240.8146632638
 30
0.0
 10
533.3368696593
 20
240.8220600188
 30
0.0
  0
SPLINE
  5
38D
100
AcDbEntity
  8
X48002257_BL4
100
AcDbSpline
 62
9
  6
CONTINUOUS
 70
0
 71
3
 72
11
 73
7
 74
0
 42
0.0000001
 43
0.0000001
 44
0.0000000001
 40
0.0
 40
0.0
 40
0.0
 40
0.0
 40
0.2486921465
 40
0.4980632362
 40
0.7497250078
 40
1.0
 40
1.0
 40
1.0
 40
1.0
 10
547.0135267407
 20
223.7899179334
 30
0.0
 10
547.4403000339
 20
223.3761831591
 30
0.0
 10
548.2874608845
 20
222.5397585407
 30
0.0
 10
549.5526349423
 20
221.2709908888
 30
0.0
 10
550.8459475729
 20
220.024098203
 30
0.0
 10
551.7744767932
 20
219.2617891972
 30
0.0
 10
552.2511051204
 20
218.9003350629
 30
0.0
  0
SPLINE
  5
38E
100
AcDbEntity
  8
X48002257_BL4
100
AcDbSpline
 62
9
  6
CONTINUOUS
 70
0
 71
3
 72
11
 73
7
 74
0
 42
0.0000001
 43
0.0000001
 44
0.0000000001
 40
0.0
 40
0.0
 40
0.0
 40
0.0
 40
0.2369202711
 40
0.4873284505
 40
0.742533779
 40
1.0
 40
1.0
 40
1.0
 40
1.0
 10
552.2511051204
 20
218.9003350629
 30
0.0
 10
552.670512208
 20
218.582262909
 30
0.0
 10
553.5924452481
 20
218.0051302324
 30
0.0
 10
555.0966970527
 20
217.3184020067
 30
0.0
 10
556.7185281325
 20
216.8101037853
 30
0.0
 10
557.8419321901
 20
216.603341783
 30
0.0
 10
558.4097106941
 20
216.5337758088
 30
0.0
  0
SPLINE
  5
38F
100
AcDbEntity
  8
X48002257_BL4
100
AcDbSpline
 62
9
  6
CONTINUOUS
 70
0
 71
3
 72
11
 73
7
 74
0
 42
0.0000001
 43
0.0000001
 44
0.0000000001
 40
0.0
 40
0.0
 40
0.0
 40
0.0
 40
0.3160285577
 40
0.5803331582
 40
0.8025312849
 40
1.0
 40
1.0
 40
1.0
 40
1.0
 10
537.1046542452
 20
235.0624548268
 30
0.0
 10
537.1996507744
 20
235.2239772143
 30
0.0
 10
537.3584960013
 20
235.5306422505
 30
0.0
 10
537.5053238359
 20
235.9864491932
 30
0.0
 10
537.5345707209
 20
236.3963928452
 30
0.0
 10
537.4655566239
 20
236.642513876
 30
0.0
 10
537.412057302
 20
236.7466644218
 30
0.0
  0
SPLINE
  5
390
100
AcDbEntity
  8
X48002257_BL4
100
AcDbSpline
 62
9
  6
CONTINUOUS
 70
0
 71
3
 72
9
 73
5
 74
0
 42
0.0000001
 43
0.0000001
 44
0.0000000001
 40
0.0
 40
0.0
 40
0.0
 40
0.0
 40
0.5018739843
 40
1.0
 40
1.0
 40
1.0
 40
1.0
 10
539.8775750288
 20
230.1669689837
 30
0.0
 10
539.3714837593
 20
230.960927043
 30
0.0
 10
538.405435532
 20
232.5702247362
 30
0.0
 10
537.5220148443
 20
234.2263228361
 30
0.0
 10
537.1046542452
 20
235.0624548268
 30
0.0
  0
SPLINE
  5
391
100
AcDbEntity
  8
X48002257_BL4
100
AcDbSpline
 62
9
  6
CONTINUOUS
 70
0
 71
3
 72
34
 73
30
 74
0
 42
0.0000001
 43
0.0000001
 44
0.0000000001
 40
0.0
 40
0.0
 40
0.0
 40
0.0
 40
0.0737418777
 40
0.112845705
 40
0.1528398897
 40
0.192857234
 40
0.212442791
 40
0.2313764208
 40
0.2492580805
 40
0.2654692947
 40
0.2727339502
 40
0.27930979
 40
0.2852395341
 40
0.2908167764
 40
0.2968511266
 40
0.3045152351
 40
0.3148588526
 40
0.328384783
 40
0.344984706
 40
0.364121625
 40
0.4072467954
 40
0.453822155
 40
0.50201723
 40
0.5510125005
 40
0.6004569125
 40
0.6999832038
 40
0.7998519213
 40
0.8998817082
 40
1.0
 40
1.0
 40
1.0
 40
1.0
 10
547.0136805383
 20
223.7897689185
 30
0.0
 10
547.1341900919
 20
223.672954544
 30
0.0
 10
547.3062474589
 20
223.4812397533
 30
0.0
 10
547.5189623005
 20
223.2059460539
 30
0.0
 10
547.6743133619
 20
222.9836290212
 30
0.0
 10
547.794667241
 20
222.7913726707
 30
0.0
 10
547.8817118773
 20
222.635209829
 30
0.0
 10
547.9391868903
 20
222.5203551519
 30
0.0
 10
547.9865689137
 20
222.4092865324
 30
0.0
 10
548.0150723399
 20
222.3192143639
 30
0.0
 10
548.0264435536
 20
222.2516147726
 30
0.0
 10
548.0274074597
 20
222.2064202912
 30
0.0
 10
548.0194348326
 20
222.1655254509
 30
0.0
 10
547.9981392356
 20
222.1303694082
 30
0.0
 10
547.9597330263
 20
222.1062389054
 30
0.0
 10
547.9046841931
 20
222.0976074297
 30
0.0
 10
547.8328504607
 20
222.1048175868
 30
0.0
 10
547.7435970855
 20
222.1285784204
 30
0.0
 10
547.6386869002
 20
222.1684968801
 30
0.0
 10
547.4758488422
 20
222.2442332408
 30
0.0
 10
547.2592530713
 20
222.3649604959
 30
0.0
 10
546.9934256773
 20
222.5319140789
 30
0.0
 10
546.7228916966
 20
222.7160764205
 30
0.0
 10
546.4523006552
 20
222.9114776122
 30
0.0
 10
546.093344161
 20
223.1838537082
 30
0.0
 10
545.652502732
 20
223.5395874023
 30
0.0
 10
545.134705908
 20
223.982772421
 30
0.0
 10
544.628720943
 20
224.4414123999
 30
0.0
 10
544.2993576348
 20
224.7561774849
 30
0.0
 10
544.1365172663
 20
224.9155690149
 30
0.0
  0
SPLINE
  5
392
100
AcDbEntity
  8
X48002257_BL4
100
AcDbSpline
 62
9
  6
CONTINUOUS
 70
0
 71
3
 72
13
 73
9
 74
0
 42
0.0000001
 43
0.0000001
 44
0.0000000001
 40
0.0
 40
0.0
 40
0.0
 40
0.0
 40
0.4062477185
 40
0.5687796688
 40
0.7042947748
 40
0.8132632905
 40
0.8967767245
 40
1.0
 40
1.0
 40
1.0
 40
1.0
 10
535.7303196838
 20
238.1218592197
 30
0.0
 10
535.8406245321
 20
238.1985256414
 30
0.0
 10
535.9932080912
 20
238.3086365063
 30
0.0
 10
536.1735635571
 20
238.4563626472
 30
0.0
 10
536.2729279758
 20
238.5466913702
 30
0.0
 10
536.34756634
 20
238.6271183363
 30
0.0
 10
536.4043073303
 20
238.7029787158
 30
0.0
 10
536.4290074921
 20
238.7721909091
 30
0.0
 10
536.4148265863
 20
238.8032377631
 30
0.0
  0
SPLINE
  5
393
100
AcDbEntity
  8
X48002257_BL4
100
AcDbSpline
 62
9
  6
CONTINUOUS
 70
0
 71
3
 72
9
 73
5
 74
0
 42
0.0000001
 43
0.0000001
 44
0.0000000001
 40
0.0
 40
0.0
 40
0.0
 40
0.0
 40
0.2497276642
 40
1.0
 40
1.0
 40
1.0
 40
1.0
 10
537.1046628438
 20
235.0624694728
 30
0.0
 10
536.9888245791
 20
235.316492523
 30
0.0
 10
536.5265354028
 20
236.3344079962
 30
0.0
 10
536.0699970872
 20
237.3549324082
 30
0.0
 10
535.7303196838
 20
238.1218592197
 30
0.0
  0
SPLINE
  5
394
100
AcDbEntity
  8
X48002257_BL4
100
AcDbSpline
 62
9
  6
CONTINUOUS
 70
0
 71
3
 72
9
 73
5
 74
0
 42
0.0000001
 43
0.0000001
 44
0.0000000001
 40
0.0
 40
0.0
 40
0.0
 40
0.0
 40
0.4927459401
 40
1.0
 40
1.0
 40
1.0
 40
1.0
 10
535.0122253681
 20
241.6496174842
 30
0.0
 10
535.0115735119
 20
241.65015406
 30
0.0
 10
535.0101875044
 20
241.6511682335
 30
0.0
 10
535.0087008568
 20
241.6520270222
 30
0.0
 10
535.0079277523
 20
241.6524241792
 30
0.0
  0
SPLINE
  5
395
100
AcDbEntity
  8
X48002257_BL4
100
AcDbSpline
 62
9
  6
CONTINUOUS
 70
0
 71
3
 72
9
 73
5
 74
0
 42
0.0000001
 43
0.0000001
 44
0.0000000001
 40
0.0
 40
0.0
 40
0.0
 40
0.0
 40
0.3597240882
 40
1.0
 40
1.0
 40
1.0
 40
1.0
 10
535.0079277523
 20
241.6524241792
 30
0.0
 10
534.9956276463
 20
241.6587429532
 30
0.0
 10
534.9537908598
 20
241.6533177534
 30
0.0
 10
534.9191924137
 20
241.6396139748
 30
0.0
 10
534.8966385488
 20
241.6297589915
 30
0.0
  0
SPLINE
  5
396
100
AcDbEntity
  8
X48002257_BL4
100
AcDbSpline
 62
9
  6
CONTINUOUS
 70
0
 71
3
 72
10
 73
6
 74
0
 42
0.0000001
 43
0.0000001
 44
0.0000000001
 40
0.0
 40
0.0
 40
0.0
 40
0.0
 40
0.1622586604
 40
0.3829265317
 40
1.0
 40
1.0
 40
1.0
 40
1.0
 10
534.8966385488
 20
241.6297589915
 30
0.0
 10
534.859674861
 20
241.6136075899
 30
0.0
 10
534.7753501926
 20
241.5690203258
 30
0.0
 10
534.5630176967
 20
241.4396976332
 30
0.0
 10
534.391872433
 20
241.3206682117
 30
0.0
 10
534.2669831802
 20
241.2315806961
 30
0.0
  0
SPLINE
  5
397
100
AcDbEntity
  8
X48002257_BL4
100
AcDbSpline
 62
9
  6
CONTINUOUS
 70
0
 71
3
 72
11
 73
7
 74
0
 42
0.0000001
 43
0.0000001
 44
0.0000000001
 40
0.0
 40
0.0
 40
0.0
 40
0.0
 40
0.2506560873
 40
0.5005740628
 40
0.7501239228
 40
1.0
 40
1.0
 40
1.0
 40
1.0
 10
476.7900488957
 20
338.2612148854
 30
0.0
 10
476.8001740298
 20
336.9107814881
 30
0.0
 10
476.595141839
 20
334.206736162
 30
0.0
 10
475.6155934969
 20
330.2667303028
 30
0.0
 10
473.9903278962
 20
326.5507072243
 30
0.0
 10
472.5017216889
 20
324.2907148986
 30
0.0
 10
471.6679931944
 20
323.2336734445
 30
0.0
  0
ENDBLK
  5
398
100
AcDbEntity
  8
0
  6
BYBLOCK
 62
0
100
AcDbBlockEnd
  0
BLOCK
  5
399
100
AcDbEntity
  8
X48002254_BL5
100
AcDbBlockBegin
  2
X48002254_BL5
 70
64
 10
259.222579816
 20
254.0842795979
  3
X48002254_BL5
  1

  0
LINE
  5
39A
100
AcDbEntity
  8
X48002254_BL5
100
AcDbLine
 62
3
  6
CONTINUOUS
 10
46.3952911649
 20
153.2234929632
 11
46.3952911649
 21
110.2235659931
  0
LINE
  5
39B
100
AcDbEntity
  8
X48002254_BL5
100
AcDbLine
 62
3
  6
CONTINUOUS
 10
80.6952911649
 20
153.2234929632
 11
80.6952911649
 21
110.2235659931
  0
LINE
  5
39C
100
AcDbEntity
  8
X48002254_BL5
100
AcDbLine
 62
3
  6
CONTINUOUS
 10
46.3952911649
 20
110.2234929632
 11
46.7952911649
 21
110.2234929632
  0
LINE
  5
39D
100
AcDbEntity
  8
X48002254_BL5
100
AcDbLine
 62
3
  6
CONTINUOUS
 10
80.2952911649
 20
110.2234929632
 11
80.6952911649
 21
110.2234929632
  0
LINE
  5
39E
100
AcDbEntity
  8
X48002254_BL5
100
AcDbLine
 62
3
  6
CONTINUOUS
 10
46.3952911649
 20
113.6970900726
 11
80.6952911649
 21
113.6970900726
  0
LINE
  5
39F
100
AcDbEntity
  8
X48002254_BL5
100
AcDbLine
 62
9
  6
CONTINUOUS
 10
46.3952911649
 20
114.2234900756
 11
80.6952911649
 21
114.2234900756
  0
LINE
  5
3A0
100
AcDbEntity
  8
X48002254_BL5
100
AcDbLine
 62
9
  6
CONTINUOUS
 10
46.3952911649
 20
145.0242826083
 11
80.6952911649
 21
145.0242826083
  0
LINE
  5
3A1
100
AcDbEntity
  8
X48002254_BL5
100
AcDbLine
 62
9
  6
CONTINUOUS
 10
46.3952911649
 20
147.3224159377
 11
80.6952911649
 21
147.3224159377
  0
LINE
  5
3A2
100
AcDbEntity
  8
X48002254_BL5
100
AcDbLine
 62
3
  6
CONTINUOUS
 10
46.3952911649
 20
153.2234929632
 11
80.6952911649
 21
153.2234929632
  0
LINE
  5
3A3
100
AcDbEntity
  8
X48002254_BL5
100
AcDbLine
 62
3
  6
CONTINUOUS
 10
46.3952911649
 20
185.9202045554
 11
80.6952911649
 21
185.9202045554
  0
LINE
  5
3A4
100
AcDbEntity
  8
X48002254_BL5
100
AcDbLine
 62
9
  6
CONTINUOUS
 10
46.3952911649
 20
189.4202045554
 11
80.6952911649
 21
189.4202045554
  0
LINE
  5
3A5
100
AcDbEntity
  8
X48002254_BL5
100
AcDbLine
 62
3
  6
CONTINUOUS
 10
46.3952911649
 20
393.9202045554
 11
46.3952911649
 21
185.9202045554
  0
LINE
  5
3A6
100
AcDbEntity
  8
X48002254_BL5
100
AcDbLine
 62
7
  6
CENTER
 10
63.5452911649
 20
397.9450662327
 11
63.5452911649
 21
182.3397671423
  0
LINE
  5
3A7
100
AcDbEntity
  8
X48002254_BL5
100
AcDbLine
 62
3
  6
CONTINUOUS
 10
80.6952911649
 20
393.9202045554
 11
80.6952911649
 21
340.3503178314
  0
LINE
  5
3A8
100
AcDbEntity
  8
X48002254_BL5
100
AcDbLine
 62
3
  6
CONTINUOUS
 10
80.6952911649
 20
298.7851363403
 11
80.6952911649
 21
185.9202045554
  0
LINE
  5
3A9
100
AcDbEntity
  8
X48002254_BL5
100
AcDbLine
 62
9
  6
CONTINUOUS
 10
46.3952911649
 20
298.9652724383
 11
80.4462268226
 21
298.9652724383
  0
LINE
  5
3AA
100
AcDbEntity
  8
X48002254_BL5
100
AcDbLine
 62
9
  6
CONTINUOUS
 10
46.3952911649
 20
307.5663689033
 11
65.9750702345
 21
307.5663689033
  0
LINE
  5
3AB
100
AcDbEntity
  8
X48002254_BL5
100
AcDbLine
 62
9
  6
CONTINUOUS
 10
46.3952911649
 20
320.9084356032
 11
49.0721667483
 21
320.9084356032
  0
LINE
  5
3AC
100
AcDbEntity
  8
X48002254_BL5
100
AcDbLine
 62
9
  6
CONTINUOUS
 10
46.3952911649
 20
351.594484076
 11
46.7952911649
 21
351.594484076
  0
LINE
  5
3AD
100
AcDbEntity
  8
X48002254_BL5
100
AcDbLine
 62
9
  6
CONTINUOUS
 10
80.2952911649
 20
351.594484076
 11
80.6952911649
 21
351.594484076
  0
LINE
  5
3AE
100
AcDbEntity
  8
X48002254_BL5
100
AcDbLine
 62
9
  6
CONTINUOUS
 10
46.3952911649
 20
352.9695901023
 11
46.7952911649
 21
352.9695901023
  0
LINE
  5
3AF
100
AcDbEntity
  8
X48002254_BL5
100
AcDbLine
 62
9
  6
CONTINUOUS
 10
80.2952911649
 20
352.9695901023
 11
80.6952911649
 21
352.9695901023
  0
LINE
  5
3B0
100
AcDbEntity
  8
X48002254_BL5
100
AcDbLine
 62
9
  6
CONTINUOUS
 10
46.3952911649
 20
356.1416122288
 11
80.6952911649
 21
356.1416122288
  0
LINE
  5
3B1
100
AcDbEntity
  8
X48002254_BL5
100
AcDbLine
 62
9
  6
CONTINUOUS
 10
46.3952911649
 20
392.8485673844
 11
80.6952911649
 21
392.8485673844
  0
LINE
  5
3B2
100
AcDbEntity
  8
X48002254_BL5
100
AcDbLine
 62
3
  6
CONTINUOUS
 10
46.3952911649
 20
393.9202045554
 11
80.6952911649
 21
393.9202045554
  0
LINE
  5
3B3
100
AcDbEntity
  8
X48002254_BL5
100
AcDbLine
 62
9
  6
CONTINUOUS
 10
440.8873228668
 20
392.8485673844
 11
439.7382562021
 21
391.8843859699
  0
LINE
  5
3B4
100
AcDbEntity
  8
X48002254_BL5
100
AcDbLine
 62
3
  6
CONTINUOUS
 10
439.4881125119
 20
185.9202045554
 11
432.6881125119
 21
185.9202045554
  0
LINE
  5
3B5
100
AcDbEntity
  8
X48002254_BL5
100
AcDbLine
 62
7
  6
CONTINUOUS
 10
439.4881125119
 20
187.4202045554
 11
432.6881125119
 21
187.4202045554
  0
LINE
  5
3B6
100
AcDbEntity
  8
X48002254_BL5
100
AcDbLine
 62
9
  6
CONTINUOUS
 10
442.9881125119
 20
189.4202045554
 11
441.4881125119
 21
189.4202045554
  0
LINE
  5
3B7
100
AcDbEntity
  8
X48002254_BL5
100
AcDbLine
 62
7
  6
CONTINUOUS
 10
432.6881125119
 20
393.9202045554
 11
432.6881125119
 21
392.4202045554
  0
LINE
  5
3B8
100
AcDbEntity
  8
X48002254_BL5
100
AcDbLine
 62
7
  6
CONTINUOUS
 10
432.6881125119
 20
185.9202045554
 11
432.6881125119
 21
187.4202045554
  0
LINE
  5
3B9
100
AcDbEntity
  8
X48002254_BL5
100
AcDbLine
 62
9
  6
CONTINUOUS
 10
471.6881153995
 20
356.1416122288
 11
470.5390487349
 21
355.1774308142
  0
LINE
  5
3BA
100
AcDbEntity
  8
X48002254_BL5
100
AcDbLine
 62
9
  6
CONTINUOUS
 10
471.2560126468
 20
351.594484076
 11
470.0652289165
 21
350.6823250397
  0
LINE
  5
3BB
100
AcDbEntity
  8
X48002254_BL5
100
AcDbLine
 62
9
  6
CONTINUOUS
 10
438.5891895374
 20
393.9202045554
 11
438.5891895374
 21
392.4202045554
  0
LINE
  5
3BC
100
AcDbEntity
  8
X48002254_BL5
100
AcDbLine
 62
9
  6
CONTINUOUS
 10
439.4881125119
 20
185.9202045554
 11
439.4881125119
 21
187.4202045554
  0
LINE
  5
3BD
100
AcDbEntity
  8
X48002254_BL5
100
AcDbLine
 62
7
  6
CONTINUOUS
 10
441.4881125119
 20
298.9652724383
 11
441.4881125119
 21
189.4202045554
  0
LINE
  5
3BE
100
AcDbEntity
  8
X48002254_BL5
100
AcDbLine
 62
3
  6
CONTINUOUS
 10
442.9881125119
 20
298.9652724383
 11
442.9881125119
 21
189.4202045554
  0
LINE
  5
3BF
100
AcDbEntity
  8
X48002254_BL5
100
AcDbLine
 62
7
  6
CONTINUOUS
 10
465.6596412389
 20
322.1371636696
 11
446.6051952757
 21
308.7950969697
  0
LINE
  5
3C0
100
AcDbEntity
  8
X48002254_BL5
100
AcDbLine
 62
3
  6
CONTINUOUS
 10
466.5200058934
 20
320.9084356032
 11
447.4655599302
 21
307.5663689033
  0
LINE
  5
3C1
100
AcDbEntity
  8
X48002254_BL5
100
AcDbLine
 62
9
  6
CONTINUOUS
 10
447.4655599302
 20
307.5663689033
 11
446.6051952757
 21
308.7950969697
  0
LINE
  5
3C2
100
AcDbEntity
  8
X48002254_BL5
100
AcDbLine
 62
9
  6
CONTINUOUS
 10
466.5200058934
 20
320.9084356032
 11
465.6596412389
 21
322.1371636696
  0
LINE
  5
3C3
100
AcDbEntity
  8
X48002254_BL5
100
AcDbLine
 62
9
  6
CONTINUOUS
 10
442.9881125119
 20
298.9652724383
 11
441.4881125119
 21
298.9652724383
  0
LINE
  5
3C4
100
AcDbEntity
  8
X48002254_BL5
100
AcDbLine
 62
9
  6
CONTINUOUS
 10
471.4082213703
 20
352.9695901023
 11
470.4457507251
 21
354.1200901054
  0
LINE
  5
3C5
100
AcDbEntity
  8
X48002254_BL5
100
AcDbLine
 62
7
  6
CONTINUOUS
 10
439.7382562021
 20
391.8843859699
 11
470.5390487349
 21
355.1774308142
  0
LINE
  5
3C6
100
AcDbEntity
  8
X48002254_BL5
100
AcDbLine
 62
3
  6
CONTINUOUS
 10
440.8873228668
 20
392.8485673844
 11
471.6881153995
 21
356.1416122288
  0
LINE
  5
3C7
100
AcDbEntity
  8
X48002254_BL5
100
AcDbLine
 62
7
  6
CONTINUOUS
 10
432.6881125119
 20
392.4202045554
 11
438.5891895374
 21
392.4202045554
  0
LINE
  5
3C8
100
AcDbEntity
  8
X48002254_BL5
100
AcDbLine
 62
3
  6
CONTINUOUS
 10
432.6881125119
 20
393.9202045554
 11
438.5891895374
 21
393.9202045554
  0
ARC
  5
3C9
100
AcDbEntity
  8
X48002254_BL5
100
AcDbCircle
 62
3
  6
CONTINUOUS
 10
439.4881125119
 20
189.4202045554
 40
3.5
100
AcDbArc
 50
270.0
 51
360.0
  0
ARC
  5
3CA
100
AcDbEntity
  8
X48002254_BL5
100
AcDbCircle
 62
7
  6
CONTINUOUS
 10
439.4881125119
 20
189.4202045554
 40
2.0
100
AcDbArc
 50
270.0
 51
360.0
  0
ARC
  5
3CB
100
AcDbEntity
  8
X48002254_BL5
100
AcDbCircle
 62
3
  6
CONTINUOUS
 10
454.1881125119
 20
338.5202045554
 40
21.5
100
AcDbArc
 50
305.0
 51
37.4526818174
  0
ARC
  5
3CC
100
AcDbEntity
  8
X48002254_BL5
100
AcDbCircle
 62
7
  6
CONTINUOUS
 10
454.1881125119
 20
338.5202045554
 40
20.0
100
AcDbArc
 50
305.0
 51
37.4526818174
  0
ARC
  5
3CD
100
AcDbEntity
  8
X48002254_BL5
100
AcDbCircle
 62
7
  6
CONTINUOUS
 10
453.4881125119
 20
298.9652724383
 40
12.0
100
AcDbArc
 50
125.0
 51
180.0
  0
ARC
  5
3CE
100
AcDbEntity
  8
X48002254_BL5
100
AcDbCircle
 62
3
  6
CONTINUOUS
 10
453.4881125119
 20
298.9652724383
 40
10.5
100
AcDbArc
 50
125.0
 51
180.0
  0
ARC
  5
3CF
100
AcDbEntity
  8
X48002254_BL5
100
AcDbCircle
 62
3
  6
CONTINUOUS
 10
438.5891895374
 20
390.9202045554
 40
3.0
100
AcDbArc
 50
40.0
 51
90.0
  0
ARC
  5
3D0
100
AcDbEntity
  8
X48002254_BL5
100
AcDbCircle
 62
7
  6
CONTINUOUS
 10
438.5891895374
 20
390.9202045554
 40
1.5
100
AcDbArc
 50
40.0
 51
90.0
  0
ARC
  5
3D1
100
AcDbEntity
  8
X48002254_BL5
100
AcDbCircle
 62
7
  6
CONTINUOUS
 10
472.0498684671
 20
352.2025901002
 40
2.5
100
AcDbArc
 50
129.9147492899
 51
217.4526818174
  0
ARC
  5
3D2
100
AcDbEntity
  8
X48002254_BL5
100
AcDbCircle
 62
3
  6
CONTINUOUS
 10
469.9645154025
 20
354.695340107
 40
2.25
100
AcDbArc
 50
309.9147492899
 51
40.0
  0
ARC
  5
3D3
100
AcDbEntity
  8
X48002254_BL5
100
AcDbCircle
 62
3
  6
CONTINUOUS
 10
472.0498684671
 20
352.2025901002
 40
1.0
100
AcDbArc
 50
129.9147492899
 51
217.4526818174
  0
ARC
  5
3D4
100
AcDbEntity
  8
X48002254_BL5
100
AcDbCircle
 62
7
  6
CONTINUOUS
 10
469.9645154025
 20
354.695340107
 40
0.75
100
AcDbArc
 50
309.9147492899
 51
40.0
  0
ENDBLK
  5
3D5
100
AcDbEntity
  8
0
  6
BYBLOCK
 62
0
100
AcDbBlockEnd
  0
BLOCK
  5
3D6
100
AcDbEntity
  8
X48002028_BL6
100
AcDbBlockBegin
  2
X48002028_BL6
 70
64
 10
143.9368063662
 20
135.7363589957
  3
X48002028_BL6
  1

  0
LINE
  5
3D7
100
AcDbEntity
  8
X48002028_BL6
100
AcDbLine
 62
7
  6
CONTINUOUS
 10
149.5452911649
 20
19.7113798113
 11
136.5452911649
 21
19.7113798113
  0
LINE
  5
3D8
100
AcDbEntity
  8
X48002028_BL6
100
AcDbLine
 62
9
  6
CONTINUOUS
 10
136.5452911649
 20
20.2109824035
 11
149.5452911649
 21
20.2109824035
  0
LINE
  5
3D9
100
AcDbEntity
  8
X48002028_BL6
100
AcDbLine
 62
9
  6
CONTINUOUS
 10
136.5163786097
 20
37.1011983649
 11
149.5452911649
 21
37.1011983649
  0
LINE
  5
3DA
100
AcDbEntity
  8
X48002028_BL6
100
AcDbLine
 62
7
  6
CONTINUOUS
 10
149.5452911649
 20
47.5431251345
 11
136.3283215674
 21
47.5431251345
  0
LINE
  5
3DB
100
AcDbEntity
  8
X48002028_BL6
100
AcDbLine
 62
7
  6
CONTINUOUS
 10
151.5452911649
 20
27.6511260183
 11
151.5422475855
 21
27.8362521323
  0
LWPOLYLINE
  5
3DC
100
AcDbEntity
  8
X48002028_BL6
100
AcDbPolyline
 62
7
  6
CONTINUOUS
 90
5
 70
0
 10
151.5422475855
 20
27.8362521323
 10
151.5365662026
 20
28.2871426162
 10
151.5349239507
 20
28.5509174483
 10
151.5365703715
 20
28.8379672497
 10
151.5395118602
 20
29.1463873104
  0
LINE
  5
3DD
100
AcDbEntity
  8
X48002028_BL6
100
AcDbLine
 62
9
  6
CONTINUOUS
 10
149.5452911649
 20
47.5431251345
 11
149.5452911649
 21
19.7113798113
  0
LINE
  5
3DE
100
AcDbEntity
  8
X48002028_BL6
100
AcDbLine
 62
7
  6
CONTINUOUS
 10
151.5452911649
 20
45.5430591915
 11
151.5452911649
 21
29.8184047021
  0
LINE
  5
3DF
100
AcDbEntity
  8
X48002028_BL6
100
AcDbLine
 62
7
  6
CONTINUOUS
 10
151.5452911649
 20
29.5680965373
 11
151.5452911649
 21
27.6621425498
  0
LINE
  5
3E0
100
AcDbEntity
  8
X48002028_BL6
100
AcDbLine
 62
7
  6
CONTINUOUS
 10
151.5452911649
 20
27.6511260183
 11
151.5452911649
 21
21.7114457542
  0
LINE
  5
3E1
100
AcDbEntity
  8
X48002028_BL6
100
AcDbLine
 62
7
  6
CONTINUOUS
 10
151.5395118602
 20
29.1463873104
 11
151.5452911649
 21
29.8184047021
  0
LINE
  5
3E2
100
AcDbEntity
  8
X48002028_BL6
100
AcDbLine
 62
9
  6
CONTINUOUS
 10
151.5452911649
 20
22.0602727226
 11
151.5281809539
 21
21.8188923627
  0
LWPOLYLINE
  5
3E3
100
AcDbEntity
  8
X48002028_BL6
100
AcDbPolyline
 62
9
  6
CONTINUOUS
 90
13
 70
0
 10
151.5452911649
 20
38.2511008595
 10
151.5281808928
 20
38.1010084878
 10
151.4771428355
 20
37.9534842325
 10
151.3930502649
 20
37.8110522744
 10
151.2773420249
 20
37.6761496643
 10
151.1319979127
 20
37.5510846239
 10
150.9595048043
 20
37.437997052
 10
150.762814103
 20
37.3388219096
 10
150.5452912408
 20
37.2552561124
 10
150.310658094
 20
37.1887294956
 10
150.0629293019
 20
37.1403803494
 10
149.8063435745
 20
37.111035942
 10
149.5452911649
 20
37.1011983649
  0
LWPOLYLINE
  5
3E4
100
AcDbEntity
  8
X48002028_BL6
100
AcDbPolyline
 62
9
  6
CONTINUOUS
 90
12
 70
0
 10
151.5281809539
 20
21.8188923627
 10
151.4771430541
 20
21.5816419817
 10
151.3930506969
 20
21.3525809941
 10
151.2773426846
 20
21.1356286985
 10
151.1319987723
 20
20.9344972165
 10
150.9595058043
 20
20.7526279876
 10
150.7628151561
 20
20.5931328691
 10
150.5452922495
 20
20.4587409011
 10
150.3106589571
 20
20.351751598
 10
150.0629299328
 20
20.2739956078
 10
149.8063439159
 20
20.2268033815
 10
149.5452911649
 20
20.2109824037
  0
LINE
  5
3E5
100
AcDbEntity
  8
X48002028_BL6
100
AcDbLine
 62
7
  6
CONTINUOUS
 10
149.5452911649
 20
220.2766353228
 11
136.5452911649
 21
220.2766353228
  0
LINE
  5
3E6
100
AcDbEntity
  8
X48002028_BL6
100
AcDbLine
 62
9
  6
CONTINUOUS
 10
136.5452911649
 20
229.4315368305
 11
149.5452911649
 21
229.4315368305
  0
LINE
  5
3E7
100
AcDbEntity
  8
X48002028_BL6
100
AcDbLine
 62
9
  6
CONTINUOUS
 10
136.5452911649
 20
250.5559224318
 11
149.5452911649
 21
250.5559224318
  0
LINE
  5
3E8
100
AcDbEntity
  8
X48002028_BL6
100
AcDbLine
 62
7
  6
CONTINUOUS
 10
149.5452911649
 20
251.7613381801
 11
136.5452911649
 21
251.7613381801
  0
LWPOLYLINE
  5
3E9
100
AcDbEntity
  8
X48002028_BL6
100
AcDbPolyline
 62
9
  6
CONTINUOUS
 90
13
 70
0
 10
151.5452911649
 20
228.6698772505
 10
151.5281809539
 20
228.7692935796
 10
151.4771430541
 20
228.867008912
 10
151.3930506969
 20
228.9613513133
 10
151.2773426846
 20
229.0507065584
 10
151.1319987723
 20
229.1335457511
 10
150.9595058043
 20
229.20845148
 10
150.7628151561
 20
229.2741420773
 10
150.5452922495
 20
229.3294935446
 10
150.3106589571
 20
229.3735587902
 10
150.0629299328
 20
229.4055838327
 10
149.8063439159
 20
229.4250207047
 10
149.5452911649
 20
229.4315368309
  0
LWPOLYLINE
  5
3EA
100
AcDbEntity
  8
X48002028_BL6
100
AcDbPolyline
 62
9
  6
CONTINUOUS
 90
13
 70
0
 10
151.5452911649
 20
248.9195470919
 10
151.5281808928
 20
249.1331369023
 10
151.4771428355
 20
249.3430721397
 10
151.3930502649
 20
249.5457607545
 10
151.2773420249
 20
249.7377346875
 10
151.1319979127
 20
249.9157092105
 10
150.9595048043
 20
250.0766391282
 10
150.762814103
 20
250.2177708834
 10
150.5452912408
 20
250.3366896705
 10
150.310658094
 20
250.431360754
 10
150.0629293019
 20
250.5001642839
 10
149.8063435745
 20
250.5419230112
 10
149.5452911649
 20
250.5559224318
  0
LINE
  5
3EB
100
AcDbEntity
  8
X48002028_BL6
100
AcDbLine
 62
7
  6
CONTINUOUS
 10
151.5452911649
 20
238.575529847
 11
151.5365662026
 21
239.7248235961
  0
LWPOLYLINE
  5
3EC
100
AcDbEntity
  8
X48002028_BL6
100
AcDbPolyline
 62
7
  6
CONTINUOUS
 90
6
 70
0
 10
151.5365662026
 20
239.7248235961
 10
151.5349239507
 20
240.0786447073
 10
151.5365703715
 20
240.4136138177
 10
151.5395118602
 20
240.7276858707
 10
151.5422525881
 20
241.018772119
 10
151.5452911649
 20
241.2861186712
  0
LINE
  5
3ED
100
AcDbEntity
  8
X48002028_BL6
100
AcDbLine
 62
9
  6
CONTINUOUS
 10
149.5452911649
 20
251.7613381801
 11
149.5452911649
 21
220.2766353228
  0
LINE
  5
3EE
100
AcDbEntity
  8
X48002028_BL6
100
AcDbLine
 62
7
  6
CONTINUOUS
 10
151.5452911649
 20
249.7612502049
 11
151.5452911649
 21
241.2861186712
  0
LINE
  5
3EF
100
AcDbEntity
  8
X48002028_BL6
100
AcDbLine
 62
7
  6
CONTINUOUS
 10
151.5452911649
 20
241.0957232121
 11
151.5452911649
 21
238.601129971
  0
LINE
  5
3F0
100
AcDbEntity
  8
X48002028_BL6
100
AcDbLine
 62
7
  6
CONTINUOUS
 10
151.5452911649
 20
238.575529847
 11
151.5452911649
 21
222.2767232981
  0
ARC
  5
3F1
100
AcDbEntity
  8
X48002028_BL6
100
AcDbCircle
 62
7
  6
CONTINUOUS
 10
149.5452911649
 20
45.5431251345
 40
2.0
100
AcDbArc
 50
0.0
 51
90.0
  0
ARC
  5
3F2
100
AcDbEntity
  8
X48002028_BL6
100
AcDbCircle
 62
7
  6
CONTINUOUS
 10
149.5452911649
 20
21.7113798113
 40
2.0
100
AcDbArc
 50
270.0
 51
360.0
  0
ARC
  5
3F3
100
AcDbEntity
  8
X48002028_BL6
100
AcDbCircle
 62
7
  6
CONTINUOUS
 10
149.5452911649
 20
249.7613381801
 40
2.0
100
AcDbArc
 50
0.0
 51
90.0
  0
ARC
  5
3F4
100
AcDbEntity
  8
X48002028_BL6
100
AcDbCircle
 62
7
  6
CONTINUOUS
 10
149.5452911649
 20
222.2766353228
 40
2.0
100
AcDbArc
 50
270.0
 51
360.0
  0
ENDBLK
  5
3F5
100
AcDbEntity
  8
0
  6
BYBLOCK
 62
0
100
AcDbBlockEnd
  0
BLOCK
  5
3F6
100
AcDbEntity
  8
X48002258_BL7
100
AcDbBlockBegin
  2
X48002258_BL7
 70
64
 10
433.1021266916
 20
185.0119816485
  3
X48002258_BL7
  1

  0
LINE
  5
3F7
100
AcDbEntity
  8
X48002258_BL7
100
AcDbLine
 62
7
  6
CONTINUOUS
 10
319.403510156
 20
15.9158335254
 11
297.403510156
 21
15.9158335254
  0
LINE
  5
3F8
100
AcDbEntity
  8
X48002258_BL7
100
AcDbLine
 62
9
  6
CONTINUOUS
 10
319.403510156
 20
16.610862248
 11
297.403510156
 21
16.610862248
  0
LINE
  5
3F9
100
AcDbEntity
  8
X48002258_BL7
100
AcDbLine
 62
9
  6
CONTINUOUS
 10
319.403510156
 20
24.1376604734
 11
297.403510156
 21
24.1376604734
  0
LINE
  5
3FA
100
AcDbEntity
  8
X48002258_BL7
100
AcDbLine
 62
9
  6
CONTINUOUS
 10
297.068142196
 20
48.9396617761
 11
296.9166105116
 21
48.9408951988
  0
LWPOLYLINE
  5
3FB
100
AcDbEntity
  8
X48002258_BL7
100
AcDbPolyline
 62
7
  6
CONTINUOUS
 90
20
 70
0
 10
296.9831475506
 20
49.5124988893
 10
296.9953635804
 20
49.500538784
 10
297.0153694261
 20
49.4325688766
 10
297.0354408439
 20
49.3040061973
 10
297.0549307113
 20
49.1168539595
 10
297.0731510105
 20
48.8724836504
 10
297.0896241531
 20
48.5723788891
 10
297.1038784444
 20
48.2169763553
 10
297.1154642764
 20
47.8107882262
 10
297.123950961
 20
47.3578757321
 10
297.1291502052
 20
46.8600208589
 10
297.1308910133
 20
46.3181678052
 10
297.1291501735
 20
45.7388759966
 10
297.1239508912
 20
45.1283334955
 10
297.1154641739
 20
44.4885813266
 10
297.1038783324
 20
43.8211625116
 10
297.0896240272
 20
43.1337439542
 10
297.0731508289
 20
42.4336380386
 10
297.0549304925
 20
41.72344381
 10
297.035440669
 20
41.0057344089
  0
LWPOLYLINE
  5
3FC
100
AcDbEntity
  8
X48002258_BL7
100
AcDbPolyline
 62
9
  6
CONTINUOUS
 90
11
 70
0
 10
296.903510156
 20
24.5281786627
 10
296.9096659857
 20
24.4670881586
 10
296.9279818979
 20
24.4075019056
 10
296.9580068939
 20
24.3508871148
 10
296.9990016588
 20
24.2986378303
 10
297.0499567654
 20
24.2520406028
 10
297.1096175299
 20
24.2122428109
 10
297.1765149062
 20
24.1802244082
 10
297.2490016589
 20
24.156773794
 10
297.3252929235
 20
24.1424684003
 10
297.403510156
 20
24.1376604734
  0
LWPOLYLINE
  5
3FD
100
AcDbEntity
  8
X48002258_BL7
100
AcDbPolyline
 62
9
  6
CONTINUOUS
 90
11
 70
0
 10
296.903510156
 20
32.3342477695
 10
296.9096659857
 20
32.2731572655
 10
296.9279818979
 20
32.2135710124
 10
296.958006894
 20
32.1569562216
 10
296.9990016589
 20
32.1047069371
 10
297.0499567655
 20
32.0581097097
 10
297.1096175299
 20
32.0183119178
 10
297.1765149062
 20
31.9862935151
 10
297.2490016589
 20
31.9628429009
 10
297.3252929235
 20
31.9485375072
 10
297.403510156
 20
31.9437295803
  0
LWPOLYLINE
  5
3FE
100
AcDbEntity
  8
X48002258_BL7
100
AcDbPolyline
 62
9
  6
CONTINUOUS
 90
11
 70
0
 10
296.903510156
 20
17.0772209739
 10
296.9096659856
 20
17.0042663967
 10
296.9279818976
 20
16.933108203
 10
296.9580068936
 20
16.8654985436
 10
296.9990016586
 20
16.8031021929
 10
297.0499567657
 20
16.7474555561
 10
297.1096175308
 20
16.6999288386
 10
297.1765149074
 20
16.6616923059
 10
297.2490016601
 20
16.6336874684
 10
297.3252929243
 20
16.6166038977
 10
297.403510156
 20
16.610862248
  0
LINE
  5
3FF
100
AcDbEntity
  8
X48002258_BL7
100
AcDbLine
 62
7
  6
CONTINUOUS
 10
349.4377973803
 20
114.8771022566
 11
349.4481262656
 21
114.8820722477
  0
LWPOLYLINE
  5
400
100
AcDbEntity
  8
X48002258_BL7
100
AcDbPolyline
 62
7
  6
CONTINUOUS
 90
3
 70
0
 10
349.4481262656
 20
114.8820722477
 10
349.5034941636
 20
114.9049984904
 10
349.5657939388
 20
114.925013425
  0
LWPOLYLINE
  5
401
100
AcDbEntity
  8
X48002258_BL7
100
AcDbPolyline
 62
9
  6
CONTINUOUS
 90
6
 70
0
 10
371.3548573602
 20
87.3353555883
 10
371.3329808658
 20
87.3311113275
 10
371.3000204841
 20
87.3354467381
 10
371.2643062128
 20
87.3513873531
 10
371.226717456
 20
87.3785406616
 10
371.1881797735
 20
87.4162380589
  0
LINE
  5
402
100
AcDbEntity
  8
X48002258_BL7
100
AcDbLine
 62
7
  6
CONTINUOUS
 10
296.903510156
 20
50.8668817324
 11
296.903510156
 21
48.9408951988
  0
LINE
  5
403
100
AcDbEntity
  8
X48002258_BL7
100
AcDbLine
 62
7
  6
CONTINUOUS
 10
296.903510156
 20
34.6687058344
 11
296.903510156
 21
16.4159466171
  0
LINE
  5
404
100
AcDbEntity
  8
X48002258_BL7
100
AcDbLine
 62
7
  6
CONTINUOUS
 10
296.903510156
 20
47.5431251345
 11
296.903510156
 21
48.1979373251
  0
LINE
  5
405
100
AcDbEntity
  8
X48002258_BL7
100
AcDbLine
 62
7
  6
CONTINUOUS
 10
296.903510156
 20
50.8668817324
 11
296.9035102143
 21
50.8685106535
  0
LINE
  5
406
100
AcDbEntity
  8
X48002258_BL7
100
AcDbLine
 62
9
  6
CONTINUOUS
 10
297.403510156
 20
31.9437295803
 11
297.403510156
 21
15.9158335254
  0
LWPOLYLINE
  5
407
100
AcDbEntity
  8
X48002258_BL7
100
AcDbPolyline
 62
7
  6
CONTINUOUS
 90
7
 70
0
 10
296.903510156
 20
48.1979373251
 10
296.9038768275
 20
48.3267780796
 10
296.9049746475
 20
48.4536176555
 10
296.9068003601
 20
48.578457995
 10
296.9093505718
 20
48.7012890538
 10
296.9126217524
 20
48.8221007977
 10
296.9166105116
 20
48.9408951988
  0
LWPOLYLINE
  5
408
100
AcDbEntity
  8
X48002258_BL7
100
AcDbPolyline
 62
7
  6
CONTINUOUS
 90
7
 70
0
 10
296.9166105116
 20
36.2716968831
 10
296.9126217524
 20
36.0010315985
 10
296.9093505718
 20
35.7317615835
 10
296.9068003601
 20
35.4638846824
 10
296.9049746475
 20
35.1974114803
 10
296.9038768275
 20
34.932352573
 10
296.903510156
 20
34.6687058344
  0
LWPOLYLINE
  5
409
100
AcDbEntity
  8
X48002258_BL7
100
AcDbPolyline
 62
7
  6
CONTINUOUS
 90
7
 70
0
 10
297.035440669
 20
41.0057344089
 10
296.9953633916
 20
39.5770928533
 10
296.976012711
 20
38.8766098915
 10
296.9578817683
 20
38.1901862357
 10
296.9415949052
 20
37.5236740453
 10
296.927730303
 20
36.8850637737
 10
296.9166105116
 20
36.2716968831
  0
LWPOLYLINE
  5
40A
100
AcDbEntity
  8
X48002258_BL7
100
AcDbPolyline
 62
9
  6
CONTINUOUS
 90
9
 70
0
 10
296.9035102143
 20
50.8685106535
 10
296.9438904903
 20
52.2690373849
 10
297.0658869313
 20
53.7693675412
 10
297.2708394824
 20
55.3674282473
 10
297.5596829956
 20
57.0593716807
 10
297.932720792
 20
58.8404796786
 10
298.3914449016
 20
60.7127849882
 10
298.9377360638
 20
62.677402711
 10
299.572537043
 20
64.7319906786
  0
LWPOLYLINE
  5
40B
100
AcDbEntity
  8
X48002258_BL7
100
AcDbPolyline
 62
7
  6
CONTINUOUS
 90
6
 70
0
 10
296.9166105116
 20
48.9408951988
 10
296.9277303128
 20
49.1713280669
 10
296.941594947
 20
49.342715517
 10
296.9578818927
 20
49.4553781571
 10
296.9760129211
 20
49.5083393228
 10
296.9831475506
 20
49.5124988893
  0
LWPOLYLINE
  5
40C
100
AcDbEntity
  8
X48002258_BL7
100
AcDbPolyline
 62
9
  6
CONTINUOUS
 90
3
 70
0
 10
297.2933077967
 20
38.7281010789
 10
297.0009948522
 20
35.533490449
 10
296.903510156
 20
32.3342477695
  0
LWPOLYLINE
  5
40D
100
AcDbEntity
  8
X48002258_BL7
100
AcDbPolyline
 62
9
  6
CONTINUOUS
 90
3
 70
0
 10
299.5725370429
 20
64.7319906785
 10
299.5785710435
 20
64.7923204911
 10
299.5869218947
 20
64.8240956046
  0
LWPOLYLINE
  5
40E
100
AcDbEntity
  8
X48002258_BL7
100
AcDbPolyline
 62
7
  6
CONTINUOUS
 90
4
 70
0
 10
349.3994384591
 20
114.8561787671
 10
349.38123857
 20
114.8444902275
 10
349.363020423
 20
114.8316474199
 10
349.3448041513
 20
114.8176337369
  0
LINE
  5
40F
100
AcDbEntity
  8
X48002258_BL7
100
AcDbLine
 62
7
  6
CONTINUOUS
 10
349.3994384591
 20
114.8561787655
 11
349.4377973803
 21
114.8771022566
  0
LINE
  5
410
100
AcDbEntity
  8
X48002258_BL7
100
AcDbLine
 62
7
  6
CONTINUOUS
 10
345.5994263987
 20
112.9581142628
 11
349.3535084348
 21
114.8361031485
  0
LWPOLYLINE
  5
411
100
AcDbEntity
  8
X48002258_BL7
100
AcDbPolyline
 62
7
  6
CONTINUOUS
 90
9
 70
0
 10
299.5869253087
 20
64.8241038496
 10
298.9752571722
 20
62.8483657947
 10
298.4195438525
 20
60.8591289129
 10
297.9504580506
 20
58.952878895
 10
297.5682904148
 20
57.1337434163
 10
297.2731108227
 20
55.4057401019
 10
297.0644508561
 20
53.7722734313
 10
296.9416518643
 20
52.2364331559
 10
296.9035109373
 20
50.8685071124
  0
LWPOLYLINE
  5
412
100
AcDbEntity
  8
X48002258_BL7
100
AcDbPolyline
 62
7
  6
CONTINUOUS
 90
20
 70
0
 10
299.5869218947
 20
64.8240956046
 10
300.6255729035
 20
67.7627602247
 10
301.831182612
 20
70.6765357451
 10
303.2022919948
 20
73.5617297044
 10
304.7371596179
 20
76.4145457235
 10
306.4338358832
 20
79.2312735128
 10
308.2901611458
 20
82.008269151
 10
310.3037635586
 20
84.7419464079
 10
312.4720559001
 20
87.4287726719
 10
314.7922431454
 20
90.0652803058
 10
317.2613387425
 20
92.6480834727
 10
319.8761501718
 20
95.1738604941
 10
322.6333143081
 20
97.63938782
 10
325.5292683805
 20
100.0415098932
 10
328.560294916
 20
102.3771770474
 10
331.7224868396
 20
104.6434144804
 10
335.0117939389
 20
106.8373564907
 10
338.4239889583
 20
108.9562204727
 10
341.954710433
 20
110.997334493
 10
345.5994263987
 20
112.9581142628
  0
LWPOLYLINE
  5
413
100
AcDbEntity
  8
X48002258_BL7
100
AcDbPolyline
 62
9
  6
CONTINUOUS
 90
21
 70
0
 10
299.572537043
 20
64.7319906786
 10
300.6069547641
 20
67.6584931112
 10
301.8076993198
 20
70.5601191734
 10
303.1732456611
 20
73.4331835503
 10
304.7018594253
 20
76.2740371997
 10
306.3915991422
 20
79.0790719951
 10
308.2403186871
 20
81.8447252861
 10
310.2456700198
 20
84.5674844489
 10
312.405106151
 20
87.2438913255
 10
314.7158843646
 20
89.8705466074
 10
317.1750698219
 20
92.4441142835
 10
319.7795391904
 20
94.9613257468
 10
322.525984585
 20
97.4189839287
 10
325.4109178404
 20
99.8139674289
 10
328.4306747868
 20
102.1432343543
 10
331.5814200155
 20
104.4038262908
 10
334.8591518286
 20
106.5928721086
 10
338.2597072257
 20
108.7075915325
 10
341.7787672089
 20
110.7452986871
 10
345.4118622705
 20
112.7034055099
 10
349.1543780654
 20
114.5794250357
  0
LWPOLYLINE
  5
414
100
AcDbEntity
  8
X48002258_BL7
100
AcDbPolyline
 62
7
  6
CONTINUOUS
 90
3
 70
0
 10
349.3448041513
 20
114.8176337369
 10
349.3266519136
 20
114.8024634999
 10
349.3086229104
 20
114.7861570357
  0
LWPOLYLINE
  5
415
100
AcDbEntity
  8
X48002258_BL7
100
AcDbPolyline
 62
9
  6
CONTINUOUS
 90
7
 70
0
 10
349.2650936358
 20
114.3516402126
 10
349.309522399
 20
114.3871916739
 10
349.3574397293
 20
114.4189666253
 10
349.4082055121
 20
114.4465405942
 10
349.4611415808
 20
114.4695452274
 10
349.5155407768
 20
114.4876732125
 10
349.5706763958
 20
114.5006823829
  0
LINE
  5
416
100
AcDbEntity
  8
X48002258_BL7
100
AcDbLine
 62
7
  6
CONTINUOUS
 10
349.2907330705
 20
114.7687088738
 11
349.2649344408
 21
114.741152436
  0
LINE
  5
417
100
AcDbEntity
  8
X48002258_BL7
100
AcDbLine
 62
7
  6
CONTINUOUS
 10
349.3086229104
 20
114.7861570357
 11
349.2907330705
 21
114.7687088738
  0
LWPOLYLINE
  5
418
100
AcDbEntity
  8
X48002258_BL7
100
AcDbPolyline
 62
9
  6
CONTINUOUS
 90
23
 70
0
 10
349.265097051
 20
98.8949873103
 10
345.2697755224
 20
96.89155709
 10
341.3993958908
 20
94.7946570386
 10
337.6595619187
 20
92.6073231709
 10
334.0556883511
 20
90.3327224334
 10
330.5929930799
 20
87.9741481208
 10
327.2764896065
 20
85.53501512
 10
324.110979748
 20
83.0188549416
 10
321.1010467611
 20
80.429310669
 10
318.2510486576
 20
77.7701316572
 10
315.5651117538
 20
75.0451679638
 10
313.0471248566
 20
72.2583649019
 10
310.7007336708
 20
69.4137573834
 10
308.5293354383
 20
66.5154639968
 10
306.5360740361
 20
63.5676810603
 10
304.7238354343
 20
60.5746765639
 10
303.0952434666
 20
57.5407839002
 10
301.6526560783
 20
54.4703956428
 10
300.3981619764
 20
51.3679573443
 10
299.3335775123
 20
48.2379609432
 10
298.4604440491
 20
45.0849382206
 10
297.7800257616
 20
41.9134543149
 10
297.2933077967
 20
38.7281010789
  0
LWPOLYLINE
  5
419
100
AcDbEntity
  8
X48002258_BL7
100
AcDbPolyline
 62
9
  6
CONTINUOUS
 90
25
 70
0
 10
349.5706763958
 20
98.2573264471
 10
345.5906870493
 20
96.2616067579
 10
341.7390778854
 20
94.1749775297
 10
338.0127391445
 20
91.9955953054
 10
334.4210001055
 20
89.7289904558
 10
330.9708169164
 20
87.3790108488
 10
327.6661992114
 20
84.9488605362
 10
324.5120080272
 20
82.4417232589
 10
321.5126453051
 20
79.8615078183
 10
318.6728971156
 20
77.2118701331
 10
315.9964721087
 20
74.4967525926
 10
313.4875816119
 20
71.7199292322
 10
311.1495036629
 20
68.8855610319
 10
308.9860026862
 20
65.9976346169
 10
306.9998308497
 20
63.060447087
 10
305.1942585676
 20
60.0781616755
 10
303.5714955253
 20
57.0551666067
 10
302.1342720103
 20
53.9957045531
 10
300.8842966302
 20
50.9043754037
 10
299.823833277
 20
47.7857437375
 10
298.9539463854
 20
44.6441581579
 10
298.2762464586
 20
41.483558704
 10
297.7913591839
 20
38.3097356474
 10
297.5005923983
 20
35.1306805584
 10
297.403510156
 20
31.9437295803
  0
LINE
  5
41A
100
AcDbEntity
  8
X48002258_BL7
100
AcDbLine
 62
9
  6
CONTINUOUS
 10
319.403510156
 20
15.9158335254
 11
319.403510156
 21
31.9437295803
  0
LINE
  5
41B
100
AcDbEntity
  8
X48002258_BL7
100
AcDbLine
 62
7
  6
CONTINUOUS
 10
319.903510156
 20
16.4159479184
 11
319.903510156
 21
32.3342477695
  0
LWPOLYLINE
  5
41C
100
AcDbEntity
  8
X48002258_BL7
100
AcDbPolyline
 62
9
  6
CONTINUOUS
 90
25
 70
0
 10
319.403510156
 20
31.9437295803
 10
319.5022745043
 20
34.7469695379
 10
319.7977066687
 20
37.5405650802
 10
320.2903980039
 20
40.327545987
 10
320.9785744462
 20
43.0988229185
 10
321.8613869955
 20
45.8478778008
 10
322.9366518163
 20
48.5700266159
 10
324.2029226624
 20
51.2601730665
 10
325.6571377662
 20
53.9130359171
 10
327.296977222
 20
56.5232516508
 10
329.1187691975
 20
59.0859708147
 10
331.1195336759
 20
61.5961289464
 10
333.2948753052
 20
64.0490075589
 10
335.6410839794
 20
66.4396810359
 10
338.1531239449
 20
68.7637063023
 10
340.8265856835
 20
71.0163699507
 10
343.6558803827
 20
73.1935573619
 10
346.6360597081
 20
75.2908839065
 10
349.760792707
 20
77.3044462072
 10
353.0242286382
 20
79.2299783008
 10
356.4199785328
 20
81.0641833156
 10
359.9425910867
 20
82.8035665841
 10
363.5834025637
 20
84.4444555302
 10
367.3306220212
 20
85.9814080053
 10
371.1881797735
 20
87.4162380589
  0
LWPOLYLINE
  5
41D
100
AcDbEntity
  8
X48002258_BL7
100
AcDbPolyline
 62
7
  6
CONTINUOUS
 90
24
 70
0
 10
319.903510156
 20
32.3342477695
 10
320.0017381378
 20
35.1125219708
 10
320.2961765225
 20
37.8850794684
 10
320.7861924208
 20
40.6467021113
 10
321.4707507771
 20
43.3920121797
 10
322.3484101908
 20
46.1156443281
 10
323.4173976636
 20
48.8124363505
 10
324.6755330996
 20
51.4771630838
 10
326.1203616841
 20
54.1048354963
 10
327.7490546332
 20
56.690449006
 10
329.558485527
 20
59.2291290388
 10
331.5452010938
 20
61.7160698392
 10
333.7053843428
 20
64.1465025509
 10
336.0348924274
 20
66.5157586578
 10
338.5293203179
 20
68.8193296826
 10
341.1839847345
 20
71.0528357139
 10
343.9937974662
 20
73.21192874
 10
346.9534232311
 20
75.2924386651
 10
350.0571790437
 20
77.2902983668
 10
353.2991380478
 20
79.2016217435
 10
356.6730535378
 20
81.0226573471
 10
360.1724472995
 20
82.7498442075
 10
363.79056527
 20
84.3797884135
 10
367.5204441101
 20
85.9092969763
  0
LWPOLYLINE
  5
41E
100
AcDbEntity
  8
X48002258_BL7
100
AcDbPolyline
 62
7
  6
CONTINUOUS
 90
4
 70
0
 10
349.2649344408
 20
114.741152436
 10
349.2403256461
 20
114.7118345543
 10
349.2168886109
 20
114.680882496
 10
349.194709884
 20
114.6484188618
  0
LWPOLYLINE
  5
41F
100
AcDbEntity
  8
X48002258_BL7
100
AcDbPolyline
 62
9
  6
CONTINUOUS
 90
19
 70
0
 10
371.1881797735
 20
87.4162380589
 10
372.6662145895
 20
87.9750887965
 10
374.0864547956
 20
88.5858469922
 10
375.451795134
 20
89.2499301044
 10
376.753551378
 20
89.9630857578
 10
377.9850008892
 20
90.7223498231
 10
379.1431536446
 20
91.5252750203
 10
380.2239541622
 20
92.3695087667
 10
381.2238761807
 20
93.2518028416
 10
382.1389158365
 20
94.1692104566
 10
382.9664504544
 20
95.1184747328
 10
383.7032338739
 20
96.0965656727
 10
384.3471326868
 20
97.0998558433
 10
384.8953581895
 20
98.124828868
 10
385.3466301071
 20
99.1681215802
 10
385.6990113154
 20
100.2269035934
 10
385.9516836584
 20
101.2960601905
 10
386.1030002889
 20
102.3687759201
 10
386.153510156
 20
103.4473225992
  0
LINE
  5
420
100
AcDbEntity
  8
X48002258_BL7
100
AcDbLine
 62
7
  6
CONTINUOUS
 10
367.5204441101
 20
85.9092969763
 11
371.3548573602
 21
87.3353555883
  0
LWPOLYLINE
  5
421
100
AcDbEntity
  8
X48002258_BL7
100
AcDbPolyline
 62
7
  6
CONTINUOUS
 90
6
 70
0
 10
349.5657939388
 20
114.925013425
 10
349.6342702343
 20
114.9418824973
 10
349.7083357587
 20
114.9554878638
 10
349.7877381014
 20
114.9655451171
 10
349.8719730662
 20
114.971698442
 10
349.9612087184
 20
114.9740576519
  0
LWPOLYLINE
  5
422
100
AcDbEntity
  8
X48002258_BL7
100
AcDbPolyline
 62
9
  6
CONTINUOUS
 90
11
 70
0
 10
319.903510156
 20
17.0772209739
 10
319.8973543263
 20
17.0042663962
 10
319.8790384142
 20
16.9331082022
 10
319.8490134182
 20
16.865498543
 10
319.8080186533
 20
16.8031021926
 10
319.7570635467
 20
16.7474555564
 10
319.6974027822
 20
16.6999288392
 10
319.6305054059
 20
16.6616923065
 10
319.5580186532
 20
16.6336874687
 10
319.4817273885
 20
16.6166038978
 10
319.403510156
 20
16.610862248
  0
LWPOLYLINE
  5
423
100
AcDbEntity
  8
X48002258_BL7
100
AcDbPolyline
 62
9
  6
CONTINUOUS
 90
11
 70
0
 10
319.903510156
 20
32.3342477695
 10
319.8973543263
 20
32.2731572655
 10
319.8790384142
 20
32.2135710124
 10
319.8490134181
 20
32.1569562216
 10
319.8080186532
 20
32.1047069371
 10
319.7570635466
 20
32.0581097097
 10
319.6974027822
 20
32.0183119178
 10
319.6305054059
 20
31.9862935151
 10
319.5580186532
 20
31.9628429009
 10
319.4817273886
 20
31.9485375072
 10
319.403510156
 20
31.9437295803
  0
LWPOLYLINE
  5
424
100
AcDbEntity
  8
X48002258_BL7
100
AcDbPolyline
 62
9
  6
CONTINUOUS
 90
11
 70
0
 10
319.903510156
 20
24.5281786627
 10
319.8973543263
 20
24.4670881586
 10
319.8790384142
 20
24.4075019056
 10
319.8490134181
 20
24.3508871147
 10
319.8080186532
 20
24.2986378302
 10
319.7570635466
 20
24.2520406028
 10
319.6974027822
 20
24.2122428109
 10
319.6305054059
 20
24.1802244082
 10
319.5580186532
 20
24.156773794
 10
319.4817273886
 20
24.1424684003
 10
319.403510156
 20
24.1376604734
  0
LWPOLYLINE
  5
425
100
AcDbEntity
  8
X48002258_BL7
100
AcDbPolyline
 62
7
  6
CONTINUOUS
 90
3
 70
0
 10
349.194709884
 20
114.6484188618
 10
349.1738818375
 20
114.614557152
 10
349.1543780654
 20
114.5794250357
  0
LWPOLYLINE
  5
426
100
AcDbEntity
  8
X48002258_BL7
100
AcDbPolyline
 62
9
  6
CONTINUOUS
 90
4
 70
0
 10
349.2907330705
 20
114.7687088738
 10
349.3113384722
 20
114.8020218149
 10
349.3373706178
 20
114.8266236438
 10
349.3535084348
 20
114.8361031485
  0
LINE
  5
427
100
AcDbEntity
  8
X48002258_BL7
100
AcDbLine
 62
9
  6
CONTINUOUS
 10
386.153510156
 20
112.1901199989
 11
353.653510156
 21
112.1901199989
  0
LINE
  5
428
100
AcDbEntity
  8
X48002258_BL7
100
AcDbLine
 62
9
  6
CONTINUOUS
 10
386.153510156
 20
113.5956419061
 11
353.653510156
 21
113.5956419061
  0
LINE
  5
429
100
AcDbEntity
  8
X48002258_BL7
100
AcDbLine
 62
7
  6
CONTINUOUS
 10
352.753510156
 20
114.9740576597
 11
349.9612087184
 21
114.9740576519
  0
LWPOLYLINE
  5
42A
100
AcDbEntity
  8
X48002258_BL7
100
AcDbPolyline
 62
9
  6
CONTINUOUS
 90
11
 70
0
 10
349.265097051
 20
98.8949873103
 10
349.2688592399
 20
98.8308540698
 10
349.2800531687
 20
98.7622145298
 10
349.298403206
 20
98.6907588233
 10
349.3234575128
 20
98.6182464272
 10
349.3545991689
 20
98.5464628372
 10
349.3910613635
 20
98.4771756036
 10
349.4319462764
 20
98.4120908079
 10
349.4762471851
 20
98.352811054
 10
349.5228732545
 20
98.300796006
 10
349.5706763958
 20
98.2573264471
  0
LINE
  5
42B
100
AcDbEntity
  8
X48002258_BL7
100
AcDbLine
 62
9
  6
CONTINUOUS
 10
349.265097051
 20
114.3516374503
 11
349.265097051
 21
98.8949873103
  0
LINE
  5
42C
100
AcDbEntity
  8
X48002258_BL7
100
AcDbLine
 62
7
  6
CONTINUOUS
 10
353.153510156
 20
113.6898634932
 11
353.153510156
 21
103.8378407885
  0
LINE
  5
42D
100
AcDbEntity
  8
X48002258_BL7
100
AcDbLine
 62
9
  6
CONTINUOUS
 10
353.653510156
 20
113.6970900726
 11
353.653510156
 21
103.4473225992
  0
LWPOLYLINE
  5
42E
100
AcDbEntity
  8
X48002258_BL7
100
AcDbPolyline
 62
9
  6
CONTINUOUS
 90
13
 70
0
 10
353.653510156
 20
103.4473225992
 10
353.6232888864
 20
102.9494511598
 10
353.5328496206
 20
102.4561178356
 10
353.3816438552
 20
101.96557722
 10
353.1713171002
 20
101.4830655328
 10
352.9026629874
 20
101.0125098459
 10
352.5776886472
 20
100.5560921967
 10
352.197811284
 20
100.1165191928
 10
351.765594307
 20
99.6961441955
 10
351.282576513
 20
99.2972920827
 10
350.7532489432
 20
98.9227549119
 10
350.1832410674
 20
98.5765455771
 10
349.5706763958
 20
98.2573264471
  0
LWPOLYLINE
  5
42F
100
AcDbEntity
  8
X48002258_BL7
100
AcDbPolyline
 62
9
  6
CONTINUOUS
 90
13
 70
0
 10
353.153510156
 20
103.8378407885
 10
353.1245634735
 20
103.3630281573
 10
353.0378910071
 20
102.8909643733
 10
352.8939945305
 20
102.4243823688
 10
352.6937071121
 20
101.9659833561
 10
352.4381882944
 20
101.5184211754
 10
352.1289173586
 20
101.0842869002
 10
351.7676847744
 20
100.6660938728
 10
351.3565818332
 20
100.2662631488
 10
350.8979885335
 20
99.8871094738
 10
350.3945598366
 20
99.5308279087
 10
349.8492102727
 20
99.199481096
 10
349.265097051
 20
98.8949873103
  0
LWPOLYLINE
  5
430
100
AcDbEntity
  8
X48002258_BL7
100
AcDbPolyline
 62
9
  6
CONTINUOUS
 90
11
 70
0
 10
353.153510156
 20
113.2833991418
 10
353.1596659539
 20
113.3322445461
 10
353.1779817995
 20
113.3798872732
 10
353.2080067375
 20
113.4251541986
 10
353.2490014928
 20
113.466930691
 10
353.2999566992
 20
113.5041880764
 10
353.3596176158
 20
113.5360088834
 10
353.4265150905
 20
113.5616095406
 10
353.4990018778
 20
113.5803597018
 10
353.575293081
 20
113.5917976946
 10
353.653510156
 20
113.5956419047
  0
LWPOLYLINE
  5
431
100
AcDbEntity
  8
X48002258_BL7
100
AcDbPolyline
 62
9
  6
CONTINUOUS
 90
11
 70
0
 10
353.153510156
 20
103.8378407885
 10
353.1596659854
 20
103.776750286
 10
353.177981897
 20
103.7171640337
 10
353.2080068925
 20
103.6605492429
 10
353.2490016573
 20
103.6082999578
 10
353.2999567648
 20
103.5617027292
 10
353.3596175306
 20
103.5219049364
 10
353.4265149078
 20
103.4898865334
 10
353.4990016609
 20
103.4664359194
 10
353.575292925
 20
103.452130526
 10
353.653510156
 20
103.4473225992
  0
LWPOLYLINE
  5
432
100
AcDbEntity
  8
X48002258_BL7
100
AcDbPolyline
 62
9
  6
CONTINUOUS
 90
11
 70
0
 10
353.153510156
 20
112.5806381882
 10
353.1596659857
 20
112.5195476842
 10
353.1779818979
 20
112.4599614311
 10
353.208006894
 20
112.4033466403
 10
353.2490016589
 20
112.3510973558
 10
353.2999567655
 20
112.3045001284
 10
353.3596175299
 20
112.2647023365
 10
353.4265149062
 20
112.2326839337
 10
353.4990016589
 20
112.2092333196
 10
353.5752929236
 20
112.1949279259
 10
353.653510156
 20
112.1901199989
  0
LWPOLYLINE
  5
433
100
AcDbEntity
  8
X48002258_BL7
100
AcDbPolyline
 62
9
  6
CONTINUOUS
 90
3
 70
0
 10
352.9331675738
 20
110.2234929632
 10
352.9704179189
 20
110.1886539484
 10
353.153510156
 20
110.0291685658
  0
LWPOLYLINE
  5
434
100
AcDbEntity
  8
X48002258_BL7
100
AcDbPolyline
 62
9
  6
CONTINUOUS
 90
12
 70
0
 10
349.5706763958
 20
114.5006834554
 10
349.8000716284
 20
114.0797960075
 10
350.0522646469
 20
113.6544275932
 10
350.328243656
 20
113.2288296328
 10
350.6250440411
 20
112.8041534018
 10
350.9413871365
 20
112.3834785643
 10
351.2732033006
 20
111.9693532019
 10
351.6184300342
 20
111.5659914177
 10
351.9697672452
 20
111.1777031497
 10
352.3267963134
 20
110.8058466341
 10
352.6668103243
 20
110.4726080823
 10
352.753510156
 20
110.3915205994
  0
LWPOLYLINE
  5
435
100
AcDbEntity
  8
X48002258_BL7
100
AcDbPolyline
 62
9
  6
CONTINUOUS
 90
17
 70
0
 10
349.2363550691
 20
114.4089107957
 10
349.4821122418
 20
113.915652254
 10
349.7236128786
 20
113.475865889
 10
349.9861177462
 20
113.0336572972
 10
350.2690933155
 20
112.591498947
 10
350.5698529035
 20
112.1516323582
 10
350.8863737687
 20
111.7175137543
 10
351.2142948893
 20
111.2918650119
 10
351.549766575
 20
110.8806145103
 10
351.8906076295
 20
110.484050064
 10
352.2136617478
 20
110.1230094504
 10
352.5054051497
 20
109.8133347447
 10
352.7474637171
 20
109.5603922461
 10
352.9284650678
 20
109.3757053797
 10
353.0549922333
 20
109.2456423226
 10
353.1292848639
 20
109.1609847735
 10
353.153510156
 20
109.1215565794
  0
LWPOLYLINE
  5
436
100
AcDbEntity
  8
X48002258_BL7
100
AcDbPolyline
 62
9
  6
CONTINUOUS
 90
4
 70
0
 10
349.4394596149
 20
114.7684653576
 10
349.4813396563
 20
114.6799538802
 10
349.5250785832
 20
114.5906808066
 10
349.5706763958
 20
114.5006834554
  0
LWPOLYLINE
  5
437
100
AcDbEntity
  8
X48002258_BL7
100
AcDbPolyline
 62
9
  6
CONTINUOUS
 90
4
 70
0
 10
349.1543780654
 20
114.5794250357
 10
349.1809959976
 20
114.5228042455
 10
349.2083215268
 20
114.4659662783
 10
349.2363550691
 20
114.4089107957
  0
LINE
  5
438
100
AcDbEntity
  8
X48002258_BL7
100
AcDbLine
 62
9
  6
CONTINUOUS
 10
349.3994384591
 20
114.8561787655
 11
349.4394596149
 21
114.7684653576
  0
LINE
  5
439
100
AcDbEntity
  8
X48002258_BL7
100
AcDbLine
 62
9
  6
CONTINUOUS
 10
386.153510156
 20
103.4473225992
 11
386.153510156
 21
113.6970900726
  0
LINE
  5
43A
100
AcDbEntity
  8
X48002258_BL7
100
AcDbLine
 62
7
  6
CONTINUOUS
 10
386.653510156
 20
103.8378407885
 11
386.653510156
 21
113.6898634932
  0
LWPOLYLINE
  5
43B
100
AcDbEntity
  8
X48002258_BL7
100
AcDbPolyline
 62
7
  6
CONTINUOUS
 90
19
 70
0
 10
386.653510156
 20
103.8378407885
 10
386.602404663
 20
102.7306356365
 10
386.4490150944
 20
101.6259748497
 10
386.1935650086
 20
100.5280008385
 10
385.8364897143
 20
99.4402096765
 10
385.3783758335
 20
98.3659500353
 10
384.8204803332
 20
97.309425637
 10
384.1642913438
 20
96.2743711074
 10
383.4119988952
 20
95.2648979808
 10
382.5661670335
 20
94.2848414884
 10
381.6298209403
 20
93.3379238862
 10
380.6064614295
 20
92.4277486369
 10
379.4997710797
 20
91.5575576101
 10
378.3139195003
 20
90.7305299136
 10
377.0531200241
 20
89.9494659106
 10
375.72201445
 20
89.2170866006
 10
374.325261095
 20
88.5357944053
 10
372.8678830291
 20
87.9078836592
 10
371.3548573602
 20
87.3353555883
  0
LWPOLYLINE
  5
43C
100
AcDbEntity
  8
X48002258_BL7
100
AcDbPolyline
 62
9
  6
CONTINUOUS
 90
11
 70
0
 10
386.653510156
 20
112.5806381882
 10
386.6473543446
 20
112.5195477744
 10
386.6290384707
 20
112.459961567
 10
386.5990135081
 20
112.4033467781
 10
386.5580187487
 20
112.3510974584
 10
386.5070635847
 20
112.3045001581
 10
386.4474027328
 20
112.2647023085
 10
386.3805053
 20
112.2326838914
 10
386.3080185274
 20
112.2092332876
 10
386.2317272981
 20
112.1949279161
 10
386.153510156
 20
112.1901200026
  0
LWPOLYLINE
  5
43D
100
AcDbEntity
  8
X48002258_BL7
100
AcDbPolyline
 62
9
  6
CONTINUOUS
 90
11
 70
0
 10
386.653510156
 20
103.8378407885
 10
386.6473543263
 20
103.7767502845
 10
386.6290384142
 20
103.7171640314
 10
386.5990134181
 20
103.6605492406
 10
386.5580186532
 20
103.6082999561
 10
386.5070635466
 20
103.5617027287
 10
386.4474027822
 20
103.5219049368
 10
386.3805054059
 20
103.4898865341
 10
386.3080186532
 20
103.4664359199
 10
386.2317273886
 20
103.4521305262
 10
386.153510156
 20
103.4473225992
  0
LWPOLYLINE
  5
43E
100
AcDbEntity
  8
X48002258_BL7
100
AcDbPolyline
 62
9
  6
CONTINUOUS
 90
11
 70
0
 10
386.653510156
 20
113.2833991418
 10
386.6473543263
 20
113.3322446716
 10
386.6290384142
 20
113.3798874623
 10
386.5990134181
 20
113.4251543904
 10
386.5580186532
 20
113.4669308338
 10
386.5070635466
 20
113.5041881178
 10
386.4474027821
 20
113.5360088445
 10
386.3805054058
 20
113.5616094819
 10
386.3080186531
 20
113.5803596574
 10
386.2317273885
 20
113.5917976795
 10
386.153510156
 20
113.5956419061
  0
LINE
  5
43F
100
AcDbEntity
  8
X48002258_BL7
100
AcDbLine
 62
7
  6
CONTINUOUS
 10
319.403510156
 20
216.4571367569
 11
297.403510156
 21
216.4571367569
  0
LINE
  5
440
100
AcDbEntity
  8
X48002258_BL7
100
AcDbLine
 62
9
  6
CONTINUOUS
 10
319.403510156
 20
230.5122177606
 11
297.403510156
 21
230.5122177606
  0
LINE
  5
441
100
AcDbEntity
  8
X48002258_BL7
100
AcDbLine
 62
9
  6
CONTINUOUS
 10
319.403510156
 20
243.6064859233
 11
297.403510156
 21
243.6064859233
  0
LWPOLYLINE
  5
442
100
AcDbEntity
  8
X48002258_BL7
100
AcDbPolyline
 62
9
  6
CONTINUOUS
 90
7
 70
0
 10
353.2490016589
 20
353.6039042278
 10
353.2999567655
 20
353.6411615118
 10
353.3596175299
 20
353.6729822385
 10
353.4265149062
 20
353.6985828759
 10
353.4990016589
 20
353.7173330514
 10
353.5752929236
 20
353.7287710735
 10
353.653510156
 20
353.7326153001
  0
LWPOLYLINE
  5
443
100
AcDbEntity
  8
X48002258_BL7
100
AcDbPolyline
 62
9
  6
CONTINUOUS
 90
8
 70
0
 10
349.3124617047
 20
336.4229636996
 10
349.3234575128
 20
336.4283962837
 10
349.3545991689
 20
336.4341532935
 10
349.3910613635
 20
336.4290919377
 10
349.4319462764
 20
336.4133368437
 10
349.4762471851
 20
336.3872759543
 10
349.5228732545
 20
336.3515509751
 10
349.5706763958
 20
336.3070415735
  0
LWPOLYLINE
  5
444
100
AcDbEntity
  8
X48002258_BL7
100
AcDbPolyline
 62
9
  6
CONTINUOUS
 90
25
 70
0
 10
349.5706763958
 20
336.3070415735
 10
345.5906870493
 20
333.8110194763
 10
341.7390778854
 20
331.2012979354
 10
338.0127391445
 20
328.4755713619
 10
334.4210001055
 20
325.6407565225
 10
330.9708169164
 20
322.7016658982
 10
327.6661992114
 20
319.6623067574
 10
324.5120080272
 20
316.5266609656
 10
321.5126453051
 20
313.2996172128
 10
318.6728971156
 20
309.9857479116
 10
315.9964721087
 20
306.5899837597
 10
313.4875816119
 20
303.117044897
 10
311.1495036629
 20
299.57213541
 10
308.9860026862
 20
295.9602413219
 10
306.9998308497
 20
292.2867369624
 10
305.1942585676
 20
288.5568292366
 10
303.5714955253
 20
284.7760064425
 10
302.1342720103
 20
280.9495748385
 10
300.8842966302
 20
277.0832874493
 10
299.823833277
 20
273.1828531377
 10
298.9539463854
 20
269.2537106487
 10
298.2762464586
 20
265.3007877406
 10
297.7913591839
 20
261.3313262351
 10
297.5005923983
 20
257.355321091
 10
297.403510156
 20
253.3694406553
  0
LINE
  5
445
100
AcDbEntity
  8
X48002258_BL7
100
AcDbLine
 62
7
  6
CONTINUOUS
 10
296.903510156
 20
253.057197891
 11
296.903510156
 21
216.9571598828
  0
LINE
  5
446
100
AcDbEntity
  8
X48002258_BL7
100
AcDbLine
 62
9
  6
CONTINUOUS
 10
297.403510156
 20
253.3694406553
 11
297.403510156
 21
216.4571367569
  0
LWPOLYLINE
  5
447
100
AcDbEntity
  8
X48002258_BL7
100
AcDbPolyline
 62
7
  6
CONTINUOUS
 90
25
 70
0
 10
296.903510156
 20
253.057197891
 10
297.0010404282
 20
257.0641324354
 10
297.2934988112
 20
261.065346959
 10
297.7804716458
 20
265.0550161269
 10
298.4612648278
 20
269.0273605204
 10
299.3348986477
 20
272.9766007111
 10
300.4001338905
 20
276.8970701341
 10
301.6554723066
 20
280.783161256
 10
303.0990987921
 20
284.6291717019
 10
304.7289284806
 20
288.4294937598
 10
306.5426097508
 20
292.1786042456
 10
308.5375107269
 20
295.8710344243
 10
310.7107796688
 20
299.5014776806
 10
313.0593339913
 20
303.0647406786
 10
315.5797243939
 20
306.5555534003
 10
318.268254549
 20
309.9687848717
 10
321.1210312539
 20
313.2994907323
 10
324.1338911478
 20
316.5428128533
 10
327.3025087275
 20
319.6940965122
 10
330.6223610496
 20
322.7488332999
 10
334.0885549719
 20
325.7025139163
 10
337.695988929
 20
328.5508009134
 10
341.4394427435
 20
331.2895877615
 10
345.3134664618
 20
333.9149019683
 10
349.3124617047
 20
336.4229636996
  0
LWPOLYLINE
  5
448
100
AcDbEntity
  8
X48002258_BL7
100
AcDbPolyline
 62
9
  6
CONTINUOUS
 90
11
 70
0
 10
296.903510156
 20
253.057197891
 10
296.9096659857
 20
253.1060434208
 10
296.9279818979
 20
253.1536862116
 10
296.958006894
 20
253.1989531396
 10
296.9990016589
 20
253.240729583
 10
297.0499567655
 20
253.277986867
 10
297.1096175299
 20
253.3098075937
 10
297.1765149062
 20
253.3354082311
 10
297.2490016589
 20
253.3541584067
 10
297.3252929235
 20
253.3655964288
 10
297.403510156
 20
253.3694406553
  0
LWPOLYLINE
  5
449
100
AcDbEntity
  8
X48002258_BL7
100
AcDbPolyline
 62
9
  6
CONTINUOUS
 90
11
 70
0
 10
296.903510156
 20
243.2942431591
 10
296.9096659857
 20
243.3430886889
 10
296.9279818979
 20
243.3907314796
 10
296.9580068939
 20
243.4359984076
 10
296.9990016588
 20
243.477774851
 10
297.0499567654
 20
243.5150321351
 10
297.1096175299
 20
243.5468528617
 10
297.1765149062
 20
243.5724534992
 10
297.2490016589
 20
243.5912036747
 10
297.3252929235
 20
243.6026416968
 10
297.403510156
 20
243.6064859234
  0
LWPOLYLINE
  5
44A
100
AcDbEntity
  8
X48002258_BL7
100
AcDbPolyline
 62
9
  6
CONTINUOUS
 90
19
 70
0
 10
371.1881797735
 20
322.7482255125
 10
372.6662145895
 20
323.4471732644
 10
374.0864547956
 20
324.2110410363
 10
375.451795134
 20
325.0416016264
 10
376.753551378
 20
325.9335366408
 10
377.9850008892
 20
326.8831388794
 10
379.1431536446
 20
327.8873475594
 10
380.2239541622
 20
328.9432203342
 10
381.2238761807
 20
330.0466946945
 10
382.1389158365
 20
331.1940851279
 10
382.9664504544
 20
332.3813182961
 10
383.7032338739
 20
333.6046046185
 10
384.3471326868
 20
334.8594073092
 10
384.8953581895
 20
336.1413284791
 10
385.3466301071
 20
337.446161857
 10
385.6990113154
 20
338.7703675134
 10
385.9516836584
 20
340.1075485346
 10
386.1030002889
 20
341.4491809189
 10
386.153510156
 20
342.7981060002
  0
LWPOLYLINE
  5
44B
100
AcDbEntity
  8
X48002258_BL7
100
AcDbPolyline
 62
9
  6
CONTINUOUS
 90
19
 70
0
 10
371.434530106
 20
322.0961542654
 10
372.939220867
 20
322.8078438516
 10
374.3879177171
 20
323.5871908721
 10
375.7756397012
 20
324.4315157512
 10
377.0976155524
 20
325.3379155328
 10
378.3493000978
 20
326.3032738803
 10
379.5263895952
 20
327.3242715504
 10
380.6248368521
 20
328.3973980065
 10
381.6408651658
 20
329.5189635407
 10
382.5709810833
 20
330.6851117116
 10
383.411987054
 20
331.8918334527
 10
384.160991775
 20
333.1349802566
 10
384.815419784
 20
334.410277703
 10
385.3730209432
 20
335.7133410089
 10
385.8318780105
 20
337.0396898282
 10
386.190413277
 20
338.3847637
 10
386.447394057
 20
339.7439380437
 10
386.6019368013
 20
341.1125397455
 10
386.653510156
 20
342.485863236
  0
LWPOLYLINE
  5
44C
100
AcDbEntity
  8
X48002258_BL7
100
AcDbPolyline
 62
9
  6
CONTINUOUS
 90
11
 70
0
 10
296.903510156
 20
230.331913743
 10
296.9096659856
 20
230.3601195053
 10
296.9279818976
 20
230.3876307483
 10
296.9580068936
 20
230.4137700538
 10
296.9990016586
 20
230.4378937853
 10
297.0499567657
 20
230.4594079366
 10
297.1096175308
 20
230.4777827576
 10
297.1765149074
 20
230.4925657992
 10
297.2490016601
 20
230.503393054
 10
297.3252929243
 20
230.509997919
 10
297.403510156
 20
230.5122177606
  0
LWPOLYLINE
  5
44D
100
AcDbEntity
  8
X48002258_BL7
100
AcDbPolyline
 62
9
  6
CONTINUOUS
 90
11
 70
0
 10
319.903510156
 20
230.331913743
 10
319.8973543263
 20
230.3601195055
 10
319.8790384142
 20
230.3876307486
 10
319.8490134182
 20
230.413770054
 10
319.8080186533
 20
230.4378937855
 10
319.7570635467
 20
230.4594079365
 10
319.6974027822
 20
230.4777827574
 10
319.6305054059
 20
230.492565799
 10
319.5580186532
 20
230.5033930539
 10
319.4817273885
 20
230.5099979189
 10
319.403510156
 20
230.5122177606
  0
LINE
  5
44E
100
AcDbEntity
  8
X48002258_BL7
100
AcDbLine
 62
9
  6
CONTINUOUS
 10
319.403510156
 20
216.4571367569
 11
319.403510156
 21
253.3694406553
  0
LINE
  5
44F
100
AcDbEntity
  8
X48002258_BL7
100
AcDbLine
 62
7
  6
CONTINUOUS
 10
319.903510156
 20
216.9572242575
 11
319.903510156
 21
253.057197891
  0
LINE
  5
450
100
AcDbEntity
  8
X48002258_BL7
100
AcDbLine
 62
7
  6
CONTINUOUS
 10
319.9035106154
 20
239.5127092082
 11
319.9238566044
 21
241.3790406011
  0
LWPOLYLINE
  5
451
100
AcDbEntity
  8
X48002258_BL7
100
AcDbPolyline
 62
9
  6
CONTINUOUS
 90
25
 70
0
 10
319.403510156
 20
253.3694406553
 10
319.5022745043
 20
256.8754184317
 10
319.7977066687
 20
260.3693340563
 10
320.2903980039
 20
263.8549768375
 10
320.9785744462
 20
267.3209788497
 10
321.8613869955
 20
270.7591880179
 10
322.9366518163
 20
274.1637460985
 10
324.2029226624
 20
277.528279215
 10
325.6571377662
 20
280.8461821911
 10
327.296977222
 20
284.1107469418
 10
329.1187691975
 20
287.3159083164
 10
331.1195336759
 20
290.4553322536
 10
333.2948753052
 20
293.5231173998
 10
335.6410839794
 20
296.5131033473
 10
338.1531239449
 20
299.4197331967
 10
340.8265856835
 20
302.2371119471
 10
343.6558803827
 20
304.9600934949
 10
346.6360597081
 20
307.5831940378
 10
349.760792707
 20
310.10153167
 10
353.0242286382
 20
312.5097710038
 10
356.4199785328
 20
314.8037886821
 10
359.9425910867
 20
316.9792139671
 10
363.5834025637
 20
319.0314536131
 10
367.3306220212
 20
320.9537011918
 10
371.1881797735
 20
322.7482255125
  0
LWPOLYLINE
  5
452
100
AcDbEntity
  8
X48002258_BL7
100
AcDbPolyline
 62
9
  6
CONTINUOUS
 90
25
 70
0
 10
319.903510156
 20
253.057197891
 10
320.0017495303
 20
256.5455976488
 10
320.2962776352
 20
260.0272500011
 10
320.786524782
 20
263.4954205768
 10
321.4715427186
 20
266.9434011126
 10
322.3500064729
 20
270.3645224269
 10
323.4202168614
 20
273.7521671387
 10
324.6801038488
 20
277.0997827574
 10
326.1272303471
 20
280.4008938322
 10
327.7587969414
 20
283.6491147321
 10
329.5716479427
 20
286.8381631435
 10
331.5622770377
 20
289.9618710392
 10
333.7268338226
 20
293.0141963392
 10
336.0611315406
 20
295.9892351407
 10
338.5606551222
 20
298.8812330289
 10
341.2205698257
 20
301.6845961134
 10
344.0357310491
 20
304.3939023126
 10
347.0006941048
 20
307.0039115399
 10
350.1097236571
 20
309.5095749489
 10
353.3568057776
 20
311.9060456968
 10
356.7356598561
 20
314.188688453
 10
360.2397502651
 20
316.3530879675
 10
363.8622992899
 20
318.3950578039
 10
367.5963000621
 20
320.3106483106
 10
371.434530106
 20
322.0961542654
  0
LINE
  5
453
100
AcDbEntity
  8
X48002258_BL7
100
AcDbLine
 62
7
  6
CONTINUOUS
 10
319.9238566044
 20
241.3790406011
 11
319.9913961126
 21
243.3367803413
  0
LWPOLYLINE
  5
454
100
AcDbEntity
  8
X48002258_BL7
100
AcDbPolyline
 62
9
  6
CONTINUOUS
 90
3
 70
0
 10
319.9935322421
 20
243.3864286362
 10
319.9259107428
 20
241.4727383067
 10
319.903510156
 20
239.5127073009
  0
LINE
  5
455
100
AcDbEntity
  8
X48002258_BL7
100
AcDbLine
 62
7
  6
CONTINUOUS
 10
372.8251312902
 20
310.0718554289
 11
371.3903982762
 21
309.3953164189
  0
LWPOLYLINE
  5
456
100
AcDbEntity
  8
X48002258_BL7
100
AcDbPolyline
 62
9
  6
CONTINUOUS
 90
23
 70
0
 10
371.434530106
 20
309.5127708651
 10
367.7511005929
 20
307.8027760478
 10
364.1632844745
 20
305.9729716597
 10
360.6774661442
 20
304.0266137721
 10
357.299848504
 20
301.9671658654
 10
354.0364419262
 20
299.7982926681
 10
350.8930534961
 20
297.5238535918
 10
347.8752766176
 20
295.1478957977
 10
344.9884816974
 20
292.6746475208
 10
342.2378060675
 20
290.1085102376
 10
339.628144037
 20
287.4540500084
 10
337.1641391988
 20
284.715990178
 10
334.8501760948
 20
281.899202957
 10
332.6903722072
 20
279.0087005265
 10
330.6885709534
 20
276.0496265576
 10
328.8483345351
 20
273.0272467096
 10
327.1729375529
 20
269.9469391401
 10
325.6653613056
 20
266.8141851077
 10
324.3282884947
 20
263.6345592599
 10
323.1640984038
 20
260.4137196307
 10
322.1748626844
 20
257.1573976179
 10
321.3623416577
 20
253.8713877656
 10
320.7279811727
 20
250.5615374019
  0
LWPOLYLINE
  5
457
100
AcDbEntity
  8
X48002258_BL7
100
AcDbPolyline
 62
9
  6
CONTINUOUS
 90
11
 70
0
 10
319.903510156
 20
243.2942431591
 10
319.8973543263
 20
243.3430886889
 10
319.8790384142
 20
243.3907314796
 10
319.8490134181
 20
243.4359984077
 10
319.8080186532
 20
243.477774851
 10
319.7570635466
 20
243.5150321351
 10
319.6974027822
 20
243.5468528617
 10
319.6305054059
 20
243.5724534992
 10
319.5580186532
 20
243.5912036747
 10
319.4817273886
 20
243.6026416968
 10
319.403510156
 20
243.6064859233
  0
LWPOLYLINE
  5
458
100
AcDbEntity
  8
X48002258_BL7
100
AcDbPolyline
 62
9
  6
CONTINUOUS
 90
11
 70
0
 10
319.903510156
 20
253.057197891
 10
319.8973543263
 20
253.1060434208
 10
319.8790384142
 20
253.1536862116
 10
319.8490134181
 20
253.1989531396
 10
319.8080186532
 20
253.240729583
 10
319.7570635466
 20
253.277986867
 10
319.6974027822
 20
253.3098075937
 10
319.6305054059
 20
253.3354082311
 10
319.5580186532
 20
253.3541584067
 10
319.4817273886
 20
253.3655964288
 10
319.403510156
 20
253.3694406553
  0
LWPOLYLINE
  5
459
100
AcDbEntity
  8
X48002258_BL7
100
AcDbPolyline
 62
7
  6
CONTINUOUS
 90
5
 70
0
 10
319.9913961126
 20
243.3367803413
 10
320.1070958104
 20
245.2468856058
 10
320.2713970886
 20
247.1056929531
 10
320.4844974752
 20
248.9096642632
 10
320.7254379563
 20
250.5302079276
  0
LINE
  5
45A
100
AcDbEntity
  8
X48002258_BL7
100
AcDbLine
 62
9
  6
CONTINUOUS
 10
320.7279811727
 20
250.5615374019
 11
320.7254379342
 21
250.5302108735
  0
LWPOLYLINE
  5
45B
100
AcDbEntity
  8
X48002258_BL7
100
AcDbPolyline
 62
9
  6
CONTINUOUS
 90
5
 70
0
 10
320.7279811727
 20
250.5615374019
 10
320.473701979
 20
248.8414719184
 10
320.2668851456
 20
247.0717221901
 10
320.1070001327
 20
245.2530624665
 10
319.9935322421
 20
243.3864286362
  0
LWPOLYLINE
  5
45C
100
AcDbEntity
  8
X48002258_BL7
100
AcDbPolyline
 62
7
  6
CONTINUOUS
 90
23
 70
0
 10
320.7254379342
 20
250.5302108735
 10
321.3589695046
 20
253.835029858
 10
322.1706146071
 20
257.1159029376
 10
323.1588981312
 20
260.3670107327
 10
324.3220418479
 20
263.5826109349
 10
325.6579614405
 20
266.757018798
 10
327.164257477
 20
269.8845947658
 10
328.8382272359
 20
272.959782154
 10
330.6768741255
 20
275.9771243558
 10
332.6768894857
 20
278.9312381531
 10
334.8347434953
 20
281.816945073
 10
337.1466271749
 20
284.6291661313
 10
339.6084339267
 20
287.3629106204
 10
342.2158109082
 20
290.0133431941
 10
344.9641064034
 20
292.5757314211
 10
347.848409236
 20
295.0454965011
 10
350.8636310015
 20
297.418278871
 10
354.0044439869
 20
299.6898758027
 10
357.2652842668
 20
301.8562488079
 10
360.6403899234
 20
303.9135520678
 10
364.1237625984
 20
305.8581099815
 10
367.7092319371
 20
307.6864585192
 10
371.3903982762
 20
309.3953164189
  0
LWPOLYLINE
  5
45D
100
AcDbEntity
  8
X48002258_BL7
100
AcDbPolyline
 62
7
  6
CONTINUOUS
 90
3
 70
0
 10
385.4258492905
 20
323.2333290213
 10
385.4226184976
 20
323.2330148343
 10
385.4127801031
 20
323.2336734445
  0
LWPOLYLINE
  5
45E
100
AcDbEntity
  8
X48002258_BL7
100
AcDbPolyline
 62
9
  6
CONTINUOUS
 90
5
 70
0
 10
353.153510156
 20
353.4203725358
 10
353.1596659857
 20
353.4692180656
 10
353.1779818979
 20
353.5168608563
 10
353.208006894
 20
353.5621277844
 10
353.2490016589
 20
353.6039042278
  0
LWPOLYLINE
  5
45F
100
AcDbEntity
  8
X48002258_BL7
100
AcDbPolyline
 62
9
  6
CONTINUOUS
 90
11
 70
0
 10
353.153510156
 20
342.485863236
 10
353.1596659854
 20
342.5347087646
 10
353.177981897
 20
342.5823515547
 10
353.2080068925
 20
342.6276184827
 10
353.2490016573
 20
342.6693949266
 10
353.2999567648
 20
342.7066522115
 10
353.3596175306
 20
342.738472939
 10
353.4265149078
 20
342.7640735766
 10
353.4990016609
 20
342.782823752
 10
353.575292925
 20
342.7942617738
 10
353.653510156
 20
342.7981060003
  0
LINE
  5
460
100
AcDbEntity
  8
X48002258_BL7
100
AcDbLine
 62
7
  6
CONTINUOUS
 10
353.153510156
 20
353.6081102566
 11
353.153510156
 21
342.485863236
  0
LINE
  5
461
100
AcDbEntity
  8
X48002258_BL7
100
AcDbLine
 62
9
  6
CONTINUOUS
 10
353.653510156
 20
354.1081297715
 11
353.653510156
 21
342.7981060002
  0
LWPOLYLINE
  5
462
100
AcDbEntity
  8
X48002258_BL7
100
AcDbPolyline
 62
9
  6
CONTINUOUS
 90
13
 70
0
 10
353.653510156
 20
342.7981060002
 10
353.6232888864
 20
342.1754243074
 10
353.5328496206
 20
341.5584183796
 10
353.3816438552
 20
340.9449052581
 10
353.1713171002
 20
340.3414338188
 10
352.9026629874
 20
339.7529156021
 10
352.5776886472
 20
339.1820796555
 10
352.197811284
 20
338.6323110998
 10
351.765594307
 20
338.1065532551
 10
351.282576513
 20
337.6077138176
 10
350.7532489432
 20
337.1392847794
 10
350.1832410674
 20
336.7062850177
 10
349.5706763958
 20
336.3070415735
  0
LWPOLYLINE
  5
463
100
AcDbEntity
  8
X48002258_BL7
100
AcDbPolyline
 62
7
  6
CONTINUOUS
 90
13
 70
0
 10
353.153510156
 20
342.485863236
 10
353.1244405942
 20
341.9003419423
 10
353.0375990154
 20
341.319159273
 10
352.8937210845
 20
340.7453965738
 10
352.6939596034
 20
340.1825195168
 10
352.4399205387
 20
339.6339944344
 10
352.1332897903
 20
339.1026136997
 10
351.7761540713
 20
338.5913605273
 10
351.3705613919
 20
338.1027138308
 10
350.9187932689
 20
337.6391694374
 10
350.4233652092
 20
337.2031738122
 10
349.8868226746
 20
336.7969416588
 10
349.3124617047
 20
336.4229636996
  0
LWPOLYLINE
  5
464
100
AcDbEntity
  8
X48002258_BL7
100
AcDbPolyline
 62
9
  6
CONTINUOUS
 90
15
 70
0
 10
385.4127801031
 20
323.2336734445
 10
384.9130612894
 20
322.0377200225
 10
384.3304366851
 20
320.8617437813
 10
383.6657603427
 20
319.7088826527
 10
382.9212266505
 20
318.583996894
 10
382.0993908327
 20
317.4914417499
 10
381.2029582477
 20
316.434989174
 10
380.2350738242
 20
315.4183111818
 10
379.1993302565
 20
314.4449431879
 10
378.105332496
 20
313.5226866814
 10
376.9403081012
 20
312.6409427622
 10
375.6897880651
 20
311.7928730444
 10
374.3563206658
 20
310.9857448862
 10
372.9370476166
 20
310.2233633757
 10
371.434530106
 20
309.5127708651
  0
LWPOLYLINE
  5
465
100
AcDbEntity
  8
X48002258_BL7
100
AcDbPolyline
 62
9
  6
CONTINUOUS
 90
11
 70
0
 10
371.434530106
 20
322.0961542654
 10
371.4314971246
 20
322.1491836477
 10
371.4224728625
 20
322.2092749757
 10
371.407679527
 20
322.2749486015
 10
371.3874813791
 20
322.3445874224
 10
371.3623757642
 20
322.4164766996
 10
371.3329808658
 20
322.4888462804
 10
371.3000204841
 20
322.5599141857
 10
371.2643062128
 20
322.6279304876
 10
371.226717456
 20
322.6912203991
 10
371.1881797735
 20
322.7482255125
  0
LINE
  5
466
100
AcDbEntity
  8
X48002258_BL7
100
AcDbLine
 62
9
  6
CONTINUOUS
 10
371.434530106
 20
309.5127708651
 11
371.434530106
 21
322.0961542654
  0
LWPOLYLINE
  5
467
100
AcDbEntity
  8
X48002258_BL7
100
AcDbPolyline
 62
9
  6
CONTINUOUS
 90
5
 70
0
 10
371.434530106
 20
309.5127708651
 10
371.4314971246
 20
309.4681091879
 10
371.4224728625
 20
309.4329149344
 10
371.407679527
 20
309.4080547041
 10
371.3903982762
 20
309.3953164189
  0
LWPOLYLINE
  5
468
100
AcDbEntity
  8
X48002258_BL7
100
AcDbPolyline
 62
7
  6
CONTINUOUS
 90
14
 70
0
 10
385.4258398133
 20
323.2333038212
 10
385.014245368
 20
322.2231915389
 10
384.4258654143
 20
320.9959834249
 10
383.7509811383
 20
319.7958282734
 10
382.9916409166
 20
318.62663867
 10
382.1501565185
 20
317.4921657821
 10
381.2291147782
 20
316.3960385145
 10
380.2313632338
 20
315.3417494279
 10
379.1600257528
 20
314.332670503
 10
378.0184743381
 20
313.3720189623
 10
376.8102953391
 20
312.4628319472
 10
375.5393117081
 20
311.6079874293
 10
374.2095116901
 20
310.810156163
 10
372.8251312902
 20
310.0718554289
  0
LINE
  5
469
100
AcDbEntity
  8
X48002258_BL7
100
AcDbLine
 62
9
  6
CONTINUOUS
 10
386.153510156
 20
353.7326153001
 11
353.653510156
 21
353.7326153001
  0
LINE
  5
46A
100
AcDbEntity
  8
X48002258_BL7
100
AcDbLine
 62
7
  6
CONTINUOUS
 10
353.653510156
 20
354.1081297715
 11
386.153510156
 21
354.1081297715
  0
LWPOLYLINE
  5
46B
100
AcDbEntity
  8
X48002258_BL7
100
AcDbPolyline
 62
7
  6
CONTINUOUS
 90
4
 70
0
 10
385.4258567833
 20
323.23338113
 10
385.4932529109
 20
323.9963329968
 10
385.6078638787
 20
325.1648835387
 10
385.7363146765
 20
326.3758154647
  0
LWPOLYLINE
  5
46C
100
AcDbEntity
  8
X48002258_BL7
100
AcDbPolyline
 62
7
  6
CONTINUOUS
 90
9
 70
0
 10
385.7363146765
 20
326.3758154647
 10
386.0152997278
 20
328.905781135
 10
386.155331372
 20
330.2157795232
 10
386.2884190356
 20
331.5498322529
 10
386.4089226341
 20
332.9035669952
 10
386.5112258664
 20
334.272562076
 10
386.5896975274
 20
335.6524787297
 10
386.638814785
 20
337.0387623424
 10
386.653508072
 20
338.2560669207
  0
LINE
  5
46D
100
AcDbEntity
  8
X48002258_BL7
100
AcDbLine
 62
7
  6
CONTINUOUS
 10
385.4258592469
 20
323.233387602
 11
385.4258492905
 21
323.2333290213
  0
LINE
  5
46E
100
AcDbEntity
  8
X48002258_BL7
100
AcDbLine
 62
9
  6
CONTINUOUS
 10
386.153510156
 20
342.7981060002
 11
386.153510156
 21
354.1081297715
  0
LINE
  5
46F
100
AcDbEntity
  8
X48002258_BL7
100
AcDbLine
 62
7
  6
CONTINUOUS
 10
386.653510156
 20
353.6081102566
 11
386.6535098813
 21
338.2560448264
  0
LWPOLYLINE
  5
470
100
AcDbEntity
  8
X48002258_BL7
100
AcDbPolyline
 62
9
  6
CONTINUOUS
 90
15
 70
0
 10
386.6535098813
 20
338.2560448264
 10
386.6363157525
 20
336.940032331
 10
386.5879874048
 20
335.6252486907
 10
386.5131076689
 20
334.3152775644
 10
386.4166002135
 20
333.0170844806
 10
386.3026514397
 20
331.725051697
 10
386.1785468884
 20
330.4740260435
 10
386.0532351924
 20
329.295585181
 10
385.9310799015
 20
328.1920391702
 10
385.8176244089
 20
327.1791020102
 10
385.714337543
 20
326.2477478922
 10
385.6226164075
 20
325.3984755006
 10
385.5423237419
 20
324.618992
 10
385.4715991941
 20
323.8960352235
 10
385.4127801031
 20
323.2336734445
  0
LWPOLYLINE
  5
471
100
AcDbEntity
  8
X48002258_BL7
100
AcDbPolyline
 62
9
  6
CONTINUOUS
 90
11
 70
0
 10
386.653510156
 20
342.485863236
 10
386.6473543263
 20
342.5347087658
 10
386.6290384142
 20
342.5823515565
 10
386.5990134181
 20
342.6276184846
 10
386.5580186532
 20
342.6693949279
 10
386.5070635466
 20
342.706652212
 10
386.4474027822
 20
342.7384729386
 10
386.3805054059
 20
342.7640735761
 10
386.3080186532
 20
342.7828237516
 10
386.2317273886
 20
342.7942617737
 10
386.153510156
 20
342.7981060002
  0
LWPOLYLINE
  5
472
100
AcDbEntity
  8
X48002258_BL7
100
AcDbPolyline
 62
9
  6
CONTINUOUS
 90
5
 70
0
 10
386.653510156
 20
353.4203725358
 10
386.6473543446
 20
353.4692179935
 10
386.6290384707
 20
353.5168607477
 10
386.5990135081
 20
353.5621276742
 10
386.5580187487
 20
353.6039041457
  0
LWPOLYLINE
  5
473
100
AcDbEntity
  8
X48002258_BL7
100
AcDbPolyline
 62
9
  6
CONTINUOUS
 90
7
 70
0
 10
386.5580187487
 20
353.6039041457
 10
386.5070635847
 20
353.641161488
 10
386.4474027328
 20
353.6729822609
 10
386.3805053
 20
353.6985829093
 10
386.3080185274
 20
353.717333077
 10
386.2317272981
 20
353.7287710842
 10
386.153510156
 20
353.7326153047
  0
LINE
  5
474
100
AcDbEntity
  8
X48002258_BL7
100
AcDbLine
 62
7
  6
CENTER
 10
484.6603621331
 20
142.3119771203
 11
484.6535364305
 21
54.1619583161
  0
ARC
  5
475
100
AcDbEntity
  8
X48002258_BL7
100
AcDbCircle
 62
7
  6
CONTINUOUS
 10
319.403510156
 20
16.4158335254
 40
0.5
100
AcDbArc
 50
270.0
 51
360.0
  0
ARC
  5
476
100
AcDbEntity
  8
X48002258_BL7
100
AcDbCircle
 62
7
  6
CONTINUOUS
 10
297.403510156
 20
16.4158335254
 40
0.5
100
AcDbArc
 50
180.0
 51
270.0
  0
ARC
  5
477
100
AcDbEntity
  8
X48002258_BL7
100
AcDbCircle
 62
7
  6
CONTINUOUS
 10
386.153510156
 20
353.6081297715
 40
0.5
100
AcDbArc
 50
0.0
 51
90.0
  0
ARC
  5
478
100
AcDbEntity
  8
X48002258_BL7
100
AcDbCircle
 62
7
  6
CONTINUOUS
 10
319.403510156
 20
216.9571367569
 40
0.5
100
AcDbArc
 50
270.0
 51
360.0
  0
ARC
  5
479
100
AcDbEntity
  8
X48002258_BL7
100
AcDbCircle
 62
7
  6
CONTINUOUS
 10
353.653510156
 20
353.6081297715
 40
0.5
100
AcDbArc
 50
90.0
 51
180.0
  0
ARC
  5
47A
100
AcDbEntity
  8
X48002258_BL7
100
AcDbCircle
 62
7
  6
CONTINUOUS
 10
297.403510156
 20
216.9571367569
 40
0.5
100
AcDbArc
 50
180.0
 51
270.0
  0
ARC
  5
47B
100
AcDbEntity
  8
X48002258_BL7
100
AcDbCircle
 62
7
  6
CONTINUOUS
 10
472.9404490976
 20
353.1081297715
 40
1.0
100
AcDbArc
 50
121.1444365776
 51
128.6444365725
  0
ARC
  5
47C
100
AcDbEntity
  8
X48002258_BL7
100
AcDbCircle
 62
7
  6
CONTINUOUS
 10
472.9404490976
 20
353.1081297715
 40
1.0
100
AcDbArc
 50
38.6444365725
 51
46.1444366206
  0
ARC
  5
47D
100
AcDbEntity
  8
X48002258_BL7
100
AcDbCircle
 62
7
  6
CONTINUOUS
 10
523.0169458497
 20
212.6179356267
 40
49.6225274725
100
AcDbArc
 50
21.1375422371
 51
38.6444365725
  0
ARC
  5
47E
100
AcDbEntity
  8
X48002258_BL7
100
AcDbCircle
 62
7
  6
CONTINUOUS
 10
559.6657719497
 20
226.7871367569
 40
10.33
100
AcDbArc
 50
263.0142110009
 51
21.1375422371
  0
ARC
  5
47F
100
AcDbEntity
  8
X48002258_BL7
100
AcDbCircle
 62
7
  6
CONTINUOUS
 10
561.7216058419
 20
243.5646376193
 40
27.2329875519
100
AcDbArc
 50
259.9537353765
 51
261.7204563175
  0
ARC
  5
480
100
AcDbEntity
  8
X48002258_BL7
100
AcDbCircle
 62
7
  6
CONTINUOUS
 10
561.7216058419
 20
243.5646376193
 40
27.2329875519
100
AcDbArc
 50
208.2485512582
 51
210.4371437388
  0
ENDBLK
  5
481
100
AcDbEntity
  8
0
  6
BYBLOCK
 62
0
100
AcDbBlockEnd
  0
BLOCK
  5
482
100
AcDbEntity
  8
X48002028_BL8
100
AcDbBlockBegin
  2
X48002028_BL8
 70
64
 10
289.5119949548
 20
135.7363589957
  3
X48002028_BL8
  1

  0
LINE
  5
483
100
AcDbEntity
  8
X48002028_BL8
100
AcDbLine
 62
7
  6
CONTINUOUS
 10
283.903510156
 20
19.7113798113
 11
296.903510156
 21
19.7113798113
  0
LINE
  5
484
100
AcDbEntity
  8
X48002028_BL8
100
AcDbLine
 62
9
  6
CONTINUOUS
 10
296.903510156
 20
20.2109824035
 11
283.903510156
 21
20.2109824035
  0
LINE
  5
485
100
AcDbEntity
  8
X48002028_BL8
100
AcDbLine
 62
9
  6
CONTINUOUS
 10
296.9324227113
 20
37.1011983649
 11
283.903510156
 21
37.1011983649
  0
LINE
  5
486
100
AcDbEntity
  8
X48002028_BL8
100
AcDbLine
 62
7
  6
CONTINUOUS
 10
283.903510156
 20
47.5431251345
 11
297.1204797535
 21
47.5431251345
  0
LWPOLYLINE
  5
487
100
AcDbEntity
  8
X48002028_BL8
100
AcDbPolyline
 62
9
  6
CONTINUOUS
 90
12
 70
0
 10
281.9206204282
 20
21.8188919349
 10
281.9716584854
 20
21.5816412304
 10
282.0557510561
 20
21.352580034
 10
282.1714592961
 20
21.135627647
 10
282.3168034083
 20
20.9344961863
 10
282.4892965167
 20
20.7526270688
 10
282.685987218
 20
20.5931321277
 10
282.9035100802
 20
20.4587403679
 10
283.1381432269
 20
20.3517512719
 10
283.3858720191
 20
20.2739954547
 10
283.6424577464
 20
20.2268033417
 10
283.903510156
 20
20.2109824035
  0
LINE
  5
488
100
AcDbEntity
  8
X48002028_BL8
100
AcDbLine
 62
9
  6
CONTINUOUS
 10
281.903510156
 20
22.0602727226
 11
281.9206204282
 21
21.8188919349
  0
LWPOLYLINE
  5
489
100
AcDbEntity
  8
X48002028_BL8
100
AcDbPolyline
 62
9
  6
CONTINUOUS
 90
13
 70
0
 10
281.903510156
 20
38.2511008595
 10
281.920620367
 20
38.1010087583
 10
281.9716582668
 20
37.9534847082
 10
282.0557506241
 20
37.8110528832
 10
282.1714586363
 20
37.6761503323
 10
282.3168025486
 20
37.5510852803
 10
282.4892955166
 20
37.4379976397
 10
282.6859861648
 20
37.3388223867
 10
282.9035090715
 20
37.2552564586
 10
283.1381423638
 20
37.1887297107
 10
283.3858713881
 20
37.1403804535
 10
283.6424574051
 20
37.1110359715
 10
283.903510156
 20
37.1011983645
  0
LWPOLYLINE
  5
48A
100
AcDbEntity
  8
X48002028_BL8
100
AcDbPolyline
 62
7
  6
CONTINUOUS
 90
5
 70
0
 10
281.903510156
 20
29.8184047021
 10
281.9092961309
 20
29.1458429371
 10
281.9122351183
 20
28.8372243631
 10
281.9138773702
 20
28.5501146258
 10
281.9122309495
 20
28.2865161843
  0
LINE
  5
48B
100
AcDbEntity
  8
X48002028_BL8
100
AcDbLine
 62
7
  6
CONTINUOUS
 10
281.903510156
 20
21.7114446526
 11
281.903510156
 21
27.6511260183
  0
LINE
  5
48C
100
AcDbEntity
  8
X48002028_BL8
100
AcDbLine
 62
7
  6
CONTINUOUS
 10
281.903510156
 20
27.6621425498
 11
281.903510156
 21
29.5680965373
  0
LINE
  5
48D
100
AcDbEntity
  8
X48002028_BL8
100
AcDbLine
 62
7
  6
CONTINUOUS
 10
281.903510156
 20
29.8184047021
 11
281.903510156
 21
45.5430602931
  0
LINE
  5
48E
100
AcDbEntity
  8
X48002028_BL8
100
AcDbLine
 62
9
  6
CONTINUOUS
 10
283.903510156
 20
19.7113798113
 11
283.903510156
 21
47.5431251345
  0
LWPOLYLINE
  5
48F
100
AcDbEntity
  8
X48002028_BL8
100
AcDbPolyline
 62
7
  6
CONTINUOUS
 90
3
 70
0
 10
281.9122309495
 20
28.2865161843
 10
281.9065487328
 20
27.8360691495
 10
281.903510156
 20
27.6511260183
  0
LINE
  5
490
100
AcDbEntity
  8
X48002028_BL8
100
AcDbLine
 62
7
  6
CONTINUOUS
 10
283.903510156
 20
220.2766353228
 11
296.903510156
 21
220.2766353228
  0
LINE
  5
491
100
AcDbEntity
  8
X48002028_BL8
100
AcDbLine
 62
9
  6
CONTINUOUS
 10
296.903510156
 20
229.4315368305
 11
283.903510156
 21
229.4315368305
  0
LINE
  5
492
100
AcDbEntity
  8
X48002028_BL8
100
AcDbLine
 62
9
  6
CONTINUOUS
 10
296.903510156
 20
250.5559224318
 11
283.903510156
 21
250.5559224318
  0
LINE
  5
493
100
AcDbEntity
  8
X48002028_BL8
100
AcDbLine
 62
7
  6
CONTINUOUS
 10
283.903510156
 20
251.7613381801
 11
296.903510156
 21
251.7613381801
  0
LINE
  5
494
100
AcDbEntity
  8
X48002028_BL8
100
AcDbLine
 62
7
  6
CONTINUOUS
 10
281.903510156
 20
241.2861186712
 11
281.9065537354
 21
241.0185146305
  0
LWPOLYLINE
  5
495
100
AcDbEntity
  8
X48002028_BL8
100
AcDbPolyline
 62
7
  6
CONTINUOUS
 90
5
 70
0
 10
281.9065537354
 20
241.0185146305
 10
281.9122351183
 20
240.412804079
 10
281.9138773702
 20
240.0776406271
 10
281.9122309495
 20
239.723920745
 10
281.903510156
 20
238.575529847
  0
LINE
  5
496
100
AcDbEntity
  8
X48002028_BL8
100
AcDbLine
 62
7
  6
CONTINUOUS
 10
281.903510156
 20
222.2767236272
 11
281.903510156
 21
238.575529847
  0
LINE
  5
497
100
AcDbEntity
  8
X48002028_BL8
100
AcDbLine
 62
7
  6
CONTINUOUS
 10
281.903510156
 20
238.601129971
 11
281.903510156
 21
241.0957232121
  0
LINE
  5
498
100
AcDbEntity
  8
X48002028_BL8
100
AcDbLine
 62
7
  6
CONTINUOUS
 10
281.903510156
 20
241.2861186712
 11
281.903510156
 21
249.7612498757
  0
LINE
  5
499
100
AcDbEntity
  8
X48002028_BL8
100
AcDbLine
 62
9
  6
CONTINUOUS
 10
283.903510156
 20
220.2766353228
 11
283.903510156
 21
251.7613381801
  0
LWPOLYLINE
  5
49A
100
AcDbEntity
  8
X48002028_BL8
100
AcDbPolyline
 62
9
  6
CONTINUOUS
 90
13
 70
0
 10
281.903510156
 20
248.9195470919
 10
281.920620367
 20
249.1331365247
 10
281.9716582668
 20
249.3430714768
 10
282.0557506241
 20
249.5457599076
 10
282.1714586363
 20
249.7377337603
 10
282.3168025486
 20
249.9157083025
 10
282.4892955166
 20
250.0766383189
 10
282.6859861648
 20
250.217770231
 10
282.9035090715
 20
250.336689202
 10
283.1381423638
 20
250.4313604682
 10
283.3858713881
 20
250.5001641505
 10
283.6424574051
 20
250.541922977
 10
283.903510156
 20
250.5559224315
  0
LWPOLYLINE
  5
49B
100
AcDbEntity
  8
X48002028_BL8
100
AcDbPolyline
 62
9
  6
CONTINUOUS
 90
13
 70
0
 10
281.903510156
 20
228.6698772505
 10
281.9206204282
 20
228.7692937605
 10
281.9716584854
 20
228.8670092301
 10
282.0557510561
 20
228.9613517208
 10
282.1714592961
 20
229.050707006
 10
282.3168034083
 20
229.1335461916
 10
282.4892965167
 20
229.2084518753
 10
282.685987218
 20
229.2741423992
 10
282.9035100802
 20
229.3294937792
 10
283.1381432269
 20
229.3735589371
 10
283.3858720191
 20
229.4055839049
 10
283.6424577464
 20
229.425020726
 10
283.903510156
 20
229.4315368305
  0
ARC
  5
49C
100
AcDbEntity
  8
X48002028_BL8
100
AcDbCircle
 62
7
  6
CONTINUOUS
 10
283.903510156
 20
45.5431251345
 40
2.0
100
AcDbArc
 50
90.0
 51
180.0
  0
ARC
  5
49D
100
AcDbEntity
  8
X48002028_BL8
100
AcDbCircle
 62
7
  6
CONTINUOUS
 10
283.903510156
 20
21.7113798113
 40
2.0
100
AcDbArc
 50
180.0
 51
270.0
  0
ARC
  5
49E
100
AcDbEntity
  8
X48002028_BL8
100
AcDbCircle
 62
7
  6
CONTINUOUS
 10
283.903510156
 20
249.7613381801
 40
2.0
100
AcDbArc
 50
90.0
 51
180.0
  0
ARC
  5
49F
100
AcDbEntity
  8
X48002028_BL8
100
AcDbCircle
 62
7
  6
CONTINUOUS
 10
283.903510156
 20
222.2766353228
 40
2.0
100
AcDbArc
 50
180.0
 51
270.0
  0
ENDBLK
  5
4A0
100
AcDbEntity
  8
0
  6
BYBLOCK
 62
0
100
AcDbBlockEnd
  0
BLOCK
  5
4A1
100
AcDbEntity
  8
X48002254_BL9
100
AcDbBlockBegin
  2
X48002254_BL9
 70
64
 10
369.903510156
 20
252.0718487593
  3
X48002254_BL9
  1

  0
LINE
  5
4A2
100
AcDbEntity
  8
X48002254_BL9
100
AcDbLine
 62
3
  6
CONTINUOUS
 10
352.753510156
 20
110.2234929632
 11
353.153510156
 21
110.2234929632
  0
LINE
  5
4A3
100
AcDbEntity
  8
X48002254_BL9
100
AcDbLine
 62
3
  6
CONTINUOUS
 10
386.653510156
 20
110.2234929632
 11
387.053510156
 21
110.2234929632
  0
LINE
  5
4A4
100
AcDbEntity
  8
X48002254_BL9
100
AcDbLine
 62
3
  6
CONTINUOUS
 10
352.753510156
 20
113.6970900726
 11
387.053510156
 21
113.6970900726
  0
LINE
  5
4A5
100
AcDbEntity
  8
X48002254_BL9
100
AcDbLine
 62
9
  6
CONTINUOUS
 10
352.753510156
 20
114.2234900756
 11
387.053510156
 21
114.2234900756
  0
LINE
  5
4A6
100
AcDbEntity
  8
X48002254_BL9
100
AcDbLine
 62
3
  6
CONTINUOUS
 10
352.753510156
 20
153.2234929632
 11
352.753510156
 21
110.2235659931
  0
LINE
  5
4A7
100
AcDbEntity
  8
X48002254_BL9
100
AcDbLine
 62
9
  6
CONTINUOUS
 10
352.753510156
 20
145.0242826083
 11
387.053510156
 21
145.0242826083
  0
LINE
  5
4A8
100
AcDbEntity
  8
X48002254_BL9
100
AcDbLine
 62
9
  6
CONTINUOUS
 10
352.753510156
 20
147.3224159377
 11
387.053510156
 21
147.3224159377
  0
LINE
  5
4A9
100
AcDbEntity
  8
X48002254_BL9
100
AcDbLine
 62
3
  6
CONTINUOUS
 10
352.753510156
 20
153.2234929632
 11
387.053510156
 21
153.2234929632
  0
LINE
  5
4AA
100
AcDbEntity
  8
X48002254_BL9
100
AcDbLine
 62
3
  6
CONTINUOUS
 10
387.053510156
 20
153.2234929632
 11
387.053510156
 21
110.2235659931
  0
LINE
  5
4AB
100
AcDbEntity
  8
X48002254_BL9
100
AcDbLine
 62
3
  6
CONTINUOUS
 10
352.753510156
 20
185.9202045554
 11
387.053510156
 21
185.9202045554
  0
LINE
  5
4AC
100
AcDbEntity
  8
X48002254_BL9
100
AcDbLine
 62
9
  6
CONTINUOUS
 10
352.753510156
 20
189.4202045554
 11
387.053510156
 21
189.4202045554
  0
LINE
  5
4AD
100
AcDbEntity
  8
X48002254_BL9
100
AcDbLine
 62
9
  6
CONTINUOUS
 10
353.0025744983
 20
298.9652724383
 11
387.053510156
 21
298.9652724383
  0
LINE
  5
4AE
100
AcDbEntity
  8
X48002254_BL9
100
AcDbLine
 62
9
  6
CONTINUOUS
 10
367.4737310865
 20
307.5663689033
 11
387.053510156
 21
307.5663689033
  0
LINE
  5
4AF
100
AcDbEntity
  8
X48002254_BL9
100
AcDbLine
 62
9
  6
CONTINUOUS
 10
384.3766345726
 20
320.9084356032
 11
387.053510156
 21
320.9084356032
  0
LINE
  5
4B0
100
AcDbEntity
  8
X48002254_BL9
100
AcDbLine
 62
3
  6
CONTINUOUS
 10
352.753510156
 20
393.9202045554
 11
352.753510156
 21
340.3503178314
  0
LINE
  5
4B1
100
AcDbEntity
  8
X48002254_BL9
100
AcDbLine
 62
3
  6
CONTINUOUS
 10
352.753510156
 20
298.7851363403
 11
352.753510156
 21
185.9202045554
  0
LINE
  5
4B2
100
AcDbEntity
  8
X48002254_BL9
100
AcDbLine
 62
9
  6
CONTINUOUS
 10
352.753510156
 20
351.594484076
 11
353.153510156
 21
351.594484076
  0
LINE
  5
4B3
100
AcDbEntity
  8
X48002254_BL9
100
AcDbLine
 62
9
  6
CONTINUOUS
 10
386.653510156
 20
351.594484076
 11
387.053510156
 21
351.594484076
  0
LINE
  5
4B4
100
AcDbEntity
  8
X48002254_BL9
100
AcDbLine
 62
9
  6
CONTINUOUS
 10
352.753510156
 20
352.9695901023
 11
353.153510156
 21
352.9695901023
  0
LINE
  5
4B5
100
AcDbEntity
  8
X48002254_BL9
100
AcDbLine
 62
9
  6
CONTINUOUS
 10
386.653510156
 20
352.9695901023
 11
387.053510156
 21
352.9695901023
  0
LINE
  5
4B6
100
AcDbEntity
  8
X48002254_BL9
100
AcDbLine
 62
9
  6
CONTINUOUS
 10
352.753510156
 20
356.1416122288
 11
387.053510156
 21
356.1416122288
  0
LINE
  5
4B7
100
AcDbEntity
  8
X48002254_BL9
100
AcDbLine
 62
3
  6
CONTINUOUS
 10
387.053510156
 20
393.9202045554
 11
387.053510156
 21
185.9202045554
  0
LINE
  5
4B8
100
AcDbEntity
  8
X48002254_BL9
100
AcDbLine
 62
9
  6
CONTINUOUS
 10
352.753510156
 20
392.8485673844
 11
387.053510156
 21
392.8485673844
  0
LINE
  5
4B9
100
AcDbEntity
  8
X48002254_BL9
100
AcDbLine
 62
3
  6
CONTINUOUS
 10
352.753510156
 20
393.9202045554
 11
387.053510156
 21
393.9202045554
  0
ENDBLK
  5
4BA
100
AcDbEntity
  8
0
  6
BYBLOCK
 62
0
100
AcDbBlockEnd
  0
BLOCK
  5
4BB
100
AcDbEntity
  8
X48002121_BL10
100
AcDbBlockBegin
  2
X48002121_BL10
 70
64
 10
63.5369962593
 20
286.3702045554
  3
X48002121_BL10
  1

  0
LINE
  5
4BC
100
AcDbEntity
  8
X48002121_BL10
100
AcDbLine
 62
7
  6
CENTER
 10
63.5452911649
 20
203.5202045554
 11
59.5127815381
 21
203.5202045554
  0
LINE
  5
4BD
100
AcDbEntity
  8
X48002121_BL10
100
AcDbLine
 62
7
  6
CENTER
 10
63.5452911649
 20
203.5202045554
 11
67.5612109804
 21
203.5202045554
  0
LINE
  5
4BE
100
AcDbEntity
  8
X48002121_BL10
100
AcDbLine
 62
7
  6
CENTER
 10
63.5452911649
 20
371.5202045554
 11
63.5452911649
 21
367.8202045554
  0
LINE
  5
4BF
100
AcDbEntity
  8
X48002121_BL10
100
AcDbLine
 62
7
  6
CENTER
 10
63.5452911649
 20
317.0202045554
 11
63.5452911649
 21
313.3202045554
  0
LINE
  5
4C0
100
AcDbEntity
  8
X48002121_BL10
100
AcDbLine
 62
7
  6
CENTER
 10
63.5452911649
 20
226.5202045554
 11
63.5452911649
 21
222.8202045554
  0
LINE
  5
4C1
100
AcDbEntity
  8
X48002121_BL10
100
AcDbLine
 62
7
  6
CENTER
 10
63.5452911649
 20
203.5202045554
 11
63.5452911649
 21
197.5202045554
  0
LINE
  5
4C2
100
AcDbEntity
  8
X48002121_BL10
100
AcDbLine
 62
7
  6
CENTER
 10
63.5452911649
 20
203.5202045554
 11
63.5452911649
 21
209.5202045554
  0
LINE
  5
4C3
100
AcDbEntity
  8
X48002121_BL10
100
AcDbLine
 62
7
  6
CENTER
 10
63.5452911649
 20
226.5202045554
 11
63.5452911649
 21
230.2202045554
  0
LINE
  5
4C4
100
AcDbEntity
  8
X48002121_BL10
100
AcDbLine
 62
7
  6
CENTER
 10
63.5452911649
 20
317.0202045554
 11
63.5452911649
 21
320.7202045554
  0
LINE
  5
4C5
100
AcDbEntity
  8
X48002121_BL10
100
AcDbLine
 62
7
  6
CENTER
 10
63.5452911649
 20
371.5202045554
 11
63.5452911649
 21
375.2202045554
  0
LINE
  5
4C6
100
AcDbEntity
  8
X48002121_BL10
100
AcDbLine
 62
7
  6
CENTER
 10
63.5452911649
 20
226.5202045554
 11
59.8452911649
 21
226.5202045554
  0
LINE
  5
4C7
100
AcDbEntity
  8
X48002121_BL10
100
AcDbLine
 62
7
  6
CENTER
 10
63.5452911649
 20
226.5202045554
 11
67.2452911649
 21
226.5202045554
  0
LINE
  5
4C8
100
AcDbEntity
  8
X48002121_BL10
100
AcDbLine
 62
7
  6
CENTER
 10
63.5452911649
 20
317.0202045554
 11
59.8452911649
 21
317.0202045554
  0
LINE
  5
4C9
100
AcDbEntity
  8
X48002121_BL10
100
AcDbLine
 62
7
  6
CENTER
 10
63.5452911649
 20
317.0202045554
 11
67.2452911649
 21
317.0202045554
  0
LINE
  5
4CA
100
AcDbEntity
  8
X48002121_BL10
100
AcDbLine
 62
7
  6
CENTER
 10
63.5452911649
 20
371.5202045554
 11
59.8452911649
 21
371.5202045554
  0
LINE
  5
4CB
100
AcDbEntity
  8
X48002121_BL10
100
AcDbLine
 62
7
  6
CENTER
 10
63.5452911649
 20
371.5202045554
 11
67.2452911649
 21
371.5202045554
  0
ENDBLK
  5
4CC
100
AcDbEntity
  8
0
  6
BYBLOCK
 62
0
100
AcDbBlockEnd
  0
BLOCK
  5
4CD
100
AcDbEntity
  8
X48002120_BL11
100
AcDbBlockBegin
  2
X48002120_BL11
 70
64
 10
369.903510156
 20
286.3702045554
  3
X48002120_BL11
  1

  0
LINE
  5
4CE
100
AcDbEntity
  8
X48002120_BL11
100
AcDbLine
 62
7
  6
CENTER
 10
369.903510156
 20
203.5202045554
 11
363.903510156
 21
203.5202045554
  0
LINE
  5
4CF
100
AcDbEntity
  8
X48002120_BL11
100
AcDbLine
 62
7
  6
CENTER
 10
369.903510156
 20
203.5202045554
 11
375.903510156
 21
203.5202045554
  0
LINE
  5
4D0
100
AcDbEntity
  8
X48002120_BL11
100
AcDbLine
 62
7
  6
CENTER
 10
369.903510156
 20
226.5202045554
 11
363.903510156
 21
226.5202045554
  0
LINE
  5
4D1
100
AcDbEntity
  8
X48002120_BL11
100
AcDbLine
 62
7
  6
CENTER
 10
369.903510156
 20
226.5202045554
 11
375.903510156
 21
226.5202045554
  0
LINE
  5
4D2
100
AcDbEntity
  8
X48002120_BL11
100
AcDbLine
 62
7
  6
CENTER
 10
369.903510156
 20
317.0202045554
 11
363.903510156
 21
317.0202045554
  0
LINE
  5
4D3
100
AcDbEntity
  8
X48002120_BL11
100
AcDbLine
 62
7
  6
CENTER
 10
369.903510156
 20
317.0202045554
 11
375.903510156
 21
317.0202045554
  0
LINE
  5
4D4
100
AcDbEntity
  8
X48002120_BL11
100
AcDbLine
 62
7
  6
CENTER
 10
369.903510156
 20
371.5202045554
 11
369.903510156
 21
367.8202045554
  0
LINE
  5
4D5
100
AcDbEntity
  8
X48002120_BL11
100
AcDbLine
 62
7
  6
CENTER
 10
369.903510156
 20
317.0202045554
 11
369.903510156
 21
311.0202045554
  0
LINE
  5
4D6
100
AcDbEntity
  8
X48002120_BL11
100
AcDbLine
 62
7
  6
CENTER
 10
369.903510156
 20
226.5202045554
 11
369.903510156
 21
220.5202045554
  0
LINE
  5
4D7
100
AcDbEntity
  8
X48002120_BL11
100
AcDbLine
 62
7
  6
CENTER
 10
369.903510156
 20
203.5202045554
 11
369.903510156
 21
197.5202045554
  0
LINE
  5
4D8
100
AcDbEntity
  8
X48002120_BL11
100
AcDbLine
 62
7
  6
CENTER
 10
369.903510156
 20
203.5202045554
 11
369.903510156
 21
209.5202045554
  0
LINE
  5
4D9
100
AcDbEntity
  8
X48002120_BL11
100
AcDbLine
 62
7
  6
CENTER
 10
369.903510156
 20
226.5202045554
 11
369.903510156
 21
232.5202045554
  0
LINE
  5
4DA
100
AcDbEntity
  8
X48002120_BL11
100
AcDbLine
 62
7
  6
CENTER
 10
369.903510156
 20
317.0202045554
 11
369.903510156
 21
323.0202045554
  0
LINE
  5
4DB
100
AcDbEntity
  8
X48002120_BL11
100
AcDbLine
 62
7
  6
CENTER
 10
369.903510156
 20
371.5202045554
 11
369.903510156
 21
375.2202045554
  0
LINE
  5
4DC
100
AcDbEntity
  8
X48002120_BL11
100
AcDbLine
 62
7
  6
CENTER
 10
369.903510156
 20
371.5202045554
 11
366.203510156
 21
371.5202045554
  0
LINE
  5
4DD
100
AcDbEntity
  8
X48002120_BL11
100
AcDbLine
 62
7
  6
CENTER
 10
369.903510156
 20
371.5202045554
 11
373.603510156
 21
371.5202045554
  0
ENDBLK
  5
4DE
100
AcDbEntity
  8
0
  6
BYBLOCK
 62
0
100
AcDbBlockEnd
  0
BLOCK
  5
4DF
100
AcDbEntity
  8
X48002260_BL12
100
AcDbBlockBegin
  2
X48002260_BL12
 70
64
 10
369.903510156
 20
289.9202045554
  3
X48002260_BL12
  1

  0
LINE
  5
4E0
100
AcDbEntity
  8
X48002260_BL12
100
AcDbLine
 62
7
  6
CENTER
 10
369.903510156
 20
182.9502045554
 11
369.903510156
 21
396.8902045554
  0
ENDBLK
  5
4E1
100
AcDbEntity
  8
0
  6
BYBLOCK
 62
0
100
AcDbBlockEnd
  0
BLOCK
  5
4E2
100
AcDbEntity
  8
X48002255_BL13
100
AcDbBlockBegin
  2
X48002255_BL13
 70
64
 10
452.3841971254
 20
289.9202045554
  3
X48002255_BL13
  1

  0
LINE
  5
4E3
100
AcDbEntity
  8
X48002255_BL13
100
AcDbLine
 62
7
  6
CONTINUOUS
 10
439.4381125119
 20
187.4202045554
 11
432.6881125119
 21
187.4202045554
  0
LINE
  5
4E4
100
AcDbEntity
  8
X48002255_BL13
100
AcDbLine
 62
7
  6
CONTINUOUS
 10
432.6881125119
 20
187.4202045554
 11
432.6881125119
 21
392.4202045554
  0
LINE
  5
4E5
100
AcDbEntity
  8
X48002255_BL13
100
AcDbLine
 62
7
  6
CONTINUOUS
 10
434.6381125119
 20
392.4202045554
 11
434.6381125119
 21
390.9202045554
  0
LINE
  5
4E6
100
AcDbEntity
  8
X48002255_BL13
100
AcDbLine
 62
7
  6
CONTINUOUS
 10
437.7381125119
 20
392.4202045554
 11
437.7381125119
 21
390.9202045554
  0
LINE
  5
4E7
100
AcDbEntity
  8
X48002255_BL13
100
AcDbLine
 62
7
  6
CONTINUOUS
 10
441.4381125119
 20
298.9652724383
 11
441.4381125119
 21
189.4202045554
  0
LINE
  5
4E8
100
AcDbEntity
  8
X48002255_BL13
100
AcDbLine
 62
7
  6
CONTINUOUS
 10
465.6309624171
 20
322.1781212718
 11
446.5765164539
 21
308.836054572
  0
LINE
  5
4E9
100
AcDbEntity
  8
X48002255_BL13
100
AcDbLine
 62
7
  6
CONTINUOUS
 10
439.928744288
 20
391.8129434919
 11
470.5194258395
 21
355.356388853
  0
LINE
  5
4EA
100
AcDbEntity
  8
X48002255_BL13
100
AcDbLine
 62
7
  6
CONTINUOUS
 10
437.7381125119
 20
390.9202045554
 11
434.6381125119
 21
390.9202045554
  0
LINE
  5
4EB
100
AcDbEntity
  8
X48002255_BL13
100
AcDbLine
 62
7
  6
CONTINUOUS
 10
432.6881125119
 20
392.4202045554
 11
434.6381125119
 21
392.4202045554
  0
LINE
  5
4EC
100
AcDbEntity
  8
X48002255_BL13
100
AcDbLine
 62
7
  6
CONTINUOUS
 10
437.7381125119
 20
392.4202045554
 11
438.6264687347
 21
392.4202045554
  0
ARC
  5
4ED
100
AcDbEntity
  8
X48002255_BL13
100
AcDbCircle
 62
7
  6
CONTINUOUS
 10
439.4381125119
 20
189.4202045554
 40
2.0
100
AcDbArc
 50
270.0
 51
360.0
  0
ARC
  5
4EE
100
AcDbEntity
  8
X48002255_BL13
100
AcDbCircle
 62
7
  6
CONTINUOUS
 10
454.1881125119
 20
338.5202045554
 40
19.95
100
AcDbArc
 50
305.0
 51
37.3251390605
  0
ARC
  5
4EF
100
AcDbEntity
  8
X48002255_BL13
100
AcDbCircle
 62
7
  6
CONTINUOUS
 10
453.4881125119
 20
298.9652724383
 40
12.05
100
AcDbArc
 50
125.0
 51
180.0
  0
ARC
  5
4F0
100
AcDbEntity
  8
X48002255_BL13
100
AcDbCircle
 62
7
  6
CONTINUOUS
 10
438.6264687347
 20
390.7202045554
 40
1.7
100
AcDbArc
 50
40.0
 51
90.0
  0
ARC
  5
4F1
100
AcDbEntity
  8
X48002255_BL13
100
AcDbCircle
 62
7
  6
CONTINUOUS
 10
472.0802817389
 20
352.1627952313
 40
2.55
100
AcDbArc
 50
130.7121895648
 51
217.3251390605
  0
ARC
  5
4F2
100
AcDbEntity
  8
X48002255_BL13
100
AcDbCircle
 62
7
  6
CONTINUOUS
 10
469.8299858406
 20
354.7778800043
 40
0.9
100
AcDbArc
 50
310.7121895648
 51
40.0
  0
ENDBLK
  5
4F3
100
AcDbEntity
  8
0
  6
BYBLOCK
 62
0
100
AcDbBlockEnd
  0
BLOCK
  5
4F4
100
AcDbEntity
  8
X48002256_BL14
100
AcDbBlockBegin
  2
X48002256_BL14
 70
64
 10
436.2136331173
 20
391.6702045554
  3
X48002256_BL14
  1

  0
LINE
  5
4F5
100
AcDbEntity
  8
X48002256_BL14
100
AcDbLine
 62
7
  6
CONTINUOUS
 10
434.6881125119
 20
390.9202045554
 11
434.6881125119
 21
392.4202045554
  0
LINE
  5
4F6
100
AcDbEntity
  8
X48002256_BL14
100
AcDbLine
 62
7
  6
CONTINUOUS
 10
437.6881125119
 20
390.9202045554
 11
437.6881125119
 21
392.4202045554
  0
LINE
  5
4F7
100
AcDbEntity
  8
X48002256_BL14
100
AcDbLine
 62
3
  6
CONTINUOUS
 10
437.6881125119
 20
390.9202045554
 11
434.6881125119
 21
390.9202045554
  0
LINE
  5
4F8
100
AcDbEntity
  8
X48002256_BL14
100
AcDbLine
 62
7
  6
CONTINUOUS
 10
437.6881125119
 20
392.4202045554
 11
434.6881125119
 21
392.4202045554
  0
ARC
  5
4F9
100
AcDbEntity
  8
X48002256_BL14
100
AcDbCircle
 62
7
  6
CONTINUOUS
 10
437.6881125119
 20
389.9202045554
 40
2.5
100
AcDbArc
 50
88.8301403329
 51
90.0
  0
ENDBLK
  5
4FA
100
AcDbEntity
  8
0
  6
BYBLOCK
 62
0
100
AcDbBlockEnd
  0
BLOCK
  5
4FB
100
AcDbEntity
  8
C9535200X_BL15
100
AcDbBlockBegin
  2
C9535200X_BL15
 70
64
 10
540.5324942667
 20
226.6539623049
  3
C9535200X_BL15
  1

  0
LINE
  5
4FC
100
AcDbEntity
  8
C9535200X_BL15
100
AcDbLine
 62
7
  6
CONTINUOUS
 10
542.4356156818
 20
224.3032790299
 11
541.7328547282
 21
224.3815544549
  0
LINE
  5
4FD
100
AcDbEntity
  8
C9535200X_BL15
100
AcDbLine
 62
7
  6
CONTINUOUS
 10
538.6104270855
 20
228.2867363476
 11
541.7328547282
 21
224.3815544549
  0
LINE
  5
4FE
100
AcDbEntity
  8
C9535200X_BL15
100
AcDbLine
 62
7
  6
CONTINUOUS
 10
538.6887025105
 20
228.9894973012
 11
542.4356156818
 21
224.3032790299
  0
LINE
  5
4FF
100
AcDbEntity
  8
C9535200X_BL15
100
AcDbLine
 62
4
  6
CONTINUOUS
 10
538.6887025105
 20
228.9894973012
 11
542.4356156818
 21
224.3032790299
  0
LINE
  5
500
100
AcDbEntity
  8
C9535200X_BL15
100
AcDbLine
 62
7
  6
CONTINUOUS
 10
538.6887025105
 20
228.9894973012
 11
538.6104270855
 21
228.2867363476
  0
LINE
  5
501
100
AcDbEntity
  8
C9535200X_BL15
100
AcDbLine
 62
7
  6
CONTINUOUS
 10
538.7076482766
 20
229.00464558
 11
538.6887025105
 21
228.9894973012
  0
LINE
  5
502
100
AcDbEntity
  8
C9535200X_BL15
100
AcDbLine
 62
2
  6
CONTINUOUS
 10
538.8602212969
 20
227.9743217962
 11
539.4361745954
 21
228.4348310759
  0
LINE
  5
503
100
AcDbEntity
  8
C9535200X_BL15
100
AcDbLine
 62
2
  6
CONTINUOUS
 10
541.4830605168
 20
224.6939690063
 11
542.0589799762
 21
225.1544512295
  0
LINE
  5
504
100
AcDbEntity
  8
C9535200X_BL15
100
AcDbLine
 62
7
  6
CONTINUOUS
 10
542.4545614479
 20
224.3184273086
 11
542.4356156818
 21
224.3032790299
  0
ENDBLK
  5
505
100
AcDbEntity
  8
0
  6
BYBLOCK
 62
0
100
AcDbBlockEnd
  0
BLOCK
  5
506
100
AcDbEntity
  8
X48002007_BL16
100
AcDbBlockBegin
  2
X48002007_BL16
 70
64
 10
473.6010193318
 20
336.2502394396
  3
X48002007_BL16
  1

  0
LINE
  5
507
100
AcDbEntity
  8
X48002007_BL16
100
AcDbLine
 62
7
  6
CONTINUOUS
 10
476.150565264
 20
340.7346977967
 11
475.6144838577
 21
340.193724173
  0
LINE
  5
508
100
AcDbEntity
  8
X48002007_BL16
100
AcDbLine
 62
7
  6
CONTINUOUS
 10
474.1780325155
 20
338.7441639408
 11
474.1263162649
 21
338.6919757336
  0
LINE
  5
509
100
AcDbEntity
  8
X48002007_BL16
100
AcDbLine
 62
7
  6
CONTINUOUS
 10
476.1485325993
 20
340.7561464464
 11
475.6075141352
 21
340.3021780527
  0
LINE
  5
50A
100
AcDbEntity
  8
X48002007_BL16
100
AcDbLine
 62
7
  6
CONTINUOUS
 10
474.1773397041
 20
339.102119215
 11
474.1213325224
 21
339.0551236095
  0
LINE
  5
50B
100
AcDbEntity
  8
X48002007_BL16
100
AcDbLine
 62
7
  6
CONTINUOUS
 10
471.0514733996
 20
327.8676869686
 11
471.0914568609
 21
327.8474411767
  0
LINE
  5
50C
100
AcDbEntity
  8
X48002007_BL16
100
AcDbLine
 62
7
  6
CONTINUOUS
 10
472.434194174
 20
327.1675405557
 11
472.9245380201
 21
326.9192529105
  0
LINE
  5
50D
100
AcDbEntity
  8
X48002007_BL16
100
AcDbLine
 62
7
  6
CONTINUOUS
 10
472.8320987103
 20
345.592978957
 11
472.9132113024
 21
345.526567496
  0
LINE
  5
50E
100
AcDbEntity
  8
X48002007_BL16
100
AcDbLine
 62
7
  6
CONTINUOUS
 10
475.018275784
 20
343.8030322937
 11
475.7584538525
 21
343.1970066978
  0
ARC
  5
50F
100
AcDbEntity
  8
X48002007_BL16
100
AcDbCircle
 62
7
  6
CONTINUOUS
 10
473.1504094836
 20
327.3653269873
 40
0.5
100
AcDbArc
 50
243.1444365725
 51
293.7012063514
  0
ENDBLK
  5
510
100
AcDbEntity
  8
0
  6
BYBLOCK
 62
0
100
AcDbBlockEnd
  0
BLOCK
  5
511
100
AcDbEntity
  8
C9535200X_BL17
100
AcDbBlockBegin
  2
C9535200X_BL17
 70
64
 10
473.60144859
 20
319.9659164122
  3
C9535200X_BL17
  1

  0
LINE
  5
512
100
AcDbEntity
  8
C9535200X_BL17
100
AcDbLine
 62
2
  6
CONTINUOUS
 10
471.9386485033
 20
321.2938500429
 11
472.3291666926
 21
321.6060928072
  0
LINE
  5
513
100
AcDbEntity
  8
C9535200X_BL17
100
AcDbLine
 62
7
  6
CONTINUOUS
 10
471.7671297169
 20
322.3090255479
 11
471.6888542919
 21
321.6062645943
  0
LINE
  5
514
100
AcDbEntity
  8
C9535200X_BL17
100
AcDbLine
 62
2
  6
CONTINUOUS
 10
474.5614877232
 20
318.0134972529
 11
474.9520059125
 21
318.3257400172
  0
LINE
  5
515
100
AcDbEntity
  8
C9535200X_BL17
100
AcDbLine
 62
7
  6
CONTINUOUS
 10
471.6888542919
 20
321.6062645943
 11
474.8112819346
 21
317.7010827015
  0
LINE
  5
516
100
AcDbEntity
  8
C9535200X_BL17
100
AcDbLine
 62
7
  6
CONTINUOUS
 10
475.5140428882
 20
317.6228072765
 11
474.8112819346
 21
317.7010827015
  0
ENDBLK
  5
517
100
AcDbEntity
  8
0
  6
BYBLOCK
 62
0
100
AcDbBlockEnd
  0
BLOCK
  5
518
100
AcDbEntity
  8
C9535200X_BL18
100
AcDbBlockBegin
  2
C9535200X_BL18
 70
64
 10
478.784678477
 20
313.4833144701
  3
C9535200X_BL18
  1

  0
LINE
  5
519
100
AcDbEntity
  8
C9535200X_BL18
100
AcDbLine
 62
2
  6
CONTINUOUS
 10
477.1218783903
 20
314.8112481008
 11
477.5123965795
 21
315.1234908651
  0
LINE
  5
51A
100
AcDbEntity
  8
C9535200X_BL18
100
AcDbLine
 62
7
  6
CONTINUOUS
 10
476.9503596038
 20
315.8264236058
 11
476.8720841788
 21
315.1236626523
  0
LINE
  5
51B
100
AcDbEntity
  8
C9535200X_BL18
100
AcDbLine
 62
2
  6
CONTINUOUS
 10
479.7447176102
 20
311.5308953109
 11
480.1352357995
 21
311.8431380752
  0
LINE
  5
51C
100
AcDbEntity
  8
C9535200X_BL18
100
AcDbLine
 62
7
  6
CONTINUOUS
 10
476.8720841788
 20
315.1236626523
 11
479.9945118216
 21
311.2184807595
  0
LINE
  5
51D
100
AcDbEntity
  8
C9535200X_BL18
100
AcDbLine
 62
7
  6
CONTINUOUS
 10
480.6972727751
 20
311.1402053345
 11
479.9945118216
 21
311.2184807595
  0
ENDBLK
  5
51E
100
AcDbEntity
  8
0
  6
BYBLOCK
 62
0
100
AcDbBlockEnd
  0
BLOCK
  5
51F
100
AcDbEntity
  8
B_7100_4210_BD01_BL19
100
AcDbBlockBegin
  2
B_7100_4210_BD01_BL19
 70
64
 10
484.6569329954
 20
98.0266385406
  3
B_7100_4210_BD01_BL19
  1

  0
LINE
  5
520
100
AcDbEntity
  8
B_7100_4210_BD01_BL19
100
AcDbLine
 62
7
  6
CENTER
 10
461.6479736134
 20
98.0284201887
 11
507.6658923774
 21
98.0248568925
  0
ENDBLK
  5
521
100
AcDbEntity
  8
0
  6
BYBLOCK
 62
0
100
AcDbBlockEnd
  0
BLOCK
  5
522
100
AcDbEntity
  8
0
100
AcDbBlockBegin
  2
_FILLED
 70
64
 10
0.0
 20
0.0
  3
_FILLED
  1

  0
SOLID
  5
523
100
AcDbEntity
  8
0
  6
BYBLOCK
 62
0
100
AcDbTrace
 10
0.0
 20
0.0
 11
-1.0
 21
0.125
 12
-1.0
 22
-0.125
 13
-1.0
 23
-0.125
  0
ENDBLK
  5
524
100
AcDbEntity
  8
0
  6
BYBLOCK
 62
0
100
AcDbBlockEnd
  0
BLOCK
  5
525
100
AcDbEntity
  8
0
100
AcDbBlockBegin
  2
XSEC_FILLED
 70
64
 10
0.0
 20
0.0
  3
XSEC_FILLED
  1

  0
SOLID
  5
526
100
AcDbEntity
  8
0
  6
BYBLOCK
 62
0
100
AcDbTrace
 10
0.0
 20
0.0
 11
-1.0
 21
0.15
 12
-1.0
 22
-0.15
 13
-1.0
 23
-0.15
  0
ENDBLK
  5
527
100
AcDbEntity
  8
0
  6
BYBLOCK
 62
0
100
AcDbBlockEnd
  0
BLOCK
  5
528
100
AcDbEntity
  8
0
100
AcDbBlockBegin
 62
2
  6
CONTINUOUS
  2
*D0
 70
65
 10
0.0
 20
0.0
  3
*D0
  1

  0
MTEXT
  5
529
100
AcDbEntity
  8
0
100
AcDbMText
 62
5
  6
CONTINUOUS
  7
TEXTSTYLE_2
 71
2
 72
1
 10
63.5452911649
 20
408.9202045554
 30
0.0
 11
1.0
 21
0.0
 31
0.0
 73
2
 44
0.9
  1
34
 40
4.0
 41
6.2388059701
  0
LINE
  5
52A
100
AcDbEntity
  8
0
100
AcDbLine
 62
2
  6
CONTINUOUS
 10
46.3952911649
 20
393.9202045554
 11
46.3952911649
 21
405.4202045554
  0
LINE
  5
52B
100
AcDbEntity
  8
0
100
AcDbLine
 62
2
  6
CONTINUOUS
 10
80.6952911649
 20
393.9202045554
 11
80.6952911649
 21
405.4202045554
  0
LINE
  5
52C
100
AcDbEntity
  8
0
100
AcDbLine
 62
2
  6
CONTINUOUS
 10
46.3952911649
 20
403.9202045554
 11
63.5452911649
 21
403.9202045554
  0
LINE
  5
52D
100
AcDbEntity
  8
0
100
AcDbLine
 62
2
  6
CONTINUOUS
 10
80.6952911649
 20
403.9202045554
 11
63.5452911649
 21
403.9202045554
  0
INSERT
  5
52E
100
AcDbEntity
  8
0
100
AcDbBlockReference
 62
2
  6
CONTINUOUS
  2
_FILLED
 10
46.3952911649
 20
403.9202045554
 41
3.5
 42
3.5
 43
3.5
 50
180.0
  0
INSERT
  5
52F
100
AcDbEntity
  8
0
100
AcDbBlockReference
 62
2
  6
CONTINUOUS
  2
_FILLED
 10
80.6952911649
 20
403.9202045554
 41
3.5
 42
3.5
 43
3.5
  0
ENDBLK
  5
530
100
AcDbEntity
  8
0
  6
BYBLOCK
 62
0
100
AcDbBlockEnd
  0
BLOCK
  5
531
100
AcDbEntity
  8
0
100
AcDbBlockBegin
 62
2
  6
CONTINUOUS
  2
*D1
 70
65
 10
0.0
 20
0.0
  3
*D1
  1

  0
MTEXT
  5
532
100
AcDbEntity
  8
0
100
AcDbMText
 62
5
  6
CONTINUOUS
  7
TEXTSTYLE_2
 71
2
 72
1
 10
31.3952911649
 20
289.9202045554
 30
0.0
 11
0.0
 21
1.0
 31
0.0
 73
2
 44
0.9
  1
208
 40
4.0
 41
9.3582089552
  0
LINE
  5
533
100
AcDbEntity
  8
0
100
AcDbLine
 62
2
  6
CONTINUOUS
 10
46.3952911649
 20
393.9202045554
 11
34.8952911649
 21
393.9202045554
  0
LINE
  5
534
100
AcDbEntity
  8
0
100
AcDbLine
 62
2
  6
CONTINUOUS
 10
46.3952911649
 20
185.9202045554
 11
34.8952911649
 21
185.9202045554
  0
LINE
  5
535
100
AcDbEntity
  8
0
100
AcDbLine
 62
2
  6
CONTINUOUS
 10
36.3952911649
 20
393.9202045554
 11
36.3952911649
 21
289.9202045554
  0
LINE
  5
536
100
AcDbEntity
  8
0
100
AcDbLine
 62
2
  6
CONTINUOUS
 10
36.3952911649
 20
185.9202045554
 11
36.3952911649
 21
289.9202045554
  0
INSERT
  5
537
100
AcDbEntity
  8
0
100
AcDbBlockReference
 62
2
  6
CONTINUOUS
  2
_FILLED
 10
36.3952911649
 20
393.9202045554
 41
3.5
 42
3.5
 43
3.5
 50
90.0
  0
INSERT
  5
538
100
AcDbEntity
  8
0
100
AcDbBlockReference
 62
2
  6
CONTINUOUS
  2
_FILLED
 10
36.3952911649
 20
185.9202045554
 41
3.5
 42
3.5
 43
3.5
 50
270.0
  0
ENDBLK
  5
539
100
AcDbEntity
  8
0
  6
BYBLOCK
 62
0
100
AcDbBlockEnd
  0
BLOCK
  5
53A
100
AcDbEntity
  8
0
100
AcDbBlockBegin
 62
2
  6
CONTINUOUS
  2
*D2
 70
65
 10
0.0
 20
0.0
  3
*D2
  1

  0
MTEXT
  5
53B
100
AcDbEntity
  8
0
100
AcDbMText
 62
5
  6
CONTINUOUS
  7
TEXTSTYLE_2
 71
2
 72
1
 10
79.9702911649
 20
180.9202045554
 30
0.0
 11
1.0
 21
0.0
 31
0.0
 73
2
 44
0.9
  1
67
 40
4.0
 41
6.2388059701
  0
LINE
  5
53C
100
AcDbEntity
  8
0
100
AcDbLine
 62
2
  6
CONTINUOUS
 10
46.3952911649
 20
189.4202045554
 11
46.3952911649
 21
174.4202045554
  0
LINE
  5
53D
100
AcDbEntity
  8
0
100
AcDbLine
 62
2
  6
CONTINUOUS
 10
113.5452911649
 20
216.9571367569
 11
113.5452911649
 21
174.4202045554
  0
LINE
  5
53E
100
AcDbEntity
  8
0
100
AcDbLine
 62
2
  6
CONTINUOUS
 10
46.3952911649
 20
175.9202045554
 11
79.9702911649
 21
175.9202045554
  0
LINE
  5
53F
100
AcDbEntity
  8
0
100
AcDbLine
 62
2
  6
CONTINUOUS
 10
113.5452911649
 20
175.9202045554
 11
79.9702911649
 21
175.9202045554
  0
INSERT
  5
540
100
AcDbEntity
  8
0
100
AcDbBlockReference
 62
2
  6
CONTINUOUS
  2
_FILLED
 10
46.3952911649
 20
175.9202045554
 41
3.5
 42
3.5
 43
3.5
 50
180.0
  0
INSERT
  5
541
100
AcDbEntity
  8
0
100
AcDbBlockReference
 62
2
  6
CONTINUOUS
  2
_FILLED
 10
113.5452911649
 20
175.9202045554
 41
3.5
 42
3.5
 43
3.5
  0
ENDBLK
  5
542
100
AcDbEntity
  8
0
  6
BYBLOCK
 62
0
100
AcDbBlockEnd
  0
BLOCK
  5
543
100
AcDbEntity
  8
0
100
AcDbBlockBegin
 62
2
  6
CONTINUOUS
  2
*D3
 70
65
 10
0.0
 20
0.0
  3
*D3
  1

  0
MTEXT
  5
544
100
AcDbEntity
  8
0
100
AcDbMText
 62
5
  6
CONTINUOUS
  7
TEXTSTYLE_2
 71
2
 72
1
 10
574.9819460107
 20
305.1886706561
 30
0.0
 11
0.0
 21
1.0
 31
0.0
 73
2
 44
0.9
  1
(177)
 40
4.0
 41
13.0895522388
  0
LINE
  5
545
100
AcDbEntity
  8
0
100
AcDbLine
 62
2
  6
CONTINUOUS
 10
438.5891895374
 20
393.9202045554
 11
581.4819460107
 21
393.9202045554
  0
LINE
  5
546
100
AcDbEntity
  8
0
100
AcDbLine
 62
2
  6
CONTINUOUS
 10
559.6657719497
 20
216.4571367569
 11
581.4819460107
 21
216.4571367569
  0
LINE
  5
547
100
AcDbEntity
  8
0
100
AcDbLine
 62
2
  6
CONTINUOUS
 10
579.9819460107
 20
393.9202045554
 11
579.9819460107
 21
305.1886706561
  0
LINE
  5
548
100
AcDbEntity
  8
0
100
AcDbLine
 62
2
  6
CONTINUOUS
 10
579.9819460107
 20
216.4571367569
 11
579.9819460107
 21
305.1886706561
  0
INSERT
  5
549
100
AcDbEntity
  8
0
100
AcDbBlockReference
 62
2
  6
CONTINUOUS
  2
_FILLED
 10
579.9819460107
 20
393.9202045554
 41
3.5
 42
3.5
 43
3.5
 50
90.0
  0
INSERT
  5
54A
100
AcDbEntity
  8
0
100
AcDbBlockReference
 62
2
  6
CONTINUOUS
  2
_FILLED
 10
579.9819460107
 20
216.4571367569
 41
3.5
 42
3.5
 43
3.5
 50
270.0
  0
ENDBLK
  5
54B
100
AcDbEntity
  8
0
  6
BYBLOCK
 62
0
100
AcDbBlockEnd
  0
BLOCK
  5
54C
100
AcDbEntity
  8
0
100
AcDbBlockBegin
 62
2
  6
CONTINUOUS
  2
*D4
 70
65
 10
0.0
 20
0.0
  3
*D4
  1

  0
MTEXT
  5
54D
100
AcDbEntity
  8
0
100
AcDbMText
 62
5
  6
CONTINUOUS
  7
TEXTSTYLE_2
 71
2
 72
1
 10
158.2965442068
 20
366.2202045554
 30
0.0
 11
0.0
 21
1.0
 31
0.0
 73
2
 44
0.9
  1
55
 40
4.0
 41
6.2388059701
  0
LINE
  5
54E
100
AcDbEntity
  8
0
100
AcDbLine
 62
2
  6
CONTINUOUS
 10
80.6952911649
 20
393.9202045554
 11
164.7965442068
 21
393.9202045554
  0
LINE
  5
54F
100
AcDbEntity
  8
0
100
AcDbLine
 62
2
  6
CONTINUOUS
 10
163.2965442068
 20
393.9202045554
 11
163.2965442068
 21
366.2202045554
  0
LINE
  5
550
100
AcDbEntity
  8
0
100
AcDbLine
 62
2
  6
CONTINUOUS
 10
163.2965442068
 20
338.5202045554
 11
163.2965442068
 21
366.2202045554
  0
INSERT
  5
551
100
AcDbEntity
  8
0
100
AcDbBlockReference
 62
2
  6
CONTINUOUS
  2
_FILLED
 10
163.2965442068
 20
393.9202045554
 41
3.5
 42
3.5
 43
3.5
 50
90.0
  0
INSERT
  5
552
100
AcDbEntity
  8
0
100
AcDbBlockReference
 62
2
  6
CONTINUOUS
  2
_FILLED
 10
163.2965442068
 20
338.5202045554
 41
3.5
 42
3.5
 43
3.5
 50
270.0
  0
ENDBLK
  5
553
100
AcDbEntity
  8
0
  6
BYBLOCK
 62
0
100
AcDbBlockEnd
  0
BLOCK
  5
554
100
AcDbEntity
  8
0
100
AcDbBlockBegin
 62
2
  6
CONTINUOUS
  2
*D5
 70
65
 10
0.0
 20
0.0
  3
*D5
  1

  0
MTEXT
  5
555
100
AcDbEntity
  8
0
100
AcDbMText
 62
5
  6
CONTINUOUS
  7
TEXTSTYLE_2
 71
2
 72
1
 10
158.2965442068
 20
270.6433277188
 30
0.0
 11
0.0
 21
1.0
 31
0.0
 73
2
 44
0.9
  1
122
 40
4.0
 41
9.3582089552
  0
LINE
  5
556
100
AcDbEntity
  8
0
100
AcDbLine
 62
2
  6
CONTINUOUS
 10
136.0452911649
 20
216.4571367569
 11
164.7965442068
 21
216.4571367569
  0
LINE
  5
557
100
AcDbEntity
  8
0
100
AcDbLine
 62
2
  6
CONTINUOUS
 10
163.2965442068
 20
338.5202045554
 11
163.2965442068
 21
277.4886706561
  0
LINE
  5
558
100
AcDbEntity
  8
0
100
AcDbLine
 62
2
  6
CONTINUOUS
 10
163.2965442068
 20
216.4571367569
 11
163.2965442068
 21
277.4886706561
  0
INSERT
  5
559
100
AcDbEntity
  8
0
100
AcDbBlockReference
 62
2
  6
CONTINUOUS
  2
_FILLED
 10
163.2965442068
 20
338.5202045554
 41
3.5
 42
3.5
 43
3.5
 50
90.0
  0
INSERT
  5
55A
100
AcDbEntity
  8
0
100
AcDbBlockReference
 62
2
  6
CONTINUOUS
  2
_FILLED
 10
163.2965442068
 20
216.4571367569
 41
3.5
 42
3.5
 43
3.5
 50
270.0
  0
ENDBLK
  5
55B
100
AcDbEntity
  8
0
  6
BYBLOCK
 62
0
100
AcDbBlockEnd
  0
BLOCK
  5
55C
100
AcDbEntity
  8
0
100
AcDbBlockBegin
 62
2
  6
CONTINUOUS
  2
*D6
 70
65
 10
0.0
 20
0.0
  3
*D6
  1

  0
MTEXT
  5
55D
100
AcDbEntity
  8
0
100
AcDbMText
 62
5
  6
CONTINUOUS
  7
TEXTSTYLE_2
 71
2
 72
1
 10
125.0452911649
 20
180.9202045554
 30
0.0
 11
1.0
 21
0.0
 31
0.0
 73
2
 44
0.9
  1
23
 40
4.0
 41
6.2388059701
  0
LINE
  5
55E
100
AcDbEntity
  8
0
100
AcDbLine
 62
2
  6
CONTINUOUS
 10
113.5452911649
 20
216.9571367569
 11
113.5452911649
 21
174.4202045554
  0
LINE
  5
55F
100
AcDbEntity
  8
0
100
AcDbLine
 62
2
  6
CONTINUOUS
 10
136.5452911649
 20
216.9571367569
 11
136.5452911649
 21
174.4202045554
  0
LINE
  5
560
100
AcDbEntity
  8
0
100
AcDbLine
 62
2
  6
CONTINUOUS
 10
113.5452911649
 20
175.9202045554
 11
125.0452911649
 21
175.9202045554
  0
LINE
  5
561
100
AcDbEntity
  8
0
100
AcDbLine
 62
2
  6
CONTINUOUS
 10
136.5452911649
 20
175.9202045554
 11
125.0452911649
 21
175.9202045554
  0
INSERT
  5
562
100
AcDbEntity
  8
0
100
AcDbBlockReference
 62
2
  6
CONTINUOUS
  2
_FILLED
 10
113.5452911649
 20
175.9202045554
 41
3.5
 42
3.5
 43
3.5
 50
180.0
  0
INSERT
  5
563
100
AcDbEntity
  8
0
100
AcDbBlockReference
 62
2
  6
CONTINUOUS
  2
_FILLED
 10
136.5452911649
 20
175.9202045554
 41
3.5
 42
3.5
 43
3.5
  0
ENDBLK
  5
564
100
AcDbEntity
  8
0
  6
BYBLOCK
 62
0
100
AcDbBlockEnd
  0
BLOCK
  5
565
100
AcDbEntity
  8
0
100
AcDbBlockBegin
 62
2
  6
CONTINUOUS
  2
*D7
 70
65
 10
0.0
 20
0.0
  3
*D7
  1

  0
MTEXT
  5
566
100
AcDbEntity
  8
0
100
AcDbMText
 62
5
  6
CONTINUOUS
  7
TEXTSTYLE_2
 71
2
 72
1
 10
501.3419422308
 20
408.9202045554
 30
0.0
 11
1.0
 21
0.0
 31
0.0
 73
2
 44
0.9
  1
137
 40
4.0
 41
9.3582089552
  0
LINE
  5
567
100
AcDbEntity
  8
0
100
AcDbLine
 62
2
  6
CONTINUOUS
 10
432.6881125119
 20
392.4202045554
 11
432.6881125119
 21
405.4202045554
  0
LINE
  5
568
100
AcDbEntity
  8
0
100
AcDbLine
 62
2
  6
CONTINUOUS
 10
569.9957719497
 20
226.7871367569
 11
569.9957719497
 21
405.4202045554
  0
LINE
  5
569
100
AcDbEntity
  8
0
100
AcDbLine
 62
2
  6
CONTINUOUS
 10
432.6881125119
 20
403.9202045554
 11
501.3419422308
 21
403.9202045554
  0
LINE
  5
56A
100
AcDbEntity
  8
0
100
AcDbLine
 62
2
  6
CONTINUOUS
 10
569.9957719497
 20
403.9202045554
 11
501.3419422308
 21
403.9202045554
  0
INSERT
  5
56B
100
AcDbEntity
  8
0
100
AcDbBlockReference
 62
2
  6
CONTINUOUS
  2
_FILLED
 10
432.6881125119
 20
403.9202045554
 41
3.5
 42
3.5
 43
3.5
 50
180.0
  0
INSERT
  5
56C
100
AcDbEntity
  8
0
100
AcDbBlockReference
 62
2
  6
CONTINUOUS
  2
_FILLED
 10
569.9957719497
 20
403.9202045554
 41
3.5
 42
3.5
 43
3.5
  0
ENDBLK
  5
56D
100
AcDbEntity
  8
0
  6
BYBLOCK
 62
0
100
AcDbBlockEnd
  0
BLOCK
  5
56E
100
AcDbEntity
  8
0
100
AcDbBlockBegin
 62
2
  6
CONTINUOUS
  2
*D8
 70
65
 10
0.0
 20
0.0
  3
*D8
  1

  0
MTEXT
  5
56F
100
AcDbEntity
  8
0
100
AcDbMText
 62
5
  6
CONTINUOUS
  7
TEXTSTYLE_2
 71
2
 72
1
 10
31.3952911649
 20
133.4602915179
 30
0.0
 11
0.0
 21
1.0
 31
0.0
 73
2
 44
0.9
  1
40
 40
4.0
 41
6.2388059701
  0
LINE
  5
570
100
AcDbEntity
  8
0
100
AcDbLine
 62
2
  6
CONTINUOUS
 10
46.3952911649
 20
153.2234929632
 11
34.8952911649
 21
153.2234929632
  0
LINE
  5
571
100
AcDbEntity
  8
0
100
AcDbLine
 62
2
  6
CONTINUOUS
 10
46.3952911649
 20
113.6970900726
 11
34.8952911649
 21
113.6970900726
  0
LINE
  5
572
100
AcDbEntity
  8
0
100
AcDbLine
 62
2
  6
CONTINUOUS
 10
36.3952911649
 20
153.2234929632
 11
36.3952911649
 21
133.4602915179
  0
LINE
  5
573
100
AcDbEntity
  8
0
100
AcDbLine
 62
2
  6
CONTINUOUS
 10
36.3952911649
 20
113.6970900726
 11
36.3952911649
 21
133.4602915179
  0
INSERT
  5
574
100
AcDbEntity
  8
0
100
AcDbBlockReference
 62
2
  6
CONTINUOUS
  2
_FILLED
 10
36.3952911649
 20
153.2234929632
 41
3.5
 42
3.5
 43
3.5
 50
90.0
  0
INSERT
  5
575
100
AcDbEntity
  8
0
100
AcDbBlockReference
 62
2
  6
CONTINUOUS
  2
_FILLED
 10
36.3952911649
 20
113.6970900726
 41
3.5
 42
3.5
 43
3.5
 50
270.0
  0
ENDBLK
  5
576
100
AcDbEntity
  8
0
  6
BYBLOCK
 62
0
100
AcDbBlockEnd
  0
BLOCK
  5
577
100
AcDbEntity
  8
0
100
AcDbBlockBegin
 62
2
  6
CONTINUOUS
  2
*D9
 70
65
 10
0.0
 20
0.0
  3
*D9
  1

  0
MTEXT
  5
578
100
AcDbEntity
  8
0
100
AcDbMText
 62
5
  6
CONTINUOUS
  7
TEXTSTYLE_2
 71
2
 72
1
 10
397.0620173268
 20
355.0202045554
 30
0.0
 11
0.0
 21
1.0
 31
0.0
 73
2
 44
0.9
  1
33
 40
4.0
 41
6.2388059701
  0
LINE
  5
579
100
AcDbEntity
  8
0
100
AcDbLine
 62
2
  6
CONTINUOUS
 10
390.053510156
 20
338.5202045554
 11
403.5620173268
 21
338.5202045554
  0
LINE
  5
57A
100
AcDbEntity
  8
0
100
AcDbLine
 62
2
  6
CONTINUOUS
 10
373.603510156
 20
371.5202045554
 11
403.5620173268
 21
371.5202045554
  0
LINE
  5
57B
100
AcDbEntity
  8
0
100
AcDbLine
 62
2
  6
CONTINUOUS
 10
402.0620173268
 20
338.5202045554
 11
402.0620173268
 21
355.0202045554
  0
LINE
  5
57C
100
AcDbEntity
  8
0
100
AcDbLine
 62
2
  6
CONTINUOUS
 10
402.0620173268
 20
371.5202045554
 11
402.0620173268
 21
355.0202045554
  0
INSERT
  5
57D
100
AcDbEntity
  8
0
100
AcDbBlockReference
 62
2
  6
CONTINUOUS
  2
_FILLED
 10
402.0620173268
 20
338.5202045554
 41
3.5
 42
3.5
 43
3.5
 50
270.0
  0
INSERT
  5
57E
100
AcDbEntity
  8
0
100
AcDbBlockReference
 62
2
  6
CONTINUOUS
  2
_FILLED
 10
402.0620173268
 20
371.5202045554
 41
3.5
 42
3.5
 43
3.5
 50
90.0
  0
ENDBLK
  5
57F
100
AcDbEntity
  8
0
  6
BYBLOCK
 62
0
100
AcDbBlockEnd
  0
BLOCK
  5
580
100
AcDbEntity
  8
0
100
AcDbBlockBegin
 62
2
  6
CONTINUOUS
  2
*D10
 70
65
 10
0.0
 20
0.0
  3
*D10
  1

  0
MTEXT
  5
581
100
AcDbEntity
  8
0
100
AcDbMText
 62
5
  6
CONTINUOUS
  7
TEXTSTYLE_2
 71
2
 72
1
 10
397.0620173268
 20
327.7702045554
 30
0.0
 11
0.0
 21
1.0
 31
0.0
 73
2
 44
0.9
  1
21.5
 40
4.0
 41
10.9104477612
  0
LINE
  5
582
100
AcDbEntity
  8
0
100
AcDbLine
 62
2
  6
CONTINUOUS
 10
390.053510156
 20
338.5202045554
 11
403.5620173268
 21
338.5202045554
  0
LINE
  5
583
100
AcDbEntity
  8
0
100
AcDbLine
 62
2
  6
CONTINUOUS
 10
373.603510156
 20
317.0202045554
 11
403.5620173268
 21
317.0202045554
  0
LINE
  5
584
100
AcDbEntity
  8
0
100
AcDbLine
 62
2
  6
CONTINUOUS
 10
402.0620173268
 20
338.5202045554
 11
402.0620173268
 21
327.7702045554
  0
LINE
  5
585
100
AcDbEntity
  8
0
100
AcDbLine
 62
2
  6
CONTINUOUS
 10
402.0620173268
 20
317.0202045554
 11
402.0620173268
 21
327.7702045554
  0
INSERT
  5
586
100
AcDbEntity
  8
0
100
AcDbBlockReference
 62
2
  6
CONTINUOUS
  2
_FILLED
 10
402.0620173268
 20
338.5202045554
 41
3.5
 42
3.5
 43
3.5
 50
90.0
  0
INSERT
  5
587
100
AcDbEntity
  8
0
100
AcDbBlockReference
 62
2
  6
CONTINUOUS
  2
_FILLED
 10
402.0620173268
 20
317.0202045554
 41
3.5
 42
3.5
 43
3.5
 50
270.0
  0
ENDBLK
  5
588
100
AcDbEntity
  8
0
  6
BYBLOCK
 62
0
100
AcDbBlockEnd
  0
BLOCK
  5
589
100
AcDbEntity
  8
0
100
AcDbBlockBegin
 62
2
  6
CONTINUOUS
  2
*D11
 70
65
 10
0.0
 20
0.0
  3
*D11
  1

  0
MTEXT
  5
58A
100
AcDbEntity
  8
0
100
AcDbMText
 62
5
  6
CONTINUOUS
  7
TEXTSTYLE_2
 71
2
 72
1
 10
407.0620173268
 20
282.5202045554
 30
0.0
 11
0.0
 21
1.0
 31
0.0
 73
2
 44
0.9
  1
112
 40
4.0
 41
9.3582089552
  0
LINE
  5
58B
100
AcDbEntity
  8
0
100
AcDbLine
 62
2
  6
CONTINUOUS
 10
390.053510156
 20
338.5202045554
 11
413.5620173268
 21
338.5202045554
  0
LINE
  5
58C
100
AcDbEntity
  8
0
100
AcDbLine
 62
2
  6
CONTINUOUS
 10
373.603510156
 20
226.5202045554
 11
413.5620173268
 21
226.5202045554
  0
LINE
  5
58D
100
AcDbEntity
  8
0
100
AcDbLine
 62
2
  6
CONTINUOUS
 10
412.0620173268
 20
338.5202045554
 11
412.0620173268
 21
282.5202045554
  0
LINE
  5
58E
100
AcDbEntity
  8
0
100
AcDbLine
 62
2
  6
CONTINUOUS
 10
412.0620173268
 20
226.5202045554
 11
412.0620173268
 21
282.5202045554
  0
INSERT
  5
58F
100
AcDbEntity
  8
0
100
AcDbBlockReference
 62
2
  6
CONTINUOUS
  2
_FILLED
 10
412.0620173268
 20
338.5202045554
 41
3.5
 42
3.5
 43
3.5
 50
90.0
  0
INSERT
  5
590
100
AcDbEntity
  8
0
100
AcDbBlockReference
 62
2
  6
CONTINUOUS
  2
_FILLED
 10
412.0620173268
 20
226.5202045554
 41
3.5
 42
3.5
 43
3.5
 50
270.0
  0
ENDBLK
  5
591
100
AcDbEntity
  8
0
  6
BYBLOCK
 62
0
100
AcDbBlockEnd
  0
BLOCK
  5
592
100
AcDbEntity
  8
0
100
AcDbBlockBegin
 62
2
  6
CONTINUOUS
  2
*D12
 70
65
 10
0.0
 20
0.0
  3
*D12
  1

  0
MTEXT
  5
593
100
AcDbEntity
  8
0
100
AcDbMText
 62
5
  6
CONTINUOUS
  7
TEXTSTYLE_2
 71
2
 72
1
 10
417.0620173268
 20
271.0202045554
 30
0.0
 11
0.0
 21
1.0
 31
0.0
 73
2
 44
0.9
  1
135
 40
4.0
 41
9.3582089552
  0
LINE
  5
594
100
AcDbEntity
  8
0
100
AcDbLine
 62
2
  6
CONTINUOUS
 10
390.053510156
 20
338.5202045554
 11
423.5620173268
 21
338.5202045554
  0
LINE
  5
595
100
AcDbEntity
  8
0
100
AcDbLine
 62
2
  6
CONTINUOUS
 10
373.603510156
 20
203.5202045554
 11
423.5620173268
 21
203.5202045554
  0
LINE
  5
596
100
AcDbEntity
  8
0
100
AcDbLine
 62
2
  6
CONTINUOUS
 10
422.0620173268
 20
338.5202045554
 11
422.0620173268
 21
271.0202045554
  0
LINE
  5
597
100
AcDbEntity
  8
0
100
AcDbLine
 62
2
  6
CONTINUOUS
 10
422.0620173268
 20
203.5202045554
 11
422.0620173268
 21
271.0202045554
  0
INSERT
  5
598
100
AcDbEntity
  8
0
100
AcDbBlockReference
 62
2
  6
CONTINUOUS
  2
_FILLED
 10
422.0620173268
 20
338.5202045554
 41
3.5
 42
3.5
 43
3.5
 50
90.0
  0
INSERT
  5
599
100
AcDbEntity
  8
0
100
AcDbBlockReference
 62
2
  6
CONTINUOUS
  2
_FILLED
 10
422.0620173268
 20
203.5202045554
 41
3.5
 42
3.5
 43
3.5
 50
270.0
  0
ENDBLK
  5
59A
100
AcDbEntity
  8
0
  6
BYBLOCK
 62
0
100
AcDbBlockEnd
  0
BLOCK
  5
59B
100
AcDbEntity
  8
0
100
AcDbBlockBegin
 62
2
  6
CONTINUOUS
  2
*D13
 70
65
 10
0.0
 20
0.0
  3
*D13
  1

  0
MTEXT
  5
59C
100
AcDbEntity
  8
0
100
AcDbMText
 62
5
  6
CONTINUOUS
  7
TEXTSTYLE_2
 71
2
 72
1
 10
437.8381125119
 20
180.9202045554
 30
0.0
 11
1.0
 21
0.0
 31
0.0
 73
2
 44
0.9
  1
10
 40
4.0
 41
6.2388059701
  0
LINE
  5
59D
100
AcDbEntity
  8
0
100
AcDbLine
 62
2
  6
CONTINUOUS
 10
432.6881125119
 20
187.4202045554
 11
432.6881125119
 21
174.4202045554
  0
LINE
  5
59E
100
AcDbEntity
  8
0
100
AcDbLine
 62
2
  6
CONTINUOUS
 10
442.9881125119
 20
189.4202045554
 11
442.9881125119
 21
174.4202045554
  0
LINE
  5
59F
100
AcDbEntity
  8
0
100
AcDbLine
 62
2
  6
CONTINUOUS
 10
432.6881125119
 20
175.9202045554
 11
426.6881125119
 21
175.9202045554
  0
LINE
  5
5A0
100
AcDbEntity
  8
0
100
AcDbLine
 62
2
  6
CONTINUOUS
 10
426.6881125119
 20
175.9202045554
 11
437.8381125119
 21
175.9202045554
  0
LINE
  5
5A1
100
AcDbEntity
  8
0
100
AcDbLine
 62
2
  6
CONTINUOUS
 10
442.9881125119
 20
175.9202045554
 11
448.9881125119
 21
175.9202045554
  0
LINE
  5
5A2
100
AcDbEntity
  8
0
100
AcDbLine
 62
2
  6
CONTINUOUS
 10
448.9881125119
 20
175.9202045554
 11
437.8381125119
 21
175.9202045554
  0
INSERT
  5
5A3
100
AcDbEntity
  8
0
100
AcDbBlockReference
 62
2
  6
CONTINUOUS
  2
_FILLED
 10
432.6881125119
 20
175.9202045554
 41
3.5
 42
3.5
 43
3.5
  0
INSERT
  5
5A4
100
AcDbEntity
  8
0
100
AcDbBlockReference
 62
2
  6
CONTINUOUS
  2
_FILLED
 10
442.9881125119
 20
175.9202045554
 41
3.5
 42
3.5
 43
3.5
 50
180.0
  0
ENDBLK
  5
5A5
100
AcDbEntity
  8
0
  6
BYBLOCK
 62
0
100
AcDbBlockEnd
  0
BLOCK
  5
5A6
100
AcDbEntity
  8
0
100
AcDbBlockBegin
 62
2
  6
CONTINUOUS
  2
*D14
 70
65
 10
0.0
 20
0.0
  3
*D14
  1

  0
MTEXT
  5
5A7
100
AcDbEntity
  8
0
100
AcDbMText
 62
5
  6
CONTINUOUS
  7
TEXTSTYLE_2
 71
2
 72
1
 10
484.6569329954
 20
48.6966386735
 30
0.0
 11
1.0
 21
0.0
 31
0.0
 73
2
 44
0.9
  1
20
 40
4.0
 41
6.2388059701
  0
LINE
  5
5A8
100
AcDbEntity
  8
0
100
AcDbLine
 62
2
  6
CONTINUOUS
 10
464.6724261552
 20
98.0204427171
 11
464.6724261552
 21
42.1966386735
  0
LINE
  5
5A9
100
AcDbEntity
  8
0
100
AcDbLine
 62
2
  6
CONTINUOUS
 10
504.6414398356
 20
98.0328343641
 11
504.6414398356
 21
42.1966386735
  0
LINE
  5
5AA
100
AcDbEntity
  8
0
100
AcDbLine
 62
2
  6
CONTINUOUS
 10
464.6724261552
 20
43.6966386735
 11
484.6569329954
 21
43.6966386735
  0
LINE
  5
5AB
100
AcDbEntity
  8
0
100
AcDbLine
 62
2
  6
CONTINUOUS
 10
504.6414398356
 20
43.6966386735
 11
484.6569329954
 21
43.6966386735
  0
INSERT
  5
5AC
100
AcDbEntity
  8
0
100
AcDbBlockReference
 62
2
  6
CONTINUOUS
  2
_FILLED
 10
464.6724261552
 20
43.6966386735
 41
3.5
 42
3.5
 43
3.5
 50
180.0
  0
INSERT
  5
5AD
100
AcDbEntity
  8
0
100
AcDbBlockReference
 62
2
  6
CONTINUOUS
  2
_FILLED
 10
504.6414398356
 20
43.6966386735
 41
3.5
 42
3.5
 43
3.5
  0
ENDBLK
  5
5AE
100
AcDbEntity
  8
0
  6
BYBLOCK
 62
0
100
AcDbBlockEnd
  0
BLOCK
  5
5AF
100
AcDbEntity
  8
0
100
AcDbBlockBegin
 62
2
  6
CONTINUOUS
  2
*D15
 70
65
 10
0.0
 20
0.0
  3
*D15
  1

  0
MTEXT
  5
5B0
100
AcDbEntity
  8
0
100
AcDbMText
 62
5
  6
CONTINUOUS
  7
TEXTSTYLE_2
 71
2
 72
1
 10
445.3569307453
 20
98.0266385406
 30
0.0
 11
0.0
 21
1.0
 31
0.0
 73
2
 44
0.9
  1
40
 40
4.0
 41
6.2388059701
  0
LINE
  5
5B1
100
AcDbEntity
  8
0
100
AcDbLine
 62
2
  6
CONTINUOUS
 10
484.6587374893
 20
137.9906384708
 11
448.8569307453
 21
137.9906384708
  0
LINE
  5
5B2
100
AcDbEntity
  8
0
100
AcDbLine
 62
2
  6
CONTINUOUS
 10
484.6551285015
 20
58.0626386105
 11
448.8569307453
 21
58.0626386105
  0
LINE
  5
5B3
100
AcDbEntity
  8
0
100
AcDbLine
 62
2
  6
CONTINUOUS
 10
450.3569307453
 20
137.9906384708
 11
450.3569307453
 21
98.0266385406
  0
LINE
  5
5B4
100
AcDbEntity
  8
0
100
AcDbLine
 62
2
  6
CONTINUOUS
 10
450.3569307453
 20
58.0626386105
 11
450.3569307453
 21
98.0266385406
  0
INSERT
  5
5B5
100
AcDbEntity
  8
0
100
AcDbBlockReference
 62
2
  6
CONTINUOUS
  2
_FILLED
 10
450.3569307453
 20
137.9906384708
 41
3.5
 42
3.5
 43
3.5
 50
90.0
  0
INSERT
  5
5B6
100
AcDbEntity
  8
0
100
AcDbBlockReference
 62
2
  6
CONTINUOUS
  2
_FILLED
 10
450.3569307453
 20
58.0626386105
 41
3.5
 42
3.5
 43
3.5
 50
270.0
  0
ENDBLK
  5
5B7
100
AcDbEntity
  8
0
  6
BYBLOCK
 62
0
100
AcDbBlockEnd
  0
BLOCK
  5
5B8
100
AcDbEntity
  8
0
100
AcDbBlockBegin
 62
2
  6
CONTINUOUS
  2
*D16
 70
65
 10
0.0
 20
0.0
  3
*D16
  1

  0
MTEXT
  5
5B9
100
AcDbEntity
  8
0
100
AcDbMText
 62
5
  6
CONTINUOUS
  7
TEXTSTYLE_2
 71
1
 72
1
 10
508.3177749236
 20
124.3620344888
 30
0.0
 11
0.979679727
 21
0.2005682741
 31
0.0
 73
2
 44
0.9
  1
1.5
 40
4.0
 41
7.7910447761
  0
LINE
  5
5BA
100
AcDbEntity
  8
0
100
AcDbLine
 62
2
  6
CONTINUOUS
 10
499.6703733519
 20
117.487956948
 11
493.79229499
 21
116.2845473037
  0
LINE
  5
5BB
100
AcDbEntity
  8
0
100
AcDbLine
 62
2
  6
CONTINUOUS
 10
493.79229499
 20
116.2845473037
 11
501.1398929423
 21
117.7888093591
  0
LINE
  5
5BC
100
AcDbEntity
  8
0
100
AcDbLine
 62
2
  6
CONTINUOUS
 10
502.6094125328
 20
118.0896617702
 11
516.953344913
 21
121.0262722578
  0
LINE
  5
5BD
100
AcDbEntity
  8
0
100
AcDbLine
 62
2
  6
CONTINUOUS
 10
516.953344913
 20
121.0262722578
 11
501.1398929423
 21
117.7888093591
  0
INSERT
  5
5BE
100
AcDbEntity
  8
0
100
AcDbBlockReference
 62
2
  6
CONTINUOUS
  2
_FILLED
 10
499.6703733519
 20
117.487956948
 41
3.5
 42
3.5
 43
3.5
 50
11.5701921121
  0
INSERT
  5
5BF
100
AcDbEntity
  8
0
100
AcDbBlockReference
 62
2
  6
CONTINUOUS
  2
_FILLED
 10
502.6094125328
 20
118.0896617702
 41
3.5
 42
3.5
 43
3.5
 50
191.5701921121
  0
ENDBLK
  5
5C0
100
AcDbEntity
  8
0
  6
BYBLOCK
 62
0
100
AcDbBlockEnd
  0
BLOCK
  5
5C1
100
AcDbEntity
  8
0
100
AcDbBlockBegin
 62
2
  6
CONTINUOUS
  2
*D17
 70
65
 10
0.0
 20
0.0
  3
*D17
  1

  0
MTEXT
  5
5C2
100
AcDbEntity
  8
0
100
AcDbMText
 62
5
  6
CONTINUOUS
  7
TEXTSTYLE_2
 71
2
 72
1
 10
476.0493992971
 20
267.4262898553
 30
0.0
 11
0.9397424003
 21
0.3418833443
 31
0.0
 73
2
 44
0.9
  1
(39\fSymbol_ASME;°\fArial Unicode MS;)
 40
4.0
 41
12.1679514515
  0
ARC
  5
5C3
100
AcDbEntity
  8
0
100
AcDbCircle
 62
2
  6
CONTINUOUS
 10
442.9881125119
 20
358.3025888069
 40
94.7034145987
100
AcDbArc
 50
270.0
 51
289.3222182863
  0
ARC
  5
5C4
100
AcDbEntity
  8
0
100
AcDbCircle
 62
2
  6
CONTINUOUS
 10
442.9881125119
 20
358.3025888069
 40
94.7034145987
100
AcDbArc
 50
289.3222182863
 51
308.6444365725
  0
SOLID
  5
5C5
100
AcDbEntity
  8
0
100
AcDbTrace
 62
2
  6
CONTINUOUS
 10
446.4794309773
 20
264.1012714328
 11
442.9881125119
 21
263.5991742083
 12
446.4955989567
 22
263.226420819
 13
446.4955989567
 23
263.226420819
  0
SOLID
  5
5C6
100
AcDbEntity
  8
0
100
AcDbTrace
 62
2
  6
CONTINUOUS
 10
499.6223290196
 20
281.854268348
 11
502.129024433
 21
284.3357768317
 12
499.0886252518
 22
282.5476551724
 13
499.0886252518
 23
282.5476551724
  0
ENDBLK
  5
5C7
100
AcDbEntity
  8
0
  6
BYBLOCK
 62
0
100
AcDbBlockEnd
  0
BLOCK
  5
5C8
100
AcDbEntity
  8
0
100
AcDbBlockBegin
  2
*T1
 70
1
 10
0.0
 20
0.0
  3
*T1
  1

  0
LINE
  5
5C9
100
AcDbEntity
  8
0
100
AcDbLine
 62
2
  6
CONTINUOUS
 10
0.0
 20
0.0
 11
42.0
 21
0.0
  0
LINE
  5
5CA
100
AcDbEntity
  8
0
100
AcDbLine
 62
2
  6
CONTINUOUS
 10
0.0
 20
0.0
 11
0.0
 21
-50.0
  0
LINE
  5
5CB
100
AcDbEntity
  8
0
100
AcDbLine
 62
2
  6
CONTINUOUS
 10
0.0
 20
-20.0
 11
42.0
 21
-20.0
  0
LINE
  5
5CC
100
AcDbEntity
  8
0
100
AcDbLine
 62
2
  6
CONTINUOUS
 10
0.0
 20
-32.0
 11
42.0
 21
-32.0
  0
LINE
  5
5CD
100
AcDbEntity
  8
0
100
AcDbLine
 62
2
  6
CONTINUOUS
 10
0.0
 20
-41.0
 11
42.0
 21
-41.0
  0
LINE
  5
5CE
100
AcDbEntity
  8
0
100
AcDbLine
 62
2
  6
CONTINUOUS
 10
0.0
 20
-50.0
 11
42.0
 21
-50.0
  0
LINE
  5
5CF
100
AcDbEntity
  8
0
100
AcDbLine
 62
2
  6
CONTINUOUS
 10
11.0
 20
-41.0
 11
11.0
 21
-50.0
  0
LINE
  5
5D0
100
AcDbEntity
  8
0
100
AcDbLine
 62
2
  6
CONTINUOUS
 10
33.0
 20
-41.0
 11
33.0
 21
-50.0
  0
LINE
  5
5D1
100
AcDbEntity
  8
0
100
AcDbLine
 62
2
  6
CONTINUOUS
 10
42.0
 20
0.0
 11
42.0
 21
-50.0
  0
MTEXT
  5
5D2
100
AcDbEntity
  8
0
100
AcDbMText
 62
5
  6
CONTINUOUS
  7
TEXTSTYLE_4
 71
2
 72
1
 10
21.0
 20
-24.5
 30
0.0
 11
1.0
 21
0.0
 31
0.0
 73
2
 44
0.9
  1
B-74000-00-0_BD01
 40
3.0
 41
76.6567164179
  0
MTEXT
  5
5D3
100
AcDbEntity
  8
0
100
AcDbMText
 62
5
  6
CONTINUOUS
  7
TEXTSTYLE_4
 71
1
 72
1
 10
1.4
 20
-33.75
 30
0.0
 11
1.0
 21
0.0
 31
0.0
 73
2
 44
0.9
  1
Scale\P1:1 
 40
2.5
 41
17.5186567164
  0
MTEXT
  5
5D4
100
AcDbEntity
  8
0
100
AcDbMText
 62
5
  6
CONTINUOUS
  7
TEXTSTYLE_4
 71
2
 72
1
 10
5.5
 20
-44.25
 30
0.0
 11
1.0
 21
0.0
 31
0.0
 73
2
 44
0.9
  1
Draft
 40
2.5
 41
15.1679104478
  0
MTEXT
  5
5D5
100
AcDbEntity
  8
0
100
AcDbMText
 62
5
  6
CONTINUOUS
  7
TEXTSTYLE_4
 71
2
 72
1
 10
22.0
 20
-44.25
 30
0.0
 11
1.0
 21
0.0
 31
0.0
 73
2
 44
0.9
  1
07.11.2018
 40
2.5
 41
35.0746268657
  0
MTEXT
  5
5D6
100
AcDbEntity
  8
0
100
AcDbMText
 62
5
  6
CONTINUOUS
  7
TEXTSTYLE_4
 71
2
 72
1
 10
37.5
 20
-44.5
 30
0.0
 11
1.0
 21
0.0
 31
0.0
 73
2
 44
0.9
  1
EB-RT
 40
2.0
 41
16.7910447761
  0
ENDBLK
  5
5D7
100
AcDbEntity
  8
0
  6
BYBLOCK
 62
0
100
AcDbBlockEnd
  0
ENDSEC
  0
SECTION
  2
ENTITIES
  0
INSERT
  5
5D8
100
AcDbEntity
  8
Grp_symbol_75_BL1
100
AcDbBlockReference
  2
GRP_SYMBOL_75_BL1
 10
46.9666526624
 20
45.1364008621
  0
DIMENSION
  5
5D9
100
AcDbEntity
  8
0
100
AcDbDimension
 62
2
  6
CONTINUOUS
  2
*D0
 10
80.6952911649
 20
403.9202045554
 11
63.5345249634
 21
403.9202045554
 70
160
 71
2
 42
34.3
  3
DIMSTYLE_1
100
AcDbAlignedDimension
 13
46.3952911649
 23
393.9202045554
 14
80.6952911649
 24
393.9202045554
100
AcDbRotatedDimension
  0
DIMENSION
  5
5DA
100
AcDbEntity
  8
0
100
AcDbDimension
 62
2
  6
CONTINUOUS
  2
*D1
 10
36.3952911649
 20
185.9202045554
 11
36.3952911649
 21
289.8837425944
 70
160
 71
2
 42
208.0
  3
DIMSTYLE_2
100
AcDbAlignedDimension
 13
46.3952911649
 23
393.9202045554
 14
46.3952911649
 24
185.9202045554
 50
270.0
100
AcDbRotatedDimension
  0
DIMENSION
  5
5DB
100
AcDbEntity
  8
0
100
AcDbDimension
 62
2
  6
CONTINUOUS
  2
*D2
 10
113.5452911649
 20
175.9202045554
 11
79.9595231781
 21
175.9202045554
 70
160
 71
2
 42
67.15
  3
DIMSTYLE_1
100
AcDbAlignedDimension
 13
46.3952911649
 23
189.4202045554
 14
113.5452911649
 24
216.9571367569
100
AcDbRotatedDimension
  0
DIMENSION
  5
5DC
100
AcDbEntity
  8
0
100
AcDbDimension
 62
2
  6
CONTINUOUS
  2
*D3
 10
579.9819460107
 20
216.4571367569
 11
579.9819460107
 21
305.1886706561
 70
160
 71
2
 42
177.4630677985
  1
(<>)
  3
DIMSTYLE_3
100
AcDbAlignedDimension
 13
438.5891895374
 23
393.9202045554
 14
559.6657719497
 24
216.4571367569
 50
270.0
100
AcDbRotatedDimension
  0
DIMENSION
  5
5DD
100
AcDbEntity
  8
0
100
AcDbDimension
 62
2
  6
CONTINUOUS
  2
*D4
 10
163.2965442068
 20
338.5202045554
 11
163.2965442068
 21
366.2243658535
 70
160
 71
2
 42
55.4
  3
DIMSTYLE_1
100
AcDbAlignedDimension
 13
80.6952911649
 23
393.9202045554
 14
43.3952911649
 24
338.5202045554
 50
270.0
100
AcDbRotatedDimension
  0
DIMENSION
  5
5DE
100
AcDbEntity
  8
0
100
AcDbDimension
 62
2
  6
CONTINUOUS
  2
*D5
 10
163.2965442068
 20
216.4571367569
 11
163.2965442068
 21
270.8083536254
 70
160
 71
2
 42
122.0630677985
  3
DIMSTYLE_3
100
AcDbAlignedDimension
 13
43.3952911649
 23
338.5202045554
 14
136.0452911649
 24
216.4571367569
 50
270.0
100
AcDbRotatedDimension
  0
DIMENSION
  5
5DF
100
AcDbEntity
  8
0
100
AcDbDimension
 62
2
  6
CONTINUOUS
  2
*D6
 10
136.5452911649
 20
175.9202045554
 11
125.0121382141
 21
175.9202045554
 70
160
 71
2
 42
23.0
  3
DIMSTYLE_4
100
AcDbAlignedDimension
 13
113.5452911649
 23
216.9571367569
 14
136.5452911649
 24
216.9571367569
100
AcDbRotatedDimension
  0
DIMENSION
  5
5E0
100
AcDbEntity
  8
0
100
AcDbDimension
 62
2
  6
CONTINUOUS
  2
*D7
 10
569.9957719497
 20
403.9202045554
 11
501.5218969116
 21
403.9202045554
 70
160
 71
2
 42
137.3076594378
  3
DIMSTYLE_3
100
AcDbAlignedDimension
 13
432.6881125119
 23
392.4202045554
 14
569.9957719497
 24
226.7871367569
100
AcDbRotatedDimension
  0
DIMENSION
  5
5E1
100
AcDbEntity
  8
0
100
AcDbDimension
 62
2
  6
CONTINUOUS
  2
*D8
 10
36.3952911649
 20
113.6970900726
 11
36.3952911649
 21
133.3748962342
 70
160
 71
2
 42
39.5264028906
  3
DIMSTYLE_1
100
AcDbAlignedDimension
 13
46.3952911649
 23
153.2234929632
 14
46.3952911649
 24
113.6970900726
 50
270.0
100
AcDbRotatedDimension
  0
DIMENSION
  5
5E2
100
AcDbEntity
  8
0
100
AcDbDimension
 62
2
  6
CONTINUOUS
  2
*D9
 10
402.0620173268
 20
371.5202045554
 11
402.0620173268
 21
355.0243512601
 70
160
 71
2
 42
33.0
  3
DIMSTYLE_5
100
AcDbAlignedDimension
 13
390.053510156
 23
338.5202045554
 14
373.603510156
 24
371.5202045554
 50
90.0
100
AcDbRotatedDimension
  0
DIMENSION
  5
5E3
100
AcDbEntity
  8
0
100
AcDbDimension
 62
2
  6
CONTINUOUS
  2
*D10
 10
402.0620173268
 20
317.0202045554
 11
402.0620173268
 21
327.7426006771
 70
160
 71
2
 42
21.5
  3
DIMSTYLE_4
100
AcDbAlignedDimension
 13
390.053510156
 23
338.5202045554
 14
373.603510156
 24
317.0202045554
 50
270.0
100
AcDbRotatedDimension
  0
DIMENSION
  5
5E4
100
AcDbEntity
  8
0
100
AcDbDimension
 62
2
  6
CONTINUOUS
  2
*D11
 10
412.0620173268
 20
226.5202045554
 11
412.0620173268
 21
282.6852370478
 70
160
 71
2
 42
112.0
  3
DIMSTYLE_5
100
AcDbAlignedDimension
 13
390.053510156
 23
338.5202045554
 14
373.603510156
 24
226.5202045554
 50
270.0
100
AcDbRotatedDimension
  0
DIMENSION
  5
5E5
100
AcDbEntity
  8
0
100
AcDbDimension
 62
2
  6
CONTINUOUS
  2
*D12
 10
422.0620173268
 20
203.5202045554
 11
422.0620173268
 21
271.2150778682
 70
160
 71
2
 42
135.0
  3
DIMSTYLE_2
100
AcDbAlignedDimension
 13
390.053510156
 23
338.5202045554
 14
373.603510156
 24
203.5202045554
 50
270.0
100
AcDbRotatedDimension
  0
DIMENSION
  5
5E6
100
AcDbEntity
  8
0
100
AcDbDimension
 62
2
  6
CONTINUOUS
  2
*D13
 10
442.9881125119
 20
175.9202045554
 11
438.0213790283
 21
175.9202045554
 70
160
 71
2
 42
10.3
  3
DIMSTYLE_6
100
AcDbAlignedDimension
 13
432.6881125119
 23
187.4202045554
 14
442.9881125119
 24
189.4202045554
100
AcDbRotatedDimension
  0
DIMENSION
  5
5E7
100
AcDbEntity
  8
0
100
AcDbDimension
 62
2
  6
CONTINUOUS
  2
*D14
 10
504.6414398356
 20
43.6966386735
 11
484.6163175659
 21
43.6966386735
 70
160
 71
2
 42
19.9845068402
  3
DIMSTYLE_7
100
AcDbAlignedDimension
 13
464.6724261552
 23
98.0204427171
 14
504.6414398356
 24
98.0328343641
100
AcDbRotatedDimension
  0
DIMENSION
  5
5E8
100
AcDbEntity
  8
0
100
AcDbDimension
 62
2
  6
CONTINUOUS
  2
*D15
 10
450.3569307453
 20
58.0626386105
 11
450.3569307453
 21
97.941252259
 70
160
 71
2
 42
39.9639999301
  3
DIMSTYLE_8
100
AcDbAlignedDimension
 13
484.6587374893
 23
137.9906384708
 14
484.6551285015
 24
58.0626386105
 50
270.0
100
AcDbRotatedDimension
  0
DIMENSION
  5
5E9
100
AcDbEntity
  8
0
100
AcDbDimension
 62
2
  6
CONTINUOUS
  2
*D16
 10
502.6094125328
 20
118.0896617702
 11
513.3325027344
 21
120.2849829911
 70
160
 71
1
 42
1.5
  3
DIMSTYLE_9
100
AcDbAlignedDimension
 13
499.6703733519
 23
117.487956948
 14
502.6094125328
 24
118.0896617702
 50
11.5701921121
100
AcDbRotatedDimension
  0
DIMENSION
  5
5EA
100
AcDbEntity
  8
0
100
AcDbDimension
 62
2
  6
CONTINUOUS
  2
*D17
 10
502.129024433
 20
284.3357768317
 11
475.3656326086
 21
269.3057746559
 70
162
 71
2
 42
0.6744726558
  1
(<>)
  3
DIMSTYLE_10
100
AcDb2LineAngularDimension
 13
442.9881125119
 23
264.5462083542
 14
442.9881125119
 24
263.5991742083
 15
501.5376153138
 25
285.0754449514
 16
474.3236121538
 26
268.9335606213
1001
ACAD
1000
DSTYLE
1002
{
1070
77
1070
2
1002
}
  0
ACAD_TABLE
  5
5EB
100
AcDbEntity
  8
0
 62
2
  6
CONTINUOUS
100
AcDbBlockReference
  2
*T1
 10
25.0000035102
 20
54.999995862
 30
0.0
100
AcDbTable
342
       737
343
259
 11
1.0
 21
0.0
 31
0.0
 90
22
 91
4
 92
3
 93
0
 94
0
 95
0
 96
0
141
20.0
141
12.0
141
9.0
141
9.0
142
11.0
142
22.0
142
9.0
171
1
172
0
173
0
174
0
175
3
176
1
 91
57
178
0
145
0.0
  7
TEXTSTYLE_4
301
CELL_VALUE
 90
4
  1
 
304
ACVALUE_END
170
1
140
4.0
 64
5
171
1
172
0
173
1
174
0
175
1
176
1
 91
1
178
0
145
0.0
170
1
171
1
172
0
173
1
174
0
175
1
176
1
 91
1
178
0
145
0.0
170
1
171
1
172
0
173
0
174
0
175
3
176
1
 91
57
178
0
145
0.0
  7
TEXTSTYLE_4
301
CELL_VALUE
 90
4
  1
B-74000-00-0_BD01
304
ACVALUE_END
170
5
140
3.0
 64
5
171
1
172
0
173
1
174
0
175
1
176
1
 91
1
178
0
145
0.0
170
1
171
1
172
0
173
1
174
0
175
1
176
1
 91
1
178
0
145
0.0
170
1
171
1
172
0
173
0
174
0
175
3
176
1
 91
57
178
0
145
0.0
  7
TEXTSTYLE_4
301
CELL_VALUE
 90
4
  1
Scale\P1:1 
304
ACVALUE_END
170
1
140
2.5
 64
5
171
1
172
0
173
1
174
0
175
1
176
1
 91
1
178
0
145
0.0
170
1
171
1
172
0
173
1
174
0
175
1
176
1
 91
1
178
0
145
0.0
170
1
171
1
172
0
173
0
174
0
175
1
176
1
 91
57
178
0
145
0.0
  7
TEXTSTYLE_4
301
CELL_VALUE
 90
4
  1
Draft
304
ACVALUE_END
170
5
140
2.5
 64
5
171
1
172
0
173
0
174
0
175
1
176
1
 91
57
178
0
145
0.0
  7
TEXTSTYLE_4
301
CELL_VALUE
 90
4
  1
07.11.2018
304
ACVALUE_END
170
5
140
2.5
 64
5
171
1
172
0
173
0
174
0
175
1
176
1
 91
57
178
0
145
0.0
  7
TEXTSTYLE_4
301
CELL_VALUE
 90
4
  1
EB-RT
304
ACVALUE_END
170
5
140
2.0
 64
5
  0
MTEXT
  5
5EC
100
AcDbEntity
  8
0
100
AcDbMText
 62
5
  6
CONTINUOUS
  7
TEXTSTYLE_2
 71
1
 72
1
 10
516.7968921724
 20
103.0708362479
 30
0.0
 11
1.0
 21
0.0
 31
0.0
 73
2
 44
0.9
  1
Griffrohr\Pkein Lieferumfang
 40
4.0
 41
44.5373134328
  0
MTEXT
  5
5ED
100
AcDbEntity
  8
0
100
AcDbMText
 62
5
  6
CONTINUOUS
  7
TEXTSTYLE_2
 71
1
 72
1
 10
480.0035602347
 20
37.3088645953
 30
0.0
 11
1.0
 21
0.0
 31
0.0
 73
2
 44
0.9
  1
A-A\P2:1
 40
4.0
 41
9.3432835821
  0
LINE
  5
5EE
100
AcDbEntity
  8
0
100
AcDbLine
 62
5
  6
CONTINUOUS
 10
25.0
 20
415.0
 11
25.0
 21
5.0
  0
LINE
  5
5EF
100
AcDbEntity
  8
0
100
AcDbLine
 62
5
  6
CONTINUOUS
 10
25.0
 20
5.0
 11
589.0
 21
5.0
  0
LINE
  5
5F0
100
AcDbEntity
  8
0
100
AcDbLine
 62
5
  6
CONTINUOUS
 10
25.0
 20
415.0
 11
589.0
 21
415.0
  0
LINE
  5
5F1
100
AcDbEntity
  8
0
100
AcDbLine
 62
5
  6
CONTINUOUS
 10
589.0
 20
415.0
 11
589.0
 21
5.0
  0
LINE
  5
5F2
100
AcDbEntity
  8
0
100
AcDbLine
 62
2
  6
CONTINUOUS
 10
214.702134085
 20
33.3195832504
 11
214.7146448708
 21
33.3221718487
  0
LINE
  5
5F3
100
AcDbEntity
  8
0
100
AcDbLine
 62
2
  6
CONTINUOUS
 10
207.0882351722
 20
33.3221718487
 11
207.100745958
 21
33.324760447
  0
LINE
  5
5F4
100
AcDbEntity
  8
0
100
AcDbLine
 62
2
  6
CONTINUOUS
 10
214.5621166769
 20
33.3221718487
 11
214.5843413731
 21
33.3228127876
  0
LINE
  5
5F5
100
AcDbEntity
  8
0
100
AcDbLine
 62
2
  6
CONTINUOUS
 10
207.21853867
 20
33.3215309098
 11
207.2407633661
 21
33.3221718487
  0
LINE
  5
5F6
100
AcDbEntity
  8
0
100
AcDbLine
 62
2
  6
CONTINUOUS
 10
214.5843413731
 20
33.3228127876
 11
214.6089449861
 21
33.3229767488
  0
LINE
  5
5F7
100
AcDbEntity
  8
0
100
AcDbLine
 62
2
  6
CONTINUOUS
 10
207.193935057
 20
33.3213669487
 11
207.21853867
 21
33.3215309098
  0
LINE
  5
5F8
100
AcDbEntity
  8
0
100
AcDbLine
 62
2
  6
CONTINUOUS
 10
212.1977909116
 20
33.3069085589
 11
214.5621166769
 21
33.3221718487
  0
LINE
  5
5F9
100
AcDbEntity
  8
0
100
AcDbLine
 62
2
  6
CONTINUOUS
 10
207.2407633661
 20
33.3221718487
 11
209.6050891314
 21
33.3374351385
  0
LINE
  5
5FA
100
AcDbEntity
  8
0
100
AcDbLine
 62
2
  6
CONTINUOUS
 10
209.6050891314
 20
33.3374351385
 11
212.1977909116
 21
33.3069085589
  0
LINE
  5
5FB
100
AcDbEntity
  8
0
100
AcDbLine
 62
2
  6
CONTINUOUS
 10
207.1644992692
 20
33.3221718487
 11
207.193935057
 21
33.3213669487
  0
LINE
  5
5FC
100
AcDbEntity
  8
0
100
AcDbLine
 62
2
  6
CONTINUOUS
 10
214.6089449861
 20
33.3229767488
 11
214.6383807739
 21
33.3221718487
  0
LINE
  5
5FD
100
AcDbEntity
  8
0
100
AcDbLine
 62
2
  6
CONTINUOUS
 10
207.100745958
 20
33.324760447
 11
207.1302065262
 21
33.3239505785
  0
LINE
  5
5FE
100
AcDbEntity
  8
0
100
AcDbLine
 62
2
  6
CONTINUOUS
 10
214.6726735168
 20
33.320393119
 11
214.702134085
 21
33.3195832504
  0
LINE
  5
5FF
100
AcDbEntity
  8
0
100
AcDbLine
 62
2
  6
CONTINUOUS
 10
207.1302065262
 20
33.3239505785
 11
207.1644992692
 21
33.3221718487
  0
LINE
  5
600
100
AcDbEntity
  8
0
100
AcDbLine
 62
2
  6
CONTINUOUS
 10
214.6383807739
 20
33.3221718487
 11
214.6726735168
 21
33.320393119
  0
LINE
  5
601
100
AcDbEntity
  8
0
100
AcDbLine
 62
2
  6
CONTINUOUS
 10
210.8550468453
 20
31.8133567229
 11
210.8251759245
 21
31.8235502165
  0
LINE
  5
602
100
AcDbEntity
  8
0
100
AcDbLine
 62
2
  6
CONTINUOUS
 10
210.9777041185
 20
34.8207934809
 11
210.9478331977
 21
34.8309869746
  0
LINE
  5
603
100
AcDbEntity
  8
0
100
AcDbLine
 62
2
  6
CONTINUOUS
 10
207.1644992692
 20
33.2915877338
 11
207.130213877
 21
33.3035603956
  0
LINE
  5
604
100
AcDbEntity
  8
0
100
AcDbLine
 62
2
  6
CONTINUOUS
 10
210.8824999543
 20
31.8031616552
 11
210.8550468453
 21
31.8133567229
  0
LINE
  5
605
100
AcDbEntity
  8
0
100
AcDbLine
 62
2
  6
CONTINUOUS
 10
210.8251759245
 20
31.8235502165
 11
210.7977566159
 21
31.8337419355
  0
LINE
  5
606
100
AcDbEntity
  8
0
100
AcDbLine
 62
2
  6
CONTINUOUS
 10
207.130213877
 20
33.3035603956
 11
207.1007518387
 21
33.3145651237
  0
LINE
  5
607
100
AcDbEntity
  8
0
100
AcDbLine
 62
2
  6
CONTINUOUS
 10
207.1939188851
 20
33.2805898292
 11
207.1644992692
 21
33.2915877338
  0
LINE
  5
608
100
AcDbEntity
  8
0
100
AcDbLine
 62
2
  6
CONTINUOUS
 10
214.672666166
 20
33.3407833019
 11
214.6383807739
 21
33.3527559637
  0
LINE
  5
609
100
AcDbEntity
  8
0
100
AcDbLine
 62
2
  6
CONTINUOUS
 10
210.9478331977
 20
34.8309869746
 11
210.9203800887
 21
34.8411820422
  0
LINE
  5
60A
100
AcDbEntity
  8
0
100
AcDbLine
 62
2
  6
CONTINUOUS
 10
211.0051234271
 20
34.8106017619
 11
210.9777041185
 21
34.8207934809
  0
LINE
  5
60B
100
AcDbEntity
  8
0
100
AcDbLine
 62
2
  6
CONTINUOUS
 10
214.7021282044
 20
33.3297785737
 11
214.672666166
 21
33.3407833019
  0
LINE
  5
60C
100
AcDbEntity
  8
0
100
AcDbLine
 62
2
  6
CONTINUOUS
 10
214.6383807739
 20
33.3527559637
 11
214.6089611579
 21
33.3637538682
  0
LINE
  5
60D
100
AcDbEntity
  8
0
100
AcDbLine
 62
2
  6
CONTINUOUS
 10
209.5790439727
 20
32.3305328148
 11
208.3558986738
 21
32.8066640405
  0
LINE
  5
60E
100
AcDbEntity
  8
0
100
AcDbLine
 62
2
  6
CONTINUOUS
 10
213.4469813692
 20
33.837679657
 11
212.2238360704
 21
34.3138108827
  0
LINE
  5
60F
100
AcDbEntity
  8
0
100
AcDbLine
 62
2
  6
CONTINUOUS
 10
210.7489118275
 20
31.8541343314
 11
209.5790439727
 21
32.3305328148
  0
LINE
  5
610
100
AcDbEntity
  8
0
100
AcDbLine
 62
2
  6
CONTINUOUS
 10
212.2238360704
 20
34.3138108827
 11
211.0539682155
 21
34.790209366
  0
LINE
  5
611
100
AcDbEntity
  8
0
100
AcDbLine
 62
2
  6
CONTINUOUS
 10
208.3558986738
 20
32.8066640405
 11
207.2407633661
 21
33.2610036188
  0
LINE
  5
612
100
AcDbEntity
  8
0
100
AcDbLine
 62
2
  6
CONTINUOUS
 10
214.5621166769
 20
33.3833400786
 11
213.4469813692
 21
33.837679657
  0
LINE
  5
613
100
AcDbEntity
  8
0
100
AcDbLine
 62
2
  6
CONTINUOUS
 10
210.7977566159
 20
31.8337419355
 11
210.7727551191
 21
31.8439352285
  0
LINE
  5
614
100
AcDbEntity
  8
0
100
AcDbLine
 62
2
  6
CONTINUOUS
 10
211.030124924
 20
34.8004084689
 11
211.0051234271
 21
34.8106017619
  0
LINE
  5
615
100
AcDbEntity
  8
0
100
AcDbLine
 62
2
  6
CONTINUOUS
 10
207.2185151473
 20
33.2705598583
 11
207.1939188851
 21
33.2805898292
  0
LINE
  5
616
100
AcDbEntity
  8
0
100
AcDbLine
 62
2
  6
CONTINUOUS
 10
214.6089611579
 20
33.3637538682
 11
214.5843648958
 21
33.3737838391
  0
LINE
  5
617
100
AcDbEntity
  8
0
100
AcDbLine
 62
2
  6
CONTINUOUS
 10
210.7727551191
 20
31.8439352285
 11
210.7489118275
 21
31.8541343314
  0
LINE
  5
618
100
AcDbEntity
  8
0
100
AcDbLine
 62
2
  6
CONTINUOUS
 10
211.0539682155
 20
34.790209366
 11
211.030124924
 21
34.8004084689
  0
LINE
  5
619
100
AcDbEntity
  8
0
100
AcDbLine
 62
2
  6
CONTINUOUS
 10
207.2407633661
 20
33.2610036188
 11
207.2185151473
 21
33.2705598583
  0
LINE
  5
61A
100
AcDbEntity
  8
0
100
AcDbLine
 62
2
  6
CONTINUOUS
 10
214.5843648958
 20
33.3737838391
 11
214.5621166769
 21
33.3833400786
  0
LINE
  5
61B
100
AcDbEntity
  8
0
100
AcDbLine
 62
2
  6
CONTINUOUS
 10
210.9014400215
 20
31.7929661016
 11
210.8824999543
 21
31.8031616552
  0
LINE
  5
61C
100
AcDbEntity
  8
0
100
AcDbLine
 62
2
  6
CONTINUOUS
 10
210.9203800887
 20
34.8411820422
 11
210.9014400215
 21
34.8513775959
  0
LINE
  5
61D
100
AcDbEntity
  8
0
100
AcDbLine
 62
2
  6
CONTINUOUS
 10
207.1007518387
 20
33.3145651237
 11
207.0882351722
 21
33.3221718487
  0
LINE
  5
61E
100
AcDbEntity
  8
0
100
AcDbLine
 62
2
  6
CONTINUOUS
 10
214.7146448708
 20
33.3221718487
 11
214.7021282044
 21
33.3297785737
  0
LINE
  5
61F
100
AcDbEntity
  8
0
100
AcDbLine
 62
2
  6
CONTINUOUS
 10
210.9078166446
 20
31.7827709492
 11
210.9014400215
 21
31.7929661016
  0
LINE
  5
620
100
AcDbEntity
  8
0
100
AcDbLine
 62
2
  6
CONTINUOUS
 10
210.9014400215
 20
34.8513775959
 11
210.8950633984
 21
34.8615727482
  0
LINE
  5
621
100
AcDbEntity
  8
0
100
AcDbLine
 62
2
  6
CONTINUOUS
 10
210.9002806488
 20
31.7419933629
 11
210.8997299358
 21
31.7521878598
  0
LINE
  5
622
100
AcDbEntity
  8
0
100
AcDbLine
 62
2
  6
CONTINUOUS
 10
210.9031501073
 20
34.8921558376
 11
210.9025993943
 21
34.9023503345
  0
LINE
  5
623
100
AcDbEntity
  8
0
100
AcDbLine
 62
2
  6
CONTINUOUS
 10
210.9019037414
 20
31.7216013013
 11
210.9014400215
 21
31.7317978717
  0
LINE
  5
624
100
AcDbEntity
  8
0
100
AcDbLine
 62
2
  6
CONTINUOUS
 10
210.9014400215
 20
34.9125458258
 11
210.9009763016
 21
34.9227423961
  0
LINE
  5
625
100
AcDbEntity
  8
0
100
AcDbLine
 62
2
  6
CONTINUOUS
 10
210.9014400215
 20
31.6706296418
 11
210.901324274
 21
31.6808345059
  0
LINE
  5
626
100
AcDbEntity
  8
0
100
AcDbLine
 62
2
  6
CONTINUOUS
 10
210.901555769
 20
34.9635091916
 11
210.9014400215
 21
34.9737140557
  0
LINE
  5
627
100
AcDbEntity
  8
0
100
AcDbLine
 62
2
  6
CONTINUOUS
 10
210.9243291311
 20
26.353808839
 11
210.9014400215
 21
31.6706296418
  0
LINE
  5
628
100
AcDbEntity
  8
0
100
AcDbLine
 62
2
  6
CONTINUOUS
 10
210.9014400215
 20
34.9737140557
 11
210.8785509119
 21
40.2905348584
  0
LINE
  5
629
100
AcDbEntity
  8
0
100
AcDbLine
 62
2
  6
CONTINUOUS
 10
210.901324274
 20
31.6808345059
 11
210.9012952276
 21
31.691025935
  0
LINE
  5
62A
100
AcDbEntity
  8
0
100
AcDbLine
 62
2
  6
CONTINUOUS
 10
210.9015848154
 20
34.9533177625
 11
210.901555769
 21
34.9635091916
  0
LINE
  5
62B
100
AcDbEntity
  8
0
100
AcDbLine
 62
2
  6
CONTINUOUS
 10
210.9014400215
 20
48.6142293203
 11
210.9014400215
 21
49.2431251345
  0
LINE
  5
62C
100
AcDbEntity
  8
0
100
AcDbLine
 62
2
  6
CONTINUOUS
 10
210.8785509119
 20
40.2905348584
 11
210.8899954667
 21
45.9418588966
  0
LINE
  5
62D
100
AcDbEntity
  8
0
100
AcDbLine
 62
2
  6
CONTINUOUS
 10
210.9128845763
 20
20.7024848009
 11
210.9243291311
 21
26.353808839
  0
LINE
  5
62E
100
AcDbEntity
  8
0
100
AcDbLine
 62
2
  6
CONTINUOUS
 10
210.8899954667
 20
45.9418588966
 11
210.9014400215
 21
48.6142293203
  0
LINE
  5
62F
100
AcDbEntity
  8
0
100
AcDbLine
 62
2
  6
CONTINUOUS
 10
210.9014400215
 20
31.7317978717
 11
210.9002806488
 21
31.7419933629
  0
LINE
  5
630
100
AcDbEntity
  8
0
100
AcDbLine
 62
2
  6
CONTINUOUS
 10
210.9025993943
 20
34.9023503345
 11
210.9014400215
 21
34.9125458258
  0
LINE
  5
631
100
AcDbEntity
  8
0
100
AcDbLine
 62
2
  6
CONTINUOUS
 10
210.9014400215
 20
18.0301143771
 11
210.9128845763
 21
20.7024848009
  0
LINE
  5
632
100
AcDbEntity
  8
0
100
AcDbLine
 62
2
  6
CONTINUOUS
 10
210.9009763016
 20
34.9227423961
 11
210.9011212414
 21
34.9329379721
  0
LINE
  5
633
100
AcDbEntity
  8
0
100
AcDbLine
 62
2
  6
CONTINUOUS
 10
210.9014400215
 20
34.9431299407
 11
210.9015848154
 21
34.9533177625
  0
LINE
  5
634
100
AcDbEntity
  8
0
100
AcDbLine
 62
2
  6
CONTINUOUS
 10
210.9012952276
 20
31.691025935
 11
210.9014400215
 21
31.7012137567
  0
LINE
  5
635
100
AcDbEntity
  8
0
100
AcDbLine
 62
2
  6
CONTINUOUS
 10
210.9017588016
 20
31.7114057254
 11
210.9019037414
 21
31.7216013013
  0
LINE
  5
636
100
AcDbEntity
  8
0
100
AcDbLine
 62
2
  6
CONTINUOUS
 10
210.9011212414
 20
34.9329379721
 11
210.9014400215
 21
34.9431299407
  0
LINE
  5
637
100
AcDbEntity
  8
0
100
AcDbLine
 62
2
  6
CONTINUOUS
 10
210.9014400215
 20
31.7012137567
 11
210.9017588016
 21
31.7114057254
  0
LINE
  5
638
100
AcDbEntity
  8
0
100
AcDbLine
 62
2
  6
CONTINUOUS
 10
210.9014400215
 20
34.8819617108
 11
210.9031501073
 21
34.8921558376
  0
LINE
  5
639
100
AcDbEntity
  8
0
100
AcDbLine
 62
2
  6
CONTINUOUS
 10
210.8997299358
 20
31.7521878598
 11
210.9014400215
 21
31.7623819866
  0
LINE
  5
63A
100
AcDbEntity
  8
0
100
AcDbLine
 62
2
  6
CONTINUOUS
 10
210.8950633984
 20
34.8615727482
 11
210.8971213106
 21
34.8717674146
  0
LINE
  5
63B
100
AcDbEntity
  8
0
100
AcDbLine
 62
2
  6
CONTINUOUS
 10
210.9057587325
 20
31.7725762829
 11
210.9078166446
 21
31.7827709492
  0
LINE
  5
63C
100
AcDbEntity
  8
0
100
AcDbLine
 62
2
  6
CONTINUOUS
 10
210.8971213106
 20
34.8717674146
 11
210.9014400215
 21
34.8819617108
  0
LINE
  5
63D
100
AcDbEntity
  8
0
100
AcDbLine
 62
2
  6
CONTINUOUS
 10
210.9014400215
 20
31.7623819866
 11
210.9057587325
 21
31.7725762829
  0
LINE
  5
63E
100
AcDbEntity
  8
0
100
AcDbLine
 62
2
  6
CONTINUOUS
 10
219.7804171893
 20
31.7929661016
 11
219.7867938124
 21
31.7827709492
  0
LINE
  5
63F
100
AcDbEntity
  8
0
100
AcDbLine
 62
2
  6
CONTINUOUS
 10
219.7740405662
 20
34.8615727482
 11
219.7804171893
 21
34.8513775959
  0
LINE
  5
640
100
AcDbEntity
  8
0
100
AcDbLine
 62
2
  6
CONTINUOUS
 10
215.96721234
 20
33.3221718487
 11
215.9797290065
 21
33.3145651237
  0
LINE
  5
641
100
AcDbEntity
  8
0
100
AcDbLine
 62
2
  6
CONTINUOUS
 10
219.7792578165
 20
31.7419933629
 11
219.7804171893
 21
31.7317978717
  0
LINE
  5
642
100
AcDbEntity
  8
0
100
AcDbLine
 62
2
  6
CONTINUOUS
 10
219.7804171893
 20
34.9125458258
 11
219.7815765621
 21
34.9023503345
  0
LINE
  5
643
100
AcDbEntity
  8
0
100
AcDbLine
 62
2
  6
CONTINUOUS
 10
219.7787071035
 20
31.7521878598
 11
219.7792578165
 21
31.7419933629
  0
LINE
  5
644
100
AcDbEntity
  8
0
100
AcDbLine
 62
2
  6
CONTINUOUS
 10
219.7815765621
 20
34.9023503345
 11
219.7821272751
 21
34.8921558376
  0
LINE
  5
645
100
AcDbEntity
  8
0
100
AcDbLine
 62
2
  6
CONTINUOUS
 10
219.7804171893
 20
31.7317978717
 11
219.7808809092
 21
31.7216013013
  0
LINE
  5
646
100
AcDbEntity
  8
0
100
AcDbLine
 62
2
  6
CONTINUOUS
 10
219.7799534694
 20
34.9227423961
 11
219.7804171893
 21
34.9125458258
  0
LINE
  5
647
100
AcDbEntity
  8
0
100
AcDbLine
 62
2
  6
CONTINUOUS
 10
219.7803014418
 20
31.6808345059
 11
219.7804171893
 21
31.6706296418
  0
LINE
  5
648
100
AcDbEntity
  8
0
100
AcDbLine
 62
2
  6
CONTINUOUS
 10
219.7804171893
 20
34.9737140557
 11
219.7805329368
 21
34.9635091916
  0
LINE
  5
649
100
AcDbEntity
  8
0
100
AcDbLine
 62
2
  6
CONTINUOUS
 10
219.7804171893
 20
31.6706296418
 11
219.8033062989
 21
26.353808839
  0
LINE
  5
64A
100
AcDbEntity
  8
0
100
AcDbLine
 62
2
  6
CONTINUOUS
 10
219.7575280797
 20
40.2905348584
 11
219.7804171893
 21
34.9737140557
  0
LINE
  5
64B
100
AcDbEntity
  8
0
100
AcDbLine
 62
2
  6
CONTINUOUS
 10
219.7802723954
 20
31.691025935
 11
219.7803014418
 21
31.6808345059
  0
LINE
  5
64C
100
AcDbEntity
  8
0
100
AcDbLine
 62
2
  6
CONTINUOUS
 10
219.7805329368
 20
34.9635091916
 11
219.7805619832
 21
34.9533177625
  0
LINE
  5
64D
100
AcDbEntity
  8
0
100
AcDbLine
 62
2
  6
CONTINUOUS
 10
219.7804171893
 20
49.2431251345
 11
219.7804171893
 21
48.6142293203
  0
LINE
  5
64E
100
AcDbEntity
  8
0
100
AcDbLine
 62
2
  6
CONTINUOUS
 10
219.7689726345
 20
45.9418588966
 11
219.7575280797
 21
40.2905348584
  0
LINE
  5
64F
100
AcDbEntity
  8
0
100
AcDbLine
 62
2
  6
CONTINUOUS
 10
219.8033062989
 20
26.353808839
 11
219.7918617441
 21
20.7024848009
  0
LINE
  5
650
100
AcDbEntity
  8
0
100
AcDbLine
 62
2
  6
CONTINUOUS
 10
219.7804171893
 20
48.6142293203
 11
219.7689726345
 21
45.9418588966
  0
LINE
  5
651
100
AcDbEntity
  8
0
100
AcDbLine
 62
2
  6
CONTINUOUS
 10
219.7918617441
 20
20.7024848009
 11
219.7804171893
 21
18.0301143771
  0
LINE
  5
652
100
AcDbEntity
  8
0
100
AcDbLine
 62
2
  6
CONTINUOUS
 10
219.7805619832
 20
34.9533177625
 11
219.7804171893
 21
34.9431299407
  0
LINE
  5
653
100
AcDbEntity
  8
0
100
AcDbLine
 62
2
  6
CONTINUOUS
 10
219.7800984092
 20
34.9329379721
 11
219.7799534694
 21
34.9227423961
  0
LINE
  5
654
100
AcDbEntity
  8
0
100
AcDbLine
 62
2
  6
CONTINUOUS
 10
219.7804171893
 20
31.7012137567
 11
219.7802723954
 21
31.691025935
  0
LINE
  5
655
100
AcDbEntity
  8
0
100
AcDbLine
 62
2
  6
CONTINUOUS
 10
219.7808809092
 20
31.7216013013
 11
219.7807359694
 21
31.7114057254
  0
LINE
  5
656
100
AcDbEntity
  8
0
100
AcDbLine
 62
2
  6
CONTINUOUS
 10
219.7804171893
 20
34.9431299407
 11
219.7800984092
 21
34.9329379721
  0
LINE
  5
657
100
AcDbEntity
  8
0
100
AcDbLine
 62
2
  6
CONTINUOUS
 10
219.7807359694
 20
31.7114057254
 11
219.7804171893
 21
31.7012137567
  0
LINE
  5
658
100
AcDbEntity
  8
0
100
AcDbLine
 62
2
  6
CONTINUOUS
 10
218.4580211404
 20
32.3305328148
 11
219.6278889953
 21
31.8541343314
  0
LINE
  5
659
100
AcDbEntity
  8
0
100
AcDbLine
 62
2
  6
CONTINUOUS
 10
216.1197405339
 20
33.2610036188
 11
217.2348758416
 21
32.8066640405
  0
LINE
  5
65A
100
AcDbEntity
  8
0
100
AcDbLine
 62
2
  6
CONTINUOUS
 10
219.6517322869
 20
31.8439352285
 11
219.6767337837
 21
31.8337419355
  0
LINE
  5
65B
100
AcDbEntity
  8
0
100
AcDbLine
 62
2
  6
CONTINUOUS
 10
216.0728960529
 20
33.2805898292
 11
216.0974923151
 21
33.2705598583
  0
LINE
  5
65C
100
AcDbEntity
  8
0
100
AcDbLine
 62
2
  6
CONTINUOUS
 10
219.6278889953
 20
31.8541343314
 11
219.6517322869
 21
31.8439352285
  0
LINE
  5
65D
100
AcDbEntity
  8
0
100
AcDbLine
 62
2
  6
CONTINUOUS
 10
216.0974923151
 20
33.2705598583
 11
216.1197405339
 21
33.2610036188
  0
LINE
  5
65E
100
AcDbEntity
  8
0
100
AcDbLine
 62
2
  6
CONTINUOUS
 10
219.7614771221
 20
31.8031616552
 11
219.7804171893
 21
31.7929661016
  0
LINE
  5
65F
100
AcDbEntity
  8
0
100
AcDbLine
 62
2
  6
CONTINUOUS
 10
219.7804171893
 20
34.8513775959
 11
219.7993572565
 21
34.8411820422
  0
LINE
  5
660
100
AcDbEntity
  8
0
100
AcDbLine
 62
2
  6
CONTINUOUS
 10
223.5811053721
 20
33.3297785737
 11
223.5936220386
 21
33.3221718487
  0
LINE
  5
661
100
AcDbEntity
  8
0
100
AcDbLine
 62
2
  6
CONTINUOUS
 10
219.7821272751
 20
34.8921558376
 11
219.7804171893
 21
34.8819617108
  0
LINE
  5
662
100
AcDbEntity
  8
0
100
AcDbLine
 62
2
  6
CONTINUOUS
 10
219.7041530923
 20
31.8235502165
 11
219.7340240131
 21
31.8133567229
  0
LINE
  5
663
100
AcDbEntity
  8
0
100
AcDbLine
 62
2
  6
CONTINUOUS
 10
219.8268103655
 20
34.8309869746
 11
219.8566812863
 21
34.8207934809
  0
LINE
  5
664
100
AcDbEntity
  8
0
100
AcDbLine
 62
2
  6
CONTINUOUS
 10
216.0091910448
 20
33.3035603956
 11
216.0434764369
 21
33.2915877338
  0
LINE
  5
665
100
AcDbEntity
  8
0
100
AcDbLine
 62
2
  6
CONTINUOUS
 10
223.5173579416
 20
33.3527559637
 11
223.5516433338
 21
33.3407833019
  0
LINE
  5
666
100
AcDbEntity
  8
0
100
AcDbLine
 62
2
  6
CONTINUOUS
 10
219.7340240131
 20
31.8133567229
 11
219.7614771221
 21
31.8031616552
  0
LINE
  5
667
100
AcDbEntity
  8
0
100
AcDbLine
 62
2
  6
CONTINUOUS
 10
219.7993572565
 20
34.8411820422
 11
219.8268103655
 21
34.8309869746
  0
LINE
  5
668
100
AcDbEntity
  8
0
100
AcDbLine
 62
2
  6
CONTINUOUS
 10
219.6767337837
 20
31.8337419355
 11
219.7041530923
 21
31.8235502165
  0
LINE
  5
669
100
AcDbEntity
  8
0
100
AcDbLine
 62
2
  6
CONTINUOUS
 10
219.8566812863
 20
34.8207934809
 11
219.8841005949
 21
34.8106017619
  0
LINE
  5
66A
100
AcDbEntity
  8
0
100
AcDbLine
 62
2
  6
CONTINUOUS
 10
215.9797290065
 20
33.3145651237
 11
216.0091910448
 21
33.3035603956
  0
LINE
  5
66B
100
AcDbEntity
  8
0
100
AcDbLine
 62
2
  6
CONTINUOUS
 10
223.5516433338
 20
33.3407833019
 11
223.5811053721
 21
33.3297785737
  0
LINE
  5
66C
100
AcDbEntity
  8
0
100
AcDbLine
 62
2
  6
CONTINUOUS
 10
216.0434764369
 20
33.2915877338
 11
216.0728960529
 21
33.2805898292
  0
LINE
  5
66D
100
AcDbEntity
  8
0
100
AcDbLine
 62
2
  6
CONTINUOUS
 10
223.4879383257
 20
33.3637538682
 11
223.5173579416
 21
33.3527559637
  0
LINE
  5
66E
100
AcDbEntity
  8
0
100
AcDbLine
 62
2
  6
CONTINUOUS
 10
217.2348758416
 20
32.8066640405
 11
218.4580211404
 21
32.3305328148
  0
LINE
  5
66F
100
AcDbEntity
  8
0
100
AcDbLine
 62
2
  6
CONTINUOUS
 10
221.1028132381
 20
34.3138108827
 11
222.325958537
 21
33.837679657
  0
LINE
  5
670
100
AcDbEntity
  8
0
100
AcDbLine
 62
2
  6
CONTINUOUS
 10
219.9329453833
 20
34.790209366
 11
221.1028132381
 21
34.3138108827
  0
LINE
  5
671
100
AcDbEntity
  8
0
100
AcDbLine
 62
2
  6
CONTINUOUS
 10
222.325958537
 20
33.837679657
 11
223.4410938447
 21
33.3833400786
  0
LINE
  5
672
100
AcDbEntity
  8
0
100
AcDbLine
 62
2
  6
CONTINUOUS
 10
219.8841005949
 20
34.8106017619
 11
219.9091020917
 21
34.8004084689
  0
LINE
  5
673
100
AcDbEntity
  8
0
100
AcDbLine
 62
2
  6
CONTINUOUS
 10
223.4633420635
 20
33.3737838391
 11
223.4879383257
 21
33.3637538682
  0
LINE
  5
674
100
AcDbEntity
  8
0
100
AcDbLine
 62
2
  6
CONTINUOUS
 10
219.9091020917
 20
34.8004084689
 11
219.9329453833
 21
34.790209366
  0
LINE
  5
675
100
AcDbEntity
  8
0
100
AcDbLine
 62
2
  6
CONTINUOUS
 10
223.4410938447
 20
33.3833400786
 11
223.4633420635
 21
33.3737838391
  0
LINE
  5
676
100
AcDbEntity
  8
0
100
AcDbLine
 62
2
  6
CONTINUOUS
 10
219.7804171893
 20
31.7623819866
 11
219.7787071035
 21
31.7521878598
  0
LINE
  5
677
100
AcDbEntity
  8
0
100
AcDbLine
 62
2
  6
CONTINUOUS
 10
219.7760984784
 20
34.8717674146
 11
219.7740405662
 21
34.8615727482
  0
LINE
  5
678
100
AcDbEntity
  8
0
100
AcDbLine
 62
2
  6
CONTINUOUS
 10
219.7867938124
 20
31.7827709492
 11
219.7847359002
 21
31.7725762829
  0
LINE
  5
679
100
AcDbEntity
  8
0
100
AcDbLine
 62
2
  6
CONTINUOUS
 10
219.7804171893
 20
34.8819617108
 11
219.7760984784
 21
34.8717674146
  0
LINE
  5
67A
100
AcDbEntity
  8
0
100
AcDbLine
 62
2
  6
CONTINUOUS
 10
219.7847359002
 20
31.7725762829
 11
219.7804171893
 21
31.7623819866
  0
LINE
  5
67B
100
AcDbEntity
  8
0
100
AcDbLine
 62
2
  6
CONTINUOUS
 10
223.4879221538
 20
33.3229767488
 11
223.4633185408
 21
33.3228127876
  0
LINE
  5
67C
100
AcDbEntity
  8
0
100
AcDbLine
 62
2
  6
CONTINUOUS
 10
216.0975158378
 20
33.3215309098
 11
216.0729122247
 21
33.3213669487
  0
LINE
  5
67D
100
AcDbEntity
  8
0
100
AcDbLine
 62
2
  6
CONTINUOUS
 10
223.4410938447
 20
33.3221718487
 11
221.0767680794
 21
33.3069085589
  0
LINE
  5
67E
100
AcDbEntity
  8
0
100
AcDbLine
 62
2
  6
CONTINUOUS
 10
218.4840662992
 20
33.3374351385
 11
216.1197405339
 21
33.3221718487
  0
LINE
  5
67F
100
AcDbEntity
  8
0
100
AcDbLine
 62
2
  6
CONTINUOUS
 10
221.0767680794
 20
33.3069085589
 11
218.4840662992
 21
33.3374351385
  0
LINE
  5
680
100
AcDbEntity
  8
0
100
AcDbLine
 62
2
  6
CONTINUOUS
 10
216.0729122247
 20
33.3213669487
 11
216.0434764369
 21
33.3221718487
  0
LINE
  5
681
100
AcDbEntity
  8
0
100
AcDbLine
 62
2
  6
CONTINUOUS
 10
223.5173579416
 20
33.3221718487
 11
223.4879221538
 21
33.3229767488
  0
LINE
  5
682
100
AcDbEntity
  8
0
100
AcDbLine
 62
2
  6
CONTINUOUS
 10
216.009183694
 20
33.3239505785
 11
215.9797231258
 21
33.324760447
  0
LINE
  5
683
100
AcDbEntity
  8
0
100
AcDbLine
 62
2
  6
CONTINUOUS
 10
223.5811112528
 20
33.3195832504
 11
223.5516506846
 21
33.320393119
  0
LINE
  5
684
100
AcDbEntity
  8
0
100
AcDbLine
 62
2
  6
CONTINUOUS
 10
216.0434764369
 20
33.3221718487
 11
216.009183694
 21
33.3239505785
  0
LINE
  5
685
100
AcDbEntity
  8
0
100
AcDbLine
 62
2
  6
CONTINUOUS
 10
223.5516506846
 20
33.320393119
 11
223.5173579416
 21
33.3221718487
  0
LINE
  5
686
100
AcDbEntity
  8
0
100
AcDbLine
 62
2
  6
CONTINUOUS
 10
223.4633185408
 20
33.3228127876
 11
223.4410938447
 21
33.3221718487
  0
LINE
  5
687
100
AcDbEntity
  8
0
100
AcDbLine
 62
2
  6
CONTINUOUS
 10
216.1197405339
 20
33.3221718487
 11
216.0975158378
 21
33.3215309098
  0
LINE
  5
688
100
AcDbEntity
  8
0
100
AcDbLine
 62
2
  6
CONTINUOUS
 10
223.5936220386
 20
33.3221718487
 11
223.5811112528
 21
33.3195832504
  0
LINE
  5
689
100
AcDbEntity
  8
0
100
AcDbLine
 62
2
  6
CONTINUOUS
 10
215.9797231258
 20
33.324760447
 11
215.96721234
 21
33.3221718487
  0
LINE
  5
68A
100
AcDbEntity
  8
0
100
AcDbLine
 62
2
  6
CONTINUOUS
 10
211.9467551775
 20
239.2059021835
 11
211.963549884
 21
239.2066327571
  0
LINE
  5
68B
100
AcDbEntity
  8
0
100
AcDbLine
 62
2
  6
CONTINUOUS
 10
206.3973773058
 20
239.2051716099
 11
206.4141720123
 21
239.2059021835
  0
LINE
  5
68C
100
AcDbEntity
  8
0
100
AcDbLine
 62
2
  6
CONTINUOUS
 10
211.963549884
 20
239.2066327571
 11
211.9821422848
 21
239.206819648
  0
LINE
  5
68D
100
AcDbEntity
  8
0
100
AcDbLine
 62
2
  6
CONTINUOUS
 10
206.3787849051
 20
239.204984719
 11
206.3973773058
 21
239.2051716099
  0
LINE
  5
68E
100
AcDbEntity
  8
0
100
AcDbLine
 62
2
  6
CONTINUOUS
 10
210.1600870069
 20
239.1885043384
 11
211.9467551775
 21
239.2059021835
  0
LINE
  5
68F
100
AcDbEntity
  8
0
100
AcDbLine
 62
2
  6
CONTINUOUS
 10
206.4141720123
 20
239.2059021835
 11
208.2008401829
 21
239.2233000286
  0
LINE
  5
690
100
AcDbEntity
  8
0
100
AcDbLine
 62
2
  6
CONTINUOUS
 10
208.2008401829
 20
239.2233000286
 11
210.1600870069
 21
239.1885043384
  0
LINE
  5
691
100
AcDbEntity
  8
0
100
AcDbLine
 62
2
  6
CONTINUOUS
 10
206.3565409377
 20
239.2059021835
 11
206.3787849051
 21
239.204984719
  0
LINE
  5
692
100
AcDbEntity
  8
0
100
AcDbLine
 62
2
  6
CONTINUOUS
 10
211.9821422848
 20
239.206819648
 11
212.0043862522
 21
239.2059021835
  0
LINE
  5
693
100
AcDbEntity
  8
0
100
AcDbLine
 62
2
  6
CONTINUOUS
 10
206.3083639845
 20
239.2088527946
 11
206.3306266778
 21
239.2079296668
  0
LINE
  5
694
100
AcDbEntity
  8
0
100
AcDbLine
 62
2
  6
CONTINUOUS
 10
212.0303005121
 20
239.2038747003
 11
212.0525632054
 21
239.2029515724
  0
LINE
  5
695
100
AcDbEntity
  8
0
100
AcDbLine
 62
2
  6
CONTINUOUS
 10
206.3306266778
 20
239.2079296668
 11
206.3565409377
 21
239.2059021835
  0
LINE
  5
696
100
AcDbEntity
  8
0
100
AcDbLine
 62
2
  6
CONTINUOUS
 10
212.0043862522
 20
239.2059021835
 11
212.0303005121
 21
239.2038747003
  0
LINE
  5
697
100
AcDbEntity
  8
0
100
AcDbLine
 62
2
  6
CONTINUOUS
 10
209.1454053079
 20
237.4860808239
 11
209.1228325203
 21
237.497699867
  0
LINE
  5
698
100
AcDbEntity
  8
0
100
AcDbLine
 62
2
  6
CONTINUOUS
 10
206.3565409377
 20
239.1710409117
 11
206.3306322327
 21
239.1846879379
  0
LINE
  5
699
100
AcDbEntity
  8
0
100
AcDbLine
 62
2
  6
CONTINUOUS
 10
209.2380946696
 20
240.9141045
 11
209.2155218819
 21
240.9257235432
  0
LINE
  5
69A
100
AcDbEntity
  8
0
100
AcDbLine
 62
2
  6
CONTINUOUS
 10
212.0302949572
 20
239.2271164291
 11
212.0043862522
 21
239.2407634553
  0
LINE
  5
69B
100
AcDbEntity
  8
0
100
AcDbLine
 62
2
  6
CONTINUOUS
 10
209.1661510092
 20
237.4744599866
 11
209.1454053079
 21
237.4860808239
  0
LINE
  5
69C
100
AcDbEntity
  8
0
100
AcDbLine
 62
2
  6
CONTINUOUS
 10
209.2155218819
 20
240.9257235432
 11
209.1947761807
 21
240.9373443804
  0
LINE
  5
69D
100
AcDbEntity
  8
0
100
AcDbLine
 62
2
  6
CONTINUOUS
 10
209.1228325203
 20
237.497699867
 11
209.1021123612
 21
237.5093168873
  0
LINE
  5
69E
100
AcDbEntity
  8
0
100
AcDbLine
 62
2
  6
CONTINUOUS
 10
209.2588148286
 20
240.9024874797
 11
209.2380946696
 21
240.9141045
  0
LINE
  5
69F
100
AcDbEntity
  8
0
100
AcDbLine
 62
2
  6
CONTINUOUS
 10
206.3306322327
 20
239.1846879379
 11
206.3083684284
 21
239.1972316659
  0
LINE
  5
6A0
100
AcDbEntity
  8
0
100
AcDbLine
 62
2
  6
CONTINUOUS
 10
212.0525587615
 20
239.2145727012
 11
212.0302949572
 21
239.2271164291
  0
LINE
  5
6A1
100
AcDbEntity
  8
0
100
AcDbLine
 62
2
  6
CONTINUOUS
 10
206.3787726843
 20
239.1585049616
 11
206.3565409377
 21
239.1710409117
  0
LINE
  5
6A2
100
AcDbEntity
  8
0
100
AcDbLine
 62
2
  6
CONTINUOUS
 10
212.0043862522
 20
239.2407634553
 11
211.9821545055
 21
239.2532994054
  0
LINE
  5
6A3
100
AcDbEntity
  8
0
100
AcDbLine
 62
2
  6
CONTINUOUS
 10
208.1811584382
 20
238.0755834575
 11
207.2568548564
 21
238.6183011421
  0
LINE
  5
6A4
100
AcDbEntity
  8
0
100
AcDbLine
 62
2
  6
CONTINUOUS
 10
211.1040723335
 20
239.7935032249
 11
210.1797687517
 21
240.3362209095
  0
LINE
  5
6A5
100
AcDbEntity
  8
0
100
AcDbLine
 62
2
  6
CONTINUOUS
 10
209.0652014457
 20
237.5325611387
 11
208.1811584382
 21
238.0755834575
  0
LINE
  5
6A6
100
AcDbEntity
  8
0
100
AcDbLine
 62
2
  6
CONTINUOUS
 10
210.1797687517
 20
240.3362209095
 11
209.2957257442
 21
240.8792432283
  0
LINE
  5
6A7
100
AcDbEntity
  8
0
100
AcDbLine
 62
2
  6
CONTINUOUS
 10
207.2568548564
 20
238.6183011421
 11
206.4141720123
 21
239.13617964
  0
LINE
  5
6A8
100
AcDbEntity
  8
0
100
AcDbLine
 62
2
  6
CONTINUOUS
 10
211.9467551775
 20
239.275624727
 11
211.1040723335
 21
239.7935032249
  0
LINE
  5
6A9
100
AcDbEntity
  8
0
100
AcDbLine
 62
2
  6
CONTINUOUS
 10
209.1021123612
 20
237.5093168873
 11
209.0832192885
 21
237.5209357018
  0
LINE
  5
6AA
100
AcDbEntity
  8
0
100
AcDbLine
 62
2
  6
CONTINUOUS
 10
209.2777079014
 20
240.8908686652
 11
209.2588148286
 21
240.9024874797
  0
LINE
  5
6AB
100
AcDbEntity
  8
0
100
AcDbLine
 62
2
  6
CONTINUOUS
 10
206.3973595303
 20
239.1470723096
 11
206.3787726843
 21
239.1585049616
  0
LINE
  5
6AC
100
AcDbEntity
  8
0
100
AcDbLine
 62
2
  6
CONTINUOUS
 10
211.9821545055
 20
239.2532994054
 11
211.9635676596
 21
239.2647320574
  0
LINE
  5
6AD
100
AcDbEntity
  8
0
100
AcDbLine
 62
2
  6
CONTINUOUS
 10
209.0832192885
 20
237.5209357018
 11
209.0652014457
 21
237.5325611387
  0
LINE
  5
6AE
100
AcDbEntity
  8
0
100
AcDbLine
 62
2
  6
CONTINUOUS
 10
206.4141720123
 20
239.13617964
 11
206.3973595303
 21
239.1470723096
  0
LINE
  5
6AF
100
AcDbEntity
  8
0
100
AcDbLine
 62
2
  6
CONTINUOUS
 10
209.2957257442
 20
240.8792432283
 11
209.2777079014
 21
240.8908686652
  0
LINE
  5
6B0
100
AcDbEntity
  8
0
100
AcDbLine
 62
2
  6
CONTINUOUS
 10
211.9635676596
 20
239.2647320574
 11
211.9467551775
 21
239.275624727
  0
LINE
  5
6B1
100
AcDbEntity
  8
0
100
AcDbLine
 62
2
  6
CONTINUOUS
 10
209.1804635949
 20
237.4628385952
 11
209.1661510092
 21
237.4744599866
  0
LINE
  5
6B2
100
AcDbEntity
  8
0
100
AcDbLine
 62
2
  6
CONTINUOUS
 10
209.1947761807
 20
240.9373443804
 11
209.1804635949
 21
240.9489657718
  0
LINE
  5
6B3
100
AcDbEntity
  8
0
100
AcDbLine
 62
2
  6
CONTINUOUS
 10
206.3083684284
 20
239.1972316659
 11
206.2989098631
 21
239.2059021835
  0
LINE
  5
6B4
100
AcDbEntity
  8
0
100
AcDbLine
 62
2
  6
CONTINUOUS
 10
212.0620173268
 20
239.2059021835
 11
212.0525587615
 21
239.2145727012
  0
LINE
  5
6B5
100
AcDbEntity
  8
S-AXIS
100
AcDbLine
 62
7
  6
CENTER
 10
43.3952911649
 20
338.5202045554
 11
413.7727575667
 21
338.5202045554
  0
LINE
  5
6B6
100
AcDbEntity
  8
0
100
AcDbLine
 62
2
  6
CONTINUOUS
 10
209.1852822666
 20
237.4512176611
 11
209.1804635949
 21
237.4628385952
  0
LINE
  5
6B7
100
AcDbEntity
  8
0
100
AcDbLine
 62
2
  6
CONTINUOUS
 10
209.1804635949
 20
240.9489657718
 11
209.1756449233
 21
240.9605867059
  0
LINE
  5
6B8
100
AcDbEntity
  8
0
100
AcDbLine
 62
2
  6
CONTINUOUS
 10
206.2989098631
 20
239.2059021835
 11
206.3083639845
 21
239.2088527946
  0
LINE
  5
6B9
100
AcDbEntity
  8
0
100
AcDbLine
 62
2
  6
CONTINUOUS
 10
209.1804635949
 20
237.3931160517
 11
209.1795874828
 21
237.4047373733
  0
LINE
  5
6BA
100
AcDbEntity
  8
0
100
AcDbLine
 62
2
  6
CONTINUOUS
 10
209.181339707
 20
241.0070669937
 11
209.1804635949
 21
241.0186883153
  0
LINE
  5
6BB
100
AcDbEntity
  8
0
100
AcDbLine
 62
2
  6
CONTINUOUS
 10
209.1795874828
 20
237.4047373733
 11
209.1791713213
 21
237.4163575596
  0
LINE
  5
6BC
100
AcDbEntity
  8
0
100
AcDbLine
 62
2
  6
CONTINUOUS
 10
209.1817558685
 20
240.9954468075
 11
209.181339707
 21
241.0070669937
  0
LINE
  5
6BD
100
AcDbEntity
  8
0
100
AcDbLine
 62
2
  6
CONTINUOUS
 10
209.1808140177
 20
237.3814934979
 11
209.1804635949
 21
237.3931160517
  0
LINE
  5
6BE
100
AcDbEntity
  8
0
100
AcDbLine
 62
2
  6
CONTINUOUS
 10
209.1804635949
 20
241.0186883153
 11
209.1801131722
 21
241.0303108692
  0
LINE
  5
6BF
100
AcDbEntity
  8
0
100
AcDbLine
 62
2
  6
CONTINUOUS
 10
209.1804635949
 20
237.3233935082
 11
209.1803761271
 21
237.3350255322
  0
LINE
  5
6C0
100
AcDbEntity
  8
0
100
AcDbLine
 62
2
  6
CONTINUOUS
 10
209.1805510628
 20
241.0767788348
 11
209.1804635949
 21
241.0884108589
  0
LINE
  5
6C1
100
AcDbEntity
  8
0
100
AcDbLine
 62
2
  6
CONTINUOUS
 10
209.1977603838
 20
231.2605770056
 11
209.1804635949
 21
237.3233935082
  0
LINE
  5
6C2
100
AcDbEntity
  8
0
100
AcDbLine
 62
2
  6
CONTINUOUS
 10
209.1804635949
 20
241.0884108589
 11
209.1631668061
 21
247.1512273614
  0
LINE
  5
6C3
100
AcDbEntity
  8
0
100
AcDbLine
 62
2
  6
CONTINUOUS
 10
209.1803761271
 20
237.3350255322
 11
209.1803541774
 21
237.3466422156
  0
LINE
  5
6C4
100
AcDbEntity
  8
0
100
AcDbLine
 62
2
  6
CONTINUOUS
 10
209.1805730124
 20
241.0651621514
 11
209.1805510628
 21
241.0767788348
  0
LINE
  5
6C5
100
AcDbEntity
  8
0
100
AcDbLine
 62
2
  6
CONTINUOUS
 10
209.1804635949
 20
218.6000664142
 11
209.1804635949
 21
221.7752663005
  0
LINE
  5
6C6
100
AcDbEntity
  8
0
100
AcDbLine
 62
2
  6
CONTINUOUS
 10
209.1631668061
 20
247.1512273614
 11
209.1716353928
 21
253.4613381801
  0
LINE
  5
6C7
100
AcDbEntity
  8
0
100
AcDbLine
 62
2
  6
CONTINUOUS
 10
209.1891119894
 20
224.8164879633
 11
209.1977603838
 21
231.2605770056
  0
LINE
  5
6C8
100
AcDbEntity
  8
0
100
AcDbLine
 62
2
  6
CONTINUOUS
 10
209.1804635949
 20
221.7752663005
 11
209.1891119894
 21
224.8164879633
  0
LINE
  5
6C9
100
AcDbEntity
  8
0
100
AcDbLine
 62
2
  6
CONTINUOUS
 10
209.1801131722
 20
241.0303108692
 11
209.1802227
 21
241.0419322876
  0
LINE
  5
6CA
100
AcDbEntity
  8
0
100
AcDbLine
 62
2
  6
CONTINUOUS
 10
209.1804635949
 20
241.0535495871
 11
209.1805730124
 21
241.0651621514
  0
LINE
  5
6CB
100
AcDbEntity
  8
0
100
AcDbLine
 62
2
  6
CONTINUOUS
 10
209.1803541774
 20
237.3466422156
 11
209.1804635949
 21
237.3582547799
  0
LINE
  5
6CC
100
AcDbEntity
  8
0
100
AcDbLine
 62
2
  6
CONTINUOUS
 10
209.1807044899
 20
237.3698720794
 11
209.1808140177
 21
237.3814934979
  0
LINE
  5
6CD
100
AcDbEntity
  8
0
100
AcDbLine
 62
2
  6
CONTINUOUS
 10
209.1802227
 20
241.0419322876
 11
209.1804635949
 21
241.0535495871
  0
LINE
  5
6CE
100
AcDbEntity
  8
0
100
AcDbLine
 62
2
  6
CONTINUOUS
 10
212.0525632054
 20
239.2029515724
 11
212.0620173268
 21
239.2059021835
  0
LINE
  5
6CF
100
AcDbEntity
  8
0
100
AcDbLine
 62
2
  6
CONTINUOUS
 10
209.1804635949
 20
237.3582547799
 11
209.1807044899
 21
237.3698720794
  0
LINE
  5
6D0
100
AcDbEntity
  8
0
100
AcDbLine
 62
2
  6
CONTINUOUS
 10
209.1804635949
 20
240.9838270436
 11
209.1817558685
 21
240.9954468075
  0
LINE
  5
6D1
100
AcDbEntity
  8
0
100
AcDbLine
 62
2
  6
CONTINUOUS
 10
209.1791713213
 20
237.4163575596
 11
209.1804635949
 21
237.4279773234
  0
LINE
  5
6D2
100
AcDbEntity
  8
0
100
AcDbLine
 62
2
  6
CONTINUOUS
 10
209.1756449233
 20
240.9605867059
 11
209.1772000415
 21
240.9722070859
  0
LINE
  5
6D3
100
AcDbEntity
  8
0
100
AcDbLine
 62
2
  6
CONTINUOUS
 10
209.1837271483
 20
237.4395972811
 11
209.1852822666
 21
237.4512176611
  0
LINE
  5
6D4
100
AcDbEntity
  8
0
100
AcDbLine
 62
2
  6
CONTINUOUS
 10
209.1772000415
 20
240.9722070859
 11
209.1804635949
 21
240.9838270436
  0
LINE
  5
6D5
100
AcDbEntity
  8
0
100
AcDbLine
 62
2
  6
CONTINUOUS
 10
209.1804635949
 20
237.4279773234
 11
209.1837271483
 21
237.4395972811
  0
LINE
  5
6D6
100
AcDbEntity
  8
0
100
AcDbLine
 62
2
  6
CONTINUOUS
 10
220.9692591235
 20
237.5325611387
 11
220.9872769664
 21
237.5209357018
  0
LINE
  5
6D7
100
AcDbEntity
  8
0
100
AcDbLine
 62
2
  6
CONTINUOUS
 10
218.3014172081
 20
239.1470723096
 11
218.3182296902
 21
239.13617964
  0
LINE
  5
6D8
100
AcDbEntity
  8
0
100
AcDbLine
 62
2
  6
CONTINUOUS
 10
221.0702086871
 20
237.4744599866
 11
221.0845212728
 21
237.4628385952
  0
LINE
  5
6D9
100
AcDbEntity
  8
0
100
AcDbLine
 62
2
  6
CONTINUOUS
 10
221.0845212728
 20
240.9489657718
 11
221.0988338585
 21
240.9373443804
  0
LINE
  5
6DA
100
AcDbEntity
  8
0
100
AcDbLine
 62
2
  6
CONTINUOUS
 10
218.2029675409
 20
239.2059021835
 11
218.2124261062
 21
239.1972316659
  0
LINE
  5
6DB
100
AcDbEntity
  8
0
100
AcDbLine
 62
2
  6
CONTINUOUS
 10
223.9566164394
 20
239.2145727012
 11
223.9660750047
 21
239.2059021835
  0
LINE
  5
6DC
100
AcDbEntity
  8
0
100
AcDbLine
 62
2
  6
CONTINUOUS
 10
221.0845212728
 20
237.4628385952
 11
221.0893399444
 21
237.4512176611
  0
LINE
  5
6DD
100
AcDbEntity
  8
0
100
AcDbLine
 62
2
  6
CONTINUOUS
 10
221.0797026011
 20
240.9605867059
 11
221.0845212728
 21
240.9489657718
  0
LINE
  5
6DE
100
AcDbEntity
  8
0
100
AcDbLine
 62
2
  6
CONTINUOUS
 10
221.0836451607
 20
237.4047373733
 11
221.0845212728
 21
237.3931160517
  0
LINE
  5
6DF
100
AcDbEntity
  8
0
100
AcDbLine
 62
2
  6
CONTINUOUS
 10
221.0845212728
 20
241.0186883153
 11
221.0853973849
 21
241.0070669937
  0
LINE
  5
6E0
100
AcDbEntity
  8
0
100
AcDbLine
 62
2
  6
CONTINUOUS
 10
221.0832289992
 20
237.4163575596
 11
221.0836451607
 21
237.4047373733
  0
LINE
  5
6E1
100
AcDbEntity
  8
0
100
AcDbLine
 62
2
  6
CONTINUOUS
 10
221.0853973849
 20
241.0070669937
 11
221.0858135464
 21
240.9954468075
  0
LINE
  5
6E2
100
AcDbEntity
  8
0
100
AcDbLine
 62
2
  6
CONTINUOUS
 10
221.0845212728
 20
237.3931160517
 11
221.0848716956
 21
237.3814934979
  0
LINE
  5
6E3
100
AcDbEntity
  8
0
100
AcDbLine
 62
2
  6
CONTINUOUS
 10
221.08417085
 20
241.0303108692
 11
221.0845212728
 21
241.0186883153
  0
LINE
  5
6E4
100
AcDbEntity
  8
0
100
AcDbLine
 62
2
  6
CONTINUOUS
 10
221.084433805
 20
237.3350255322
 11
221.0845212728
 21
237.3233935082
  0
LINE
  5
6E5
100
AcDbEntity
  8
0
100
AcDbLine
 62
2
  6
CONTINUOUS
 10
221.0845212728
 20
241.0884108589
 11
221.0846087406
 21
241.0767788348
  0
LINE
  5
6E6
100
AcDbEntity
  8
0
100
AcDbLine
 62
2
  6
CONTINUOUS
 10
221.0845212728
 20
237.3233935082
 11
221.1018180617
 21
231.2605770056
  0
LINE
  5
6E7
100
AcDbEntity
  8
0
100
AcDbLine
 62
2
  6
CONTINUOUS
 10
221.0672244839
 20
247.1512273614
 11
221.0845212728
 21
241.0884108589
  0
LINE
  5
6E8
100
AcDbEntity
  8
0
100
AcDbLine
 62
2
  6
CONTINUOUS
 10
221.0844118553
 20
237.3466422156
 11
221.084433805
 21
237.3350255322
  0
LINE
  5
6E9
100
AcDbEntity
  8
0
100
AcDbLine
 62
2
  6
CONTINUOUS
 10
221.0846087406
 20
241.0767788348
 11
221.0846306903
 21
241.0651621514
  0
LINE
  5
6EA
100
AcDbEntity
  8
0
100
AcDbLine
 62
2
  6
CONTINUOUS
 10
221.0845212728
 20
221.7752663005
 11
221.0845212728
 21
218.6000664142
  0
LINE
  5
6EB
100
AcDbEntity
  8
0
100
AcDbLine
 62
2
  6
CONTINUOUS
 10
221.0756930707
 20
253.4613381801
 11
221.0672244839
 21
247.1512273614
  0
LINE
  5
6EC
100
AcDbEntity
  8
0
100
AcDbLine
 62
2
  6
CONTINUOUS
 10
221.1018180617
 20
231.2605770056
 11
221.0931696672
 21
224.8164879633
  0
LINE
  5
6ED
100
AcDbEntity
  8
0
100
AcDbLine
 62
2
  6
CONTINUOUS
 10
221.0931696672
 20
224.8164879633
 11
221.0845212728
 21
221.7752663005
  0
LINE
  5
6EE
100
AcDbEntity
  8
0
100
AcDbLine
 62
2
  6
CONTINUOUS
 10
221.0842803778
 20
241.0419322876
 11
221.08417085
 21
241.0303108692
  0
LINE
  5
6EF
100
AcDbEntity
  8
0
100
AcDbLine
 62
2
  6
CONTINUOUS
 10
221.0846306903
 20
241.0651621514
 11
221.0845212728
 21
241.0535495871
  0
LINE
  5
6F0
100
AcDbEntity
  8
0
100
AcDbLine
 62
2
  6
CONTINUOUS
 10
221.0845212728
 20
237.3582547799
 11
221.0844118553
 21
237.3466422156
  0
LINE
  5
6F1
100
AcDbEntity
  8
0
100
AcDbLine
 62
2
  6
CONTINUOUS
 10
221.0848716956
 20
237.3814934979
 11
221.0847621678
 21
237.3698720794
  0
LINE
  5
6F2
100
AcDbEntity
  8
0
100
AcDbLine
 62
2
  6
CONTINUOUS
 10
221.0845212728
 20
241.0535495871
 11
221.0842803778
 21
241.0419322876
  0
LINE
  5
6F3
100
AcDbEntity
  8
0
100
AcDbLine
 62
2
  6
CONTINUOUS
 10
221.0847621678
 20
237.3698720794
 11
221.0845212728
 21
237.3582547799
  0
LINE
  5
6F4
100
AcDbEntity
  8
0
100
AcDbLine
 62
2
  6
CONTINUOUS
 10
221.0268901981
 20
237.497699867
 11
221.0494629858
 21
237.4860808239
  0
LINE
  5
6F5
100
AcDbEntity
  8
0
100
AcDbLine
 62
2
  6
CONTINUOUS
 10
221.1195795598
 20
240.9257235432
 11
221.1421523474
 21
240.9141045
  0
LINE
  5
6F6
100
AcDbEntity
  8
0
100
AcDbLine
 62
2
  6
CONTINUOUS
 10
218.2346899105
 20
239.1846879379
 11
218.2605986156
 21
239.1710409117
  0
LINE
  5
6F7
100
AcDbEntity
  8
0
100
AcDbLine
 62
2
  6
CONTINUOUS
 10
223.90844393
 20
239.2407634553
 11
223.9343526351
 21
239.2271164291
  0
LINE
  5
6F8
100
AcDbEntity
  8
0
100
AcDbLine
 62
2
  6
CONTINUOUS
 10
221.0494629858
 20
237.4860808239
 11
221.0702086871
 21
237.4744599866
  0
LINE
  5
6F9
100
AcDbEntity
  8
0
100
AcDbLine
 62
2
  6
CONTINUOUS
 10
221.0988338585
 20
240.9373443804
 11
221.1195795598
 21
240.9257235432
  0
LINE
  5
6FA
100
AcDbEntity
  8
0
100
AcDbLine
 62
2
  6
CONTINUOUS
 10
221.0061700391
 20
237.5093168873
 11
221.0268901981
 21
237.497699867
  0
LINE
  5
6FB
100
AcDbEntity
  8
0
100
AcDbLine
 62
2
  6
CONTINUOUS
 10
221.1421523474
 20
240.9141045
 11
221.1628725065
 21
240.9024874797
  0
LINE
  5
6FC
100
AcDbEntity
  8
0
100
AcDbLine
 62
2
  6
CONTINUOUS
 10
218.2124261062
 20
239.1972316659
 11
218.2346899105
 21
239.1846879379
  0
LINE
  5
6FD
100
AcDbEntity
  8
0
100
AcDbLine
 62
2
  6
CONTINUOUS
 10
223.9343526351
 20
239.2271164291
 11
223.9566164394
 21
239.2145727012
  0
LINE
  5
6FE
100
AcDbEntity
  8
0
100
AcDbLine
 62
2
  6
CONTINUOUS
 10
218.2605986156
 20
239.1710409117
 11
218.2828303622
 21
239.1585049616
  0
LINE
  5
6FF
100
AcDbEntity
  8
0
100
AcDbLine
 62
2
  6
CONTINUOUS
 10
223.8862121834
 20
239.2532994054
 11
223.90844393
 21
239.2407634553
  0
LINE
  5
700
100
AcDbEntity
  8
0
100
AcDbLine
 62
2
  6
CONTINUOUS
 10
219.1609125343
 20
238.6183011421
 11
220.0852161161
 21
238.0755834575
  0
LINE
  5
701
100
AcDbEntity
  8
0
100
AcDbLine
 62
2
  6
CONTINUOUS
 10
222.0838264295
 20
240.3362209095
 11
223.0081300113
 21
239.7935032249
  0
LINE
  5
702
100
AcDbEntity
  8
0
100
AcDbLine
 62
2
  6
CONTINUOUS
 10
220.0852161161
 20
238.0755834575
 11
220.9692591235
 21
237.5325611387
  0
LINE
  5
703
100
AcDbEntity
  8
0
100
AcDbLine
 62
2
  6
CONTINUOUS
 10
221.1997834221
 20
240.8792432283
 11
222.0838264295
 21
240.3362209095
  0
LINE
  5
704
100
AcDbEntity
  8
0
100
AcDbLine
 62
2
  6
CONTINUOUS
 10
218.3182296902
 20
239.13617964
 11
219.1609125343
 21
238.6183011421
  0
LINE
  5
705
100
AcDbEntity
  8
0
100
AcDbLine
 62
2
  6
CONTINUOUS
 10
223.0081300113
 20
239.7935032249
 11
223.8508128554
 21
239.275624727
  0
LINE
  5
706
100
AcDbEntity
  8
0
100
AcDbLine
 62
2
  6
CONTINUOUS
 10
220.9872769664
 20
237.5209357018
 11
221.0061700391
 21
237.5093168873
  0
LINE
  5
707
100
AcDbEntity
  8
0
100
AcDbLine
 62
2
  6
CONTINUOUS
 10
221.1628725065
 20
240.9024874797
 11
221.1817655792
 21
240.8908686652
  0
LINE
  5
708
100
AcDbEntity
  8
0
100
AcDbLine
 62
2
  6
CONTINUOUS
 10
218.2828303622
 20
239.1585049616
 11
218.3014172081
 21
239.1470723096
  0
LINE
  5
709
100
AcDbEntity
  8
0
100
AcDbLine
 62
2
  6
CONTINUOUS
 10
223.8676253374
 20
239.2647320574
 11
223.8862121834
 21
239.2532994054
  0
LINE
  5
70A
100
AcDbEntity
  8
0
100
AcDbLine
 62
2
  6
CONTINUOUS
 10
221.1817655792
 20
240.8908686652
 11
221.1997834221
 21
240.8792432283
  0
LINE
  5
70B
100
AcDbEntity
  8
0
100
AcDbLine
 62
2
  6
CONTINUOUS
 10
223.8508128554
 20
239.275624727
 11
223.8676253374
 21
239.2647320574
  0
LINE
  5
70C
100
AcDbEntity
  8
0
100
AcDbLine
 62
2
  6
CONTINUOUS
 10
221.0858135464
 20
240.9954468075
 11
221.0845212728
 21
240.9838270436
  0
LINE
  5
70D
100
AcDbEntity
  8
0
100
AcDbLine
 62
2
  6
CONTINUOUS
 10
221.0845212728
 20
237.4279773234
 11
221.0832289992
 21
237.4163575596
  0
LINE
  5
70E
100
AcDbEntity
  8
0
100
AcDbLine
 62
2
  6
CONTINUOUS
 10
221.0812577194
 20
240.9722070859
 11
221.0797026011
 21
240.9605867059
  0
LINE
  5
70F
100
AcDbEntity
  8
0
100
AcDbLine
 62
2
  6
CONTINUOUS
 10
221.0893399444
 20
237.4512176611
 11
221.0877848262
 21
237.4395972811
  0
LINE
  5
710
100
AcDbEntity
  8
0
100
AcDbLine
 62
2
  6
CONTINUOUS
 10
221.0845212728
 20
240.9838270436
 11
221.0812577194
 21
240.9722070859
  0
LINE
  5
711
100
AcDbEntity
  8
0
100
AcDbLine
 62
2
  6
CONTINUOUS
 10
221.0877848262
 20
237.4395972811
 11
221.0845212728
 21
237.4279773234
  0
LINE
  5
712
100
AcDbEntity
  8
0
100
AcDbLine
 62
2
  6
CONTINUOUS
 10
218.2828425829
 20
239.204984719
 11
218.2605986156
 21
239.2059021835
  0
LINE
  5
713
100
AcDbEntity
  8
0
100
AcDbLine
 62
2
  6
CONTINUOUS
 10
223.90844393
 20
239.2059021835
 11
223.8861999627
 21
239.206819648
  0
LINE
  5
714
100
AcDbEntity
  8
0
100
AcDbLine
 62
2
  6
CONTINUOUS
 10
218.2346843557
 20
239.2079296668
 11
218.2124216623
 21
239.2088527946
  0
LINE
  5
715
100
AcDbEntity
  8
0
100
AcDbLine
 62
2
  6
CONTINUOUS
 10
223.9566208833
 20
239.2029515724
 11
223.9343581899
 21
239.2038747003
  0
LINE
  5
716
100
AcDbEntity
  8
0
100
AcDbLine
 62
2
  6
CONTINUOUS
 10
218.2605986156
 20
239.2059021835
 11
218.2346843557
 21
239.2079296668
  0
LINE
  5
717
100
AcDbEntity
  8
0
100
AcDbLine
 62
2
  6
CONTINUOUS
 10
223.9343581899
 20
239.2038747003
 11
223.90844393
 21
239.2059021835
  0
LINE
  5
718
100
AcDbEntity
  8
0
100
AcDbLine
 62
2
  6
CONTINUOUS
 10
223.8676075619
 20
239.2066327571
 11
223.8508128554
 21
239.2059021835
  0
LINE
  5
719
100
AcDbEntity
  8
0
100
AcDbLine
 62
2
  6
CONTINUOUS
 10
218.3182296902
 20
239.2059021835
 11
218.3014349837
 21
239.2051716099
  0
LINE
  5
71A
100
AcDbEntity
  8
0
100
AcDbLine
 62
2
  6
CONTINUOUS
 10
223.8861999627
 20
239.206819648
 11
223.8676075619
 21
239.2066327571
  0
LINE
  5
71B
100
AcDbEntity
  8
0
100
AcDbLine
 62
2
  6
CONTINUOUS
 10
218.3014349837
 20
239.2051716099
 11
218.2828425829
 21
239.204984719
  0
LINE
  5
71C
100
AcDbEntity
  8
0
100
AcDbLine
 62
2
  6
CONTINUOUS
 10
223.8508128554
 20
239.2059021835
 11
222.0641446848
 21
239.1885043384
  0
LINE
  5
71D
100
AcDbEntity
  8
0
100
AcDbLine
 62
2
  6
CONTINUOUS
 10
220.1048978608
 20
239.2233000286
 11
218.3182296902
 21
239.2059021835
  0
LINE
  5
71E
100
AcDbEntity
  8
0
100
AcDbLine
 62
2
  6
CONTINUOUS
 10
222.0641446848
 20
239.1885043384
 11
220.1048978608
 21
239.2233000286
  0
LINE
  5
71F
100
AcDbEntity
  8
0
100
AcDbLine
 62
2
  6
CONTINUOUS
 10
218.2124216623
 20
239.2088527946
 11
218.2029675409
 21
239.2059021835
  0
LINE
  5
720
100
AcDbEntity
  8
0
100
AcDbLine
 62
2
  6
CONTINUOUS
 10
223.9660750047
 20
239.2059021835
 11
223.9566208833
 21
239.2029515724
  0
INSERT
  5
721
100
AcDbEntity
  8
HATCHING_BL0
100
AcDbBlockReference
  2
HATCHING_BL0
 10
267.3590665735
 20
236.3116141201
  0
INSERT
  5
722
100
AcDbEntity
  8
Grp_symbol_75_BL2
100
AcDbBlockReference
  2
GRP_SYMBOL_75_BL2
 10
46.9666526624
 20
45.1363971203
  0
INSERT
  5
723
100
AcDbEntity
  8
X48000092_BD01_BL3
100
AcDbBlockReference
  2
X48000092_BD01_BL3
 10
318.8903911359
 20
135.7457262786
  0
INSERT
  5
724
100
AcDbEntity
  8
X48002257_BL4
100
AcDbBlockReference
  2
X48002257_BL4
 10
308.048017196
 20
185.0119816485
  0
INSERT
  5
725
100
AcDbEntity
  8
X48002254_BL5
100
AcDbBlockReference
  2
X48002254_BL5
 10
259.222579816
 20
254.0842795979
  0
INSERT
  5
726
100
AcDbEntity
  8
X48002028_BL6
100
AcDbBlockReference
  2
X48002028_BL6
 10
143.9368063662
 20
135.7363589957
  0
INSERT
  5
727
100
AcDbEntity
  8
X48002258_BL7
100
AcDbBlockReference
  2
X48002258_BL7
 10
433.1021266916
 20
185.0119816485
  0
INSERT
  5
728
100
AcDbEntity
  8
X48002028_BL8
100
AcDbBlockReference
  2
X48002028_BL8
 10
289.5119949548
 20
135.7363589957
  0
INSERT
  5
729
100
AcDbEntity
  8
X48002254_BL9
100
AcDbBlockReference
  2
X48002254_BL9
 10
369.903510156
 20
252.0718487593
  0
INSERT
  5
72A
100
AcDbEntity
  8
X48002121_BL10
100
AcDbBlockReference
  2
X48002121_BL10
 10
63.5369962593
 20
286.3702045554
  0
INSERT
  5
72B
100
AcDbEntity
  8
X48002120_BL11
100
AcDbBlockReference
  2
X48002120_BL11
 10
369.903510156
 20
286.3702045554
  0
INSERT
  5
72C
100
AcDbEntity
  8
X48002260_BL12
100
AcDbBlockReference
  2
X48002260_BL12
 10
369.903510156
 20
289.9202045554
  0
INSERT
  5
72D
100
AcDbEntity
  8
X48002255_BL13
100
AcDbBlockReference
  2
X48002255_BL13
 10
452.3841971254
 20
289.9202045554
  0
INSERT
  5
72E
100
AcDbEntity
  8
X48002256_BL14
100
AcDbBlockReference
  2
X48002256_BL14
 10
436.2136331173
 20
391.6702045554
  0
INSERT
  5
72F
100
AcDbEntity
  8
C9535200X_BL15
100
AcDbBlockReference
  2
C9535200X_BL15
 10
540.5324942667
 20
226.6539623049
  0
INSERT
  5
730
100
AcDbEntity
  8
X48002007_BL16
100
AcDbBlockReference
  2
X48002007_BL16
 10
473.6010193318
 20
336.2502394396
  0
INSERT
  5
731
100
AcDbEntity
  8
C9535200X_BL17
100
AcDbBlockReference
  2
C9535200X_BL17
 10
473.60144859
 20
319.9659164122
  0
INSERT
  5
732
100
AcDbEntity
  8
C9535200X_BL18
100
AcDbBlockReference
  2
C9535200X_BL18
 10
478.784678477
 20
313.4833144701
  0
INSERT
  5
733
100
AcDbEntity
  8
B_7100_4210_BD01_BL19
100
AcDbBlockReference
  2
B_7100_4210_BD01_BL19
 10
484.6569329954
 20
98.0266385406
  0
ENDSEC
  0
SECTION
  2
OBJECTS
  0
DICTIONARY
  5
C
100
AcDbDictionary
280
0
281
1
  3
ACAD_GROUP
350
D
  3
ACAD_MLINESTYLE
350
17
  3
ACAD_LAYOUT
350
1A
  3
ACAD_PLOTSETTINGS
350
19
  3
ACAD_PLOTSTYLENAME
350
E
  3
ACAD_TABLESTYLE
350
       734
  0
DICTIONARY
  5
D
102
{ACAD_REACTORS
330
C
102
}
100
AcDbDictionary
280
0
281
1
  0
ACDBDICTIONARYWDFLT
  5
E
102
{ACAD_REACTORS
330
C
102
}
100
AcDbDictionary
281
1
  3
Normal
350
F
100
AcDbDictionaryWithDefault
340
F
  0
DICTIONARY
  5
17
102
{ACAD_REACTORS
330
C
102
}
100
AcDbDictionary
280
0
281
1
  3
Standard
350
18
  0
DICTIONARY
  5
734
330
C
100
AcDbDictionary
281
1
  3
Standard
350
       737
  3
Standard1
350
       738
  0
DICTIONARY
  5
19
102
{ACAD_REACTORS
330
C
102
}
100
AcDbDictionary
281
1
  0
DICTIONARY
  5
1A
102
{ACAD_REACTORS
330
C
102
}
100
AcDbDictionary
281
1
  3
Model
350
735
  3
Layout1
350
736
  0
ACDBPLACEHOLDER
  5
F
102
{ACAD_REACTORS
330
E
102
}
  0
MLINESTYLE
  5
18
102
{ACAD_REACTORS
330
17
102
}
100
AcDbMlineStyle
  2
STANDARD
 70
0
  3

 62
256
 51
90.0
 52
90.0
 71
2
 49
0.5
 62
256
  6
BYLAYER
 49
-0.5
 62
256
  6
BYLAYER
  0
LAYOUT
  5
735
102
{ACAD_REACTORS
330
1A
102
}
100
AcDbPlotSettings
  1

  2
none_device
  4
ISO_A2_(594.00_x_420.00_MM)
  6

 40
0.0
 41
0.0
 42
0.0
 43
0.0
 44
594.0
 45
420.0
 46
0.0
 47
0.0
 48
0.0
 49
0.0
140
0.0
141
0.0
142
1.0
143
1.0
 70
1024
 72
1
 73
0
 74
0
  7

 75
0
147
1.0
148
0.0
149
0.0
100
AcDbLayout
  1
Model
 70
0
 71
0
 10
0.0
 20
0.0
 11
594.0
 21
420.0
 12
0.0
 22
0.0
 32
0.0
 14
0.0
 24
0.0
 34
0.0
 15
0.0
 25
0.0
 35
0.0
146
0.0
 13
0.0
 23
0.0
 33
0.0
 16
1.0
 26
0.0
 36
0.0
 17
0.0
 27
1.0
 37
0.0
 76
0
330
22F
345
0
346
0
  0
LAYOUT
  5
736
102
{ACAD_REACTORS
330
1A
102
}
100
AcDbPlotSettings
  1

  2
none_device
  4
ISO_A2_(594.00_x_420.00_MM)
  6

 40
0.0
 41
0.0
 42
0.0
 43
0.0
 44
594.0
 45
420.0
 46
0.0
 47
0.0
 48
0.0
 49
0.0
140
0.0
141
0.0
142
1.0
143
1.0
 70
0
 72
1
 73
0
 74
0
  7

 75
0
147
1.0
148
0.0
149
0.0
100
AcDbLayout
  1
Layout1
 70
0
 71
1
 10
0.0
 20
0.0
 11
594.0
 21
420.0
 12
0.0
 22
0.0
 32
0.0
 14
0.0
 24
0.0
 34
0.0
 15
0.0
 25
0.0
 35
0.0
146
0.0
 13
0.0
 23
0.0
 33
0.0
 16
1.0
 26
0.0
 36
0.0
 17
0.0
 27
1.0
 37
0.0
 76
0
330
230
345
0
346
0
  0
TABLESTYLE
  5
737
102
{ACAD_REACTORS
330
734
330
5EB
102
}
330
734
100
AcDbTableStyle
  3
Standard
 70
0
 71
0
 40
0.06
 41
0.06
280
1
281
1
  7
Standard
140
0.18
170
1
 62
0
 63
7
283
0
  7
Standard
140
0.18
170
1
 62
0
 63
7
283
0
  7
Standard
140
0.18
170
1
 62
0
 63
7
283
0
  0
TABLESTYLE
  5
738
102
{ACAD_REACTORS
330
734
102
}
330
734
100
AcDbTableStyle
  3
Standard1
 70
1
 71
0
 40
0.06
 41
0.06
280
1
281
1
  7
Standard
140
0.18
170
1
 62
0
 63
7
283
0
  7
Standard
140
0.18
170
1
 62
0
 63
7
283
0
  7
Standard
140
0.18
170
1
 62
0
 63
7
283
0
  0
ENDSEC
  0
EOF
