  0
SECTION
  2
HEADER
  9
$ACADVER
  1
AC1009
  9
$INSBASE
 10
0.0
 20
0.0
 30
0.0
  9
$EXTMIN
 10
-55.528591
 20
-134.158813
 30
0.0
  9
$EXTMAX
 10
154.471405
 20
162.841187
 30
0.0
  9
$LIMMIN
 10
-55.528591
 20
-134.158813
  9
$LIMMAX
 10
154.471405
 20
162.841187
  9
$ORTHOMODE
 70
     0
  9
$REGENMODE
 70
     1
  9
$FILLMODE
 70
     1
  9
$QTEXTMODE
 70
     0
  9
$MIRRTEXT
 70
     1
  9
$DRAGMODE
 70
     2
  9
$LTSCALE
 40
1.0
  9
$OSMODE
 70
     0
  9
$ATTMODE
 70
     1
  9
$TEXTSIZE
 40
0.2
  9
$TRACEWID
 40
0.05
  9
$TEXTSTYLE
  7
STANDARD
  9
$CLAYER
  8
0
  9
$CELTYPE
  6
CONTINUOUS
  9
$CECOLOR
 62
   256
  9
$DIMSCALE
 40
1.0
  9
$DIMASZ
 40
0.18
  9
$DIMEXO
 40
0.0625
  9
$DIMDLI
 40
0.38
  9
$DIMRND
 40
0.0
  9
$DIMDLE
 40
0.0
  9
$DIMEXE
 40
0.18
  9
$DIMTP
 40
0.0
  9
$DIMTM
 40
0.0
  9
$DIMTXT
 40
3.5
  9
$DIMCEN
 40
0.09
  9
$DIMTSZ
 40
0.0
  9
$DIMTOL
 70
     0
  9
$DIMLIM
 70
     0
  9
$DIMTIH
 70
     1
  9
$DIMTOH
 70
     1
  9
$DIMSE1
 70
     0
  9
$DIMSE2
 70
     0
  9
$DIMTAD
 70
     0
  9
$DIMZIN
 70
     0
  9
$DIMBLK
  1

  9
$DIMASO
 70
     1
  9
$DIMSHO
 70
     1
  9
$DIMPOST
  1

  9
$DIMAPOST
  1

  9
$DIMALT
 70
     0
  9
$DIMALTD
 70
     2
  9
$DIMALTF
 40
25.4
  9
$DIMLFAC
 40
1.0
  9
$DIMTOFL
 70
     0
  9
$DIMTVP
 40
0.0
  9
$DIMTIX
 70
     0
  9
$DIMSOXD
 70
     0
  9
$DIMSAH
 70
     0
  9
$DIMBLK1
  1

  9
$DIMBLK2
  1

  9
$DIMSTYLE
  2
STANDARD
  9
$DIMCLRD
 70
     0
  9
$DIMCLRE
 70
     0
  9
$DIMCLRT
 70
     0
  9
$DIMTFAC
 40
1.0
  9
$DIMGAP
 40
0.09
  9
$LUNITS
 70
     2
  9
$LUPREC
 70
     6
  9
$AXISMODE
 70
     0
  9
$AXISUNIT
 10
0.0
 20
0.0
  9
$SKETCHINC
 40
0.1
  9
$FILLETRAD
 40
0.0
  9
$AUNITS
 70
     0
  9
$AUPREC
 70
     4
  9
$MENU
  1
acad
  9
$ELEVATION
 40
0.0
  9
$PELEVATION
 40
0.0
  9
$THICKNESS
 40
0.0
  9
$LIMCHECK
 70
     0
  9
$BLIPMODE
 70
     1
  9
$CHAMFERA
 40
0.0
  9
$CHAMFERB
 40
0.0
  9
$SKPOLY
 70
     0
  9
$TDCREATE
 40
0.000000000
  9
$TDUPDATE
 40
0.000000000
  9
$TDINDWG
 40
0.0000000000
  9
$TDUSRTIMER
 40
0.0000000000
  9
$USRTIMER
 70
     1
  9
$ANGBASE
 50
0.0
  9
$ANGDIR
 70
     0
  9
$PDMODE
 70
     0
  9
$PDSIZE
 40
0.0
  9
$PLINEWID
 40
0.0
  9
$COORDS
 70
     0
  9
$SPLFRAME
 70
     0
  9
$SPLINETYPE
 70
     6
  9
$SPLINESEGS
 70
     8
  9
$ATTDIA
 70
     0
  9
$ATTREQ
 70
     1
  9
$HANDLING
 70
     0
  9
$HANDSEED
  5
3
  9
$SURFTAB1
 70
     6
  9
$SURFTAB2
 70
     6
  9
$SURFTYPE
 70
     6
  9
$SURFU
 70
     6
  9
$SURFV
 70
     6
  9
$UCSNAME
  2
MO_001_VIEW_PV_P
  9
$UCSORG
 10
0.0
 20
0.0
 30
0.0
  9
$UCSXDIR
 10
1.0
 20
0.0
 30
0.0
  9
$UCSYDIR
 10
0.0
 20
1.0
 30
0.0
  9
$PUCSNAME
  2

  9
$PUCSORG
 10
0.0
 20
0.0
 30
0.0
  9
$PUCSXDIR
 10
1.0
 20
0.0
 30
0.0
  9
$PUCSYDIR
 10
0.0
 20
1.0
 30
0.0
  9
$USERI1
 70
     0
  9
$USERI2
 70
     0
  9
$USERI3
 70
     0
  9
$USERI4
 70
     0
  9
$USERI5
 70
     0
  9
$USERR1
 40
0.0
  9
$USERR2
 40
0.0
  9
$USERR3
 40
0.0
  9
$USERR4
 40
0.0
  9
$USERR5
 40
0.0
  9
$WORLDVIEW
 70
     1
  9
$SHADEDGE
 70
     3
  9
$SHADEDIF
 70
    70
  9
$TILEMODE
 70
     1
  9
$MAXACTVP
 70
    16
  9
$PINSBASE
 10
0.0
 20
0.0
 30
0.0
  9
$PLIMCHECK
 70
     0
  9
$PEXTMIN
 10
-55.528591
 20
-134.158813
 30
1.000000E+20
  9
$PEXTMAX
 10
154.471405
 20
162.841187
 30
-1.000000E+20
  9
$PLIMMIN
 10
0.0
 20
0.0
  9
$PLIMMAX
 10
12.0
 20
9.0
  9
$UNITMODE
 70
     0
  9
$VISRETAIN
 70
     0
  9
$PLINEGEN
 70
     0
  9
$PSLTSCALE
 70
     1
  9
$TREEDEPTH
 70
  3020
  9
$DWGCODEPAGE
  3
iso8859-1
  0
ENDSEC
  0
SECTION
  2
TABLES
  0
TABLE
  2
VPORT
 70
     1
  0
VPORT
  2
*ACTIVE
 70
     0
 10
0.0
 20
0.0
 11
1.0
 21
1.0
 12
0.0
 22
0.0
 13
0.0
 23
0.0
 14
6.35
 24
6.35
 15
6.35
 25
6.35
 16
0.0
 26
0.0
 36
1.0
 17
0.0
 27
0.0
 37
0.0
 40
507.999992
 41
1.604229
 42
50.0
 43
0.0
 44
0.0
 50
0.0
 51
0.0
 71
     0
 72
   100
 73
     1
 74
     1
 75
     0
 76
     0
 77
     0
 78
     0
  0
ENDTAB
  0
TABLE
  2
LTYPE
 70
    37
  0
LTYPE
  2
CONTINUOUS
 70
     0
  3
DXF Default line type
 72
    65
 73
     0
 40
0.0
  0
LTYPE
  2
DASHED
 70
     0
  3
DXF Dashed
 72
    65
 73
     2
 40
0.75
 49
0.5
 49
-0.25
  0
LTYPE
  2
HIDDEN
 70
     0
  3
DXF Hidden
 72
    65
 73
     2
 40
0.375
 49
0.25
 49
-0.125
  0
LTYPE
  2
CENTER
 70
     0
  3
DXF Center
 72
    65
 73
     4
 40
2.0
 49
1.25
 49
-0.25
 49
0.25
 49
-0.25
  0
LTYPE
  2
PHANTOM
 70
     0
  3
DXF Phantom
 72
    65
 73
     6
 40
2.5
 49
1.25
 49
-0.25
 49
0.25
 49
-0.25
 49
0.25
 49
-0.25
  0
LTYPE
  2
DOT
 70
     0
  3
DXF DOT
 72
    65
 73
     2
 40
0.25
 49
0.0
 49
-0.25
  0
LTYPE
  2
DASHDOT
 70
     0
  3
DXF Dash Dot
 72
    65
 73
     4
 40
1.0
 49
0.5
 49
-0.25
 49
0.0
 49
-0.25
  0
LTYPE
  2
BORDER
 70
     0
  3
DXF Border
 72
    65
 73
     6
 40
1.75
 49
0.5
 49
-0.25
 49
0.5
 49
-0.25
 49
0.0
 49
-0.25
  0
LTYPE
  2
DIVIDE
 70
     0
  3
DXF Divide
 72
    65
 73
     6
 40
1.25
 49
0.5
 49
-0.25
 49
0.0
 49
-0.25
 49
0.0
 49
-0.25
  0
LTYPE
  2
C_SOLID_L
 70
     0
  3
CADAM Solid Light
 72
    65
 73
     0
 40
0.0
  0
LTYPE
  2
C_SOLID_M
 70
     0
  3
CADAM Solid Medium
 72
    65
 73
     0
 40
0.0
  0
LTYPE
  2
C_SOLID_H
 70
     0
  3
CADAM Solid Heavy
 72
    65
 73
     0
 40
0.0
  0
LTYPE
  2
C_DASHED_L
 70
     0
  3
CADAM Dashed Light
 72
    65
 73
     2
 40
0.375
 49
0.25
 49
-0.125
  0
LTYPE
  2
C_DASHED_M
 70
     0
  3
CADAM Dashed Medium
 72
    65
 73
     2
 40
0.5
 49
0.375
 49
-0.125
  0
LTYPE
  2
C_CENTER_L
 70
     0
  3
CADAM Center Light
 72
    65
 73
     4
 40
2.0
 49
1.25
 49
-0.25
 49
0.25
 49
-0.25
  0
LTYPE
  2
C_PHANTOM_L
 70
     0
  3
CADAM Phantom Light
 72
    65
 73
     6
 40
2.5
 49
1.25
 49
-0.25
 49
0.25
 49
-0.25
 49
0.25
 49
-0.25
  0
LTYPE
  2
C_BREAK_M
 70
     0
  3
CADAM Break Medium
 72
    65
 73
     4
 40
1.0
 49
0.5
 49
-0.25
 49
0.0
 49
-0.25
  0
LTYPE
  2
C_NC
 70
     0
  3
CADAM NC
 72
    65
 73
     0
 40
0.0
  0
LTYPE
  2
DSH1
 70
     2
  3
CADAM Style2 Type 1 Dashed Line
 72
    65
 73
     2
 40
0.075
 49
0.04
 49
-0.035
  0
LTYPE
  2
DSH2
 70
     2
  3
CADAM Style2 Type 2 Dashed Line
 72
    65
 73
     2
 40
0.15
 49
0.11
 49
-0.04
  0
LTYPE
  2
DSH3
 70
     2
  3
CADAM Style2 Type 3 Dashed Line
 72
    65
 73
     2
 40
0.2
 49
0.15
 49
-0.05
  0
LTYPE
  2
DSH4
 70
     2
  3
CADAM Style2 Type 4 Dashed Line
 72
    65
 73
     2
 40
0.36
 49
0.28
 49
-0.08
  0
LTYPE
  2
DSH5
 70
     2
  3
CADAM Style2 Type 5 Dashed Line
 72
    65
 73
     2
 40
0.47
 49
0.39
 49
-0.08
  0
LTYPE
  2
DSH6
 70
     2
  3
CADAM Style2 Type 6 Dashed Line
 72
    65
 73
     2
 40
0.9
 49
0.81
 49
-0.09
  0
LTYPE
  2
PL1
 70
     2
  3
Style 2 Type 1 Phantom Line
 72
    65
 73
     6
 40
1.0
 49
0.6
 49
-0.08
 49
0.08
 49
-0.08
 49
0.08
 49
-0.08
  0
LTYPE
  2
PL2
 70
     2
  3
Style 2 Type 2 Phantom Line
 72
    65
 73
     6
 40
1.08
 49
0.6
 49
-0.08
 49
0.12
 49
-0.08
 49
0.12
 49
-0.08
  0
LTYPE
  2
PL3
 70
     2
  3
Style 2 Type 3 Phantom Line
 72
    65
 73
     6
 40
2.0
 49
1.44
 49
-0.08
 49
0.16
 49
-0.08
 49
0.16
 49
-0.08
  0
LTYPE
  2
CL1
 70
     2
  3
CADAM Style 2 Type 1 Center Line
 72
    65
 73
     4
 40
0.7
 49
0.45
 49
-0.06
 49
0.13
 49
-0.06
  0
LTYPE
  2
CL2
 70
     2
  3
CADAM Style 2 Type 2 Center Line
 72
    65
 73
     4
 40
1.2
 49
1.01
 49
-0.06
 49
0.11
 49
-0.06
  0
LTYPE
  2
CL3
 70
     2
  3
CADAM Style 2 Type 3 Center Line
 72
    65
 73
     4
 40
1.2
 49
0.98
 49
-0.06
 49
0.1
 49
-0.06
  0
LTYPE
  2
CL4
 70
     2
  3
CADAM Style 2 Type 4 Center Line
 72
    65
 73
     4
 40
2.2
 49
1.93
 49
-0.07
 49
0.13
 49
-0.07
  0
LTYPE
  2
CL5
 70
     2
  3
CADAM Style 2 Type 5 Center Line
 72
    65
 73
     4
 40
2.2
 49
1.88
 49
-0.07
 49
0.18
 49
-0.07
  0
LTYPE
  2
SBK1
 70
     2
  3
CADAM Style 2 Type 1 SetBack Line
 72
    65
 73
     8
 40
2.7
 49
0.1
 49
-0.08
 49
0.1
 49
-0.8
 49
0.0
 49
0.0
 49
0.0
 49
0.0
  0
LTYPE
  2
SBK2
 70
     2
  3
CADAM Style 2 Type 2 SetBack Line
 72
    65
 73
     8
 40
3.71
 49
0.13
 49
-0.08
 49
0.13
 49
-0.8
 49
0.0
 49
0.0
 49
0.0
 49
0.0
  0
LTYPE
  2
STCH
 70
     2
  3
CADAM Style2 Stitch Line
 72
    65
 73
     2
 40
0.25
 49
0.0
 49
-0.25
  0
LTYPE
  2
MTCH
 70
     2
  3
CADAM Style2 Match Line
 72
    65
 73
     6
 40
2.0
 49
1.44
 49
-0.8
 49
0.16
 49
-0.08
 49
0.16
 49
-0.08
  0
LTYPE
  2
SLD
 70
     0
  3
CADAM Solid_EXT2
 72
    65
 73
     0
 40
0.0
  0
ENDTAB
  0
TABLE
  2
LAYER
 70
     8
  0
LAYER
  2
0
 70
     0
 62
     7
  6
CONTINUOUS
  0
LAYER
  2
MO_001_NOSHOW
 70
     1
 62
     7
  6
C_SOLID_M
  0
LAYER
  2
MO_001_VIEW_PV
 70
     0
 62
     7
  6
C_SOLID_M
  0
LAYER
  2
MO_001_VIEW_RA
 70
     0
 62
     7
  6
C_SOLID_M
  0
LAYER
  2
OVERLAY_MAP
 70
     1
 62
     7
  6
C_SOLID_M
  0
LAYER
  2
DITTOS
 70
     0
 62
     7
  6
C_SOLID_M
  0
LAYER
  2
SYMBOLS
 70
     0
 62
     7
  6
C_SOLID_M
  0
LAYER
  2
SETS
 70
     0
 62
     7
  6
C_SOLID_M
  0
ENDTAB
  0
TABLE
  2
STYLE
 70
     1
  0
STYLE
  2
STANDARD
 70
     0
 40
4.1672
 41
1.0
 50
0.0
 71
     0
 42
4.1672
  3
monotxt
  4

  0
ENDTAB
  0
TABLE
  2
VIEW
 70
     0
  0
ENDTAB
  0
TABLE
  2
UCS
 70
     2
  0
UCS
  2
MO_001_VIEW_PV_P
 70
     0
 10
0.0
 20
0.0
 30
0.0
 11
1.0
 21
0.0
 31
0.0
 12
-0.0000000002051034
 22
1.0
 32
0.0
  0
UCS
  2
MO_001_VIEW_RA_P
 70
     0
 10
-55.528591156005859
 20
-134.1588134765625
 30
0.0
 11
1.0
 21
0.0
 31
0.0
 12
-0.0000000002051034
 22
1.0
 32
0.0
  0
ENDTAB
  0
TABLE
  2
APPID
 70
     1
  0
APPID
  2
ACAD
 70
     0
  0
ENDTAB
  0
TABLE
  2
DIMSTYLE
 70
     1
  0
DIMSTYLE
  2
STANDARD
 70
     0
  3

  4

  5

  6

  7

 40
1.0
 41
0.18
 42
0.0625
 43
0.38
 44
0.18
 45
0.0
 46
0.0
 47
0.0
 48
0.0
140
3.5
141
0.09
142
0.0
143
25.4
144
1.0
145
0.0
146
1.0
147
0.09
 71
     0
 72
     0
 73
     0
 74
     0
 75
     0
 76
     0
 77
     0
 78
     0
170
     0
171
     2
172
     0
173
     0
174
     0
175
     0
176
     0
177
     0
178
     0
  0
ENDTAB
  0
ENDSEC
  0
SECTION
  2
BLOCKS
  0
BLOCK
  8
0
  6
C_SOLID_M
  2
D_0001_
 70
     0
 10
0.0
 20
0.0
 30
0.0
  3
D_0001_
  0
POINT
  8
0
  6
C_SOLID_M
 10
0.0
 20
0.0
 30
0.0
  0
POINT
  8
0
  6
C_SOLID_M
 10
215.308167
 20
304.055786
 30
0.0
  0
POINT
  8
0
  6
C_SOLID_M
 10
0.0
 20
0.0
 30
0.0
  0
POINT
  8
0
  6
C_SOLID_M
 10
9.631313
 20
16.448944
 30
0.0
  0
LINE
  8
0
  6
C_SOLID_L
 62
     3
 10
210.0
 20
297.0
 30
0.0
 11
210.0
 21
0.0
 31
0.0
  0
LINE
  8
0
  6
C_SOLID_L
 62
     3
 10
0.0
 20
297.0
 30
0.0
 11
210.0
 21
297.0
 31
0.0
  0
LINE
  8
0
  6
C_SOLID_L
 62
     3
 10
0.0
 20
0.0
 30
0.0
 11
210.0
 21
0.0
 31
0.0
  0
LINE
  8
0
  6
C_NC
 10
215.308167
 20
304.055786
 30
0.0
 11
-4.691833
 21
304.055786
 31
0.0
  0
LINE
  8
0
  6
C_NC
 10
215.308167
 20
304.055786
 30
0.0
 11
215.308167
 21
-5.944214
 31
0.0
  0
LINE
  8
0
  6
C_SOLID_H
 62
     4
 10
45.0
 20
45.0
 30
0.0
 11
45.0
 21
5.0
 31
0.0
  0
LINE
  8
0
  6
C_SOLID_H
 62
     4
 10
45.0
 20
45.0
 30
0.0
 11
205.0
 21
45.0
 31
0.0
  0
LINE
  8
0
  6
C_SOLID_H
 62
     4
 10
45.0
 20
30.0
 30
0.0
 11
165.0
 21
30.0
 31
0.0
  0
LINE
  8
0
  6
C_SOLID_H
 62
     4
 10
165.0
 20
45.0
 30
0.0
 11
165.0
 21
5.0
 31
0.0
  0
LINE
  8
0
  6
C_SOLID_H
 62
     4
 10
18.0
 20
292.0
 30
0.0
 11
18.0
 21
5.0
 31
0.0
  0
LINE
  8
0
  6
C_SOLID_H
 62
     4
 10
18.0
 20
5.0
 30
0.0
 11
205.0
 21
5.0
 31
0.0
  0
LINE
  8
0
  6
C_SOLID_H
 62
     4
 10
205.0
 20
292.0
 30
0.0
 11
205.0
 21
5.0
 31
0.0
  0
LINE
  8
0
  6
C_SOLID_H
 62
     4
 10
18.0
 20
292.0
 30
0.0
 11
205.0
 21
292.0
 31
0.0
  0
LINE
  8
0
  6
C_SOLID_L
 62
     3
 10
0.0
 20
297.0
 30
0.0
 11
0.0
 21
0.0
 31
0.0
  0
ENDBLK
  8
0
  0
BLOCK
  8
0
  6
C_SOLID_M
  2
D_0002_
 70
     0
 10
0.0
 20
0.0
 30
0.0
  3
D_0002_
  0
POINT
  8
0
  6
C_SOLID_M
 10
118.492828
 20
123.999992
 30
0.0
  0
POINT
  8
0
  6
C_SOLID_M
 10
11.999992
 20
-13.000008
 30
0.0
  0
POINT
  8
0
  6
C_SOLID_M
 10
186.966644
 20
72.05854
 30
0.0
  0
POINT
  8
0
  6
C_SOLID_M
 10
186.966644
 20
137.708038
 30
0.0
  0
POINT
  8
0
  6
C_SOLID_M
 10
186.966644
 20
137.708038
 30
0.0
  0
POINT
  8
0
  6
C_SOLID_M
 10
186.966644
 20
72.05854
 30
0.0
  0
POINT
  8
0
  6
C_SOLID_M
 10
186.966644
 20
137.708023
 30
0.0
  0
POINT
  8
0
  6
C_SOLID_M
 10
202.034302
 20
129.008728
 30
0.0
  0
POINT
  8
0
  6
C_SOLID_M
 10
180.533417
 20
-96.753044
 30
0.0
  0
POINT
  8
0
  6
C_SOLID_M
 10
183.533417
 20
-96.753044
 30
0.0
  0
POINT
  8
0
  6
C_SOLID_M
 10
7.499985
 20
123.999992
 30
0.0
  0
POINT
  8
0
  6
C_SOLID_M
 10
0.000008
 20
209.0
 30
0.0
  0
POINT
  8
0
  6
C_SOLID_M
 10
0.0
 20
0.0
 30
0.0
  0
POINT
  8
0
  6
C_SOLID_M
 10
7.5
 20
162.832275
 30
0.0
  0
POINT
  8
0
  6
C_SOLID_M
 10
7.5
 20
136.167709
 30
0.0
  0
POINT
  8
0
  6
C_SOLID_M
 10
6.0
 20
149.5
 30
0.0
  0
POINT
  8
0
  6
C_SOLID_M
 10
-9.000008
 20
-23.000008
 30
0.0
  0
POINT
  8
0
  6
C_SOLID_M
 10
7.5
 20
174.0
 30
0.0
  0
POINT
  8
0
  6
C_SOLID_M
 10
7.5
 20
164.832291
 30
0.0
  0
POINT
  8
0
  6
C_SOLID_M
 10
7.5
 20
138.167694
 30
0.0
  0
POINT
  8
0
  6
C_SOLID_M
 10
0.0
 20
-1.000008
 30
0.0
  0
POINT
  8
0
  6
C_SOLID_M
 10
-12.000015
 20
-1.000008
 30
0.0
  0
POINT
  8
0
  6
C_SOLID_M
 10
11.999992
 20
-1.000008
 30
0.0
  0
POINT
  8
0
  6
C_SOLID_M
 10
0.0
 20
-1.000008
 30
0.0
  0
POINT
  8
0
  6
C_SOLID_M
 10
0.0
 20
-13.000008
 30
0.0
  0
POINT
  8
0
  6
C_SOLID_M
 10
11.999977
 20
210.0
 30
0.0
  0
POINT
  8
0
  6
C_SOLID_M
 10
-11.999985
 20
210.0
 30
0.0
  0
POINT
  8
0
  6
C_SOLID_M
 10
0.000008
 20
222.0
 30
0.0
  0
POINT
  8
0
  6
C_SOLID_M
 10
-12.000031
 20
222.0
 30
0.0
  0
POINT
  8
0
  6
C_SOLID_M
 10
11.999977
 20
222.0
 30
0.0
  0
POINT
  8
0
  6
C_SOLID_M
 10
7.499985
 20
123.999992
 30
0.0
  0
POINT
  8
0
  6
C_SOLID_M
 10
11.999977
 20
222.0
 30
0.0
  0
POINT
  8
0
  6
C_SOLID_M
 10
-12.000031
 20
222.0
 30
0.0
  0
POINT
  8
0
  6
C_SOLID_M
 10
11.999992
 20
-13.000008
 30
0.0
  0
POINT
  8
0
  6
C_SOLID_M
 10
-12.000015
 20
-13.000008
 30
0.0
  0
POINT
  8
0
  6
C_SOLID_M
 10
-4.000038
 20
148.0
 30
0.0
  0
POINT
  8
0
  6
C_SOLID_M
 10
5.499969
 20
148.0
 30
0.0
  0
POINT
  8
0
  6
C_SOLID_M
 10
-4.000015
 20
61.999996
 30
0.0
  0
POINT
  8
0
  6
C_SOLID_M
 10
5.499977
 20
61.999996
 30
0.0
  0
POINT
  8
0
  6
C_SOLID_M
 10
-4.000015
 20
82.0
 30
0.0
  0
POINT
  8
0
  6
C_SOLID_M
 10
5.499977
 20
82.0
 30
0.0
  0
POINT
  8
0
  6
C_SOLID_M
 10
-4.000008
 20
128.0
 30
0.0
  0
POINT
  8
0
  6
C_SOLID_M
 10
5.499992
 20
128.0
 30
0.0
  0
POINT
  8
0
  6
C_SOLID_M
 10
180.533417
 20
-96.753044
 30
0.0
  0
LINE
  8
0
  6
C_CENTER_L
 62
     3
 10
113.724457
 20
102.499992
 30
0.0
 11
123.356567
 21
102.499992
 31
0.0
  0
LINE
  8
0
  6
C_CENTER_L
 62
     3
 10
113.724457
 20
104.999992
 30
0.0
 11
123.833405
 21
104.999992
 31
0.0
  0
LINE
  8
0
  6
C_CENTER_L
 62
     3
 10
113.724457
 20
142.25
 30
0.0
 11
124.119507
 21
142.25
 31
0.0
  0
LINE
  8
0
  6
C_CENTER_L
 62
     3
 10
113.724457
 20
144.75
 30
0.0
 11
123.64267
 21
144.75
 31
0.0
  0
LINE
  8
0
  6
C_SOLID_H
 62
     4
 10
114.964233
 20
142.25
 30
0.0
 11
114.964233
 21
144.75
 31
0.0
  0
LINE
  8
0
  6
C_SOLID_H
 62
     4
 10
122.021423
 20
142.25
 30
0.0
 11
122.021423
 21
144.75
 31
0.0
  0
LINE
  8
0
  6
C_SOLID_H
 62
     4
 10
114.964233
 20
102.499992
 30
0.0
 11
114.964233
 21
104.999992
 31
0.0
  0
LINE
  8
0
  6
C_SOLID_H
 62
     4
 10
122.021423
 20
102.499992
 30
0.0
 11
122.021423
 21
104.999992
 31
0.0
  0
LINE
  8
0
  6
C_SOLID_H
 62
     4
 10
163.506256
 20
40.999992
 30
0.0
 11
180.290924
 21
40.999992
 31
0.0
  0
LINE
  8
0
  6
C_SOLID_H
 62
     4
 10
163.506256
 20
123.999992
 30
0.0
 11
180.290924
 21
123.999992
 31
0.0
  0
LINE
  8
0
  6
C_SOLID_H
 62
     4
 10
125.454651
 20
23.249992
 30
0.0
 11
125.454651
 21
21.999992
 31
0.0
  0
LINE
  8
0
  6
C_SOLID_H
 62
     4
 10
180.290924
 20
187.0
 30
0.0
 11
180.290924
 21
173.999985
 31
0.0
  0
LINE
  8
0
  6
C_SOLID_H
 62
     4
 10
180.290924
 20
123.999992
 30
0.0
 11
180.290924
 21
92.499992
 31
0.0
  0
LINE
  8
0
  6
C_SOLID_H
 62
     4
 10
180.290924
 20
40.999992
 30
0.0
 11
180.290924
 21
21.999992
 31
0.0
  0
LINE
  8
0
  6
C_SOLID_H
 62
     4
 10
94.269501
 20
187.0
 30
0.0
 11
133.465515
 21
187.0
 31
0.0
  0
LINE
  8
0
  6
C_SOLID_H
 62
     4
 10
94.269501
 20
23.749985
 30
0.0
 11
94.364868
 21
23.749985
 31
0.0
  0
LINE
  8
0
  6
C_DASHED_M
 62
     1
 10
94.269501
 20
185.25
 30
0.0
 11
133.465515
 21
185.25
 31
0.0
  0
LINE
  8
0
  6
C_DASHED_M
 62
     1
 10
87.212311
 20
178.25
 30
0.0
 11
87.212311
 21
30.749992
 31
0.0
  0
LINE
  8
0
  6
C_SOLID_H
 62
     4
 10
126.704651
 20
24.499992
 30
0.0
 11
168.274628
 21
24.499992
 31
0.0
  0
LINE
  8
0
  6
C_SOLID_H
 62
     4
 10
169.514404
 20
21.999992
 30
0.0
 11
180.290924
 21
21.999992
 31
0.0
  0
LINE
  8
0
  6
C_DASHED_M
 62
     1
 10
169.419037
 20
23.749985
 30
0.0
 11
180.290924
 21
23.749985
 31
0.0
  0
LINE
  8
0
  6
C_SOLID_H
 62
     4
 10
166.462646
 20
187.0
 30
0.0
 11
166.462646
 21
185.75
 31
0.0
  0
LINE
  8
0
  6
C_DASHED_M
 62
     1
 10
87.307671
 20
178.336377
 30
0.0
 11
94.078765
 21
185.165119
 31
0.0
  0
LINE
  8
0
  6
C_SOLID_H
 62
     4
 10
85.972532
 20
179.523985
 30
0.0
 11
92.838981
 21
186.406425
 31
0.0
  0
LINE
  8
0
  6
C_SOLID_H
 62
     4
 10
86.067902
 20
179.620229
 30
0.0
 11
87.307679
 21
178.318654
 31
0.0
  0
LINE
  8
0
  6
C_SOLID_H
 62
     4
 10
92.743633
 20
186.394685
 30
0.0
 11
94.078784
 21
185.140688
 31
0.0
  0
LINE
  8
0
  6
C_SOLID_H
 62
     4
 10
85.495697
 20
178.25
 30
0.0
 11
87.212311
 21
178.25
 31
0.0
  0
LINE
  8
0
  6
C_DASHED_M
 62
     1
 10
94.078763
 20
23.843671
 30
0.0
 11
87.116939
 21
30.678237
 31
0.0
  0
LINE
  8
0
  6
C_SOLID_H
 62
     4
 10
92.838976
 20
22.616149
 30
0.0
 11
85.97253
 21
29.431112
 31
0.0
  0
LINE
  8
0
  6
C_SOLID_H
 62
     4
 10
85.495697
 20
30.749992
 30
0.0
 11
87.212311
 21
30.749992
 31
0.0
  0
LINE
  8
0
  6
C_SOLID_H
 62
     4
 10
86.067904
 20
29.513688
 30
0.0
 11
87.307681
 21
30.714036
 31
0.0
  0
LINE
  8
0
  6
C_SOLID_H
 62
     4
 10
94.269501
 20
187.0
 30
0.0
 11
94.269501
 21
185.25
 31
0.0
  0
LINE
  8
0
  6
C_SOLID_H
 62
     4
 10
133.465515
 20
187.0
 30
0.0
 11
133.465515
 21
185.75
 31
0.0
  0
LINE
  8
0
  6
C_SOLID_H
 62
     4
 10
166.462646
 20
186.206146
 30
0.0
 11
166.462646
 21
185.75
 31
0.0
  0
LINE
  8
0
  6
C_SOLID_H
 62
     4
 10
134.705292
 20
184.5
 30
0.0
 11
165.22287
 21
184.5
 31
0.0
  0
LINE
  8
0
  6
C_SOLID_H
 62
     4
 10
166.462646
 20
187.0
 30
0.0
 11
180.290924
 21
187.0
 31
0.0
  0
LINE
  8
0
  6
C_DASHED_M
 62
     1
 10
166.462646
 20
185.25
 30
0.0
 11
180.290924
 21
185.25
 31
0.0
  0
LINE
  8
0
  6
C_SOLID_H
 62
     4
 10
94.269501
 20
21.999992
 30
0.0
 11
94.269501
 21
23.749985
 31
0.0
  0
LINE
  8
0
  6
C_SOLID_H
 62
     4
 10
92.838989
 20
22.59355
 30
0.0
 11
93.983397
 21
23.807331
 31
0.0
  0
LINE
  8
0
  6
C_SOLID_H
 62
     4
 10
85.495697
 20
178.25
 30
0.0
 11
85.495697
 21
30.749992
 31
0.0
  0
LINE
  8
0
  6
C_DASHED_M
 62
     1
 10
94.555603
 20
23.749985
 30
0.0
 11
114.992828
 21
23.749985
 31
0.0
  0
LINE
  8
0
  6
C_DASHED_M
 62
     1
 10
94.364868
 20
23.749985
 30
0.0
 11
94.460236
 21
23.749985
 31
0.0
  0
LINE
  8
0
  6
C_SOLID_H
 62
     4
 10
163.506256
 20
173.999985
 30
0.0
 11
180.290924
 21
173.999985
 31
0.0
  0
LINE
  8
0
  6
C_SOLID_H
 62
     4
 10
161.50354
 20
172.0
 30
0.0
 11
161.50354
 21
125.999992
 31
0.0
  0
LINE
  8
0
  6
C_SOLID_H
 62
     4
 10
163.506256
 20
92.499992
 30
0.0
 11
180.290924
 21
92.499992
 31
0.0
  0
LINE
  8
0
  6
C_SOLID_H
 62
     4
 10
161.50354
 20
90.499992
 30
0.0
 11
161.50354
 21
42.999992
 31
0.0
  0
LINE
  8
0
  6
C_SOLID_H
 62
     4
 10
169.514404
 20
23.249992
 30
0.0
 11
169.514404
 21
21.999992
 31
0.0
  0
LINE
  8
0
  6
C_CENTER_L
 10
118.492828
 20
191.671722
 30
0.0
 11
118.492828
 21
176.758667
 31
0.0
  0
LINE
  8
0
  6
C_CENTER_L
 10
81.29953
 20
123.999992
 30
0.0
 11
92.07605
 21
123.999992
 31
0.0
  0
LINE
  8
0
  6
C_CENTER_L
 62
     3
 10
164.936768
 20
99.099991
 30
0.0
 11
175.427185
 21
99.099991
 31
0.0
  0
LINE
  8
0
  6
C_CENTER_L
 62
     3
 10
171.803223
 20
102.985718
 30
0.0
 11
171.803223
 21
95.546577
 31
0.0
  0
LINE
  8
0
  6
C_CENTER_L
 62
     3
 10
148.533572
 20
92.678314
 30
0.0
 11
147.293795
 21
99.286423
 31
0.0
  0
LINE
  8
0
  6
C_CENTER_L
 62
     3
 10
164.173826
 20
99.040614
 30
0.0
 11
144.337401
 21
95.312526
 31
0.0
  0
LINE
  8
0
  6
C_SOLID_H
 62
     4
 10
163.601615
 20
101.573834
 30
0.0
 11
147.484526
 21
98.550894
 31
0.0
  0
LINE
  8
0
  6
C_SOLID_H
 62
     4
 10
164.555297
 20
96.481277
 30
0.0
 11
148.438208
 21
93.45833
 31
0.0
  0
LINE
  8
0
  6
C_SOLID_H
 62
     4
 10
164.936768
 20
101.699997
 30
0.0
 11
171.803223
 21
101.699997
 31
0.0
  0
LINE
  8
0
  6
C_SOLID_H
 62
     4
 10
164.936768
 20
96.499992
 30
0.0
 11
171.803223
 21
96.499992
 31
0.0
  0
LINE
  8
0
  6
C_SOLID_H
 62
     4
 10
114.010559
 20
128.5
 30
0.0
 11
122.975098
 21
128.5
 31
0.0
  0
LINE
  8
0
  6
C_SOLID_H
 62
     4
 10
114.010559
 20
119.499992
 30
0.0
 11
122.975098
 21
119.499992
 31
0.0
  0
LINE
  8
0
  6
C_SOLID_H
 62
     4
 10
122.975098
 20
128.5
 30
0.0
 11
122.975098
 21
119.499992
 31
0.0
  0
LINE
  8
0
  6
C_SOLID_H
 62
     4
 10
114.010559
 20
128.5
 30
0.0
 11
114.010559
 21
119.499992
 31
0.0
  0
LINE
  8
0
  6
C_SOLID_H
 62
     4
 10
180.481659
 20
-13.000008
 30
0.0
 11
183.533417
 21
-13.000008
 31
0.0
  0
LINE
  8
0
  6
C_CENTER_L
 62
     3
 10
176.190125
 20
-0.000015
 30
0.0
 11
189.636932
 21
-0.000015
 31
0.0
  0
LINE
  8
0
  6
C_CENTER_L
 62
     3
 10
175.904022
 20
209.0
 30
0.0
 11
186.108337
 21
209.0
 31
0.0
  0
LINE
  8
0
  6
C_SOLID_H
 62
     4
 10
180.481659
 20
222.0
 30
0.0
 11
183.533417
 21
222.0
 31
0.0
  0
LINE
  8
0
  6
C_SOLID_H
 62
     4
 10
183.151947
 20
214.0
 30
0.0
 11
183.533417
 21
214.0
 31
0.0
  0
LINE
  8
0
  6
C_SOLID_H
 62
     4
 10
183.151947
 20
204.0
 30
0.0
 11
183.533417
 21
204.0
 31
0.0
  0
LINE
  8
0
  6
C_SOLID_H
 62
     4
 10
183.151947
 20
214.0
 30
0.0
 11
183.151947
 21
204.0
 31
0.0
  0
LINE
  8
0
  6
C_SOLID_H
 62
     4
 10
180.958504
 20
206.300865
 30
0.0
 11
183.151955
 21
204.045661
 31
0.0
  0
LINE
  8
0
  6
C_SOLID_H
 62
     4
 10
183.247313
 20
213.964239
 30
0.0
 11
180.863127
 21
211.689336
 31
0.0
  0
LINE
  8
0
  6
C_SOLID_H
 62
     4
 10
180.481659
 20
211.75
 30
0.0
 11
180.958496
 21
211.75
 31
0.0
  0
LINE
  8
0
  6
C_SOLID_H
 62
     4
 10
180.481659
 20
206.25
 30
0.0
 11
180.958496
 21
206.25
 31
0.0
  0
LINE
  8
0
  6
C_SOLID_H
 62
     4
 10
180.958496
 20
211.75
 30
0.0
 11
180.958496
 21
206.25
 31
0.0
  0
LINE
  8
0
  6
C_CENTER_L
 62
     3
 10
153.492676
 20
27.528969
 30
0.0
 11
153.492676
 21
13.54364
 31
0.0
  0
LINE
  8
0
  6
C_PHANTOM_L
 62
     3
 10
158.451782
 20
24.499992
 30
0.0
 11
158.451782
 21
-5.500008
 31
0.0
  0
LINE
  8
0
  6
C_PHANTOM_L
 62
     3
 10
148.533569
 20
24.499992
 30
0.0
 11
148.533569
 21
-5.500008
 31
0.0
  0
LINE
  8
0
  6
C_CENTER_L
 62
     3
 10
153.492676
 20
204.316406
 30
0.0
 11
153.492676
 21
178.772354
 31
0.0
  0
LINE
  8
0
  6
C_PHANTOM_L
 62
     3
 10
148.533569
 20
199.5
 30
0.0
 11
148.533569
 21
184.5
 31
0.0
  0
LINE
  8
0
  6
C_PHANTOM_L
 62
     3
 10
158.451782
 20
199.5
 30
0.0
 11
158.451782
 21
184.5
 31
0.0
  0
LINE
  8
0
  6
C_PHANTOM_L
 62
     3
 10
145.863281
 20
199.5
 30
0.0
 11
161.789642
 21
199.5
 31
0.0
  0
LINE
  8
0
  6
C_SOLID_L
 10
182.102906
 20
211.222964
 30
0.0
 11
175.808654
 21
238.129433
 31
0.0
  0
LINE
  8
0
  6
C_DASHED_M
 62
     1
 10
186.966644
 20
148.0
 30
0.0
 11
186.966644
 21
127.999992
 31
0.0
  0
LINE
  8
0
  6
C_DASHED_M
 62
     1
 10
186.966644
 20
81.999985
 30
0.0
 11
186.966644
 21
61.999989
 31
0.0
  0
LINE
  8
0
  6
C_SOLID_L
 10
142.811517
 20
229.425464
 30
0.0
 11
150.536275
 21
196.781572
 31
0.0
  0
LINE
  8
0
  6
C_SOLID_H
 62
     4
 10
161.50354
 20
127.999992
 30
0.0
 11
164.45993
 21
127.999992
 31
0.0
  0
LINE
  8
0
  6
C_SOLID_H
 62
     4
 10
161.50354
 20
148.0
 30
0.0
 11
164.45993
 21
148.0
 31
0.0
  0
LINE
  8
0
  6
C_SOLID_H
 62
     4
 10
161.50354
 20
81.999985
 30
0.0
 11
164.45993
 21
81.999985
 31
0.0
  0
LINE
  8
0
  6
C_SOLID_H
 62
     4
 10
161.50354
 20
61.999989
 30
0.0
 11
164.45993
 21
61.999989
 31
0.0
  0
LINE
  8
0
  6
C_SOLID_H
 62
     4
 10
180.481659
 20
222.0
 30
0.0
 11
180.481659
 21
-13.000008
 31
0.0
  0
LINE
  8
0
  6
C_SOLID_H
 62
     4
 10
183.533417
 20
222.0
 30
0.0
 11
183.533417
 21
-13.000008
 31
0.0
  0
LINE
  8
0
  6
C_SOLID_L
 10
74.051599
 20
231.725851
 30
0.0
 11
115.917906
 21
126.140644
 31
0.0
  0
LINE
  8
0
  6
C_CENTER_L
 62
     3
 10
118.492828
 20
165.163635
 30
0.0
 11
118.492828
 21
13.54364
 31
0.0
  0
LINE
  8
0
  6
C_SOLID_H
 62
     4
 10
164.45993
 20
147.999985
 30
0.0
 11
164.45993
 21
127.999985
 31
0.0
  0
LINE
  8
0
  6
C_SOLID_H
 62
     4
 10
164.45993
 20
81.999985
 30
0.0
 11
164.45993
 21
61.999989
 31
0.0
  0
LINE
  8
0
  6
C_DASHED_M
 62
     1
 10
164.45993
 20
148.0
 30
0.0
 11
186.966644
 21
148.0
 31
0.0
  0
LINE
  8
0
  6
C_DASHED_M
 62
     1
 10
164.45993
 20
127.999992
 30
0.0
 11
186.966644
 21
127.999992
 31
0.0
  0
LINE
  8
0
  6
C_DASHED_M
 62
     1
 10
164.45993
 20
81.999985
 30
0.0
 11
186.966644
 21
81.999985
 31
0.0
  0
LINE
  8
0
  6
C_DASHED_M
 62
     1
 10
164.45993
 20
61.999989
 30
0.0
 11
186.966644
 21
61.999989
 31
0.0
  0
LINE
  8
0
  6
C_CENTER_L
 62
     3
 10
93.888031
 20
43.999992
 30
0.0
 11
143.097626
 21
43.999992
 31
0.0
  0
LINE
  8
0
  6
C_CENTER_L
 62
     3
 10
99.514709
 20
49.556717
 30
0.0
 11
99.514709
 21
38.391708
 31
0.0
  0
LINE
  8
0
  6
C_CENTER_L
 62
     3
 10
137.470947
 20
49.829903
 30
0.0
 11
137.470947
 21
37.964119
 31
0.0
  0
LINE
  8
0
  6
C_CENTER_L
 10
153.492676
 20
23.535477
 30
0.0
 11
153.492676
 21
10.981659
 31
0.0
  0
LINE
  8
0
  6
C_SOLID_H
 62
     4
 10
94.269501
 20
21.999992
 30
0.0
 11
114.992828
 21
21.999992
 31
0.0
  0
LINE
  8
0
  6
C_CENTER_L
 10
137.470947
 20
48.462814
 30
0.0
 11
137.470947
 21
39.170555
 31
0.0
  0
LINE
  8
0
  6
C_PHANTOM_L
 62
     3
 10
145.100342
 20
-5.500008
 30
0.0
 11
161.980377
 21
-5.500008
 31
0.0
  0
LINE
  8
0
  6
C_SOLID_L
 10
156.735163
 20
0.370872
 30
0.0
 11
196.312652
 21
9.951157
 31
0.0
  0
LINE
  8
0
  6
C_CENTER_L
 62
     3
 10
111.435638
 20
62.999992
 30
0.0
 11
124.405609
 21
62.999992
 31
0.0
  0
LINE
  8
0
  6
C_CENTER_L
 10
112.10321
 20
24.999985
 30
0.0
 11
124.787079
 21
24.999985
 31
0.0
  0
LINE
  8
0
  6
C_CENTER_L
 10
101.513565
 20
123.999992
 30
0.0
 11
195.740448
 21
123.999992
 31
0.0
  0
LINE
  8
0
  6
C_SOLID_H
 62
     4
 10
121.992828
 20
24.999985
 30
0.0
 11
121.992828
 21
21.999992
 31
0.0
  0
LINE
  8
0
  6
C_SOLID_H
 62
     4
 10
114.992828
 20
24.999985
 30
0.0
 11
114.992828
 21
21.999992
 31
0.0
  0
LINE
  8
0
  6
C_SOLID_H
 62
     4
 10
121.992828
 20
21.999992
 30
0.0
 11
125.454651
 21
21.999992
 31
0.0
  0
LINE
  8
0
  6
C_DASHED_M
 62
     1
 10
121.992828
 20
23.749985
 30
0.0
 11
125.550018
 21
23.749985
 31
0.0
  0
LINE
  8
0
  6
C_SOLID_M
 10
186.966617
 20
137.70804
 30
0.0
 11
191.966615
 21
140.594788
 31
0.0
  0
LINE
  8
0
  6
C_SOLID_M
 10
186.966652
 20
137.70803
 30
0.0
 11
208.034298
 21
125.544636
 31
0.0
  0
LINE
  8
0
  6
C_SOLID_M
 10
186.966608
 20
72.058557
 30
0.0
 11
191.966608
 21
74.945299
 31
0.0
  0
LINE
  8
0
  6
C_SOLID_M
 10
186.966643
 20
72.058534
 30
0.0
 11
208.034302
 21
59.895135
 31
0.0
  0
LINE
  8
0
  6
C_SOLID_M
 10
208.034302
 20
125.544632
 30
0.0
 11
208.034302
 21
59.895142
 31
0.0
  0
LINE
  8
0
  6
C_CENTER_L
 62
     3
 10
-0.000023
 20
224.123322
 30
0.0
 11
0.000008
 21
198.360504
 31
0.0
  0
LINE
  8
0
  6
C_CENTER_L
 62
     3
 10
-7.54557
 20
0.0
 30
0.0
 11
7.161919
 21
0.0
 31
0.0
  0
LINE
  8
0
  6
C_CENTER_L
 62
     3
 10
-6.721153
 20
209.0
 30
0.0
 11
6.807175
 21
209.0
 31
0.0
  0
LINE
  8
0
  6
C_SOLID_H
 62
     4
 10
-5.000015
 20
91.0
 30
0.0
 11
5.999985
 21
91.0
 31
0.0
  0
LINE
  8
0
  6
C_SOLID_H
 62
     4
 10
-5.000023
 20
42.000007
 30
0.0
 11
5.99997
 21
41.999992
 31
0.0
  0
LINE
  8
0
  6
C_SOLID_H
 62
     4
 10
7.499985
 20
89.499999
 30
0.0
 11
7.499977
 21
43.499999
 31
0.0
  0
LINE
  8
0
  6
C_SOLID_H
 62
     4
 10
-6.500023
 20
89.500002
 30
0.0
 11
-6.500038
 21
43.499998
 31
0.0
  0
LINE
  8
0
  6
C_SOLID_H
 62
     4
 10
-5.000015
 20
125.0
 30
0.0
 11
5.999992
 21
125.0
 31
0.0
  0
LINE
  8
0
  6
C_SOLID_H
 62
     4
 10
-5.0
 20
174.0
 30
0.0
 11
6.0
 21
174.0
 31
0.0
  0
LINE
  8
0
  6
C_SOLID_H
 62
     4
 10
7.5
 20
172.5
 30
0.0
 11
7.5
 21
162.832275
 31
0.0
  0
LINE
  8
0
  6
C_SOLID_H
 62
     4
 10
-6.5
 20
172.500001
 30
0.0
 11
-6.500008
 21
126.499993
 31
0.0
  0
LINE
  8
0
  6
C_CENTER_L
 62
     3
 10
0.0
 20
11.583176
 30
0.0
 11
0.0
 21
-15.421654
 31
0.0
  0
LINE
  8
0
  6
C_SOLID_H
 62
     4
 10
7.5
 20
136.167713
 30
0.0
 11
7.499985
 21
126.499996
 31
0.0
  0
LINE
  8
0
  6
C_DASHED_M
 62
     1
 10
7.5
 20
162.832275
 30
0.0
 11
7.5
 21
136.167709
 31
0.0
  0
LINE
  8
0
  6
C_SOLID_H
 62
     4
 10
-11.999985
 20
210.000002
 30
0.0
 11
-12.000015
 21
-1.000008
 31
0.0
  0
LINE
  8
0
  6
C_SOLID_H
 62
     4
 10
11.999992
 20
210.0
 30
0.0
 11
11.999992
 21
-1.000008
 31
0.0
  0
LINE
  8
0
  6
C_CENTER_L
 62
     3
 10
-12.00003
 20
222.000007
 30
0.0
 11
-11.999985
 21
198.360511
 31
0.0
  0
LINE
  8
0
  6
C_CENTER_L
 62
     3
 10
11.999978
 20
222.0
 30
0.0
 11
12.000008
 21
198.360504
 31
0.0
  0
LINE
  8
0
  6
C_CENTER_L
 62
     3
 10
-12.000031
 20
222.0
 30
0.0
 11
11.999977
 21
222.0
 31
0.0
  0
LINE
  8
0
  6
C_CENTER_L
 62
     3
 10
12.000007
 20
11.583176
 30
0.0
 11
11.999992
 21
-13.000007
 31
0.0
  0
LINE
  8
0
  6
C_CENTER_L
 62
     3
 10
-12.000015
 20
-13.000008
 30
0.0
 11
11.999992
 21
-13.000008
 31
0.0
  0
LINE
  8
0
  6
C_CENTER_L
 62
     3
 10
-11.999985
 20
11.583175
 30
0.0
 11
-12.000015
 21
-13.000008
 31
0.0
  0
LINE
  8
0
  6
C_SOLID_H
 10
5.499969
 20
148.0
 30
0.0
 11
-4.000038
 21
148.0
 31
0.0
  0
LINE
  8
0
  6
C_SOLID_H
 10
5.499992
 20
128.0
 30
0.0
 11
-4.000008
 21
128.0
 31
0.0
  0
LINE
  8
0
  6
C_SOLID_H
 10
5.499977
 20
82.0
 30
0.0
 11
-4.000015
 21
82.0
 31
0.0
  0
LINE
  8
0
  6
C_SOLID_H
 10
5.499977
 20
61.999996
 30
0.0
 11
-4.000015
 21
61.999996
 31
0.0
  0
LINE
  8
0
  6
C_SOLID_H
 62
     4
 10
5.499969
 20
148.000006
 30
0.0
 11
5.499992
 21
127.999999
 31
0.0
  0
LINE
  8
0
  6
C_SOLID_H
 62
     4
 10
-4.000038
 20
147.999994
 30
0.0
 11
-4.000008
 21
127.999994
 31
0.0
  0
LINE
  8
0
  6
C_SOLID_H
 62
     4
 10
-4.000015
 20
82.0
 30
0.0
 11
-4.000015
 21
61.999996
 31
0.0
  0
LINE
  8
0
  6
C_SOLID_H
 62
     4
 10
5.499977
 20
82.0
 30
0.0
 11
5.499977
 21
61.999996
 31
0.0
  0
LINE
  8
0
  6
C_SOLID_H
 62
     4
 10
187.033417
 20
-79.003029
 30
0.0
 11
187.033417
 21
-88.503044
 31
0.0
  0
LINE
  8
0
  6
C_SOLID_H
 62
     4
 10
183.533432
 20
-72.753031
 30
0.0
 11
183.533416
 21
-96.753046
 31
0.0
  0
LINE
  8
0
  6
C_SOLID_H
 62
     4
 10
180.533417
 20
-72.753029
 30
0.0
 11
180.533417
 21
-96.753044
 31
0.0
  0
LINE
  8
0
  6
C_SOLID_H
 62
     4
 10
166.533401
 20
-76.753044
 30
0.0
 11
166.533401
 21
-90.753044
 31
0.0
  0
LINE
  8
0
  6
C_SOLID_H
 62
     4
 10
133.533409
 20
-76.753029
 30
0.0
 11
133.533394
 21
-90.753029
 31
0.0
  0
LINE
  8
0
  6
C_SOLID_H
 62
     4
 10
94.333401
 20
-76.753012
 30
0.0
 11
94.333393
 21
-90.752996
 31
0.0
  0
LINE
  8
0
  6
C_SOLID_H
 62
     4
 10
92.975433
 20
-76.753014
 30
0.0
 11
92.975433
 21
-90.752998
 31
0.0
  0
LINE
  8
0
  6
C_SOLID_H
 62
     4
 10
85.533401
 20
-76.753014
 30
0.0
 11
85.533401
 21
-87.752998
 31
0.0
  0
LINE
  8
0
  6
C_CENTER_L
 62
     3
 10
159.810062
 20
-83.753029
 30
0.0
 11
147.508166
 21
-83.753013
 31
0.0
  0
LINE
  8
0
  6
C_SOLID_H
 62
     4
 10
183.533432
 20
-72.753029
 30
0.0
 11
180.533417
 21
-72.753029
 31
0.0
  0
LINE
  8
0
  6
C_SOLID_H
 62
     4
 10
180.533423
 20
-76.753041
 30
0.0
 11
85.5334
 21
-76.753011
 31
0.0
  0
LINE
  8
0
  6
C_SOLID_H
 62
     4
 10
180.533417
 20
-90.753042
 30
0.0
 11
88.53341
 21
-90.752997
 31
0.0
  0
LINE
  8
0
  6
C_SOLID_H
 62
     4
 10
183.533417
 20
-96.753044
 30
0.0
 11
180.533417
 21
-96.753044
 31
0.0
  0
LINE
  8
0
  6
C_CENTER_L
 62
     3
 10
118.533413
 20
-73.421132
 30
0.0
 11
118.533405
 21
-94.332845
 31
0.0
  0
LINE
  8
0
  6
C_CENTER_L
 62
     3
 10
153.533401
 20
-78.496803
 30
0.0
 11
153.533401
 21
-88.884743
 31
0.0
  0
LINE
  8
0
  6
C_SOLID_H
 62
     4
 10
122.033405
 20
-76.753027
 30
0.0
 11
122.033398
 21
-90.753027
 31
0.0
  0
LINE
  8
0
  6
C_SOLID_H
 62
     4
 10
115.033409
 20
-76.753029
 30
0.0
 11
115.033409
 21
-90.753029
 31
0.0
  0
LINE
  8
0
  6
C_DASHED_M
 62
     1
 10
180.533417
 20
-78.503044
 30
0.0
 11
166.533401
 21
-78.503044
 31
0.0
  0
LINE
  8
0
  6
C_DASHED_M
 62
     1
 10
180.533417
 20
-89.003029
 30
0.0
 11
166.533401
 21
-89.003029
 31
0.0
  0
LINE
  8
0
  6
C_DASHED_M
 62
     1
 10
87.283409
 20
-76.753014
 30
0.0
 11
87.283409
 21
-88.003014
 31
0.0
  0
LINE
  8
0
  6
C_DASHED_M
 62
     1
 10
133.533417
 20
-78.503014
 30
0.0
 11
122.033409
 21
-78.503014
 31
0.0
  0
LINE
  8
0
  6
C_DASHED_M
 62
     1
 10
133.533401
 20
-89.003014
 30
0.0
 11
122.033401
 21
-89.003014
 31
0.0
  0
LINE
  8
0
  6
C_SOLID_H
 62
     4
 10
166.533405
 20
-78.503046
 30
0.0
 11
133.53342
 21
-78.503015
 31
0.0
  0
LINE
  8
0
  6
C_SOLID_H
 62
     4
 10
166.533406
 20
-89.00303
 30
0.0
 11
133.533406
 21
-89.003014
 31
0.0
  0
LINE
  8
0
  6
C_SOLID_H
 62
     4
 10
122.033409
 20
-78.503014
 30
0.0
 11
115.033409
 21
-78.503014
 31
0.0
  0
LINE
  8
0
  6
C_SOLID_H
 62
     4
 10
122.033401
 20
-89.003014
 30
0.0
 11
115.033409
 21
-89.003014
 31
0.0
  0
LINE
  8
0
  6
C_DASHED_M
 62
     1
 10
115.033412
 20
-89.003011
 30
0.0
 11
88.283404
 21
-89.002995
 31
0.0
  0
LINE
  8
0
  6
C_DASHED_M
 62
     1
 10
115.033412
 20
-78.503016
 30
0.0
 11
87.283412
 21
-78.503001
 31
0.0
  0
LINE
  8
0
  6
C_SOLID_H
 62
     4
 10
187.033417
 20
-79.003029
 30
0.0
 11
183.533417
 21
-79.003029
 31
0.0
  0
LINE
  8
0
  6
C_SOLID_H
 62
     4
 10
187.033417
 20
-88.503044
 30
0.0
 11
183.533417
 21
-88.503044
 31
0.0
  0
LINE
  8
0
  6
C_SOLID_H
 62
     4
 10
167.533414
 20
-75.753041
 30
0.0
 11
132.533414
 21
-75.753026
 31
0.0
  0
LINE
  8
0
  6
C_SOLID_H
 62
     4
 10
167.533407
 20
-91.753041
 30
0.0
 11
132.533407
 21
-91.753026
 31
0.0
  0
LINE
  8
0
  6
C_SOLID_H
 62
     4
 10
167.533417
 20
-75.753044
 30
0.0
 11
167.533417
 21
-76.753044
 31
0.0
  0
LINE
  8
0
  6
C_SOLID_H
 62
     4
 10
132.533417
 20
-75.753029
 30
0.0
 11
132.533417
 21
-76.753029
 31
0.0
  0
LINE
  8
0
  6
C_SOLID_H
 62
     4
 10
132.533401
 20
-90.753029
 30
0.0
 11
132.533401
 21
-91.753029
 31
0.0
  0
LINE
  8
0
  6
C_SOLID_H
 62
     4
 10
167.533401
 20
-90.753044
 30
0.0
 11
167.533401
 21
-91.753044
 31
0.0
  0
ARC
  8
0
  6
C_SOLID_H
 62
     4
 10
118.492828
 20
144.75
 30
0.0
 40
3.5
 50
0.0
 51
180.000005
  0
ARC
  8
0
  6
C_SOLID_H
 62
     4
 10
118.492828
 20
142.25
 30
0.0
 40
3.5
 50
180.000009
 51
359.999989
  0
ARC
  8
0
  6
C_SOLID_H
 62
     4
 10
118.492828
 20
104.999992
 30
0.0
 40
3.5
 50
0.0
 51
180.000005
  0
ARC
  8
0
  6
C_SOLID_H
 62
     4
 10
118.492828
 20
102.499992
 30
0.0
 40
3.5
 50
180.000009
 51
359.999989
  0
ARC
  8
0
  6
C_SOLID_H
 62
     4
 10
85.877167
 20
178.799988
 30
0.0
 40
1.5
 50
334.157896
 51
341.405829
  0
ARC
  8
0
  6
C_SOLID_H
 62
     4
 10
85.877167
 20
30.199989
 30
0.0
 40
1.5
 50
18.650755
 51
25.842104
  0
ARC
  8
0
  6
C_SOLID_H
 62
     4
 10
93.697296
 20
186.599991
 30
0.0
 40
1.5
 50
288.594197
 51
295.842039
  0
ARC
  8
0
  6
C_SOLID_H
 62
     4
 10
134.705292
 20
185.75
 30
0.0
 40
1.25
 50
180.000009
 51
270.000004
  0
ARC
  8
0
  6
C_SOLID_H
 62
     4
 10
165.22287
 20
185.75
 30
0.0
 40
1.25
 50
269.999998
 51
0.0
  0
ARC
  8
0
  6
C_SOLID_H
 62
     4
 10
168.274628
 20
23.249992
 30
0.0
 40
1.25
 50
0.0
 51
90.000002
  0
ARC
  8
0
  6
C_SOLID_H
 62
     4
 10
93.697296
 20
22.399994
 30
0.0
 40
1.5
 50
64.157961
 51
71.406179
  0
CIRCLE
  8
0
  6
C_SOLID_H
 62
     4
 10
118.492828
 20
123.999992
 30
0.0
 40
7.75
  0
ARC
  8
0
  6
C_PHANTOM_L
 10
93.697296
 20
22.399994
 30
0.0
 40
1.5
 50
63.774603
 51
64.157961
  0
ARC
  8
0
  6
C_SOLID_H
 62
     4
 10
163.506256
 20
172.0
 30
0.0
 40
2.0
 50
90.000002
 51
180.000005
  0
ARC
  8
0
  6
C_SOLID_H
 62
     4
 10
163.506256
 20
125.999992
 30
0.0
 40
2.0
 50
180.000009
 51
270.000004
  0
ARC
  8
0
  6
C_SOLID_H
 62
     4
 10
163.506256
 20
90.499992
 30
0.0
 40
2.0
 50
90.000002
 51
180.000005
  0
ARC
  8
0
  6
C_SOLID_H
 62
     4
 10
163.506256
 20
42.999992
 30
0.0
 40
2.0
 50
180.000009
 51
270.000004
  0
CIRCLE
  8
0
  6
C_DASHED_L
 10
118.492828
 20
123.999992
 30
0.0
 40
9.5
  0
ARC
  8
0
  6
C_SOLID_H
 62
     4
 10
171.803223
 20
99.099991
 30
0.0
 40
2.6
 50
0.0
 51
90.000002
  0
ARC
  8
0
  6
C_SOLID_H
 62
     4
 10
147.961365
 20
95.999992
 30
0.0
 40
2.6
 50
100.634675
 51
280.634687
  0
ARC
  8
0
  6
C_SOLID_H
 62
     4
 10
164.936768
 20
94.499992
 30
0.0
 40
2.0
 50
90.000002
 51
100.634641
  0
ARC
  8
0
  6
C_CENTER_L
 10
164.936768
 20
94.499992
 30
0.0
 40
4.6
 50
90.000002
 51
100.634709
  0
ARC
  8
0
  6
C_SOLID_H
 62
     4
 10
164.936768
 20
94.499992
 30
0.0
 40
7.2
 50
90.000002
 51
100.634703
  0
ARC
  8
0
  6
C_SOLID_H
 62
     4
 10
171.803223
 20
99.099991
 30
0.0
 40
2.6
 50
269.999998
 51
359.999989
  0
CIRCLE
  8
0
  6
C_SOLID_H
 62
     4
 10
147.961365
 20
95.999992
 30
0.0
 40
2.5
  0
CIRCLE
  8
0
  6
C_SOLID_H
 62
     4
 10
137.470947
 20
43.999992
 30
0.0
 40
3.5
  0
CIRCLE
  8
0
  6
C_SOLID_H
 62
     4
 10
99.514709
 20
43.999992
 30
0.0
 40
3.5
  0
CIRCLE
  8
0
  6
C_SOLID_H
 62
     4
 10
118.492828
 20
62.999992
 30
0.0
 40
3.5
  0
ARC
  8
0
  6
C_SOLID_H
 62
     4
 10
118.492828
 20
24.999985
 30
0.0
 40
3.5
 50
0.0
 51
180.000005
  0
ARC
  8
0
  6
C_SOLID_H
 62
     4
 10
126.704651
 20
23.249992
 30
0.0
 40
1.25
 50
90.000002
 51
180.000005
  0
CIRCLE
  8
0
  6
C_SOLID_H
 62
     4
 10
0.000008
 20
209.0
 30
0.0
 40
2.75
  0
CIRCLE
  8
0
  6
C_SOLID_H
 62
     4
 10
0.0
 20
0.0
 30
0.0
 40
2.75
  0
CIRCLE
  8
0
  6
C_SOLID_H
 62
     4
 10
0.000008
 20
209.0
 30
0.0
 40
5.0
  0
CIRCLE
  8
0
  6
C_SOLID_H
 62
     4
 10
0.0
 20
0.0
 30
0.0
 40
5.0
  0
ARC
  8
0
  6
C_SOLID_H
 62
     4
 10
-5.000015
 20
89.5
 30
0.0
 40
1.5
 50
89.999989
 51
179.999991
  0
ARC
  8
0
  6
C_SOLID_H
 62
     4
 10
5.999985
 20
89.5
 30
0.0
 40
1.5
 50
0.0
 51
89.999989
  0
ARC
  8
0
  6
C_SOLID_H
 62
     4
 10
5.999969
 20
43.5
 30
0.0
 40
1.5
 50
269.999977
 51
359.999989
  0
ARC
  8
0
  6
C_SOLID_H
 62
     4
 10
-5.000023
 20
43.5
 30
0.0
 40
1.5
 50
179.999991
 51
270.000001
  0
ARC
  8
0
  6
C_SOLID_H
 62
     4
 10
-5.0
 20
172.5
 30
0.0
 40
1.5
 50
89.999989
 51
179.999991
  0
ARC
  8
0
  6
C_SOLID_H
 62
     4
 10
6.0
 20
172.5
 30
0.0
 40
1.5
 50
0.0
 51
89.999989
  0
ARC
  8
0
  6
C_SOLID_H
 62
     4
 10
5.999992
 20
126.499992
 30
0.0
 40
1.5
 50
269.999977
 51
359.999989
  0
ARC
  8
0
  6
C_SOLID_H
 62
     4
 10
-5.000015
 20
126.499992
 30
0.0
 40
1.5
 50
179.999991
 51
270.000001
  0
ARC
  8
0
  6
C_SOLID_H
 62
     4
 10
66.0
 20
149.5
 30
0.0
 40
60.0
 50
167.161421
 51
192.838548
  0
ARC
  8
0
  6
C_SOLID_H
 62
     4
 10
0.0
 20
-1.000008
 30
0.0
 40
12.0
 50
179.999991
 51
360.0
  0
ARC
  8
0
  6
C_SOLID_H
 62
     4
 10
0.000008
 20
210.0
 30
0.0
 40
12.0
 50
0.0
 51
179.999991
  0
ARC
  8
0
  6
C_SOLID_H
 62
     4
 10
88.533409
 20
-87.752998
 30
0.0
 40
3.0
 50
179.999991
 51
269.999973
  0
ARC
  8
0
  6
C_SOLID_L
 62
     3
 10
153.533401
 20
-83.753014
 30
0.0
 40
2.5
 50
0.0
 51
102.500417
  0
CIRCLE
  8
0
  6
C_SOLID_H
 62
     4
 10
153.533401
 20
-83.753014
 30
0.0
 40
2.0
  0
ARC
  8
0
  6
C_DASHED_M
 62
     1
 10
88.283401
 20
-88.003014
 30
0.0
 40
1.0
 50
179.999991
 51
269.999973
  0
ARC
  8
0
  6
C_SOLID_L
 62
     3
 10
153.533401
 20
-83.753014
 30
0.0
 40
2.5
 50
172.474284
 51
360.0
  0
POLYLINE
  8
0
  6
C_SOLID_M
 62
     1
 66
     1
 10
0.0
 20
0.0
 30
0.0
  0
VERTEX
  8
0
  6
C_SOLID_M
 62
     1
 10
180.481659
 20
197.906128
 30
0.0
  0
VERTEX
  8
0
  6
C_SOLID_M
 62
     1
 10
180.583097
 20
198.114898
 30
0.0
  0
VERTEX
  8
0
  6
C_SOLID_M
 62
     1
 10
180.758436
 20
198.416339
 30
0.0
  0
VERTEX
  8
0
  6
C_SOLID_M
 62
     1
 10
180.962358
 20
198.6982
 30
0.0
  0
VERTEX
  8
0
  6
C_SOLID_M
 62
     1
 10
181.11461
 20
198.87216
 30
0.0
  0
VERTEX
  8
0
  6
C_SOLID_M
 62
     1
 10
181.23754
 20
198.993999
 30
0.0
  0
VERTEX
  8
0
  6
C_SOLID_M
 62
     1
 10
181.436243
 20
199.161024
 30
0.0
  0
VERTEX
  8
0
  6
C_SOLID_M
 62
     1
 10
181.652435
 20
199.306839
 30
0.0
  0
VERTEX
  8
0
  6
C_SOLID_M
 62
     1
 10
181.867595
 20
199.420678
 30
0.0
  0
VERTEX
  8
0
  6
C_SOLID_M
 62
     1
 10
182.035026
 20
199.491383
 30
0.0
  0
VERTEX
  8
0
  6
C_SOLID_M
 62
     1
 10
182.294199
 20
199.575092
 30
0.0
  0
VERTEX
  8
0
  6
C_SOLID_M
 62
     1
 10
182.560859
 20
199.63353
 30
0.0
  0
VERTEX
  8
0
  6
C_SOLID_M
 62
     1
 10
182.802225
 20
199.665668
 30
0.0
  0
VERTEX
  8
0
  6
C_SOLID_M
 62
     1
 10
183.168079
 20
199.681687
 30
0.0
  0
VERTEX
  8
0
  6
C_SOLID_M
 62
     1
 10
183.533417
 20
199.66275
 30
0.0
  0
SEQEND
  8
0
  6
C_SOLID_M
 62
     1
  0
POLYLINE
  8
0
  6
C_SOLID_M
 66
     1
 10
0.0
 20
0.0
 30
0.0
 70
     1
  0
VERTEX
  8
0
  6
C_SOLID_M
 10
94.780998
 20
131.426567
 30
0.0
  0
VERTEX
  8
0
  6
C_SOLID_M
 10
95.898201
 20
131.426567
 30
0.0
  0
VERTEX
  8
0
  6
C_SOLID_M
 10
95.898201
 20
132.641655
 30
0.0
  0
VERTEX
  8
0
  6
C_SOLID_M
 10
94.780998
 20
132.641655
 30
0.0
  0
VERTEX
  8
0
  6
C_SOLID_M
 10
94.780998
 20
131.426567
 30
0.0
  0
SEQEND
  8
0
  6
C_SOLID_M
  0
TEXT
  8
0
  6
C_SOLID_L
 10
133.442078
 20
-39.226387
 30
0.0
 40
2.5
  1
(Dornmaß)
 41
0.880742
  0
TEXT
  8
0
  6
C_SOLID_L
 10
168.209077
 20
240.05069
 30
0.0
 40
2.5
  1
Senkung DIN 74-Af5
 41
0.714286
  0
TEXT
  8
0
  6
C_SOLID_L
 10
126.471673
 20
231.766022
 30
0.0
 40
2.5
  1
Hub 20 mm
 41
0.714286
  0
TEXT
  8
0
  6
C_SOLID_L
 10
65.957498
 20
241.045654
 30
0.0
 40
2.5
  1
Drehwinkel
 41
0.62729
  0
TEXT
  8
0
  6
C_SOLID_L
 10
65.957498
 20
237.474226
 30
0.0
 40
2.5
  1
zum Öffnen 40%%D
 41
0.62729
  0
TEXT
  8
0
  6
C_SOLID_L
 10
197.772981
 20
9.145836
 30
0.0
 40
2.5
  1
Hub 20 mm
 41
0.714286
  0
TEXT
  8
0
  6
C_SOLID_L
 10
217.161285
 20
50.99352
 30
0.0
 40
2.5
  1
in Auslösestellung
 50
90.0
 41
0.714286
  0
LINE
  8
0
  6
BYBLOCK
 10
93.305511
 20
123.999992
 30
0.0
 11
64.610229
 21
123.999992
 31
0.0
  0
LINE
  8
0
  6
BYBLOCK
 10
148.15184
 20
144.75
 30
0.0
 11
159.560303
 21
144.75
 31
0.0
  0
LINE
  8
0
  6
BYBLOCK
 10
66.162994
 20
43.999992
 30
0.0
 11
60.682369
 21
43.999992
 31
0.0
  0
LINE
  8
0
  6
BYBLOCK
 10
126.21759
 20
167.403397
 30
0.0
 11
126.21759
 21
211.116486
 31
0.0
  0
LINE
  8
0
  6
BYBLOCK
 10
110.768066
 20
161.624802
 30
0.0
 11
110.768066
 21
211.116486
 31
0.0
  0
LINE
  8
0
  6
BYBLOCK
 10
60.44421
 20
187.0
 30
0.0
 11
50.031853
 21
187.0
 31
0.0
  0
POLYLINE
  8
MO_001_NOSHOW
  6
C_SOLID_M
 66
     1
 10
0.0
 20
0.0
 30
0.0
 70
     4
 75
     6
  0
VERTEX
  8
MO_001_NOSHOW
  6
C_SOLID_M
 10
180.481659
 20
197.906128
 30
0.0
 50
65.691929
  0
VERTEX
  8
MO_001_NOSHOW
  6
C_SOLID_M
 10
181.652435
 20
199.306839
 30
0.0
 50
30.832589
  0
VERTEX
  8
MO_001_NOSHOW
  6
C_SOLID_M
 10
183.533417
 20
199.66275
 30
0.0
 50
354.306405
  0
SEQEND
  8
MO_001_NOSHOW
  6
C_SOLID_M
  0
INSERT
  8
0
  6
C_SOLID_M
 62
     3
  2
*X2
 10
0.0
 20
0.0
 30
0.0
  0
INSERT
  8
0
  6
C_SOLID_M
 62
     3
  2
*X3
 10
0.0
 20
0.0
 30
0.0
  0
DIMENSION
  8
0
  6
C_SOLID_M
  2
*D4
 10
98.656403
 20
134.676697
 30
0.0
 11
98.656403
 21
134.676697
 31
0.0
  1
9
 13
114.010559
 23
128.5
 33
0.0
 14
114.010559
 24
119.499992
 34
0.0
 50
89.999523
  3
STANDARD
  0
DIMENSION
  8
0
  6
C_SOLID_M
  2
*D5
 10
63.182369
 20
172.041183
 30
0.0
 11
63.182369
 21
172.041183
 31
0.0
  1
98
 13
180.481659
 23
222.0
 33
0.0
 14
92.07605
 24
123.999992
 34
0.0
 50
89.999523
  3
STANDARD
  0
DIMENSION
  8
0
  6
C_SOLID_M
  2
*D6
 10
52.531853
 20
92.074593
 30
0.0
 11
52.531853
 21
92.074593
 31
0.0
  1
165
 13
94.269501
 23
21.999992
 33
0.0
 14
94.269501
 24
187.0
 34
0.0
 50
89.999523
  3
STANDARD
  0
DIMENSION
  8
0
  6
C_SOLID_M
  2
*D7
 10
197.361694
 20
215.359665
 30
0.0
 11
197.361694
 21
215.359665
 31
0.0
  1
13
 13
183.533417
 23
222.0
 33
0.0
 14
186.108337
 24
209.0
 34
0.0
 50
89.999523
  3
STANDARD
  0
DIMENSION
  8
0
  6
C_SOLID_M
  2
*D8
 10
99.705444
 20
-12.763023
 30
0.0
 11
99.705444
 21
-12.763023
 31
0.0
  1
33
 13
85.495697
 23
30.749992
 33
0.0
 14
118.492828
 24
13.54364
 34
0.0
  3
STANDARD
  0
DIMENSION
  8
0
  6
C_SOLID_M
  2
*D9
 10
135.849701
 20
-23.072151
 30
0.0
 11
135.849701
 21
-23.072151
 31
0.0
  1
B
 13
153.492676
 23
13.54364
 33
0.0
 14
118.492828
 24
13.54364
 34
0.0
  3
STANDARD
  0
DIMENSION
  8
0
  6
C_SOLID_M
  2
*D10
 10
151.013123
 20
-33.530479
 30
0.0
 11
151.013123
 21
-33.530479
 31
0.0
  1
A
 13
118.492828
 23
13.54364
 33
0.0
 14
183.533417
 24
-13.000008
 34
0.0
  3
STANDARD
  0
DIMENSION
  8
0
  6
C_SOLID_M
  2
*D11
 10
129.364716
 20
157.279541
 30
0.0
 11
129.364716
 21
157.279541
 31
0.0
  1
7
 13
122.021423
 23
144.75
 33
0.0
 14
114.964233
 24
144.75
 34
0.0
  3
STANDARD
  0
DIMENSION
  8
0
  6
C_SOLID_M
  2
*D12
 10
146.054016
 20
115.092957
 30
0.0
 11
146.054016
 21
115.092957
 31
0.0
  1
19
 13
99.228607
 23
123.999992
 33
0.0
 14
123.833405
 24
104.999992
 34
0.0
 50
89.999523
  3
STANDARD
  0
DIMENSION
  8
0
  6
C_SOLID_M
  2
*D13
 10
145.958649
 20
157.668777
 30
0.0
 11
145.958649
 21
157.668777
 31
0.0
  1
18.25
 13
124.119507
 23
142.25
 33
0.0
 14
99.228607
 24
123.999992
 34
0.0
 50
89.999523
  3
STANDARD
  0
DIMENSION
  8
0
  6
C_SOLID_M
  2
*D14
 10
157.060303
 20
161.409698
 30
0.0
 11
157.060303
 21
161.409698
 31
0.0
  1
20.75
 13
123.64267
 23
144.75
 33
0.0
 14
99.228607
 24
123.999992
 34
0.0
 50
89.999523
  3
STANDARD
  0
DIMENSION
  8
0
  6
C_SOLID_M
  2
*D15
 10
157.060303
 20
79.495636
 30
0.0
 11
157.060303
 21
79.495636
 31
0.0
  1
21.5
 13
123.356567
 23
102.499992
 33
0.0
 14
173.30751
 24
123.999992
 34
0.0
 50
89.999523
  3
STANDARD
  0
DIMENSION
  8
0
  6
C_SOLID_M
  2
*D16
 10
93.727257
 20
208.616486
 30
0.0
 11
93.727257
 21
208.616486
 31
0.0
  1
15.5
 13
126.21759
 23
123.999992
 33
0.0
 14
110.768066
 24
123.999992
 34
0.0
  3
STANDARD
  0
DIMENSION
  8
0
  6
C_SOLID_M
  2
*D17
 10
126.59906
 20
91.546188
 30
0.0
 11
126.59906
 21
91.546188
 31
0.0
  1
7
 13
122.021423
 23
104.999992
 33
0.0
 14
114.964233
 24
104.999992
 34
0.0
  3
STANDARD
  0
DIMENSION
  8
0
  6
C_SOLID_M
  2
*D18
 10
170.39296
 20
207.46962
 30
0.0
 11
170.39296
 21
207.46962
 31
0.0
  1
%%C5.5
 13
180.958496
 23
206.25
 33
0.0
 14
180.958496
 24
211.75
 34
0.0
 50
89.999523
  3
STANDARD
  0
DIMENSION
  8
0
  6
C_SOLID_M
  2
*D19
 10
240.664429
 20
104.674118
 30
0.0
 11
240.664429
 21
104.674118
 31
0.0
  1
209
 13
186.108337
 23
209.0
 33
0.0
 14
189.636932
 24
-0.000015
 34
0.0
 50
89.999523
  3
STANDARD
  0
DIMENSION
  8
0
  6
C_SOLID_M
  2
*D20
 10
252.41925
 20
105.009628
 30
0.0
 11
252.41925
 21
105.009628
 31
0.0
  1
235
 13
183.533417
 23
222.0
 33
0.0
 14
183.533417
 24
-13.000008
 34
0.0
 50
89.999523
  3
STANDARD
  0
DIMENSION
  8
0
  6
C_SOLID_M
  2
*D21
 10
193.45163
 20
-23.872353
 30
0.0
 11
193.45163
 21
-23.872353
 31
0.0
  1
3
 13
183.533417
 23
-13.000008
 33
0.0
 14
180.481659
 24
-13.000008
 34
0.0
  3
STANDARD
  0
DIMENSION
  8
0
  6
C_SOLID_M
  2
*D22
 10
211.380707
 20
189.960236
 30
0.0
 11
211.380707
 21
189.960236
 31
0.0
  1
C
 13
183.533417
 23
148.0
 33
0.0
 14
186.966644
 24
81.999985
 34
0.0
  3
STANDARD
  0
DIMENSION
  8
0
  6
C_SOLID_M
  2
*D23
 10
63.182369
 20
83.999992
 30
0.0
 11
63.182369
 21
83.999992
 31
0.0
  1
80
 13
93.888031
 23
43.999992
 33
0.0
 14
94.223068
 24
123.999992
 34
0.0
 50
89.999523
  3
STANDARD
  0
DIMENSION
  8
0
  6
C_SOLID_M
  2
*D24
 10
132.893311
 20
-12.468239
 30
0.0
 11
132.893311
 21
-12.468239
 31
0.0
  1
%%C10
 13
158.451782
 23
-5.500008
 33
0.0
 14
148.533569
 24
-5.500008
 34
0.0
  3
STANDARD
  0
DIMENSION
  8
0
  6
C_SOLID_M
  2
*D25
 10
117.78759
 20
73.373947
 30
0.0
 11
117.78759
 21
73.373947
 31
0.0
  1
38
 13
137.470947
 23
45.564522
 33
0.0
 14
99.514709
 24
49.556717
 34
0.0
  3
STANDARD
  0
DIMENSION
  8
0
  6
C_SOLID_M
  2
*D26
 10
149.113068
 20
54.374413
 30
0.0
 11
149.113068
 21
54.374413
 31
0.0
  1
7
 13
140.999542
 23
43.999992
 33
0.0
 14
134.03772
 24
43.999992
 34
0.0
  3
STANDARD
  0
DIMENSION
  8
0
  6
C_SOLID_M
  2
*D27
 10
74.946632
 20
94.041977
 30
0.0
 11
74.946632
 21
94.041977
 31
0.0
  1
61
 13
111.435638
 23
62.999992
 33
0.0
 14
99.228607
 24
123.999992
 34
0.0
 50
89.999523
  3
STANDARD
  0
DIMENSION
  8
0
  6
C_SOLID_M
  2
*D28
 10
75.263153
 20
43.895859
 30
0.0
 11
75.263153
 21
43.895859
 31
0.0
  1
38
 13
111.435638
 23
62.999992
 33
0.0
 14
112.10321
 24
24.999985
 34
0.0
 50
89.999523
  3
STANDARD
  0
DIMENSION
  8
0
  6
C_SOLID_M
  2
*D29
 10
52.531853
 20
204.5
 30
0.0
 11
52.531853
 21
204.5
 31
0.0
  1
35
 13
50.031853
 23
187.0
 33
0.0
 14
60.682369
 24
222.0
 34
0.0
 50
89.999523
  3
STANDARD
  0
DIMENSION
  8
0
  6
C_SOLID_M
  2
*D30
 10
-1.012253
 20
105.542191
 30
0.0
 11
-1.012253
 21
105.542191
 31
0.0
  1
14
 13
7.499985
 23
126.49999
 33
0.0
 14
-6.500008
 24
126.499989
 34
0.0
  3
STANDARD
  0
DIMENSION
  8
0
  6
C_SOLID_M
  2
*D31
 10
21.214432
 20
190.746887
 30
0.0
 11
21.214432
 21
190.746887
 31
0.0
  1
6
 13
11.999977
 23
220.0
 33
0.0
 14
6.0
 24
149.5
 34
0.0
  3
STANDARD
  0
DIMENSION
  8
0
  6
C_SOLID_M
  2
*D32
 10
-0.597496
 20
15.547562
 30
0.0
 11
-0.597496
 21
15.547562
 31
0.0
  1
24
 13
11.999993
 23
-1.000008
 33
0.0
 14
-12.000015
 24
-1.000008
 34
0.0
  3
STANDARD
  0
DIMENSION
  8
0
  6
C_SOLID_M
  2
*D33
 10
24.921875
 20
105.459564
 30
0.0
 11
24.921875
 21
105.459564
 31
0.0
  1
4.5
 13
11.999992
 23
-1.000008
 33
0.0
 14
7.499985
 24
126.499992
 34
0.0
  3
STANDARD
  0
DIMENSION
  8
0
  6
C_SOLID_M
  2
*D34
 10
174.730316
 20
-63.774223
 30
0.0
 11
174.730316
 21
-63.774223
 31
0.0
  1
4
 13
180.533417
 23
-76.753044
 33
0.0
 14
180.533417
 24
-72.753029
 34
0.0
 50
89.999523
  3
STANDARD
  0
DIMENSION
  8
0
  6
C_SOLID_M
  2
*D35
 10
161.770996
 20
-59.033287
 30
0.0
 11
161.770996
 21
-59.033287
 31
0.0
  1
11
 13
159.810059
 23
-83.753029
 33
0.0
 14
180.533417
 24
-72.753029
 34
0.0
 50
89.999443
  3
STANDARD
  0
DIMENSION
  8
0
  6
C_SOLID_M
  2
*D36
 10
71.942078
 20
-84.837502
 30
0.0
 11
71.942078
 21
-84.837502
 31
0.0
  1
16
 13
132.533401
 23
-91.753029
 33
0.0
 14
132.533417
 24
-75.753029
 34
0.0
 50
89.999523
  3
STANDARD
  0
DIMENSION
  8
0
  6
C_SOLID_M
  2
*D37
 10
168.893982
 20
-112.151146
 30
0.0
 11
168.893982
 21
-112.151146
 31
0.0
  1
M5
 13
151.033401
 23
-83.753014
 33
0.0
 14
156.033401
 24
-83.753014
 34
0.0
  3
STANDARD
  0
DIMENSION
  8
0
  6
C_SOLID_M
  2
*D38
 10
-0.000023
 20
-1.000015
 30
0.0
 11
27.871223
 21
-26.05471
 31
0.0
 70
     4
  1
R12
 15
10.126225
 25
-7.43889
 35
0.0
 40
0.5
  3
STANDARD
  0
DIMENSION
  8
0
  6
C_SOLID_M
  2
*D39
 10
195.17157
 20
-63.070305
 30
0.0
 11
195.17157
 21
-63.070305
 31
0.0
  1
14
 13
180.533417
 23
-90.753044
 33
0.0
 14
180.533417
 24
-76.753044
 34
0.0
 50
89.999523
  3
STANDARD
  0
ENDBLK
  8
0
  0
BLOCK
  8
0
  6
C_SOLID_M
 62
     3
  2
*X2
 70
     1
 10
0.0
 20
0.0
 30
0.0
  3
*X2
  0
LINE
  8
0
  6
C_SOLID_M
 62
     3
 10
180.481656
 20
211.912618
 30
0.0
 11
183.533405
 21
214.964369
 31
0.0
  0
LINE
  8
0
  6
C_SOLID_M
 62
     3
 10
180.481647
 20
216.402737
 30
0.0
 11
183.533418
 21
219.454509
 31
0.0
  0
LINE
  8
0
  6
C_SOLID_M
 62
     3
 10
180.481658
 20
220.892879
 30
0.0
 11
181.588778
 21
221.999999
 31
0.0
  0
ENDBLK
  8
0
  0
BLOCK
  8
0
  6
C_SOLID_M
 62
     3
  2
*X3
 70
     1
 10
0.0
 20
0.0
 30
0.0
  3
*X3
  0
LINE
  8
0
  6
C_SOLID_M
 62
     3
 10
180.481653
 20
198.442165
 30
0.0
 11
183.533425
 21
201.493936
 31
0.0
  0
LINE
  8
0
  6
C_SOLID_M
 62
     3
 10
180.481666
 20
202.932306
 30
0.0
 11
182.384303
 21
204.834943
 31
0.0
  0
ENDBLK
  8
0
  0
BLOCK
  8
0
  6
C_SOLID_M
  2
*D4
 70
     1
 10
0.0
 20
0.0
 30
0.0
  3
*D4
  0
TEXT
  8
0
  6
BYBLOCK
 10
98.029852
 20
133.790289
 30
0.0
 40
2.5
  1
9
 50
89.9
  0
LINE
  8
0
  6
BYBLOCK
 10
98.656403
 20
119.499992
 30
0.0
 11
98.656403
 21
128.5
 31
0.0
  0
LINE
  8
0
  6
BYBLOCK
 10
98.656403
 20
119.499992
 30
0.0
 11
98.656403
 21
113.149992
 31
0.0
  0
LINE
  8
0
  6
BYBLOCK
 10
98.656403
 20
128.5
 30
0.0
 11
98.656403
 21
134.85
 31
0.0
  0
SOLID
  8
0
  6
BYBLOCK
 10
99.239914
 20
116.181732
 30
0.0
 11
98.656403
 21
118.991992
 31
0.0
 12
98.072891
 22
116.181732
 32
0.0
 13
98.072891
 23
116.181732
 33
0.0
  0
SOLID
  8
0
  6
BYBLOCK
 10
98.072891
 20
131.81826
 30
0.0
 11
98.656403
 21
129.008
 31
0.0
 12
99.239914
 22
131.81826
 32
0.0
 13
99.239914
 23
131.81826
 33
0.0
  0
LINE
  8
0
  6
BYBLOCK
 10
114.010559
 20
119.499992
 30
0.0
 11
97.132401
 21
119.499992
 31
0.0
  0
LINE
  8
0
  6
BYBLOCK
 10
114.010559
 20
128.5
 30
0.0
 11
97.132401
 21
128.5
 31
0.0
  0
LINE
  8
0
  6
BYBLOCK
 10
98.656403
 20
128.5
 30
0.0
 11
98.656403
 21
136.814209
 31
0.0
  0
ENDBLK
  8
0
  0
BLOCK
  8
0
  6
C_SOLID_M
  2
*D5
 70
     1
 10
0.0
 20
0.0
 30
0.0
  3
*D5
  0
TEXT
  8
0
  6
BYBLOCK
 10
62.553637
 20
169.904776
 30
0.0
 40
2.5
  1
98
 50
89.9
  0
LINE
  8
0
  6
BYBLOCK
 10
63.182369
 20
123.999992
 30
0.0
 11
63.182369
 21
222.0
 31
0.0
  0
SOLID
  8
0
  6
BYBLOCK
 10
62.598858
 20
127.318252
 30
0.0
 11
63.182369
 21
124.507992
 31
0.0
 12
63.765881
 22
127.318252
 32
0.0
 13
63.765881
 23
127.318252
 33
0.0
  0
SOLID
  8
0
  6
BYBLOCK
 10
63.765881
 20
218.68174
 30
0.0
 11
63.182369
 21
221.492
 31
0.0
 12
62.598858
 22
218.68174
 32
0.0
 13
62.598858
 23
218.68174
 33
0.0
  0
LINE
  8
0
  6
BYBLOCK
 10
92.07605
 20
123.999992
 30
0.0
 11
60.682369
 21
123.999992
 31
0.0
  0
LINE
  8
0
  6
BYBLOCK
 10
180.481659
 20
222.0
 30
0.0
 11
60.682369
 21
222.0
 31
0.0
  0
ENDBLK
  8
0
  0
BLOCK
  8
0
  6
C_SOLID_M
  2
*D6
 70
     1
 10
0.0
 20
0.0
 30
0.0
  3
*D6
  0
TEXT
  8
0
  6
BYBLOCK
 10
51.906853
 20
88.687093
 30
0.0
 40
2.5
  1
165
 50
90.0
  0
LINE
  8
0
  6
BYBLOCK
 10
52.531853
 20
187.0
 30
0.0
 11
52.531853
 21
21.999992
 31
0.0
  0
SOLID
  8
0
  6
BYBLOCK
 10
53.115364
 20
183.68174
 30
0.0
 11
52.531853
 21
186.492
 31
0.0
 12
51.948341
 22
183.68174
 32
0.0
 13
51.948341
 23
183.68174
 33
0.0
  0
SOLID
  8
0
  6
BYBLOCK
 10
51.948341
 20
25.318252
 30
0.0
 11
52.531853
 21
22.507992
 31
0.0
 12
53.115364
 22
25.318252
 32
0.0
 13
53.115364
 23
25.318252
 33
0.0
  0
LINE
  8
0
  6
BYBLOCK
 10
94.269501
 20
187.0
 30
0.0
 11
66.102837
 21
187.0
 31
0.0
  0
LINE
  8
0
  6
BYBLOCK
 10
94.269501
 20
21.999992
 30
0.0
 11
50.031853
 21
21.999992
 31
0.0
  0
ENDBLK
  8
0
  0
BLOCK
  8
0
  6
C_SOLID_M
  2
*D7
 70
     1
 10
0.0
 20
0.0
 30
0.0
  3
*D7
  0
TEXT
  8
0
  6
BYBLOCK
 10
196.732962
 20
213.223257
 30
0.0
 40
2.5
  1
13
 50
89.9
  0
LINE
  8
0
  6
BYBLOCK
 10
197.361694
 20
209.0
 30
0.0
 11
197.361694
 21
222.0
 31
0.0
  0
LINE
  8
0
  6
BYBLOCK
 10
197.361694
 20
209.0
 30
0.0
 11
197.361694
 21
202.65
 31
0.0
  0
LINE
  8
0
  6
BYBLOCK
 10
197.361694
 20
222.0
 30
0.0
 11
197.361694
 21
228.35
 31
0.0
  0
SOLID
  8
0
  6
BYBLOCK
 10
197.945206
 20
205.68174
 30
0.0
 11
197.361694
 21
208.492
 31
0.0
 12
196.778183
 22
205.68174
 32
0.0
 13
196.778183
 23
205.68174
 33
0.0
  0
SOLID
  8
0
  6
BYBLOCK
 10
196.778183
 20
225.31826
 30
0.0
 11
197.361694
 21
222.508
 31
0.0
 12
197.945206
 22
225.31826
 32
0.0
 13
197.945206
 23
225.31826
 33
0.0
  0
LINE
  8
0
  6
BYBLOCK
 10
186.108337
 20
209.0
 30
0.0
 11
200.413452
 21
209.0
 31
0.0
  0
LINE
  8
0
  6
BYBLOCK
 10
183.533417
 20
222.0
 30
0.0
 11
200.413452
 21
222.0
 31
0.0
  0
ENDBLK
  8
0
  0
BLOCK
  8
0
  6
C_SOLID_M
  2
*D8
 70
     1
 10
0.0
 20
0.0
 30
0.0
  3
*D8
  0
TEXT
  8
0
  6
BYBLOCK
 10
97.567944
 20
-12.138023
 30
0.0
 40
2.5
  1
33
  0
LINE
  8
0
  6
BYBLOCK
 10
118.492828
 20
-12.763023
 30
0.0
 11
85.495697
 21
-12.763023
 31
0.0
  0
SOLID
  8
0
  6
BYBLOCK
 10
115.174568
 20
-13.346535
 30
0.0
 11
117.984828
 21
-12.763023
 31
0.0
 12
115.174568
 22
-12.179512
 32
0.0
 13
115.174568
 23
-12.179512
 33
0.0
  0
SOLID
  8
0
  6
BYBLOCK
 10
88.813957
 20
-12.179512
 30
0.0
 11
86.003697
 21
-12.763023
 31
0.0
 12
88.813957
 22
-13.346535
 32
0.0
 13
88.813957
 23
-13.346535
 33
0.0
  0
LINE
  8
0
  6
BYBLOCK
 10
118.492828
 20
13.54364
 30
0.0
 11
118.492828
 21
-15.811028
 31
0.0
  0
LINE
  8
0
  6
BYBLOCK
 10
85.495697
 20
30.749992
 30
0.0
 11
85.495697
 21
-15.811028
 31
0.0
  0
ENDBLK
  8
0
  0
BLOCK
  8
0
  6
C_SOLID_M
  2
*D9
 70
     1
 10
0.0
 20
0.0
 30
0.0
  3
*D9
  0
TEXT
  8
0
  6
BYBLOCK
 10
134.962201
 20
-22.447151
 30
0.0
 40
2.5
  1
B
  0
LINE
  8
0
  6
BYBLOCK
 10
118.492828
 20
-23.072151
 30
0.0
 11
153.492676
 21
-23.072151
 31
0.0
  0
SOLID
  8
0
  6
BYBLOCK
 10
121.811088
 20
-22.48864
 30
0.0
 11
119.000828
 21
-23.072151
 31
0.0
 12
121.811088
 22
-23.655663
 32
0.0
 13
121.811088
 23
-23.655663
 33
0.0
  0
SOLID
  8
0
  6
BYBLOCK
 10
150.174416
 20
-23.655663
 30
0.0
 11
152.984676
 21
-23.072151
 31
0.0
 12
150.174416
 22
-22.48864
 32
0.0
 13
150.174416
 23
-22.48864
 33
0.0
  0
LINE
  8
0
  6
BYBLOCK
 10
118.492828
 20
13.54364
 30
0.0
 11
118.492828
 21
-26.882149
 31
0.0
  0
LINE
  8
0
  6
BYBLOCK
 10
153.492676
 20
13.54364
 30
0.0
 11
153.492676
 21
-26.882149
 31
0.0
  0
ENDBLK
  8
0
  0
BLOCK
  8
0
  6
C_SOLID_M
  2
*D10
 70
     1
 10
0.0
 20
0.0
 30
0.0
  3
*D10
  0
TEXT
  8
0
  6
BYBLOCK
 10
150.125623
 20
-32.905479
 30
0.0
 40
2.5
  1
A
  0
LINE
  8
0
  6
BYBLOCK
 10
183.533417
 20
-33.530479
 30
0.0
 11
118.492828
 21
-33.530479
 31
0.0
  0
SOLID
  8
0
  6
BYBLOCK
 10
180.215157
 20
-34.113991
 30
0.0
 11
183.025417
 21
-33.530479
 31
0.0
 12
180.215157
 22
-32.946968
 32
0.0
 13
180.215157
 23
-32.946968
 33
0.0
  0
SOLID
  8
0
  6
BYBLOCK
 10
121.811088
 20
-32.946968
 30
0.0
 11
119.000828
 21
-33.530479
 31
0.0
 12
121.811088
 22
-34.113991
 32
0.0
 13
121.811088
 23
-34.113991
 33
0.0
  0
LINE
  8
0
  6
BYBLOCK
 10
183.533417
 20
-13.000008
 30
0.0
 11
183.533417
 21
-36.030479
 31
0.0
  0
LINE
  8
0
  6
BYBLOCK
 10
118.492828
 20
13.54364
 30
0.0
 11
118.492828
 21
-36.030479
 31
0.0
  0
ENDBLK
  8
0
  0
BLOCK
  8
0
  6
C_SOLID_M
  2
*D11
 70
     1
 10
0.0
 20
0.0
 30
0.0
  3
*D11
  0
TEXT
  8
0
  6
BYBLOCK
 10
128.477216
 20
157.904541
 30
0.0
 40
2.5
  1
7
  0
LINE
  8
0
  6
BYBLOCK
 10
114.964233
 20
157.279541
 30
0.0
 11
122.021423
 21
157.279541
 31
0.0
  0
LINE
  8
0
  6
BYBLOCK
 10
114.964233
 20
157.279541
 30
0.0
 11
108.614233
 21
157.279541
 31
0.0
  0
LINE
  8
0
  6
BYBLOCK
 10
122.021423
 20
157.279541
 30
0.0
 11
128.371423
 21
157.279541
 31
0.0
  0
SOLID
  8
0
  6
BYBLOCK
 10
111.645973
 20
156.696029
 30
0.0
 11
114.456233
 21
157.279541
 31
0.0
 12
111.645973
 22
157.863053
 32
0.0
 13
111.645973
 23
157.863053
 33
0.0
  0
SOLID
  8
0
  6
BYBLOCK
 10
125.339683
 20
157.863053
 30
0.0
 11
122.529423
 21
157.279541
 31
0.0
 12
125.339683
 22
156.696029
 32
0.0
 13
125.339683
 23
156.696029
 33
0.0
  0
LINE
  8
0
  6
BYBLOCK
 10
114.964233
 20
144.75
 30
0.0
 11
114.964233
 21
160.32753
 31
0.0
  0
LINE
  8
0
  6
BYBLOCK
 10
122.021423
 20
144.75
 30
0.0
 11
122.021423
 21
160.32753
 31
0.0
  0
LINE
  8
0
  6
BYBLOCK
 10
122.021423
 20
157.279541
 30
0.0
 11
133.560883
 21
157.279541
 31
0.0
  0
ENDBLK
  8
0
  0
BLOCK
  8
0
  6
C_SOLID_M
  2
*D12
 70
     1
 10
0.0
 20
0.0
 30
0.0
  3
*D12
  0
TEXT
  8
0
  6
BYBLOCK
 10
145.425284
 20
112.956549
 30
0.0
 40
2.5
  1
19
 50
89.9
  0
LINE
  8
0
  6
BYBLOCK
 10
146.054016
 20
104.999992
 30
0.0
 11
146.054016
 21
123.999992
 31
0.0
  0
SOLID
  8
0
  6
BYBLOCK
 10
145.470504
 20
108.318252
 30
0.0
 11
146.054016
 21
105.507992
 31
0.0
 12
146.637528
 22
108.318252
 32
0.0
 13
146.637528
 23
108.318252
 33
0.0
  0
SOLID
  8
0
  6
BYBLOCK
 10
146.637528
 20
120.681732
 30
0.0
 11
146.054016
 21
123.491992
 31
0.0
 12
145.470505
 22
120.681732
 32
0.0
 13
145.470505
 23
120.681732
 33
0.0
  0
LINE
  8
0
  6
BYBLOCK
 10
123.833405
 20
104.999992
 30
0.0
 11
149.105774
 21
104.999992
 31
0.0
  0
LINE
  8
0
  6
BYBLOCK
 10
99.228607
 20
123.999992
 30
0.0
 11
149.105774
 21
123.999992
 31
0.0
  0
ENDBLK
  8
0
  0
BLOCK
  8
0
  6
C_SOLID_M
  2
*D13
 70
     1
 10
0.0
 20
0.0
 30
0.0
  3
*D13
  0
TEXT
  8
0
  6
BYBLOCK
 10
145.323371
 20
151.78237
 30
0.0
 40
2.5
  1
18.25
 50
89.9
  0
LINE
  8
0
  6
BYBLOCK
 10
145.958649
 20
123.999992
 30
0.0
 11
145.958649
 21
142.25
 31
0.0
  0
LINE
  8
0
  6
BYBLOCK
 10
145.958649
 20
123.999992
 30
0.0
 11
145.958649
 21
117.649992
 31
0.0
  0
LINE
  8
0
  6
BYBLOCK
 10
145.958649
 20
142.25
 30
0.0
 11
145.958649
 21
148.6
 31
0.0
  0
SOLID
  8
0
  6
BYBLOCK
 10
146.54216
 20
120.681732
 30
0.0
 11
145.958649
 21
123.491992
 31
0.0
 12
145.375137
 22
120.681732
 32
0.0
 13
145.375137
 23
120.681732
 33
0.0
  0
SOLID
  8
0
  6
BYBLOCK
 10
145.375137
 20
145.56826
 30
0.0
 11
145.958649
 21
142.758
 31
0.0
 12
146.54216
 22
145.56826
 32
0.0
 13
146.54216
 23
145.56826
 33
0.0
  0
LINE
  8
0
  6
BYBLOCK
 10
99.228607
 20
123.999992
 30
0.0
 11
149.010406
 21
123.999992
 31
0.0
  0
LINE
  8
0
  6
BYBLOCK
 10
124.119507
 20
142.25
 30
0.0
 11
149.010406
 21
142.25
 31
0.0
  0
LINE
  8
0
  6
BYBLOCK
 10
145.958649
 20
142.25
 30
0.0
 11
145.958649
 21
171.943787
 31
0.0
  0
ENDBLK
  8
0
  0
BLOCK
  8
0
  6
C_SOLID_M
  2
*D14
 70
     1
 10
0.0
 20
0.0
 30
0.0
  3
*D14
  0
TEXT
  8
0
  6
BYBLOCK
 10
156.425025
 20
155.523291
 30
0.0
 40
2.5
  1
20.75
 50
89.9
  0
LINE
  8
0
  6
BYBLOCK
 10
157.060303
 20
123.999992
 30
0.0
 11
157.060303
 21
144.75
 31
0.0
  0
SOLID
  8
0
  6
BYBLOCK
 10
156.476791
 20
127.318252
 30
0.0
 11
157.060303
 21
124.507992
 31
0.0
 12
157.643814
 22
127.318252
 32
0.0
 13
157.643814
 23
127.318252
 33
0.0
  0
SOLID
  8
0
  6
BYBLOCK
 10
157.643814
 20
141.43174
 30
0.0
 11
157.060303
 21
144.242
 31
0.0
 12
156.476791
 22
141.43174
 32
0.0
 13
156.476791
 23
141.43174
 33
0.0
  0
LINE
  8
0
  6
BYBLOCK
 10
99.228607
 20
123.999992
 30
0.0
 11
159.560303
 21
123.999992
 31
0.0
  0
LINE
  8
0
  6
BYBLOCK
 10
123.64267
 20
144.75
 30
0.0
 11
135.284103
 21
144.75
 31
0.0
  0
LINE
  8
0
  6
BYBLOCK
 10
157.060303
 20
144.75
 30
0.0
 11
157.060303
 21
179.253464
 31
0.0
  0
ENDBLK
  8
0
  0
BLOCK
  8
0
  6
C_SOLID_M
  2
*D15
 70
     1
 10
0.0
 20
0.0
 30
0.0
  3
*D15
  0
TEXT
  8
0
  6
BYBLOCK
 10
156.435303
 20
74.858136
 30
0.0
 40
2.5
  1
21.5
 50
90.0
  0
LINE
  8
0
  6
BYBLOCK
 10
157.060303
 20
123.999992
 30
0.0
 11
157.060303
 21
102.499992
 31
0.0
  0
LINE
  8
0
  6
BYBLOCK
 10
157.060303
 20
123.999992
 30
0.0
 11
157.060303
 21
130.349992
 31
0.0
  0
LINE
  8
0
  6
BYBLOCK
 10
157.060303
 20
102.499992
 30
0.0
 11
157.060303
 21
96.149992
 31
0.0
  0
SOLID
  8
0
  6
BYBLOCK
 10
156.476791
 20
127.318252
 30
0.0
 11
157.060303
 21
124.507992
 31
0.0
 12
157.643814
 22
127.318252
 32
0.0
 13
157.643814
 23
127.318252
 33
0.0
  0
SOLID
  8
0
  6
BYBLOCK
 10
157.643814
 20
99.181732
 30
0.0
 11
157.060303
 21
101.991992
 31
0.0
 12
156.476791
 22
99.181732
 32
0.0
 13
156.476791
 23
99.181732
 33
0.0
  0
LINE
  8
0
  6
BYBLOCK
 10
173.30751
 20
123.999992
 30
0.0
 11
154.560303
 21
123.999992
 31
0.0
  0
LINE
  8
0
  6
BYBLOCK
 10
123.356567
 20
102.499992
 30
0.0
 11
159.560303
 21
102.499992
 31
0.0
  0
LINE
  8
0
  6
BYBLOCK
 10
157.060303
 20
102.499992
 30
0.0
 11
157.060303
 21
64.776894
 31
0.0
  0
ENDBLK
  8
0
  0
BLOCK
  8
0
  6
C_SOLID_M
  2
*D16
 70
     1
 10
0.0
 20
0.0
 30
0.0
  3
*D16
  0
TEXT
  8
0
  6
BYBLOCK
 10
89.089757
 20
209.241486
 30
0.0
 40
2.5
  1
15.5
  0
LINE
  8
0
  6
BYBLOCK
 10
110.768066
 20
208.616486
 30
0.0
 11
126.21759
 21
208.616486
 31
0.0
  0
LINE
  8
0
  6
BYBLOCK
 10
110.768066
 20
208.616486
 30
0.0
 11
104.418067
 21
208.616486
 31
0.0
  0
LINE
  8
0
  6
BYBLOCK
 10
126.21759
 20
208.616486
 30
0.0
 11
132.56759
 21
208.616486
 31
0.0
  0
SOLID
  8
0
  6
BYBLOCK
 10
107.449806
 20
208.032974
 30
0.0
 11
110.260066
 21
208.616486
 31
0.0
 12
107.449806
 22
209.199997
 32
0.0
 13
107.449806
 23
209.199997
 33
0.0
  0
SOLID
  8
0
  6
BYBLOCK
 10
129.53585
 20
209.199997
 30
0.0
 11
126.72559
 21
208.616486
 31
0.0
 12
129.53585
 22
208.032974
 32
0.0
 13
129.53585
 23
208.032974
 33
0.0
  0
LINE
  8
0
  6
BYBLOCK
 10
110.768066
 20
123.999992
 30
0.0
 11
110.768066
 21
153.094757
 31
0.0
  0
LINE
  8
0
  6
BYBLOCK
 10
126.21759
 20
123.999992
 30
0.0
 11
126.21759
 21
153.286911
 31
0.0
  0
LINE
  8
0
  6
BYBLOCK
 10
110.768066
 20
208.616486
 30
0.0
 11
79.008514
 21
208.616486
 31
0.0
  0
ENDBLK
  8
0
  0
BLOCK
  8
0
  6
C_SOLID_M
  2
*D17
 70
     1
 10
0.0
 20
0.0
 30
0.0
  3
*D17
  0
TEXT
  8
0
  6
BYBLOCK
 10
125.71156
 20
92.171188
 30
0.0
 40
2.5
  1
7
  0
LINE
  8
0
  6
BYBLOCK
 10
114.964233
 20
91.546188
 30
0.0
 11
122.021423
 21
91.546188
 31
0.0
  0
LINE
  8
0
  6
BYBLOCK
 10
114.964233
 20
91.546188
 30
0.0
 11
108.614233
 21
91.546188
 31
0.0
  0
LINE
  8
0
  6
BYBLOCK
 10
122.021423
 20
91.546188
 30
0.0
 11
128.371423
 21
91.546188
 31
0.0
  0
SOLID
  8
0
  6
BYBLOCK
 10
111.645973
 20
90.962677
 30
0.0
 11
114.456233
 21
91.546188
 31
0.0
 12
111.645973
 22
92.1297
 32
0.0
 13
111.645973
 23
92.1297
 33
0.0
  0
SOLID
  8
0
  6
BYBLOCK
 10
125.339683
 20
92.1297
 30
0.0
 11
122.529423
 21
91.546188
 31
0.0
 12
125.339683
 22
90.962677
 32
0.0
 13
125.339683
 23
90.962677
 33
0.0
  0
LINE
  8
0
  6
BYBLOCK
 10
114.964233
 20
104.999992
 30
0.0
 11
114.964233
 21
88.498184
 31
0.0
  0
LINE
  8
0
  6
BYBLOCK
 10
122.021423
 20
104.999992
 30
0.0
 11
122.021423
 21
88.498184
 31
0.0
  0
LINE
  8
0
  6
BYBLOCK
 10
122.021423
 20
91.546188
 30
0.0
 11
130.890594
 21
91.546188
 31
0.0
  0
ENDBLK
  8
0
  0
BLOCK
  8
0
  6
C_SOLID_M
  2
*D18
 70
     1
 10
0.0
 20
0.0
 30
0.0
  3
*D18
  0
TEXT
  8
0
  6
BYBLOCK
 10
169.76796
 20
202.83212
 30
0.0
 40
2.5
  1
%%C5.5
 50
90.0
  0
LINE
  8
0
  6
BYBLOCK
 10
170.39296
 20
211.75
 30
0.0
 11
170.39296
 21
206.25
 31
0.0
  0
LINE
  8
0
  6
BYBLOCK
 10
170.39296
 20
211.75
 30
0.0
 11
170.39296
 21
218.1
 31
0.0
  0
LINE
  8
0
  6
BYBLOCK
 10
170.39296
 20
206.25
 30
0.0
 11
170.39296
 21
199.9
 31
0.0
  0
SOLID
  8
0
  6
BYBLOCK
 10
169.809448
 20
215.06826
 30
0.0
 11
170.39296
 21
212.258
 31
0.0
 12
170.976471
 22
215.06826
 32
0.0
 13
170.976471
 23
215.06826
 33
0.0
  0
SOLID
  8
0
  6
BYBLOCK
 10
170.976471
 20
202.93174
 30
0.0
 11
170.39296
 21
205.742
 31
0.0
 12
169.809448
 22
202.93174
 32
0.0
 13
169.809448
 23
202.93174
 33
0.0
  0
LINE
  8
0
  6
BYBLOCK
 10
180.958496
 20
211.75
 30
0.0
 11
167.89296
 21
211.75
 31
0.0
  0
LINE
  8
0
  6
BYBLOCK
 10
180.958496
 20
206.25
 30
0.0
 11
167.89296
 21
206.25
 31
0.0
  0
LINE
  8
0
  6
BYBLOCK
 10
0.0
 20
0.0
 30
0.0
 11
6.35
 21
0.0
 31
0.0
  0
SOLID
  8
0
  6
BYBLOCK
 10
3.31826
 20
0.583512
 30
0.0
 11
0.508
 21
0.0
 31
0.0
 12
3.31826
 22
-0.583512
 32
0.0
 13
3.31826
 23
-0.583512
 33
0.0
  0
LINE
  8
0
  6
BYBLOCK
 10
170.39296
 20
206.25
 30
0.0
 11
170.39296
 21
202.025864
 31
0.0
  0
ENDBLK
  8
0
  0
BLOCK
  8
0
  6
C_SOLID_M
  2
*D19
 70
     1
 10
0.0
 20
0.0
 30
0.0
  3
*D19
  0
TEXT
  8
0
  6
BYBLOCK
 10
240.033515
 20
101.28771
 30
0.0
 40
2.5
  1
209
 50
89.9
  0
LINE
  8
0
  6
BYBLOCK
 10
240.664429
 20
-0.000015
 30
0.0
 11
240.664429
 21
209.0
 31
0.0
  0
SOLID
  8
0
  6
BYBLOCK
 10
240.080917
 20
3.318245
 30
0.0
 11
240.664429
 21
0.507985
 31
0.0
 12
241.24794
 22
3.318245
 32
0.0
 13
241.24794
 23
3.318245
 33
0.0
  0
SOLID
  8
0
  6
BYBLOCK
 10
241.24794
 20
205.68174
 30
0.0
 11
240.664429
 21
208.492
 31
0.0
 12
240.080917
 22
205.68174
 32
0.0
 13
240.080917
 23
205.68174
 33
0.0
  0
LINE
  8
0
  6
BYBLOCK
 10
189.636932
 20
-0.000015
 30
0.0
 11
243.164429
 21
-0.000015
 31
0.0
  0
LINE
  8
0
  6
BYBLOCK
 10
186.108337
 20
209.0
 30
0.0
 11
243.164429
 21
209.0
 31
0.0
  0
ENDBLK
  8
0
  0
BLOCK
  8
0
  6
C_SOLID_M
  2
*D20
 70
     1
 10
0.0
 20
0.0
 30
0.0
  3
*D20
  0
TEXT
  8
0
  6
BYBLOCK
 10
251.788336
 20
101.62322
 30
0.0
 40
2.5
  1
235
 50
89.9
  0
LINE
  8
0
  6
BYBLOCK
 10
252.41925
 20
-13.000008
 30
0.0
 11
252.41925
 21
222.0
 31
0.0
  0
SOLID
  8
0
  6
BYBLOCK
 10
251.835739
 20
-9.681748
 30
0.0
 11
252.41925
 21
-12.492008
 31
0.0
 12
253.002762
 22
-9.681748
 32
0.0
 13
253.002762
 23
-9.681748
 33
0.0
  0
SOLID
  8
0
  6
BYBLOCK
 10
253.002762
 20
218.68174
 30
0.0
 11
252.41925
 21
221.492
 31
0.0
 12
251.835739
 22
218.68174
 32
0.0
 13
251.835739
 23
218.68174
 33
0.0
  0
LINE
  8
0
  6
BYBLOCK
 10
183.533417
 20
-13.000008
 30
0.0
 11
254.91925
 21
-13.000008
 31
0.0
  0
LINE
  8
0
  6
BYBLOCK
 10
183.533417
 20
222.0
 30
0.0
 11
254.91925
 21
222.0
 31
0.0
  0
ENDBLK
  8
0
  0
BLOCK
  8
0
  6
C_SOLID_M
  2
*D21
 70
     1
 10
0.0
 20
0.0
 30
0.0
  3
*D21
  0
TEXT
  8
0
  6
BYBLOCK
 10
192.56413
 20
-23.247353
 30
0.0
 40
2.5
  1
3
  0
LINE
  8
0
  6
BYBLOCK
 10
180.481659
 20
-23.872353
 30
0.0
 11
183.533417
 21
-23.872353
 31
0.0
  0
LINE
  8
0
  6
BYBLOCK
 10
180.481659
 20
-23.872353
 30
0.0
 11
174.131659
 21
-23.872353
 31
0.0
  0
LINE
  8
0
  6
BYBLOCK
 10
183.533417
 20
-23.872353
 30
0.0
 11
189.883417
 21
-23.872353
 31
0.0
  0
SOLID
  8
0
  6
BYBLOCK
 10
177.163399
 20
-24.455864
 30
0.0
 11
179.973659
 21
-23.872353
 31
0.0
 12
177.163399
 22
-23.288841
 32
0.0
 13
177.163399
 23
-23.288841
 33
0.0
  0
SOLID
  8
0
  6
BYBLOCK
 10
186.851677
 20
-23.288841
 30
0.0
 11
184.041417
 21
-23.872353
 31
0.0
 12
186.851677
 22
-24.455864
 32
0.0
 13
186.851677
 23
-24.455864
 33
0.0
  0
LINE
  8
0
  6
BYBLOCK
 10
180.481659
 20
-13.000008
 30
0.0
 11
180.481659
 21
-26.920357
 31
0.0
  0
LINE
  8
0
  6
BYBLOCK
 10
183.533417
 20
-13.000008
 30
0.0
 11
183.533417
 21
-26.920357
 31
0.0
  0
LINE
  8
0
  6
BYBLOCK
 10
183.533417
 20
-23.872353
 30
0.0
 11
197.743164
 21
-23.872353
 31
0.0
  0
ENDBLK
  8
0
  0
BLOCK
  8
0
  6
C_SOLID_M
  2
*D22
 70
     1
 10
0.0
 20
0.0
 30
0.0
  3
*D22
  0
TEXT
  8
0
  6
BYBLOCK
 10
210.493207
 20
190.585236
 30
0.0
 40
2.5
  1
C
  0
LINE
  8
0
  6
BYBLOCK
 10
186.966644
 20
189.960236
 30
0.0
 11
183.533417
 21
189.960236
 31
0.0
  0
LINE
  8
0
  6
BYBLOCK
 10
186.966644
 20
189.960236
 30
0.0
 11
193.316644
 21
189.960236
 31
0.0
  0
LINE
  8
0
  6
BYBLOCK
 10
183.533417
 20
189.960236
 30
0.0
 11
177.183417
 21
189.960236
 31
0.0
  0
SOLID
  8
0
  6
BYBLOCK
 10
190.284904
 20
190.543747
 30
0.0
 11
187.474644
 21
189.960236
 31
0.0
 12
190.284904
 22
189.376724
 32
0.0
 13
190.284904
 23
189.376724
 33
0.0
  0
SOLID
  8
0
  6
BYBLOCK
 10
180.215157
 20
189.376724
 30
0.0
 11
183.025417
 21
189.960236
 31
0.0
 12
180.215157
 22
190.543747
 32
0.0
 13
180.215157
 23
190.543747
 33
0.0
  0
LINE
  8
0
  6
BYBLOCK
 10
186.966644
 20
81.999985
 30
0.0
 11
186.966644
 21
193.770233
 31
0.0
  0
LINE
  8
0
  6
BYBLOCK
 10
183.533417
 20
148.0
 30
0.0
 11
183.533417
 21
193.770233
 31
0.0
  0
LINE
  8
0
  6
BYBLOCK
 10
186.966644
 20
189.960236
 30
0.0
 11
216.724457
 21
189.960236
 31
0.0
  0
ENDBLK
  8
0
  0
BLOCK
  8
0
  6
C_SOLID_M
  2
*D23
 70
     1
 10
0.0
 20
0.0
 30
0.0
  3
*D23
  0
TEXT
  8
0
  6
BYBLOCK
 10
62.557369
 20
81.862492
 30
0.0
 40
2.5
  1
80
 50
90.0
  0
LINE
  8
0
  6
BYBLOCK
 10
63.182369
 20
123.999992
 30
0.0
 11
63.182369
 21
43.999992
 31
0.0
  0
SOLID
  8
0
  6
BYBLOCK
 10
63.765881
 20
120.681732
 30
0.0
 11
63.182369
 21
123.491992
 31
0.0
 12
62.598858
 22
120.681732
 32
0.0
 13
62.598858
 23
120.681732
 33
0.0
  0
SOLID
  8
0
  6
BYBLOCK
 10
62.598858
 20
47.318252
 30
0.0
 11
63.182369
 21
44.507992
 31
0.0
 12
63.765881
 22
47.318252
 32
0.0
 13
63.765881
 23
47.318252
 33
0.0
  0
LINE
  8
0
  6
BYBLOCK
 10
94.223068
 20
123.999992
 30
0.0
 11
60.682369
 21
123.999992
 31
0.0
  0
LINE
  8
0
  6
BYBLOCK
 10
93.888031
 20
43.999992
 30
0.0
 11
77.127113
 21
43.999992
 31
0.0
  0
ENDBLK
  8
0
  0
BLOCK
  8
0
  6
C_SOLID_M
  2
*D24
 70
     1
 10
0.0
 20
0.0
 30
0.0
  3
*D24
  0
TEXT
  8
0
  6
BYBLOCK
 10
129.505811
 20
-11.843239
 30
0.0
 40
2.5
  1
%%C10
  0
LINE
  8
0
  6
BYBLOCK
 10
148.533569
 20
-12.468239
 30
0.0
 11
158.451782
 21
-12.468239
 31
0.0
  0
LINE
  8
0
  6
BYBLOCK
 10
148.533569
 20
-12.468239
 30
0.0
 11
142.183569
 21
-12.468239
 31
0.0
  0
LINE
  8
0
  6
BYBLOCK
 10
158.451782
 20
-12.468239
 30
0.0
 11
164.801782
 21
-12.468239
 31
0.0
  0
SOLID
  8
0
  6
BYBLOCK
 10
145.215309
 20
-13.05175
 30
0.0
 11
148.025569
 21
-12.468239
 31
0.0
 12
145.215309
 22
-11.884727
 32
0.0
 13
145.215309
 23
-11.884727
 33
0.0
  0
SOLID
  8
0
  6
BYBLOCK
 10
161.770042
 20
-11.884727
 30
0.0
 11
158.959782
 21
-12.468239
 31
0.0
 12
161.770042
 22
-13.05175
 32
0.0
 13
161.770042
 23
-13.05175
 33
0.0
  0
LINE
  8
0
  6
BYBLOCK
 10
148.533569
 20
-5.500008
 30
0.0
 11
148.533569
 21
-15.516243
 31
0.0
  0
LINE
  8
0
  6
BYBLOCK
 10
158.451782
 20
-5.500008
 30
0.0
 11
158.451782
 21
-15.516243
 31
0.0
  0
LINE
  8
0
  6
BYBLOCK
 10
148.533569
 20
-12.468239
 30
0.0
 11
123.547302
 21
-12.468239
 31
0.0
  0
ENDBLK
  8
0
  0
BLOCK
  8
0
  6
C_SOLID_M
  2
*D25
 70
     1
 10
0.0
 20
0.0
 30
0.0
  3
*D25
  0
TEXT
  8
0
  6
BYBLOCK
 10
115.65009
 20
73.998947
 30
0.0
 40
2.5
  1
38
  0
LINE
  8
0
  6
BYBLOCK
 10
99.514709
 20
73.373947
 30
0.0
 11
137.470947
 21
73.373947
 31
0.0
  0
SOLID
  8
0
  6
BYBLOCK
 10
102.83297
 20
73.957459
 30
0.0
 11
100.022709
 21
73.373947
 31
0.0
 12
102.83297
 22
72.790436
 32
0.0
 13
102.83297
 23
72.790436
 33
0.0
  0
SOLID
  8
0
  6
BYBLOCK
 10
134.152687
 20
72.790436
 30
0.0
 11
136.962947
 21
73.373947
 31
0.0
 12
134.152687
 22
73.957459
 32
0.0
 13
134.152687
 23
73.957459
 33
0.0
  0
LINE
  8
0
  6
BYBLOCK
 10
99.514709
 20
49.556717
 30
0.0
 11
99.514709
 21
75.873947
 31
0.0
  0
LINE
  8
0
  6
BYBLOCK
 10
137.470947
 20
45.564522
 30
0.0
 11
137.470947
 21
75.873947
 31
0.0
  0
ENDBLK
  8
0
  0
BLOCK
  8
0
  6
C_SOLID_M
  2
*D26
 70
     1
 10
0.0
 20
0.0
 30
0.0
  3
*D26
  0
TEXT
  8
0
  6
BYBLOCK
 10
148.225568
 20
54.999413
 30
0.0
 40
2.5
  1
7
  0
LINE
  8
0
  6
BYBLOCK
 10
134.03772
 20
54.374413
 30
0.0
 11
140.999542
 21
54.374413
 31
0.0
  0
LINE
  8
0
  6
BYBLOCK
 10
134.03772
 20
54.374413
 30
0.0
 11
127.68772
 21
54.374413
 31
0.0
  0
LINE
  8
0
  6
BYBLOCK
 10
140.999542
 20
54.374413
 30
0.0
 11
147.349542
 21
54.374413
 31
0.0
  0
SOLID
  8
0
  6
BYBLOCK
 10
130.71946
 20
53.790901
 30
0.0
 11
133.52972
 21
54.374413
 31
0.0
 12
130.71946
 22
54.957924
 32
0.0
 13
130.71946
 23
54.957924
 33
0.0
  0
SOLID
  8
0
  6
BYBLOCK
 10
144.317802
 20
54.957924
 30
0.0
 11
141.507542
 21
54.374413
 31
0.0
 12
144.317802
 22
53.790901
 32
0.0
 13
144.317802
 23
53.790901
 33
0.0
  0
LINE
  8
0
  6
BYBLOCK
 10
134.03772
 20
43.999992
 30
0.0
 11
134.03772
 21
56.874413
 31
0.0
  0
LINE
  8
0
  6
BYBLOCK
 10
140.999542
 20
43.999992
 30
0.0
 11
140.999542
 21
56.874413
 31
0.0
  0
LINE
  8
0
  6
BYBLOCK
 10
140.999542
 20
54.374413
 30
0.0
 11
154.456818
 21
54.374413
 31
0.0
  0
ENDBLK
  8
0
  0
BLOCK
  8
0
  6
C_SOLID_M
  2
*D27
 70
     1
 10
0.0
 20
0.0
 30
0.0
  3
*D27
  0
TEXT
  8
0
  6
BYBLOCK
 10
74.321632
 20
91.904477
 30
0.0
 40
2.5
  1
61
 50
90.0
  0
LINE
  8
0
  6
BYBLOCK
 10
74.946632
 20
123.999992
 30
0.0
 11
74.946632
 21
62.999992
 31
0.0
  0
SOLID
  8
0
  6
BYBLOCK
 10
75.530144
 20
120.681732
 30
0.0
 11
74.946632
 21
123.491992
 31
0.0
 12
74.363121
 22
120.681732
 32
0.0
 13
74.363121
 23
120.681732
 33
0.0
  0
SOLID
  8
0
  6
BYBLOCK
 10
74.363121
 20
66.318252
 30
0.0
 11
74.946632
 21
63.507992
 31
0.0
 12
75.530144
 22
66.318252
 32
0.0
 13
75.530144
 23
66.318252
 33
0.0
  0
LINE
  8
0
  6
BYBLOCK
 10
99.228607
 20
123.999992
 30
0.0
 11
72.446632
 21
123.999992
 31
0.0
  0
LINE
  8
0
  6
BYBLOCK
 10
111.435638
 20
62.999992
 30
0.0
 11
72.446632
 21
62.999992
 31
0.0
  0
ENDBLK
  8
0
  0
BLOCK
  8
0
  6
C_SOLID_M
  2
*D28
 70
     1
 10
0.0
 20
0.0
 30
0.0
  3
*D28
  0
TEXT
  8
0
  6
BYBLOCK
 10
74.634421
 20
41.759451
 30
0.0
 40
2.5
  1
38
 50
89.9
  0
LINE
  8
0
  6
BYBLOCK
 10
75.263153
 20
24.999985
 30
0.0
 11
75.263153
 21
62.999992
 31
0.0
  0
SOLID
  8
0
  6
BYBLOCK
 10
74.679641
 20
28.318245
 30
0.0
 11
75.263153
 21
25.507985
 31
0.0
 12
75.846665
 22
28.318245
 32
0.0
 13
75.846665
 23
28.318245
 33
0.0
  0
SOLID
  8
0
  6
BYBLOCK
 10
75.846665
 20
59.681732
 30
0.0
 11
75.263153
 21
62.491992
 31
0.0
 12
74.679641
 22
59.681732
 32
0.0
 13
74.679641
 23
59.681732
 33
0.0
  0
LINE
  8
0
  6
BYBLOCK
 10
112.10321
 20
24.999985
 30
0.0
 11
72.763153
 21
24.999985
 31
0.0
  0
LINE
  8
0
  6
BYBLOCK
 10
111.435638
 20
62.999992
 30
0.0
 11
72.763153
 21
62.999992
 31
0.0
  0
ENDBLK
  8
0
  0
BLOCK
  8
0
  6
C_SOLID_M
  2
*D29
 70
     1
 10
0.0
 20
0.0
 30
0.0
  3
*D29
  0
TEXT
  8
0
  6
BYBLOCK
 10
51.906853
 20
202.3625
 30
0.0
 40
2.5
  1
35
 50
90.0
  0
LINE
  8
0
  6
BYBLOCK
 10
52.531853
 20
222.0
 30
0.0
 11
52.531853
 21
187.0
 31
0.0
  0
SOLID
  8
0
  6
BYBLOCK
 10
53.115364
 20
218.68174
 30
0.0
 11
52.531853
 21
221.492
 31
0.0
 12
51.948341
 22
218.68174
 32
0.0
 13
51.948341
 23
218.68174
 33
0.0
  0
SOLID
  8
0
  6
BYBLOCK
 10
51.948341
 20
190.31826
 30
0.0
 11
52.531853
 21
187.508
 31
0.0
 12
53.115364
 22
190.31826
 32
0.0
 13
53.115364
 23
190.31826
 33
0.0
  0
LINE
  8
0
  6
BYBLOCK
 10
60.682369
 20
222.0
 30
0.0
 11
50.031853
 21
222.0
 31
0.0
  0
LINE
  8
0
  6
BYBLOCK
 10
50.031853
 20
187.0
 30
0.0
 11
55.031849
 21
187.0
 31
0.0
  0
ENDBLK
  8
0
  0
BLOCK
  8
0
  6
C_SOLID_M
  2
*D30
 70
     1
 10
0.0
 20
0.0
 30
0.0
  3
*D30
  0
TEXT
  8
0
  6
BYBLOCK
 10
-3.149753
 20
106.167191
 30
0.0
 40
2.5
  1
14
  0
LINE
  8
0
  6
BYBLOCK
 10
-6.500015
 20
105.542194
 30
0.0
 11
7.499977
 21
105.542186
 31
0.0
  0
LINE
  8
0
  6
BYBLOCK
 10
-6.500015
 20
105.542194
 30
0.0
 11
-12.850015
 21
105.542194
 31
0.0
  0
SOLID
  8
0
  6
BYBLOCK
 10
-9.818276
 20
104.958682
 30
0.0
 11
-7.008015
 21
105.542194
 31
0.0
 12
-9.818276
 22
106.125706
 32
0.0
 13
-9.818276
 23
106.125706
 33
0.0
  0
LINE
  8
0
  6
BYBLOCK
 10
-6.500008
 20
126.499989
 30
0.0
 11
-6.500031
 21
88.449963
 31
0.0
  0
LINE
  8
MO_001_NOSHOW
  6
BYBLOCK
 10
7.499985
 20
126.49999
 30
0.0
 11
7.499977
 21
103.04218
 31
0.0
  0
ENDBLK
  8
0
  0
BLOCK
  8
0
  6
C_SOLID_M
  2
*D31
 70
     1
 10
0.0
 20
0.0
 30
0.0
  3
*D31
  0
TEXT
  8
0
  6
BYBLOCK
 10
20.329119
 20
191.374993
 30
0.0
 40
2.5
  1
6
 50
359.8
  0
LINE
  8
0
  6
BYBLOCK
 10
6.0
 20
190.746887
 30
0.0
 11
11.999977
 21
190.746887
 31
0.0
  0
LINE
  8
0
  6
BYBLOCK
 10
6.0
 20
190.746887
 30
0.0
 11
-0.35
 21
190.746887
 31
0.0
  0
LINE
  8
0
  6
BYBLOCK
 10
11.999977
 20
190.746887
 30
0.0
 11
18.349977
 21
190.746887
 31
0.0
  0
SOLID
  8
0
  6
BYBLOCK
 10
2.68174
 20
190.163376
 30
0.0
 11
5.492
 21
190.746887
 31
0.0
 12
2.68174
 22
191.330399
 32
0.0
 13
2.68174
 23
191.330399
 33
0.0
  0
SOLID
  8
0
  6
BYBLOCK
 10
15.318237
 20
191.330399
 30
0.0
 11
12.507977
 21
190.746887
 31
0.0
 12
15.318237
 22
190.163376
 32
0.0
 13
15.318237
 23
190.163376
 33
0.0
  0
LINE
  8
0
  6
BYBLOCK
 10
6.0
 20
149.5
 30
0.0
 11
6.0
 21
193.794891
 31
0.0
  0
LINE
  8
MO_001_NOSHOW
  6
BYBLOCK
 10
11.999977
 20
220.0
 30
0.0
 11
11.999977
 21
187.698898
 31
0.0
  0
LINE
  8
0
  6
BYBLOCK
 10
11.999977
 20
190.746887
 30
0.0
 11
25.489433
 21
190.746887
 31
0.0
  0
ENDBLK
  8
0
  0
BLOCK
  8
0
  6
C_SOLID_M
  2
*D32
 70
     1
 10
0.0
 20
0.0
 30
0.0
  3
*D32
  0
TEXT
  8
0
  6
BYBLOCK
 10
-2.734996
 20
16.172562
 30
0.0
 40
2.5
  1
24
  0
LINE
  8
0
  6
BYBLOCK
 10
-12.0
 20
15.547569
 30
0.0
 11
12.000008
 21
15.547562
 31
0.0
  0
LINE
  8
0
  6
BYBLOCK
 10
-12.0
 20
15.547569
 30
0.0
 11
-18.35
 21
15.547569
 31
0.0
  0
LINE
  8
0
  6
BYBLOCK
 10
12.000008
 20
15.547562
 30
0.0
 11
18.350008
 21
15.547562
 31
0.0
  0
SOLID
  8
0
  6
BYBLOCK
 10
-15.31826
 20
14.964058
 30
0.0
 11
-12.508
 21
15.547569
 31
0.0
 12
-15.31826
 22
16.131081
 32
0.0
 13
-15.31826
 23
16.131081
 33
0.0
  0
SOLID
  8
0
  6
BYBLOCK
 10
15.318268
 20
16.131073
 30
0.0
 11
12.508008
 21
15.547562
 31
0.0
 12
15.318268
 22
14.96405
 32
0.0
 13
15.318268
 23
14.96405
 33
0.0
  0
LINE
  8
0
  6
BYBLOCK
 10
-12.000015
 20
-1.000008
 30
0.0
 11
-12.0
 21
18.047569
 31
0.0
  0
LINE
  8
0
  6
BYBLOCK
 10
11.999993
 20
-1.000008
 30
0.0
 11
12.000008
 21
18.047562
 31
0.0
  0
ENDBLK
  8
0
  0
BLOCK
  8
0
  6
C_SOLID_M
  2
*D33
 70
     1
 10
0.0
 20
0.0
 30
0.0
  3
*D33
  0
TEXT
  8
0
  6
BYBLOCK
 10
21.534375
 20
106.084564
 30
0.0
 40
2.5
  1
4.5
  0
LINE
  8
0
  6
BYBLOCK
 10
7.499985
 20
105.459564
 30
0.0
 11
11.999992
 21
105.459564
 31
0.0
  0
LINE
  8
0
  6
BYBLOCK
 10
11.999992
 20
105.459564
 30
0.0
 11
18.349992
 21
105.459564
 31
0.0
  0
SOLID
  8
0
  6
BYBLOCK
 10
7.499985
 20
106.729564
 30
0.0
 11
7.499985
 21
104.189564
 31
0.0
 12
7.499985
 22
106.729564
 32
0.0
 13
7.499985
 23
106.729564
 33
0.0
  0
SOLID
  8
0
  6
BYBLOCK
 10
15.318252
 20
106.043076
 30
0.0
 11
12.507992
 21
105.459564
 31
0.0
 12
15.318252
 22
104.876053
 32
0.0
 13
15.318252
 23
104.876053
 33
0.0
  0
LINE
  8
0
  6
BYBLOCK
 10
7.499985
 20
126.499992
 30
0.0
 11
7.499985
 21
89.444351
 31
0.0
  0
LINE
  8
0
  6
BYBLOCK
 10
11.999992
 20
-1.000008
 30
0.0
 11
11.999992
 21
107.959564
 31
0.0
  0
LINE
  8
0
  6
BYBLOCK
 10
11.999992
 20
105.459564
 30
0.0
 11
36.515625
 21
105.459564
 31
0.0
  0
ENDBLK
  8
0
  0
BLOCK
  8
0
  6
C_SOLID_M
  2
*D34
 70
     1
 10
0.0
 20
0.0
 30
0.0
  3
*D34
  0
TEXT
  8
0
  6
BYBLOCK
 10
174.103765
 20
-64.660631
 30
0.0
 40
2.5
  1
4
 50
89.9
  0
LINE
  8
0
  6
BYBLOCK
 10
174.730316
 20
-72.753029
 30
0.0
 11
174.730316
 21
-76.753044
 31
0.0
  0
LINE
  8
0
  6
BYBLOCK
 10
174.730316
 20
-72.753029
 30
0.0
 11
174.730316
 21
-66.403029
 31
0.0
  0
LINE
  8
0
  6
BYBLOCK
 10
174.730316
 20
-76.753044
 30
0.0
 11
174.730316
 21
-83.103044
 31
0.0
  0
SOLID
  8
0
  6
BYBLOCK
 10
174.146805
 20
-69.434769
 30
0.0
 11
174.730316
 21
-72.245029
 31
0.0
 12
175.313828
 22
-69.434769
 32
0.0
 13
175.313828
 23
-69.434769
 33
0.0
  0
SOLID
  8
0
  6
BYBLOCK
 10
175.313828
 20
-80.071304
 30
0.0
 11
174.730316
 21
-77.261044
 31
0.0
 12
174.146805
 22
-80.071304
 32
0.0
 13
174.146805
 23
-80.071304
 33
0.0
  0
LINE
  8
0
  6
BYBLOCK
 10
180.533417
 20
-72.753029
 30
0.0
 11
171.682312
 21
-72.753029
 31
0.0
  0
LINE
  8
0
  6
BYBLOCK
 10
180.533417
 20
-76.753044
 30
0.0
 11
171.682312
 21
-76.753044
 31
0.0
  0
LINE
  8
0
  6
BYBLOCK
 10
174.730293
 20
-72.753032
 30
0.0
 11
174.730309
 21
-59.499228
 31
0.0
  0
ENDBLK
  8
0
  0
BLOCK
  8
0
  6
C_SOLID_M
  2
*D35
 70
     1
 10
0.0
 20
0.0
 30
0.0
  3
*D35
  0
TEXT
  8
0
  6
BYBLOCK
 10
161.142264
 20
-61.169695
 30
0.0
 40
2.5
  1
11
 50
89.9
  0
LINE
  8
0
  6
BYBLOCK
 10
161.770987
 20
-83.753032
 30
0.0
 11
161.771002
 21
-72.753032
 31
0.0
  0
LINE
  8
0
  6
BYBLOCK
 10
161.770987
 20
-83.753032
 30
0.0
 11
161.770987
 21
-90.103032
 31
0.0
  0
LINE
  8
0
  6
BYBLOCK
 10
161.771002
 20
-72.753032
 30
0.0
 11
161.771002
 21
-66.403032
 31
0.0
  0
SOLID
  8
0
  6
BYBLOCK
 10
162.354498
 20
-87.071292
 30
0.0
 11
161.770987
 21
-84.261032
 31
0.0
 12
161.187475
 22
-87.071292
 32
0.0
 13
161.187475
 23
-87.071292
 33
0.0
  0
SOLID
  8
0
  6
BYBLOCK
 10
161.18749
 20
-69.434772
 30
0.0
 11
161.771002
 21
-72.245032
 31
0.0
 12
162.354514
 22
-69.434772
 32
0.0
 13
162.354514
 23
-69.434772
 33
0.0
  0
LINE
  8
0
  6
BYBLOCK
 10
159.810059
 20
-83.753029
 30
0.0
 11
164.270981
 21
-83.753029
 31
0.0
  0
LINE
  8
0
  6
BYBLOCK
 10
180.533417
 20
-72.753029
 30
0.0
 11
159.270996
 21
-72.753029
 31
0.0
  0
LINE
  8
0
  6
BYBLOCK
 10
161.770996
 20
-72.753029
 30
0.0
 11
161.770996
 21
-50.564537
 31
0.0
  0
ENDBLK
  8
0
  0
BLOCK
  8
0
  6
C_SOLID_M
  2
*D36
 70
     1
 10
0.0
 20
0.0
 30
0.0
  3
*D36
  0
TEXT
  8
0
  6
BYBLOCK
 10
71.317078
 20
-86.975002
 30
0.0
 40
2.5
  1
16
 50
90.0
  0
LINE
  8
0
  6
BYBLOCK
 10
71.942078
 20
-75.753029
 30
0.0
 11
71.942078
 21
-91.753029
 31
0.0
  0
LINE
  8
0
  6
BYBLOCK
 10
71.942078
 20
-75.753029
 30
0.0
 11
71.942078
 21
-69.403029
 31
0.0
  0
LINE
  8
0
  6
BYBLOCK
 10
71.942078
 20
-91.753029
 30
0.0
 11
71.942078
 21
-98.103029
 31
0.0
  0
SOLID
  8
0
  6
BYBLOCK
 10
71.358566
 20
-72.434769
 30
0.0
 11
71.942078
 21
-75.245029
 31
0.0
 12
72.525589
 22
-72.434769
 32
0.0
 13
72.525589
 23
-72.434769
 33
0.0
  0
SOLID
  8
0
  6
BYBLOCK
 10
72.525589
 20
-95.071289
 30
0.0
 11
71.942078
 21
-92.261029
 31
0.0
 12
71.358566
 22
-95.071289
 32
0.0
 13
71.358566
 23
-95.071289
 33
0.0
  0
LINE
  8
0
  6
BYBLOCK
 10
132.533417
 20
-75.753029
 30
0.0
 11
69.442078
 21
-75.753029
 31
0.0
  0
LINE
  8
0
  6
BYBLOCK
 10
132.533401
 20
-91.753029
 30
0.0
 11
69.442078
 21
-91.753029
 31
0.0
  0
ENDBLK
  8
0
  0
BLOCK
  8
0
  6
C_SOLID_M
  2
*D37
 70
     1
 10
0.0
 20
0.0
 30
0.0
  3
*D37
  0
TEXT
  8
0
  6
BYBLOCK
 10
166.756482
 20
-111.526146
 30
0.0
 40
2.5
  1
M5
  0
LINE
  8
0
  6
BYBLOCK
 10
156.033401
 20
-112.151146
 30
0.0
 11
151.033401
 21
-112.151146
 31
0.0
  0
LINE
  8
0
  6
BYBLOCK
 10
156.033401
 20
-112.151146
 30
0.0
 11
162.383401
 21
-112.151146
 31
0.0
  0
LINE
  8
0
  6
BYBLOCK
 10
151.033401
 20
-112.151146
 30
0.0
 11
144.683402
 21
-112.151146
 31
0.0
  0
SOLID
  8
0
  6
BYBLOCK
 10
159.351662
 20
-111.567634
 30
0.0
 11
156.541401
 21
-112.151146
 31
0.0
 12
159.351662
 22
-112.734658
 32
0.0
 13
159.351662
 23
-112.734658
 33
0.0
  0
SOLID
  8
0
  6
BYBLOCK
 10
147.715141
 20
-112.734658
 30
0.0
 11
150.525401
 21
-112.151146
 31
0.0
 12
147.715141
 22
-111.567634
 32
0.0
 13
147.715141
 23
-111.567634
 33
0.0
  0
LINE
  8
0
  6
BYBLOCK
 10
156.033401
 20
-83.753014
 30
0.0
 11
156.033401
 21
-114.651146
 31
0.0
  0
LINE
  8
0
  6
BYBLOCK
 10
151.033401
 20
-83.753014
 30
0.0
 11
151.033401
 21
-114.651146
 31
0.0
  0
LINE
  8
0
  6
BYBLOCK
 10
156.033401
 20
-112.151146
 30
0.0
 11
177.362747
 21
-112.151146
 31
0.0
  0
ENDBLK
  8
0
  0
BLOCK
  8
0
  6
C_SOLID_M
  2
*D38
 70
     1
 10
0.0
 20
0.0
 30
0.0
  3
*D38
  0
LINE
  8
0
  6
BYBLOCK
 10
-0.000023
 20
-1.000015
 30
0.0
 11
8.924187
 21
-9.022377
 31
0.0
  0
LINE
  8
0
  6
BYBLOCK
 10
8.924187
 20
-9.022377
 30
0.0
 11
13.646584
 21
-13.267546
 31
0.0
  0
SOLID
  8
0
  6
BYBLOCK
 10
11.782021
 20
-10.806786
 30
0.0
 11
9.301978
 21
-9.36199
 31
0.0
 12
11.00183
 22
-11.674684
 32
0.0
 13
11.00183
 23
-11.674684
 33
0.0
  0
TEXT
  8
0
  6
BYBLOCK
 10
25.767263
 20
-23.327233
 30
0.0
 40
2.5
  1
R12
 50
318.1
  0
LINE
  8
0
  6
BYBLOCK
 10
8.924187
 20
-9.022377
 30
0.0
 11
30.990929
 21
-28.859134
 31
0.0
  0
ENDBLK
  8
0
  0
BLOCK
  8
0
  6
C_SOLID_M
  2
*D39
 70
     1
 10
0.0
 20
0.0
 30
0.0
  3
*D39
  0
TEXT
  8
0
  6
BYBLOCK
 10
194.54657
 20
-65.207805
 30
0.0
 40
2.5
  1
14
 50
90.0
  0
LINE
  8
0
  6
BYBLOCK
 10
195.17157
 20
-76.753044
 30
0.0
 11
195.17157
 21
-90.753044
 31
0.0
  0
LINE
  8
0
  6
BYBLOCK
 10
195.17157
 20
-76.753044
 30
0.0
 11
195.17157
 21
-70.403044
 31
0.0
  0
LINE
  8
0
  6
BYBLOCK
 10
195.17157
 20
-90.753044
 30
0.0
 11
195.17157
 21
-97.103044
 31
0.0
  0
SOLID
  8
0
  6
BYBLOCK
 10
194.588058
 20
-73.434784
 30
0.0
 11
195.17157
 21
-76.245044
 31
0.0
 12
195.755081
 22
-73.434784
 32
0.0
 13
195.755081
 23
-73.434784
 33
0.0
  0
SOLID
  8
0
  6
BYBLOCK
 10
195.755081
 20
-94.071304
 30
0.0
 11
195.17157
 21
-91.261044
 31
0.0
 12
194.588058
 22
-94.071304
 32
0.0
 13
194.588058
 23
-94.071304
 33
0.0
  0
LINE
  8
0
  6
BYBLOCK
 10
180.533417
 20
-76.753044
 30
0.0
 11
198.981583
 21
-76.753044
 31
0.0
  0
LINE
  8
0
  6
BYBLOCK
 10
180.533417
 20
-90.753044
 30
0.0
 11
198.981583
 21
-90.753044
 31
0.0
  0
LINE
  8
0
  6
BYBLOCK
 10
195.17157
 20
-76.753044
 30
0.0
 11
195.17157
 21
-54.601555
 31
0.0
  0
ENDBLK
  8
0
  0
BLOCK
  8
MO_001_VIEW_PV
  6
C_SOLID_M
  2
*D40
 70
     1
 10
0.0
 20
0.0
 30
0.0
  3
*D40
  0
TEXT
  8
MO_001_VIEW_PV
  6
BYBLOCK
 10
106.170118
 20
39.057858
 30
0.0
 40
1.8
  1
235
 50
90.0
 41
0.714286
  0
LINE
  8
MO_001_VIEW_PV
  6
BYBLOCK
 10
106.555832
 20
86.580006
 30
0.0
 11
106.555832
 21
-5.070003
 31
0.0
  0
SOLID
  8
MO_001_VIEW_PV
  6
BYBLOCK
 10
107.139344
 20
83.261746
 30
0.0
 11
106.555832
 21
86.072006
 31
0.0
 12
105.97232
 22
83.261746
 32
0.0
 13
105.97232
 23
83.261746
 33
0.0
  0
SOLID
  8
MO_001_VIEW_PV
  6
BYBLOCK
 10
105.97232
 20
-1.751743
 30
0.0
 11
106.555832
 21
-4.562003
 31
0.0
 12
107.139344
 22
-1.751743
 32
0.0
 13
107.139344
 23
-1.751743
 33
0.0
  0
LINE
  8
MO_001_VIEW_PV
  6
BYBLOCK
 10
92.243652
 20
86.580006
 30
0.0
 11
107.555832
 21
86.580006
 31
0.0
  0
LINE
  8
MO_001_VIEW_PV
  6
BYBLOCK
 10
91.684822
 20
-5.070003
 30
0.0
 11
107.555832
 21
-5.070003
 31
0.0
  0
ENDBLK
  8
0
  0
BLOCK
  8
MO_001_VIEW_PV
  6
C_SOLID_M
  2
*D41
 70
     1
 10
0.0
 20
0.0
 30
0.0
  3
*D41
  0
TEXT
  8
MO_001_VIEW_PV
  6
BYBLOCK
 10
102.2059
 20
82.99072
 30
0.0
 40
1.8
  1
13
 50
90.0
 41
0.714286
  0
LINE
  8
MO_001_VIEW_PV
  6
BYBLOCK
 10
102.591614
 20
86.580006
 30
0.0
 11
102.591614
 21
81.51
 31
0.0
  0
LINE
  8
MO_001_VIEW_PV
  6
BYBLOCK
 10
102.591614
 20
86.580006
 30
0.0
 11
102.591614
 21
92.930006
 31
0.0
  0
SOLID
  8
MO_001_VIEW_PV
  6
BYBLOCK
 10
102.008102
 20
89.898266
 30
0.0
 11
102.591614
 21
87.088006
 31
0.0
 12
103.175125
 22
89.898266
 32
0.0
 13
103.175125
 23
89.898266
 33
0.0
  0
LINE
  8
MO_001_NOSHOW
  6
BYBLOCK
 10
91.078033
 20
86.580006
 30
0.0
 11
103.591614
 21
86.580006
 31
0.0
  0
LINE
  8
MO_001_NOSHOW
  6
BYBLOCK
 10
92.082252
 20
81.51
 30
0.0
 11
103.591614
 21
81.51
 31
0.0
  0
ENDBLK
  8
0
  0
BLOCK
  8
MO_001_VIEW_PV
  6
C_SOLID_M
  2
*D42
 70
     1
 10
0.0
 20
0.0
 30
0.0
  3
*D42
  0
TEXT
  8
MO_001_VIEW_PV
  6
BYBLOCK
 10
102.126996
 20
39.057855
 30
0.0
 40
1.8
  1
209
 50
90.0
 41
0.714286
  0
LINE
  8
MO_001_VIEW_PV
  6
BYBLOCK
 10
102.512711
 20
81.51
 30
0.0
 11
102.512711
 21
-0.000006
 31
0.0
  0
SOLID
  8
MO_001_VIEW_PV
  6
BYBLOCK
 10
103.096222
 20
78.19174
 30
0.0
 11
102.512711
 21
81.002
 31
0.0
 12
101.929199
 22
78.19174
 32
0.0
 13
101.929199
 23
78.19174
 33
0.0
  0
SOLID
  8
MO_001_VIEW_PV
  6
BYBLOCK
 10
101.929199
 20
3.318254
 30
0.0
 11
102.512711
 21
0.507994
 31
0.0
 12
103.096222
 22
3.318254
 32
0.0
 13
103.096222
 23
3.318254
 33
0.0
  0
LINE
  8
MO_001_VIEW_PV
  6
BYBLOCK
 10
92.905632
 20
81.51
 30
0.0
 11
103.512711
 21
81.51
 31
0.0
  0
LINE
  8
MO_001_VIEW_PV
  6
BYBLOCK
 10
93.700409
 20
-0.000006
 30
0.0
 11
103.512711
 21
-0.000006
 31
0.0
  0
ENDBLK
  8
0
  0
BLOCK
  8
MO_001_VIEW_PV
  6
C_SOLID_M
  2
*D43
 70
     1
 10
0.0
 20
0.0
 30
0.0
  3
*D43
  0
TEXT
  8
MO_001_VIEW_PV
  6
BYBLOCK
 10
6.94071
 20
41.513129
 30
0.0
 40
1.8
  1
14
 41
0.714286
  0
LINE
  8
MO_001_VIEW_PV
  6
BYBLOCK
 10
5.264997
 20
41.127415
 30
0.0
 11
10.724994
 21
41.127415
 31
0.0
  0
LINE
  8
MO_001_VIEW_PV
  6
BYBLOCK
 10
5.264997
 20
41.127415
 30
0.0
 11
-1.085003
 21
41.127415
 31
0.0
  0
SOLID
  8
MO_001_VIEW_PV
  6
BYBLOCK
 10
1.946737
 20
40.543903
 30
0.0
 11
4.756997
 21
41.127415
 31
0.0
 12
1.946737
 22
41.710926
 32
0.0
 13
1.946737
 23
41.710926
 33
0.0
  0
LINE
  8
MO_001_NOSHOW
  6
BYBLOCK
 10
5.264997
 20
35.373876
 30
0.0
 11
5.264997
 21
42.127415
 31
0.0
  0
LINE
  8
MO_001_NOSHOW
  6
BYBLOCK
 10
10.724994
 20
35.462564
 30
0.0
 11
10.724994
 21
42.127415
 31
0.0
  0
ENDBLK
  8
0
  0
BLOCK
  8
MO_001_VIEW_PV
  6
C_SOLID_M
  2
*D44
 70
     1
 10
0.0
 20
0.0
 30
0.0
  3
*D44
  0
LINE
  8
MO_001_VIEW_PV
  6
BYBLOCK
 10
64.336054
 20
61.377651
 30
0.0
 11
67.088358
 21
61.377651
 31
0.0
  0
LINE
  8
MO_001_VIEW_PV
  6
BYBLOCK
 10
64.336054
 20
61.377651
 30
0.0
 11
57.986054
 21
61.377651
 31
0.0
  0
LINE
  8
MO_001_VIEW_PV
  6
BYBLOCK
 10
67.088358
 20
61.377651
 30
0.0
 11
73.438358
 21
61.377651
 31
0.0
  0
SOLID
  8
MO_001_VIEW_PV
  6
BYBLOCK
 10
61.017794
 20
60.79414
 30
0.0
 11
63.828054
 21
61.377651
 31
0.0
 12
61.017794
 22
61.961163
 32
0.0
 13
61.017794
 23
61.961163
 33
0.0
  0
SOLID
  8
MO_001_VIEW_PV
  6
BYBLOCK
 10
70.406618
 20
61.961163
 30
0.0
 11
67.596358
 21
61.377651
 31
0.0
 12
70.406618
 22
60.79414
 32
0.0
 13
70.406618
 23
60.79414
 33
0.0
  0
LINE
  8
MO_001_VIEW_PV
  6
BYBLOCK
 10
64.336054
 20
57.522141
 30
0.0
 11
64.336054
 21
62.377651
 31
0.0
  0
LINE
  8
MO_001_VIEW_PV
  6
BYBLOCK
 10
67.088358
 20
57.522141
 30
0.0
 11
67.088358
 21
62.377651
 31
0.0
  0
TEXT
  8
MO_001_VIEW_PV
  6
BYBLOCK
 10
65.300783
 20
61.763365
 30
0.0
 40
1.8
  1
7
 41
0.714286
  0
ENDBLK
  8
0
  0
BLOCK
  8
MO_001_VIEW_PV
  6
C_SOLID_M
  2
*D45
 70
     1
 10
0.0
 20
0.0
 30
0.0
  3
*D45
  0
TEXT
  8
MO_001_VIEW_PV
  6
BYBLOCK
 10
43.817098
 20
49.423393
 30
0.0
 40
1.8
  1
20.75
 50
90.0
 41
0.714286
  0
LINE
  8
MO_001_VIEW_PV
  6
BYBLOCK
 10
44.202812
 20
48.36
 30
0.0
 11
44.202812
 21
56.4525
 31
0.0
  0
LINE
  8
MO_001_VIEW_PV
  6
BYBLOCK
 10
44.202812
 20
56.4525
 30
0.0
 11
44.202812
 21
62.8025
 31
0.0
  0
SOLID
  8
MO_001_VIEW_PV
  6
BYBLOCK
 10
42.932812
 20
48.36
 30
0.0
 11
45.472812
 21
48.36
 31
0.0
 12
42.932812
 22
48.36
 32
0.0
 13
42.932812
 23
48.36
 33
0.0
  0
SOLID
  8
MO_001_VIEW_PV
  6
BYBLOCK
 10
43.619301
 20
59.77076
 30
0.0
 11
44.202812
 21
56.9605
 31
0.0
 12
44.786324
 22
59.77076
 32
0.0
 13
44.786324
 23
59.77076
 33
0.0
  0
LINE
  8
MO_001_NOSHOW
  6
BYBLOCK
 10
61.006584
 20
48.36
 30
0.0
 11
43.202812
 21
48.36
 31
0.0
  0
LINE
  8
MO_001_VIEW_PV
  6
BYBLOCK
 10
63.513901
 20
56.4525
 30
0.0
 11
43.202812
 21
56.4525
 31
0.0
  0
ENDBLK
  8
0
  0
BLOCK
  8
MO_001_VIEW_PV
  6
C_SOLID_M
  2
*D46
 70
     1
 10
0.0
 20
0.0
 30
0.0
  3
*D46
  0
TEXT
  8
MO_001_VIEW_PV
  6
BYBLOCK
 10
43.817098
 20
41.8275
 30
0.0
 40
1.8
  1
21.5
 50
90.0
 41
0.714286
  0
LINE
  8
MO_001_VIEW_PV
  6
BYBLOCK
 10
44.202812
 20
48.36
 30
0.0
 11
44.202812
 21
39.974997
 31
0.0
  0
LINE
  8
MO_001_VIEW_PV
  6
BYBLOCK
 10
44.202812
 20
39.974997
 30
0.0
 11
44.202812
 21
33.624997
 31
0.0
  0
SOLID
  8
MO_001_VIEW_PV
  6
BYBLOCK
 10
44.786324
 20
36.656737
 30
0.0
 11
44.202812
 21
39.466997
 31
0.0
 12
43.619301
 22
36.656737
 32
0.0
 13
43.619301
 23
36.656737
 33
0.0
  0
LINE
  8
MO_001_NOSHOW
  6
BYBLOCK
 10
61.006584
 20
48.36
 30
0.0
 11
43.202812
 21
48.36
 31
0.0
  0
LINE
  8
MO_001_VIEW_PV
  6
BYBLOCK
 10
63.587162
 20
39.974997
 30
0.0
 11
43.202812
 21
39.974997
 31
0.0
  0
ENDBLK
  8
0
  0
BLOCK
  8
MO_001_VIEW_PV
  6
C_SOLID_M
  2
*D47
 70
     1
 10
0.0
 20
0.0
 30
0.0
  3
*D47
  0
TEXT
  8
MO_001_VIEW_PV
  6
BYBLOCK
 10
39.213903
 20
59.590715
 30
0.0
 40
1.8
  1
63
 50
90.0
 41
0.714286
  0
LINE
  8
MO_001_VIEW_PV
  6
BYBLOCK
 10
39.599617
 20
48.36
 30
0.0
 11
39.599617
 21
72.93
 31
0.0
  0
SOLID
  8
MO_001_VIEW_PV
  6
BYBLOCK
 10
39.016105
 20
51.67826
 30
0.0
 11
39.599617
 21
48.868
 31
0.0
 12
40.183129
 22
51.67826
 32
0.0
 13
40.183129
 23
51.67826
 33
0.0
  0
SOLID
  8
MO_001_VIEW_PV
  6
BYBLOCK
 10
40.183129
 20
69.61174
 30
0.0
 11
39.599617
 21
72.422
 31
0.0
 12
39.016105
 22
69.61174
 32
0.0
 13
39.016105
 23
69.61174
 33
0.0
  0
LINE
  8
MO_001_NOSHOW
  6
BYBLOCK
 10
61.006584
 20
48.36
 30
0.0
 11
38.599617
 21
48.36
 31
0.0
  0
LINE
  8
MO_001_NOSHOW
  6
BYBLOCK
 10
55.938179
 20
72.93
 30
0.0
 11
38.599617
 21
72.93
 31
0.0
  0
ENDBLK
  8
0
  0
BLOCK
  8
MO_001_VIEW_PV
  6
C_SOLID_M
  2
*D48
 70
     1
 10
0.0
 20
0.0
 30
0.0
  3
*D48
  0
LINE
  8
MO_001_VIEW_PV
  6
BYBLOCK
 10
88.647987
 20
86.580006
 30
0.0
 11
80.598902
 21
86.580006
 31
0.0
  0
LINE
  8
MO_001_VIEW_PV
  6
BYBLOCK
 10
78.247795
 20
86.580006
 30
0.0
 11
66.872385
 21
86.580006
 31
0.0
  0
TEXT
  8
MO_001_VIEW_PV
  6
BYBLOCK
 10
34.583871
 20
66.415716
 30
0.0
 40
1.8
  1
98
 50
90.0
 41
0.714286
  0
LINE
  8
MO_001_VIEW_PV
  6
BYBLOCK
 10
34.969585
 20
48.36
 30
0.0
 11
34.969585
 21
86.580006
 31
0.0
  0
SOLID
  8
MO_001_VIEW_PV
  6
BYBLOCK
 10
34.386074
 20
51.67826
 30
0.0
 11
34.969585
 21
48.868
 31
0.0
 12
35.553097
 22
51.67826
 32
0.0
 13
35.553097
 23
51.67826
 33
0.0
  0
SOLID
  8
MO_001_VIEW_PV
  6
BYBLOCK
 10
35.553097
 20
83.261746
 30
0.0
 11
34.969585
 21
86.072006
 31
0.0
 12
34.386074
 22
83.261746
 32
0.0
 13
34.386074
 23
83.261746
 33
0.0
  0
LINE
  8
MO_001_VIEW_PV
  6
BYBLOCK
 10
60.496216
 20
48.36
 30
0.0
 11
33.969585
 21
48.36
 31
0.0
  0
LINE
  8
MO_001_VIEW_PV
  6
BYBLOCK
 10
64.430069
 20
86.580006
 30
0.0
 11
33.969585
 21
86.580006
 31
0.0
  0
ENDBLK
  8
0
  0
BLOCK
  8
MO_001_VIEW_PV
  6
C_SOLID_M
  2
*D49
 70
     1
 10
0.0
 20
0.0
 30
0.0
  3
*D49
  0
TEXT
  8
MO_001_VIEW_PV
  6
BYBLOCK
 10
71.064933
 20
27.221495
 30
0.0
 40
1.8
  1
%%C7
 50
22.7
 41
0.714286
  0
LINE
  8
MO_001_VIEW_PV
  6
BYBLOCK
 10
64.452547
 20
24.044177
 30
0.0
 11
66.971865
 21
25.095814
 31
0.0
  0
LINE
  8
MO_001_VIEW_PV
  6
BYBLOCK
 10
64.452547
 20
24.044177
 30
0.0
 11
58.592597
 21
21.598062
 31
0.0
  0
LINE
  8
MO_001_VIEW_PV
  6
BYBLOCK
 10
66.971865
 20
25.095814
 30
0.0
 11
72.831815
 21
27.541929
 31
0.0
  0
SOLID
  8
MO_001_VIEW_PV
  6
BYBLOCK
 10
61.615145
 20
22.227453
 30
0.0
 11
63.983751
 21
23.848488
 31
0.0
 12
61.16559
 22
23.304414
 32
0.0
 13
61.16559
 23
23.304414
 33
0.0
  0
SOLID
  8
MO_001_VIEW_PV
  6
BYBLOCK
 10
69.809267
 20
26.912538
 30
0.0
 11
67.440661
 21
25.291503
 31
0.0
 12
70.258822
 22
25.835577
 32
0.0
 13
70.258822
 23
25.835577
 33
0.0
  0
LINE
  8
MO_001_VIEW_PV
  6
BYBLOCK
 10
66.971865
 20
25.095814
 30
0.0
 11
73.563251
 21
27.847252
 31
0.0
  0
ENDBLK
  8
0
  0
BLOCK
  8
MO_001_VIEW_PV
  6
C_SOLID_M
  2
*D50
 70
     1
 10
0.0
 20
0.0
 30
0.0
  3
*D50
  0
LINE
  8
MO_001_VIEW_PV
  6
BYBLOCK
 10
74.608894
 20
50.115
 30
0.0
 11
74.608894
 21
46.605
 31
0.0
  0
LINE
  8
MO_001_VIEW_PV
  6
BYBLOCK
 10
74.608894
 20
50.115
 30
0.0
 11
74.608894
 21
56.465
 31
0.0
  0
LINE
  8
MO_001_VIEW_PV
  6
BYBLOCK
 10
74.608894
 20
46.605
 30
0.0
 11
74.608894
 21
40.255
 31
0.0
  0
SOLID
  8
MO_001_VIEW_PV
  6
BYBLOCK
 10
74.025383
 20
53.43326
 30
0.0
 11
74.608894
 21
50.623
 31
0.0
 12
75.192406
 22
53.43326
 32
0.0
 13
75.192406
 23
53.43326
 33
0.0
  0
SOLID
  8
MO_001_VIEW_PV
  6
BYBLOCK
 10
75.192406
 20
43.28674
 30
0.0
 11
74.608894
 21
46.097
 31
0.0
 12
74.025383
 22
43.28674
 32
0.0
 13
74.025383
 23
43.28674
 33
0.0
  0
LINE
  8
MO_001_VIEW_PV
  6
BYBLOCK
 10
67.460291
 20
50.115
 30
0.0
 11
75.608894
 21
50.115
 31
0.0
  0
LINE
  8
MO_001_VIEW_PV
  6
BYBLOCK
 10
67.460291
 20
46.605
 30
0.0
 11
75.608894
 21
46.605
 31
0.0
  0
TEXT
  8
MO_001_VIEW_PV
  6
BYBLOCK
 10
74.22318
 20
47.305715
 30
0.0
 40
1.8
  1
\U+f0689
 50
90.0
 41
0.714286
  0
ENDBLK
  8
0
  0
BLOCK
  8
MO_001_VIEW_PV
  6
C_SOLID_M
  2
*D51
 70
     1
 10
0.0
 20
0.0
 30
0.0
  3
*D51
  0
TEXT
  8
MO_001_VIEW_PV
  6
BYBLOCK
 10
74.126548
 20
-9.692047
 30
0.0
 40
1.8
  1
Dornmaß
 41
0.714286
  0
LINE
  8
MO_001_VIEW_PV
  6
BYBLOCK
 10
65.712206
 20
-10.077762
 30
0.0
 11
91.078033
 21
-10.077762
 31
0.0
  0
SOLID
  8
MO_001_VIEW_PV
  6
BYBLOCK
 10
69.030466
 20
-9.49425
 30
0.0
 11
66.220206
 21
-10.077762
 31
0.0
 12
69.030466
 22
-10.661273
 32
0.0
 13
69.030466
 23
-10.661273
 33
0.0
  0
SOLID
  8
MO_001_VIEW_PV
  6
BYBLOCK
 10
87.759772
 20
-10.661273
 30
0.0
 11
90.570033
 21
-10.077762
 31
0.0
 12
87.759772
 22
-9.49425
 32
0.0
 13
87.759772
 23
-9.49425
 33
0.0
  0
LINE
  8
MO_001_NOSHOW
  6
BYBLOCK
 10
65.712206
 20
-1.099988
 30
0.0
 11
65.712206
 21
-11.077762
 31
0.0
  0
LINE
  8
MO_001_VIEW_PV
  6
BYBLOCK
 10
91.078033
 20
-5.822526
 30
0.0
 11
91.078033
 21
-11.077762
 31
0.0
  0
LINE
  8
MO_001_NOSHOW
  6
BYBLOCK
 10
65.712206
 20
6.199797
 30
0.0
 11
65.712206
 21
4.509617
 31
0.0
  0
ENDBLK
  8
0
  0
BLOCK
  8
MO_001_VIEW_PV
  6
C_SOLID_M
  2
*D52
 70
     1
 10
0.0
 20
0.0
 30
0.0
  3
*D52
  0
TEXT
  8
MO_001_VIEW_PV
  6
BYBLOCK
 10
58.223478
 20
-9.692047
 30
0.0
 40
1.8
  1
33
 41
0.714286
  0
LINE
  8
MO_001_VIEW_PV
  6
BYBLOCK
 10
52.843322
 20
-10.077762
 30
0.0
 11
65.712206
 21
-10.077762
 31
0.0
  0
SOLID
  8
MO_001_VIEW_PV
  6
BYBLOCK
 10
56.161582
 20
-9.49425
 30
0.0
 11
53.351322
 21
-10.077762
 31
0.0
 12
56.161582
 22
-10.661273
 32
0.0
 13
56.161582
 23
-10.661273
 33
0.0
  0
SOLID
  8
MO_001_VIEW_PV
  6
BYBLOCK
 10
62.393946
 20
-10.661273
 30
0.0
 11
65.204206
 21
-10.077762
 31
0.0
 12
62.393946
 22
-9.49425
 32
0.0
 13
62.393946
 23
-9.49425
 33
0.0
  0
LINE
  8
MO_001_VIEW_PV
  6
BYBLOCK
 10
52.843322
 20
10.919867
 30
0.0
 11
52.843322
 21
-11.077762
 31
0.0
  0
LINE
  8
MO_001_VIEW_PV
  6
BYBLOCK
 10
65.712206
 20
5.261662
 30
0.0
 11
65.712206
 21
-11.077762
 31
0.0
  0
ENDBLK
  8
0
  0
BLOCK
  8
MO_001_VIEW_PV
  6
C_SOLID_M
  2
*D53
 70
     1
 10
0.0
 20
0.0
 30
0.0
  3
*D53
  0
TEXT
  8
MO_001_VIEW_PV
  6
BYBLOCK
 10
72.354513
 20
-26.451196
 30
0.0
 40
1.8
  1
M6
 41
0.714286
  0
LINE
  8
MO_001_VIEW_PV
  6
BYBLOCK
 10
78.403027
 20
-26.83691
 30
0.0
 11
80.353027
 21
-26.83691
 31
0.0
  0
LINE
  8
MO_001_VIEW_PV
  6
BYBLOCK
 10
78.403027
 20
-26.83691
 30
0.0
 11
72.053027
 21
-26.83691
 31
0.0
  0
LINE
  8
MO_001_VIEW_PV
  6
BYBLOCK
 10
80.353027
 20
-26.83691
 30
0.0
 11
86.703026
 21
-26.83691
 31
0.0
  0
SOLID
  8
MO_001_VIEW_PV
  6
BYBLOCK
 10
75.084766
 20
-27.420422
 30
0.0
 11
77.895027
 21
-26.83691
 31
0.0
 12
75.084766
 22
-26.253399
 32
0.0
 13
75.084766
 23
-26.253399
 33
0.0
  0
SOLID
  8
MO_001_VIEW_PV
  6
BYBLOCK
 10
83.671287
 20
-26.253399
 30
0.0
 11
80.861027
 21
-26.83691
 31
0.0
 12
83.671287
 22
-27.420422
 32
0.0
 13
83.671287
 23
-27.420422
 33
0.0
  0
LINE
  8
MO_001_VIEW_PV
  6
BYBLOCK
 10
78.403027
 20
-19.013677
 30
0.0
 11
78.403027
 21
-27.83691
 31
0.0
  0
LINE
  8
MO_001_VIEW_PV
  6
BYBLOCK
 10
80.353027
 20
-19.013679
 30
0.0
 11
80.353027
 21
-27.83691
 31
0.0
  0
LINE
  8
MO_001_VIEW_PV
  6
BYBLOCK
 10
71.917374
 20
-26.83691
 30
0.0
 11
78.403027
 21
-26.83691
 31
0.0
  0
ENDBLK
  8
0
  0
BLOCK
  8
MO_001_VIEW_PV
  6
C_SOLID_M
  2
*D54
 70
     1
 10
0.0
 20
0.0
 30
0.0
  3
*D54
  0
TEXT
  8
MO_001_VIEW_PV
  6
BYBLOCK
 10
97.825251
 20
63.323737
 30
0.0
 40
1.8
  1
C
 41
0.714286
  0
LINE
  8
MO_001_VIEW_PV
  6
BYBLOCK
 10
91.078033
 20
62.938023
 30
0.0
 11
92.416991
 21
62.938023
 31
0.0
  0
LINE
  8
MO_001_VIEW_PV
  6
BYBLOCK
 10
91.078033
 20
62.938023
 30
0.0
 11
84.728033
 21
62.938023
 31
0.0
  0
LINE
  8
MO_001_VIEW_PV
  6
BYBLOCK
 10
92.416991
 20
62.938023
 30
0.0
 11
98.766991
 21
62.938023
 31
0.0
  0
SOLID
  8
MO_001_VIEW_PV
  6
BYBLOCK
 10
87.759772
 20
62.354511
 30
0.0
 11
90.570033
 21
62.938023
 31
0.0
 12
87.759772
 22
63.521534
 32
0.0
 13
87.759772
 23
63.521534
 33
0.0
  0
SOLID
  8
MO_001_VIEW_PV
  6
BYBLOCK
 10
95.735251
 20
63.521534
 30
0.0
 11
92.924991
 21
62.938023
 31
0.0
 12
95.735251
 22
62.354511
 32
0.0
 13
95.735251
 23
62.354511
 33
0.0
  0
LINE
  8
MO_001_NOSHOW
  6
BYBLOCK
 10
91.078033
 20
86.580006
 30
0.0
 11
91.078033
 21
61.938023
 31
0.0
  0
LINE
  8
MO_001_VIEW_PV
  6
BYBLOCK
 10
92.416991
 20
58.455429
 30
0.0
 11
92.416991
 21
63.938023
 31
0.0
  0
LINE
  8
MO_001_VIEW_PV
  6
BYBLOCK
 10
92.416991
 20
62.938023
 30
0.0
 11
99.085243
 21
62.938023
 31
0.0
  0
ENDBLK
  8
0
  0
BLOCK
  8
MO_001_VIEW_PV
  6
C_SOLID_M
  2
*D55
 70
     1
 10
0.0
 20
0.0
 30
0.0
  3
*D55
  0
TEXT
  8
MO_001_VIEW_PV
  6
BYBLOCK
 10
47.437978
 20
-20.067965
 30
0.0
 40
1.8
  1
16
 50
90.0
 41
0.714286
  0
LINE
  8
MO_001_VIEW_PV
  6
BYBLOCK
 10
47.823693
 20
-16.283673
 30
0.0
 11
47.823691
 21
-21.743688
 31
0.0
  0
LINE
  8
MO_001_VIEW_PV
  6
BYBLOCK
 10
47.823693
 20
-16.283673
 30
0.0
 11
47.823693
 21
-9.933673
 31
0.0
  0
LINE
  8
MO_001_VIEW_PV
  6
BYBLOCK
 10
47.823691
 20
-21.743688
 30
0.0
 11
47.823691
 21
-28.093688
 31
0.0
  0
SOLID
  8
MO_001_VIEW_PV
  6
BYBLOCK
 10
47.240182
 20
-12.965412
 30
0.0
 11
47.823693
 21
-15.775673
 31
0.0
 12
48.407205
 22
-12.965412
 32
0.0
 13
48.407205
 23
-12.965412
 33
0.0
  0
SOLID
  8
MO_001_VIEW_PV
  6
BYBLOCK
 10
48.407203
 20
-25.061948
 30
0.0
 11
47.823691
 21
-22.251688
 31
0.0
 12
47.24018
 22
-25.061948
 32
0.0
 13
47.24018
 23
-25.061948
 33
0.0
  0
LINE
  8
MO_001_VIEW_PV
  6
BYBLOCK
 10
52.141804
 20
-16.283674
 30
0.0
 11
46.823693
 21
-16.283672
 31
0.0
  0
LINE
  8
MO_001_VIEW_PV
  6
BYBLOCK
 10
52.141804
 20
-21.743689
 30
0.0
 11
46.823691
 21
-21.743687
 31
0.0
  0
ENDBLK
  8
0
  0
BLOCK
  8
MO_001_VIEW_PV
  6
C_SOLID_M
  2
*D56
 70
     1
 10
0.0
 20
0.0
 30
0.0
  3
*D56
  0
TEXT
  8
MO_001_VIEW_PV
  6
BYBLOCK
 10
95.473665
 20
5.059987
 30
0.0
 40
1.8
  1
3
 41
0.714286
  0
LINE
  8
MO_001_VIEW_PV
  6
BYBLOCK
 10
89.887847
 20
4.674273
 30
0.0
 11
91.078033
 21
4.674273
 31
0.0
  0
LINE
  8
MO_001_VIEW_PV
  6
BYBLOCK
 10
89.887847
 20
4.674273
 30
0.0
 11
83.537847
 21
4.674273
 31
0.0
  0
LINE
  8
MO_001_VIEW_PV
  6
BYBLOCK
 10
91.078033
 20
4.674273
 30
0.0
 11
97.428032
 21
4.674273
 31
0.0
  0
SOLID
  8
MO_001_VIEW_PV
  6
BYBLOCK
 10
86.569587
 20
4.090761
 30
0.0
 11
89.379847
 21
4.674273
 31
0.0
 12
86.569587
 22
5.257785
 32
0.0
 13
86.569587
 23
5.257785
 33
0.0
  0
SOLID
  8
MO_001_VIEW_PV
  6
BYBLOCK
 10
94.396293
 20
5.257785
 30
0.0
 11
91.586033
 21
4.674273
 31
0.0
 12
94.396293
 22
4.090761
 32
0.0
 13
94.396293
 23
4.090761
 33
0.0
  0
LINE
  8
MO_001_NOSHOW
  6
BYBLOCK
 10
89.887847
 20
-5.070003
 30
0.0
 11
89.887847
 21
5.674273
 31
0.0
  0
LINE
  8
MO_001_NOSHOW
  6
BYBLOCK
 10
91.078033
 20
-5.070003
 30
0.0
 11
91.078033
 21
5.674273
 31
0.0
  0
LINE
  8
MO_001_VIEW_PV
  6
BYBLOCK
 10
91.078033
 20
4.674273
 30
0.0
 11
96.733658
 21
4.674273
 31
0.0
  0
ENDBLK
  8
0
  0
BLOCK
  8
MO_001_VIEW_PV
  6
C_SOLID_M
  2
*D57
 70
     1
 10
0.0
 20
0.0
 30
0.0
  3
*D57
  0
TEXT
  8
MO_001_VIEW_PV
  6
BYBLOCK
 10
72.125749
 20
90.154254
 30
0.0
 40
1.8
  1
D
 41
0.714286
  0
LINE
  8
MO_001_VIEW_PV
  6
BYBLOCK
 10
65.712206
 20
89.768539
 30
0.0
 11
79.362144
 21
89.768539
 31
0.0
  0
SOLID
  8
MO_001_VIEW_PV
  6
BYBLOCK
 10
69.030466
 20
90.352051
 30
0.0
 11
66.220206
 21
89.768539
 31
0.0
 12
69.030466
 22
89.185028
 32
0.0
 13
69.030466
 23
89.185028
 33
0.0
  0
SOLID
  8
MO_001_VIEW_PV
  6
BYBLOCK
 10
76.043883
 20
89.185028
 30
0.0
 11
78.854144
 21
89.768539
 31
0.0
 12
76.043883
 22
90.352051
 32
0.0
 13
76.043883
 23
90.352051
 33
0.0
  0
LINE
  8
MO_001_NOSHOW
  6
BYBLOCK
 10
65.712206
 20
87.872269
 30
0.0
 11
65.712206
 21
90.768539
 31
0.0
  0
LINE
  8
MO_001_NOSHOW
  6
BYBLOCK
 10
79.362144
 20
81.346664
 30
0.0
 11
79.362144
 21
90.768539
 31
0.0
  0
ENDBLK
  8
0
  0
BLOCK
  8
MO_001_VIEW_PV
  6
C_SOLID_M
  2
*D58
 70
     1
 10
0.0
 20
0.0
 30
0.0
  3
*D58
  0
TEXT
  8
MO_001_VIEW_PV
  6
BYBLOCK
 10
16.334207
 20
41.503821
 30
0.0
 40
1.8
  1
3
 41
0.714286
  0
LINE
  8
MO_001_VIEW_PV
  6
BYBLOCK
 10
8.502495
 20
41.118108
 30
0.0
 11
11.700007
 21
41.118108
 31
0.0
  0
LINE
  8
MO_001_VIEW_PV
  6
BYBLOCK
 10
11.700007
 20
41.118108
 30
0.0
 11
18.050007
 21
41.118108
 31
0.0
  0
SOLID
  8
MO_001_VIEW_PV
  6
BYBLOCK
 10
10.724995
 20
42.388108
 30
0.0
 11
10.724995
 21
39.848108
 31
0.0
 12
10.724995
 22
42.388108
 32
0.0
 13
10.724995
 23
42.388108
 33
0.0
  0
SOLID
  8
MO_001_VIEW_PV
  6
BYBLOCK
 10
15.018267
 20
41.701619
 30
0.0
 11
12.208007
 21
41.118108
 31
0.0
 12
15.018267
 22
40.534596
 32
0.0
 13
15.018267
 23
40.534596
 33
0.0
  0
LINE
  8
MO_001_NOSHOW
  6
BYBLOCK
 10
10.724994
 20
34.905
 30
0.0
 11
10.724995
 21
42.118108
 31
0.0
  0
LINE
  8
MO_001_NOSHOW
  6
BYBLOCK
 10
11.7
 20
-1.170003
 30
0.0
 11
11.700007
 21
42.118108
 31
0.0
  0
LINE
  8
MO_001_VIEW_PV
  6
BYBLOCK
 10
11.700007
 20
41.118108
 30
0.0
 11
17.594208
 21
41.118107
 31
0.0
  0
ENDBLK
  8
0
  0
BLOCK
  8
MO_001_VIEW_PV
  6
C_SOLID_M
  2
*D59
 70
     1
 10
0.0
 20
0.0
 30
0.0
  3
*D59
  0
TEXT
  8
MO_001_VIEW_PV
  6
BYBLOCK
 10
6.745714
 20
-11.021124
 30
0.0
 40
1.8
  1
20
 41
0.714286
  0
LINE
  8
MO_001_VIEW_PV
  6
BYBLOCK
 10
3.9
 20
-11.406838
 30
0.0
 11
11.7
 21
-11.406838
 31
0.0
  0
SOLID
  8
MO_001_VIEW_PV
  6
BYBLOCK
 10
7.21826
 20
-10.823327
 30
0.0
 11
4.408
 21
-11.406838
 31
0.0
 12
7.21826
 22
-11.99035
 32
0.0
 13
7.21826
 23
-11.99035
 33
0.0
  0
SOLID
  8
MO_001_VIEW_PV
  6
BYBLOCK
 10
8.38174
 20
-11.99035
 30
0.0
 11
11.192
 21
-11.406838
 31
0.0
 12
8.38174
 22
-10.823327
 32
0.0
 13
8.38174
 23
-10.823327
 33
0.0
  0
LINE
  8
MO_001_VIEW_PV
  6
BYBLOCK
 10
3.9
 20
-3.90503
 30
0.0
 11
3.9
 21
-12.406838
 31
0.0
  0
LINE
  8
MO_001_VIEW_PV
  6
BYBLOCK
 10
11.7
 20
-3.90503
 30
0.0
 11
11.7
 21
-12.406838
 31
0.0
  0
ENDBLK
  8
0
  0
BLOCK
  8
MO_001_VIEW_PV
  6
C_SOLID_M
  2
*D60
 70
     1
 10
0.0
 20
0.0
 30
0.0
  3
*D60
  0
TEXT
  8
MO_001_VIEW_PV
  6
BYBLOCK
 10
15.585122
 20
73.701449
 30
0.0
 40
1.8
  1
4.5
 41
0.714286
  0
LINE
  8
MO_001_VIEW_PV
  6
BYBLOCK
 10
11.7
 20
73.315735
 30
0.0
 11
10.140001
 21
73.315735
 31
0.0
  0
LINE
  8
MO_001_VIEW_PV
  6
BYBLOCK
 10
11.7
 20
73.315735
 30
0.0
 11
18.05
 21
73.315735
 31
0.0
  0
LINE
  8
MO_001_VIEW_PV
  6
BYBLOCK
 10
10.140001
 20
73.315735
 30
0.0
 11
3.790002
 21
73.315735
 31
0.0
  0
SOLID
  8
MO_001_VIEW_PV
  6
BYBLOCK
 10
15.01826
 20
73.899246
 30
0.0
 11
12.208
 21
73.315735
 31
0.0
 12
15.01826
 22
72.732223
 32
0.0
 13
15.01826
 23
72.732223
 33
0.0
  0
SOLID
  8
MO_001_VIEW_PV
  6
BYBLOCK
 10
6.821741
 20
72.732223
 30
0.0
 11
9.632001
 21
73.315735
 31
0.0
 12
6.821741
 22
73.899246
 32
0.0
 13
6.821741
 23
73.899246
 33
0.0
  0
LINE
  8
MO_001_NOSHOW
  6
BYBLOCK
 10
11.7
 20
82.68
 30
0.0
 11
11.7
 21
72.315735
 31
0.0
  0
LINE
  8
MO_001_VIEW_PV
  6
BYBLOCK
 10
10.140001
 20
62.178886
 30
0.0
 11
10.140001
 21
74.315735
 31
0.0
  0
LINE
  8
MO_001_VIEW_PV
  6
BYBLOCK
 10
19.41655
 20
73.315735
 30
0.0
 11
11.7
 21
73.315735
 31
0.0
  0
ENDBLK
  8
0
  0
BLOCK
  8
MO_001_VIEW_PV
  6
C_SOLID_M
  2
*D61
 70
     1
 10
0.0
 20
0.0
 30
0.0
  3
*D61
  0
TEXT
  8
MO_001_VIEW_PV
  6
BYBLOCK
 10
100.053579
 20
-23.7814
 30
0.0
 40
1.8
  1
2.5
 50
90.0
 41
0.714286
  0
LINE
  8
MO_001_VIEW_PV
  6
BYBLOCK
 10
100.439295
 20
-16.283689
 30
0.0
 11
100.439295
 21
-15.503685
 31
0.0
  0
LINE
  8
MO_001_VIEW_PV
  6
BYBLOCK
 10
100.439295
 20
-16.283689
 30
0.0
 11
100.439295
 21
-22.633689
 31
0.0
  0
LINE
  8
MO_001_VIEW_PV
  6
BYBLOCK
 10
100.439295
 20
-15.503685
 30
0.0
 11
100.439295
 21
-9.153685
 31
0.0
  0
SOLID
  8
MO_001_VIEW_PV
  6
BYBLOCK
 10
101.022806
 20
-19.60195
 30
0.0
 11
100.439295
 21
-16.791689
 31
0.0
 12
99.855783
 22
-19.60195
 32
0.0
 13
99.855783
 23
-19.60195
 33
0.0
  0
SOLID
  8
MO_001_VIEW_PV
  6
BYBLOCK
 10
99.855783
 20
-12.185425
 30
0.0
 11
100.439295
 21
-14.995685
 31
0.0
 12
101.022807
 22
-12.185425
 32
0.0
 13
101.022807
 23
-12.185425
 33
0.0
  0
LINE
  8
MO_001_VIEW_PV
  6
BYBLOCK
 10
91.420952
 20
-16.283687
 30
0.0
 11
101.439295
 21
-16.28369
 31
0.0
  0
LINE
  8
MO_001_VIEW_PV
  6
BYBLOCK
 10
91.34433
 20
-15.503682
 30
0.0
 11
101.439295
 21
-15.503685
 31
0.0
  0
LINE
  8
MO_001_VIEW_PV
  6
BYBLOCK
 10
100.439292
 20
-24.218542
 30
0.0
 11
100.439295
 21
-16.283689
 31
0.0
  0
ENDBLK
  8
0
  0
BLOCK
  8
MO_001_VIEW_PV
  6
C_SOLID_M
  2
*D62
 70
     1
 10
0.0
 20
0.0
 30
0.0
  3
*D62
  0
TEXT
  8
MO_001_VIEW_PV
  6
BYBLOCK
 10
39.213903
 20
35.410711
 30
0.0
 40
1.8
  1
61
 50
90.0
 41
0.714286
  0
LINE
  8
MO_001_VIEW_PV
  6
BYBLOCK
 10
39.599617
 20
48.36
 30
0.0
 11
39.599617
 21
24.569996
 31
0.0
  0
SOLID
  8
MO_001_VIEW_PV
  6
BYBLOCK
 10
40.183129
 20
45.04174
 30
0.0
 11
39.599617
 21
47.852
 31
0.0
 12
39.016105
 22
45.04174
 32
0.0
 13
39.016105
 23
45.04174
 33
0.0
  0
SOLID
  8
MO_001_VIEW_PV
  6
BYBLOCK
 10
39.016105
 20
27.888256
 30
0.0
 11
39.599617
 21
25.077996
 31
0.0
 12
40.183129
 22
27.888256
 32
0.0
 13
40.183129
 23
27.888256
 33
0.0
  0
LINE
  8
MO_001_NOSHOW
  6
BYBLOCK
 10
61.006584
 20
48.36
 30
0.0
 11
38.599617
 21
48.36
 31
0.0
  0
LINE
  8
MO_001_VIEW_PV
  6
BYBLOCK
 10
62.753036
 20
24.569996
 30
0.0
 11
38.599617
 21
24.569996
 31
0.0
  0
ENDBLK
  8
0
  0
BLOCK
  8
MO_001_VIEW_PV
  6
C_SOLID_M
  2
*D63
 70
     1
 10
0.0
 20
0.0
 30
0.0
  3
*D63
  0
LINE
  8
MO_001_VIEW_PV
  6
BYBLOCK
 10
30.307558
 20
8.579997
 30
0.0
 11
30.307558
 21
72.93
 31
0.0
  0
SOLID
  8
MO_001_VIEW_PV
  6
BYBLOCK
 10
29.724046
 20
11.898257
 30
0.0
 11
30.307558
 21
9.087997
 31
0.0
 12
30.89107
 22
11.898257
 32
0.0
 13
30.89107
 23
11.898257
 33
0.0
  0
SOLID
  8
MO_001_VIEW_PV
  6
BYBLOCK
 10
30.89107
 20
69.61174
 30
0.0
 11
30.307558
 21
72.422
 31
0.0
 12
29.724046
 22
69.61174
 32
0.0
 13
29.724046
 23
69.61174
 33
0.0
  0
LINE
  8
MO_001_VIEW_PV
  6
BYBLOCK
 10
52.5172
 20
8.579997
 30
0.0
 11
29.307558
 21
8.579997
 31
0.0
  0
LINE
  8
MO_001_VIEW_PV
  6
BYBLOCK
 10
33.135101
 20
72.93
 30
0.0
 11
29.307558
 21
72.93
 31
0.0
  0
TEXT
  8
MO_001_VIEW_PV
  6
BYBLOCK
 10
29.921844
 20
39.057855
 30
0.0
 40
1.8
  1
165
 50
90.0
 41
0.714286
  0
LINE
  8
MO_001_VIEW_PV
  6
BYBLOCK
 10
54.34882
 20
72.93
 30
0.0
 11
36.183643
 21
72.93
 31
0.0
  0
LINE
  8
MO_001_VIEW_PV
  6
BYBLOCK
 10
55.058926
 20
8.579997
 30
0.0
 11
53.209652
 21
8.579997
 31
0.0
  0
ENDBLK
  8
0
  0
BLOCK
  8
MO_001_VIEW_PV
  6
C_SOLID_M
  2
*D64
 70
     1
 10
0.0
 20
0.0
 30
0.0
  3
*D64
  0
TEXT
  8
MO_001_VIEW_PV
  6
BYBLOCK
 10
39.208379
 20
16.105709
 30
0.0
 40
1.8
  1
38
 50
90.0
 41
0.714286
  0
LINE
  8
MO_001_VIEW_PV
  6
BYBLOCK
 10
39.594093
 20
9.749994
 30
0.0
 11
39.594093
 21
24.569996
 31
0.0
  0
SOLID
  8
MO_001_VIEW_PV
  6
BYBLOCK
 10
39.010582
 20
13.068254
 30
0.0
 11
39.594093
 21
10.257994
 31
0.0
 12
40.177605
 22
13.068254
 32
0.0
 13
40.177605
 23
13.068254
 33
0.0
  0
SOLID
  8
MO_001_VIEW_PV
  6
BYBLOCK
 10
40.177605
 20
21.251735
 30
0.0
 11
39.594093
 21
24.061996
 31
0.0
 12
39.010582
 22
21.251735
 32
0.0
 13
39.010582
 23
21.251735
 33
0.0
  0
LINE
  8
MO_001_VIEW_PV
  6
BYBLOCK
 10
52.465065
 20
9.749994
 30
0.0
 11
38.594093
 21
9.749994
 31
0.0
  0
LINE
  8
MO_001_NOSHOW
  6
BYBLOCK
 10
63.602283
 20
24.569996
 30
0.0
 11
38.594093
 21
24.569996
 31
0.0
  0
LINE
  8
MO_001_VIEW_PV
  6
BYBLOCK
 10
62.922077
 20
9.749994
 30
0.0
 11
53.157517
 21
9.749994
 31
0.0
  0
ENDBLK
  8
0
  0
ENDSEC
  0
SECTION
  2
ENTITIES
  0
VIEWPORT
  8
0
  6
CONTINUOUS
 62
     0
 67
     1
 68
     1
 10
0.0
 20
0.0
 30
0.0
 40
1000.0
 41
1000.0
 69
     1
1001
ACAD
1000
MVIEW
1002
{
1070
    16
1010
0.0
1020
0.0
1030
0.0
1010
0.0
1020
0.0
1030
1.0
1040
0.0
1040
1000.0
1040
0.0
1040
0.0
1040
50.0
1040
0.0
1040
0.0
1070
     0
1070
   100
1070
     1
1070
     1
1070
     0
1070
     0
1070
     0
1070
     0
1040
0.0
1040
0.0
1040
0.0
1040
1.0
1040
1.0
1040
0.0
1040
0.0
1070
     0
1002
{
1002
}
1002
}
  0
TEXT
  8
OVERLAY_MAP
  6
C_SOLID_L
 10
0.0
 20
6.35
 30
0.0
 40
4.1672
  1
Model Overlay Name
  0
TEXT
  8
OVERLAY_MAP
  6
C_SOLID_L
 10
126.999998
 20
0.0
 30
0.0
 40
4.1672
  1
Number
  0
TEXT
  8
OVERLAY_MAP
  6
C_SOLID_L
 10
177.799997
 20
0.0
 30
0.0
 40
4.1672
  1
File Text
  0
TEXT
  8
OVERLAY_MAP
  6
C_SOLID_L
 10
0.0
 20
-6.35
 30
0.0
 40
4.1672
  1
Z:\Entwicklung\Entwicklung_Schloss_Beschlag\CAD\CCD\_Entwicklung\Voßbeck\Katalog-2005\2390-20mm Stulp 
  0
TEXT
  8
OVERLAY_MAP
  6
C_SOLID_L
 10
126.999998
 20
-6.35
 30
0.0
 40
4.1672
  1
001
  0
TEXT
  8
OVERLAY_MAP
  6
C_SOLID_L
 10
177.799997
 20
-6.35
 30
0.0
 40
4.1672
  1
                                                               162007178
  0
POINT
  8
MO_001_VIEW_PV
  6
C_SOLID_M
 10
7.8
 20
0.0
 30
0.0
  0
POINT
  8
MO_001_VIEW_PV
  6
C_SOLID_M
 10
68.734706
 20
48.36
 30
0.0
  0
POINT
  8
MO_001_VIEW_PV
  6
C_SOLID_M
 10
62.689706
 20
48.36
 30
0.0
  0
POINT
  8
MO_001_VIEW_PV
  6
C_SOLID_M
 10
64.347206
 20
56.4525
 30
0.0
  0
POINT
  8
MO_001_VIEW_PV
  6
C_SOLID_M
 10
67.077206
 20
56.4525
 30
0.0
  0
POINT
  8
MO_001_VIEW_PV
  6
C_SOLID_M
 10
65.712206
 20
9.749994
 30
0.0
  0
POINT
  8
MO_001_VIEW_PV
  6
C_SOLID_M
 10
65.712206
 20
48.36
 30
0.0
  0
POINT
  8
MO_001_VIEW_PV
  6
C_SOLID_M
 10
71.551551
 20
72.93
 30
0.0
  0
POINT
  8
MO_001_VIEW_PV
  6
C_SOLID_M
 10
78.403027
 20
-19.013677
 30
0.0
  0
POINT
  8
MO_001_VIEW_PV
  6
C_SOLID_M
 10
80.353027
 20
-19.013679
 30
0.0
  0
POINT
  8
MO_001_VIEW_PV
  6
C_SOLID_M
 10
7.8
 20
-5.070003
 30
0.0
  0
POINT
  8
MO_001_VIEW_PV
  6
C_SOLID_M
 10
65.712206
 20
72.93
 30
0.0
  0
POINT
  8
MO_001_VIEW_PV
  6
C_SOLID_M
 10
79.362144
 20
84.659149
 30
0.0
  0
POINT
  8
MO_001_VIEW_PV
  6
C_SOLID_M
 10
65.712206
 20
40.949997
 30
0.0
  0
POINT
  8
MO_001_VIEW_PV
  6
C_SOLID_M
 10
7.8
 20
82.68
 30
0.0
  0
POINT
  8
MO_001_VIEW_PV
  6
C_SOLID_M
 10
7.8
 20
-1.170003
 30
0.0
  0
LINE
  8
MO_001_VIEW_PV
  6
C_SOLID_L
 62
     3
 10
63.852541
 20
39.974997
 30
0.0
 11
67.609064
 21
39.974997
 31
0.0
  0
LINE
  8
MO_001_VIEW_PV
  6
C_SOLID_L
 62
     3
 10
63.852541
 20
40.949997
 30
0.0
 11
67.628824
 21
40.949997
 31
0.0
  0
LINE
  8
MO_001_VIEW_PV
  6
C_SOLID_L
 62
     3
 10
63.852541
 20
55.4775
 30
0.0
 11
67.685754
 21
55.4775
 31
0.0
  0
LINE
  8
MO_001_VIEW_PV
  6
C_SOLID_L
 62
     3
 10
63.852541
 20
56.4525
 30
0.0
 11
67.642648
 21
56.4525
 31
0.0
  0
LINE
  8
MO_001_VIEW_PV
  6
C_SOLID_H
 62
     4
 10
64.336054
 20
55.4775
 30
0.0
 11
64.336054
 21
56.4525
 31
0.0
  0
LINE
  8
MO_001_VIEW_PV
  6
C_SOLID_H
 62
     4
 10
67.088358
 20
55.4775
 30
0.0
 11
67.088358
 21
56.4525
 31
0.0
  0
LINE
  8
MO_001_VIEW_PV
  6
C_SOLID_H
 62
     4
 10
64.336054
 20
39.974997
 30
0.0
 11
64.336054
 21
40.949997
 31
0.0
  0
LINE
  8
MO_001_VIEW_PV
  6
C_SOLID_H
 62
     4
 10
67.088358
 20
39.974997
 30
0.0
 11
67.088358
 21
40.949997
 31
0.0
  0
LINE
  8
MO_001_VIEW_PV
  6
C_SOLID_H
 62
     4
 10
82.486381
 20
67.08
 30
0.0
 11
82.486381
 21
49.139997
 31
0.0
  0
LINE
  8
MO_001_VIEW_PV
  6
C_SOLID_H
 62
     4
 10
83.26744
 20
36.074997
 30
0.0
 11
89.81346
 21
36.074997
 31
0.0
  0
LINE
  8
MO_001_VIEW_PV
  6
C_SOLID_H
 62
     4
 10
82.486381
 20
35.294997
 30
0.0
 11
82.486381
 21
16.769997
 31
0.0
  0
LINE
  8
MO_001_VIEW_PV
  6
C_CENTER_L
 62
     3
 10
83.825339
 20
38.648996
 30
0.0
 11
87.916602
 21
38.648996
 31
0.0
  0
LINE
  8
MO_001_VIEW_PV
  6
C_SOLID_L
 62
     3
 10
86.503257
 20
40.16443
 30
0.0
 11
86.503257
 21
37.263165
 31
0.0
  0
LINE
  8
MO_001_VIEW_PV
  6
C_SOLID_L
 62
     3
 10
77.428081
 20
36.14454
 30
0.0
 11
76.944568
 21
38.721698
 31
0.0
  0
LINE
  8
MO_001_VIEW_PV
  6
C_CENTER_L
 62
     3
 10
83.527792
 20
38.625837
 30
0.0
 11
75.79158
 21
37.171885
 31
0.0
  0
LINE
  8
MO_001_VIEW_PV
  6
C_SOLID_H
 62
     4
 10
83.30464
 20
39.613806
 30
0.0
 11
77.018969
 21
38.434859
 31
0.0
  0
LINE
  8
MO_001_VIEW_PV
  6
C_SOLID_H
 62
     4
 10
83.67656
 20
37.627697
 30
0.0
 11
77.390895
 21
36.448747
 31
0.0
  0
LINE
  8
MO_001_VIEW_PV
  6
C_SOLID_H
 62
     4
 10
83.825339
 20
39.662999
 30
0.0
 11
86.503257
 21
39.662999
 31
0.0
  0
LINE
  8
MO_001_VIEW_PV
  6
C_SOLID_H
 62
     4
 10
83.825339
 20
37.634997
 30
0.0
 11
86.503257
 21
37.634997
 31
0.0
  0
LINE
  8
MO_001_VIEW_PV
  6
C_SOLID_H
 62
     4
 10
63.964121
 20
50.115
 30
0.0
 11
67.460291
 21
50.115
 31
0.0
  0
LINE
  8
MO_001_VIEW_PV
  6
C_SOLID_H
 62
     4
 10
63.964121
 20
46.605
 30
0.0
 11
67.460291
 21
46.605
 31
0.0
  0
LINE
  8
MO_001_VIEW_PV
  6
C_SOLID_H
 62
     4
 10
67.460291
 20
50.115
 30
0.0
 11
67.460291
 21
46.605
 31
0.0
  0
LINE
  8
MO_001_VIEW_PV
  6
C_SOLID_H
 62
     4
 10
63.964121
 20
50.115
 30
0.0
 11
63.964121
 21
46.605
 31
0.0
  0
LINE
  8
MO_001_VIEW_PV
  6
C_SOLID_H
 62
     4
 10
89.887847
 20
-5.070003
 30
0.0
 11
91.078033
 21
-5.070003
 31
0.0
  0
LINE
  8
MO_001_VIEW_PV
  6
C_SOLID_L
 62
     3
 10
88.214149
 20
-0.000006
 30
0.0
 11
92.809294
 21
-0.000006
 31
0.0
  0
LINE
  8
MO_001_VIEW_PV
  6
C_SOLID_L
 62
     3
 10
88.87848
 20
81.51
 30
0.0
 11
92.082252
 21
81.51
 31
0.0
  0
LINE
  8
MO_001_VIEW_PV
  6
C_CENTER_L
 62
     3
 10
92.416991
 20
57.72
 30
0.0
 11
92.416991
 21
49.919994
 31
0.0
  0
LINE
  8
MO_001_VIEW_PV
  6
C_SOLID_H
 62
     4
 10
82.486381
 20
49.919994
 30
0.0
 11
83.639373
 21
49.919994
 31
0.0
  0
LINE
  8
MO_001_VIEW_PV
  6
C_SOLID_H
 62
     4
 10
82.486381
 20
57.72
 30
0.0
 11
83.639373
 21
57.72
 31
0.0
  0
LINE
  8
MO_001_VIEW_PV
  6
C_SOLID_H
 62
     4
 10
89.887847
 20
61.508482
 30
0.0
 11
89.887847
 21
-5.070003
 31
0.0
  0
LINE
  8
MO_001_VIEW_PV
  6
C_SOLID_H
 62
     4
 10
91.078033
 20
86.580006
 30
0.0
 11
91.078033
 21
-5.070003
 31
0.0
  0
LINE
  8
MO_001_VIEW_PV
  6
C_CENTER_L
 62
     3
 10
65.712206
 20
58.920712
 30
0.0
 11
65.712206
 21
6.597037
 31
0.0
  0
LINE
  8
MO_001_VIEW_PV
  6
C_SOLID_H
 62
     4
 10
83.639373
 20
57.719994
 30
0.0
 11
83.639373
 21
49.919994
 31
0.0
  0
LINE
  8
MO_001_VIEW_PV
  6
C_CENTER_L
 62
     3
 10
84.270317
 20
57.72
 30
0.0
 11
92.416991
 21
57.72
 31
0.0
  0
LINE
  8
MO_001_VIEW_PV
  6
C_CENTER_L
 62
     3
 10
84.234833
 20
49.919994
 30
0.0
 11
92.416991
 21
49.919994
 31
0.0
  0
LINE
  8
MO_001_VIEW_PV
  6
C_SOLID_L
 62
     3
 10
63.602283
 20
24.569996
 30
0.0
 11
67.761475
 21
24.569996
 31
0.0
  0
LINE
  8
MO_001_VIEW_PV
  6
C_SOLID_L
 62
     3
 10
63.697656
 20
9.749994
 30
0.0
 11
67.787723
 21
9.749994
 31
0.0
  0
LINE
  8
MO_001_VIEW_PV
  6
C_SOLID_H
 62
     4
 10
67.077203
 20
9.749994
 30
0.0
 11
67.077203
 21
8.579997
 31
0.0
  0
LINE
  8
MO_001_VIEW_PV
  6
C_SOLID_H
 62
     4
 10
64.3472
 20
9.749994
 30
0.0
 11
64.3472
 21
8.579997
 31
0.0
  0
LINE
  8
MO_001_VIEW_PV
  6
C_SOLID_L
 62
     3
 10
4.857227
 20
0.0
 30
0.0
 11
10.593148
 21
0.0
 31
0.0
  0
LINE
  8
MO_001_VIEW_PV
  6
C_SOLID_L
 62
     3
 10
5.17875
 20
81.51
 30
0.0
 11
10.454798
 21
81.51
 31
0.0
  0
LINE
  8
MO_001_VIEW_PV
  6
C_SOLID_H
 62
     4
 10
5.849994
 20
35.49
 30
0.0
 11
10.139994
 21
35.49
 31
0.0
  0
LINE
  8
MO_001_VIEW_PV
  6
C_SOLID_H
 62
     4
 10
5.849991
 20
16.380003
 30
0.0
 11
10.139988
 21
16.379997
 31
0.0
  0
LINE
  8
MO_001_VIEW_PV
  6
C_SOLID_H
 62
     4
 10
10.724994
 20
34.905
 30
0.0
 11
10.724991
 21
16.965
 31
0.0
  0
LINE
  8
MO_001_VIEW_PV
  6
C_SOLID_H
 62
     4
 10
5.264991
 20
34.905001
 30
0.0
 11
5.264985
 21
16.964999
 31
0.0
  0
LINE
  8
MO_001_VIEW_PV
  6
C_SOLID_H
 62
     4
 10
5.849994
 20
48.749997
 30
0.0
 11
10.139997
 21
48.749997
 31
0.0
  0
LINE
  8
MO_001_VIEW_PV
  6
C_SOLID_H
 62
     4
 10
5.85
 20
67.86
 30
0.0
 11
10.14
 21
67.86
 31
0.0
  0
LINE
  8
MO_001_VIEW_PV
  6
C_SOLID_H
 62
     4
 10
10.725
 20
67.275
 30
0.0
 11
10.725
 21
63.504587
 31
0.0
  0
LINE
  8
MO_001_VIEW_PV
  6
C_SOLID_H
 62
     4
 10
5.265
 20
67.275
 30
0.0
 11
5.264997
 21
49.335
 31
0.0
  0
LINE
  8
MO_001_VIEW_PV
  6
C_SOLID_H
 62
     4
 10
10.725
 20
53.105408
 30
0.0
 11
10.724994
 21
49.334999
 31
0.0
  0
LINE
  8
MO_001_VIEW_PV
  6
C_SOLID_H
 62
     4
 10
9.944988
 20
57.72
 30
0.0
 11
6.239985
 21
57.72
 31
0.0
  0
LINE
  8
MO_001_VIEW_PV
  6
C_SOLID_H
 62
     4
 10
9.944997
 20
49.92
 30
0.0
 11
6.239997
 21
49.92
 31
0.0
  0
LINE
  8
MO_001_VIEW_PV
  6
C_SOLID_H
 62
     4
 10
9.944988
 20
57.720002
 30
0.0
 11
9.944997
 21
49.919999
 31
0.0
  0
LINE
  8
MO_001_VIEW_PV
  6
C_SOLID_H
 62
     4
 10
6.239985
 20
57.719998
 30
0.0
 11
6.239997
 21
49.919995
 31
0.0
  0
LINE
  8
MO_001_VIEW_PV
  6
C_CENTER_L
 62
     3
 10
92.443033
 20
-17.161181
 30
0.0
 11
92.443033
 21
-20.866187
 31
0.0
  0
LINE
  8
MO_001_VIEW_PV
  6
C_SOLID_H
 62
     4
 10
84.448033
 20
-16.283687
 30
0.0
 11
84.448033
 21
-21.74369
 31
0.0
  0
LINE
  8
MO_001_VIEW_PV
  6
C_SOLID_H
 62
     4
 10
71.57803
 20
-16.283681
 30
0.0
 11
71.578024
 21
-21.743681
 31
0.0
  0
LINE
  8
MO_001_VIEW_PV
  6
C_SOLID_H
 62
     4
 10
55.760419
 20
-16.283675
 30
0.0
 11
55.760419
 21
-21.743669
 31
0.0
  0
LINE
  8
MO_001_VIEW_PV
  6
C_SOLID_L
 62
     3
 10
80.853996
 20
-19.01368
 30
0.0
 11
77.834602
 21
-19.013676
 31
0.0
  0
LINE
  8
MO_001_VIEW_PV
  6
C_SOLID_H
 62
     4
 10
89.908041
 20
-16.283686
 30
0.0
 11
52.858026
 21
-16.283674
 31
0.0
  0
LINE
  8
MO_001_VIEW_PV
  6
C_SOLID_L
 62
     3
 10
79.378027
 20
-17.469563
 30
0.0
 11
79.378027
 21
-20.578419
 31
0.0
  0
LINE
  8
MO_001_VIEW_PV
  6
C_CENTER_L
 62
     3
 10
92.443033
 20
-17.161181
 30
0.0
 11
91.078033
 21
-17.161181
 31
0.0
  0
LINE
  8
MO_001_VIEW_PV
  6
C_CENTER_L
 62
     3
 10
92.443033
 20
-20.866187
 30
0.0
 11
91.078033
 21
-20.866187
 31
0.0
  0
LINE
  8
MO_001_VIEW_PV
  6
C_SOLID_H
 62
     4
 10
89.908038
 20
-15.503681
 30
0.0
 11
89.908038
 21
-23.303687
 31
0.0
  0
LINE
  8
MO_001_VIEW_PV
  6
C_SOLID_H
 62
     4
 10
91.078038
 20
-15.503681
 30
0.0
 11
91.078033
 21
-23.303687
 31
0.0
  0
LINE
  8
MO_001_VIEW_PV
  6
C_SOLID_H
 62
     4
 10
89.887847
 20
86.580006
 30
0.0
 11
91.078033
 21
86.580006
 31
0.0
  0
ARC
  8
MO_001_VIEW_PV
  6
C_SOLID_H
 62
     4
 10
65.712206
 20
56.4525
 30
0.0
 40
1.365
 50
0.0
 51
180.000005
  0
ARC
  8
MO_001_VIEW_PV
  6
C_SOLID_H
 62
     4
 10
65.712206
 20
55.4775
 30
0.0
 40
1.365
 50
180.000009
 51
359.999989
  0
ARC
  8
MO_001_VIEW_PV
  6
C_SOLID_H
 62
     4
 10
65.712206
 20
40.949997
 30
0.0
 40
1.365
 50
0.0
 51
180.000005
  0
ARC
  8
MO_001_VIEW_PV
  6
C_SOLID_H
 62
     4
 10
65.712206
 20
39.974997
 30
0.0
 40
1.365
 50
180.000009
 51
359.999989
  0
CIRCLE
  8
MO_001_VIEW_PV
  6
C_SOLID_H
 62
     4
 10
65.712206
 20
48.36
 30
0.0
 40
3.0225
  0
ARC
  8
MO_001_VIEW_PV
  6
C_SOLID_H
 62
     4
 10
83.26744
 20
67.08
 30
0.0
 40
0.78
 50
90.000002
 51
180.000005
  0
ARC
  8
MO_001_VIEW_PV
  6
C_SOLID_H
 62
     4
 10
83.26744
 20
49.139997
 30
0.0
 40
0.78
 50
180.000009
 51
270.000004
  0
ARC
  8
MO_001_VIEW_PV
  6
C_SOLID_H
 62
     4
 10
83.26744
 20
35.294997
 30
0.0
 40
0.78
 50
90.000002
 51
180.000005
  0
ARC
  8
MO_001_VIEW_PV
  6
C_SOLID_H
 62
     4
 10
83.26744
 20
16.769997
 30
0.0
 40
0.78
 50
180.000009
 51
270.000004
  0
ARC
  8
MO_001_VIEW_PV
  6
C_SOLID_H
 62
     4
 10
86.503257
 20
38.648996
 30
0.0
 40
1.014
 50
0.0
 51
90.000002
  0
ARC
  8
MO_001_VIEW_PV
  6
C_SOLID_H
 62
     4
 10
77.204932
 20
37.439997
 30
0.0
 40
1.014
 50
100.634675
 51
280.634687
  0
ARC
  8
MO_001_VIEW_PV
  6
C_SOLID_H
 62
     4
 10
83.825339
 20
36.855
 30
0.0
 40
0.78
 50
90.000002
 51
100.634641
  0
ARC
  8
MO_001_VIEW_PV
  6
C_SOLID_H
 62
     4
 10
83.825339
 20
36.855
 30
0.0
 40
2.808
 50
90.000002
 51
100.634703
  0
ARC
  8
MO_001_VIEW_PV
  6
C_SOLID_H
 62
     4
 10
86.503257
 20
38.648996
 30
0.0
 40
1.014
 50
269.999998
 51
359.999989
  0
CIRCLE
  8
MO_001_VIEW_PV
  6
C_SOLID_H
 62
     4
 10
77.204932
 20
37.439997
 30
0.0
 40
0.975
  0
CIRCLE
  8
MO_001_VIEW_PV
  6
C_SOLID_H
 62
     4
 10
65.712206
 20
24.569996
 30
0.0
 40
1.365
  0
ARC
  8
MO_001_VIEW_PV
  6
C_SOLID_H
 62
     4
 10
65.712206
 20
9.749994
 30
0.0
 40
1.365
 50
0.0
 51
180.000005
  0
CIRCLE
  8
MO_001_VIEW_PV
  6
C_SOLID_H
 62
     4
 10
7.800003
 20
81.51
 30
0.0
 40
1.0725
  0
CIRCLE
  8
MO_001_VIEW_PV
  6
C_SOLID_H
 62
     4
 10
7.8
 20
0.0
 30
0.0
 40
1.0725
  0
CIRCLE
  8
MO_001_VIEW_PV
  6
C_SOLID_H
 62
     4
 10
7.800003
 20
81.51
 30
0.0
 40
1.95
  0
CIRCLE
  8
MO_001_VIEW_PV
  6
C_SOLID_H
 62
     4
 10
7.8
 20
0.0
 30
0.0
 40
1.95
  0
ARC
  8
MO_001_VIEW_PV
  6
C_SOLID_H
 62
     4
 10
5.849994
 20
34.905
 30
0.0
 40
0.585
 50
89.999989
 51
179.999991
  0
ARC
  8
MO_001_VIEW_PV
  6
C_SOLID_H
 62
     4
 10
10.139994
 20
34.905
 30
0.0
 40
0.585
 50
0.0
 51
89.999989
  0
ARC
  8
MO_001_VIEW_PV
  6
C_SOLID_H
 62
     4
 10
10.139988
 20
16.965
 30
0.0
 40
0.585
 50
269.999977
 51
359.999989
  0
ARC
  8
MO_001_VIEW_PV
  6
C_SOLID_H
 62
     4
 10
5.849991
 20
16.965
 30
0.0
 40
0.585
 50
179.999991
 51
270.000001
  0
ARC
  8
MO_001_VIEW_PV
  6
C_SOLID_H
 62
     4
 10
5.85
 20
67.275
 30
0.0
 40
0.585
 50
89.999989
 51
179.999991
  0
ARC
  8
MO_001_VIEW_PV
  6
C_SOLID_H
 62
     4
 10
10.14
 20
67.275
 30
0.0
 40
0.585
 50
0.0
 51
89.999989
  0
ARC
  8
MO_001_VIEW_PV
  6
C_SOLID_H
 62
     4
 10
10.139997
 20
49.335
 30
0.0
 40
0.585
 50
269.999977
 51
359.999989
  0
ARC
  8
MO_001_VIEW_PV
  6
C_SOLID_H
 62
     4
 10
5.849994
 20
49.335
 30
0.0
 40
0.585
 50
179.999991
 51
270.000001
  0
ARC
  8
MO_001_VIEW_PV
  6
C_SOLID_H
 62
     4
 10
33.54
 20
58.305
 30
0.0
 40
23.399999
 50
167.161421
 51
192.838548
  0
ARC
  8
MO_001_VIEW_PV
  6
C_SOLID_L
 62
     3
 10
79.378027
 20
-19.013675
 30
0.0
 40
0.975
 50
0.0
 51
102.500417
  0
CIRCLE
  8
MO_001_VIEW_PV
  6
C_SOLID_H
 62
     4
 10
79.378027
 20
-19.013675
 30
0.0
 40
0.78
  0
ARC
  8
MO_001_VIEW_PV
  6
C_SOLID_L
 62
     3
 10
79.378027
 20
-19.013675
 30
0.0
 40
0.975
 50
172.474284
 51
360.0
  0
LINE
  8
MO_001_VIEW_PV
  6
C_SOLID_H
 62
     4
 10
55.949305
 20
8.579997
 30
0.0
 11
52.843322
 21
11.662697
 31
0.0
  0
LINE
  8
MO_001_VIEW_PV
  6
C_SOLID_H
 62
     4
 10
52.843322
 20
69.827959
 30
0.0
 11
52.843322
 21
11.662697
 31
0.0
  0
LINE
  8
MO_001_VIEW_PV
  6
C_SOLID_H
 62
     4
 10
55.938179
 20
72.93
 30
0.0
 11
52.843322
 21
69.827959
 31
0.0
  0
LINE
  8
MO_001_VIEW_PV
  6
C_SOLID_H
 62
     4
 10
67.077203
 20
8.579997
 30
0.0
 11
89.887847
 21
8.579997
 31
0.0
  0
LINE
  8
MO_001_VIEW_PV
  6
C_SOLID_H
 62
     4
 10
55.949305
 20
8.579997
 30
0.0
 11
64.3472
 21
8.579997
 31
0.0
  0
LINE
  8
MO_001_VIEW_PV
  6
C_SOLID_H
 62
     4
 10
55.938179
 20
72.93
 30
0.0
 11
89.887847
 21
72.93
 31
0.0
  0
LINE
  8
MO_001_VIEW_PV
  6
C_SOLID_H
 62
     4
 10
83.26744
 20
67.86
 30
0.0
 11
89.887847
 21
67.86
 31
0.0
  0
LINE
  8
MO_001_VIEW_PV
  6
C_SOLID_H
 62
     4
 10
83.26744
 20
15.989997
 30
0.0
 11
89.887847
 21
15.989997
 31
0.0
  0
LINE
  8
MO_001_VIEW_PV
  6
C_SOLID_H
 62
     4
 10
83.26744
 20
48.36
 30
0.0
 11
89.887847
 21
48.36
 31
0.0
  0
LINE
  8
MO_001_VIEW_PV
  6
C_SOLID_L
 62
     3
 10
61.006584
 20
48.36
 30
0.0
 11
70.231831
 21
48.36
 31
0.0
  0
LINE
  8
MO_001_VIEW_PV
  6
C_SOLID_L
 10
5.264997
 20
48.532898
 30
0.0
 11
5.264997
 21
35.803406
 31
0.0
  0
LINE
  8
MO_001_VIEW_PV
  6
C_SOLID_L
 10
10.724994
 20
48.276062
 30
0.0
 11
10.724994
 21
35.892471
 31
0.0
  0
LINE
  8
MO_001_VIEW_PV
  6
C_SOLID_L
 62
     3
 10
7.799995
 20
84.375154
 30
0.0
 11
7.800002
 21
78.394568
 31
0.0
  0
LINE
  8
MO_001_VIEW_PV
  6
C_SOLID_L
 62
     3
 10
7.8
 20
3.0175
 30
0.0
 11
7.8
 21
-3.00162
 31
0.0
  0
LINE
  8
MO_001_VIEW_PV
  6
C_SOLID_H
 62
     4
 10
89.887847
 20
86.580006
 30
0.0
 11
89.887847
 21
64.483992
 31
0.0
  0
LINE
  8
MO_001_VIEW_PV
  6
C_SOLID_H
 62
     4
 10
52.858027
 20
-16.283674
 30
0.0
 11
52.858027
 21
-21.743689
 31
0.0
  0
LINE
  8
MO_001_VIEW_PV
  6
C_SOLID_H
 62
     4
 10
52.858027
 20
-21.743689
 30
0.0
 11
89.908038
 21
-21.743689
 31
0.0
  0
LINE
  8
MO_001_VIEW_PV
  6
C_SOLID_L
 62
     3
 10
65.712206
 20
90.533195
 30
0.0
 11
65.712206
 21
65.933721
 31
0.0
  0
LINE
  8
MO_001_VIEW_PV
  6
C_DASHED_L
 10
77.428092
 20
85.417445
 30
0.0
 11
77.428092
 21
73.679845
 31
0.0
  0
LINE
  8
MO_001_VIEW_PV
  6
C_DASHED_L
 10
81.296195
 20
77.628111
 30
0.0
 11
81.296195
 21
73.679845
 31
0.0
  0
LINE
  8
MO_001_VIEW_PV
  6
C_SOLID_M
 10
79.362144
 20
84.342796
 30
0.0
 11
79.362144
 21
75.683632
 31
0.0
  0
LINE
  8
MO_001_VIEW_PV
  6
C_DASHED_L
 10
81.296195
 20
85.703046
 30
0.0
 11
81.296195
 21
82.025256
 31
0.0
  0
POLYLINE
  8
MO_001_VIEW_PV
  6
C_SOLID_L
 66
     1
 10
0.0
 20
0.0
 30
0.0
  0
VERTEX
  8
MO_001_VIEW_PV
  6
C_SOLID_L
 10
77.428093
 20
85.417445
 30
0.0
  0
VERTEX
  8
MO_001_VIEW_PV
  6
C_SOLID_L
 10
77.434447
 20
85.420119
 30
0.0
  0
VERTEX
  8
MO_001_VIEW_PV
  6
C_SOLID_L
 10
77.440804
 20
85.422791
 30
0.0
  0
VERTEX
  8
MO_001_VIEW_PV
  6
C_SOLID_L
 10
77.898778
 20
85.599792
 30
0.0
  0
VERTEX
  8
MO_001_VIEW_PV
  6
C_SOLID_L
 10
78.132492
 20
85.669419
 30
0.0
  0
VERTEX
  8
MO_001_VIEW_PV
  6
C_SOLID_L
 10
78.369965
 20
85.718437
 30
0.0
  0
VERTEX
  8
MO_001_VIEW_PV
  6
C_SOLID_L
 10
78.558139
 20
85.73988
 30
0.0
  0
VERTEX
  8
MO_001_VIEW_PV
  6
C_SOLID_L
 10
78.748095
 20
85.750473
 30
0.0
  0
VERTEX
  8
MO_001_VIEW_PV
  6
C_SOLID_L
 10
79.130188
 20
85.760666
 30
0.0
  0
VERTEX
  8
MO_001_VIEW_PV
  6
C_SOLID_L
 10
79.574343
 20
85.785104
 30
0.0
  0
VERTEX
  8
MO_001_VIEW_PV
  6
C_SOLID_L
 10
80.01712
 20
85.802902
 30
0.0
  0
VERTEX
  8
MO_001_VIEW_PV
  6
C_SOLID_L
 10
80.302239
 20
85.796607
 30
0.0
  0
VERTEX
  8
MO_001_VIEW_PV
  6
C_SOLID_L
 10
80.587419
 20
85.777386
 30
0.0
  0
VERTEX
  8
MO_001_VIEW_PV
  6
C_SOLID_L
 10
81.157463
 20
85.718437
 30
0.0
  0
VERTEX
  8
MO_001_VIEW_PV
  6
C_SOLID_L
 10
81.226838
 20
85.710725
 30
0.0
  0
VERTEX
  8
MO_001_VIEW_PV
  6
C_SOLID_L
 10
81.296194
 20
85.703047
 30
0.0
  0
SEQEND
  8
MO_001_VIEW_PV
  6
C_SOLID_L
  0
LINE
  8
MO_001_VIEW_PV
  6
C_SOLID_L
 62
     3
 10
79.362144
 20
74.376028
 30
0.0
 11
79.362144
 21
68.383417
 31
0.0
  0
LINE
  8
MO_001_VIEW_PV
  6
C_SOLID_L
 62
     3
 10
79.362144
 20
90.34078
 30
0.0
 11
79.362144
 21
85.029208
 31
0.0
  0
LINE
  8
MO_001_VIEW_PV
  6
C_SOLID_L
 62
     3
 10
79.378092
 20
-3.984868
 30
0.0
 11
79.378092
 21
-6.182625
 31
0.0
  0
POLYLINE
  8
MO_001_VIEW_PV
  6
C_SOLID_L
 66
     1
 10
0.0
 20
0.0
 30
0.0
  0
VERTEX
  8
MO_001_VIEW_PV
  6
C_SOLID_L
 10
77.428092
 20
-5.450405
 30
0.0
  0
VERTEX
  8
MO_001_VIEW_PV
  6
C_SOLID_L
 10
77.754702
 20
-5.515811
 30
0.0
  0
VERTEX
  8
MO_001_VIEW_PV
  6
C_SOLID_L
 10
78.082924
 20
-5.57167
 30
0.0
  0
VERTEX
  8
MO_001_VIEW_PV
  6
C_SOLID_L
 10
78.327603
 20
-5.599956
 30
0.0
  0
VERTEX
  8
MO_001_VIEW_PV
  6
C_SOLID_L
 10
78.573633
 20
-5.615789
 30
0.0
  0
VERTEX
  8
MO_001_VIEW_PV
  6
C_SOLID_L
 10
78.820246
 20
-5.619145
 30
0.0
  0
VERTEX
  8
MO_001_VIEW_PV
  6
C_SOLID_L
 10
79.066673
 20
-5.609997
 30
0.0
  0
VERTEX
  8
MO_001_VIEW_PV
  6
C_SOLID_L
 10
79.439204
 20
-5.572429
 30
0.0
  0
VERTEX
  8
MO_001_VIEW_PV
  6
C_SOLID_L
 10
79.807678
 20
-5.50779
 30
0.0
  0
VERTEX
  8
MO_001_VIEW_PV
  6
C_SOLID_L
 10
80.243779
 20
-5.400063
 30
0.0
  0
VERTEX
  8
MO_001_VIEW_PV
  6
C_SOLID_L
 10
80.676445
 20
-5.277822
 30
0.0
  0
VERTEX
  8
MO_001_VIEW_PV
  6
C_SOLID_L
 10
80.98613
 20
-5.191994
 30
0.0
  0
VERTEX
  8
MO_001_VIEW_PV
  6
C_SOLID_L
 10
81.296194
 20
-5.107936
 30
0.0
  0
SEQEND
  8
MO_001_VIEW_PV
  6
C_SOLID_L
  0
LINE
  8
MO_001_VIEW_PV
  6
C_DASHED_L
 62
     3
 10
77.428092
 20
7.307187
 30
0.0
 11
77.428092
 21
-5.450405
 31
0.0
  0
LINE
  8
MO_001_VIEW_PV
  6
C_DASHED_L
 62
     3
 10
81.296195
 20
-0.986946
 30
0.0
 11
81.296195
 21
-5.107936
 31
0.0
  0
LINE
  8
MO_001_VIEW_PV
  6
C_SOLID_L
 62
     3
 10
79.378092
 20
9.890357
 30
0.0
 11
79.378092
 21
6.831018
 31
0.0
  0
LINE
  8
MO_001_VIEW_PV
  6
C_SOLID_M
 10
79.378092
 20
5.757154
 30
0.0
 11
79.378092
 21
-3.091393
 31
0.0
  0
LINE
  8
MO_001_VIEW_PV
  6
C_DASHED_L
 62
     3
 10
81.296195
 20
7.307187
 30
0.0
 11
81.296195
 21
3.32819
 31
0.0
  0
ARC
  8
MO_001_VIEW_PV
  6
C_SOLID_M
 10
65.712206
 20
40.949997
 30
0.0
 40
11.31
 50
70.0
 51
110.0
  0
LINE
  8
MO_001_NOSHOW
  6
C_SOLID_H
 62
     4
 10
82.486381
 20
18.446999
 30
0.0
 11
89.887847
 21
18.446999
 31
0.0
  0
LINE
  8
MO_001_VIEW_PV
  6
C_SOLID_H
 62
     4
 10
6.239997
 20
31.785
 30
0.0
 11
9.944997
 21
31.785
 31
0.0
  0
LINE
  8
MO_001_VIEW_PV
  6
C_SOLID_H
 62
     4
 10
6.239997
 20
23.985
 30
0.0
 11
9.944997
 21
23.985
 31
0.0
  0
LINE
  8
MO_001_VIEW_PV
  6
C_SOLID_H
 62
     4
 10
6.239997
 20
31.785
 30
0.0
 11
6.239997
 21
23.985
 31
0.0
  0
LINE
  8
MO_001_VIEW_PV
  6
C_SOLID_H
 62
     4
 10
9.944997
 20
23.985
 30
0.0
 11
9.944997
 21
31.785
 31
0.0
  0
LINE
  8
MO_001_VIEW_PV
  6
C_CENTER_L
 62
     3
 10
84.34124
 20
31.785
 30
0.0
 11
92.416991
 21
31.785
 31
0.0
  0
LINE
  8
MO_001_VIEW_PV
  6
C_CENTER_L
 62
     3
 10
84.352097
 20
23.985
 30
0.0
 11
92.416991
 21
23.985
 31
0.0
  0
LINE
  8
MO_001_VIEW_PV
  6
C_SOLID_H
 62
     4
 10
83.639373
 20
31.785
 30
0.0
 11
83.639373
 21
23.985
 31
0.0
  0
LINE
  8
MO_001_VIEW_PV
  6
C_CENTER_L
 62
     3
 10
92.416991
 20
31.785
 30
0.0
 11
92.416991
 21
23.985
 31
0.0
  0
LINE
  8
MO_001_VIEW_PV
  6
C_SOLID_H
 62
     4
 10
82.486381
 20
31.785
 30
0.0
 11
83.639373
 21
31.785
 31
0.0
  0
LINE
  8
MO_001_VIEW_PV
  6
C_SOLID_H
 62
     4
 10
82.486381
 20
23.985
 30
0.0
 11
83.639373
 21
23.985
 31
0.0
  0
LINE
  8
MO_001_VIEW_PV
  6
C_SOLID_L
 10
92.416991
 20
49.277836
 30
0.0
 11
92.416991
 21
32.415142
 31
0.0
  0
LINE
  8
MO_001_VIEW_PV
  6
C_SOLID_M
 62
     4
 10
3.9
 20
39.672163
 30
0.0
 11
3.9
 21
-1.170003
 31
0.0
  0
LINE
  8
MO_001_VIEW_PV
  6
C_SOLID_M
 62
     4
 10
11.7
 20
82.68
 30
0.0
 11
11.7
 21
-1.170003
 31
0.0
  0
ARC
  8
MO_001_VIEW_PV
  6
C_SOLID_M
 62
     4
 10
7.8
 20
82.68
 30
0.0
 40
3.9
 50
0.0
 51
180.0
  0
ARC
  8
MO_001_VIEW_PV
  6
C_SOLID_M
 62
     4
 10
7.8
 20
-1.170003
 30
0.0
 40
3.9
 50
180.0
 51
360.0
  0
LINE
  8
MO_001_VIEW_PV
  6
C_SOLID_H
 62
     4
 10
91.078033
 20
-23.303687
 30
0.0
 11
89.908038
 21
-23.303687
 31
0.0
  0
LINE
  8
MO_001_VIEW_PV
  6
C_SOLID_H
 62
     4
 10
91.078038
 20
-15.503681
 30
0.0
 11
89.908038
 21
-15.503681
 31
0.0
  0
LINE
  8
MO_001_VIEW_PV
  6
C_SOLID_M
 62
     4
 10
3.9
 20
82.68
 30
0.0
 11
3.9
 21
42.631128
 31
0.0
  0
TEXT
  8
MO_001_VIEW_PV
  6
C_SOLID_L
 10
-6.650906
 20
-116.586609
 30
0.0
 40
3.0
  1
Panik - Treibriegelschloss
 41
0.714286
  0
TEXT
  8
MO_001_VIEW_PV
  6
C_SOLID_L
 10
-6.542946
 20
-126.094864
 30
0.0
 40
3.0
  1
Art.-Nr. 2390 - 20mm Stulp
 41
0.714286
  0
TEXT
  8
MO_001_VIEW_PV
  6
C_SOLID_L
 10
79.943567
 20
78.947801
 30
0.0
 40
1.8
  1
20mm
 41
0.714286
  0
TEXT
  8
MO_001_VIEW_PV
  6
C_SOLID_L
 10
79.998522
 20
0.422193
 30
0.0
 40
1.8
  1
20mm
 41
0.714286
  0
TEXT
  8
MO_001_VIEW_PV
  6
C_SOLID_L
 10
60.326128
 20
52.233762
 30
0.0
 40
1.8
  1
40%%D
 41
0.714286
  0
TEXT
  8
MO_001_VIEW_PV
  6
C_SOLID_L
 10
-6.677243
 20
-120.55529
 30
0.0
 40
2.5
  1
mit Schieber für automatische Verriegelung des Standflügels
 41
0.714286
  0
DIMENSION
  8
MO_001_VIEW_PV
  6
C_SOLID_M
  2
*D40
 10
106.555832
 20
40.755001
 30
0.0
 11
106.555832
 21
40.755001
 31
0.0
  1
235
 13
92.243652
 23
86.580006
 33
0.0
 14
91.684822
 24
-5.070003
 34
0.0
 50
270.000477
  3
STANDARD
  0
DIMENSION
  8
MO_001_VIEW_PV
  6
C_SOLID_M
  2
*D41
 10
102.591614
 20
84.045006
 30
0.0
 11
102.591614
 21
84.045006
 31
0.0
  1
13
 13
91.078033
 23
86.580006
 33
0.0
 14
92.082252
 24
81.51
 34
0.0
 50
270.000477
  3
STANDARD
  0
DIMENSION
  8
MO_001_VIEW_PV
  6
C_SOLID_M
  2
*D42
 10
102.512711
 20
40.754997
 30
0.0
 11
102.512711
 21
40.754997
 31
0.0
  1
209
 13
92.905632
 23
81.51
 33
0.0
 14
93.700409
 24
-0.000006
 34
0.0
 50
270.000477
  3
STANDARD
  0
DIMENSION
  8
MO_001_VIEW_PV
  6
C_SOLID_M
  2
*D43
 10
7.994996
 20
41.127415
 30
0.0
 11
7.994996
 21
41.127415
 31
0.0
  1
14
 13
5.264997
 23
35.373876
 33
0.0
 14
10.724994
 24
35.462564
 34
0.0
  3
STANDARD
  0
DIMENSION
  8
MO_001_VIEW_PV
  6
C_SOLID_M
  2
*D44
 10
65.712212
 20
61.377651
 30
0.0
 11
65.712212
 21
61.377651
 31
0.0
  1
7
 13
64.336054
 23
57.522141
 33
0.0
 14
67.088358
 24
57.522141
 34
0.0
  3
STANDARD
  0
DIMENSION
  8
MO_001_VIEW_PV
  6
C_SOLID_M
  2
*D45
 10
44.202812
 20
52.40625
 30
0.0
 11
44.202812
 21
52.40625
 31
0.0
  1
20.75
 13
61.006584
 23
48.36
 33
0.0
 14
63.513901
 24
56.4525
 34
0.0
 50
89.999523
  3
STANDARD
  0
DIMENSION
  8
MO_001_VIEW_PV
  6
C_SOLID_M
  2
*D46
 10
44.202812
 20
44.1675
 30
0.0
 11
44.202812
 21
44.1675
 31
0.0
  1
21.5
 13
61.006584
 23
48.36
 33
0.0
 14
63.587162
 24
39.974997
 34
0.0
 50
270.000477
  3
STANDARD
  0
DIMENSION
  8
MO_001_VIEW_PV
  6
C_SOLID_M
  2
*D47
 10
39.599617
 20
60.645
 30
0.0
 11
39.599617
 21
60.645
 31
0.0
  1
63
 13
61.006584
 23
48.36
 33
0.0
 14
55.938179
 24
72.93
 34
0.0
 50
89.999523
  3
STANDARD
  0
DIMENSION
  8
MO_001_VIEW_PV
  6
C_SOLID_M
  2
*D48
 10
34.969585
 20
67.470001
 30
0.0
 11
34.969585
 21
67.470001
 31
0.0
  1
98
 13
88.647987
 23
86.580006
 33
0.0
 14
60.496216
 24
48.36
 34
0.0
 50
89.999523
  3
STANDARD
  0
DIMENSION
  8
MO_001_VIEW_PV
  6
C_SOLID_M
  2
*D49
 10
66.971865
 20
25.095814
 30
0.0
 11
72.186401
 21
27.272514
 31
0.0
 70
     3
  1
%%C7
 15
64.452547
 25
24.044177
 35
0.0
  3
STANDARD
  0
DIMENSION
  8
MO_001_VIEW_PV
  6
C_SOLID_M
  2
*D50
 10
74.608894
 20
48.360001
 30
0.0
 11
74.608894
 21
48.360001
 31
0.0
  1
\U+f0689
 13
67.460291
 23
50.115
 33
0.0
 14
67.460291
 24
46.605
 34
0.0
 50
270.000477
  3
STANDARD
  0
DIMENSION
  8
MO_001_VIEW_PV
  6
C_SOLID_M
  2
*D51
 10
78.395119
 20
-10.077762
 30
0.0
 11
78.395119
 21
-10.077762
 31
0.0
  1
Dornmaß
 13
65.712206
 23
6.199797
 33
0.0
 14
91.078033
 24
-5.822526
 34
0.0
  3
STANDARD
  0
DIMENSION
  8
MO_001_VIEW_PV
  6
C_SOLID_M
  2
*D52
 10
59.277763
 20
-10.077762
 30
0.0
 11
59.277763
 21
-10.077762
 31
0.0
  1
33
 13
52.843322
 23
10.919867
 33
0.0
 14
65.712206
 24
5.261662
 34
0.0
  3
STANDARD
  0
DIMENSION
  8
MO_001_VIEW_PV
  6
C_SOLID_M
  2
*D53
 10
73.408798
 20
-26.83691
 30
0.0
 11
73.408798
 21
-26.83691
 31
0.0
  1
M6
 13
80.353027
 23
-19.013679
 33
0.0
 14
78.403027
 24
-19.013677
 34
0.0
  3
STANDARD
  0
DIMENSION
  8
MO_001_VIEW_PV
  6
C_SOLID_M
  2
*D54
 10
98.236679
 20
62.938023
 30
0.0
 11
98.236679
 21
62.938023
 31
0.0
  1
C
 13
91.078033
 23
86.580006
 33
0.0
 14
92.416991
 24
58.455429
 34
0.0
  3
STANDARD
  0
DIMENSION
  8
MO_001_VIEW_PV
  6
C_SOLID_M
  2
*D55
 10
47.823692
 20
-19.01368
 30
0.0
 11
47.823692
 21
-19.01368
 31
0.0
  1
16
 13
52.141804
 23
-16.283674
 33
0.0
 14
52.141804
 24
-21.743689
 34
0.0
 50
270.000459
  3
STANDARD
  0
DIMENSION
  8
MO_001_VIEW_PV
  6
C_SOLID_M
  2
*D56
 10
95.885094
 20
4.674273
 30
0.0
 11
95.885094
 21
4.674273
 31
0.0
  1
3
 13
89.887847
 23
-5.070003
 33
0.0
 14
91.078033
 24
-5.070003
 34
0.0
  3
STANDARD
  0
DIMENSION
  8
MO_001_VIEW_PV
  6
C_SOLID_M
  2
*D57
 10
72.537178
 20
89.768539
 30
0.0
 11
72.537178
 21
89.768539
 31
0.0
  1
D
 13
65.712206
 23
87.872269
 33
0.0
 14
79.362144
 24
81.346664
 34
0.0
  3
STANDARD
  0
LINE
  8
MO_001_VIEW_PV
  6
BYBLOCK
 10
79.362144
 20
84.659149
 30
0.0
 11
79.362144
 21
83.079346
 31
0.0
  0
SOLID
  8
MO_001_VIEW_PV
  6
BYBLOCK
 10
79.945655
 20
81.340889
 30
0.0
 11
79.362144
 21
84.151149
 31
0.0
 12
78.778632
 22
81.340889
 32
0.0
 13
78.778632
 23
81.340889
 33
0.0
  0
LINE
  8
MO_001_VIEW_PV
  6
BYBLOCK
 10
79.362144
 20
74.87458
 30
0.0
 11
79.362144
 21
76.19957
 31
0.0
  0
SOLID
  8
MO_001_VIEW_PV
  6
BYBLOCK
 10
78.778632
 20
78.192841
 30
0.0
 11
79.362144
 21
75.38258
 31
0.0
 12
79.945655
 22
78.192841
 32
0.0
 13
79.945655
 23
78.192841
 33
0.0
  0
POLYLINE
  8
MO_001_NOSHOW
  6
C_SOLID_M
 66
     1
 10
0.0
 20
0.0
 30
0.0
 70
     4
 75
     6
  0
VERTEX
  8
MO_001_NOSHOW
  6
C_SOLID_M
 10
75.709175
 20
84.873741
 30
0.0
 50
9.227557
  0
VERTEX
  8
MO_001_NOSHOW
  6
C_SOLID_M
 10
76.596107
 20
85.084908
 30
0.0
 50
18.381793
  0
VERTEX
  8
MO_001_NOSHOW
  6
C_SOLID_M
 10
77.440804
 20
85.422791
 30
0.0
 50
22.786741
  0
VERTEX
  8
MO_001_NOSHOW
  6
C_SOLID_M
 10
78.369965
 20
85.718437
 30
0.0
 50
8.713465
  0
VERTEX
  8
MO_001_NOSHOW
  6
C_SOLID_M
 10
79.130188
 20
85.760666
 30
0.0
 50
2.045019
  0
VERTEX
  8
MO_001_NOSHOW
  6
C_SOLID_M
 10
80.01712
 20
85.802902
 30
0.0
 50
0.339883
  0
VERTEX
  8
MO_001_NOSHOW
  6
C_SOLID_M
 10
81.157463
 20
85.718437
 30
0.0
 50
353.457746
  0
VERTEX
  8
MO_001_NOSHOW
  6
C_SOLID_M
 10
82.889084
 20
85.507256
 30
0.0
 50
351.225187
  0
SEQEND
  8
MO_001_NOSHOW
  6
C_SOLID_M
  0
POLYLINE
  8
MO_001_NOSHOW
  6
C_SOLID_M
 66
     1
 10
0.0
 20
0.0
 30
0.0
 70
     4
 75
     6
  0
VERTEX
  8
MO_001_NOSHOW
  6
C_SOLID_M
 10
76.498703
 20
-5.290598
 30
0.0
 50
350.913942
  0
VERTEX
  8
MO_001_NOSHOW
  6
C_SOLID_M
 10
77.265259
 20
-5.418358
 30
0.0
 50
349.033045
  0
VERTEX
  8
MO_001_NOSHOW
  6
C_SOLID_M
 10
78.082924
 20
-5.57167
 30
0.0
 50
351.760306
  0
VERTEX
  8
MO_001_NOSHOW
  6
C_SOLID_M
 10
79.066673
 20
-5.609997
 30
0.0
 50
3.582741
  0
VERTEX
  8
MO_001_NOSHOW
  6
C_SOLID_M
 10
79.807678
 20
-5.50779
 30
0.0
 50
11.969384
  0
VERTEX
  8
MO_001_NOSHOW
  6
C_SOLID_M
 10
80.676445
 20
-5.277822
 30
0.0
 50
15.773061
  0
VERTEX
  8
MO_001_NOSHOW
  6
C_SOLID_M
 10
81.749626
 20
-4.983975
 30
0.0
 50
15.581841
  0
SEQEND
  8
MO_001_NOSHOW
  6
C_SOLID_M
  0
LINE
  8
MO_001_VIEW_PV
  6
BYBLOCK
 10
79.378092
 20
-3.536901
 30
0.0
 11
79.378092
 21
-2.440109
 31
0.0
  0
SOLID
  8
MO_001_VIEW_PV
  6
BYBLOCK
 10
78.79458
 20
-0.218641
 30
0.0
 11
79.378092
 21
-3.028901
 31
0.0
 12
79.961604
 22
-0.218641
 32
0.0
 13
79.961604
 23
-0.218641
 33
0.0
  0
LINE
  8
MO_001_VIEW_PV
  6
BYBLOCK
 10
79.378092
 20
6.213099
 30
0.0
 11
79.378092
 21
5.54249
 31
0.0
  0
SOLID
  8
MO_001_VIEW_PV
  6
BYBLOCK
 10
79.961604
 20
2.894839
 30
0.0
 11
79.378092
 21
5.705099
 31
0.0
 12
78.79458
 22
2.894839
 32
0.0
 13
78.79458
 23
2.894839
 33
0.0
  0
LINE
  8
MO_001_VIEW_PV
  6
BYBLOCK
 10
61.843958
 20
51.577921
 30
0.0
 11
62.910366
 21
51.816647
 31
0.0
  0
SOLID
  8
MO_001_VIEW_PV
  6
BYBLOCK
 10
64.954604
 20
52.872223
 30
0.0
 11
62.339689
 21
51.688895
 31
0.0
 12
65.209544
 22
51.733387
 32
0.0
 13
65.209544
 23
51.733387
 33
0.0
  0
LINE
  8
MO_001_VIEW_PV
  6
BYBLOCK
 10
69.580454
 20
51.577921
 30
0.0
 11
68.580925
 21
51.787266
 31
0.0
  0
SOLID
  8
MO_001_VIEW_PV
  6
BYBLOCK
 10
66.213047
 20
51.687031
 30
0.0
 11
69.083242
 21
51.682058
 31
0.0
 12
66.452282
 22
52.82927
 32
0.0
 13
66.452282
 23
52.82927
 33
0.0
  0
DIMENSION
  8
MO_001_VIEW_PV
  6
C_SOLID_M
  2
*D58
 10
16.745636
 20
41.118107
 30
0.0
 11
16.745636
 21
41.118107
 31
0.0
  1
3
 13
10.724994
 23
34.905
 33
0.0
 14
11.7
 24
-1.170003
 34
0.0
 50
359.99999
  3
STANDARD
  0
DIMENSION
  8
MO_001_VIEW_PV
  6
C_SOLID_M
  2
*D59
 10
7.8
 20
-11.406838
 30
0.0
 11
7.8
 21
-11.406838
 31
0.0
  1
20
 13
3.9
 23
-3.90503
 33
0.0
 14
11.7
 24
-3.90503
 34
0.0
  3
STANDARD
  0
DIMENSION
  8
MO_001_VIEW_PV
  6
C_SOLID_M
  2
*D60
 10
17.282265
 20
73.315735
 30
0.0
 11
17.282265
 21
73.315735
 31
0.0
  1
4.5
 13
11.7
 23
82.68
 33
0.0
 14
10.140001
 24
62.178886
 34
0.0
 50
179.999046
  3
STANDARD
  0
DIMENSION
  8
MO_001_VIEW_PV
  6
C_SOLID_M
  2
*D61
 10
100.439293
 20
-22.084257
 30
0.0
 11
100.439293
 21
-22.084257
 31
0.0
  1
2.5
 13
91.420952
 23
-16.283687
 33
0.0
 14
91.34433
 24
-15.503682
 34
0.0
 50
89.999504
  3
STANDARD
  0
DIMENSION
  8
MO_001_VIEW_PV
  6
C_SOLID_M
  2
*D62
 10
39.599617
 20
36.464996
 30
0.0
 11
39.599617
 21
36.464996
 31
0.0
  1
61
 13
61.006584
 23
48.36
 33
0.0
 14
62.753036
 24
24.569996
 34
0.0
 50
270.000477
  3
STANDARD
  0
DIMENSION
  8
MO_001_VIEW_PV
  6
C_SOLID_M
  2
*D63
 10
30.307558
 20
40.754997
 30
0.0
 11
30.307558
 21
40.754997
 31
0.0
  1
165
 13
55.058926
 23
8.579997
 33
0.0
 14
54.34882
 24
72.93
 34
0.0
 50
89.999523
  3
STANDARD
  0
DIMENSION
  8
MO_001_VIEW_PV
  6
C_SOLID_M
  2
*D64
 10
39.594093
 20
17.159994
 30
0.0
 11
39.594093
 21
17.159994
 31
0.0
  1
38
 13
62.922077
 23
9.749994
 33
0.0
 14
63.602283
 24
24.569996
 34
0.0
 50
89.999523
  3
STANDARD
  0
POINT
  8
MO_001_VIEW_RA
  6
C_SOLID_M
 10
-55.528591
 20
-134.158813
 30
0.0
  0
POINT
  8
MO_001_VIEW_RA
  6
C_SOLID_M
 10
-55.528591
 20
-134.158813
 30
0.0
  0
POINT
  8
MO_001_VIEW_RA
  6
C_SOLID_M
 10
-55.528591
 20
-134.158813
 30
0.0
  0
POINT
  8
MO_001_VIEW_RA
  6
C_SOLID_M
 10
-45.897278
 20
-117.709869
 30
0.0
  0
LINE
  8
MO_001_VIEW_RA
  6
C_SOLID_L
 62
     3
 10
154.471405
 20
162.841187
 30
0.0
 11
154.471405
 21
-134.158813
 31
0.0
  0
LINE
  8
MO_001_VIEW_RA
  6
C_SOLID_L
 62
     3
 10
-55.528591
 20
162.841187
 30
0.0
 11
154.471405
 21
162.841187
 31
0.0
  0
LINE
  8
MO_001_VIEW_RA
  6
C_SOLID_L
 62
     3
 10
-55.528591
 20
-134.158813
 30
0.0
 11
154.471405
 21
-134.158813
 31
0.0
  0
LINE
  8
MO_001_VIEW_RA
  6
C_SOLID_H
 62
     4
 10
-10.528591
 20
-89.158813
 30
0.0
 11
-10.528591
 21
-129.158813
 31
0.0
  0
LINE
  8
MO_001_VIEW_RA
  6
C_SOLID_H
 62
     4
 10
-10.528591
 20
-89.158813
 30
0.0
 11
149.471405
 21
-89.158813
 31
0.0
  0
LINE
  8
MO_001_VIEW_RA
  6
C_SOLID_H
 62
     4
 10
-10.528591
 20
-104.158813
 30
0.0
 11
109.471405
 21
-104.158813
 31
0.0
  0
LINE
  8
MO_001_VIEW_RA
  6
C_SOLID_H
 62
     4
 10
109.471405
 20
-89.158813
 30
0.0
 11
109.471405
 21
-129.158813
 31
0.0
  0
LINE
  8
MO_001_VIEW_RA
  6
C_SOLID_H
 62
     4
 10
-37.528591
 20
157.841187
 30
0.0
 11
-37.528591
 21
-129.158813
 31
0.0
  0
LINE
  8
MO_001_VIEW_RA
  6
C_SOLID_H
 62
     4
 10
-37.528591
 20
-129.158813
 30
0.0
 11
149.471405
 21
-129.158813
 31
0.0
  0
LINE
  8
MO_001_VIEW_RA
  6
C_SOLID_H
 62
     4
 10
149.471405
 20
157.841187
 30
0.0
 11
149.471405
 21
-129.158813
 31
0.0
  0
LINE
  8
MO_001_VIEW_RA
  6
C_SOLID_H
 62
     4
 10
-37.528591
 20
157.841187
 30
0.0
 11
149.471405
 21
157.841187
 31
0.0
  0
LINE
  8
MO_001_VIEW_RA
  6
C_SOLID_L
 62
     3
 10
-55.528591
 20
162.841187
 30
0.0
 11
-55.528591
 21
-134.158813
 31
0.0
  0
TEXT
  8
MO_001_VIEW_RA
  6
C_SOLID_L
 10
-44.452515
 20
-118.517461
 30
0.0
 40
3.5
  1
2390 - 20mm Stulp
 50
90.0
 41
0.714286
  0
TEXT
  8
MO_001_VIEW_RA
  6
C_SOLID_L
 10
-36.143437
 20
-127.640289
 30
0.0
 40
2.0
  1
26.06.07 / HV
 41
0.714286
  0
ENDSEC
  0
EOF
