  0
SECTION
  2
HEADER
  9
$ACADVER
  1
AC1027
  9
$ACADMAINTVER
 70
    55
  9
$DWGCODEPAGE
  3
ANSI_1252
  9
$CUSTOMPROPERTYTAG
  1
Manager
  9
$CUSTOMPROPERTY
  1

  9
$CUSTOMPROPERTYTAG
  1
Firma
  9
$CUSTOMPROPERTY
  1

  9
$CUSTOMPROPERTYTAG
  1
Kategorie
  9
$CUSTOMPROPERTY
  1

  9
$CUSTOMPROPERTYTAG
  1
Bauteilnummer
  9
$CUSTOMPROPERTY
  1
B-22610
  9
$CUSTOMPROPERTYTAG
  1
Bezeichnung
  9
$CUSTOMPROPERTY
  1
Schliessblech
  9
$CUSTOMPROPERTYTAG
  1
Projekt
  9
$CUSTOMPROPERTY
  1

  9
$CUSTOMPROPERTYTAG
  1
Konstrukteur
  9
$CUSTOMPROPERTY
  1

  9
$CUSTOMPROPERTYTAG
  1
Ingenieur
  9
$CUSTOMPROPERTY
  1

  9
$CUSTOMPROPERTYTAG
  1
Bevollmächtigter
  9
$CUSTOMPROPERTY
  1

  9
$CUSTOMPROPERTYTAG
  1
Kostenstelle
  9
$CUSTOMPROPERTY
  1

  9
$CUSTOMPROPERTYTAG
  1
Zulieferer
  9
$CUSTOMPROPERTY
  1

  9
$CUSTOMPROPERTYTAG
  1
Benutzerstatus
  9
$CUSTOMPROPERTY
  1

  9
$CUSTOMPROPERTYTAG
  1
Konstruktionsstatus
  9
$CUSTOMPROPERTY
  1
InBearbeitung
  9
$CUSTOMPROPERTYTAG
  1
Kontrolliert von
  9
$CUSTOMPROPERTY
  1

  9
$CUSTOMPROPERTYTAG
  1
Konstruktion genehmigt von
  9
$CUSTOMPROPERTY
  1

  9
$CUSTOMPROPERTYTAG
  1
Fertigung genehmigt von
  9
$CUSTOMPROPERTY
  1

  9
$CUSTOMPROPERTYTAG
  1
Aend_Beschreibung_1
  9
$CUSTOMPROPERTY
  1

  9
$CUSTOMPROPERTYTAG
  1
Aend_Beschreibung_2
  9
$CUSTOMPROPERTY
  1

  9
$CUSTOMPROPERTYTAG
  1
Aend_Beschreibung_3
  9
$CUSTOMPROPERTY
  1

  9
$CUSTOMPROPERTYTAG
  1
Aend_Beschreibung_4
  9
$CUSTOMPROPERTY
  1

  9
$CUSTOMPROPERTYTAG
  1
Aend_Beschreibung_5
  9
$CUSTOMPROPERTY
  1

  9
$CUSTOMPROPERTYTAG
  1
Aend_Beschreibung_6
  9
$CUSTOMPROPERTY
  1

  9
$CUSTOMPROPERTYTAG
  1
Aend_Beschreibung_7
  9
$CUSTOMPROPERTY
  1

  9
$CUSTOMPROPERTYTAG
  1
Aend_Beschreibung_8
  9
$CUSTOMPROPERTY
  1

  9
$CUSTOMPROPERTYTAG
  1
Aend_Index_1
  9
$CUSTOMPROPERTY
  1

  9
$CUSTOMPROPERTYTAG
  1
Aend_Index_2
  9
$CUSTOMPROPERTY
  1

  9
$CUSTOMPROPERTYTAG
  1
Aend_Index_3
  9
$CUSTOMPROPERTY
  1

  9
$CUSTOMPROPERTYTAG
  1
Aend_Index_4
  9
$CUSTOMPROPERTY
  1

  9
$CUSTOMPROPERTYTAG
  1
Aend_Index_5
  9
$CUSTOMPROPERTY
  1

  9
$CUSTOMPROPERTYTAG
  1
Aend_Index_6
  9
$CUSTOMPROPERTY
  1

  9
$CUSTOMPROPERTYTAG
  1
Aend_Index_7
  9
$CUSTOMPROPERTY
  1

  9
$CUSTOMPROPERTYTAG
  1
Aend_Index_8
  9
$CUSTOMPROPERTY
  1

  9
$CUSTOMPROPERTYTAG
  1
Aend_Name_1
  9
$CUSTOMPROPERTY
  1

  9
$CUSTOMPROPERTYTAG
  1
Aend_Name_2
  9
$CUSTOMPROPERTY
  1

  9
$CUSTOMPROPERTYTAG
  1
Aend_Name_3
  9
$CUSTOMPROPERTY
  1

  9
$CUSTOMPROPERTYTAG
  1
Aend_Name_4
  9
$CUSTOMPROPERTY
  1

  9
$CUSTOMPROPERTYTAG
  1
Aend_Name_5
  9
$CUSTOMPROPERTY
  1

  9
$CUSTOMPROPERTYTAG
  1
Aend_Name_6
  9
$CUSTOMPROPERTY
  1

  9
$CUSTOMPROPERTYTAG
  1
Aend_Name_7
  9
$CUSTOMPROPERTY
  1

  9
$CUSTOMPROPERTYTAG
  1
Aend_Name_8
  9
$CUSTOMPROPERTY
  1

  9
$CUSTOMPROPERTYTAG
  1
Dimension
  9
$CUSTOMPROPERTY
  1

  9
$CUSTOMPROPERTYTAG
  1
Menge
  9
$CUSTOMPROPERTY
  1

  9
$CUSTOMPROPERTYTAG
  1
Position
  9
$CUSTOMPROPERTY
  1

  9
$CUSTOMPROPERTYTAG
  1
Ersatz_fuer
  9
$CUSTOMPROPERTY
  1

  9
$CUSTOMPROPERTYTAG
  1
Esetzt_durch
  9
$CUSTOMPROPERTY
  1

  9
$CUSTOMPROPERTYTAG
  1
Massstab
  9
$CUSTOMPROPERTY
  1
1 : 2
  9
$CUSTOMPROPERTYTAG
  1
SysDate
  9
$CUSTOMPROPERTY
  1
17.01.2014
  9
$CUSTOMPROPERTYTAG
  1
SysTime
  9
$CUSTOMPROPERTY
  1
12:16
  9
$CUSTOMPROPERTYTAG
  1
Gewicht
  9
$CUSTOMPROPERTY
  1

  9
$CUSTOMPROPERTYTAG
  1
Materialien
  9
$CUSTOMPROPERTY
  1
Standard
  9
$CUSTOMPROPERTYTAG
  1
Normen
  9
$CUSTOMPROPERTY
  1

  9
$REQUIREDVERSIONS
160
                 0
  9
$INSBASE
 10
0.0
 20
0.0
 30
0.0
  9
$EXTMIN
 10
0.0
 20
0.0
 30
0.0
  9
$EXTMAX
 10
420.0
 20
594.0
 30
0.0
  9
$LIMMIN
 10
0.0
 20
0.0
  9
$LIMMAX
 10
420.0
 20
594.0
  9
$ORTHOMODE
 70
     0
  9
$REGENMODE
 70
     1
  9
$FILLMODE
 70
     1
  9
$QTEXTMODE
 70
     0
  9
$MIRRTEXT
 70
     0
  9
$LTSCALE
 40
2.0
  9
$ATTMODE
 70
     1
  9
$TEXTSIZE
 40
0.2
  9
$TRACEWID
 40
0.05
  9
$TEXTSTYLE
  7
Standard
  9
$CLAYER
  8
0
  9
$CELTYPE
  6
ByLayer
  9
$CECOLOR
 62
   256
  9
$CELTSCALE
 40
1.0
  9
$DISPSILH
 70
     0
  9
$DIMSCALE
 40
1.0
  9
$DIMASZ
 40
1.799999999999999
  9
$DIMEXO
 40
0.0625
  9
$DIMDLI
 40
0.38
  9
$DIMRND
 40
0.0
  9
$DIMDLE
 40
0.0
  9
$DIMEXE
 40
0.18
  9
$DIMTP
 40
0.0
  9
$DIMTM
 40
0.0
  9
$DIMTXT
 40
0.3499999940395355
  9
$DIMCEN
 40
0.09
  9
$DIMTSZ
 40
0.0
  9
$DIMTOL
 70
     0
  9
$DIMLIM
 70
     0
  9
$DIMTIH
 70
     1
  9
$DIMTOH
 70
     1
  9
$DIMSE1
 70
     0
  9
$DIMSE2
 70
     0
  9
$DIMTAD
 70
     0
  9
$DIMZIN
 70
     0
  9
$DIMBLK
  1

  9
$DIMASO
 70
     1
  9
$DIMSHO
 70
     1
  9
$DIMPOST
  1

  9
$DIMAPOST
  1

  9
$DIMALT
 70
     0
  9
$DIMALTD
 70
     2
  9
$DIMALTF
 40
25.4
  9
$DIMLFAC
 40
1.0
  9
$DIMTOFL
 70
     0
  9
$DIMTVP
 40
0.0
  9
$DIMTIX
 70
     0
  9
$DIMSOXD
 70
     0
  9
$DIMSAH
 70
     0
  9
$DIMBLK1
  1

  9
$DIMBLK2
  1

  9
$DIMSTYLE
  2
Standard
  9
$DIMCLRD
 70
     0
  9
$DIMCLRE
 70
     0
  9
$DIMCLRT
 70
     0
  9
$DIMTFAC
 40
1.0
  9
$DIMGAP
 40
0.09
  9
$DIMJUST
 70
     0
  9
$DIMSD1
 70
     0
  9
$DIMSD2
 70
     0
  9
$DIMTOLJ
 70
     1
  9
$DIMTZIN
 70
     0
  9
$DIMALTZ
 70
     0
  9
$DIMALTTZ
 70
     0
  9
$DIMUPT
 70
     0
  9
$DIMDEC
 70
     4
  9
$DIMTDEC
 70
     4
  9
$DIMALTU
 70
     2
  9
$DIMALTTD
 70
     2
  9
$DIMTXSTY
  7
Standard
  9
$DIMAUNIT
 70
     0
  9
$DIMADEC
 70
     0
  9
$DIMALTRND
 40
0.0
  9
$DIMAZIN
 70
     0
  9
$DIMDSEP
 70
    46
  9
$DIMATFIT
 70
     3
  9
$DIMFRAC
 70
     0
  9
$DIMLDRBLK
  1

  9
$DIMLUNIT
 70
     2
  9
$DIMLWD
 70
    -2
  9
$DIMLWE
 70
    -2
  9
$DIMTMOVE
 70
     0
  9
$DIMFXL
 40
1.0
  9
$DIMFXLON
 70
     0
  9
$DIMJOGANG
 40
0.7853981633974483
  9
$DIMTFILL
 70
     0
  9
$DIMTFILLCLR
 70
     0
  9
$DIMARCSYM
 70
     0
  9
$DIMLTYPE
  6

  9
$DIMLTEX1
  6

  9
$DIMLTEX2
  6

  9
$DIMTXTDIRECTION
 70
     0
  9
$LUNITS
 70
     2
  9
$LUPREC
 70
     4
  9
$SKETCHINC
 40
0.1
  9
$FILLETRAD
 40
0.0
  9
$AUNITS
 70
     0
  9
$AUPREC
 70
     0
  9
$MENU
  1
.
  9
$ELEVATION
 40
0.0
  9
$PELEVATION
 40
0.0
  9
$THICKNESS
 40
0.0
  9
$LIMCHECK
 70
     0
  9
$CHAMFERA
 40
0.0
  9
$CHAMFERB
 40
0.0
  9
$CHAMFERC
 40
0.0
  9
$CHAMFERD
 40
0.0
  9
$SKPOLY
 70
     0
  9
$TDCREATE
 40
2456675.461129653
  9
$TDUCREATE
 40
2456675.419462986
  9
$TDUPDATE
 40
2456675.461129653
  9
$TDUUPDATE
 40
2456675.419462986
  9
$TDINDWG
 40
0.0000199653
  9
$TDUSRTIMER
 40
0.0000199653
  9
$USRTIMER
 70
     1
  9
$ANGBASE
 50
0.0
  9
$ANGDIR
 70
     0
  9
$PDMODE
 70
     0
  9
$PDSIZE
 40
0.0
  9
$PLINEWID
 40
0.0
  9
$SPLFRAME
 70
     0
  9
$SPLINETYPE
 70
     6
  9
$SPLINESEGS
 70
     8
  9
$HANDSEED
  5
145D
  9
$SURFTAB1
 70
     6
  9
$SURFTAB2
 70
     6
  9
$SURFTYPE
 70
     6
  9
$SURFU
 70
     6
  9
$SURFV
 70
     6
  9
$UCSBASE
  2

  9
$UCSNAME
  2

  9
$UCSORG
 10
0.0
 20
0.0
 30
0.0
  9
$UCSXDIR
 10
1.0
 20
0.0
 30
0.0
  9
$UCSYDIR
 10
0.0
 20
1.0
 30
0.0
  9
$UCSORTHOREF
  2

  9
$UCSORTHOVIEW
 70
     0
  9
$UCSORGTOP
 10
0.0
 20
0.0
 30
0.0
  9
$UCSORGBOTTOM
 10
0.0
 20
0.0
 30
0.0
  9
$UCSORGLEFT
 10
0.0
 20
0.0
 30
0.0
  9
$UCSORGRIGHT
 10
0.0
 20
0.0
 30
0.0
  9
$UCSORGFRONT
 10
0.0
 20
0.0
 30
0.0
  9
$UCSORGBACK
 10
0.0
 20
0.0
 30
0.0
  9
$PUCSBASE
  2

  9
$PUCSNAME
  2

  9
$PUCSORG
 10
0.0
 20
0.0
 30
0.0
  9
$PUCSXDIR
 10
1.0
 20
0.0
 30
0.0
  9
$PUCSYDIR
 10
0.0
 20
1.0
 30
0.0
  9
$PUCSORTHOREF
  2

  9
$PUCSORTHOVIEW
 70
     0
  9
$PUCSORGTOP
 10
0.0
 20
0.0
 30
0.0
  9
$PUCSORGBOTTOM
 10
0.0
 20
0.0
 30
0.0
  9
$PUCSORGLEFT
 10
0.0
 20
0.0
 30
0.0
  9
$PUCSORGRIGHT
 10
0.0
 20
0.0
 30
0.0
  9
$PUCSORGFRONT
 10
0.0
 20
0.0
 30
0.0
  9
$PUCSORGBACK
 10
0.0
 20
0.0
 30
0.0
  9
$USERI1
 70
     0
  9
$USERI2
 70
     0
  9
$USERI3
 70
     0
  9
$USERI4
 70
     0
  9
$USERI5
 70
     0
  9
$USERR1
 40
0.0
  9
$USERR2
 40
0.0
  9
$USERR3
 40
0.0
  9
$USERR4
 40
0.0
  9
$USERR5
 40
0.0
  9
$WORLDVIEW
 70
     1
  9
$SHADEDGE
 70
     3
  9
$SHADEDIF
 70
    70
  9
$TILEMODE
 70
     1
  9
$MAXACTVP
 70
    64
  9
$PINSBASE
 10
0.0
 20
0.0
 30
0.0
  9
$PLIMCHECK
 70
     0
  9
$PEXTMIN
 10
0.0
 20
0.0
 30
0.0
  9
$PEXTMAX
 10
420.0
 20
594.0
 30
0.0
  9
$PLIMMIN
 10
0.0
 20
0.0
  9
$PLIMMAX
 10
420.0
 20
594.0
  9
$UNITMODE
 70
     0
  9
$VISRETAIN
 70
     1
  9
$PLINEGEN
 70
     0
  9
$PSLTSCALE
 70
     1
  9
$TREEDEPTH
 70
  3020
  9
$CMLSTYLE
  2
Standard
  9
$CMLJUST
 70
     0
  9
$CMLSCALE
 40
1.0
  9
$PROXYGRAPHICS
 70
     1
  9
$MEASUREMENT
 70
     1
  9
$CELWEIGHT
370
    -1
  9
$ENDCAPS
280
     0
  9
$JOINSTYLE
280
     0
  9
$LWDISPLAY
290
     0
  9
$INSUNITS
 70
     4
  9
$HYPERLINKBASE
  1

  9
$STYLESHEET
  1

  9
$XEDIT
290
     1
  9
$CEPSNTYPE
380
     0
  9
$PSTYLEMODE
290
     1
  9
$FINGERPRINTGUID
  2
{A02A8875-64C9-497D-9EDB-33D52A6D1EC1}
  9
$VERSIONGUID
  2
{0E9823F1-A0BF-423E-8263-2D5210FB1EF0}
  9
$EXTNAMES
290
     1
  9
$PSVPSCALE
 40
0.0
  9
$OLESTARTUP
290
     0
  9
$SORTENTS
280
   127
  9
$INDEXCTL
280
     0
  9
$HIDETEXT
280
     1
  9
$XCLIPFRAME
280
     2
  9
$HALOGAP
280
     0
  9
$OBSCOLOR
 70
   257
  9
$OBSLTYPE
280
     0
  9
$INTERSECTIONDISPLAY
280
     0
  9
$INTERSECTIONCOLOR
 70
   257
  9
$DIMASSOC
280
     1
  9
$PROJECTNAME
  1

  9
$CAMERADISPLAY
290
     0
  9
$LENSLENGTH
 40
50.0
  9
$CAMERAHEIGHT
 40
0.0
  9
$STEPSPERSEC
 40
2.0
  9
$STEPSIZE
 40
6.0
  9
$3DDWFPREC
 40
2.0
  9
$PSOLWIDTH
 40
0.25
  9
$PSOLHEIGHT
 40
4.0
  9
$LOFTANG1
 40
1.570796326794896
  9
$LOFTANG2
 40
1.570796326794896
  9
$LOFTMAG1
 40
0.0
  9
$LOFTMAG2
 40
0.0
  9
$LOFTPARAM
 70
     7
  9
$LOFTNORMALS
280
     1
  9
$LATITUDE
 40
37.795
  9
$LONGITUDE
 40
-122.394
  9
$NORTHDIRECTION
 40
0.0
  9
$TIMEZONE
 70
 -8000
  9
$LIGHTGLYPHDISPLAY
280
     1
  9
$TILEMODELIGHTSYNCH
280
     1
  9
$CMATERIAL
347
11
  9
$SOLIDHIST
280
     0
  9
$SHOWHIST
280
     1
  9
$DWFFRAME
280
     2
  9
$DGNFRAME
280
     0
  9
$REALWORLDSCALE
290
     1
  9
$INTERFERECOLOR
 62
     1
  9
$INTERFEREOBJVS
345
33
  9
$INTERFEREVPVS
346
30
  9
$CSHADOW
280
     0
  9
$SHADOWPLANELOCATION
 40
0.0
  0
ENDSEC
  0
SECTION
  2
CLASSES
  0
CLASS
  1
ACDBDICTIONARYWDFLT
  2
AcDbDictionaryWithDefault
  3
ObjectDBX Classes
 90
        0
 91
        1
280
     0
281
     0
  0
CLASS
  1
MATERIAL
  2
AcDbMaterial
  3
ObjectDBX Classes
 90
     1153
 91
        3
280
     0
281
     0
  0
CLASS
  1
VISUALSTYLE
  2
AcDbVisualStyle
  3
ObjectDBX Classes
 90
     4095
 91
       24
280
     0
281
     0
  0
CLASS
  1
SCALE
  2
AcDbScale
  3
ObjectDBX Classes
 90
     1153
 91
       17
280
     0
281
     0
  0
CLASS
  1
TABLESTYLE
  2
AcDbTableStyle
  3
ObjectDBX Classes
 90
     4095
 91
        1
280
     0
281
     0
  0
CLASS
  1
MLEADERSTYLE
  2
AcDbMLeaderStyle
  3
ACDB_MLEADERSTYLE_CLASS
 90
     4095
 91
        1
280
     0
281
     0
  0
CLASS
  1
ACDBSECTIONVIEWSTYLE
  2
AcDbSectionViewStyle
  3
ObjectDBX Classes
 90
     1025
 91
        1
280
     0
281
     0
  0
CLASS
  1
ACDBDETAILVIEWSTYLE
  2
AcDbDetailViewStyle
  3
ObjectDBX Classes
 90
     1025
 91
        1
280
     0
281
     0
  0
CLASS
  1
DICTIONARYVAR
  2
AcDbDictionaryVar
  3
ObjectDBX Classes
 90
        0
 91
        5
280
     0
281
     0
  0
CLASS
  1
CELLSTYLEMAP
  2
AcDbCellStyleMap
  3
ObjectDBX Classes
 90
     1152
 91
        1
280
     0
281
     0
  0
ENDSEC
  0
SECTION
  2
TABLES
  0
TABLE
  2
VPORT
  5
8
330
0
100
AcDbSymbolTable
 70
     1
  0
VPORT
  5
57
330
8
100
AcDbSymbolTableRecord
100
AcDbViewportTableRecord
  2
*Active
 70
     0
 10
0.0
 20
0.0
 11
1.0
 21
1.0
 12
210.0
 22
297.0
 13
0.0
 23
0.0
 14
1.0
 24
1.0
 15
0.0
 25
0.0
 16
0.0
 26
0.0
 36
1.0
 17
0.0
 27
0.0
 37
0.0
 40
594.0
 41
0.7070707070707071
 42
50.0
 43
0.0
 44
0.0
 50
0.0
 51
0.0
 71
     0
 72
   100
 73
     1
 74
     1
 75
     0
 76
     0
 77
     0
 78
     0
281
     0
 65
     1
110
0.0
120
0.0
130
0.0
111
1.0
121
0.0
131
0.0
112
0.0
122
1.0
132
0.0
 79
     0
146
0.0
 60
     3
 61
     5
292
     1
282
     1
141
0.0
142
0.0
 63
   250
421
  3355443
  0
ENDTAB
  0
TABLE
  2
LTYPE
  5
5
330
0
100
AcDbSymbolTable
 70
    59
  0
LTYPE
  5
5B
330
5
100
AcDbSymbolTableRecord
100
AcDbLinetypeTableRecord
  2
ByBlock
 70
     0
  3

 72
    65
 73
     0
 40
0.0
  0
LTYPE
  5
5C
330
5
100
AcDbSymbolTableRecord
100
AcDbLinetypeTableRecord
  2
ByLayer
 70
     0
  3

 72
    65
 73
     0
 40
0.0
  0
LTYPE
  5
5D
330
5
100
AcDbSymbolTableRecord
100
AcDbLinetypeTableRecord
  2
Continuous
 70
     0
  3
Solid line
 72
    65
 73
     0
 40
0.0
  0
LTYPE
  5
78
330
5
100
AcDbSymbolTableRecord
100
AcDbLinetypeTableRecord
  2
Section_View_Lines
 70
     0
  3
Section View Lines
 72
    65
 73
     4
 40
0.8406
 49
0.6614
 74
     0
 49
-0.0827
 74
     0
 49
0.0138
 74
     0
 49
-0.0827
 74
     0
  0
LTYPE
  5
79
330
5
100
AcDbSymbolTableRecord
100
AcDbLinetypeTableRecord
  2
CHAIN
 70
     0
  3
Chain ____ _ ____ _ ____ _ ____ _ ____ _ ____
 72
    65
 73
     4
 40
0.3543
 49
0.2362
 74
     0
 49
-0.0295
 74
     0
 49
0.0591
 74
     0
 49
-0.0295
 74
     0
  0
LTYPE
  5
7A
330
5
100
AcDbSymbolTableRecord
100
AcDbLinetypeTableRecord
  2
DASH_DOT
 70
     0
  3
Dash dot _._._._._._._._._._._._._._._.
 72
    65
 73
     4
 40
0.37
 49
0.24
 74
     0
 49
-0.06
 74
     0
 49
0.01
 74
     0
 49
-0.06
 74
     0
  0
LTYPE
  5
7B
330
5
100
AcDbSymbolTableRecord
100
AcDbLinetypeTableRecord
  2
DASH_DOUBLE_DOT
 70
     0
  3
Dash Double Dot __ __ . __ __ . __ __ . __ _
 72
    65
 73
     6
 40
0.4398
 49
0.24
 74
     0
 49
-0.06
 74
     0
 49
0.0098
 74
     0
 49
-0.06
 74
     0
 49
0.01
 74
     0
 49
-0.06
 74
     0
  0
LTYPE
  5
7C
330
5
100
AcDbSymbolTableRecord
100
AcDbLinetypeTableRecord
  2
DASH_TRIPLE_DOT
 70
     0
  3
Dash Triple-Dot _ . . . _ . . . _ . . . _
 72
    65
 73
     8
 40
0.51
 49
0.24
 74
     0
 49
-0.06
 74
     0
 49
0.01
 74
     0
 49
-0.06
 74
     0
 49
0.01
 74
     0
 49
-0.06
 74
     0
 49
0.01
 74
     0
 49
-0.06
 74
     0
  0
LTYPE
  5
7D
330
5
100
AcDbSymbolTableRecord
100
AcDbLinetypeTableRecord
  2
DASHED
 70
     0
  3
Dashed __ __ __ __ __ __ __ __ __ __ __ __ __ _
 72
    65
 73
     2
 40
0.2067
 49
0.1654
 74
     0
 49
-0.0413
 74
     0
  0
LTYPE
  5
7E
330
5
100
AcDbSymbolTableRecord
100
AcDbLinetypeTableRecord
  2
DASHED_SPACE
 70
     0
  3
Dashed Space _._._._._._._._._._._._._._._.
 72
    65
 73
     2
 40
0.2067
 49
0.1654
 74
     0
 49
-0.0413
 74
     0
  0
LTYPE
  5
7F
330
5
100
AcDbSymbolTableRecord
100
AcDbLinetypeTableRecord
  2
DOTTED
 70
     0
  3
Dotted . . . . . . . . . . . . . . . . . . . . 
 72
    65
 73
     2
 40
0.0482
 49
0.0069
 74
     0
 49
-0.0413
 74
     0
  0
LTYPE
  5
80
330
5
100
AcDbSymbolTableRecord
100
AcDbLinetypeTableRecord
  2
DOUBLE_DASH_CHAIN
 70
     0
  3
Double Dash Chain ___ _ _ ___ _ _ ___ _ _ ___ _
 72
    65
 73
     6
 40
1.240299999999999
 49
0.6614
 74
     0
 49
-0.0827
 74
     0
 49
0.1654
 74
     0
 49
-0.0827
 74
     0
 49
0.1654
 74
     0
 49
-0.0827
 74
     0
  0
LTYPE
  5
81
330
5
100
AcDbSymbolTableRecord
100
AcDbLinetypeTableRecord
  2
DOUBLE_DASH_DOT
 70
     0
  3
Double Dash Dot __ __ . __ __ . __ __ . __ _
 72
    65
 73
     6
 40
0.67
 49
0.24
 74
     0
 49
-0.06
 74
     0
 49
0.24
 74
     0
 49
-0.06
 74
     0
 49
0.01
 74
     0
 49
-0.06
 74
     0
  0
LTYPE
  5
82
330
5
100
AcDbSymbolTableRecord
100
AcDbLinetypeTableRecord
  2
DOUBLE_DASH_DOUBLE_DOT
 70
     0
  3
Double-dash double-dot _ _ . . _ _ . . _
 72
    65
 73
     8
 40
0.7400000000000001
 49
0.24
 74
     0
 49
-0.06
 74
     0
 49
0.24
 74
     0
 49
-0.06
 74
     0
 49
0.01
 74
     0
 49
-0.06
 74
     0
 49
0.01
 74
     0
 49
-0.06
 74
     0
  0
LTYPE
  5
83
330
5
100
AcDbSymbolTableRecord
100
AcDbLinetypeTableRecord
  2
DOUBLE_DASH_TRIPLE_DOT
 70
     0
  3
Double Dash Triple Dot __ __ . . . __ __ . . .
 72
    65
 73
    10
 40
0.8100000000000001
 49
0.24
 74
     0
 49
-0.06
 74
     0
 49
0.24
 74
     0
 49
-0.06
 74
     0
 49
0.01
 74
     0
 49
-0.06
 74
     0
 49
0.01
 74
     0
 49
-0.06
 74
     0
 49
0.01
 74
     0
 49
-0.06
 74
     0
  0
LTYPE
  5
84
330
5
100
AcDbSymbolTableRecord
100
AcDbLinetypeTableRecord
  2
LONG_DASH_DOTTED
 70
     0
  3
Long-Dash Dot ____ . ____ . ____ . ____ . _
 72
    65
 73
     4
 40
0.3001
 49
0.2362
 74
     0
 49
-0.0295
 74
     0
 49
0.0049
 74
     0
 49
-0.0295
 74
     0
  0
LTYPE
  5
85
330
5
100
AcDbSymbolTableRecord
100
AcDbLinetypeTableRecord
  2
LONG_DASH_DOUBLE_DOT
 70
     0
  3
Long Dash Double Dot ____ . . ____ . . ____ . .
 72
    65
 73
     6
 40
0.3345
 49
0.2362
 74
     0
 49
-0.0295
 74
     0
 49
0.0049
 74
     0
 49
-0.0295
 74
     0
 49
0.0049
 74
     0
 49
-0.0295
 74
     0
  0
LTYPE
  5
86
330
5
100
AcDbSymbolTableRecord
100
AcDbLinetypeTableRecord
  2
LONG_DASH_TRIPLE_DOT
 70
     0
  3
Long Dash Triple Dot ____ ... ____ ... ____
 72
    65
 73
     8
 40
0.75
 49
0.48
 74
     0
 49
-0.06
 74
     0
 49
0.01
 74
     0
 49
-0.06
 74
     0
 49
0.01
 74
     0
 49
-0.06
 74
     0
 49
0.01
 74
     0
 49
-0.06
 74
     0
  0
LTYPE
  5
87
330
5
100
AcDbSymbolTableRecord
100
AcDbLinetypeTableRecord
  2
BORDER
 70
     0
  3
Border __ __ . __ __ . __ __ . __ __ . __ __ .
 72
    65
 73
     6
 40
44.45
 49
12.7
 74
     0
 49
-6.349999999999999
 74
     0
 49
12.7
 74
     0
 49
-6.349999999999999
 74
     0
 49
0.0
 74
     0
 49
-6.349999999999999
 74
     0
  0
LTYPE
  5
88
330
5
100
AcDbSymbolTableRecord
100
AcDbLinetypeTableRecord
  2
BORDER2
 70
     0
  3
Border (.5x) __.__.__.__.__.__.__.__.__.__.__.
 72
    65
 73
     6
 40
22.225
 49
6.349999999999999
 74
     0
 49
-3.174999999999999
 74
     0
 49
6.349999999999999
 74
     0
 49
-3.174999999999999
 74
     0
 49
0.0
 74
     0
 49
-3.174999999999999
 74
     0
  0
LTYPE
  5
89
330
5
100
AcDbSymbolTableRecord
100
AcDbLinetypeTableRecord
  2
BORDERX2
 70
     0
  3
Border (2x) ____  ____  .  ____  ____  .  ___
 72
    65
 73
     6
 40
88.9
 49
25.4
 74
     0
 49
-12.7
 74
     0
 49
25.4
 74
     0
 49
-12.7
 74
     0
 49
0.0
 74
     0
 49
-12.7
 74
     0
  0
LTYPE
  5
8A
330
5
100
AcDbSymbolTableRecord
100
AcDbLinetypeTableRecord
  2
CENTER
 70
     0
  3
Center ____ _ ____ _ ____ _ ____ _ ____ _ ____
 72
    65
 73
     4
 40
50.8
 49
31.75
 74
     0
 49
-6.349999999999999
 74
     0
 49
6.349999999999999
 74
     0
 49
-6.349999999999999
 74
     0
  0
LTYPE
  5
8B
330
5
100
AcDbSymbolTableRecord
100
AcDbLinetypeTableRecord
  2
CENTER2
 70
     0
  3
Center (.5x) ___ _ ___ _ ___ _ ___ _ ___ _ ___
 72
    65
 73
     4
 40
28.575
 49
19.05
 74
     0
 49
-3.174999999999999
 74
     0
 49
3.174999999999999
 74
     0
 49
-3.174999999999999
 74
     0
  0
LTYPE
  5
8C
330
5
100
AcDbSymbolTableRecord
100
AcDbLinetypeTableRecord
  2
CENTERX2
 70
     0
  3
Center (2x) ________  __  ________  __  _____
 72
    65
 73
     4
 40
101.6
 49
63.5
 74
     0
 49
-12.7
 74
     0
 49
12.7
 74
     0
 49
-12.7
 74
     0
  0
LTYPE
  5
8D
330
5
100
AcDbSymbolTableRecord
100
AcDbLinetypeTableRecord
  2
DASHDOT2
 70
     0
  3
Dash dot (.5x) _._._._._._._._._._._._._._._.
 72
    65
 73
     4
 40
12.7
 49
6.349999999999999
 74
     0
 49
-3.174999999999999
 74
     0
 49
0.0
 74
     0
 49
-3.174999999999999
 74
     0
  0
LTYPE
  5
8E
330
5
100
AcDbSymbolTableRecord
100
AcDbLinetypeTableRecord
  2
DASHDOTX2
 70
     0
  3
Dash dot (2x) ____  .  ____  .  ____  .  ___
 72
    65
 73
     4
 40
50.8
 49
25.4
 74
     0
 49
-12.7
 74
     0
 49
0.0
 74
     0
 49
-12.7
 74
     0
  0
LTYPE
  5
8F
330
5
100
AcDbSymbolTableRecord
100
AcDbLinetypeTableRecord
  2
DASHED2
 70
     0
  3
Dashed (.5x) _ _ _ _ _ _ _ _ _ _ _ _ _ _ _ _ _
 72
    65
 73
     2
 40
9.524999999999998
 49
6.349999999999999
 74
     0
 49
-3.174999999999999
 74
     0
  0
LTYPE
  5
90
330
5
100
AcDbSymbolTableRecord
100
AcDbLinetypeTableRecord
  2
DASHEDX2
 70
     0
  3
Dashed (2x) ____  ____  ____  ____  ____  ___
 72
    65
 73
     2
 40
38.1
 49
25.4
 74
     0
 49
-12.7
 74
     0
  0
LTYPE
  5
91
330
5
100
AcDbSymbolTableRecord
100
AcDbLinetypeTableRecord
  2
DIVIDE
 70
     0
  3
Divide ____ . . ____ . . ____ . . ____ . . ____
 72
    65
 73
     6
 40
31.75
 49
12.7
 74
     0
 49
-6.349999999999999
 74
     0
 49
0.0
 74
     0
 49
-6.349999999999999
 74
     0
 49
0.0
 74
     0
 49
-6.349999999999999
 74
     0
  0
LTYPE
  5
92
330
5
100
AcDbSymbolTableRecord
100
AcDbLinetypeTableRecord
  2
DIVIDE2
 70
     0
  3
Divide (.5x) __..__..__..__..__..__..__..__.._
 72
    65
 73
     6
 40
15.875
 49
6.349999999999999
 74
     0
 49
-3.174999999999999
 74
     0
 49
0.0
 74
     0
 49
-3.174999999999999
 74
     0
 49
0.0
 74
     0
 49
-3.174999999999999
 74
     0
  0
LTYPE
  5
93
330
5
100
AcDbSymbolTableRecord
100
AcDbLinetypeTableRecord
  2
DIVIDEX2
 70
     0
  3
Divide (2x) ________  .  .  ________  .  .  _
 72
    65
 73
     6
 40
63.49999999999999
 49
25.4
 74
     0
 49
-12.7
 74
     0
 49
0.0
 74
     0
 49
-12.7
 74
     0
 49
0.0
 74
     0
 49
-12.7
 74
     0
  0
LTYPE
  5
94
330
5
100
AcDbSymbolTableRecord
100
AcDbLinetypeTableRecord
  2
DOT
 70
     0
  3
Dot . . . . . . . . . . . . . . . . . . . . . .
 72
    65
 73
     2
 40
6.349999999999999
 49
0.0
 74
     0
 49
-6.349999999999999
 74
     0
  0
LTYPE
  5
95
330
5
100
AcDbSymbolTableRecord
100
AcDbLinetypeTableRecord
  2
DOT2
 70
     0
  3
Dot (.5x) .....................................
 72
    65
 73
     2
 40
3.174999999999999
 49
0.0
 74
     0
 49
-3.174999999999999
 74
     0
  0
LTYPE
  5
96
330
5
100
AcDbSymbolTableRecord
100
AcDbLinetypeTableRecord
  2
DOTX2
 70
     0
  3
Dot (2x) .  .  .  .  .  .  .  .  .  .  .  .  . 
 72
    65
 73
     2
 40
12.7
 49
0.0
 74
     0
 49
-12.7
 74
     0
  0
LTYPE
  5
97
330
5
100
AcDbSymbolTableRecord
100
AcDbLinetypeTableRecord
  2
HIDDEN
 70
     0
  3
Hidden __ __ __ __ __ __ __ __ __ __ __ __ __ _
 72
    65
 73
     2
 40
9.524999999999998
 49
6.349999999999999
 74
     0
 49
-3.174999999999999
 74
     0
  0
LTYPE
  5
98
330
5
100
AcDbSymbolTableRecord
100
AcDbLinetypeTableRecord
  2
HIDDEN2
 70
     0
  3
Hidden (.5x) _ _ _ _ _ _ _ _ _ _ _ _ _ _ _ _ _
 72
    65
 73
     2
 40
4.762499999999999
 49
3.174999999999999
 74
     0
 49
-1.587499999999999
 74
     0
  0
LTYPE
  5
99
330
5
100
AcDbSymbolTableRecord
100
AcDbLinetypeTableRecord
  2
HIDDENX2
 70
     0
  3
Hidden (2x) ____ ____ ____ ____ ____ ____ ____
 72
    65
 73
     2
 40
19.05
 49
12.7
 74
     0
 49
-6.349999999999999
 74
     0
  0
LTYPE
  5
9A
330
5
100
AcDbSymbolTableRecord
100
AcDbLinetypeTableRecord
  2
PHANTOM
 70
     0
  3
Phantom ______  __  __  ______  __  __  ______
 72
    65
 73
     6
 40
63.5
 49
31.75
 74
     0
 49
-6.349999999999999
 74
     0
 49
6.349999999999999
 74
     0
 49
-6.349999999999999
 74
     0
 49
6.349999999999999
 74
     0
 49
-6.349999999999999
 74
     0
  0
LTYPE
  5
9B
330
5
100
AcDbSymbolTableRecord
100
AcDbLinetypeTableRecord
  2
PHANTOM2
 70
     0
  3
Phantom (.5x) ___ _ _ ___ _ _ ___ _ _ ___ _ _
 72
    65
 73
     6
 40
31.75
 49
15.875
 74
     0
 49
-3.174999999999999
 74
     0
 49
3.174999999999999
 74
     0
 49
-3.174999999999999
 74
     0
 49
3.174999999999999
 74
     0
 49
-3.174999999999999
 74
     0
  0
LTYPE
  5
9C
330
5
100
AcDbSymbolTableRecord
100
AcDbLinetypeTableRecord
  2
PHANTOMX2
 70
     0
  3
Phantom (2x) ____________    ____    ____   _
 72
    65
 73
     6
 40
127.0
 49
63.5
 74
     0
 49
-12.7
 74
     0
 49
12.7
 74
     0
 49
-12.7
 74
     0
 49
12.7
 74
     0
 49
-12.7
 74
     0
  0
LTYPE
  5
9D
330
5
100
AcDbSymbolTableRecord
100
AcDbLinetypeTableRecord
  2
ACAD_ISO02W100
 70
     0
  3
ISO dash __ __ __ __ __ __ __ __ __ __ __ __ __
 72
    65
 73
     2
 40
15.0
 49
12.0
 74
     0
 49
-3.0
 74
     0
  0
LTYPE
  5
9E
330
5
100
AcDbSymbolTableRecord
100
AcDbLinetypeTableRecord
  2
ACAD_ISO03W100
 70
     0
  3
ISO dash space __    __    __    __    __    __
 72
    65
 73
     2
 40
30.0
 49
12.0
 74
     0
 49
-18.0
 74
     0
  0
LTYPE
  5
9F
330
5
100
AcDbSymbolTableRecord
100
AcDbLinetypeTableRecord
  2
ACAD_ISO04W100
 70
     0
  3
ISO long-dash dot ____ . ____ . ____ . ____ . _
 72
    65
 73
     4
 40
30.0
 49
24.0
 74
     0
 49
-3.0
 74
     0
 49
0.0
 74
     0
 49
-3.0
 74
     0
  0
LTYPE
  5
A0
330
5
100
AcDbSymbolTableRecord
100
AcDbLinetypeTableRecord
  2
ACAD_ISO05W100
 70
     0
  3
ISO long-dash double-dot ____ .. ____ .. ____ .
 72
    65
 73
     6
 40
33.0
 49
24.0
 74
     0
 49
-3.0
 74
     0
 49
0.0
 74
     0
 49
-3.0
 74
     0
 49
0.0
 74
     0
 49
-3.0
 74
     0
  0
LTYPE
  5
A1
330
5
100
AcDbSymbolTableRecord
100
AcDbLinetypeTableRecord
  2
ACAD_ISO06W100
 70
     0
  3
ISO long-dash triple-dot ____ ... ____ ... ____
 72
    65
 73
     8
 40
36.0
 49
24.0
 74
     0
 49
-3.0
 74
     0
 49
0.0
 74
     0
 49
-3.0
 74
     0
 49
0.0
 74
     0
 49
-3.0
 74
     0
 49
0.0
 74
     0
 49
-3.0
 74
     0
  0
LTYPE
  5
A2
330
5
100
AcDbSymbolTableRecord
100
AcDbLinetypeTableRecord
  2
ACAD_ISO07W100
 70
     0
  3
ISO dot . . . . . . . . . . . . . . . . . . . .
 72
    65
 73
     2
 40
3.0
 49
0.0
 74
     0
 49
-3.0
 74
     0
  0
LTYPE
  5
A3
330
5
100
AcDbSymbolTableRecord
100
AcDbLinetypeTableRecord
  2
ACAD_ISO08W100
 70
     0
  3
ISO long-dash short-dash ____ __ ____ __ ____ _
 72
    65
 73
     4
 40
36.0
 49
24.0
 74
     0
 49
-3.0
 74
     0
 49
6.0
 74
     0
 49
-3.0
 74
     0
  0
LTYPE
  5
A4
330
5
100
AcDbSymbolTableRecord
100
AcDbLinetypeTableRecord
  2
ACAD_ISO09W100
 70
     0
  3
ISO long-dash double-short-dash ____ __ __ ____
 72
    65
 73
     6
 40
45.0
 49
24.0
 74
     0
 49
-3.0
 74
     0
 49
6.0
 74
     0
 49
-3.0
 74
     0
 49
6.0
 74
     0
 49
-3.0
 74
     0
  0
LTYPE
  5
A5
330
5
100
AcDbSymbolTableRecord
100
AcDbLinetypeTableRecord
  2
ACAD_ISO10W100
 70
     0
  3
ISO dash dot __ . __ . __ . __ . __ . __ . __ .
 72
    65
 73
     4
 40
18.0
 49
12.0
 74
     0
 49
-3.0
 74
     0
 49
0.0
 74
     0
 49
-3.0
 74
     0
  0
LTYPE
  5
A6
330
5
100
AcDbSymbolTableRecord
100
AcDbLinetypeTableRecord
  2
ACAD_ISO11W100
 70
     0
  3
ISO double-dash dot __ __ . __ __ . __ __ . __ 
 72
    65
 73
     6
 40
33.0
 49
12.0
 74
     0
 49
-3.0
 74
     0
 49
12.0
 74
     0
 49
-3.0
 74
     0
 49
0.0
 74
     0
 49
-3.0
 74
     0
  0
LTYPE
  5
A7
330
5
100
AcDbSymbolTableRecord
100
AcDbLinetypeTableRecord
  2
ACAD_ISO12W100
 70
     0
  3
ISO dash double-dot __ . . __ . . __ . . __ . .
 72
    65
 73
     6
 40
21.0
 49
12.0
 74
     0
 49
-3.0
 74
     0
 49
0.0
 74
     0
 49
-3.0
 74
     0
 49
0.0
 74
     0
 49
-3.0
 74
     0
  0
LTYPE
  5
A8
330
5
100
AcDbSymbolTableRecord
100
AcDbLinetypeTableRecord
  2
ACAD_ISO13W100
 70
     0
  3
ISO double-dash double-dot __ __ . . __ __ . . 
 72
    65
 73
     8
 40
36.0
 49
12.0
 74
     0
 49
-3.0
 74
     0
 49
12.0
 74
     0
 49
-3.0
 74
     0
 49
0.0
 74
     0
 49
-3.0
 74
     0
 49
0.0
 74
     0
 49
-3.0
 74
     0
  0
LTYPE
  5
A9
330
5
100
AcDbSymbolTableRecord
100
AcDbLinetypeTableRecord
  2
ACAD_ISO14W100
 70
     0
  3
ISO dash triple-dot __ . . . __ . . . __ . . . 
 72
    65
 73
     8
 40
24.0
 49
12.0
 74
     0
 49
-3.0
 74
     0
 49
0.0
 74
     0
 49
-3.0
 74
     0
 49
0.0
 74
     0
 49
-3.0
 74
     0
 49
0.0
 74
     0
 49
-3.0
 74
     0
  0
LTYPE
  5
AA
330
5
100
AcDbSymbolTableRecord
100
AcDbLinetypeTableRecord
  2
ACAD_ISO15W100
 70
     0
  3
ISO double-dash triple-dot __ __ . . . __ __ . 
 72
    65
 73
    10
 40
39.0
 49
12.0
 74
     0
 49
-3.0
 74
     0
 49
12.0
 74
     0
 49
-3.0
 74
     0
 49
0.0
 74
     0
 49
-3.0
 74
     0
 49
0.0
 74
     0
 49
-3.0
 74
     0
 49
0.0
 74
     0
 49
-3.0
 74
     0
  0
LTYPE
  5
AD
330
5
100
AcDbSymbolTableRecord
100
AcDbLinetypeTableRecord
  2
FENCELINE1
 70
     0
  3
Fenceline circle ----0-----0----0-----0----0---
 72
    65
 73
     4
 40
36.83
 49
6.349999999999999
 74
     0
 49
-2.54
 74
     4
 75
   133
340
AC
 46
2.54
 50
0.0
 44
-2.54
 45
0.0
 49
-2.54
 74
     0
 49
25.4
 74
     0
  0
LTYPE
  5
AE
330
5
100
AcDbSymbolTableRecord
100
AcDbLinetypeTableRecord
  2
FENCELINE2
 70
     0
  3
Fenceline square ----[]-----[]----[]-----[]----
 72
    65
 73
     4
 40
36.83
 49
6.349999999999999
 74
     0
 49
-2.54
 74
     4
 75
   132
340
AC
 46
2.54
 50
0.0
 44
-2.54
 45
0.0
 49
-2.54
 74
     0
 49
25.4
 74
     0
  0
LTYPE
  5
AF
330
5
100
AcDbSymbolTableRecord
100
AcDbLinetypeTableRecord
  2
TRACKS
 70
     0
  3
Tracks -|-|-|-|-|-|-|-|-|-|-|-|-|-|-|-|-|-|-|-|
 72
    65
 73
     2
 40
7.62
 49
3.81
 74
     4
 75
   130
340
AC
 46
6.349999999999999
 50
0.0
 44
0.0
 45
0.0
 49
3.81
 74
     0
  0
LTYPE
  5
B0
330
5
100
AcDbSymbolTableRecord
100
AcDbLinetypeTableRecord
  2
BATTING
 70
     0
  3
Batting SSSSSSSSSSSSSSSSSSSSSSSSSSSSSSSSSSSSSSS
 72
    65
 73
     4
 40
10.16254
 49
0.00254
 74
     0
 49
-2.54
 74
     4
 75
   134
340
AC
 46
2.54
 50
0.0
 44
-2.54
 45
0.0
 49
-5.08
 74
     4
 75
   134
340
AC
 46
2.54
 50
180.0
 44
2.54
 45
0.0
 49
-2.54
 74
     0
  0
LTYPE
  5
B1
330
5
100
AcDbSymbolTableRecord
100
AcDbLinetypeTableRecord
  2
HOT_WATER_SUPPLY
 70
     0
  3
Hot water supply ---- HW ---- HW ---- HW ----
 72
    65
 73
     3
 40
22.86
 49
12.7
 74
     0
 49
-5.08
 74
     2
 75
     0
340
55
 46
2.54
 50
0.0
 44
-2.54
 45
-1.27
  9
HW
 49
-5.08
 74
     0
  0
LTYPE
  5
B2
330
5
100
AcDbSymbolTableRecord
100
AcDbLinetypeTableRecord
  2
GAS_LINE
 70
     0
  3
Gas line ----GAS----GAS----GAS----GAS----GAS---
 72
    65
 73
     3
 40
24.13
 49
12.7
 74
     0
 49
-5.08
 74
     2
 75
     0
340
55
 46
2.54
 50
0.0
 44
-2.54
 45
-1.27
  9
GAS
 49
-6.349999999999999
 74
     0
  0
LTYPE
  5
B3
330
5
100
AcDbSymbolTableRecord
100
AcDbLinetypeTableRecord
  2
ZIGZAG
 70
     0
  3
Zig zag /\/\/\/\/\/\/\/\/\/\/\/\/\/\/\/\/\/\/\/
 72
    65
 73
     4
 40
20.32254
 49
0.00254
 74
     0
 49
-5.08
 74
     4
 75
   131
340
AC
 46
5.08
 50
0.0
 44
-5.08
 45
0.0
 49
-10.16
 74
     4
 75
   131
340
AC
 46
5.08
 50
180.0
 44
5.08
 45
0.0
 49
-5.08
 74
     0
  0
ENDTAB
  0
TABLE
  2
LAYER
  5
2
330
0
100
AcDbSymbolTable
 70
    61
  0
LAYER
  5
54
330
2
100
AcDbSymbolTableRecord
100
AcDbLayerTableRecord
  2
0
 70
     0
 62
     7
  6
Continuous
370
    -3
390
F
347
21
348
0
  0
LAYER
  5
B6
330
2
100
AcDbSymbolTableRecord
100
AcDbLayerTableRecord
  2
AM_0
 70
     0
 62
     7
  6
Continuous
370
    50
390
F
347
21
348
0
  0
LAYER
  5
B7
330
2
100
AcDbSymbolTableRecord
100
AcDbLayerTableRecord
  2
AM_5
 70
     0
 62
     3
420
    65280
  6
Continuous
370
    25
390
F
347
21
348
0
  0
LAYER
  5
BF
330
2
100
AcDbSymbolTableRecord
100
AcDbLayerTableRecord
  2
Bemaßungen(DIN)
 70
     0
 62
     7
  6
Continuous
370
    25
390
F
347
21
348
0
  0
LAYER
  5
CD
330
2
100
AcDbSymbolTableRecord
100
AcDbLayerTableRecord
  2
Mittellinie(DIN)
 70
     0
 62
     7
  6
Continuous
370
    25
390
F
347
21
348
0
  0
LAYER
  5
CF
330
2
100
AcDbSymbolTableRecord
100
AcDbLayerTableRecord
  2
Mittelpunktmarkierung(DIN)
 70
     0
 62
     7
  6
Continuous
370
    25
390
F
347
21
348
0
  0
LAYER
  5
D9
330
2
100
AcDbSymbolTableRecord
100
AcDbLayerTableRecord
  2
Schraffur
 70
     0
 62
     7
  6
Continuous
370
     9
390
F
347
21
348
0
  0
LAYER
  5
DA
330
2
100
AcDbSymbolTableRecord
100
AcDbLayerTableRecord
  2
Schraffur (ISO)
 70
     0
 62
     7
  6
Continuous
370
    18
390
F
347
21
348
0
  0
LAYER
  5
DD
330
2
100
AcDbSymbolTableRecord
100
AcDbLayerTableRecord
  2
Sichtbare Kanten(DIN)
 70
     0
 62
     7
  6
Continuous
370
    50
390
F
347
21
348
0
  0
LAYER
  5
E0
330
2
100
AcDbSymbolTableRecord
100
AcDbLayerTableRecord
  2
Skizziergeometrie(DIN)
 70
     0
 62
     7
  6
Continuous
370
    50
390
F
347
21
348
0
  0
LAYER
  5
E5
330
2
100
AcDbSymbolTableRecord
100
AcDbLayerTableRecord
  2
Symbole(DIN)
 70
     0
 62
     7
  6
Continuous
370
    25
390
F
347
21
348
0
  0
LAYER
  5
E8
330
2
100
AcDbSymbolTableRecord
100
AcDbLayerTableRecord
  2
Titel (ISO)
 70
     0
 62
     7
  6
Continuous
370
    50
390
F
347
21
348
0
  0
LAYER
  5
ED
330
2
100
AcDbSymbolTableRecord
100
AcDbLayerTableRecord
  2
Verdeckte Kanten(DIN)
 70
     0
 62
     7
  6
Continuous
370
    35
390
F
347
21
348
0
  0
LAYER
  5
2C3
330
2
100
AcDbSymbolTableRecord
100
AcDbLayerTableRecord
  2
Defpoints
 70
     0
 62
     7
  6
Continuous
290
     0
370
    -3
390
F
347
21
348
0
  0
ENDTAB
  0
TABLE
  2
STYLE
  5
3
330
0
100
AcDbSymbolTable
 70
    17
  0
STYLE
  5
55
330
3
100
AcDbSymbolTableRecord
100
AcDbTextStyleTableRecord
  2
Standard
 70
     0
 40
0.0
 41
1.0
 50
0.0
 71
     0
 42
0.2
  3
ISOCP.shx
  4

  0
STYLE
  5
5A
330
3
100
AcDbSymbolTableRecord
100
AcDbTextStyleTableRecord
  2
Annotative
 70
     0
 40
0.0
 41
1.0
 50
0.0
 71
     0
 42
0.2
  3
txt
  4

1001
AcadAnnotative
1000
AnnotativeData
1002
{
1070
     1
1070
     1
1002
}
  0
STYLE
  5
AC
330
3
100
AcDbSymbolTableRecord
100
AcDbTextStyleTableRecord
  2

 70
     1
 40
0.0
 41
1.0
 50
0.0
 71
     0
 42
0.2
  3
ltypeshp.shx
  4

  0
STYLE
  5
EF
330
3
100
AcDbSymbolTableRecord
100
AcDbTextStyleTableRecord
  2
_Schriftfeld_2.5mm
 70
     0
 40
0.0
 41
1.0
 50
0.0
 71
     0
 42
0.2
  3
arial.ttf
  4

1001
ACAD
1000
Arial
1071
      256
  0
STYLE
  5
F0
330
3
100
AcDbSymbolTableRecord
100
AcDbTextStyleTableRecord
  2
_Schriftfeld_2mm
 70
     0
 40
0.0
 41
1.0
 50
0.0
 71
     0
 42
0.2
  3
arial.ttf
  4

1001
ACAD
1000
Arial
1071
      256
  0
STYLE
  5
F1
330
3
100
AcDbSymbolTableRecord
100
AcDbTextStyleTableRecord
  2
_Schriftfeld_3.5mm
 70
     0
 40
0.0
 41
1.0
 50
0.0
 71
     0
 42
0.2
  3
arial.ttf
  4

1001
ACAD
1000
Arial
1071
      256
  0
STYLE
  5
F2
330
3
100
AcDbSymbolTableRecord
100
AcDbTextStyleTableRecord
  2
_Schriftfeld_5mm
 70
     0
 40
0.0
 41
1.0
 50
0.0
 71
     0
 42
0.2
  3
arial.ttf
  4

1001
ACAD
1000
Arial
1071
      256
  0
STYLE
  5
F3
330
3
100
AcDbSymbolTableRecord
100
AcDbTextStyleTableRecord
  2
Aktuell-DIN
 70
     0
 40
0.0
 41
1.0
 50
0.0
 71
     0
 42
0.2
  3
arial.ttf
  4

1001
ACAD
1000
Arial
1071
      256
  0
STYLE
  5
F4
330
3
100
AcDbSymbolTableRecord
100
AcDbTextStyleTableRecord
  2
Bezeichnungstext (DIN)
 70
     0
 40
0.0
 41
1.0
 50
0.0
 71
     0
 42
0.2
  3
isocpeur.ttf
  4

1001
ACAD
1000
ISOCPEUR
1071
      256
  0
STYLE
  5
F5
330
3
100
AcDbSymbolTableRecord
100
AcDbTextStyleTableRecord
  2
Bezeichnungstext (ISO)
 70
     0
 40
0.0
 41
1.0
 50
0.0
 71
     0
 42
0.2
  3
tahoma.ttf
  4

1001
ACAD
1000
Tahoma
1071
      256
  0
STYLE
  5
F6
330
3
100
AcDbSymbolTableRecord
100
AcDbTextStyleTableRecord
  2
Notiztext (DIN)
 70
     0
 40
0.0
 41
1.0
 50
0.0
 71
     0
 42
0.2
  3
arial.ttf
  4

1001
ACAD
1000
Arial
1071
      256
  0
STYLE
  5
F7
330
3
100
AcDbSymbolTableRecord
100
AcDbTextStyleTableRecord
  2
Notiztext (ISO)
 70
     0
 40
0.0
 41
1.0
 50
0.0
 71
     0
 42
0.2
  3
tahoma.ttf
  4

1001
ACAD
1000
Tahoma
1071
      256
  0
STYLE
  5
F8
330
3
100
AcDbSymbolTableRecord
100
AcDbTextStyleTableRecord
  2
STANDARD-DIN
 70
     0
 40
0.0
 41
1.0
 50
0.0
 71
     0
 42
0.2
  3
arial.ttf
  4

1001
ACAD
1000
Arial
1071
      256
  0
STYLE
  5
F9
330
3
100
AcDbSymbolTableRecord
100
AcDbTextStyleTableRecord
  2
STANDARD-DIN~0
 70
     0
 40
0.0
 41
1.0
 50
0.0
 71
     0
 42
0.2
  3
arial.ttf
  4

1001
ACAD
1000
Arial
1071
      256
  0
STYLE
  5
FA
330
3
100
AcDbSymbolTableRecord
100
AcDbTextStyleTableRecord
  2
STANDARD-DINGroßer Text
 70
     0
 40
0.0
 41
1.0
 50
0.0
 71
     0
 42
0.2
  3
arial.ttf
  4

1001
ACAD
1000
Arial
1071
      256
  0
STYLE
  5
FB
330
3
100
AcDbSymbolTableRecord
100
AcDbTextStyleTableRecord
  2
STANDARD-DINNach Layer
 70
     0
 40
0.0
 41
1.0
 50
0.0
 71
     0
 42
0.2
  3
arial.ttf
  4

1001
ACAD
1000
Arial
1071
      256
  0
STYLE
  5
1C9
330
3
100
AcDbSymbolTableRecord
100
AcDbTextStyleTableRecord
  2
Textstil122
 70
     0
 40
0.0
 41
0.899999976158142
 50
0.0
 71
     0
 42
0.2
  3
ISOCP.shx
  4

  0
ENDTAB
  0
TABLE
  2
VIEW
  5
6
330
0
100
AcDbSymbolTable
 70
     0
  0
ENDTAB
  0
TABLE
  2
UCS
  5
7
330
0
100
AcDbSymbolTable
 70
     0
  0
ENDTAB
  0
TABLE
  2
APPID
  5
9
330
0
100
AcDbSymbolTable
 70
     4
  0
APPID
  5
56
330
9
100
AcDbSymbolTableRecord
100
AcDbRegAppTableRecord
  2
ACAD
 70
     0
  0
APPID
  5
5E
330
9
100
AcDbSymbolTableRecord
100
AcDbRegAppTableRecord
  2
AcadAnnotative
 70
     0
  0
APPID
  5
1CC
330
9
100
AcDbSymbolTableRecord
100
AcDbRegAppTableRecord
  2
AcadAnnoPO
 70
     0
  0
APPID
  5
DDB
330
9
100
AcDbSymbolTableRecord
100
AcDbRegAppTableRecord
  2
ACAD_DSTYLE_DIMRADIAL_EXTENSION
 70
     0
  0
ENDTAB
  0
TABLE
  2
DIMSTYLE
  5
A
330
0
100
AcDbSymbolTable
 70
    20
100
AcDbDimStyleTable
 71
     2
340
FE
340
58
  0
DIMSTYLE
105
58
330
A
100
AcDbSymbolTableRecord
100
AcDbDimStyleTableRecord
  2
Standard
 70
     0
340
55
  0
DIMSTYLE
105
59
330
A
100
AcDbSymbolTableRecord
100
AcDbDimStyleTableRecord
  2
Annotative
 70
     0
340
55
1001
AcadAnnotative
1000
AnnotativeData
1002
{
1070
     1
1070
     1
1002
}
  0
DIMSTYLE
105
FC
330
A
100
AcDbSymbolTableRecord
100
AcDbDimStyleTableRecord
  2
MuM
 70
     0
 40
2.0
 41
2.5
 42
0.0
 43
5.999999999999999
 44
1.0
 45
0.00000001
 46
10.0
 73
     0
 74
     0
 77
     1
 78
     8
 79
     2
140
3.5
143
0.03937
146
0.7142857313156128
147
0.8
171
     3
172
     1
176
     7
177
     7
178
   256
271
     2
272
     2
274
     3
278
    44
284
     8
340
F6
371
    -1
372
    -1
  0
DIMSTYLE
105
FD
330
A
100
AcDbSymbolTableRecord
100
AcDbDimStyleTableRecord
  2
MuM$7
 70
     0
 40
2.0
 41
2.5
 42
0.0
 43
5.999999999999999
 44
1.0
 45
0.00000001
 46
10.0
 73
     0
 74
     0
 77
     1
 78
     8
 79
     2
140
3.5
143
0.03937
146
0.7142857313156128
147
0.8
171
     3
172
     1
176
   256
177
     7
178
   256
271
     2
272
     2
274
     3
278
    44
284
     8
340
F6
371
    -1
372
    -1
  0
DIMSTYLE
105
FE
102
{ACAD_REACTORS
330
2C2
330
3C1
330
4A9
330
591
330
6A3
330
7B3
330
8B1
330
999
330
A81
330
B69
330
C51
330
D4B
330
DE8
330
E84
330
F6C
330
106A
330
114C
330
125C
330
1345
102
}
330
A
100
AcDbSymbolTableRecord
100
AcDbDimStyleTableRecord
  2
STANDARD-DIN - Methode 2b
 70
     0
 40
2.0
 41
2.5
 42
0.0
 43
10.0
 44
3.174999999999999
 45
0.00000001
 46
10.0
 73
     0
 77
     1
 78
     8
 79
     2
140
3.5
143
0.03937
146
0.7142857313156128
147
0.8
171
     3
172
     1
176
     7
177
     7
178
   250
271
     2
272
     2
274
     3
284
     8
285
     8
340
F9
371
    25
372
    25
  0
DIMSTYLE
105
FF
330
A
100
AcDbSymbolTableRecord
100
AcDbDimStyleTableRecord
  2
STANDARD-DIN - Methode 2b$7
 70
     0
 40
2.0
 41
2.5
 42
0.0
 43
10.0
 44
3.174999999999999
 45
0.00000001
 46
10.0
 73
     0
 77
     1
 78
     8
 79
     2
140
3.5
143
0.03937
146
0.7142857313156128
147
0.8
171
     3
172
     1
176
   179
177
     7
178
   250
271
     2
272
     2
274
     3
284
     8
285
     8
340
F9
371
    25
372
    25
  0
DIMSTYLE
105
100
330
A
100
AcDbSymbolTableRecord
100
AcDbDimStyleTableRecord
  2
Standard - Methode 1b (ISO)
 70
     0
 40
2.0
 41
2.5
 42
0.0
 43
5.999999999999999
 44
3.174999999999999
 45
0.00000001
 46
10.0
 73
     0
 77
     1
 78
     8
 79
     2
140
3.5
143
0.03937
147
0.762
171
     3
172
     1
176
   256
177
   256
178
   256
179
     2
271
     2
272
     2
274
     3
278
    44
284
     8
286
     8
340
F7
371
    -1
372
    -1
  0
DIMSTYLE
105
101
330
A
100
AcDbSymbolTableRecord
100
AcDbDimStyleTableRecord
  2
Standard - Methode 1b (ISO)$7
 70
     0
 40
2.0
 41
2.5
 42
0.0
 43
5.999999999999999
 44
3.174999999999999
 45
0.00000001
 46
10.0
 73
     0
 77
     1
 78
     8
 79
     2
140
3.5
143
0.03937
147
0.762
171
     3
172
     1
176
   256
177
   256
178
   256
179
     2
271
     2
272
     2
274
     3
278
    44
284
     8
286
     8
340
F7
371
    -1
372
    -1
  0
DIMSTYLE
105
102
330
A
100
AcDbSymbolTableRecord
100
AcDbDimStyleTableRecord
  2
Standard - Methode 2a (DIN)
 70
     0
 40
2.0
 41
2.5
 42
0.8
 43
5.999999999999999
 44
3.174999999999999
 45
0.00000001
 46
10.0
 77
     1
 78
     8
 79
     2
140
3.5
143
0.03937
147
0.8
170
     1
171
     3
172
     1
176
   256
177
   256
178
   256
179
     2
271
     2
272
     2
274
     3
278
    44
284
     8
286
     8
340
F6
371
    -1
372
    -1
  0
DIMSTYLE
105
103
330
A
100
AcDbSymbolTableRecord
100
AcDbDimStyleTableRecord
  2
Standard - Methode 2a (DIN)$7
 70
     0
 40
2.0
 41
2.5
 42
0.8
 43
5.999999999999999
 44
3.174999999999999
 45
0.00000001
 46
10.0
 77
     1
 78
     8
 79
     2
140
3.5
143
0.03937
147
0.8
170
     1
171
     3
172
     1
176
   256
177
   256
178
   256
179
     2
271
     2
272
     2
274
     3
278
    44
284
     8
286
     8
340
F6
371
    -1
372
    -1
  0
DIMSTYLE
105
104
330
A
100
AcDbSymbolTableRecord
100
AcDbDimStyleTableRecord
  2
Standard (ISO)
 70
     0
 40
2.0
 41
2.5
 42
0.0
 43
5.999999999999999
 44
3.174999999999999
 45
0.00000001
 46
10.0
 73
     0
 74
     0
 77
     1
140
3.5
143
0.03937
146
1.001485705375671
147
0.762
171
     3
172
     1
176
   256
177
   256
178
   256
179
     2
271
     2
272
     2
274
     3
278
    44
340
F7
371
    -1
372
    -1
  0
DIMSTYLE
105
105
330
A
100
AcDbSymbolTableRecord
100
AcDbDimStyleTableRecord
  2
Standard (ISO)$7
 70
     0
 40
2.0
 41
2.5
 42
0.0
 43
5.999999999999999
 44
3.174999999999999
 45
0.00000001
 46
10.0
 73
     0
 74
     0
 77
     1
140
3.5
143
0.03937
146
1.001485705375671
147
0.762
171
     3
172
     1
176
   256
177
   256
178
   256
179
     2
271
     2
272
     2
274
     3
278
    44
340
F7
371
    -1
372
    -1
  0
DIMSTYLE
105
106
330
A
100
AcDbSymbolTableRecord
100
AcDbDimStyleTableRecord
  2
Alternativ (ISO)
 70
     0
 40
2.0
 41
2.5
340
55
  0
DIMSTYLE
105
112
330
A
100
AcDbSymbolTableRecord
100
AcDbDimStyleTableRecord
  2
Bezug (ISO)
 70
     0
 40
2.0
 41
2.5
340
55
  0
DIMSTYLE
105
113
330
A
100
AcDbSymbolTableRecord
100
AcDbDimStyleTableRecord
  2
Führungslinie-Ursprungsindikator(DIN)
 70
     0
 40
2.0
 41
2.5
340
55
  0
DIMSTYLE
105
114
330
A
100
AcDbSymbolTableRecord
100
AcDbDimStyleTableRecord
  2
Führungslinie - Bezugsstelle(DIN)
 70
     0
 40
2.0
 41
2.5
340
55
  0
DIMSTYLE
105
115
330
A
100
AcDbSymbolTableRecord
100
AcDbDimStyleTableRecord
  2
Führungslinie - groß(DIN)
 70
     0
 40
2.0
 41
5.0
340
55
  0
DIMSTYLE
105
116
330
A
100
AcDbSymbolTableRecord
100
AcDbDimStyleTableRecord
  2
Führungslinie - Punkt(DIN)
 70
     0
 40
2.0
 41
2.5
340
55
  0
DIMSTYLE
105
117
330
A
100
AcDbSymbolTableRecord
100
AcDbDimStyleTableRecord
  2
Führungslinie(DIN)
 70
     0
 40
2.0
 41
2.5
340
55
  0
DIMSTYLE
105
126
330
A
100
AcDbSymbolTableRecord
100
AcDbDimStyleTableRecord
  2
Groß (ISO)
 70
     0
 40
2.0
 41
5.0
340
55
  0
ENDTAB
  0
TABLE
  2
BLOCK_RECORD
  5
1
330
0
100
AcDbSymbolTable
 70
    37
  0
BLOCK_RECORD
  5
70
330
1
100
AcDbSymbolTableRecord
100
AcDbBlockTableRecord
  2
*Model_Space
340
73
 70
     0
280
     1
281
     0
  0
BLOCK_RECORD
  5
6C
330
1
100
AcDbSymbolTableRecord
100
AcDbBlockTableRecord
  2
*Paper_Space
340
6F
 70
     0
280
     1
281
     0
  0
BLOCK_RECORD
  5
74
330
1
100
AcDbSymbolTableRecord
100
AcDbBlockTableRecord
  2
*Paper_Space0
340
77
 70
     0
280
     1
281
     0
  0
BLOCK_RECORD
  5
107
330
1
100
AcDbSymbolTableRecord
100
AcDbBlockTableRecord
  2
DatumFilled45
340
0
 70
     0
280
     1
281
     0
  0
BLOCK_RECORD
  5
118
330
1
100
AcDbSymbolTableRecord
100
AcDbBlockTableRecord
  2
Filled-1
340
0
 70
     0
280
     1
281
     0
  0
BLOCK_RECORD
  5
127
330
1
100
AcDbSymbolTableRecord
100
AcDbBlockTableRecord
  2
Carbonitrieren
340
0
 70
     0
280
     1
281
     0
  0
BLOCK_RECORD
  5
12C
330
1
100
AcDbSymbolTableRecord
100
AcDbBlockTableRecord
  2
Federangaben
340
0
 70
     0
280
     1
281
     0
  0
BLOCK_RECORD
  5
130
330
1
100
AcDbSymbolTableRecord
100
AcDbBlockTableRecord
  2
Nassschliff
340
0
 70
     0
280
     1
281
     0
  0
BLOCK_RECORD
  5
134
330
1
100
AcDbSymbolTableRecord
100
AcDbBlockTableRecord
  2
Schleiffrichtung horizontal
340
0
 70
     0
280
     1
281
     0
  0
BLOCK_RECORD
  5
147
330
1
100
AcDbSymbolTableRecord
100
AcDbBlockTableRecord
  2
Schleiffrichtung vertikal
340
0
 70
     0
280
     1
281
     0
  0
BLOCK_RECORD
  5
15A
330
1
100
AcDbSymbolTableRecord
100
AcDbBlockTableRecord
  2
Stanz-_Laserteil
340
0
 70
     0
280
     1
281
     0
  0
BLOCK_RECORD
  5
15E
330
1
100
AcDbSymbolTableRecord
100
AcDbBlockTableRecord
  2
Stanzrundung_1
340
0
 70
     0
280
     1
281
     0
  0
BLOCK_RECORD
  5
164
330
1
100
AcDbSymbolTableRecord
100
AcDbBlockTableRecord
  2
Stanzrundung_2
340
0
 70
     0
280
     1
281
     0
  0
BLOCK_RECORD
  5
16A
330
1
100
AcDbSymbolTableRecord
100
AcDbBlockTableRecord
  2
Verzinkt
340
0
 70
     0
280
     1
281
     0
  0
BLOCK_RECORD
  5
16E
330
1
100
AcDbSymbolTableRecord
100
AcDbBlockTableRecord
  2
Vierkant-Tabelle
340
0
 70
     0
280
     1
281
     0
  0
BLOCK_RECORD
  5
199
330
1
100
AcDbSymbolTableRecord
100
AcDbBlockTableRecord
  2
Laserpunkt_Text
340
0
 70
     0
280
     1
281
     0
  0
BLOCK_RECORD
  5
1A0
330
1
100
AcDbSymbolTableRecord
100
AcDbBlockTableRecord
  2
Laserpunkt
340
0
 70
     0
280
     1
281
     0
  0
BLOCK_RECORD
  5
1A6
330
1
100
AcDbSymbolTableRecord
100
AcDbBlockTableRecord
  2
Kantenbruch
340
0
 70
     0
280
     1
281
     0
  0
BLOCK_RECORD
  5
1D0
330
1
100
AcDbSymbolTableRecord
100
AcDbBlockTableRecord
  2
Messingguss Schwundmass
340
0
 70
     0
280
     1
281
     0
  0
BLOCK_RECORD
  5
1D7
330
1
100
AcDbSymbolTableRecord
100
AcDbBlockTableRecord
  2
Messingguss Information
340
0
 70
     0
280
     1
281
     0
  0
BLOCK_RECORD
  5
2C4
330
1
100
AcDbSymbolTableRecord
100
AcDbBlockTableRecord
  2
*D18
340
0
 70
     0
280
     1
281
     0
  0
BLOCK_RECORD
  5
3C2
330
1
100
AcDbSymbolTableRecord
100
AcDbBlockTableRecord
  2
*D19
340
0
 70
     0
280
     1
281
     0
  0
BLOCK_RECORD
  5
4AA
330
1
100
AcDbSymbolTableRecord
100
AcDbBlockTableRecord
  2
*D20
340
0
 70
     0
280
     1
281
     0
  0
BLOCK_RECORD
  5
592
330
1
100
AcDbSymbolTableRecord
100
AcDbBlockTableRecord
  2
*D21
340
0
 70
     0
280
     1
281
     0
  0
BLOCK_RECORD
  5
6A4
330
1
100
AcDbSymbolTableRecord
100
AcDbBlockTableRecord
  2
*D22
340
0
 70
     0
280
     1
281
     0
  0
BLOCK_RECORD
  5
7B4
330
1
100
AcDbSymbolTableRecord
100
AcDbBlockTableRecord
  2
*D23
340
0
 70
     0
280
     1
281
     0
  0
BLOCK_RECORD
  5
8B2
330
1
100
AcDbSymbolTableRecord
100
AcDbBlockTableRecord
  2
*D24
340
0
 70
     0
280
     1
281
     0
  0
BLOCK_RECORD
  5
99A
330
1
100
AcDbSymbolTableRecord
100
AcDbBlockTableRecord
  2
*D25
340
0
 70
     0
280
     1
281
     0
  0
BLOCK_RECORD
  5
A82
330
1
100
AcDbSymbolTableRecord
100
AcDbBlockTableRecord
  2
*D26
340
0
 70
     0
280
     1
281
     0
  0
BLOCK_RECORD
  5
B6A
330
1
100
AcDbSymbolTableRecord
100
AcDbBlockTableRecord
  2
*D27
340
0
 70
     0
280
     1
281
     0
  0
BLOCK_RECORD
  5
C52
330
1
100
AcDbSymbolTableRecord
100
AcDbBlockTableRecord
  2
*D28
340
0
 70
     0
280
     1
281
     0
  0
BLOCK_RECORD
  5
D4C
330
1
100
AcDbSymbolTableRecord
100
AcDbBlockTableRecord
  2
*D29
340
0
 70
     0
280
     1
281
     0
  0
BLOCK_RECORD
  5
DE9
330
1
100
AcDbSymbolTableRecord
100
AcDbBlockTableRecord
  2
*D30
340
0
 70
     0
280
     1
281
     0
  0
BLOCK_RECORD
  5
E85
330
1
100
AcDbSymbolTableRecord
100
AcDbBlockTableRecord
  2
*D31
340
0
 70
     0
280
     1
281
     0
  0
BLOCK_RECORD
  5
F6D
330
1
100
AcDbSymbolTableRecord
100
AcDbBlockTableRecord
  2
*D32
340
0
 70
     0
280
     1
281
     0
  0
BLOCK_RECORD
  5
106B
330
1
100
AcDbSymbolTableRecord
100
AcDbBlockTableRecord
  2
*D33
340
0
 70
     0
280
     1
281
     0
  0
BLOCK_RECORD
  5
114D
330
1
100
AcDbSymbolTableRecord
100
AcDbBlockTableRecord
  2
*D34
340
0
 70
     0
280
     1
281
     0
  0
BLOCK_RECORD
  5
125D
330
1
100
AcDbSymbolTableRecord
100
AcDbBlockTableRecord
  2
*D35
340
0
 70
     0
280
     1
281
     0
  0
BLOCK_RECORD
  5
1346
330
1
100
AcDbSymbolTableRecord
100
AcDbBlockTableRecord
  2
*D36
340
0
 70
     0
280
     1
281
     0
  0
ENDTAB
  0
ENDSEC
  0
SECTION
  2
BLOCKS
  0
BLOCK
  5
71
330
70
100
AcDbEntity
  8
0
100
AcDbBlockBegin
  2
*Model_Space
 70
     0
 10
0.0
 20
0.0
 30
0.0
  3
*Model_Space
  1

  0
ENDBLK
  5
72
330
70
100
AcDbEntity
  8
0
100
AcDbBlockEnd
  0
BLOCK
  5
6D
330
6C
100
AcDbEntity
 67
     1
  8
0
100
AcDbBlockBegin
  2
*Paper_Space
 70
     0
 10
0.0
 20
0.0
 30
0.0
  3
*Paper_Space
  1

  0
ENDBLK
  5
6E
330
6C
100
AcDbEntity
 67
     1
  8
0
100
AcDbBlockEnd
  0
BLOCK
  5
75
330
74
100
AcDbEntity
 67
     1
  8
0
100
AcDbBlockBegin
  2
*Paper_Space0
 70
     0
 10
0.0
 20
0.0
 30
0.0
  3
*Paper_Space0
  1

  0
ENDBLK
  5
76
330
74
100
AcDbEntity
 67
     1
  8
0
100
AcDbBlockEnd
  0
BLOCK
  5
108
330
107
100
AcDbEntity
  8
0
100
AcDbBlockBegin
  2
DatumFilled45
 70
     0
 10
0.0
 20
0.0
 30
0.0
  3
DatumFilled45
  1

  0
POLYLINE
  5
10A
330
107
100
AcDbEntity
  8
0
 62
     0
100
AcDb2dPolyline
 66
     1
 10
0.0
 20
0.0
 30
0.0
 70
   128
  0
VERTEX
  5
10B
330
10A
100
AcDbEntity
  8
0
 62
     0
100
AcDbVertex
100
AcDb2dVertex
 10
0.0
 20
1.0
 30
0.0
  0
VERTEX
  5
10C
330
10A
100
AcDbEntity
  8
0
 62
     0
100
AcDbVertex
100
AcDb2dVertex
 10
0.0
 20
-1.0
 30
0.0
  0
VERTEX
  5
10E
330
10A
100
AcDbEntity
  8
0
 62
     0
100
AcDbVertex
100
AcDb2dVertex
 10
-1.0
 20
0.0
 30
0.0
  0
VERTEX
  5
10F
330
10A
100
AcDbEntity
  8
0
 62
     0
100
AcDbVertex
100
AcDb2dVertex
 10
0.0
 20
1.0
 30
0.0
  0
SEQEND
  5
10D
330
10A
100
AcDbEntity
  8
0
 62
     0
  0
SOLID
  5
111
330
107
100
AcDbEntity
  8
0
 62
     0
100
AcDbTrace
 10
0.0
 20
1.0
 30
0.0
 11
0.0
 21
-1.0
 31
0.0
 12
-1.0
 22
0.0
 32
0.0
 13
0.0
 23
1.0
 33
0.0
  0
ENDBLK
  5
109
330
107
100
AcDbEntity
  8
0
100
AcDbBlockEnd
  0
BLOCK
  5
119
330
118
100
AcDbEntity
  8
0
100
AcDbBlockBegin
  2
Filled-1
 70
     0
 10
0.0
 20
0.0
 30
0.0
  3
Filled-1
  1

  0
LINE
  5
11B
330
118
100
AcDbEntity
  8
0
 62
     0
100
AcDbLine
 10
-1.0
 20
0.0
 30
0.0
 11
0.0
 21
0.0
 31
0.0
  0
POLYLINE
  5
11C
330
118
100
AcDbEntity
  8
0
 62
     0
100
AcDb2dPolyline
 66
     1
 10
0.0
 20
0.0
 30
0.0
 70
   128
  0
VERTEX
  5
11D
330
11C
100
AcDbEntity
  8
0
 62
     0
100
AcDbVertex
100
AcDb2dVertex
 10
-1.0
 20
-0.1
 30
0.0
  0
VERTEX
  5
11E
330
11C
100
AcDbEntity
  8
0
 62
     0
100
AcDbVertex
100
AcDb2dVertex
 10
0.0
 20
0.0
 30
0.0
  0
VERTEX
  5
120
330
11C
100
AcDbEntity
  8
0
 62
     0
100
AcDbVertex
100
AcDb2dVertex
 10
-1.0
 20
0.1
 30
0.0
  0
VERTEX
  5
121
330
11C
100
AcDbEntity
  8
0
 62
     0
100
AcDbVertex
100
AcDb2dVertex
 10
-1.0
 20
-0.1
 30
0.0
  0
SEQEND
  5
11F
330
11C
100
AcDbEntity
  8
0
 62
     0
  0
SOLID
  5
122
330
118
100
AcDbEntity
  8
0
 62
     0
100
AcDbTrace
 10
-1.0
 20
-0.1
 30
0.0
 11
0.0
 21
0.0
 31
0.0
 12
-1.0
 22
0.1
 32
0.0
 13
-1.0
 23
-0.1
 33
0.0
  0
LINE
  5
123
330
118
100
AcDbEntity
  8
0
 62
     0
100
AcDbLine
 10
-1.0
 20
-0.1
 30
0.0
 11
0.0
 21
0.0
 31
0.0
  0
LINE
  5
124
330
118
100
AcDbEntity
  8
0
 62
     0
100
AcDbLine
 10
0.0
 20
0.0
 30
0.0
 11
-1.0
 21
0.1
 31
0.0
  0
LINE
  5
125
330
118
100
AcDbEntity
  8
0
 62
     0
100
AcDbLine
 10
-1.0
 20
0.1
 30
0.0
 11
-1.0
 21
-0.1
 31
0.0
  0
ENDBLK
  5
11A
330
118
100
AcDbEntity
  8
0
100
AcDbBlockEnd
  0
BLOCK
  5
128
330
127
100
AcDbEntity
  8
0
100
AcDbBlockBegin
  2
Carbonitrieren
 70
     0
 10
0.0
 20
0.0
 30
0.0
  3
Carbonitrieren
  1

  0
MTEXT
  5
12A
330
127
100
AcDbEntity
  8
Titel (ISO)
100
AcDbMText
 10
-75.71151256561281
 20
15.48921793699264
 30
0.0
 40
3.499999940395355
 41
147.2330421884934
 46
0.0
 71
     1
 72
     1
  3
- Carbonitriert: 0.3 ±0.1 tief;HV 500...600 (Prüfkraft DIN 50133)\P- elektrolytisch verkupfert 1-2µ, el. vernickelt 8-10µ\fArial|b0|i0;\H3.3000;\P\fArial|b0|i0;\H3.5000;- Entspröden: glühen 190-210°C, ca 3h innerhalb 4h nach Veredelung\P \P-TriboCoat
  1
ing TC D1050, 4...8µ\P 
  7
_Schriftfeld_3.5mm
 73
     2
 44
0.9442214965820312
  0
ENDBLK
  5
129
330
127
100
AcDbEntity
  8
0
100
AcDbBlockEnd
  0
BLOCK
  5
12D
330
12C
100
AcDbEntity
  8
0
100
AcDbBlockBegin
  2
Federangaben
 70
     0
 10
0.0
 20
0.0
 30
0.0
  3
Federangaben
  1

  0
MTEXT
  5
12F
330
12C
100
AcDbEntity
  8
Titel (ISO)
100
AcDbMText
 10
-23.02877426147463
 20
32.04377174377441
 30
0.0
 40
3.499999940395355
 41
201.4264025634256
 46
0.0
 71
     1
 72
     1
  1
getrommelt\Pzunderfrei\Pohne Druckstellen\Pund Sicken\P \PEinfederung ...°\PMd ... Nmm\PSb ... N/mm2\P \PWindungszahl ...\P50 HRc +/- 2 eingeölt\P 
  7
_Schriftfeld_3.5mm
 73
     2
 44
0.9442216157913208
  0
ENDBLK
  5
12E
330
12C
100
AcDbEntity
  8
0
100
AcDbBlockEnd
  0
BLOCK
  5
131
330
130
100
AcDbEntity
  8
0
100
AcDbBlockBegin
  2
Nassschliff
 70
     0
 10
0.0
 20
0.0
 30
0.0
  3
Nassschliff
  1

  0
MTEXT
  5
133
330
130
100
AcDbEntity
  8
Titel (ISO)
100
AcDbMText
 10
-59.37195301055908
 20
2.29287352412939
 30
0.0
 40
3.499999940395355
 41
0.0
 46
0.0
 71
     1
 72
     1
  1
Verfahren IV: Nassschliff, Korn 220-240, Folie einseitig
  7
_Schriftfeld_3.5mm
 73
     1
 44
1.0
  0
ENDBLK
  5
132
330
130
100
AcDbEntity
  8
0
100
AcDbBlockEnd
  0
BLOCK
  5
135
330
134
100
AcDbEntity
  8
0
100
AcDbBlockBegin
  2
Schleiffrichtung horizontal
 70
     0
 10
0.0
 20
0.0
 30
0.0
  3
Schleiffrichtung horizontal
  1

  0
HATCH
  5
13A
330
134
100
AcDbEntity
  8
Schraffur (ISO)
100
AcDbHatch
 10
0.0
 20
0.0
 30
0.0
210
0.0
220
0.0
230
1.0
  2
SOLID
 70
     1
 71
     0
 91
        1
 92
        1
 93
        3
 72
     1
 10
-20.0
 20
0.0
 11
-17.50000000000001
 21
-0.4999999999999894
 72
     1
 10
-17.50000000000001
 20
-0.4999999999999894
 11
-17.50000000000001
 21
0.5000000000000071
 72
     1
 10
-17.50000000000001
 20
0.5000000000000071
 11
-20.0
 21
0.0
 97
        0
 75
     0
 76
     1
 98
        1
 10
0.0
 20
0.0
450
        0
451
        0
460
0.0
461
0.0
452
        0
462
0.0
453
        0
470

  0
HATCH
  5
13E
330
134
100
AcDbEntity
  8
Schraffur (ISO)
100
AcDbHatch
 10
0.0
 20
0.0
 30
0.0
210
0.0
220
0.0
230
1.0
  2
SOLID
 70
     1
 71
     0
 91
        1
 92
        1
 93
        3
 72
     1
 10
19.99999999999998
 20
0.0
 11
17.5
 21
0.5000000000000071
 72
     1
 10
17.5
 20
0.5000000000000071
 11
17.49999999999998
 21
-0.4999999999999894
 72
     1
 10
17.49999999999998
 20
-0.4999999999999894
 11
19.99999999999998
 21
0.0
 97
        0
 75
     0
 76
     1
 98
        1
 10
0.0
 20
0.0
450
        0
451
        0
460
0.0
461
0.0
452
        0
462
0.0
453
        0
470

  0
LINE
  5
13F
330
134
100
AcDbEntity
  8
Titel (ISO)
370
    25
100
AcDbLine
 10
-20.0
 20
0.0
 30
0.0
 11
19.99999999999998
 21
0.0
 31
0.0
  0
LINE
  5
140
330
134
100
AcDbEntity
  8
Titel (ISO)
100
AcDbLine
 10
19.99999999999998
 20
0.0
 30
0.0
 11
17.5
 21
0.5000000000000071
 31
0.0
  0
LINE
  5
141
330
134
100
AcDbEntity
  8
Titel (ISO)
100
AcDbLine
 10
17.5
 20
0.5000000000000071
 30
0.0
 11
17.49999999999998
 21
-0.4999999999999894
 31
0.0
  0
LINE
  5
142
330
134
100
AcDbEntity
  8
Titel (ISO)
100
AcDbLine
 10
17.49999999999998
 20
-0.4999999999999894
 30
0.0
 11
19.99999999999998
 21
0.0
 31
0.0
  0
LINE
  5
143
330
134
100
AcDbEntity
  8
Titel (ISO)
100
AcDbLine
 10
-17.50000000000001
 20
0.5000000000000071
 30
0.0
 11
-20.0
 21
0.0
 31
0.0
  0
LINE
  5
144
330
134
100
AcDbEntity
  8
Titel (ISO)
100
AcDbLine
 10
-20.0
 20
0.0
 30
0.0
 11
-17.50000000000001
 21
-0.4999999999999894
 31
0.0
  0
LINE
  5
145
330
134
100
AcDbEntity
  8
Titel (ISO)
100
AcDbLine
 10
-17.50000000000001
 20
-0.4999999999999894
 30
0.0
 11
-17.50000000000001
 21
0.5000000000000071
 31
0.0
  0
MTEXT
  5
146
330
134
100
AcDbEntity
  8
Titel (ISO)
100
AcDbMText
 10
-15.50000000000001
 20
5.0
 30
0.0
 40
3.499999940395355
 41
0.0
 46
0.0
 71
     1
 72
     1
  1
Schliffrichtung
  7
_Schriftfeld_3.5mm
 73
     1
 44
1.0
  0
ENDBLK
  5
136
330
134
100
AcDbEntity
  8
0
100
AcDbBlockEnd
  0
BLOCK
  5
148
330
147
100
AcDbEntity
  8
0
100
AcDbBlockBegin
  2
Schleiffrichtung vertikal
 70
     0
 10
0.0
 20
0.0
 30
0.0
  3
Schleiffrichtung vertikal
  1

  0
HATCH
  5
14D
330
147
100
AcDbEntity
  8
Schraffur (ISO)
100
AcDbHatch
 10
0.0
 20
0.0
 30
0.0
210
0.0
220
0.0
230
1.0
  2
SOLID
 70
     1
 71
     0
 91
        1
 92
        1
 93
        3
 72
     1
 10
0.0
 20
-20.0
 11
0.4999999999999983
 21
-17.5
 72
     1
 10
0.4999999999999983
 20
-17.5
 11
-0.4999999999999983
 21
-17.5
 72
     1
 10
-0.4999999999999983
 20
-17.5
 11
0.0
 21
-20.0
 97
        0
 75
     0
 76
     1
 98
        1
 10
0.0
 20
0.0
450
        0
451
        0
460
0.0
461
0.0
452
        0
462
0.0
453
        0
470

  0
HATCH
  5
151
330
147
100
AcDbEntity
  8
Schraffur (ISO)
100
AcDbHatch
 10
0.0
 20
0.0
 30
0.0
210
0.0
220
0.0
230
1.0
  2
SOLID
 70
     1
 71
     0
 91
        1
 92
        1
 93
        3
 72
     1
 10
0.0
 20
20.0
 11
-0.5000000000000071
 21
17.5
 72
     1
 10
-0.5000000000000071
 20
17.5
 11
0.4999999999999983
 21
17.5
 72
     1
 10
0.4999999999999983
 20
17.5
 11
0.0
 21
20.0
 97
        0
 75
     0
 76
     1
 98
        1
 10
0.0
 20
0.0
450
        0
451
        0
460
0.0
461
0.0
452
        0
462
0.0
453
        0
470

  0
LINE
  5
152
330
147
100
AcDbEntity
  8
Titel (ISO)
370
    25
100
AcDbLine
 10
0.0
 20
-20.0
 30
0.0
 11
0.0
 21
20.0
 31
0.0
  0
LINE
  5
153
330
147
100
AcDbEntity
  8
Titel (ISO)
100
AcDbLine
 10
0.0
 20
20.0
 30
0.0
 11
-0.5000000000000071
 21
17.5
 31
0.0
  0
LINE
  5
154
330
147
100
AcDbEntity
  8
Titel (ISO)
100
AcDbLine
 10
-0.5000000000000071
 20
17.5
 30
0.0
 11
0.4999999999999983
 21
17.5
 31
0.0
  0
LINE
  5
155
330
147
100
AcDbEntity
  8
Titel (ISO)
100
AcDbLine
 10
0.4999999999999983
 20
17.5
 30
0.0
 11
0.0
 21
20.0
 31
0.0
  0
LINE
  5
156
330
147
100
AcDbEntity
  8
Titel (ISO)
100
AcDbLine
 10
-0.4999999999999983
 20
-17.5
 30
0.0
 11
0.0
 21
-20.0
 31
0.0
  0
LINE
  5
157
330
147
100
AcDbEntity
  8
Titel (ISO)
100
AcDbLine
 10
0.0
 20
-20.0
 30
0.0
 11
0.4999999999999983
 21
-17.5
 31
0.0
  0
LINE
  5
158
330
147
100
AcDbEntity
  8
Titel (ISO)
100
AcDbLine
 10
0.4999999999999983
 20
-17.5
 30
0.0
 11
-0.4999999999999983
 21
-17.5
 31
0.0
  0
MTEXT
  5
159
330
147
100
AcDbEntity
  8
Titel (ISO)
100
AcDbMText
 10
-5.0
 20
-15.5
 30
0.0
 40
3.499999940395355
 41
0.0
 46
0.0
 71
     1
 72
     1
  1
Schliffrichtung
  7
_Schriftfeld_3.5mm
 11
0.0000000000000001
 21
1.0
 31
0.0
 73
     1
 44
1.0
  0
ENDBLK
  5
149
330
147
100
AcDbEntity
  8
0
100
AcDbBlockEnd
  0
BLOCK
  5
15B
330
15A
100
AcDbEntity
  8
0
100
AcDbBlockBegin
  2
Stanz-_Laserteil
 70
     0
 10
0.0
 20
0.0
 30
0.0
  3
Stanz-_Laserteil
  1

  0
MTEXT
  5
15D
330
15A
100
AcDbEntity
  8
Titel (ISO)
100
AcDbMText
 10
-49.3854808807373
 20
9.981259405612945
 30
0.0
 40
3.499999940395355
 41
193.6792332340631
 46
0.0
 71
     1
 72
     1
  1
Als Stanzteil konzipiert\PWenn als Laserteil hergestellt, \Pmuss ganze Kontur innerhalb +/- 0.1 mm sein\P
  7
_Schriftfeld_3.5mm
 73
     2
 44
0.9442214965820312
  0
ENDBLK
  5
15C
330
15A
100
AcDbEntity
  8
0
100
AcDbBlockEnd
  0
BLOCK
  5
15F
330
15E
100
AcDbEntity
  8
0
100
AcDbBlockBegin
  2
Stanzrundung_1
 70
     0
 10
0.0
 20
0.0
 30
0.0
  3
Stanzrundung_1
  1

  0
ARC
  5
161
330
15E
100
AcDbEntity
  8
Titel (ISO)
100
AcDbCircle
 10
-2.449972172222221
 20
1.477407396909722
 30
0.0
 40
1.999999999999999
100
AcDbArc
 50
270.0
 51
0.0
  0
LINE
  5
162
330
15E
100
AcDbEntity
  8
Titel (ISO)
100
AcDbLine
 10
-1.049223178106464
 20
0.0498562575512551
 30
0.0
 11
2.449972272222211
 21
-1.477407496909712
 31
0.0
  0
MTEXT
  5
163
330
15E
100
AcDbEntity
  8
Titel (ISO)
100
AcDbMText
 10
3.130367236014626
 20
-0.28633610801851
 30
0.0
 40
3.499999940395355
 41
0.0
 46
0.0
 71
     1
 72
     1
  1
Stanzrundung
  7
_Schriftfeld_3.5mm
 73
     1
 44
1.0
  0
ENDBLK
  5
160
330
15E
100
AcDbEntity
  8
0
100
AcDbBlockEnd
  0
BLOCK
  5
165
330
164
100
AcDbEntity
  8
0
100
AcDbBlockBegin
  2
Stanzrundung_2
 70
     0
 10
0.0
 20
0.0
 30
0.0
  3
Stanzrundung_2
  1

  0
ARC
  5
167
330
164
100
AcDbEntity
  8
Titel (ISO)
100
AcDbCircle
 10
1.855973276181241
 20
1.952432954041682
 30
0.0
 40
1.566421450686395
100
AcDbArc
 50
180.0
 51
270.0
  0
LINE
  5
168
330
164
100
AcDbEntity
  8
Titel (ISO)
100
AcDbLine
 10
-1.855973376181214
 20
-1.952433054041673
 30
0.0
 11
0.7767462473268339
 21
0.8171157378590976
 31
0.0
  0
MTEXT
  5
169
330
164
100
AcDbEntity
  8
Titel (ISO)
100
AcDbMText
 10
-35.05451959893436
 20
-0.5734039390297241
 30
0.0
 40
3.499999940395355
 41
0.0
 46
0.0
 71
     1
 72
     1
  1
Stanzrundung
  7
_Schriftfeld_3.5mm
 73
     1
 44
1.0
  0
ENDBLK
  5
166
330
164
100
AcDbEntity
  8
0
100
AcDbBlockEnd
  0
BLOCK
  5
16B
330
16A
100
AcDbEntity
  8
0
100
AcDbBlockBegin
  2
Verzinkt
 70
     0
 10
0.0
 20
0.0
 30
0.0
  3
Verzinkt
  1

  0
MTEXT
  5
16D
330
16A
100
AcDbEntity
  8
Titel (ISO)
100
AcDbMText
 10
-39.09356117248537
 20
2.242187596857547
 30
0.0
 40
3.499999940395355
 41
0.0
 46
0.0
 71
     1
 72
     1
  1
verzinkt und blau passiviert 5µ...12µ
  7
_Schriftfeld_3.5mm
 73
     1
 44
1.0
  0
ENDBLK
  5
16C
330
16A
100
AcDbEntity
  8
0
100
AcDbBlockEnd
  0
BLOCK
  5
16F
330
16E
100
AcDbEntity
  8
0
100
AcDbBlockBegin
  2
Vierkant-Tabelle
 70
     0
 10
0.0
 20
0.0
 30
0.0
  3
Vierkant-Tabelle
  1

  0
LINE
  5
171
330
16E
100
AcDbEntity
  8
Titel (ISO)
 62
     7
100
AcDbLine
 10
-33.99999999999998
 20
-24.00000000000006
 30
0.0
 11
33.99999999999999
 21
-23.99999999999999
 31
0.0
  0
LINE
  5
172
330
16E
100
AcDbEntity
  8
Titel (ISO)
 62
     7
100
AcDbLine
 10
-33.99999999999999
 20
0.0
 30
0.0
 11
33.99999999999999
 21
0.0
 31
0.0
  0
LINE
  5
173
330
16E
100
AcDbEntity
  8
Titel (ISO)
 62
     7
100
AcDbLine
 10
-33.99999999999999
 20
23.99999999999999
 30
0.0
 11
33.99999999999999
 21
24.00000000000006
 31
0.0
  0
LINE
  5
174
330
16E
100
AcDbEntity
  8
Titel (ISO)
 62
     7
100
AcDbLine
 10
-33.99999999999999
 20
15.99999999999998
 30
0.0
 11
34.0
 21
16.00000000000005
 31
0.0
  0
LINE
  5
175
330
16E
100
AcDbEntity
  8
Titel (ISO)
 62
     7
100
AcDbLine
 10
-33.99999999999999
 20
7.999999999999971
 30
0.0
 11
34.0
 21
8.000000000000042
 31
0.0
  0
LINE
  5
176
330
16E
100
AcDbEntity
  8
Titel (ISO)
 62
     7
100
AcDbLine
 10
-33.99999999999999
 20
-8.000000000000042
 30
0.0
 11
33.99999999999999
 21
-7.999999999999971
 31
0.0
  0
LINE
  5
177
330
16E
100
AcDbEntity
  8
Titel (ISO)
 62
     7
100
AcDbLine
 10
-33.99999999999999
 20
-16.00000000000005
 30
0.0
 11
33.99999999999999
 21
-15.99999999999998
 31
0.0
  0
LINE
  5
178
330
16E
100
AcDbEntity
  8
Titel (ISO)
 62
     7
100
AcDbLine
 10
-25.99999999999997
 20
-24.00000000000006
 30
0.0
 11
-26.0
 21
23.99999999999999
 31
0.0
  0
LINE
  5
179
330
16E
100
AcDbEntity
  8
Titel (ISO)
 62
     7
100
AcDbLine
 10
-33.99999999999998
 20
-24.00000000000006
 30
0.0
 11
-33.99999999999999
 21
23.99999999999999
 31
0.0
  0
LINE
  5
17A
330
16E
100
AcDbEntity
  8
Titel (ISO)
 62
     7
100
AcDbLine
 10
-5.999999999999969
 20
-24.00000000000002
 30
0.0
 11
-5.999999999999996
 21
24.00000000000002
 31
0.0
  0
LINE
  5
17B
330
16E
100
AcDbEntity
  8
Titel (ISO)
 62
     7
100
AcDbLine
 10
13.99999999999999
 20
-24.00000000000002
 30
0.0
 11
14.0
 21
24.00000000000002
 31
0.0
  0
LINE
  5
17C
330
16E
100
AcDbEntity
  8
Titel (ISO)
 62
     7
100
AcDbLine
 10
33.99999999999999
 20
-23.99999999999999
 30
0.0
 11
33.99999999999999
 21
24.00000000000006
 31
0.0
  0
MTEXT
  5
17D
330
16E
100
AcDbEntity
  8
Titel (ISO)
100
AcDbMText
 10
-31.0
 20
-9.999999850988423
 30
0.0
 40
2.5
 41
0.0
 46
0.0
 71
     1
 72
     1
  1
\fArial|b0|i0;\W0.60;\H2.5000;4
  7
_Schriftfeld_3.5mm
 73
     1
 44
1.0
  0
MTEXT
  5
17E
330
16E
100
AcDbEntity
  8
Titel (ISO)
100
AcDbMText
 10
-31.0
 20
5.999999999999978
 30
0.0
 40
2.5
 41
0.0
 46
0.0
 71
     1
 72
     1
  1
\fArial|b0|i0;\W0.60;\H2.5000;2
  7
_Schriftfeld_3.5mm
 73
     1
 44
1.0
  0
MTEXT
  5
17F
330
16E
100
AcDbEntity
  8
Titel (ISO)
100
AcDbMText
 10
-31.42346487563099
 20
21.00000014901159
 30
0.0
 40
2.5
 41
0.0
 46
0.0
 71
     1
 72
     1
  1
\fArial|b0|i0;\W0.65;\H2.5000;Pos.
  7
_Schriftfeld_3.5mm
 73
     1
 44
1.0
  0
MTEXT
  5
180
330
16E
100
AcDbEntity
  8
Titel (ISO)
100
AcDbMText
 10
-31.0
 20
13.99999999999998
 30
0.0
 40
2.5
 41
0.0
 46
0.0
 71
     1
 72
     1
  1
\fArial|b0|i0;\W0.60;\H2.5000;1
  7
_Schriftfeld_3.5mm
 73
     1
 44
1.0
  0
MTEXT
  5
181
330
16E
100
AcDbEntity
  8
Titel (ISO)
100
AcDbMText
 10
-0.9999999999999964
 20
-18.00000000000004
 30
0.0
 40
2.5
 41
0.0
 46
0.0
 71
     1
 72
     1
  1
\fArial|b0|i0;\W0.88;\H2.5000;4kt. 10
  7
_Schriftfeld_3.5mm
 73
     1
 44
1.0
  0
MTEXT
  5
182
330
16E
100
AcDbEntity
  8
Titel (ISO)
100
AcDbMText
 10
-21.0
 20
-18.00000000000004
 30
0.0
 40
2.5
 41
0.0
 46
0.0
 71
     1
 72
     1
  1
\fAIGDT|b0|i0;\W0.65;\H2.5000;n\fArial|b0|i0;\W0.65;\H2.5000; 11.5
  7
_Schriftfeld_3.5mm
 73
     1
 44
1.0
  0
MTEXT
  5
183
330
16E
100
AcDbEntity
  8
Titel (ISO)
100
AcDbMText
 10
19.0
 20
-18.00000000000004
 30
0.0
 40
2.5
 41
0.0
 46
0.0
 71
     1
 72
     1
  1
\fArial|b0|i0;\W0.88;\H2.5000;13.6
  7
_Schriftfeld_3.5mm
 73
     1
 44
1.0
  0
MTEXT
  5
184
330
16E
100
AcDbEntity
  8
Titel (ISO)
100
AcDbMText
 10
-3.999999999999994
 20
21.00000014901159
 30
0.0
 40
2.5
 41
0.0
 46
0.0
 71
     1
 72
     1
  1
\fArial|b0|i0;\W0.78;\H2.5000;Mass B
  7
_Schriftfeld_3.5mm
 73
     1
 44
1.0
  0
MTEXT
  5
185
330
16E
100
AcDbEntity
  8
Titel (ISO)
100
AcDbMText
 10
-0.9999999999999964
 20
5.999999999999978
 30
0.0
 40
2.5
 41
0.0
 46
0.0
 71
     1
 72
     1
  1
\fArial|b0|i0;\W0.90;\H2.5000;4kt.  8
  7
_Schriftfeld_3.5mm
 73
     1
 44
1.0
  0
MTEXT
  5
186
330
16E
100
AcDbEntity
  8
Titel (ISO)
100
AcDbMText
 10
-0.9999999999999964
 20
-2.000000000000028
 30
0.0
 40
2.5
 41
0.0
 46
0.0
 71
     1
 72
     1
  1
\fArial|b0|i0;\W0.83;\H2.5000;4kt. 8.5
  7
_Schriftfeld_3.5mm
 73
     1
 44
1.0
  0
MTEXT
  5
187
330
16E
100
AcDbEntity
  8
Titel (ISO)
100
AcDbMText
 10
-0.9999999999999964
 20
14.00000014901159
 30
0.0
 40
2.5
 41
0.0
 46
0.0
 71
     1
 72
     1
  1
\fArial|b0|i0;\W0.90;\H2.5000;4kt.  7
  7
_Schriftfeld_3.5mm
 73
     1
 44
1.0
  0
MTEXT
  5
188
330
16E
100
AcDbEntity
  8
Titel (ISO)
100
AcDbMText
 10
-0.9999999999999964
 20
-10.00000000000003
 30
0.0
 40
2.5
 41
0.0
 46
0.0
 71
     1
 72
     1
  1
\fArial|b0|i0;\W0.90;\H2.5000;4kt.  9
  7
_Schriftfeld_3.5mm
 73
     1
 44
1.0
  0
MTEXT
  5
189
330
16E
100
AcDbEntity
  8
Titel (ISO)
100
AcDbMText
 10
-21.0
 20
-2.000000000000028
 30
0.0
 40
2.5
 41
0.0
 46
0.0
 71
     1
 72
     1
  1
\fAIGDT|b0|i0;\W0.76;\H2.5000;n\fArial|b0|i0;\W0.76;\H2.5000; 10.5
  7
_Schriftfeld_3.5mm
 73
     1
 44
1.0
  0
MTEXT
  5
18A
330
16E
100
AcDbEntity
  8
Titel (ISO)
100
AcDbMText
 10
-21.0
 20
5.999999999999978
 30
0.0
 40
2.5
 41
0.0
 46
0.0
 71
     1
 72
     1
  1
\fAIGDT|b0|i0;\W0.73;\H2.5000;n\fArial|b0|i0;\W0.73;\H2.5000; 10
  7
_Schriftfeld_3.5mm
 73
     1
 44
1.0
  0
MTEXT
  5
18B
330
16E
100
AcDbEntity
  8
Titel (ISO)
100
AcDbMText
 10
-21.0
 20
-10.00000000000003
 30
0.0
 40
2.5
 41
0.0
 46
0.0
 71
     1
 72
     1
  1
\fAIGDT|b0|i0;\W0.69;\H2.5000;n\fArial|b0|i0;\W0.69;\H2.5000; 11
  7
_Schriftfeld_3.5mm
 73
     1
 44
1.0
  0
MTEXT
  5
18C
330
16E
100
AcDbEntity
  8
Titel (ISO)
100
AcDbMText
 10
-21.0
 20
13.99999999999998
 30
0.0
 40
2.5
 41
0.0
 46
0.0
 71
     1
 72
     1
  1
\fAIGDT|b0|i0;\W0.84;\H2.5000;n\fArial|b0|i0;\W0.84;\H2.5000; 8
  7
_Schriftfeld_3.5mm
 73
     1
 44
1.0
  0
MTEXT
  5
18D
330
16E
100
AcDbEntity
  8
Titel (ISO)
100
AcDbMText
 10
-22.02576666302079
 20
21.00000014901159
 30
0.0
 40
2.5
 41
0.0
 46
0.0
 71
     1
 72
     1
  1
\fArial|b0|i0;\W0.79;\H2.5000;Mass A
  7
_Schriftfeld_3.5mm
 73
     1
 44
1.0
  0
MTEXT
  5
18E
330
16E
100
AcDbEntity
  8
Titel (ISO)
100
AcDbMText
 10
-31.0
 20
-17.96760666370396
 30
0.0
 40
2.5
 41
0.0
 46
0.0
 71
     1
 72
     1
  1
\fArial|b0|i0;\W0.56;\H2.5000;5
  7
_Schriftfeld_3.5mm
 73
     1
 44
1.0
  0
MTEXT
  5
18F
330
16E
100
AcDbEntity
  8
Titel (ISO)
100
AcDbMText
 10
19.0
 20
-2.000000000000028
 30
0.0
 40
2.5
 41
0.0
 46
0.0
 71
     1
 72
     1
  1
\fArial|b0|i0;\W0.83;\H2.5000;12
  7
_Schriftfeld_3.5mm
 73
     1
 44
1.0
  0
MTEXT
  5
190
330
16E
100
AcDbEntity
  8
Titel (ISO)
100
AcDbMText
 10
19.0
 20
5.999999999999978
 30
0.0
 40
2.5
 41
0.0
 46
0.0
 71
     1
 72
     1
  1
\fArial|b0|i0;\W0.90;\H2.5000;11.3
  7
_Schriftfeld_3.5mm
 73
     1
 44
1.0
  0
MTEXT
  5
191
330
16E
100
AcDbEntity
  8
Titel (ISO)
100
AcDbMText
 10
16.0
 20
20.99999999999998
 30
0.0
 40
2.5
 41
0.0
 46
0.0
 71
     1
 72
     1
  1
\fArial|b0|i0;\W0.78;\H2.5000;Mass C
  7
_Schriftfeld_3.5mm
 73
     1
 44
1.0
  0
MTEXT
  5
192
330
16E
100
AcDbEntity
  8
Titel (ISO)
100
AcDbMText
 10
19.0
 20
-10.00000000000003
 30
0.0
 40
2.5
 41
0.0
 46
0.0
 71
     1
 72
     1
  1
\fArial|b0|i0;\W0.90;\H2.5000;12.7
  7
_Schriftfeld_3.5mm
 73
     1
 44
1.0
  0
MTEXT
  5
193
330
16E
100
AcDbEntity
  8
Titel (ISO)
100
AcDbMText
 10
19.0
 20
13.99999999999998
 30
0.0
 40
2.5
 41
0.0
 46
0.0
 71
     1
 72
     1
  1
\fArial|b0|i0;\W0.90;\H2.5000;10
  7
_Schriftfeld_3.5mm
 73
     1
 44
1.0
  0
MTEXT
  5
194
330
16E
100
AcDbEntity
  8
Titel (ISO)
100
AcDbMText
 10
7.52309499999999
 20
23.50279363516371
 30
0.0
 40
2.5
 41
0.0
 46
0.0
 71
     1
 72
     1
  1
\fArial|b0|i0;\W0.68;\H2.5000;+0.05
  7
_Schriftfeld_3.5mm
 73
     1
 44
1.0
  0
MTEXT
  5
195
330
16E
100
AcDbEntity
  8
Titel (ISO)
100
AcDbMText
 10
28.821548797772
 20
20.00279363516373
 30
0.0
 40
2.5
 41
0.0
 46
0.0
 71
     1
 72
     1
  1
\fArial|b0|i0;\W0.63;\H2.5000;0
  7
_Schriftfeld_3.5mm
 73
     1
 44
1.0
  0
MTEXT
  5
196
330
16E
100
AcDbEntity
  8
Titel (ISO)
100
AcDbMText
 10
27.523095
 20
23.50279363516371
 30
0.0
 40
2.5
 41
0.0
 46
0.0
 71
     1
 72
     1
  1
\fArial|b0|i0;\W0.68;\H2.5000;+0.2
  7
_Schriftfeld_3.5mm
 73
     1
 44
1.0
  0
MTEXT
  5
197
330
16E
100
AcDbEntity
  8
Titel (ISO)
100
AcDbMText
 10
-31.0
 20
-2.000000000000028
 30
0.0
 40
2.5
 41
0.0
 46
0.0
 71
     1
 72
     1
  1
\fArial|b0|i0;\W0.60;\H2.5000;3
  7
_Schriftfeld_3.5mm
 73
     1
 44
1.0
  0
MTEXT
  5
198
330
16E
100
AcDbEntity
  8
Titel (ISO)
100
AcDbMText
 10
7.52309499999999
 20
20.00279363516373
 30
0.0
 40
2.5
 41
0.0
 46
0.0
 71
     1
 72
     1
  1
\fArial|b0|i0;\W0.63;\H2.5000;+0.01
  7
_Schriftfeld_3.5mm
 73
     1
 44
1.0
  0
ENDBLK
  5
170
330
16E
100
AcDbEntity
  8
0
100
AcDbBlockEnd
  0
BLOCK
  5
19A
330
199
100
AcDbEntity
  8
0
100
AcDbBlockBegin
  2
Laserpunkt_Text
 70
     0
 10
0.0
 20
0.0
 30
0.0
  3
Laserpunkt_Text
  1

  0
CIRCLE
  5
19C
330
199
100
AcDbEntity
  8
Skizziergeometrie(DIN)
370
    70
100
AcDbCircle
 10
3.715998998176779
 20
2.6456025353386
 30
0.0
 40
2.250000000000003
  0
LINE
  5
19D
330
199
100
AcDbEntity
  8
Skizziergeometrie(DIN)
370
    70
100
AcDbLine
 10
6.014096037033063
 20
0.3475054964822988
 30
0.0
 11
1.417901959320495
 21
4.943699574194866
 31
0.0
  0
LINE
  5
19E
330
199
100
AcDbEntity
  8
Skizziergeometrie(DIN)
370
    70
100
AcDbLine
 10
1.417901959320513
 20
0.3475054964822988
 30
0.0
 11
6.01409603703308
 21
4.943699574194866
 31
0.0
  0
MTEXT
  5
19F
330
199
100
AcDbEntity
  8
Symbole(DIN)
 62
   179
420
  2500185
100
AcDbMText
 10
0.0
 20
-0.1396086563666721
 30
0.0
 40
3.499999940395355
 41
0.0
 46
0.0
 71
     7
 72
     1
  1
Kontur gelasert nach DXF-File\P      = Anfang/Ende Laserkontur 
  7
Aktuell-DIN
 73
     2
 44
0.9442214965820312
  0
ENDBLK
  5
19B
330
199
100
AcDbEntity
  8
0
100
AcDbBlockEnd
  0
BLOCK
  5
1A1
330
1A0
100
AcDbEntity
  8
0
100
AcDbBlockBegin
  2
Laserpunkt
 70
     0
 10
0.0
 20
0.0
 30
0.0
  3
Laserpunkt
  1

  0
CIRCLE
  5
1A3
330
1A0
100
AcDbEntity
  8
Skizziergeometrie(DIN)
370
    70
100
AcDbCircle
 10
0.0
 20
0.0
 30
0.0
 40
2.250000000000003
  0
LINE
  5
1A4
330
1A0
100
AcDbEntity
  8
Skizziergeometrie(DIN)
370
    70
100
AcDbLine
 10
2.298097038856283
 20
-2.298097038856301
 30
0.0
 11
-2.298097038856283
 21
2.298097038856266
 31
0.0
  0
LINE
  5
1A5
330
1A0
100
AcDbEntity
  8
Skizziergeometrie(DIN)
370
    70
100
AcDbLine
 10
-2.298097038856266
 20
-2.298097038856301
 30
0.0
 11
2.298097038856301
 21
2.298097038856266
 31
0.0
  0
ENDBLK
  5
1A2
330
1A0
100
AcDbEntity
  8
0
100
AcDbBlockEnd
  0
BLOCK
  5
1A7
330
1A6
100
AcDbEntity
  8
0
100
AcDbBlockBegin
  2
Kantenbruch
 70
     2
 10
0.0
 20
0.0
 30
0.0
  3
Kantenbruch
  1

  0
HATCH
  5
1AC
330
1A6
100
AcDbEntity
  8
Schraffur
100
AcDbHatch
 10
0.0
 20
0.0
 30
0.0
210
0.0
220
0.0
230
1.0
  2
SOLID
 70
     1
 71
     0
 91
        1
 92
        1
 93
        3
 72
     1
 10
2.5510451034053
 20
2.440182479852524
 11
0.0
 21
0.0
 72
     1
 10
0.0
 20
0.0
 11
1.832554653580373
 21
3.017294333708306
 72
     1
 10
1.832554653580373
 20
3.017294333708306
 11
2.5510451034053
 21
2.440182479852524
 97
        0
 75
     0
 76
     1
 98
        1
 10
0.0
 20
0.0
450
        0
451
        0
460
0.0
461
0.0
452
        0
462
0.0
453
        0
470

  0
HATCH
  5
1B0
330
1A6
100
AcDbEntity
  8
Schraffur
100
AcDbHatch
 10
0.0
 20
0.0
 30
0.0
210
0.0
220
0.0
230
1.0
  2
SOLID
 70
     1
 71
     0
 91
        1
 92
        1
 93
        3
 72
     1
 10
23.39589716406273
 20
3.017294333708662
 11
21.56334251048213
 21
0.0
 72
     1
 10
21.56334251048213
 20
0.0
 11
24.11438761388769
 21
2.440182479852808
 72
     1
 10
24.11438761388769
 20
2.440182479852808
 11
23.39589716406273
 21
3.017294333708662
 97
        0
 75
     0
 76
     1
 98
        1
 10
0.0
 20
0.0
450
        0
451
        0
460
0.0
461
0.0
452
        0
462
0.0
453
        0
470

  0
LINE
  5
1B1
330
1A6
100
AcDbEntity
  8
AM_5
  6
Continuous
 62
     7
100
AcDbLine
 10
14.41413346606271
 20
6.58900972675962
 30
0.0
 11
5.486542746190785
 21
6.58900972675962
 31
0.0
  0
LINE
  5
1B2
330
1A6
100
AcDbEntity
  8
AM_5
  6
Continuous
 62
     7
100
AcDbLine
 10
6.021339289383167
 20
7.425192947268968
 30
0.0
 11
10.92133928938317
 21
7.425192947268968
 31
0.0
  0
LINE
  5
1B3
330
1A6
100
AcDbEntity
  8
AM_5
  6
Continuous
 62
     7
100
AcDbLine
 10
6.021339289383167
 20
12.32519294726897
 30
0.0
 11
6.021339289383167
 21
7.425192947268968
 31
0.0
  0
LINE
  5
1B4
330
1A6
100
AcDbEntity
  8
AM_5
  6
Continuous
 62
     7
100
AcDbLine
 10
27.49096644559973
 20
12.32519294726897
 30
0.0
 11
27.49096644559973
 21
7.425192947268968
 31
0.0
  0
LINE
  5
1B5
330
1A6
100
AcDbEntity
  8
AM_5
  6
Continuous
 62
     7
100
AcDbLine
 10
2.5510451034053
 20
2.440182479852559
 30
0.0
 11
1.832554653580373
 21
3.017294333708306
 31
0.0
  0
LINE
  5
1B6
330
1A6
100
AcDbEntity
  8
AM_5
 62
     7
100
AcDbLine
 10
5.486542746190785
 20
6.58900972675962
 30
0.0
 11
2.259523567491452
 21
2.674322428928999
 31
0.0
  0
LINE
  5
1B7
330
1A6
100
AcDbEntity
  8
AM_5
  6
Continuous
 62
     7
100
AcDbLine
 10
0.0
 20
0.0
 30
0.0
 11
2.5510451034053
 21
2.440182479852524
 31
0.0
  0
LINE
  5
1B8
330
1A6
100
AcDbEntity
  8
AM_5
  6
Continuous
 62
     7
100
AcDbLine
 10
21.56334251048156
 20
0.0
 30
0.0
 11
24.11438761388769
 21
2.440182479852808
 31
0.0
  0
LINE
  5
1B9
330
1A6
100
AcDbEntity
  8
Skizziergeometrie(DIN)
100
AcDbLine
 10
2.5510451034053
 20
2.440182479852524
 30
0.0
 11
1.832554653580373
 21
3.017294333708306
 31
0.0
  0
LINE
  5
1BA
330
1A6
100
AcDbEntity
  8
AM_5
  6
Continuous
 62
     7
100
AcDbLine
 10
1.832554653580373
 20
3.017294333708306
 30
0.0
 11
0.0
 21
0.0
 31
0.0
  0
LINE
  5
1BB
330
1A6
100
AcDbEntity
  8
Skizziergeometrie(DIN)
100
AcDbLine
 10
1.832554653580373
 20
3.017294333708306
 30
0.0
 11
0.0
 21
0.0
 31
0.0
  0
LINE
  5
1BC
330
1A6
100
AcDbEntity
  8
Skizziergeometrie(DIN)
100
AcDbLine
 10
0.0
 20
0.0
 30
0.0
 11
2.5510451034053
 21
2.440182479852524
 31
0.0
  0
LINE
  5
1BD
330
1A6
100
AcDbEntity
  8
AM_0
370
    25
100
AcDbLine
 10
0.0
 20
0.0
 30
0.0
 11
-8.000000000000007
 21
0.0
 31
0.0
  0
LINE
  5
1BE
330
1A6
100
AcDbEntity
  8
Skizziergeometrie(DIN)
370
    25
100
AcDbLine
 10
0.0
 20
0.0
 30
0.0
 11
0.0
 21
-7.999999999999998
 31
0.0
  0
LINE
  5
1BF
330
1A6
100
AcDbEntity
  8
Skizziergeometrie(DIN)
100
AcDbLine
 10
24.11438761388769
 20
2.440182479852808
 30
0.0
 11
21.56334251048213
 21
0.0
 31
0.0
  0
LINE
  5
1C0
330
1A6
100
AcDbEntity
  8
AM_5
  6
Continuous
 62
     7
100
AcDbLine
 10
27.49096644559973
 20
7.425192947268968
 30
0.0
 11
32.39096644559975
 21
7.425192947268968
 31
0.0
  0
LINE
  5
1C1
330
1A6
100
AcDbEntity
  8
AM_5
  6
Continuous
 62
     7
100
AcDbLine
 10
35.8837606222793
 20
6.58900972675962
 30
0.0
 11
26.95616990240735
 21
6.58900972675962
 31
0.0
  0
LINE
  5
1C2
330
1A6
100
AcDbEntity
  8
AM_5
  6
Continuous
 62
     7
100
AcDbLine
 10
26.95616990240735
 20
6.58900972675962
 30
0.0
 11
23.70310776989253
 21
2.640671625589323
 31
0.0
  0
LINE
  5
1C3
330
1A6
100
AcDbEntity
  8
Skizziergeometrie(DIN)
100
AcDbLine
 10
23.39589716406273
 20
3.017294333708662
 30
0.0
 11
24.11438761388769
 21
2.440182479852808
 31
0.0
  0
LINE
  5
1C4
330
1A6
100
AcDbEntity
  8
AM_5
  6
Continuous
 62
     7
100
AcDbLine
 10
24.11438761388677
 20
2.309315017511792
 30
0.0
 11
23.39589716406191
 21
2.88642687136754
 31
0.0
  0
LINE
  5
1C5
330
1A6
100
AcDbEntity
  8
AM_0
370
    25
100
AcDbLine
 10
21.56334251048213
 20
7.999999999999989
 30
0.0
 11
21.56334251048213
 21
0.0
 31
0.0
  0
LINE
  5
1C6
330
1A6
100
AcDbEntity
  8
AM_5
  6
Continuous
 62
     7
100
AcDbLine
 10
23.39589716406273
 20
3.017294333708662
 30
0.0
 11
21.56334251048213
 21
0.0
 31
0.0
  0
LINE
  5
1C7
330
1A6
100
AcDbEntity
  8
Skizziergeometrie(DIN)
100
AcDbLine
 10
21.56334251048213
 20
0.0
 30
0.0
 11
23.39589716406273
 21
3.017294333708662
 31
0.0
  0
LINE
  5
1C8
330
1A6
100
AcDbEntity
  8
AM_0
370
    25
100
AcDbLine
 10
21.56334251048145
 20
0.0
 30
0.0
 11
29.56334251048146
 21
0.0
 31
0.0
  0
ATTDEF
  5
1CA
102
{ACAD_XDICTIONARY
360
144D
102
}
330
1A6
100
AcDbEntity
  8
AM_5
 62
     7
100
AcDbText
 10
27.71846645364636
 20
13.12519300687363
 30
0.0
 40
3.499999940395355
  1
-1
 41
0.9
  7
Textstil122
100
AcDbAttributeDefinition
280
     0
  3
Innenkante obere Grenze
  2
Innenkante_obere_Grenze_001
 70
     0
280
     0
  0
ATTDEF
  5
1CD
102
{ACAD_XDICTIONARY
360
1450
102
}
330
1A6
100
AcDbEntity
  8
AM_5
 62
     7
100
AcDbText
 10
27.71846645364636
 20
8.124504030507409
 30
0.0
 40
3.499999940395355
  1
-0.25
 41
0.9
  7
Textstil122
100
AcDbAttributeDefinition
280
     0
  3
Innenkante untere Grenze
  2
Innenkante_untere_Grenze_001
 70
     0
280
     0
  0
ATTDEF
  5
1CE
102
{ACAD_XDICTIONARY
360
1453
102
}
330
1A6
100
AcDbEntity
  8
AM_5
 62
     7
100
AcDbText
 10
6.248839297429797
 20
13.12519300687363
 30
0.0
 40
3.499999940395355
  1
+0.3
 41
0.9
  7
Textstil122
100
AcDbAttributeDefinition
280
     0
  3
Aussenkante obere Grenze
  2
Aussenkante_obere_Grenze_001
 70
     0
280
     0
  0
ATTDEF
  5
1CF
102
{ACAD_XDICTIONARY
360
1456
102
}
330
1A6
100
AcDbEntity
  8
AM_5
 62
     7
100
AcDbText
 10
6.248839297429797
 20
8.125193006873629
 30
0.0
 40
3.499999940395355
  1
+0.1
 41
0.9
  7
Textstil122
100
AcDbAttributeDefinition
280
     0
  3
Aussenkante untere Grenze
  2
Aussenkante_untere_Grenze_001
 70
     0
280
     0
  0
ENDBLK
  5
1A8
330
1A6
100
AcDbEntity
  8
0
100
AcDbBlockEnd
  0
BLOCK
  5
1D1
330
1D0
100
AcDbEntity
  8
0
100
AcDbBlockBegin
  2
Messingguss Schwundmass
 70
     2
 10
0.0
 20
0.0
 30
0.0
  3
Messingguss Schwundmass
  1

  0
ATTDEF
  5
1D3
102
{ACAD_XDICTIONARY
360
1459
102
}
330
1D0
100
AcDbEntity
  8
Symbole(DIN)
 62
   179
420
  2500185
100
AcDbText
 10
-14.04201717057582
 20
-1.257160614173147
 30
0.0
 40
3.499999940395355
  1
2
  7
Aktuell-DIN
100
AcDbAttributeDefinition
280
     0
  3
<Eingabeaufforderung für Feld eingeben>
  2
<Eingabeaufforderung_für_Feld_eingeben>_001
 70
     0
280
     0
  0
MTEXT
  5
1D5
330
1D0
100
AcDbEntity
  8
Symbole(DIN)
 62
   179
420
  2500185
100
AcDbMText
 10
-76.86914739129806
 20
2.32858300878215
 30
0.0
 40
3.499999940395355
 41
86.62008500137687
 46
0.0
 71
     1
 72
     1
  1
Messingguss Schwundmass:
  7
Aktuell-DIN
 73
     1
 44
1.0
  0
MTEXT
  5
1D6
330
1D0
100
AcDbEntity
  8
Symbole(DIN)
 62
   179
420
  2500185
100
AcDbMText
 10
-11.34943118870978
 20
2.308564215532573
 30
0.0
 40
3.499999940395355
 41
23.36226358958298
 46
0.0
 71
     1
 72
     1
  1
%
  7
Aktuell-DIN
 73
     1
 44
1.0
  0
ENDBLK
  5
1D2
330
1D0
100
AcDbEntity
  8
0
100
AcDbBlockEnd
  0
BLOCK
  5
1D8
330
1D7
100
AcDbEntity
  8
0
100
AcDbBlockBegin
  2
Messingguss Information
 70
     0
 10
0.0
 20
0.0
 30
0.0
  3
Messingguss Information
  1

  0
MTEXT
  5
1DA
330
1D7
100
AcDbEntity
  8
Symbole(DIN)
 62
   179
420
  2500185
100
AcDbMText
 10
0.0
 20
-0.0613567233085632
 30
0.0
 40
3.499999940395355
 41
101.316102098027
 46
0.0
 71
     1
 72
     1
  1
Alle Abmasse müssen nach dem Schwund der vorgegebenen Toleranz entsprechen. Sollte der vom Entwicklungsbüro vorgesehene Schwund nicht zum gewünschten Resultat führen, ist Rücksprache zu halten.
  7
Aktuell-DIN
 73
     2
 44
0.9442214965820312
  0
ENDBLK
  5
1D9
330
1D7
100
AcDbEntity
  8
0
100
AcDbBlockEnd
  0
BLOCK
  5
2C5
330
2C4
100
AcDbEntity
  8
0
100
AcDbBlockBegin
  2
*D18
 70
     1
 10
0.0
 20
0.0
 30
0.0
  3
*D18
  1

  0
LINE
  5
3B6
330
2C4
100
AcDbEntity
  8
Bemaßungen(DIN)
  6
Continuous
 62
     7
440
 16777216
370
    25
100
AcDbLine
 10
244.2788145253114
 20
427.3063456388172
 30
0.0
 11
244.2788145253114
 21
467.7098541407999
 31
0.0
  0
LINE
  5
3B7
330
2C4
100
AcDbEntity
  8
Bemaßungen(DIN)
  6
Continuous
 62
     7
440
 16777216
370
    25
100
AcDbLine
 10
235.7788145253115
 20
441.3598541407999
 30
0.0
 11
235.7788145253115
 21
467.7098541407999
 31
0.0
  0
LINE
  5
3B8
330
2C4
100
AcDbEntity
  8
Bemaßungen(DIN)
  6
Continuous
 62
     7
440
 16777216
370
    25
100
AcDbLine
 10
249.2788145253114
 20
461.3598541407999
 30
0.0
 11
254.2788145253114
 21
461.3598541407999
 31
0.0
  0
LINE
  5
3B9
330
2C4
100
AcDbEntity
  8
Bemaßungen(DIN)
  6
Continuous
 62
     7
440
 16777216
370
    25
100
AcDbLine
 10
230.7788145253114
 20
461.3598541407999
 30
0.0
 11
225.7788145253114
 21
461.3598541407999
 31
0.0
  0
LINE
  5
3BA
330
2C4
100
AcDbEntity
  8
Bemaßungen(DIN)
  6
Continuous
 62
     7
440
 16777216
370
    25
100
AcDbLine
 10
244.2788145253114
 20
461.3598541407999
 30
0.0
 11
235.7788145253115
 21
461.3598541407999
 31
0.0
  0
SOLID
  5
3BB
330
2C4
100
AcDbEntity
  8
Bemaßungen(DIN)
  6
Continuous
 62
     7
440
 16777216
100
AcDbTrace
 10
249.2788145253114
 20
462.1931874741332
 30
0.0
 11
249.2788145253114
 21
460.5265208074666
 31
0.0
 12
244.2788145253114
 22
461.3598541407999
 32
0.0
 13
244.2788145253114
 23
461.3598541407999
 33
0.0
  0
SOLID
  5
3BC
330
2C4
100
AcDbEntity
  8
Bemaßungen(DIN)
  6
Continuous
 62
     7
440
 16777216
100
AcDbTrace
 10
230.7788145253114
 20
462.1931874741332
 30
0.0
 11
230.7788145253114
 21
460.5265208074666
 31
0.0
 12
235.7788145253115
 22
461.3598541407999
 32
0.0
 13
235.7788145253115
 23
461.3598541407999
 33
0.0
  0
MTEXT
  5
3BD
330
2C4
100
AcDbEntity
  8
Bemaßungen(DIN)
  6
Continuous
 62
   250
420
  4144959
440
 16777216
370
    25
100
AcDbMText
 10
233.6256766981358
 20
470.1078760105105
 30
0.0
 40
7.0
 41
0.0
 46
0.0
 71
     1
 72
     1
  1
\A1;8.5
  7
STANDARD-DIN~0
 73
     1
 44
1.0
  0
POINT
  5
3BE
330
2C4
100
AcDbEntity
  8
Defpoints
  6
Continuous
 62
     0
440
 16777216
100
AcDbPoint
 10
244.2788145253114
 20
427.3063456388172
 30
0.0
  0
POINT
  5
3BF
330
2C4
100
AcDbEntity
  8
Defpoints
  6
Continuous
 62
     0
440
 16777216
100
AcDbPoint
 10
235.7788145253115
 20
441.3598541407999
 30
0.0
  0
POINT
  5
3C0
330
2C4
100
AcDbEntity
  8
Defpoints
  6
Continuous
 62
     0
440
 16777216
100
AcDbPoint
 10
235.7788145253115
 20
461.3598541407999
 30
0.0
  0
ENDBLK
  5
2C6
330
2C4
100
AcDbEntity
  8
0
100
AcDbBlockEnd
  0
BLOCK
  5
3C3
330
3C2
100
AcDbEntity
  8
0
100
AcDbBlockBegin
  2
*D19
 70
     1
 10
0.0
 20
0.0
 30
0.0
  3
*D19
  1

  0
LINE
  5
4A0
330
3C2
100
AcDbEntity
  8
Bemaßungen(DIN)
  6
Continuous
 62
     7
440
 16777216
370
    25
100
AcDbLine
 10
254.0288145253114
 20
417.5563456388172
 30
0.0
 11
288.0326836123706
 21
417.5563456388172
 31
0.0
  0
LINE
  5
4A1
330
3C2
100
AcDbEntity
  8
Bemaßungen(DIN)
  6
Continuous
 62
     7
440
 16777216
370
    25
100
AcDbLine
 10
238.2788145253103
 20
441.5563073637701
 30
0.0
 11
288.0326836123706
 21
441.5563073637701
 31
0.0
  0
LINE
  5
4A2
330
3C2
100
AcDbEntity
  8
Bemaßungen(DIN)
  6
Continuous
 62
     7
440
 16777216
370
    25
100
AcDbLine
 10
281.6826836123706
 20
422.5563456388171
 30
0.0
 11
281.6826836123706
 21
436.5563073637701
 31
0.0
  0
SOLID
  5
4A3
330
3C2
100
AcDbEntity
  8
Bemaßungen(DIN)
  6
Continuous
 62
     7
440
 16777216
100
AcDbTrace
 10
280.8493502790373
 20
422.5563456388171
 30
0.0
 11
282.5160169457039
 21
422.5563456388171
 31
0.0
 12
281.6826836123706
 22
417.5563456388172
 32
0.0
 13
281.6826836123706
 23
417.5563456388172
 33
0.0
  0
SOLID
  5
4A4
330
3C2
100
AcDbEntity
  8
Bemaßungen(DIN)
  6
Continuous
 62
     7
440
 16777216
100
AcDbTrace
 10
280.8493502790373
 20
436.5563073637701
 30
0.0
 11
282.5160169457039
 21
436.5563073637701
 31
0.0
 12
281.6826836123706
 22
441.5563073637701
 32
0.0
 13
281.6826836123706
 23
441.5563073637701
 33
0.0
  0
MTEXT
  5
4A5
330
3C2
100
AcDbEntity
  8
Bemaßungen(DIN)
  6
Continuous
 62
   250
420
  4144959
440
 16777216
370
    25
100
AcDbMText
 10
273.0540341853737
 20
424.4973223790769
 30
0.0
 40
7.0
 41
0.0
 46
0.0
 71
     1
 72
     1
  1
\A1;24
  7
STANDARD-DIN~0
 11
0.0000000000000001
 21
1.0
 31
0.0
 73
     1
 44
1.0
  0
POINT
  5
4A6
330
3C2
100
AcDbEntity
  8
Defpoints
  6
Continuous
 62
     0
440
 16777216
100
AcDbPoint
 10
254.0288145253114
 20
417.5563456388172
 30
0.0
  0
POINT
  5
4A7
330
3C2
100
AcDbEntity
  8
Defpoints
  6
Continuous
 62
     0
440
 16777216
100
AcDbPoint
 10
238.2788145253103
 20
441.5563073637701
 30
0.0
  0
POINT
  5
4A8
330
3C2
100
AcDbEntity
  8
Defpoints
  6
Continuous
 62
     0
440
 16777216
100
AcDbPoint
 10
281.6826836123706
 20
441.5563073637701
 30
0.0
  0
ENDBLK
  5
3C4
330
3C2
100
AcDbEntity
  8
0
100
AcDbBlockEnd
  0
BLOCK
  5
4AB
330
4AA
100
AcDbEntity
  8
0
100
AcDbBlockBegin
  2
*D20
 70
     1
 10
0.0
 20
0.0
 30
0.0
  3
*D20
  1

  0
LINE
  5
588
330
4AA
100
AcDbEntity
  8
Bemaßungen(DIN)
  6
Continuous
 62
     7
440
 16777216
370
    25
100
AcDbLine
 10
254.0288145253114
 20
335.5563456388172
 30
0.0
 11
288.0326836123705
 21
335.5563456388172
 31
0.0
  0
LINE
  5
589
330
4AA
100
AcDbEntity
  8
Bemaßungen(DIN)
  6
Continuous
 62
     7
440
 16777216
370
    25
100
AcDbLine
 10
254.0288145253114
 20
417.5563456388172
 30
0.0
 11
288.0326836123706
 21
417.5563456388172
 31
0.0
  0
LINE
  5
58A
330
4AA
100
AcDbEntity
  8
Bemaßungen(DIN)
  6
Continuous
 62
     7
440
 16777216
370
    25
100
AcDbLine
 10
281.6826836123705
 20
340.5563456388172
 30
0.0
 11
281.6826836123706
 21
412.5563456388172
 31
0.0
  0
SOLID
  5
58B
330
4AA
100
AcDbEntity
  8
Bemaßungen(DIN)
  6
Continuous
 62
     7
440
 16777216
100
AcDbTrace
 10
280.8493502790372
 20
340.5563456388172
 30
0.0
 11
282.5160169457038
 21
340.5563456388172
 31
0.0
 12
281.6826836123705
 22
335.5563456388172
 32
0.0
 13
281.6826836123705
 23
335.5563456388172
 33
0.0
  0
SOLID
  5
58C
330
4AA
100
AcDbEntity
  8
Bemaßungen(DIN)
  6
Continuous
 62
     7
440
 16777216
100
AcDbTrace
 10
280.8493502790373
 20
412.5563456388172
 30
0.0
 11
282.5160169457039
 21
412.5563456388172
 31
0.0
 12
281.6826836123706
 22
417.5563456388172
 32
0.0
 13
281.6826836123706
 23
417.5563456388172
 33
0.0
  0
MTEXT
  5
58D
330
4AA
100
AcDbEntity
  8
Bemaßungen(DIN)
  6
Continuous
 62
   250
420
  4144959
440
 16777216
370
    25
100
AcDbMText
 10
272.9346617426598
 20
371.5737398799374
 30
0.0
 40
7.0
 41
0.0
 46
0.0
 71
     1
 72
     1
  1
\A1;82
  7
STANDARD-DIN~0
 11
0.0000000000000001
 21
1.0
 31
0.0
 73
     1
 44
1.0
  0
POINT
  5
58E
330
4AA
100
AcDbEntity
  8
Defpoints
  6
Continuous
 62
     0
440
 16777216
100
AcDbPoint
 10
254.0288145253114
 20
335.5563456388172
 30
0.0
  0
POINT
  5
58F
330
4AA
100
AcDbEntity
  8
Defpoints
  6
Continuous
 62
     0
440
 16777216
100
AcDbPoint
 10
254.0288145253114
 20
417.5563456388172
 30
0.0
  0
POINT
  5
590
330
4AA
100
AcDbEntity
  8
Defpoints
  6
Continuous
 62
     0
440
 16777216
100
AcDbPoint
 10
281.6826836123706
 20
417.5563456388172
 30
0.0
  0
ENDBLK
  5
4AC
330
4AA
100
AcDbEntity
  8
0
100
AcDbBlockEnd
  0
BLOCK
  5
593
330
592
100
AcDbEntity
  8
0
100
AcDbBlockBegin
  2
*D21
 70
     1
 10
0.0
 20
0.0
 30
0.0
  3
*D21
  1

  0
LINE
  5
698
330
592
100
AcDbEntity
  8
Bemaßungen(DIN)
  6
Continuous
 62
     7
440
 16777216
370
    25
100
AcDbLine
 10
252.2788145253114
 20
321.5563456388172
 30
0.0
 11
308.2469334715856
 21
321.5563456388172
 31
0.0
  0
LINE
  5
699
330
592
100
AcDbEntity
  8
Bemaßungen(DIN)
  6
Continuous
 62
     7
440
 16777216
370
    25
100
AcDbLine
 10
253.7788145253113
 20
326.5563456388172
 30
0.0
 11
308.2469334715856
 21
326.5563456388172
 31
0.0
  0
LINE
  5
69A
330
592
100
AcDbEntity
  8
Bemaßungen(DIN)
  6
Continuous
 62
     7
440
 16777216
370
    25
100
AcDbLine
 10
301.8969334715856
 20
316.5563456388172
 30
0.0
 11
301.8969334715856
 21
311.5563456388172
 31
0.0
  0
LINE
  5
69B
330
592
100
AcDbEntity
  8
Bemaßungen(DIN)
  6
Continuous
 62
     7
440
 16777216
370
    25
100
AcDbLine
 10
301.8969334715856
 20
331.5563456388172
 30
0.0
 11
301.8969334715856
 21
344.9360235851754
 31
0.0
  0
LINE
  5
69C
330
592
100
AcDbEntity
  8
Bemaßungen(DIN)
  6
Continuous
 62
     7
440
 16777216
370
    25
100
AcDbLine
 10
301.8969334715856
 20
321.5563456388172
 30
0.0
 11
301.8969334715856
 21
326.5563456388172
 31
0.0
  0
SOLID
  5
69D
330
592
100
AcDbEntity
  8
Bemaßungen(DIN)
  6
Continuous
 62
     7
440
 16777216
100
AcDbTrace
 10
301.0636001382523
 20
316.5563456388172
 30
0.0
 11
302.7302668049189
 21
316.5563456388172
 31
0.0
 12
301.8969334715856
 22
321.5563456388172
 32
0.0
 13
301.8969334715856
 23
321.5563456388172
 33
0.0
  0
SOLID
  5
69E
330
592
100
AcDbEntity
  8
Bemaßungen(DIN)
  6
Continuous
 62
     7
440
 16777216
100
AcDbTrace
 10
301.0636001382523
 20
331.5563456388172
 30
0.0
 11
302.7302668049189
 21
331.5563456388172
 31
0.0
 12
301.8969334715856
 22
326.5563456388172
 32
0.0
 13
301.8969334715856
 23
326.5563456388172
 33
0.0
  0
MTEXT
  5
69F
330
592
100
AcDbEntity
  8
Bemaßungen(DIN)
  6
Continuous
 62
   250
420
  4144959
440
 16777216
370
    25
100
AcDbMText
 10
293.1775610288716
 20
338.6948230124576
 30
0.0
 40
7.0
 41
0.0
 46
0.0
 71
     1
 72
     1
  1
\A1;5
  7
STANDARD-DIN~0
 11
0.0000000000000001
 21
1.0
 31
0.0
 73
     1
 44
1.0
  0
POINT
  5
6A0
330
592
100
AcDbEntity
  8
Defpoints
  6
Continuous
 62
     0
440
 16777216
100
AcDbPoint
 10
252.2788145253114
 20
321.5563456388172
 30
0.0
  0
POINT
  5
6A1
330
592
100
AcDbEntity
  8
Defpoints
  6
Continuous
 62
     0
440
 16777216
100
AcDbPoint
 10
253.7788145253113
 20
326.5563456388172
 30
0.0
  0
POINT
  5
6A2
330
592
100
AcDbEntity
  8
Defpoints
  6
Continuous
 62
     0
440
 16777216
100
AcDbPoint
 10
301.8969334715856
 20
326.5563456388172
 30
0.0
  0
ENDBLK
  5
594
330
592
100
AcDbEntity
  8
0
100
AcDbBlockEnd
  0
BLOCK
  5
6A5
330
6A4
100
AcDbEntity
  8
0
100
AcDbBlockBegin
  2
*D22
 70
     1
 10
0.0
 20
0.0
 30
0.0
  3
*D22
  1

  0
LINE
  5
7A8
330
6A4
100
AcDbEntity
  8
Bemaßungen(DIN)
  6
Continuous
 62
     7
440
 16777216
370
    25
100
AcDbLine
 10
238.2788145253114
 20
311.5563839138642
 30
0.0
 11
321.3664182838003
 21
311.5563839138642
 31
0.0
  0
LINE
  5
7A9
330
6A4
100
AcDbEntity
  8
Bemaßungen(DIN)
  6
Continuous
 62
     7
440
 16777216
370
    25
100
AcDbLine
 10
252.2788145253114
 20
321.5563456388172
 30
0.0
 11
321.3664182838003
 21
321.5563456388172
 31
0.0
  0
LINE
  5
7AA
330
6A4
100
AcDbEntity
  8
Bemaßungen(DIN)
  6
Continuous
 62
     7
440
 16777216
370
    25
100
AcDbLine
 10
315.0164182838003
 20
326.5563456388172
 30
0.0
 11
315.0164182838003
 21
331.5563456388172
 31
0.0
  0
LINE
  5
7AB
330
6A4
100
AcDbEntity
  8
Bemaßungen(DIN)
  6
Continuous
 62
     7
440
 16777216
370
    25
100
AcDbLine
 10
315.0164182838003
 20
306.5563839138643
 30
0.0
 11
315.0164182838003
 21
289.0119090982171
 31
0.0
  0
LINE
  5
7AC
330
6A4
100
AcDbEntity
  8
Bemaßungen(DIN)
  6
Continuous
 62
     7
440
 16777216
370
    25
100
AcDbLine
 10
315.0164182838003
 20
321.5563456388172
 30
0.0
 11
315.0164182838003
 21
311.5563839138642
 31
0.0
  0
SOLID
  5
7AD
330
6A4
100
AcDbEntity
  8
Bemaßungen(DIN)
  6
Continuous
 62
     7
440
 16777216
100
AcDbTrace
 10
314.183084950467
 20
326.5563456388172
 30
0.0
 11
315.8497516171336
 21
326.5563456388172
 31
0.0
 12
315.0164182838003
 22
321.5563456388172
 32
0.0
 13
315.0164182838003
 23
321.5563456388172
 33
0.0
  0
SOLID
  5
7AE
330
6A4
100
AcDbEntity
  8
Bemaßungen(DIN)
  6
Continuous
 62
     7
440
 16777216
100
AcDbTrace
 10
314.183084950467
 20
306.5563839138643
 30
0.0
 11
315.8497516171336
 21
306.5563839138643
 31
0.0
 12
315.0164182838003
 22
311.5563839138642
 32
0.0
 13
315.0164182838003
 23
311.5563839138642
 33
0.0
  0
MTEXT
  5
7AF
330
6A4
100
AcDbEntity
  8
Bemaßungen(DIN)
  6
Continuous
 62
   250
420
  4144959
440
 16777216
370
    25
100
AcDbMText
 10
306.2683964140896
 20
290.6119090982171
 30
0.0
 40
7.0
 41
0.0
 46
0.0
 71
     1
 72
     1
  1
\A1;10
  7
STANDARD-DIN~0
 11
0.0000000000000001
 21
1.0
 31
0.0
 73
     1
 44
1.0
  0
POINT
  5
7B0
330
6A4
100
AcDbEntity
  8
Defpoints
  6
Continuous
 62
     0
440
 16777216
100
AcDbPoint
 10
238.2788145253114
 20
311.5563839138642
 30
0.0
  0
POINT
  5
7B1
330
6A4
100
AcDbEntity
  8
Defpoints
  6
Continuous
 62
     0
440
 16777216
100
AcDbPoint
 10
252.2788145253114
 20
321.5563456388172
 30
0.0
  0
POINT
  5
7B2
330
6A4
100
AcDbEntity
  8
Defpoints
  6
Continuous
 62
     0
440
 16777216
100
AcDbPoint
 10
315.0164182838003
 20
321.5563456388172
 30
0.0
  0
ENDBLK
  5
6A6
330
6A4
100
AcDbEntity
  8
0
100
AcDbBlockEnd
  0
BLOCK
  5
7B5
330
7B4
100
AcDbEntity
  8
0
100
AcDbBlockBegin
  2
*D23
 70
     1
 10
0.0
 20
0.0
 30
0.0
  3
*D23
  1

  0
LINE
  5
8A6
330
7B4
100
AcDbEntity
  8
Bemaßungen(DIN)
  6
Continuous
 62
     7
440
 16777216
370
    25
100
AcDbLine
 10
252.2788145253114
 20
321.5563456388172
 30
0.0
 11
252.2788145253114
 21
286.5942594080463
 31
0.0
  0
LINE
  5
8A7
330
7B4
100
AcDbEntity
  8
Bemaßungen(DIN)
  6
Continuous
 62
     7
440
 16777216
370
    25
100
AcDbLine
 10
256.7788145253114
 20
327.1401471517215
 30
0.0
 11
256.7788145253114
 21
286.5942594080463
 31
0.0
  0
LINE
  5
8A8
330
7B4
100
AcDbEntity
  8
Bemaßungen(DIN)
  6
Continuous
 62
     7
440
 16777216
370
    25
100
AcDbLine
 10
247.2788145253114
 20
292.9442594080464
 30
0.0
 11
242.2788145253114
 21
292.9442594080464
 31
0.0
  0
LINE
  5
8A9
330
7B4
100
AcDbEntity
  8
Bemaßungen(DIN)
  6
Continuous
 62
     7
440
 16777216
370
    25
100
AcDbLine
 10
261.7788145253113
 20
292.9442594080464
 30
0.0
 11
283.0572593490505
 21
292.9442594080464
 31
0.0
  0
LINE
  5
8AA
330
7B4
100
AcDbEntity
  8
Bemaßungen(DIN)
  6
Continuous
 62
     7
440
 16777216
370
    25
100
AcDbLine
 10
252.2788145253114
 20
292.9442594080464
 30
0.0
 11
256.7788145253114
 21
292.9442594080464
 31
0.0
  0
SOLID
  5
8AB
330
7B4
100
AcDbEntity
  8
Bemaßungen(DIN)
  6
Continuous
 62
     7
440
 16777216
100
AcDbTrace
 10
247.2788145253114
 20
293.7775927413797
 30
0.0
 11
247.2788145253114
 21
292.110926074713
 31
0.0
 12
252.2788145253114
 22
292.9442594080464
 32
0.0
 13
252.2788145253114
 23
292.9442594080464
 33
0.0
  0
SOLID
  5
8AC
330
7B4
100
AcDbEntity
  8
Bemaßungen(DIN)
  6
Continuous
 62
     7
440
 16777216
100
AcDbTrace
 10
261.7788145253113
 20
293.7775927413797
 30
0.0
 11
261.7788145253113
 21
292.110926074713
 31
0.0
 12
256.7788145253114
 22
292.9442594080464
 32
0.0
 13
256.7788145253114
 23
292.9442594080464
 33
0.0
  0
MTEXT
  5
8AD
330
7B4
100
AcDbEntity
  8
Bemaßungen(DIN)
  6
Continuous
 62
   250
420
  4144959
440
 16777216
370
    25
100
AcDbMText
 10
268.3788145253114
 20
301.6636318915057
 30
0.0
 40
7.0
 41
0.0
 46
0.0
 71
     1
 72
     1
  1
\A1;4.5
  7
STANDARD-DIN~0
 73
     1
 44
1.0
  0
POINT
  5
8AE
330
7B4
100
AcDbEntity
  8
Defpoints
  6
Continuous
 62
     0
440
 16777216
100
AcDbPoint
 10
252.2788145253114
 20
321.5563456388172
 30
0.0
  0
POINT
  5
8AF
330
7B4
100
AcDbEntity
  8
Defpoints
  6
Continuous
 62
     0
440
 16777216
100
AcDbPoint
 10
256.7788145253114
 20
327.1401471517215
 30
0.0
  0
POINT
  5
8B0
330
7B4
100
AcDbEntity
  8
Defpoints
  6
Continuous
 62
     0
440
 16777216
100
AcDbPoint
 10
256.7788145253114
 20
292.9442594080464
 30
0.0
  0
ENDBLK
  5
7B6
330
7B4
100
AcDbEntity
  8
0
100
AcDbBlockEnd
  0
BLOCK
  5
8B3
330
8B2
100
AcDbEntity
  8
0
100
AcDbBlockBegin
  2
*D24
 70
     1
 10
0.0
 20
0.0
 30
0.0
  3
*D24
  1

  0
LINE
  5
990
330
8B2
100
AcDbEntity
  8
Bemaßungen(DIN)
  6
Continuous
 62
     7
440
 16777216
370
    25
100
AcDbLine
 10
238.2788145253114
 20
311.5563839138642
 30
0.0
 11
182.0554997154223
 21
311.5563839138642
 31
0.0
  0
LINE
  5
991
330
8B2
100
AcDbEntity
  8
Bemaßungen(DIN)
  6
Continuous
 62
     7
440
 16777216
370
    25
100
AcDbLine
 10
240.8788145253114
 20
355.0563073637702
 30
0.0
 11
182.0554997154223
 21
355.0563073637702
 31
0.0
  0
LINE
  5
992
330
8B2
100
AcDbEntity
  8
Bemaßungen(DIN)
  6
Continuous
 62
     7
440
 16777216
370
    25
100
AcDbLine
 10
188.4054997154223
 20
316.5563839138642
 30
0.0
 11
188.4054997154223
 21
350.0563073637701
 31
0.0
  0
SOLID
  5
993
330
8B2
100
AcDbEntity
  8
Bemaßungen(DIN)
  6
Continuous
 62
     7
440
 16777216
100
AcDbTrace
 10
187.572166382089
 20
316.5563839138642
 30
0.0
 11
189.2388330487556
 21
316.5563839138642
 31
0.0
 12
188.4054997154223
 22
311.5563839138642
 32
0.0
 13
188.4054997154223
 23
311.5563839138642
 33
0.0
  0
SOLID
  5
994
330
8B2
100
AcDbEntity
  8
Bemaßungen(DIN)
  6
Continuous
 62
     7
440
 16777216
100
AcDbTrace
 10
187.572166382089
 20
350.0563073637701
 30
0.0
 11
189.2388330487557
 21
350.0563073637701
 31
0.0
 12
188.4054997154223
 22
355.0563073637702
 32
0.0
 13
188.4054997154223
 23
355.0563073637702
 33
0.0
  0
MTEXT
  5
995
330
8B2
100
AcDbEntity
  8
Bemaßungen(DIN)
  6
Continuous
 62
   250
420
  4144959
440
 16777216
370
    25
100
AcDbMText
 10
179.6527029480031
 20
324.0478189819241
 30
0.0
 40
7.0
 41
0.0
 46
0.0
 71
     1
 72
     1
  1
\A1;43.5
  7
STANDARD-DIN~0
 11
0.0000000000000001
 21
1.0
 31
0.0
 73
     1
 44
1.0
  0
POINT
  5
996
330
8B2
100
AcDbEntity
  8
Defpoints
  6
Continuous
 62
     0
440
 16777216
100
AcDbPoint
 10
238.2788145253114
 20
311.5563839138642
 30
0.0
  0
POINT
  5
997
330
8B2
100
AcDbEntity
  8
Defpoints
  6
Continuous
 62
     0
440
 16777216
100
AcDbPoint
 10
240.8788145253114
 20
355.0563073637702
 30
0.0
  0
POINT
  5
998
330
8B2
100
AcDbEntity
  8
Defpoints
  6
Continuous
 62
     0
440
 16777216
100
AcDbPoint
 10
188.4054997154223
 20
355.0563073637702
 30
0.0
  0
ENDBLK
  5
8B4
330
8B2
100
AcDbEntity
  8
0
100
AcDbBlockEnd
  0
BLOCK
  5
99B
330
99A
100
AcDbEntity
  8
0
100
AcDbBlockBegin
  2
*D25
 70
     1
 10
0.0
 20
0.0
 30
0.0
  3
*D25
  1

  0
LINE
  5
A78
330
99A
100
AcDbEntity
  8
Bemaßungen(DIN)
  6
Continuous
 62
     7
440
 16777216
370
    25
100
AcDbLine
 10
240.8788145253114
 20
355.0563073637702
 30
0.0
 11
182.0554997154223
 21
355.0563073637702
 31
0.0
  0
LINE
  5
A79
330
99A
100
AcDbEntity
  8
Bemaßungen(DIN)
  6
Continuous
 62
     7
440
 16777216
370
    25
100
AcDbLine
 10
240.8788145253114
 20
398.0563073637701
 30
0.0
 11
182.0554997154223
 21
398.0563073637701
 31
0.0
  0
LINE
  5
A7A
330
99A
100
AcDbEntity
  8
Bemaßungen(DIN)
  6
Continuous
 62
     7
440
 16777216
370
    25
100
AcDbLine
 10
188.4054997154223
 20
360.0563073637701
 30
0.0
 11
188.4054997154223
 21
393.0563073637701
 31
0.0
  0
SOLID
  5
A7B
330
99A
100
AcDbEntity
  8
Bemaßungen(DIN)
  6
Continuous
 62
     7
440
 16777216
100
AcDbTrace
 10
187.572166382089
 20
360.0563073637701
 30
0.0
 11
189.2388330487557
 21
360.0563073637701
 31
0.0
 12
188.4054997154223
 22
355.0563073637702
 32
0.0
 13
188.4054997154223
 23
355.0563073637702
 33
0.0
  0
SOLID
  5
A7C
330
99A
100
AcDbEntity
  8
Bemaßungen(DIN)
  6
Continuous
 62
     7
440
 16777216
100
AcDbTrace
 10
187.572166382089
 20
393.0563073637701
 30
0.0
 11
189.2388330487557
 21
393.0563073637701
 31
0.0
 12
188.4054997154223
 22
398.0563073637701
 32
0.0
 13
188.4054997154223
 23
398.0563073637701
 33
0.0
  0
MTEXT
  5
A7D
330
99A
100
AcDbEntity
  8
Bemaßungen(DIN)
  6
Continuous
 62
   250
420
  4144959
440
 16777216
370
    25
100
AcDbMText
 10
179.6527029480031
 20
371.4018052873823
 30
0.0
 40
7.0
 41
0.0
 46
0.0
 71
     1
 72
     1
  1
\A1;43
  7
STANDARD-DIN~0
 11
0.0000000000000001
 21
1.0
 31
0.0
 73
     1
 44
1.0
  0
POINT
  5
A7E
330
99A
100
AcDbEntity
  8
Defpoints
  6
Continuous
 62
     0
440
 16777216
100
AcDbPoint
 10
240.8788145253114
 20
355.0563073637702
 30
0.0
  0
POINT
  5
A7F
330
99A
100
AcDbEntity
  8
Defpoints
  6
Continuous
 62
     0
440
 16777216
100
AcDbPoint
 10
240.8788145253114
 20
398.0563073637701
 30
0.0
  0
POINT
  5
A80
330
99A
100
AcDbEntity
  8
Defpoints
  6
Continuous
 62
     0
440
 16777216
100
AcDbPoint
 10
188.4054997154223
 20
398.0563073637701
 30
0.0
  0
ENDBLK
  5
99C
330
99A
100
AcDbEntity
  8
0
100
AcDbBlockEnd
  0
BLOCK
  5
A83
330
A82
100
AcDbEntity
  8
0
100
AcDbBlockBegin
  2
*D26
 70
     1
 10
0.0
 20
0.0
 30
0.0
  3
*D26
  1

  0
LINE
  5
B60
330
A82
100
AcDbEntity
  8
Bemaßungen(DIN)
  6
Continuous
 62
     7
440
 16777216
370
    25
100
AcDbLine
 10
240.8788145253114
 20
398.0563073637701
 30
0.0
 11
182.0554997154223
 21
398.0563073637701
 31
0.0
  0
LINE
  5
B61
330
A82
100
AcDbEntity
  8
Bemaßungen(DIN)
  6
Continuous
 62
     7
440
 16777216
370
    25
100
AcDbLine
 10
238.2788145253103
 20
441.5563073637701
 30
0.0
 11
182.0554997154223
 21
441.5563073637701
 31
0.0
  0
LINE
  5
B62
330
A82
100
AcDbEntity
  8
Bemaßungen(DIN)
  6
Continuous
 62
     7
440
 16777216
370
    25
100
AcDbLine
 10
188.4054997154223
 20
403.0563073637701
 30
0.0
 11
188.4054997154223
 21
436.5563073637701
 31
0.0
  0
SOLID
  5
B63
330
A82
100
AcDbEntity
  8
Bemaßungen(DIN)
  6
Continuous
 62
     7
440
 16777216
100
AcDbTrace
 10
187.572166382089
 20
403.0563073637701
 30
0.0
 11
189.2388330487557
 21
403.0563073637701
 31
0.0
 12
188.4054997154223
 22
398.0563073637701
 32
0.0
 13
188.4054997154223
 23
398.0563073637701
 33
0.0
  0
SOLID
  5
B64
330
A82
100
AcDbEntity
  8
Bemaßungen(DIN)
  6
Continuous
 62
     7
440
 16777216
100
AcDbTrace
 10
187.572166382089
 20
436.5563073637701
 30
0.0
 11
189.2388330487557
 21
436.5563073637701
 31
0.0
 12
188.4054997154223
 22
441.5563073637701
 32
0.0
 13
188.4054997154223
 23
441.5563073637701
 33
0.0
  0
MTEXT
  5
B65
330
A82
100
AcDbEntity
  8
Bemaßungen(DIN)
  6
Continuous
 62
   250
420
  4144959
440
 16777216
370
    25
100
AcDbMText
 10
179.6527029480031
 20
410.547780706877
 30
0.0
 40
7.0
 41
0.0
 46
0.0
 71
     1
 72
     1
  1
\A1;43.5
  7
STANDARD-DIN~0
 11
0.0000000000000001
 21
1.0
 31
0.0
 73
     1
 44
1.0
  0
POINT
  5
B66
330
A82
100
AcDbEntity
  8
Defpoints
  6
Continuous
 62
     0
440
 16777216
100
AcDbPoint
 10
240.8788145253114
 20
398.0563073637701
 30
0.0
  0
POINT
  5
B67
330
A82
100
AcDbEntity
  8
Defpoints
  6
Continuous
 62
     0
440
 16777216
100
AcDbPoint
 10
238.2788145253103
 20
441.5563073637701
 30
0.0
  0
POINT
  5
B68
330
A82
100
AcDbEntity
  8
Defpoints
  6
Continuous
 62
     0
440
 16777216
100
AcDbPoint
 10
188.4054997154223
 20
441.5563073637701
 30
0.0
  0
ENDBLK
  5
A84
330
A82
100
AcDbEntity
  8
0
100
AcDbBlockEnd
  0
BLOCK
  5
B6B
330
B6A
100
AcDbEntity
  8
0
100
AcDbBlockBegin
  2
*D27
 70
     1
 10
0.0
 20
0.0
 30
0.0
  3
*D27
  1

  0
LINE
  5
C48
330
B6A
100
AcDbEntity
  8
Bemaßungen(DIN)
  6
Continuous
 62
     7
440
 16777216
370
    25
100
AcDbLine
 10
238.2788145253103
 20
441.5563073637701
 30
0.0
 11
164.3487922208983
 21
441.5563073637701
 31
0.0
  0
LINE
  5
C49
330
B6A
100
AcDbEntity
  8
Bemaßungen(DIN)
  6
Continuous
 62
     7
440
 16777216
370
    25
100
AcDbLine
 10
238.2788145253114
 20
311.5563839138642
 30
0.0
 11
164.3487922208983
 21
311.5563839138642
 31
0.0
  0
LINE
  5
C4A
330
B6A
100
AcDbEntity
  8
Bemaßungen(DIN)
  6
Continuous
 62
     7
440
 16777216
370
    25
100
AcDbLine
 10
170.6987922208983
 20
436.5563073637701
 30
0.0
 11
170.6987922208982
 21
316.5563839138642
 31
0.0
  0
SOLID
  5
C4B
330
B6A
100
AcDbEntity
  8
Bemaßungen(DIN)
  6
Continuous
 62
     7
440
 16777216
100
AcDbTrace
 10
169.8654588875649
 20
436.5563073637701
 30
0.0
 11
171.5321255542316
 21
436.5563073637701
 31
0.0
 12
170.6987922208983
 22
441.5563073637701
 32
0.0
 13
170.6987922208983
 23
441.5563073637701
 33
0.0
  0
SOLID
  5
C4C
330
B6A
100
AcDbEntity
  8
Bemaßungen(DIN)
  6
Continuous
 62
     7
440
 16777216
100
AcDbTrace
 10
169.8654588875649
 20
316.5563839138642
 30
0.0
 11
171.5321255542316
 21
316.5563839138642
 31
0.0
 12
170.6987922208982
 22
311.5563839138642
 32
0.0
 13
170.6987922208982
 23
311.5563839138642
 33
0.0
  0
MTEXT
  5
C4D
330
B6A
100
AcDbEntity
  8
Bemaßungen(DIN)
  6
Continuous
 62
   250
420
  4144959
440
 16777216
370
    25
100
AcDbMText
 10
161.945995453479
 20
369.1648039859702
 30
0.0
 40
7.0
 41
0.0
 46
0.0
 71
     1
 72
     1
  1
\A1;130
  7
STANDARD-DIN~0
 11
0.0000000000000001
 21
1.0
 31
0.0
 73
     1
 44
1.0
  0
POINT
  5
C4E
330
B6A
100
AcDbEntity
  8
Defpoints
  6
Continuous
 62
     0
440
 16777216
100
AcDbPoint
 10
238.2788145253103
 20
441.5563073637701
 30
0.0
  0
POINT
  5
C4F
330
B6A
100
AcDbEntity
  8
Defpoints
  6
Continuous
 62
     0
440
 16777216
100
AcDbPoint
 10
238.2788145253114
 20
311.5563839138642
 30
0.0
  0
POINT
  5
C50
330
B6A
100
AcDbEntity
  8
Defpoints
  6
Continuous
 62
     0
440
 16777216
100
AcDbPoint
 10
170.6987922208982
 20
311.5563839138642
 30
0.0
  0
ENDBLK
  5
B6C
330
B6A
100
AcDbEntity
  8
0
100
AcDbBlockEnd
  0
BLOCK
  5
C53
330
C52
100
AcDbEntity
  8
0
100
AcDbBlockBegin
  2
*D28
 70
     1
 10
0.0
 20
0.0
 30
0.0
  3
*D28
  1

  0
LINE
  5
D41
330
C52
100
AcDbEntity
  8
Bemaßungen(DIN)
  6
Continuous
 62
     7
440
 16777216
370
    25
100
AcDbLine
 10
253.4788145253114
 20
384.3682008989938
 30
0.0
 11
253.4788145253114
 21
342.7967329469457
 31
0.0
  0
LINE
  5
D42
330
C52
100
AcDbEntity
  8
Bemaßungen(DIN)
  6
Continuous
 62
     7
440
 16777216
370
    25
100
AcDbLine
 10
248.4788145253114
 20
349.1467329469457
 30
0.0
 11
243.4788145253114
 21
349.1467329469457
 31
0.0
  0
LINE
  5
D43
330
C52
100
AcDbEntity
  8
Bemaßungen(DIN)
  6
Continuous
 62
     7
440
 16777216
370
    25
100
AcDbLine
 10
261.7788145253113
 20
349.1467329469457
 30
0.0
 11
282.7182416117429
 21
349.1467329469457
 31
0.0
  0
LINE
  5
D44
330
C52
100
AcDbEntity
  8
Bemaßungen(DIN)
  6
Continuous
 62
     7
440
 16777216
370
    25
100
AcDbLine
 10
253.4788145253114
 20
349.1467329469457
 30
0.0
 11
256.7788145253114
 21
349.1467329469457
 31
0.0
  0
SOLID
  5
D45
330
C52
100
AcDbEntity
  8
Bemaßungen(DIN)
  6
Continuous
 62
     7
440
 16777216
100
AcDbTrace
 10
248.4788145253114
 20
349.980066280279
 30
0.0
 11
248.4788145253114
 21
348.3133996136124
 31
0.0
 12
253.4788145253114
 22
349.1467329469457
 32
0.0
 13
253.4788145253114
 23
349.1467329469457
 33
0.0
  0
SOLID
  5
D46
330
C52
100
AcDbEntity
  8
Bemaßungen(DIN)
  6
Continuous
 62
     7
440
 16777216
100
AcDbTrace
 10
261.7788145253113
 20
349.980066280279
 30
0.0
 11
261.7788145253113
 21
348.3133996136124
 31
0.0
 12
256.7788145253114
 22
349.1467329469457
 32
0.0
 13
256.7788145253114
 23
349.1467329469457
 33
0.0
  0
MTEXT
  5
D47
330
C52
100
AcDbEntity
  8
Bemaßungen(DIN)
  6
Continuous
 62
   250
420
  4144959
440
 16777216
370
    25
100
AcDbMText
 10
268.3788145253114
 20
357.8995297143649
 30
0.0
 40
7.0
 41
0.0
 46
0.0
 71
     1
 72
     1
  1
\A1;3.3
  7
STANDARD-DIN~0
 73
     1
 44
1.0
  0
POINT
  5
D48
330
C52
100
AcDbEntity
  8
Defpoints
  6
Continuous
 62
     0
440
 16777216
100
AcDbPoint
 10
253.4788145253114
 20
384.3682008989938
 30
0.0
  0
POINT
  5
D49
330
C52
100
AcDbEntity
  8
Defpoints
  6
Continuous
 62
     0
440
 16777216
100
AcDbPoint
 10
256.7788145253114
 20
344.830249444305
 30
0.0
  0
POINT
  5
D4A
330
C52
100
AcDbEntity
  8
Defpoints
  6
Continuous
 62
     0
440
 16777216
100
AcDbPoint
 10
256.7788145253114
 20
349.1467329469457
 30
0.0
  0
ENDBLK
  5
C54
330
C52
100
AcDbEntity
  8
0
100
AcDbBlockEnd
  0
BLOCK
  5
D4D
330
D4C
100
AcDbEntity
  8
0
100
AcDbBlockBegin
  2
*D29
 70
     1
 10
0.0
 20
0.0
 30
0.0
  3
*D29
  1

  0
LINE
  5
DE2
330
D4C
100
AcDbEntity
  8
Bemaßungen(DIN)
  6
Continuous
 62
     7
440
 16777216
370
    25
100
AcDbLine
 10
147.7864169726831
 20
318.3386664524395
 30
0.0
 11
120.2592191423555
 21
318.3386664524396
 31
0.0
  0
LINE
  5
DE3
330
D4C
100
AcDbEntity
  8
Bemaßungen(DIN)
  6
Continuous
 62
     7
440
 16777216
370
    25
100
AcDbLine
 10
120.2592191423555
 20
318.3386664524396
 30
0.0
 11
110.9747731892936
 21
326.1727904425001
 31
0.0
  0
MTEXT
  5
DE4
330
D4C
100
AcDbEntity
  8
Bemaßungen(DIN)
  6
Continuous
 62
   250
420
  4144959
440
 16777216
370
    25
100
AcDbMText
 10
136.4842340965275
 20
327.0866883221502
 30
0.0
 40
7.0
 41
0.0
 46
0.0
 71
     1
 72
     1
  1
\A1;R8
  7
STANDARD-DIN~0
 73
     1
 44
1.0
  0
SOLID
  5
DE5
330
D4C
100
AcDbEntity
  8
Bemaßungen(DIN)
  6
Continuous
 62
     7
440
 16777216
100
AcDbTrace
 10
111.5121805736729
 20
326.809687410352
 30
0.0
 11
110.4373658049143
 21
325.5358934746481
 31
0.0
 12
107.1533913821817
 22
329.3972347487759
 32
0.0
 13
107.1533913821817
 23
329.3972347487759
 33
0.0
  0
POINT
  5
DE6
330
D4C
100
AcDbEntity
  8
Defpoints
  6
Continuous
 62
     0
440
 16777216
100
AcDbPoint
 10
107.1533913821817
 20
329.3972347487759
 30
0.0
  0
POINT
  5
DE7
330
D4C
100
AcDbEntity
  8
Defpoints
  6
Continuous
 62
     0
440
 16777216
100
AcDbPoint
 10
101.0391804908027
 20
334.5563456388171
 30
0.0
  0
ENDBLK
  5
D4E
330
D4C
100
AcDbEntity
  8
0
100
AcDbBlockEnd
  0
BLOCK
  5
DEA
330
DE9
100
AcDbEntity
  8
0
100
AcDbBlockBegin
  2
*D30
 70
     1
 10
0.0
 20
0.0
 30
0.0
  3
*D30
  1

  0
LINE
  5
E7E
330
DE9
100
AcDbEntity
  8
Bemaßungen(DIN)
  6
Continuous
 62
     7
440
 16777216
370
    25
100
AcDbLine
 10
149.9573946996144
 20
299.7830036052424
 30
0.0
 11
121.1155788745137
 21
299.7830036052424
 31
0.0
  0
LINE
  5
E7F
330
DE9
100
AcDbEntity
  8
Bemaßungen(DIN)
  6
Continuous
 62
     7
440
 16777216
370
    25
100
AcDbLine
 10
121.1155788745137
 20
299.7830036052424
 30
0.0
 11
115.039180490802
 21
310.3076343328556
 31
0.0
  0
MTEXT
  5
E80
330
DE9
100
AcDbEntity
  8
Bemaßungen(DIN)
  6
Continuous
 62
   250
420
  4144959
440
 16777216
370
    25
100
AcDbMText
 10
133.2309280265373
 20
308.5358003726616
 30
0.0
 40
7.0
 41
0.0
 46
0.0
 71
     1
 72
     1
  1
\A1;R23
  7
STANDARD-DIN~0
 73
     1
 44
1.0
  0
SOLID
  5
E81
330
DE9
100
AcDbEntity
  8
Bemaßungen(DIN)
  6
Continuous
 62
     7
440
 16777216
100
AcDbTrace
 10
115.760868327289
 20
310.7243009995224
 30
0.0
 11
114.3174926543151
 21
309.8909676661888
 31
0.0
 12
112.5391804908012
 22
314.6377613517773
 32
0.0
 13
112.5391804908012
 23
314.6377613517773
 33
0.0
  0
POINT
  5
E82
330
DE9
100
AcDbEntity
  8
Defpoints
  6
Continuous
 62
     0
440
 16777216
100
AcDbPoint
 10
112.5391804908012
 20
314.6377613517773
 30
0.0
  0
POINT
  5
E83
330
DE9
100
AcDbEntity
  8
Defpoints
  6
Continuous
 62
     0
440
 16777216
100
AcDbPoint
 10
101.0391804907972
 20
334.5563456388172
 30
0.0
  0
ENDBLK
  5
DEB
330
DE9
100
AcDbEntity
  8
0
100
AcDbBlockEnd
  0
BLOCK
  5
E86
330
E85
100
AcDbEntity
  8
0
100
AcDbBlockBegin
  2
*D31
 70
     1
 10
0.0
 20
0.0
 30
0.0
  3
*D31
  1

  0
LINE
  5
F63
330
E85
100
AcDbEntity
  8
Bemaßungen(DIN)
  6
Continuous
 62
     7
440
 16777216
370
    25
100
AcDbLine
 10
238.7788145252583
 20
186.2117767324899
 30
0.0
 11
214.528814525312
 21
186.2117767324899
 31
0.0
  0
LINE
  5
F64
330
E85
100
AcDbEntity
  8
Bemaßungen(DIN)
  6
Continuous
 62
     7
440
 16777216
370
    25
100
AcDbLine
 10
235.7788145252583
 20
209.2117767324861
 30
0.0
 11
214.528814525312
 21
209.2117767324861
 31
0.0
  0
LINE
  5
F65
330
E85
100
AcDbEntity
  8
Bemaßungen(DIN)
  6
Continuous
 62
     7
440
 16777216
370
    25
100
AcDbLine
 10
220.8788145253119
 20
191.2117767324899
 30
0.0
 11
220.878814525312
 21
204.2117767324861
 31
0.0
  0
SOLID
  5
F66
330
E85
100
AcDbEntity
  8
Bemaßungen(DIN)
  6
Continuous
 62
     7
440
 16777216
100
AcDbTrace
 10
220.0454811919786
 20
191.2117767324899
 30
0.0
 11
221.7121478586453
 21
191.2117767324899
 31
0.0
 12
220.8788145253119
 22
186.2117767324899
 32
0.0
 13
220.8788145253119
 23
186.2117767324899
 33
0.0
  0
SOLID
  5
F67
330
E85
100
AcDbEntity
  8
Bemaßungen(DIN)
  6
Continuous
 62
     7
440
 16777216
100
AcDbTrace
 10
220.0454811919787
 20
204.2117767324861
 30
0.0
 11
221.7121478586453
 21
204.2117767324861
 31
0.0
 12
220.878814525312
 22
209.2117767324861
 32
0.0
 13
220.878814525312
 23
209.2117767324861
 33
0.0
  0
MTEXT
  5
F68
330
E85
100
AcDbEntity
  8
Bemaßungen(DIN)
  6
Continuous
 62
   250
420
  4144959
440
 16777216
370
    25
100
AcDbMText
 10
212.1260177578927
 20
192.6384479171456
 30
0.0
 40
7.0
 41
0.0
 46
0.0
 71
     1
 72
     1
  1
\A1;23
  7
STANDARD-DIN~0
 11
0.0000000000000001
 21
1.0
 31
0.0
 73
     1
 44
1.0
  0
POINT
  5
F69
330
E85
100
AcDbEntity
  8
Defpoints
  6
Continuous
 62
     0
440
 16777216
100
AcDbPoint
 10
238.7788145252583
 20
186.2117767324899
 30
0.0
  0
POINT
  5
F6A
330
E85
100
AcDbEntity
  8
Defpoints
  6
Continuous
 62
     0
440
 16777216
100
AcDbPoint
 10
235.7788145252583
 20
209.2117767324861
 30
0.0
  0
POINT
  5
F6B
330
E85
100
AcDbEntity
  8
Defpoints
  6
Continuous
 62
     0
440
 16777216
100
AcDbPoint
 10
220.878814525312
 20
209.2117767324861
 30
0.0
  0
ENDBLK
  5
E87
330
E85
100
AcDbEntity
  8
0
100
AcDbBlockEnd
  0
BLOCK
  5
F6E
330
F6D
100
AcDbEntity
  8
0
100
AcDbBlockBegin
  2
*D32
 70
     1
 10
0.0
 20
0.0
 30
0.0
  3
*D32
  1

  0
LINE
  5
105F
330
F6D
100
AcDbEntity
  8
Bemaßungen(DIN)
  6
Continuous
 62
     7
440
 16777216
370
    25
100
AcDbLine
 10
235.7788145252583
 20
209.2117767324861
 30
0.0
 11
235.7788145252583
 21
228.6852958610662
 31
0.0
  0
LINE
  5
1060
330
F6D
100
AcDbEntity
  8
Bemaßungen(DIN)
  6
Continuous
 62
     7
440
 16777216
370
    25
100
AcDbLine
 10
238.2788145252583
 20
209.2117767324861
 30
0.0
 11
238.2788145252583
 21
228.6852958610662
 31
0.0
  0
LINE
  5
1061
330
F6D
100
AcDbEntity
  8
Bemaßungen(DIN)
  6
Continuous
 62
     7
440
 16777216
370
    25
100
AcDbLine
 10
243.2788145252583
 20
222.3352958610662
 30
0.0
 11
248.2788145252583
 21
222.3352958610662
 31
0.0
  0
LINE
  5
1062
330
F6D
100
AcDbEntity
  8
Bemaßungen(DIN)
  6
Continuous
 62
     7
440
 16777216
370
    25
100
AcDbLine
 10
230.7788145252583
 20
222.3352958610662
 30
0.0
 11
209.6627162236102
 21
222.3352958610662
 31
0.0
  0
LINE
  5
1063
330
F6D
100
AcDbEntity
  8
Bemaßungen(DIN)
  6
Continuous
 62
     7
440
 16777216
370
    25
100
AcDbLine
 10
238.2788145252583
 20
222.3352958610662
 30
0.0
 11
235.7788145252583
 21
222.3352958610662
 31
0.0
  0
SOLID
  5
1064
330
F6D
100
AcDbEntity
  8
Bemaßungen(DIN)
  6
Continuous
 62
     7
440
 16777216
100
AcDbTrace
 10
243.2788145252583
 20
223.1686291943995
 30
0.0
 11
243.2788145252583
 21
221.5019625277328
 31
0.0
 12
238.2788145252583
 22
222.3352958610662
 32
0.0
 13
238.2788145252583
 23
222.3352958610662
 33
0.0
  0
SOLID
  5
1065
330
F6D
100
AcDbEntity
  8
Bemaßungen(DIN)
  6
Continuous
 62
     7
440
 16777216
100
AcDbTrace
 10
230.7788145252583
 20
223.1686291943995
 30
0.0
 11
230.7788145252583
 21
221.5019625277328
 31
0.0
 12
235.7788145252583
 22
222.3352958610662
 32
0.0
 13
235.7788145252583
 23
222.3352958610662
 33
0.0
  0
MTEXT
  5
1066
330
F6D
100
AcDbEntity
  8
Bemaßungen(DIN)
  6
Continuous
 62
   250
420
  4144959
440
 16777216
370
    25
100
AcDbMText
 10
211.2627162236101
 20
231.0833177307768
 30
0.0
 40
7.0
 41
0.0
 46
0.0
 71
     1
 72
     1
  1
\A1;2.5
  7
STANDARD-DIN~0
 73
     1
 44
1.0
  0
POINT
  5
1067
330
F6D
100
AcDbEntity
  8
Defpoints
  6
Continuous
 62
     0
440
 16777216
100
AcDbPoint
 10
235.7788145252583
 20
209.2117767324861
 30
0.0
  0
POINT
  5
1068
330
F6D
100
AcDbEntity
  8
Defpoints
  6
Continuous
 62
     0
440
 16777216
100
AcDbPoint
 10
238.2788145252583
 20
209.2117767324861
 30
0.0
  0
POINT
  5
1069
330
F6D
100
AcDbEntity
  8
Defpoints
  6
Continuous
 62
     0
440
 16777216
100
AcDbPoint
 10
238.2788145252583
 20
222.3352958610662
 30
0.0
  0
ENDBLK
  5
F6F
330
F6D
100
AcDbEntity
  8
0
100
AcDbBlockEnd
  0
BLOCK
  5
106C
330
106B
100
AcDbEntity
  8
0
100
AcDbBlockBegin
  2
*D33
 70
     1
 10
0.0
 20
0.0
 30
0.0
  3
*D33
  1

  0
LINE
  5
1143
330
106B
100
AcDbEntity
  8
Bemaßungen(DIN)
  6
Continuous
 62
     7
440
 16777216
370
    25
100
AcDbLine
 10
235.7788145252583
 20
189.2117767324929
 30
0.0
 11
235.7788145252583
 21
158.3400136564247
 31
0.0
  0
LINE
  5
1144
330
106B
100
AcDbEntity
  8
Bemaßungen(DIN)
  6
Continuous
 62
     7
440
 16777216
370
    25
100
AcDbLine
 10
256.7788145252583
 20
189.2117767324882
 30
0.0
 11
256.7788145252583
 21
158.3400136564247
 31
0.0
  0
LINE
  5
1145
330
106B
100
AcDbEntity
  8
Bemaßungen(DIN)
  6
Continuous
 62
     7
440
 16777216
370
    25
100
AcDbLine
 10
240.7788145252583
 20
164.6900136564247
 30
0.0
 11
251.7788145252583
 21
164.6900136564247
 31
0.0
  0
SOLID
  5
1146
330
106B
100
AcDbEntity
  8
Bemaßungen(DIN)
  6
Continuous
 62
     7
440
 16777216
100
AcDbTrace
 10
240.7788145252583
 20
165.523346989758
 30
0.0
 11
240.7788145252583
 21
163.8566803230913
 31
0.0
 12
235.7788145252583
 22
164.6900136564247
 32
0.0
 13
235.7788145252583
 23
164.6900136564247
 33
0.0
  0
SOLID
  5
1147
330
106B
100
AcDbEntity
  8
Bemaßungen(DIN)
  6
Continuous
 62
     7
440
 16777216
100
AcDbTrace
 10
251.7788145252583
 20
165.523346989758
 30
0.0
 11
251.7788145252583
 21
163.8566803230913
 31
0.0
 12
256.7788145252583
 22
164.6900136564247
 32
0.0
 13
256.7788145252583
 23
164.6900136564247
 33
0.0
  0
MTEXT
  5
1148
330
106B
100
AcDbEntity
  8
Bemaßungen(DIN)
  6
Continuous
 62
   250
420
  4144959
440
 16777216
370
    25
100
AcDbMText
 10
241.8811337356768
 20
173.3186630834214
 30
0.0
 40
7.0
 41
0.0
 46
0.0
 71
     1
 72
     1
  1
\A1;21
  7
STANDARD-DIN~0
 73
     1
 44
1.0
  0
POINT
  5
1149
330
106B
100
AcDbEntity
  8
Defpoints
  6
Continuous
 62
     0
440
 16777216
100
AcDbPoint
 10
235.7788145252583
 20
189.2117767324929
 30
0.0
  0
POINT
  5
114A
330
106B
100
AcDbEntity
  8
Defpoints
  6
Continuous
 62
     0
440
 16777216
100
AcDbPoint
 10
256.7788145252583
 20
189.2117767324882
 30
0.0
  0
POINT
  5
114B
330
106B
100
AcDbEntity
  8
Defpoints
  6
Continuous
 62
     0
440
 16777216
100
AcDbPoint
 10
256.7788145252583
 20
164.6900136564247
 30
0.0
  0
ENDBLK
  5
106D
330
106B
100
AcDbEntity
  8
0
100
AcDbBlockEnd
  0
BLOCK
  5
114E
330
114D
100
AcDbEntity
  8
0
100
AcDbBlockBegin
  2
*D34
 70
     1
 10
0.0
 20
0.0
 30
0.0
  3
*D34
  1

  0
LINE
  5
1250
330
114D
100
AcDbEntity
  8
Bemaßungen(DIN)
  6
Continuous
 62
     7
440
 16777216
370
    25
100
AcDbLine
 10
252.2788145252583
 20
186.21177673249
 30
0.0
 11
283.1288145252584
 21
186.21177673249
 31
0.0
  0
LINE
  5
1251
330
114D
100
AcDbEntity
  8
Bemaßungen(DIN)
  6
Continuous
 62
     7
440
 16777216
370
    25
100
AcDbLine
 10
256.7788145252583
 20
194.2117767324861
 30
0.0
 11
283.1288145252584
 21
194.2117767324861
 31
0.0
  0
LINE
  5
1252
330
114D
100
AcDbEntity
  8
Bemaßungen(DIN)
  6
Continuous
 62
     7
440
 16777216
370
    25
100
AcDbLine
 10
276.7788145252584
 20
181.21177673249
 30
0.0
 11
276.7788145252584
 21
176.21177673249
 31
0.0
  0
LINE
  5
1253
330
114D
100
AcDbEntity
  8
Bemaßungen(DIN)
  6
Continuous
 62
     7
440
 16777216
370
    25
100
AcDbLine
 10
276.7788145252584
 20
199.2117767324861
 30
0.0
 11
276.7788145252584
 21
212.0243279189527
 31
0.0
  0
LINE
  5
1254
330
114D
100
AcDbEntity
  8
Bemaßungen(DIN)
  6
Continuous
 62
     7
440
 16777216
370
    25
100
AcDbLine
 10
276.7788145252584
 20
186.21177673249
 30
0.0
 11
276.7788145252584
 21
194.2117767324861
 31
0.0
  0
SOLID
  5
1255
330
114D
100
AcDbEntity
  8
Bemaßungen(DIN)
  6
Continuous
 62
     7
440
 16777216
100
AcDbTrace
 10
275.9454811919251
 20
181.21177673249
 30
0.0
 11
277.6121478585917
 21
181.21177673249
 31
0.0
 12
276.7788145252584
 22
186.21177673249
 32
0.0
 13
276.7788145252584
 23
186.21177673249
 33
0.0
  0
SOLID
  5
1256
330
114D
100
AcDbEntity
  8
Bemaßungen(DIN)
  6
Continuous
 62
     7
440
 16777216
100
AcDbTrace
 10
275.9454811919251
 20
199.2117767324861
 30
0.0
 11
277.6121478585917
 21
199.2117767324861
 31
0.0
 12
276.7788145252584
 22
194.2117767324861
 32
0.0
 13
276.7788145252584
 23
194.2117767324861
 33
0.0
  0
MTEXT
  5
1257
330
114D
100
AcDbEntity
  8
Bemaßungen(DIN)
  6
Continuous
 62
   250
420
  4144959
440
 16777216
370
    25
100
AcDbMText
 10
268.0307926555477
 20
205.8117767324861
 30
0.0
 40
7.0
 41
0.0
 46
0.0
 71
     1
 72
     1
  1
\A1;8
  7
STANDARD-DIN~0
 11
0.0000000000000001
 21
1.0
 31
0.0
 73
     1
 44
1.0
  0
POINT
  5
1258
330
114D
100
AcDbEntity
  8
Defpoints
  6
Continuous
 62
     0
440
 16777216
100
AcDbPoint
 10
252.2788145252583
 20
186.21177673249
 30
0.0
  0
POINT
  5
1259
330
114D
100
AcDbEntity
  8
Defpoints
  6
Continuous
 62
     0
440
 16777216
100
AcDbPoint
 10
256.7788145252583
 20
194.2117767324861
 30
0.0
  0
POINT
  5
125A
330
114D
100
AcDbEntity
  8
Defpoints
  6
Continuous
 62
     0
440
 16777216
100
AcDbPoint
 10
276.7788145252584
 20
194.2117767324861
 30
0.0
  0
ENDBLK
  5
114F
330
114D
100
AcDbEntity
  8
0
100
AcDbBlockEnd
  0
BLOCK
  5
125E
330
125D
100
AcDbEntity
  8
0
100
AcDbBlockBegin
  2
*D35
 70
     1
 10
0.0
 20
0.0
 30
0.0
  3
*D35
  1

  0
LINE
  5
133C
330
125D
100
AcDbEntity
  8
Bemaßungen(DIN)
  6
Continuous
 62
     7
440
 16777216
370
    25
100
AcDbLine
 10
258.4788145253114
 20
364.168986976691
 30
0.0
 11
263.4788145253113
 21
364.168986976691
 31
0.0
  0
LINE
  5
133D
330
125D
100
AcDbEntity
  8
Bemaßungen(DIN)
  6
Continuous
 62
     7
440
 16777216
370
    25
100
AcDbLine
 10
233.8788145253114
 20
364.168986976691
 30
0.0
 11
207.435058453469
 21
364.168986976691
 31
0.0
  0
LINE
  5
133E
330
125D
100
AcDbEntity
  8
Bemaßungen(DIN)
  6
Continuous
 62
     7
440
 16777216
370
    25
100
AcDbLine
 10
253.4788145253114
 20
364.168986976691
 30
0.0
 11
238.8788145253114
 21
364.168986976691
 31
0.0
  0
SOLID
  5
133F
330
125D
100
AcDbEntity
  8
Bemaßungen(DIN)
  6
Continuous
 62
     7
440
 16777216
100
AcDbTrace
 10
258.4788145253114
 20
365.0023203100243
 30
0.0
 11
258.4788145253114
 21
363.3356536433577
 31
0.0
 12
253.4788145253114
 22
364.168986976691
 32
0.0
 13
253.4788145253114
 23
364.168986976691
 33
0.0
  0
SOLID
  5
1340
330
125D
100
AcDbEntity
  8
Bemaßungen(DIN)
  6
Continuous
 62
     7
440
 16777216
100
AcDbTrace
 10
233.8788145253114
 20
365.0023203100243
 30
0.0
 11
233.8788145253114
 21
363.3356536433577
 31
0.0
 12
238.8788145253114
 22
364.168986976691
 32
0.0
 13
238.8788145253114
 23
364.168986976691
 33
0.0
  0
MTEXT
  5
1341
330
125D
100
AcDbEntity
  8
Bemaßungen(DIN)
  6
Continuous
 62
   250
420
  4144959
440
 16777216
370
    25
100
AcDbMText
 10
209.035058453469
 20
372.9170088464016
 30
0.0
 40
7.0
 41
0.0
 46
0.0
 71
     1
 72
     1
  1
\A1;14.6
  7
STANDARD-DIN~0
 73
     1
 44
1.0
  0
POINT
  5
1342
330
125D
100
AcDbEntity
  8
Defpoints
  6
Continuous
 62
     0
440
 16777216
100
AcDbPoint
 10
238.8788145253114
 20
362.8311915451261
 30
0.0
  0
POINT
  5
1343
330
125D
100
AcDbEntity
  8
Defpoints
  6
Continuous
 62
     0
440
 16777216
100
AcDbPoint
 10
253.4788145253114
 20
362.8311915451261
 30
0.0
  0
POINT
  5
1344
330
125D
100
AcDbEntity
  8
Defpoints
  6
Continuous
 62
     0
440
 16777216
100
AcDbPoint
 10
253.4788145253114
 20
364.168986976691
 30
0.0
  0
ENDBLK
  5
125F
330
125D
100
AcDbEntity
  8
0
100
AcDbBlockEnd
  0
BLOCK
  5
1347
330
1346
100
AcDbEntity
  8
0
100
AcDbBlockBegin
  2
*D36
 70
     1
 10
0.0
 20
0.0
 30
0.0
  3
*D36
  1

  0
LINE
  5
1435
330
1346
100
AcDbEntity
  8
Bemaßungen(DIN)
  6
Continuous
 62
     7
440
 16777216
370
    25
100
AcDbLine
 10
253.0788145253114
 20
378.0563073637701
 30
0.0
 11
253.0788145253114
 21
395.2714140860259
 31
0.0
  0
LINE
  5
1436
330
1346
100
AcDbEntity
  8
Bemaßungen(DIN)
  6
Continuous
 62
     7
440
 16777216
370
    25
100
AcDbLine
 10
248.0788145253114
 20
388.9214140860259
 30
0.0
 11
243.0788145253114
 21
388.9214140860259
 31
0.0
  0
LINE
  5
1437
330
1346
100
AcDbEntity
  8
Bemaßungen(DIN)
  6
Continuous
 62
     7
440
 16777216
370
    25
100
AcDbLine
 10
261.7788145253114
 20
388.9214140860259
 30
0.0
 11
282.7182416117429
 21
388.9214140860259
 31
0.0
  0
LINE
  5
1438
330
1346
100
AcDbEntity
  8
Bemaßungen(DIN)
  6
Continuous
 62
     7
440
 16777216
370
    25
100
AcDbLine
 10
253.0788145253114
 20
388.9214140860259
 30
0.0
 11
256.7788145253114
 21
388.9214140860259
 31
0.0
  0
SOLID
  5
1439
330
1346
100
AcDbEntity
  8
Bemaßungen(DIN)
  6
Continuous
 62
     7
440
 16777216
100
AcDbTrace
 10
248.0788145253114
 20
389.7547474193592
 30
0.0
 11
248.0788145253114
 21
388.0880807526926
 31
0.0
 12
253.0788145253114
 22
388.9214140860259
 32
0.0
 13
253.0788145253114
 23
388.9214140860259
 33
0.0
  0
SOLID
  5
143A
330
1346
100
AcDbEntity
  8
Bemaßungen(DIN)
  6
Continuous
 62
     7
440
 16777216
100
AcDbTrace
 10
261.7788145253114
 20
389.7547474193592
 30
0.0
 11
261.7788145253114
 21
388.0880807526926
 31
0.0
 12
256.7788145253114
 22
388.9214140860259
 32
0.0
 13
256.7788145253114
 23
388.9214140860259
 33
0.0
  0
MTEXT
  5
143B
330
1346
100
AcDbEntity
  8
Bemaßungen(DIN)
  6
Continuous
 62
   250
420
  4144959
440
 16777216
370
    25
100
AcDbMText
 10
268.3788145253114
 20
397.6742108534451
 30
0.0
 40
7.0
 41
0.0
 46
0.0
 71
     1
 72
     1
  1
\A1;3.7
  7
STANDARD-DIN~0
 73
     1
 44
1.0
  0
POINT
  5
143C
330
1346
100
AcDbEntity
  8
Defpoints
  6
Continuous
 62
     0
440
 16777216
100
AcDbPoint
 10
253.0788145253114
 20
378.0563073637701
 30
0.0
  0
POINT
  5
143D
330
1346
100
AcDbEntity
  8
Defpoints
  6
Continuous
 62
     0
440
 16777216
100
AcDbPoint
 10
256.7788145253114
 20
387.5203333062523
 30
0.0
  0
POINT
  5
143E
330
1346
100
AcDbEntity
  8
Defpoints
  6
Continuous
 62
     0
440
 16777216
100
AcDbPoint
 10
256.7788145253114
 20
388.9214140860259
 30
0.0
  0
ENDBLK
  5
1348
330
1346
100
AcDbEntity
  8
0
100
AcDbBlockEnd
  0
ENDSEC
  0
SECTION
  2
ENTITIES
  0
ARC
  5
1DB
330
70
100
AcDbEntity
  8
Sichtbare Kanten(DIN)
100
AcDbCircle
 10
303.0788145253112
 20
378.0563073637701
 30
0.0
 40
49.99999999999971
100
AcDbArc
 50
172.7477531349406
 51
187.2522468650592
  0
LINE
  5
1DC
330
70
100
AcDbEntity
  8
Sichtbare Kanten(DIN)
100
AcDbLine
 10
253.4788145253114
 20
371.7444138285464
 30
0.0
 11
253.4788145253114
 21
357.0563073637701
 31
0.0
  0
LINE
  5
1DD
330
70
100
AcDbEntity
  8
Sichtbare Kanten(DIN)
100
AcDbLine
 10
253.4788145253114
 20
396.0563073637701
 30
0.0
 11
253.4788145253114
 21
384.3682008989938
 31
0.0
  0
LINE
  5
1DE
330
70
100
AcDbEntity
  8
Sichtbare Kanten(DIN)
100
AcDbLine
 10
251.4788145253114
 20
355.0563073637702
 30
0.0
 11
240.8788145253114
 21
355.0563073637702
 31
0.0
  0
LINE
  5
1DF
330
70
100
AcDbEntity
  8
Sichtbare Kanten(DIN)
100
AcDbLine
 10
238.8788145253114
 20
357.0563073637701
 30
0.0
 11
238.8788145253114
 21
396.0563073637701
 31
0.0
  0
LINE
  5
1E0
330
70
100
AcDbEntity
  8
Sichtbare Kanten(DIN)
100
AcDbLine
 10
240.8788145253114
 20
398.0563073637701
 30
0.0
 11
251.4788145253114
 21
398.0563073637701
 31
0.0
  0
ARC
  5
1E1
330
70
100
AcDbEntity
  8
Sichtbare Kanten(DIN)
100
AcDbCircle
 10
240.8788145253114
 20
357.0563073637701
 30
0.0
 40
1.999999999999988
100
AcDbArc
 50
180.0
 51
270.0
  0
ARC
  5
1E2
330
70
100
AcDbEntity
  8
Sichtbare Kanten(DIN)
100
AcDbCircle
 10
240.8788145253114
 20
396.0563073637701
 30
0.0
 40
1.999999999999997
100
AcDbArc
 50
90.0
 51
180.0
  0
ARC
  5
1E3
330
70
100
AcDbEntity
  8
Sichtbare Kanten(DIN)
100
AcDbCircle
 10
251.4788145253114
 20
357.0563073637701
 30
0.0
 40
1.999999999999992
100
AcDbArc
 50
270.0
 51
0.0
  0
ARC
  5
1E4
330
70
100
AcDbEntity
  8
Sichtbare Kanten(DIN)
100
AcDbCircle
 10
251.4788145253114
 20
396.0563073637701
 30
0.0
 40
2.000000000000001
100
AcDbArc
 50
0.0
 51
90.0
  0
LINE
  5
1E5
330
70
100
AcDbEntity
  8
Sichtbare Kanten(DIN)
100
AcDbLine
 10
243.5890593473897
 20
407.3900612313447
 30
0.0
 11
245.9890593473706
 21
406.7469793113521
 31
0.0
  0
LINE
  5
1E6
330
70
100
AcDbEntity
  8
Sichtbare Kanten(DIN)
100
AcDbLine
 10
243.5890593473897
 20
407.1415916313447
 30
0.0
 11
243.5890593473897
 21
407.3900612313447
 31
0.0
  0
LINE
  5
1E7
330
70
100
AcDbEntity
  8
Sichtbare Kanten(DIN)
100
AcDbLine
 10
245.9890593473706
 20
406.4985097113521
 30
0.0
 11
243.5890593473897
 21
407.1415916313447
 31
0.0
  0
LINE
  5
1E8
330
70
100
AcDbEntity
  8
Sichtbare Kanten(DIN)
100
AcDbLine
 10
245.9890593473706
 20
406.7469793113521
 30
0.0
 11
245.9890593473706
 21
406.4985097113521
 31
0.0
  0
LINE
  5
1E9
330
70
100
AcDbEntity
  8
Sichtbare Kanten(DIN)
100
AcDbLine
 10
245.1250574566282
 20
406.1337190733792
 30
0.0
 11
244.2520246802232
 21
406.3676489042422
 31
0.0
  0
LINE
  5
1EA
330
70
100
AcDbEntity
  8
Sichtbare Kanten(DIN)
100
AcDbLine
 10
245.1250574566282
 20
406.3821656613304
 30
0.0
 11
245.1250574566282
 21
406.1337190733792
 31
0.0
  0
LINE
  5
1EB
330
70
100
AcDbEntity
  8
Sichtbare Kanten(DIN)
100
AcDbLine
 10
244.3141366499266
 20
406.599452540222
 30
0.0
 11
245.1250574566282
 21
406.3821656613304
 31
0.0
  0
ARC
  5
1EC
330
70
100
AcDbEntity
  8
Sichtbare Kanten(DIN)
100
AcDbCircle
 10
244.1650557712169
 20
406.0430784644206
 30
0.0
 40
0.576001059565578
100
AcDbArc
 50
74.99991406317132
 51
215.0025702396788
  0
LINE
  5
1ED
330
70
100
AcDbEntity
  8
Sichtbare Kanten(DIN)
100
AcDbLine
 10
243.7310468607161
 20
405.6586853793423
 30
0.0
 11
243.6932381468287
 21
405.712676663673
 31
0.0
  0
LINE
  5
1EE
330
70
100
AcDbEntity
  8
Sichtbare Kanten(DIN)
100
AcDbLine
 10
243.5890593473897
 20
405.696731047128
 30
0.0
 11
243.7310468607161
 21
405.6586853793423
 31
0.0
  0
LINE
  5
1EF
330
70
100
AcDbEntity
  8
Sichtbare Kanten(DIN)
100
AcDbLine
 10
243.5890593473897
 20
405.4482633671285
 30
0.0
 11
243.5890593473897
 21
405.696731047128
 31
0.0
  0
LINE
  5
1F0
330
70
100
AcDbEntity
  8
Sichtbare Kanten(DIN)
100
AcDbLine
 10
244.8850506669635
 20
405.1010014562568
 30
0.0
 11
243.5890593473897
 21
405.4482633671285
 31
0.0
  0
LINE
  5
1F1
330
70
100
AcDbEntity
  8
Sichtbare Kanten(DIN)
100
AcDbLine
 10
244.8850506669635
 20
404.7531492961823
 30
0.0
 11
244.8850506669635
 21
405.1010014562568
 31
0.0
  0
LINE
  5
1F2
330
70
100
AcDbEntity
  8
Sichtbare Kanten(DIN)
100
AcDbLine
 10
243.5890593473897
 20
405.100411207054
 30
0.0
 11
244.8850506669635
 21
404.7531492961823
 31
0.0
  0
LINE
  5
1F3
330
70
100
AcDbEntity
  8
Sichtbare Kanten(DIN)
100
AcDbLine
 10
243.5890593473897
 20
404.8519435271284
 30
0.0
 11
243.5890593473897
 21
405.100411207054
 31
0.0
  0
LINE
  5
1F4
330
70
100
AcDbEntity
  8
Sichtbare Kanten(DIN)
100
AcDbLine
 10
244.8850506669635
 20
404.5046816162568
 30
0.0
 11
243.5890593473897
 21
404.8519435271284
 31
0.0
  0
LINE
  5
1F5
330
70
100
AcDbEntity
  8
Sichtbare Kanten(DIN)
100
AcDbLine
 10
244.8850506669634
 20
403.3647147363576
 30
0.0
 11
244.8850506669635
 21
404.5046816162568
 31
0.0
  0
LINE
  5
1F6
330
70
100
AcDbEntity
  8
Sichtbare Kanten(DIN)
100
AcDbLine
 10
243.8770620968649
 20
404.4269164800047
 30
0.0
 11
244.8850506669634
 21
403.3647147363576
 31
0.0
  0
LINE
  5
1F7
330
70
100
AcDbEntity
  8
Sichtbare Kanten(DIN)
100
AcDbLine
 10
243.5890593473897
 20
404.5040870471285
 30
0.0
 11
243.8770620968649
 21
404.4269164800047
 31
0.0
  0
LINE
  5
1F8
330
70
100
AcDbEntity
  8
Sichtbare Kanten(DIN)
100
AcDbLine
 10
243.5890593473896
 20
403.2935419271285
 30
0.0
 11
243.5890593473897
 21
404.5040870471285
 31
0.0
  0
LINE
  5
1F9
330
70
100
AcDbEntity
  8
Sichtbare Kanten(DIN)
100
AcDbLine
 10
243.829057928726
 20
403.2292341152607
 30
0.0
 11
243.5890593473896
 21
403.2935419271285
 31
0.0
  0
LINE
  5
1FA
330
70
100
AcDbEntity
  8
Sichtbare Kanten(DIN)
100
AcDbLine
 10
243.8290579287261
 20
404.1288494085281
 30
0.0
 11
243.829057928726
 21
403.2292341152607
 31
0.0
  0
LINE
  5
1FB
330
70
100
AcDbEntity
  8
Sichtbare Kanten(DIN)
100
AcDbLine
 10
244.8537233475139
 20
403.0490738765648
 30
0.0
 11
243.8290579287261
 21
404.1288494085281
 31
0.0
  0
LINE
  5
1FC
330
70
100
AcDbEntity
  8
Sichtbare Kanten(DIN)
100
AcDbLine
 10
245.1250574566282
 20
402.9763696849605
 30
0.0
 11
244.8537233475139
 21
403.0490738765648
 31
0.0
  0
LINE
  5
1FD
330
70
100
AcDbEntity
  8
Sichtbare Kanten(DIN)
100
AcDbLine
 10
245.1250574566282
 20
404.4403716049609
 30
0.0
 11
245.1250574566282
 21
402.9763696849605
 31
0.0
  0
LINE
  5
1FE
330
70
100
AcDbEntity
  8
Sichtbare Kanten(DIN)
100
AcDbLine
 10
245.9890593473706
 20
404.2088616071358
 30
0.0
 11
245.1250574566282
 21
404.4403716049609
 31
0.0
  0
LINE
  5
1FF
330
70
100
AcDbEntity
  8
Sichtbare Kanten(DIN)
100
AcDbLine
 10
245.9890593473706
 20
404.4573292870614
 30
0.0
 11
245.9890593473706
 21
404.2088616071358
 31
0.0
  0
LINE
  5
200
330
70
100
AcDbEntity
  8
Sichtbare Kanten(DIN)
100
AcDbLine
 10
245.1250574566282
 20
404.6888392848865
 30
0.0
 11
245.9890593473706
 21
404.4573292870614
 31
0.0
  0
LINE
  5
201
330
70
100
AcDbEntity
  8
Sichtbare Kanten(DIN)
100
AcDbLine
 10
245.1250574566282
 20
405.2851591249605
 30
0.0
 11
245.1250574566282
 21
404.6888392848865
 31
0.0
  0
LINE
  5
202
330
70
100
AcDbEntity
  8
Sichtbare Kanten(DIN)
100
AcDbLine
 10
244.0916892257122
 20
405.5620509691281
 30
0.0
 11
245.1250574566282
 21
405.2851591249605
 31
0.0
  0
LINE
  5
203
330
70
100
AcDbEntity
  8
Sichtbare Kanten(DIN)
100
AcDbLine
 10
243.8898127997632
 20
405.8503328595287
 30
0.0
 11
244.0916892257122
 21
405.5620509691281
 31
0.0
  0
ARC
  5
204
330
70
100
AcDbEntity
  8
Sichtbare Kanten(DIN)
100
AcDbCircle
 10
244.1650557712169
 20
406.0430784644206
 30
0.0
 40
0.3360201802567041
100
AcDbArc
 50
74.99991406315776
 51
215.002570239645
  0
LINE
  5
205
330
70
100
AcDbEntity
  8
Sichtbare Kanten(DIN)
100
AcDbLine
 10
244.7890587192956
 20
408.1363696395266
 30
0.0
 11
244.7890587192956
 21
407.4163686795286
 31
0.0
  0
LINE
  5
206
330
70
100
AcDbEntity
  8
Sichtbare Kanten(DIN)
100
AcDbLine
 10
244.5490586472947
 20
408.2006778508191
 30
0.0
 11
244.7890587192956
 21
408.1363696395266
 31
0.0
  0
LINE
  5
207
330
70
100
AcDbEntity
  8
Sichtbare Kanten(DIN)
100
AcDbLine
 10
244.5490586472947
 20
407.7291440907641
 30
0.0
 11
244.5490586472947
 21
408.2006778508191
 31
0.0
  0
LINE
  5
208
330
70
100
AcDbEntity
  8
Sichtbare Kanten(DIN)
100
AcDbLine
 10
243.9252476155354
 20
407.8962947557722
 30
0.0
 11
244.5490586472947
 21
407.7291440907641
 31
0.0
  0
LINE
  5
209
330
70
100
AcDbEntity
  8
Sichtbare Kanten(DIN)
100
AcDbLine
 10
243.8385428745569
 20
408.3880194764713
 30
0.0
 11
243.9252476155354
 21
407.8962947557722
 31
0.0
  0
ARC
  5
20A
330
70
100
AcDbEntity
  8
Sichtbare Kanten(DIN)
100
AcDbCircle
 10
244.4530557542902
 20
408.4963751840905
 30
0.0
 40
0.6239928194557374
100
AcDbArc
 50
80.30575756240031
 51
190.0000458397118
  0
ARC
  5
20B
330
70
100
AcDbEntity
  8
Sichtbare Kanten(DIN)
100
AcDbCircle
 10
244.1135820904702
 20
406.5091700980793
 30
0.0
 40
2.63998548370148
100
AcDbArc
 50
61.52252104450359
 51
80.30575756240111
  0
ARC
  5
20C
330
70
100
AcDbEntity
  8
Sichtbare Kanten(DIN)
100
AcDbCircle
 10
245.0290591395681
 20
408.1968506937388
 30
0.0
 40
0.7199948534151441
100
AcDbArc
 50
0.0
 51
61.52252104450258
  0
LINE
  5
20D
330
70
100
AcDbEntity
  8
Sichtbare Kanten(DIN)
100
AcDbLine
 10
245.7490539929828
 20
408.007752565611
 30
0.0
 11
245.7490539929828
 21
408.1968506937389
 31
0.0
  0
ARC
  5
20E
330
70
100
AcDbEntity
  8
Sichtbare Kanten(DIN)
100
AcDbCircle
 10
245.269064493956
 20
408.0077525656109
 30
0.0
 40
0.4799894990277532
100
AcDbArc
 50
270.0000000000297
 51
0.0
  0
LINE
  5
20F
330
70
100
AcDbEntity
  8
Sichtbare Kanten(DIN)
100
AcDbLine
 10
245.2690644939565
 20
407.2877577121962
 30
0.0
 11
245.2690644939563
 21
407.5277630665842
 31
0.0
  0
ARC
  5
210
330
70
100
AcDbEntity
  8
Sichtbare Kanten(DIN)
100
AcDbCircle
 10
245.269064493956
 20
408.007752565611
 30
0.0
 40
0.7199948534151525
100
AcDbArc
 50
270.0000000000367
 51
0.0
  0
LINE
  5
211
330
70
100
AcDbEntity
  8
Sichtbare Kanten(DIN)
100
AcDbLine
 10
245.9890593473706
 20
408.1968506937388
 30
0.0
 11
245.9890593473706
 21
408.007752565611
 31
0.0
  0
ARC
  5
212
330
70
100
AcDbEntity
  8
Sichtbare Kanten(DIN)
100
AcDbCircle
 10
245.0290591395681
 20
408.1968506937388
 30
0.0
 40
0.9600002078025472
100
AcDbArc
 50
0.0
 51
61.52252104450628
  0
ARC
  5
213
330
70
100
AcDbEntity
  8
Sichtbare Kanten(DIN)
100
AcDbCircle
 10
244.1135820904702
 20
406.5091700980792
 30
0.0
 40
2.879990838089014
100
AcDbArc
 50
61.52252104450354
 51
80.30575756240443
  0
ARC
  5
214
330
70
100
AcDbEntity
  8
Sichtbare Kanten(DIN)
100
AcDbCircle
 10
244.4530557542902
 20
408.4963751840905
 30
0.0
 40
0.8639981738431384
100
AcDbArc
 50
80.30575756241391
 51
190.000045839717
  0
LINE
  5
215
330
70
100
AcDbEntity
  8
Sichtbare Kanten(DIN)
100
AcDbLine
 10
243.7154385473607
 20
407.7040460634937
 30
0.0
 11
243.6021837741348
 21
408.3463427949515
 31
0.0
  0
LINE
  5
216
330
70
100
AcDbEntity
  8
Sichtbare Kanten(DIN)
100
AcDbLine
 10
244.7890587192956
 20
407.4163686795286
 30
0.0
 11
243.7154385473607
 21
407.7040460634937
 31
0.0
  0
CIRCLE
  5
217
330
70
100
AcDbEntity
  8
Sichtbare Kanten(DIN)
100
AcDbCircle
 10
244.2788145253114
 20
335.5563456388172
 30
0.0
 40
2.650000000000001
  0
CIRCLE
  5
218
330
70
100
AcDbEntity
  8
Sichtbare Kanten(DIN)
100
AcDbCircle
 10
244.2788145253114
 20
335.5563456388172
 30
0.0
 40
4.750000000000001
  0
CIRCLE
  5
219
330
70
100
AcDbEntity
  8
Sichtbare Kanten(DIN)
100
AcDbCircle
 10
244.2788145253114
 20
417.5563456388172
 30
0.0
 40
4.75
  0
CIRCLE
  5
21A
330
70
100
AcDbEntity
  8
Sichtbare Kanten(DIN)
100
AcDbCircle
 10
244.2788145253114
 20
417.5563456388172
 30
0.0
 40
2.65
  0
LINE
  5
21B
330
70
100
AcDbEntity
  8
Sichtbare Kanten(DIN)
100
AcDbLine
 10
252.2788145253114
 20
431.5563456388172
 30
0.0
 11
238.7788145253114
 21
431.5563456388172
 31
0.0
  0
LINE
  5
21C
330
70
100
AcDbEntity
  8
Sichtbare Kanten(DIN)
100
AcDbLine
 10
238.7788145253114
 20
321.5563456388172
 30
0.0
 11
252.2788145253114
 21
321.5563456388172
 31
0.0
  0
LINE
  5
21D
330
70
100
AcDbEntity
  8
Sichtbare Kanten(DIN)
100
AcDbLine
 10
252.2788145253114
 20
321.5563456388172
 30
0.0
 11
252.2788145253114
 21
326.5563456388172
 31
0.0
  0
LINE
  5
21E
330
70
100
AcDbEntity
  8
Sichtbare Kanten(DIN)
100
AcDbLine
 10
252.2788145253114
 20
426.5563456388171
 30
0.0
 11
252.2788145253114
 21
431.5563456388172
 31
0.0
  0
LINE
  5
21F
330
70
100
AcDbEntity
  8
Sichtbare Kanten(DIN)
100
AcDbLine
 10
238.2788145253114
 20
431.5563456388172
 30
0.0
 11
238.7788145253114
 21
431.5563456388172
 31
0.0
  0
LINE
  5
220
330
70
100
AcDbEntity
  8
Sichtbare Kanten(DIN)
100
AcDbLine
 10
238.7788145253114
 20
321.5563456388172
 30
0.0
 11
238.2788145253114
 21
321.5563456388172
 31
0.0
  0
LINE
  5
221
330
70
100
AcDbEntity
  8
Sichtbare Kanten(DIN)
100
AcDbLine
 10
252.2788145253114
 20
326.5563456388172
 30
0.0
 11
253.7788145253113
 21
326.5563456388172
 31
0.0
  0
LINE
  5
222
330
70
100
AcDbEntity
  8
Sichtbare Kanten(DIN)
100
AcDbLine
 10
253.7788145253113
 20
426.5563456388171
 30
0.0
 11
252.2788145253114
 21
426.5563456388171
 31
0.0
  0
SPLINE
  5
223
330
70
100
AcDbEntity
  8
Sichtbare Kanten(DIN)
100
AcDbSpline
210
0.0
220
0.0
230
1.0
 70
     8
 71
     3
 72
    14
 73
    10
 74
     0
 42
0.000000001
 43
0.0000000001
 40
-0.4594261854025288
 40
-0.4594261854025288
 40
-0.4594261854025288
 40
-0.4594261854025288
 40
-0.3428262292020623
 40
-0.3428262292020623
 40
-0.2262262730015958
 40
-0.2262262730015958
 40
-0.113113136500798
 40
-0.113113136500798
 40
0.0
 40
0.0
 40
0.0
 40
0.0
 10
256.7788145253114
 20
425.9725441259129
 30
0.0
 10
256.7788145253114
 20
426.1182940711634
 30
0.0
 10
256.7093371335141
 20
426.2450120858504
 30
0.0
 10
256.4072232173107
 20
426.4239309890252
 30
0.0
 10
256.1741284382907
 20
426.4776670956569
 30
0.0
 10
255.6343348374814
 20
426.5373161892473
 30
0.0
 10
255.2972146415231
 20
426.5486959404807
 30
0.0
 10
254.5579646398848
 20
426.5574582276287
 30
0.0
 10
254.1558583136473
 20
426.5563456388171
 30
0.0
 10
253.7788145253113
 20
426.5563456388171
 30
0.0
  0
SPLINE
  5
224
330
70
100
AcDbEntity
  8
Sichtbare Kanten(DIN)
100
AcDbSpline
210
0.0
220
0.0
230
1.0
 70
     8
 71
     3
 72
    14
 73
    10
 74
     0
 42
0.000000001
 43
0.0000000001
 40
0.0
 40
0.0
 40
0.0
 40
0.0
 40
0.1131131365007979
 40
0.1131131365007979
 40
0.2262262730015959
 40
0.2262262730015959
 40
0.3428262292020622
 40
0.3428262292020622
 40
0.4594261854025286
 40
0.4594261854025286
 40
0.4594261854025286
 40
0.4594261854025286
 10
253.7788145253113
 20
326.5563456388172
 30
0.0
 10
254.1558583136473
 20
326.5563456388172
 30
0.0
 10
254.5579646398848
 20
326.5552330500055
 30
0.0
 10
255.2972146415231
 20
326.5639953371537
 30
0.0
 10
255.6343348374814
 20
326.575375088387
 30
0.0
 10
256.1741284382907
 20
326.6350241819774
 30
0.0
 10
256.4072232173107
 20
326.6887602886092
 30
0.0
 10
256.7093371335141
 20
326.867679191784
 30
0.0
 10
256.7788145253114
 20
326.9943972064709
 30
0.0
 10
256.7788145253114
 20
327.1401471517215
 30
0.0
  0
LINE
  5
225
330
70
100
AcDbEntity
  8
Verdeckte Kanten(DIN)
100
AcDbLine
 10
252.2788145253114
 20
426.1556877156025
 30
0.0
 11
253.7788145253114
 21
426.1556877156025
 31
0.0
  0
LINE
  5
226
330
70
100
AcDbEntity
  8
Verdeckte Kanten(DIN)
100
AcDbLine
 10
252.2788145253114
 20
426.5563456388171
 30
0.0
 11
252.2788145253114
 21
426.1556877156025
 31
0.0
  0
SPLINE
  5
227
330
70
100
AcDbEntity
  8
Verdeckte Kanten(DIN)
100
AcDbSpline
210
0.0
220
0.0
230
1.0
 70
     8
 71
     3
 72
    14
 73
    10
 74
     0
 42
0.000000001
 43
0.0000000001
 40
0.0
 40
0.0
 40
0.0
 40
0.0
 40
0.0187470064317823
 40
0.0187470064317823
 40
0.0374940128635646
 40
0.0374940128635646
 40
0.0576893276066552
 40
0.0576893276066552
 40
0.0778846423497458
 40
0.0778846423497458
 40
0.0778846423497458
 40
0.0778846423497458
 10
253.7788145253113
 20
426.1556877156025
 30
0.0
 10
253.8413045467506
 20
426.1556877156025
 30
0.0
 10
253.9077330046405
 20
426.1516246999167
 30
0.0
 10
254.0293624056332
 20
426.1349408732775
 30
0.0
 10
254.0845663840801
 20
426.1222772945199
 30
0.0
 10
254.1748155946237
 20
426.0914628625169
 30
0.0
 10
254.2144449067621
 20
426.0707997244909
 30
0.0
 10
254.2664257518261
 20
426.0239813237411
 30
0.0
 10
254.2788145253114
 20
425.9977882693418
 30
0.0
 10
254.2788145253114
 20
425.9725441259129
 30
0.0
  0
LINE
  5
228
330
70
100
AcDbEntity
  8
Verdeckte Kanten(DIN)
100
AcDbLine
 10
252.2788145253114
 20
326.5563456388172
 30
0.0
 11
252.2788145253114
 21
326.9570035620319
 31
0.0
  0
LINE
  5
229
330
70
100
AcDbEntity
  8
Verdeckte Kanten(DIN)
100
AcDbLine
 10
253.7788145253114
 20
326.9570035620319
 30
0.0
 11
252.2788145253114
 21
326.9570035620319
 31
0.0
  0
SPLINE
  5
22A
330
70
100
AcDbEntity
  8
Verdeckte Kanten(DIN)
100
AcDbSpline
210
0.0
220
0.0
230
1.0
 70
     8
 71
     3
 72
    14
 73
    10
 74
     0
 42
0.000000001
 43
0.0000000001
 40
-0.0778846423497458
 40
-0.0778846423497458
 40
-0.0778846423497458
 40
-0.0778846423497458
 40
-0.0576893276066553
 40
-0.0576893276066553
 40
-0.0374940128635648
 40
-0.0374940128635648
 40
-0.0187470064317824
 40
-0.0187470064317824
 40
0.0
 40
0.0
 40
0.0
 40
0.0
 10
254.2788145253114
 20
327.1401471517215
 30
0.0
 10
254.2788145253114
 20
327.1149030082927
 30
0.0
 10
254.2664257518261
 20
327.0887099538932
 30
0.0
 10
254.2144449067621
 20
327.0418915531435
 30
0.0
 10
254.1748155946237
 20
327.0212284151175
 30
0.0
 10
254.0845663840801
 20
326.9904139831144
 30
0.0
 10
254.0293624056332
 20
326.9777504043568
 30
0.0
 10
253.9077330046405
 20
326.9610665777177
 30
0.0
 10
253.8413045467506
 20
326.9570035620319
 30
0.0
 10
253.7788145253113
 20
326.9570035620319
 30
0.0
  0
LINE
  5
22B
330
70
100
AcDbEntity
  8
Verdeckte Kanten(DIN)
100
AcDbLine
 10
254.2788145253114
 20
327.1401471517215
 30
0.0
 11
254.2788145253114
 21
425.9725441259129
 31
0.0
  0
LINE
  5
22C
330
70
100
AcDbEntity
  8
Verdeckte Kanten(DIN)
100
AcDbLine
 10
238.2788145253114
 20
321.5563456388172
 30
0.0
 11
238.2788145253114
 21
431.5563456388172
 31
0.0
  0
LINE
  5
22D
330
70
100
AcDbEntity
  8
Sichtbare Kanten(DIN)
100
AcDbLine
 10
235.7788145253115
 20
311.7528371368344
 30
0.0
 11
235.7788145253115
 21
441.3598541407999
 31
0.0
  0
LINE
  5
22E
330
70
100
AcDbEntity
  8
Sichtbare Kanten(DIN)
100
AcDbLine
 10
238.2788145253114
 20
431.5563456388172
 30
0.0
 11
238.2788145253103
 21
441.5563073637701
 31
0.0
  0
LINE
  5
22F
330
70
100
AcDbEntity
  8
Sichtbare Kanten(DIN)
100
AcDbLine
 10
238.2788145253115
 20
311.5563839138643
 30
0.0
 11
238.2788145253114
 21
321.5563456388172
 31
0.0
  0
LINE
  5
230
330
70
100
AcDbEntity
  8
Sichtbare Kanten(DIN)
100
AcDbLine
 10
256.7788145253114
 20
327.1401471517215
 30
0.0
 11
256.7788145253114
 21
425.9725441259129
 31
0.0
  0
SPLINE
  5
231
330
70
100
AcDbEntity
  8
Sichtbare Kanten(DIN)
100
AcDbSpline
210
0.0
220
0.0
230
1.0
 70
     8
 71
     3
 72
    14
 73
    10
 74
     0
 42
0.000000001
 43
0.0000000001
 40
0.9581911958470524
 40
0.9581911958470524
 40
0.9581911958470524
 40
0.9581911958470524
 40
1.022172376864196
 40
1.022172376864196
 40
1.135191245501312
 40
1.135191245501312
 40
1.248603545330884
 40
1.248603545330884
 40
1.362015845160456
 40
1.362015845160456
 40
1.362015845160456
 40
1.362015845160456
 10
238.2788145253103
 20
441.5563073637701
 30
0.0
 10
238.0592992249859
 20
441.5562396713154
 30
0.0
 10
237.8398979107805
 20
441.5560722816599
 30
0.0
 10
237.2611014496099
 20
441.5536912038965
 30
0.0
 10
236.9237849224163
 20
441.5497358677558
 30
0.0
 10
236.3902764535417
 20
441.5293391065138
 30
0.0
 10
236.1591375627943
 20
441.5114021044609
 30
0.0
 10
235.8534282242207
 20
441.4515796116015
 30
0.0
 10
235.7788145253114
 20
441.409163836378
 30
0.0
 10
235.7788145253114
 20
441.3598541407999
 30
0.0
  0
SPLINE
  5
232
330
70
100
AcDbEntity
  8
Sichtbare Kanten(DIN)
100
AcDbSpline
210
0.0
220
0.0
230
1.0
 70
     8
 71
     3
 72
    14
 73
    10
 74
     0
 42
0.000000001
 43
0.0000000001
 40
0.4562911712937032
 40
0.4562911712937032
 40
0.4562911712937032
 40
0.4562911712937032
 40
0.5697034711232752
 40
0.5697034711232752
 40
0.6831157709528471
 40
0.6831157709528471
 40
0.7961346395899635
 40
0.7961346395899635
 40
0.8601158206071076
 40
0.8601158206071076
 40
0.8601158206071076
 40
0.8601158206071076
 10
235.7788145253114
 20
311.7528371368345
 30
0.0
 10
235.7788145253114
 20
311.7035274412564
 30
0.0
 10
235.8534282242207
 20
311.6611116660329
 30
0.0
 10
236.1591375627942
 20
311.6012891731736
 30
0.0
 10
236.3902764535417
 20
311.5833521711205
 30
0.0
 10
236.9237849224163
 20
311.5629554098786
 30
0.0
 10
237.2611014496099
 20
311.5590000737378
 30
0.0
 10
237.8398979107805
 20
311.5566189959745
 30
0.0
 10
238.059299224987
 20
311.5564516063189
 30
0.0
 10
238.2788145253115
 20
311.5563839138643
 30
0.0
  0
LINE
  5
233
330
70
100
AcDbEntity
  8
Verdeckte Kanten(DIN)
100
AcDbLine
 10
253.4788145252583
 20
188.7117767324794
 30
0.0
 11
253.4788145252583
 21
186.2117767324795
 31
0.0
  0
LINE
  5
234
330
70
100
AcDbEntity
  8
Verdeckte Kanten(DIN)
100
AcDbLine
 10
238.8788145252583
 20
186.2117767324794
 30
0.0
 11
238.8788145252583
 21
188.7117767324795
 31
0.0
  0
LINE
  5
235
330
70
100
AcDbEntity
  8
Verdeckte Kanten(DIN)
100
AcDbLine
 10
245.1250574565752
 20
186.2117767324825
 30
0.0
 11
245.1250574565752
 21
186.3117767324825
 31
0.0
  0
LINE
  5
236
330
70
100
AcDbEntity
  8
Verdeckte Kanten(DIN)
100
AcDbLine
 10
243.731046860663
 20
186.2117767324823
 30
0.0
 11
243.731046860663
 21
186.3117767324823
 31
0.0
  0
LINE
  5
237
330
70
100
AcDbEntity
  8
Verdeckte Kanten(DIN)
100
AcDbLine
 10
244.8850506669105
 20
186.2117767324822
 30
0.0
 11
244.8850506669105
 21
186.3117767324822
 31
0.0
  0
LINE
  5
238
330
70
100
AcDbEntity
  8
Verdeckte Kanten(DIN)
100
AcDbLine
 10
243.8770620968118
 20
186.211776732482
 30
0.0
 11
243.8770620968118
 21
186.3117767324819
 31
0.0
  0
LINE
  5
239
330
70
100
AcDbEntity
  8
Verdeckte Kanten(DIN)
100
AcDbLine
 10
244.8537233474608
 20
186.2117767324815
 30
0.0
 11
244.8537233474608
 21
186.3117767324816
 31
0.0
  0
LINE
  5
23A
330
70
100
AcDbEntity
  8
Verdeckte Kanten(DIN)
100
AcDbLine
 10
244.0916892256592
 20
186.2117767324823
 30
0.0
 11
244.0916892256592
 21
186.3117767324823
 31
0.0
  0
LINE
  5
23B
330
70
100
AcDbEntity
  8
Verdeckte Kanten(DIN)
100
AcDbLine
 10
244.7890587192425
 20
186.211776732483
 30
0.0
 11
244.7890587192425
 21
186.311776732483
 31
0.0
  0
LINE
  5
23C
330
70
100
AcDbEntity
  8
Verdeckte Kanten(DIN)
100
AcDbLine
 10
244.5490586472416
 20
186.211776732483
 30
0.0
 11
244.5490586472416
 21
186.3117767324831
 31
0.0
  0
LINE
  5
23D
330
70
100
AcDbEntity
  8
Verdeckte Kanten(DIN)
100
AcDbLine
 10
243.9252476154823
 20
186.211776732483
 30
0.0
 11
243.9252476154823
 21
186.311776732483
 31
0.0
  0
LINE
  5
23E
330
70
100
AcDbEntity
  8
Verdeckte Kanten(DIN)
100
AcDbLine
 10
245.7490539929297
 20
186.2117767324831
 30
0.0
 11
245.7490539929297
 21
186.3117767324831
 31
0.0
  0
LINE
  5
23F
330
70
100
AcDbEntity
  8
Verdeckte Kanten(DIN)
100
AcDbLine
 10
245.2690644939032
 20
186.2117767324829
 30
0.0
 11
245.2690644939032
 21
186.3117767324829
 31
0.0
  0
LINE
  5
240
330
70
100
AcDbEntity
  8
Verdeckte Kanten(DIN)
100
AcDbLine
 10
245.9890593473176
 20
186.2117767324831
 30
0.0
 11
245.9890593473176
 21
186.3117767324831
 31
0.0
  0
LINE
  5
241
330
70
100
AcDbEntity
  8
Verdeckte Kanten(DIN)
100
AcDbLine
 10
245.4867999969488
 20
186.3117767324833
 30
0.0
 11
245.9890593473176
 21
186.3117767324831
 31
0.0
  0
LINE
  5
242
330
70
100
AcDbEntity
  8
Verdeckte Kanten(DIN)
100
AcDbLine
 10
244.5985446891967
 20
186.3117767324834
 30
0.0
 11
245.4867999969484
 21
186.3117767324833
 31
0.0
  0
LINE
  5
243
330
70
100
AcDbEntity
  8
Verdeckte Kanten(DIN)
100
AcDbLine
 10
243.589057580394
 20
186.3117767324832
 30
0.0
 11
244.5985446891969
 21
186.3117767324834
 31
0.0
  0
LINE
  5
244
330
70
100
AcDbEntity
  8
Verdeckte Kanten(DIN)
100
AcDbLine
 10
243.7154385473076
 20
186.2117767324829
 30
0.0
 11
243.7154385473076
 21
186.3117767324829
 31
0.0
  0
LINE
  5
245
330
70
100
AcDbEntity
  8
Verdeckte Kanten(DIN)
100
AcDbLine
 10
243.8290355909071
 20
186.2117767324824
 30
0.0
 11
243.8290355909071
 21
186.3117767324824
 31
0.0
  0
LINE
  5
246
330
70
100
AcDbEntity
  8
Verdeckte Kanten(DIN)
100
AcDbLine
 10
243.8290629347814
 20
186.2117767324832
 30
0.0
 11
243.8290629347814
 21
186.3117767324832
 31
0.0
  0
LINE
  5
247
330
70
100
AcDbEntity
  8
Verdeckte Kanten(DIN)
100
AcDbLine
 10
243.589057580394
 20
186.2117767324831
 30
0.0
 11
243.589057580394
 21
186.3117767324832
 31
0.0
  0
LINE
  5
248
330
70
100
AcDbEntity
  8
Sichtbare Kanten(DIN)
100
AcDbLine
 10
252.2788145252583
 20
186.21177673249
 30
0.0
 11
238.7788145252583
 21
186.21177673249
 31
0.0
  0
ARC
  5
249
330
70
100
AcDbEntity
  8
Sichtbare Kanten(DIN)
100
AcDbCircle
 10
238.7788145252582
 20
189.2117767324899
 30
0.0
 40
0.4999999999999372
100
AcDbArc
 50
180.0
 51
270.0000000000081
  0
ARC
  5
24A
330
70
100
AcDbEntity
  8
Sichtbare Kanten(DIN)
100
AcDbCircle
 10
238.7788145252583
 20
189.2117767324899
 30
0.0
 40
2.999999999999973
100
AcDbArc
 50
260.4059317731387
 51
269.9999999999993
  0
LINE
  5
24B
330
70
100
AcDbEntity
  8
Sichtbare Kanten(DIN)
100
AcDbLine
 10
252.2788145252583
 20
186.21177673249
 30
0.0
 11
252.2788145252583
 21
188.7117767324899
 31
0.0
  0
LINE
  5
24C
330
70
100
AcDbEntity
  8
Sichtbare Kanten(DIN)
100
AcDbLine
 10
238.7788145252583
 20
188.7117767324901
 30
0.0
 11
252.2788145252583
 21
188.7117767324899
 31
0.0
  0
LINE
  5
24D
330
70
100
AcDbEntity
  8
Sichtbare Kanten(DIN)
100
AcDbLine
 10
253.7788145252583
 20
186.2117767324886
 30
0.0
 11
252.2788145252583
 21
186.2117767324886
 31
0.0
  0
LINE
  5
24E
330
70
100
AcDbEntity
  8
Sichtbare Kanten(DIN)
100
AcDbLine
 10
252.2788145252583
 20
188.7117767324883
 30
0.0
 11
253.7788145252583
 21
188.7117767324883
 31
0.0
  0
SPLINE
  5
24F
330
70
100
AcDbEntity
  8
Sichtbare Kanten(DIN)
100
AcDbSpline
210
0.0
220
0.0
230
1.0
 70
     8
 71
     3
 72
    14
 73
    10
 74
     0
 42
0.000000001
 43
0.0000000001
 40
-0.4594261854025288
 40
-0.4594261854025288
 40
-0.4594261854025288
 40
-0.4594261854025288
 40
-0.3428262292020623
 40
-0.3428262292020623
 40
-0.2262262730015958
 40
-0.2262262730015958
 40
-0.113113136500798
 40
-0.113113136500798
 40
0.0
 40
0.0
 40
0.0
 40
0.0
 10
256.7788145252583
 20
189.2117767324883
 30
0.0
 10
256.7788145252583
 20
188.8514732246678
 30
0.0
 10
256.709337133461
 20
188.4547027829812
 30
0.0
 10
256.4072232172577
 20
187.7109129504282
 30
0.0
 10
256.1741284382376
 20
187.3644499583484
 30
0.0
 10
255.6343348374284
 20
186.8246563575392
 30
0.0
 10
255.29721464147
 20
186.5936554409927
 30
0.0
 10
254.5579646398318
 20
186.2872215101491
 30
0.0
 10
254.1558583135942
 20
186.2117767324884
 30
0.0
 10
253.7788145252583
 20
186.2117767324884
 30
0.0
  0
LINE
  5
250
330
70
100
AcDbEntity
  8
Sichtbare Kanten(DIN)
100
AcDbLine
 10
256.7788145252583
 20
189.2117767324882
 30
0.0
 11
256.7788145252583
 21
194.2117767324861
 31
0.0
  0
LINE
  5
251
330
70
100
AcDbEntity
  8
Sichtbare Kanten(DIN)
100
AcDbLine
 10
256.7788145252583
 20
194.2117767324861
 30
0.0
 11
254.2788145252583
 21
194.2117767324861
 31
0.0
  0
LINE
  5
252
330
70
100
AcDbEntity
  8
Sichtbare Kanten(DIN)
100
AcDbLine
 10
254.2788145252583
 20
194.2117767324861
 30
0.0
 11
254.2788145252583
 21
189.2117767324882
 31
0.0
  0
SPLINE
  5
253
330
70
100
AcDbEntity
  8
Sichtbare Kanten(DIN)
100
AcDbSpline
210
0.0
220
0.0
230
1.0
 70
     8
 71
     3
 72
    14
 73
    10
 74
     0
 42
0.000000001
 43
0.0000000001
 40
0.0
 40
0.0
 40
0.0
 40
0.0
 40
0.0187470064317823
 40
0.0187470064317823
 40
0.0374940128635646
 40
0.0374940128635646
 40
0.0576893276066552
 40
0.0576893276066552
 40
0.0778846423497458
 40
0.0778846423497458
 40
0.0778846423497458
 40
0.0778846423497458
 10
253.7788145252583
 20
188.7117767324883
 30
0.0
 10
253.8413045466976
 20
188.7117767324883
 30
0.0
 10
253.9077330045874
 20
188.7242312508143
 30
0.0
 10
254.0293624055801
 20
188.774116679217
 30
0.0
 10
254.084566384027
 20
188.8115258736302
 30
0.0
 10
254.1748155945707
 20
188.8995917548013
 30
0.0
 10
254.2144449067091
 20
188.9572144173254
 30
0.0
 10
254.266425751773
 20
189.0821191453539
 30
0.0
 10
254.2788145252583
 20
189.1493715397199
 30
0.0
 10
254.2788145252583
 20
189.2117767324883
 30
0.0
  0
LINE
  5
254
330
70
100
AcDbEntity
  8
Verdeckte Kanten(DIN)
100
AcDbLine
 10
246.9288145252583
 20
188.3117767324858
 30
0.0
 11
241.6288145252583
 21
188.3117767324858
 31
0.0
  0
LINE
  5
255
330
70
100
AcDbEntity
  8
Verdeckte Kanten(DIN)
100
AcDbLine
 10
246.9288145252583
 20
188.3117767324859
 30
0.0
 11
249.0288145252584
 21
186.2117767324859
 31
0.0
  0
LINE
  5
256
330
70
100
AcDbEntity
  8
Verdeckte Kanten(DIN)
100
AcDbLine
 10
241.6288145252583
 20
188.3117767324858
 30
0.0
 11
239.5288145252584
 21
186.2117767324858
 31
0.0
  0
LINE
  5
257
330
70
100
AcDbEntity
  8
Sichtbare Kanten(DIN)
100
AcDbLine
 10
235.7788145252584
 20
209.2117767324861
 30
0.0
 11
235.7788145252584
 21
189.2117767324929
 31
0.0
  0
SPLINE
  5
258
330
70
100
AcDbEntity
  8
Sichtbare Kanten(DIN)
100
AcDbSpline
210
0.0
220
0.0
230
1.0
 70
     8
 71
     3
 72
    14
 73
    10
 74
     0
 42
0.000000001
 43
0.0000000001
 40
0.9581911958470524
 40
0.9581911958470524
 40
0.9581911958470524
 40
0.9581911958470524
 40
1.022172376864196
 40
1.022172376864196
 40
1.135191245501312
 40
1.135191245501312
 40
1.248603545330884
 40
1.248603545330884
 40
1.362015845160456
 40
1.362015845160456
 40
1.362015845160456
 40
1.362015845160456
 10
238.2788145252573
 20
186.2537368409434
 30
0.0
 10
238.0592992249328
 20
186.2908416989528
 30
0.0
 10
237.8398979107275
 20
186.3535044288414
 30
0.0
 10
237.2611014495568
 20
186.5932710746387
 30
0.0
 10
236.9237849223632
 20
186.8241656482688
 30
0.0
 10
236.3902764534886
 20
187.3576741171434
 30
0.0
 10
236.1591375627412
 20
187.6960467566653
 30
0.0
 10
235.8534282241675
 20
188.435722817421
 30
0.0
 10
235.7788145252583
 20
188.836965378378
 30
0.0
 10
235.7788145252583
 20
189.2117767324929
 30
0.0
  0
LINE
  5
259
330
70
100
AcDbEntity
  8
Sichtbare Kanten(DIN)
100
AcDbLine
 10
238.2788145252583
 20
186.2537368409433
 30
0.0
 11
238.2788145252583
 21
209.2117767324861
 31
0.0
  0
LINE
  5
25A
330
70
100
AcDbEntity
  8
Sichtbare Kanten(DIN)
100
AcDbLine
 10
235.7788145252583
 20
209.2117767324861
 30
0.0
 11
238.2788145252583
 21
209.2117767324861
 31
0.0
  0
LINE
  5
25B
330
70
100
AcDbEntity
  8
Verdeckte Kanten(DIN)
100
AcDbLine
 10
253.0788145252583
 20
186.2117767324742
 30
0.0
 11
253.0788145252583
 21
188.7117767324747
 31
0.0
  0
LINE
  5
25C
330
70
100
AcDbEntity
  8
Verdeckte Kanten(DIN)
100
AcDbLine
 10
241.6288145252583
 20
188.3117767324858
 30
0.0
 11
241.6288145252583
 21
188.7117767324859
 31
0.0
  0
LINE
  5
25D
330
70
100
AcDbEntity
  8
Verdeckte Kanten(DIN)
100
AcDbLine
 10
246.9288145252583
 20
188.3117767324859
 30
0.0
 11
246.9288145252583
 21
188.7117767324859
 31
0.0
  0
LINE
  5
25E
330
70
100
AcDbEntity
  8
Verdeckte Kanten(DIN)
100
AcDbLine
 10
101.0391804908018
 20
371.7444138285464
 30
0.0
 11
103.5391804908016
 21
371.7444138285464
 31
0.0
  0
LINE
  5
25F
330
70
100
AcDbEntity
  8
Verdeckte Kanten(DIN)
100
AcDbLine
 10
103.5391804908017
 20
384.3682008989938
 30
0.0
 11
101.0391804908018
 21
384.3682008989938
 31
0.0
  0
LINE
  5
260
330
70
100
AcDbEntity
  8
Verdeckte Kanten(DIN)
100
AcDbLine
 10
103.5391804908011
 20
355.0563073637702
 30
0.0
 11
101.0391804908012
 21
355.0563073637702
 31
0.0
  0
LINE
  5
261
330
70
100
AcDbEntity
  8
Verdeckte Kanten(DIN)
100
AcDbLine
 10
101.0391804908012
 20
398.0563073637701
 30
0.0
 11
103.5391804908011
 21
398.0563073637701
 31
0.0
  0
LINE
  5
262
330
70
100
AcDbEntity
  8
Verdeckte Kanten(DIN)
100
AcDbLine
 10
101.1391804907995
 20
406.7469793113521
 30
0.0
 11
101.1391804907989
 21
407.2877577121962
 31
0.0
  0
LINE
  5
263
330
70
100
AcDbEntity
  8
Verdeckte Kanten(DIN)
100
AcDbLine
 10
101.0391804907996
 20
406.7469793113521
 30
0.0
 11
101.1391804907995
 21
406.7469793113521
 31
0.0
  0
LINE
  5
264
330
70
100
AcDbEntity
  8
Verdeckte Kanten(DIN)
100
AcDbLine
 10
101.0391804907988
 20
407.3900612313447
 30
0.0
 11
101.1391804907988
 21
407.3900612313447
 31
0.0
  0
LINE
  5
265
330
70
100
AcDbEntity
  8
Verdeckte Kanten(DIN)
100
AcDbLine
 10
101.0391804907988
 20
407.1415916313447
 30
0.0
 11
101.1391804907988
 21
407.1415916313447
 31
0.0
  0
LINE
  5
266
330
70
100
AcDbEntity
  8
Verdeckte Kanten(DIN)
100
AcDbLine
 10
101.0391804907996
 20
406.4985097113521
 30
0.0
 11
101.1391804907995
 21
406.4985097113521
 31
0.0
  0
LINE
  5
267
330
70
100
AcDbEntity
  8
Verdeckte Kanten(DIN)
100
AcDbLine
 10
101.1391804907995
 20
406.4985097113521
 30
0.0
 11
101.1391804907995
 21
406.7469793113521
 31
0.0
  0
LINE
  5
268
330
70
100
AcDbEntity
  8
Verdeckte Kanten(DIN)
100
AcDbLine
 10
101.0391804907993
 20
406.1337190733792
 30
0.0
 11
101.1391804907993
 21
406.1337190733792
 31
0.0
  0
LINE
  5
269
330
70
100
AcDbEntity
  8
Verdeckte Kanten(DIN)
100
AcDbLine
 10
101.1391804907993
 20
406.1337190733792
 30
0.0
 11
101.1391804907993
 21
406.3821656613304
 31
0.0
  0
LINE
  5
26A
330
70
100
AcDbEntity
  8
Verdeckte Kanten(DIN)
100
AcDbLine
 10
101.0391804907993
 20
406.3821656613304
 30
0.0
 11
101.1391804907993
 21
406.3821656613304
 31
0.0
  0
LINE
  5
26B
330
70
100
AcDbEntity
  8
Verdeckte Kanten(DIN)
100
AcDbLine
 10
101.1391804907993
 20
406.3821656613304
 30
0.0
 11
101.1391804907992
 21
406.4985097113521
 31
0.0
  0
LINE
  5
26C
330
70
100
AcDbEntity
  8
Verdeckte Kanten(DIN)
100
AcDbLine
 10
101.0391804907989
 20
405.6586853793423
 30
0.0
 11
101.1391804907989
 21
405.6586853793423
 31
0.0
  0
LINE
  5
26D
330
70
100
AcDbEntity
  8
Verdeckte Kanten(DIN)
100
AcDbLine
 10
101.0391804907988
 20
405.696731047128
 30
0.0
 11
101.1391804907988
 21
405.696731047128
 31
0.0
  0
LINE
  5
26E
330
70
100
AcDbEntity
  8
Verdeckte Kanten(DIN)
100
AcDbLine
 10
101.0391804907988
 20
405.4482633671285
 30
0.0
 11
101.1391804907988
 21
405.4482633671285
 31
0.0
  0
LINE
  5
26F
330
70
100
AcDbEntity
  8
Verdeckte Kanten(DIN)
100
AcDbLine
 10
101.0391804907992
 20
405.1010014562568
 30
0.0
 11
101.1391804907992
 21
405.1010014562568
 31
0.0
  0
LINE
  5
270
330
70
100
AcDbEntity
  8
Verdeckte Kanten(DIN)
100
AcDbLine
 10
101.0391804907992
 20
404.7531492961823
 30
0.0
 11
101.1391804907992
 21
404.7531492961823
 31
0.0
  0
LINE
  5
271
330
70
100
AcDbEntity
  8
Verdeckte Kanten(DIN)
100
AcDbLine
 10
101.0391804907988
 20
405.100411207054
 30
0.0
 11
101.1391804907988
 21
405.100411207054
 31
0.0
  0
LINE
  5
272
330
70
100
AcDbEntity
  8
Verdeckte Kanten(DIN)
100
AcDbLine
 10
101.0391804907988
 20
404.8519435271284
 30
0.0
 11
101.1391804907988
 21
404.8519435271284
 31
0.0
  0
LINE
  5
273
330
70
100
AcDbEntity
  8
Verdeckte Kanten(DIN)
100
AcDbLine
 10
101.0391804907992
 20
404.5046816162568
 30
0.0
 11
101.1391804907992
 21
404.5046816162568
 31
0.0
  0
LINE
  5
274
330
70
100
AcDbEntity
  8
Verdeckte Kanten(DIN)
100
AcDbLine
 10
101.0391804907992
 20
403.3647147363576
 30
0.0
 11
101.1391804907992
 21
403.3647147363576
 31
0.0
  0
LINE
  5
275
330
70
100
AcDbEntity
  8
Verdeckte Kanten(DIN)
100
AcDbLine
 10
101.0391804907989
 20
404.4269164800047
 30
0.0
 11
101.1391804907989
 21
404.4269164800047
 31
0.0
  0
LINE
  5
276
330
70
100
AcDbEntity
  8
Verdeckte Kanten(DIN)
100
AcDbLine
 10
101.0391804907988
 20
404.5040870471285
 30
0.0
 11
101.1391804907988
 21
404.5040870471285
 31
0.0
  0
LINE
  5
277
330
70
100
AcDbEntity
  8
Verdeckte Kanten(DIN)
100
AcDbLine
 10
101.0391804907988
 20
403.2935419271285
 30
0.0
 11
101.1391804907988
 21
403.2935419271285
 31
0.0
  0
LINE
  5
278
330
70
100
AcDbEntity
  8
Verdeckte Kanten(DIN)
100
AcDbLine
 10
101.0391804907989
 20
403.2292341152607
 30
0.0
 11
101.1391804907989
 21
403.2292341152607
 31
0.0
  0
LINE
  5
279
330
70
100
AcDbEntity
  8
Verdeckte Kanten(DIN)
100
AcDbLine
 10
101.0391804907989
 20
404.1288494085281
 30
0.0
 11
101.1391804907989
 21
404.1288494085281
 31
0.0
  0
LINE
  5
27A
330
70
100
AcDbEntity
  8
Verdeckte Kanten(DIN)
100
AcDbLine
 10
101.0391804907992
 20
403.0490738765648
 30
0.0
 11
101.1391804907992
 21
403.0490738765648
 31
0.0
  0
LINE
  5
27B
330
70
100
AcDbEntity
  8
Verdeckte Kanten(DIN)
100
AcDbLine
 10
101.0391804907993
 20
402.9763696849605
 30
0.0
 11
101.1391804907993
 21
402.9763696849605
 31
0.0
  0
LINE
  5
27C
330
70
100
AcDbEntity
  8
Verdeckte Kanten(DIN)
100
AcDbLine
 10
101.1391804907993
 20
402.9763696849605
 30
0.0
 11
101.1391804907993
 21
404.2088616071358
 31
0.0
  0
LINE
  5
27D
330
70
100
AcDbEntity
  8
Verdeckte Kanten(DIN)
100
AcDbLine
 10
101.0391804907993
 20
404.4403716049609
 30
0.0
 11
101.1391804907993
 21
404.4403716049609
 31
0.0
  0
LINE
  5
27E
330
70
100
AcDbEntity
  8
Verdeckte Kanten(DIN)
100
AcDbLine
 10
101.0391804907996
 20
404.2088616071358
 30
0.0
 11
101.1391804907995
 21
404.2088616071358
 31
0.0
  0
LINE
  5
27F
330
70
100
AcDbEntity
  8
Verdeckte Kanten(DIN)
100
AcDbLine
 10
101.1391804907995
 20
404.2088616071358
 30
0.0
 11
101.1391804907995
 21
404.4573292870614
 31
0.0
  0
LINE
  5
280
330
70
100
AcDbEntity
  8
Verdeckte Kanten(DIN)
100
AcDbLine
 10
101.0391804907996
 20
404.4573292870614
 30
0.0
 11
101.1391804907995
 21
404.4573292870614
 31
0.0
  0
LINE
  5
281
330
70
100
AcDbEntity
  8
Verdeckte Kanten(DIN)
100
AcDbLine
 10
101.1391804907995
 20
404.4573292870614
 30
0.0
 11
101.1391804907993
 21
404.6888392848865
 31
0.0
  0
LINE
  5
282
330
70
100
AcDbEntity
  8
Verdeckte Kanten(DIN)
100
AcDbLine
 10
101.0391804907993
 20
404.6888392848865
 30
0.0
 11
101.1391804907993
 21
404.6888392848865
 31
0.0
  0
LINE
  5
283
330
70
100
AcDbEntity
  8
Verdeckte Kanten(DIN)
100
AcDbLine
 10
101.1391804907993
 20
404.6888392848865
 30
0.0
 11
101.1391804907993
 21
405.2851591249605
 31
0.0
  0
LINE
  5
284
330
70
100
AcDbEntity
  8
Verdeckte Kanten(DIN)
100
AcDbLine
 10
101.0391804907993
 20
405.2851591249605
 30
0.0
 11
101.1391804907993
 21
405.2851591249605
 31
0.0
  0
LINE
  5
285
330
70
100
AcDbEntity
  8
Verdeckte Kanten(DIN)
100
AcDbLine
 10
101.1391804907993
 20
405.2851591249605
 30
0.0
 11
101.139180490799
 21
405.5620509691281
 31
0.0
  0
LINE
  5
286
330
70
100
AcDbEntity
  8
Verdeckte Kanten(DIN)
100
AcDbLine
 10
101.039180490799
 20
405.5620509691281
 30
0.0
 11
101.139180490799
 21
405.5620509691281
 31
0.0
  0
LINE
  5
287
330
70
100
AcDbEntity
  8
Verdeckte Kanten(DIN)
100
AcDbLine
 10
101.139180490799
 20
405.5620509691281
 30
0.0
 11
101.1391804907989
 21
405.8503328595287
 31
0.0
  0
LINE
  5
288
330
70
100
AcDbEntity
  8
Verdeckte Kanten(DIN)
100
AcDbLine
 10
101.1391804907989
 20
405.8503328595287
 30
0.0
 11
101.1391804907989
 21
406.1337190733793
 31
0.0
  0
LINE
  5
289
330
70
100
AcDbEntity
  8
Verdeckte Kanten(DIN)
100
AcDbLine
 10
101.0391804907992
 20
407.4163686795286
 30
0.0
 11
101.1391804907992
 21
407.4163686795286
 31
0.0
  0
LINE
  5
28A
330
70
100
AcDbEntity
  8
Verdeckte Kanten(DIN)
100
AcDbLine
 10
101.0391804907992
 20
408.1363696395266
 30
0.0
 11
101.1391804907992
 21
408.1363696395266
 31
0.0
  0
LINE
  5
28B
330
70
100
AcDbEntity
  8
Verdeckte Kanten(DIN)
100
AcDbLine
 10
101.0391804907991
 20
408.2006778508191
 30
0.0
 11
101.1391804907991
 21
408.2006778508191
 31
0.0
  0
LINE
  5
28C
330
70
100
AcDbEntity
  8
Verdeckte Kanten(DIN)
100
AcDbLine
 10
101.0391804907991
 20
407.7291440907641
 30
0.0
 11
101.1391804907991
 21
407.7291440907641
 31
0.0
  0
LINE
  5
28D
330
70
100
AcDbEntity
  8
Verdeckte Kanten(DIN)
100
AcDbLine
 10
101.0391804907989
 20
407.8962947557722
 30
0.0
 11
101.1391804907989
 21
407.8962947557722
 31
0.0
  0
LINE
  5
28E
330
70
100
AcDbEntity
  8
Verdeckte Kanten(DIN)
100
AcDbLine
 10
101.0391804907993
 20
407.5277630665842
 30
0.0
 11
101.1391804907993
 21
407.5277630665842
 31
0.0
  0
LINE
  5
28F
330
70
100
AcDbEntity
  8
Verdeckte Kanten(DIN)
100
AcDbLine
 10
101.0391804907993
 20
407.2877577121962
 30
0.0
 11
101.1391804907993
 21
407.2877577121962
 31
0.0
  0
LINE
  5
290
330
70
100
AcDbEntity
  8
Verdeckte Kanten(DIN)
100
AcDbLine
 10
101.1391804907995
 20
408.007752565611
 30
0.0
 11
101.1391804907993
 21
407.2877577121959
 31
0.0
  0
LINE
  5
291
330
70
100
AcDbEntity
  8
Verdeckte Kanten(DIN)
100
AcDbLine
 10
101.1391804907995
 20
408.007752565611
 30
0.0
 11
101.1391804907995
 21
408.1968506937388
 31
0.0
  0
LINE
  5
292
330
70
100
AcDbEntity
  8
Verdeckte Kanten(DIN)
100
AcDbLine
 10
101.1391804907994
 20
409.0406952922383
 30
0.0
 11
101.1391804907995
 21
408.1968506937388
 31
0.0
  0
LINE
  5
293
330
70
100
AcDbEntity
  8
Verdeckte Kanten(DIN)
100
AcDbLine
 10
101.1391804907991
 20
409.3480358055865
 30
0.0
 11
101.1391804907994
 21
409.0406952922375
 31
0.0
  0
LINE
  5
294
330
70
100
AcDbEntity
  8
Verdeckte Kanten(DIN)
100
AcDbLine
 10
101.1391804907991
 20
409.3603733579335
 30
0.0
 11
101.1391804907991
 21
409.3480358055874
 31
0.0
  0
LINE
  5
295
330
70
100
AcDbEntity
  8
Verdeckte Kanten(DIN)
100
AcDbLine
 10
101.0391804907989
 20
407.7040460634937
 30
0.0
 11
101.1391804907989
 21
407.7040460634937
 31
0.0
  0
LINE
  5
296
330
70
100
AcDbEntity
  8
Verdeckte Kanten(DIN)
100
AcDbLine
 10
101.039180490799
 20
406.6190795239862
 30
0.0
 11
101.139180490799
 21
406.6190795239862
 31
0.0
  0
LINE
  5
297
330
70
100
AcDbEntity
  8
Verdeckte Kanten(DIN)
100
AcDbLine
 10
101.039180490799
 20
406.3790986446774
 30
0.0
 11
101.139180490799
 21
406.3790986446774
 31
0.0
  0
LINE
  5
298
330
70
100
AcDbEntity
  8
Verdeckte Kanten(DIN)
100
AcDbLine
 10
101.0391804907991
 20
409.1203680035461
 30
0.0
 11
101.1391804907991
 21
409.1203680035461
 31
0.0
  0
LINE
  5
299
330
70
100
AcDbEntity
  8
Verdeckte Kanten(DIN)
100
AcDbLine
 10
101.0391804907991
 20
409.3603733579335
 30
0.0
 11
101.1391804907991
 21
409.3603733579335
 31
0.0
  0
LINE
  5
29A
330
70
100
AcDbEntity
  8
Verdeckte Kanten(DIN)
100
AcDbLine
 10
103.139180490799
 20
332.9063456388172
 30
0.0
 11
103.139180490799
 21
338.2063456388172
 31
0.0
  0
LINE
  5
29B
330
70
100
AcDbEntity
  8
Verdeckte Kanten(DIN)
100
AcDbLine
 10
103.139180490799
 20
414.9063456388171
 30
0.0
 11
103.139180490799
 21
420.2063456388172
 31
0.0
  0
LINE
  5
29C
330
70
100
AcDbEntity
  8
Verdeckte Kanten(DIN)
100
AcDbLine
 10
103.139180490799
 20
332.9063456388172
 30
0.0
 11
101.039180490799
 21
330.8063456388172
 31
0.0
  0
LINE
  5
29D
330
70
100
AcDbEntity
  8
Verdeckte Kanten(DIN)
100
AcDbLine
 10
103.139180490799
 20
338.2063456388172
 30
0.0
 11
101.039180490799
 21
340.3063456388172
 31
0.0
  0
LINE
  5
29E
330
70
100
AcDbEntity
  8
Verdeckte Kanten(DIN)
100
AcDbLine
 10
103.139180490799
 20
414.9063456388171
 30
0.0
 11
101.039180490799
 21
412.8063456388172
 31
0.0
  0
LINE
  5
29F
330
70
100
AcDbEntity
  8
Verdeckte Kanten(DIN)
100
AcDbLine
 10
103.139180490799
 20
420.2063456388172
 30
0.0
 11
101.039180490799
 21
422.3063456388172
 31
0.0
  0
LINE
  5
2A0
330
70
100
AcDbEntity
  8
Sichtbare Kanten(DIN)
100
AcDbLine
 10
101.0391804908014
 20
321.5563456388172
 30
0.0
 11
101.0391804908014
 21
326.5563456388172
 31
0.0
  0
LINE
  5
2A1
330
70
100
AcDbEntity
  8
Sichtbare Kanten(DIN)
100
AcDbLine
 10
101.0391804908015
 20
426.5563456388171
 30
0.0
 11
101.0391804908015
 21
431.5563456388172
 31
0.0
  0
LINE
  5
2A2
330
70
100
AcDbEntity
  8
Sichtbare Kanten(DIN)
100
AcDbLine
 10
104.0391804907972
 20
431.5563456388172
 30
0.0
 11
103.5391804907974
 21
431.5563456388172
 31
0.0
  0
LINE
  5
2A3
330
70
100
AcDbEntity
  8
Sichtbare Kanten(DIN)
100
AcDbLine
 10
101.0391804908015
 20
431.5563456388172
 30
0.0
 11
103.5391804908013
 21
431.5563456388172
 31
0.0
  0
LINE
  5
2A4
330
70
100
AcDbEntity
  8
Sichtbare Kanten(DIN)
100
AcDbLine
 10
103.5391804908013
 20
431.5563456388172
 30
0.0
 11
103.5391804908013
 21
426.1556877156025
 31
0.0
  0
LINE
  5
2A5
330
70
100
AcDbEntity
  8
Sichtbare Kanten(DIN)
100
AcDbLine
 10
103.5391804907974
 20
321.5563456388172
 30
0.0
 11
104.0391804907972
 21
321.5563456388172
 31
0.0
  0
LINE
  5
2A6
330
70
100
AcDbEntity
  8
Sichtbare Kanten(DIN)
100
AcDbLine
 10
101.0391804908014
 20
321.5563456388172
 30
0.0
 11
103.5391804908013
 21
321.5563456388172
 31
0.0
  0
LINE
  5
2A7
330
70
100
AcDbEntity
  8
Sichtbare Kanten(DIN)
100
AcDbLine
 10
103.5391804908013
 20
326.9570035620319
 30
0.0
 11
103.5391804908013
 21
321.5563456388172
 31
0.0
  0
LINE
  5
2A8
330
70
100
AcDbEntity
  8
Sichtbare Kanten(DIN)
100
AcDbLine
 10
101.0391804908019
 20
326.5563456388172
 30
0.0
 11
101.0391804908019
 21
426.5563456388171
 31
0.0
  0
LINE
  5
2A9
330
70
100
AcDbEntity
  8
Sichtbare Kanten(DIN)
100
AcDbLine
 10
109.0391804908027
 20
334.5563456388171
 30
0.0
 11
109.0391804908027
 21
418.5563456388171
 31
0.0
  0
LINE
  5
2AA
330
70
100
AcDbEntity
  8
Sichtbare Kanten(DIN)
100
AcDbLine
 10
124.0391804907972
 20
334.5563456388171
 30
0.0
 11
124.0391804907972
 21
418.5563456388171
 31
0.0
  0
LINE
  5
2AB
330
70
100
AcDbEntity
  8
Sichtbare Kanten(DIN)
100
AcDbLine
 10
101.0811405992474
 20
431.5563456388172
 30
0.0
 11
101.0811405992476
 21
441.5563073637701
 31
0.0
  0
LINE
  5
2AC
330
70
100
AcDbEntity
  8
Sichtbare Kanten(DIN)
100
AcDbLine
 10
101.0811405992474
 20
311.5563839138643
 30
0.0
 11
101.0811405992474
 21
321.5563456388172
 31
0.0
  0
LINE
  5
2AD
330
70
100
AcDbEntity
  8
Verdeckte Kanten(DIN)
100
AcDbLine
 10
103.5391804908017
 20
326.9570035620319
 30
0.0
 11
103.5391804908017
 21
426.1556877156025
 31
0.0
  0
SPLINE
  5
2AE
330
70
100
AcDbEntity
  8
Sichtbare Kanten(DIN)
100
AcDbSpline
210
0.0
220
0.0
230
1.0
 70
     8
 71
     3
 72
    14
 73
    10
 74
     0
 42
0.000000001
 43
0.0000000001
 40
-0.4594261854025288
 40
-0.4594261854025288
 40
-0.4594261854025288
 40
-0.4594261854025288
 40
-0.3428262292020623
 40
-0.3428262292020623
 40
-0.2262262730015958
 40
-0.2262262730015958
 40
-0.113113136500798
 40
-0.113113136500798
 40
0.0
 40
0.0
 40
0.0
 40
0.0
 10
104.0391804908027
 20
425.9725441259129
 30
0.0
 10
103.6788769829821
 20
426.1182940711634
 30
0.0
 10
103.2821065412955
 20
426.2450120858504
 30
0.0
 10
102.5383167087423
 20
426.4239309890252
 30
0.0
 10
102.1918537166625
 20
426.4776670956569
 30
0.0
 10
101.6520601158531
 20
426.5373161892473
 30
0.0
 10
101.4210591993064
 20
426.5486959404807
 30
0.0
 10
101.1146252684627
 20
426.5574582276287
 30
0.0
 10
101.0391804908019
 20
426.5563456388171
 30
0.0
 10
101.0391804908018
 20
426.5563456388171
 30
0.0
  0
ARC
  5
2AF
330
70
100
AcDbEntity
  8
Sichtbare Kanten(DIN)
100
AcDbCircle
 10
101.0391804908027
 20
418.5563456388171
 30
0.0
 40
7.999999999999998
100
AcDbArc
 50
0.0
 51
67.97568716295868
  0
SPLINE
  5
2B0
330
70
100
AcDbEntity
  8
Sichtbare Kanten(DIN)
100
AcDbSpline
210
0.0
220
0.0
230
1.0
 70
     8
 71
     3
 72
    14
 73
    10
 74
     0
 42
0.000000001
 43
0.0000000001
 40
0.0
 40
0.0
 40
0.0
 40
0.0
 40
0.1131131365007979
 40
0.1131131365007979
 40
0.2262262730015959
 40
0.2262262730015959
 40
0.3428262292020622
 40
0.3428262292020622
 40
0.4594261854025286
 40
0.4594261854025286
 40
0.4594261854025286
 40
0.4594261854025286
 10
101.0391804908017
 20
326.5563456388172
 30
0.0
 10
101.0391804908018
 20
326.5563456388172
 30
0.0
 10
101.1146252684627
 20
326.5552330500055
 30
0.0
 10
101.4210591993064
 20
326.5639953371537
 30
0.0
 10
101.6520601158531
 20
326.575375088387
 30
0.0
 10
102.1918537166625
 20
326.6350241819774
 30
0.0
 10
102.5383167087423
 20
326.6887602886092
 30
0.0
 10
103.2821065412955
 20
326.867679191784
 30
0.0
 10
103.6788769829821
 20
326.9943972064709
 30
0.0
 10
104.0391804908027
 20
327.1401471517215
 30
0.0
  0
ARC
  5
2B1
330
70
100
AcDbEntity
  8
Sichtbare Kanten(DIN)
100
AcDbCircle
 10
101.0391804908026
 20
334.5563456388172
 30
0.0
 40
8.000000000000069
100
AcDbArc
 50
292.0243128370416
 51
0.0
  0
ARC
  5
2B2
330
70
100
AcDbEntity
  8
Sichtbare Kanten(DIN)
100
AcDbCircle
 10
101.0391804907972
 20
418.5563456388171
 30
0.0
 40
23.00000000000001
100
AcDbArc
 50
0.0
 51
89.89547224105564
  0
ARC
  5
2B3
330
70
100
AcDbEntity
  8
Sichtbare Kanten(DIN)
100
AcDbCircle
 10
101.0391804907972
 20
334.5563456388171
 30
0.0
 40
22.99999999999998
100
AcDbArc
 50
270.1045277589439
 51
0.0
  0
LINE
  5
2B4
330
70
100
AcDbEntity
  8
Verdeckte Kanten(DIN)
100
AcDbLine
 10
103.139180490799
 20
338.2063456388172
 30
0.0
 11
103.5391804907991
 21
338.2063456388172
 31
0.0
  0
LINE
  5
2B5
330
70
100
AcDbEntity
  8
Verdeckte Kanten(DIN)
100
AcDbLine
 10
103.139180490799
 20
332.9063456388172
 30
0.0
 11
103.5391804907991
 21
332.9063456388172
 31
0.0
  0
LINE
  5
2B6
330
70
100
AcDbEntity
  8
Verdeckte Kanten(DIN)
100
AcDbLine
 10
103.139180490799
 20
420.2063456388172
 30
0.0
 11
103.5391804907991
 21
420.2063456388172
 31
0.0
  0
LINE
  5
2B7
330
70
100
AcDbEntity
  8
Verdeckte Kanten(DIN)
100
AcDbLine
 10
103.139180490799
 20
414.9063456388171
 30
0.0
 11
103.5391804907991
 21
414.9063456388171
 31
0.0
  0
LINE
  5
2B8
330
70
100
AcDbEntity
  8
Mittelpunktmarkierung(DIN)
  6
Continuous
100
AcDbLine
 10
254.0288145253114
 20
417.5563456388172
 30
0.0
 11
234.5288145253114
 21
417.5563456388172
 31
0.0
  0
LINE
  5
2B9
330
70
100
AcDbEntity
  8
Mittelpunktmarkierung(DIN)
  6
Continuous
100
AcDbLine
 10
244.2788145253114
 20
427.3063456388172
 30
0.0
 11
244.2788145253114
 21
407.8063456388171
 31
0.0
  0
LINE
  5
2BA
330
70
100
AcDbEntity
  8
Mittelpunktmarkierung(DIN)
  6
Continuous
100
AcDbLine
 10
254.0288145253114
 20
335.5563456388172
 30
0.0
 11
234.5288145253114
 21
335.5563456388172
 31
0.0
  0
LINE
  5
2BB
330
70
100
AcDbEntity
  8
Mittelpunktmarkierung(DIN)
  6
Continuous
100
AcDbLine
 10
244.2788145253114
 20
345.3063456388172
 30
0.0
 11
244.2788145253114
 21
325.8063456388172
 31
0.0
  0
LINE
  5
2BC
330
70
100
AcDbEntity
  8
Mittellinie(DIN)
  6
Continuous
100
AcDbLine
 10
244.2788145252583
 20
183.3117767324858
 30
0.0
 11
244.2788145252583
 21
193.7117767324858
 31
0.0
  0
LINE
  5
2BD
330
70
100
AcDbEntity
  8
Mittellinie(DIN)
  6
Continuous
100
AcDbLine
 10
235.8788145253114
 20
376.5563073637701
 30
0.0
 11
256.4788145253114
 21
376.5563073637701
 31
0.0
  0
LINE
  5
2BE
330
70
100
AcDbEntity
  8
Mittellinie(DIN)
  6
Continuous
100
AcDbLine
 10
96.03918049080121
 20
376.5563073637701
 30
0.0
 11
108.5391804908011
 21
376.5563073637701
 31
0.0
  0
LINE
  5
2BF
330
70
100
AcDbEntity
  8
Mittellinie(DIN)
  6
Continuous
100
AcDbLine
 10
98.13918049079905
 20
417.5563456388172
 30
0.0
 11
108.5391804907991
 21
417.5563456388172
 31
0.0
  0
LINE
  5
2C0
330
70
100
AcDbEntity
  8
Mittellinie(DIN)
  6
Continuous
100
AcDbLine
 10
98.13918049079905
 20
335.5563456388172
 30
0.0
 11
108.5391804907991
 21
335.5563456388172
 31
0.0
  0
LINE
  5
2C1
330
70
100
AcDbEntity
  8
Mittellinie(DIN)
  6
Continuous
100
AcDbLine
 10
246.1788145252583
 20
181.2117767324795
 30
0.0
 11
246.1788145252583
 21
193.7117767324794
 31
0.0
  0
DIMENSION
  5
2C2
330
70
100
AcDbEntity
  8
Bemaßungen(DIN)
  6
Continuous
 62
     7
370
    25
100
AcDbDimension
280
     0
  2
*D18
 10
235.7788145253115
 20
461.3598541407999
 30
0.0
 11
240.0288145253114
 21
461.3598541407999
 31
0.0
 70
   160
  1
<>
 42
8.499999999999971
 73
     0
 74
     0
 75
     0
  3
STANDARD-DIN - Methode 2b
100
AcDbAlignedDimension
 13
244.2788145253114
 23
427.3063456388172
 33
0.0
 14
235.7788145253115
 24
441.3598541407999
 34
0.0
 50
180.0
100
AcDbRotatedDimension
1001
ACAD
1000
DSTYLE
1002
{
1070
   172
1070
     1
1070
   289
1070
     1
1070
    74
1070
     0
1070
   271
1070
     2
1070
   272
1070
     2
1070
    48
1040
0.0
1070
    47
1040
0.0
1002
}
  0
DIMENSION
  5
3C1
330
70
100
AcDbEntity
  8
Bemaßungen(DIN)
  6
Continuous
 62
     7
370
    25
100
AcDbDimension
280
     0
  2
*D19
 10
281.6826836123706
 20
441.5563073637701
 30
0.0
 11
281.6826836123705
 21
429.5563265012936
 31
0.0
 70
   160
  1
<>
 42
23.99996172495292
 73
     0
 74
     0
 75
     0
  3
STANDARD-DIN - Methode 2b
100
AcDbAlignedDimension
 13
254.0288145253114
 23
417.5563456388172
 33
0.0
 14
238.2788145253103
 24
441.5563073637701
 34
0.0
 50
90.0
100
AcDbRotatedDimension
1001
ACAD
1000
DSTYLE
1002
{
1070
   172
1070
     0
1070
   289
1070
     1
1070
    74
1070
     0
1070
   271
1070
     2
1070
   272
1070
     2
1070
    48
1040
0.0
1070
    47
1040
0.0
1002
}
  0
DIMENSION
  5
4A9
330
70
100
AcDbEntity
  8
Bemaßungen(DIN)
  6
Continuous
 62
     7
370
    25
100
AcDbDimension
280
     0
  2
*D20
 10
281.6826836123706
 20
417.5563456388172
 30
0.0
 11
281.6826836123705
 21
376.5563456388172
 31
0.0
 70
   160
  1
<>
 42
82.00000000000006
 73
     0
 74
     0
 75
     0
  3
STANDARD-DIN - Methode 2b
100
AcDbAlignedDimension
 13
254.0288145253114
 23
335.5563456388172
 33
0.0
 14
254.0288145253114
 24
417.5563456388172
 34
0.0
 50
90.0
100
AcDbRotatedDimension
1001
ACAD
1000
DSTYLE
1002
{
1070
   172
1070
     0
1070
   289
1070
     1
1070
    74
1070
     0
1070
   271
1070
     2
1070
   272
1070
     2
1070
    48
1040
0.0
1070
    47
1040
0.0
1002
}
  0
DIMENSION
  5
591
330
70
100
AcDbEntity
  8
Bemaßungen(DIN)
  6
Continuous
 62
     7
370
    25
100
AcDbDimension
280
     0
  2
*D21
 10
301.8969334715856
 20
326.5563456388172
 30
0.0
 11
301.8969334715856
 21
341.0154232988166
 31
0.0
 70
   160
  1
<>
 42
5.0
 73
     0
 74
     0
 75
     0
  3
STANDARD-DIN - Methode 2b
100
AcDbAlignedDimension
 13
252.2788145253114
 23
321.5563456388172
 33
0.0
 14
253.7788145253113
 24
326.5563456388172
 34
0.0
 50
270.0
100
AcDbRotatedDimension
1001
ACAD
1000
DSTYLE
1002
{
1070
   172
1070
     1
1070
   289
1070
     1
1070
    74
1070
     0
1070
   271
1070
     2
1070
   272
1070
     2
1070
    48
1040
0.0
1070
    47
1040
0.0
1002
}
  0
DIMENSION
  5
6A3
330
70
100
AcDbEntity
  8
Bemaßungen(DIN)
  6
Continuous
 62
     7
370
    25
100
AcDbDimension
280
     0
  2
*D22
 10
315.0164182838003
 20
321.5563456388172
 30
0.0
 11
315.0164182838003
 21
295.2841465060407
 31
0.0
 70
   160
  1
<>
 42
9.999961724952981
 73
     0
 74
     0
 75
     0
  3
STANDARD-DIN - Methode 2b
100
AcDbAlignedDimension
 13
238.2788145253114
 23
311.5563839138642
 33
0.0
 14
252.2788145253114
 24
321.5563456388172
 34
0.0
 50
270.0
100
AcDbRotatedDimension
1001
ACAD
1000
DSTYLE
1002
{
1070
   172
1070
     1
1070
   289
1070
     1
1070
    74
1070
     0
1070
   271
1070
     2
1070
   272
1070
     2
1070
    48
1040
0.0
1070
    47
1040
0.0
1002
}
  0
DIMENSION
  5
7B3
330
70
100
AcDbEntity
  8
Bemaßungen(DIN)
  6
Continuous
 62
     7
370
    25
100
AcDbDimension
280
     0
  2
*D23
 10
256.7788145253114
 20
292.9442594080464
 30
0.0
 11
274.9180369371809
 21
292.9442594080464
 31
0.0
 70
   160
  1
<>
 42
4.499999999999971
 73
     0
 74
     0
 75
     0
  3
STANDARD-DIN - Methode 2b
100
AcDbAlignedDimension
 13
252.2788145253114
 23
321.5563456388172
 33
0.0
 14
256.7788145253114
 24
327.1401471517215
 34
0.0
100
AcDbRotatedDimension
1001
ACAD
1000
DSTYLE
1002
{
1070
   172
1070
     1
1070
   289
1070
     1
1070
    74
1070
     0
1070
   271
1070
     2
1070
   272
1070
     2
1070
    48
1040
0.0
1070
    47
1040
0.0
1002
}
  0
DIMENSION
  5
8B1
330
70
100
AcDbEntity
  8
Bemaßungen(DIN)
  6
Continuous
 62
     7
370
    25
100
AcDbDimension
280
     0
  2
*D24
 10
188.4054997154223
 20
355.0563073637702
 30
0.0
 11
188.4054997154223
 21
333.3063456388172
 31
0.0
 70
   160
  1
<>
 42
43.49992344990591
 73
     0
 74
     0
 75
     0
  3
STANDARD-DIN - Methode 2b
100
AcDbAlignedDimension
 13
238.2788145253114
 23
311.5563839138642
 33
0.0
 14
240.8788145253114
 24
355.0563073637702
 34
0.0
 50
90.0
100
AcDbRotatedDimension
1001
ACAD
1000
DSTYLE
1002
{
1070
   172
1070
     0
1070
   289
1070
     1
1070
    74
1070
     0
1070
   271
1070
     2
1070
   272
1070
     2
1070
    48
1040
0.0
1070
    47
1040
0.0
1002
}
  0
DIMENSION
  5
999
330
70
100
AcDbEntity
  8
Bemaßungen(DIN)
  6
Continuous
 62
     7
370
    25
100
AcDbDimension
280
     0
  2
*D25
 10
188.4054997154223
 20
398.0563073637701
 30
0.0
 11
188.4054997154223
 21
376.5563073637701
 31
0.0
 70
   160
  1
<>
 42
42.99999999999994
 73
     0
 74
     0
 75
     0
  3
STANDARD-DIN - Methode 2b
100
AcDbAlignedDimension
 13
240.8788145253114
 23
355.0563073637702
 33
0.0
 14
240.8788145253114
 24
398.0563073637701
 34
0.0
 50
90.0
100
AcDbRotatedDimension
1001
ACAD
1000
DSTYLE
1002
{
1070
   172
1070
     0
1070
   289
1070
     1
1070
    74
1070
     0
1070
   271
1070
     2
1070
   272
1070
     2
1070
    48
1040
0.0
1070
    47
1040
0.0
1002
}
  0
DIMENSION
  5
A81
330
70
100
AcDbEntity
  8
Bemaßungen(DIN)
  6
Continuous
 62
     7
370
    25
100
AcDbDimension
280
     0
  2
*D26
 10
188.4054997154223
 20
441.5563073637701
 30
0.0
 11
188.4054997154223
 21
419.80630736377
 31
0.0
 70
   160
  1
<>
 42
43.50000000000005
 73
     0
 74
     0
 75
     0
  3
STANDARD-DIN - Methode 2b
100
AcDbAlignedDimension
 13
240.8788145253114
 23
398.0563073637701
 33
0.0
 14
238.2788145253103
 24
441.5563073637701
 34
0.0
 50
270.0
100
AcDbRotatedDimension
1001
ACAD
1000
DSTYLE
1002
{
1070
   172
1070
     0
1070
   289
1070
     1
1070
    74
1070
     0
1070
   271
1070
     2
1070
   272
1070
     2
1070
    48
1040
0.0
1070
    47
1040
0.0
1002
}
  0
DIMENSION
  5
B69
330
70
100
AcDbEntity
  8
Bemaßungen(DIN)
  6
Continuous
 62
     7
370
    25
100
AcDbDimension
280
     0
  2
*D27
 10
170.6987922208982
 20
311.5563839138642
 30
0.0
 11
170.6987922208982
 21
376.5563456388172
 31
0.0
 70
   160
  1
<>
 42
129.9999234499059
 73
     0
 74
     0
 75
     0
  3
STANDARD-DIN - Methode 2b
100
AcDbAlignedDimension
 13
238.2788145253103
 23
441.5563073637701
 33
0.0
 14
238.2788145253114
 24
311.5563839138642
 34
0.0
 50
90.0
100
AcDbRotatedDimension
1001
ACAD
1000
DSTYLE
1002
{
1070
   172
1070
     0
1070
   289
1070
     1
1070
    74
1070
     0
1070
   271
1070
     2
1070
   272
1070
     2
1070
    48
1040
0.0
1070
    47
1040
0.0
1002
}
  0
DIMENSION
  5
C51
330
70
100
AcDbEntity
  8
Bemaßungen(DIN)
  6
Continuous
 62
     7
370
    25
100
AcDbDimension
280
     0
  2
*D28
 10
256.7788145253114
 20
349.1467329469457
 30
0.0
 11
274.7485280685272
 21
349.1467329469457
 31
0.0
 70
   160
  1
<>
 42
3.299999999999982
 73
     0
 74
     0
 75
     0
  3
STANDARD-DIN - Methode 2b
100
AcDbAlignedDimension
 13
253.4788145253114
 23
384.3682008989938
 33
0.0
 14
256.7788145253114
 24
344.830249444305
 34
0.0
 50
180.0
100
AcDbRotatedDimension
1001
ACAD
1000
DSTYLE
1002
{
1070
   172
1070
     1
1070
   289
1070
     1
1070
    74
1070
     0
1070
   271
1070
     2
1070
    76
1070
     1
1070
   272
1070
     2
1070
    48
1040
0.0
1070
    47
1040
0.0
1002
}
  0
DIMENSION
  5
D4B
330
70
100
AcDbEntity
  8
Bemaßungen(DIN)
  6
Continuous
 62
     7
370
    25
100
AcDbDimension
280
     0
  2
*D29
 10
101.0391804908027
 20
334.5563456388171
 30
0.0
 11
142.1353255346053
 21
318.3386664524396
 31
0.0
 70
   164
  1
<>
 42
8.0
 73
     0
 74
     0
 75
     0
  3
STANDARD-DIN - Methode 2b
100
AcDbRadialDimension
 15
107.1533913821817
 25
329.3972347487759
 35
0.0
 40
0.0
1001
ACAD
1000
DSTYLE
1002
{
1070
   172
1070
     0
1070
    73
1070
     1
1070
   271
1070
     2
1070
   141
1040
0.0
1070
   272
1070
     2
1070
    48
1040
0.0
1070
    47
1040
0.0
1002
}
1001
ACAD_DSTYLE_DIMRADIAL_EXTENSION
1070
   387
1070
     1
1070
   388
1040
0.0
1070
   390
1040
0.0
  0
DIMENSION
  5
DE8
330
70
100
AcDbEntity
  8
Bemaßungen(DIN)
  6
Continuous
 62
     7
370
    25
100
AcDbDimension
280
     0
  2
*D30
 10
101.0391804907972
 20
334.5563456388172
 30
0.0
 11
141.5941613630759
 21
299.7830036052424
 31
0.0
 70
   164
  1
<>
 42
23.00000000000011
 73
     0
 74
     0
 75
     0
  3
STANDARD-DIN - Methode 2b
100
AcDbRadialDimension
 15
112.5391804908012
 25
314.6377613517773
 35
0.0
 40
0.0
1001
ACAD
1000
DSTYLE
1002
{
1070
   172
1070
     0
1070
    73
1070
     1
1070
   271
1070
     2
1070
   141
1040
0.0
1070
   272
1070
     2
1070
    48
1040
0.0
1070
    47
1040
0.0
1002
}
1001
ACAD_DSTYLE_DIMRADIAL_EXTENSION
1070
   387
1070
     1
1070
   388
1040
0.0
1070
   390
1040
0.0
  0
DIMENSION
  5
E84
330
70
100
AcDbEntity
  8
Bemaßungen(DIN)
  6
Continuous
 62
     7
370
    25
100
AcDbDimension
280
     0
  2
*D31
 10
220.878814525312
 20
209.2117767324861
 30
0.0
 11
220.8788145253119
 21
197.711776732488
 31
0.0
 70
   160
  1
<>
 42
22.99999999999613
 73
     0
 74
     0
 75
     0
  3
STANDARD-DIN - Methode 2b
100
AcDbAlignedDimension
 13
238.7788145252583
 23
186.2117767324899
 33
0.0
 14
235.7788145252583
 24
209.2117767324861
 34
0.0
 50
90.0
100
AcDbRotatedDimension
1001
ACAD
1000
DSTYLE
1002
{
1070
   172
1070
     0
1070
   289
1070
     1
1070
    74
1070
     0
1070
   271
1070
     2
1070
   272
1070
     2
1070
    48
1040
0.0
1070
    47
1040
0.0
1002
}
  0
DIMENSION
  5
F6C
330
70
100
AcDbEntity
  8
Bemaßungen(DIN)
  6
Continuous
 62
     7
370
    25
100
AcDbDimension
280
     0
  2
*D32
 10
238.2788145252583
 20
222.3352958610662
 30
0.0
 11
217.7207653744342
 21
222.3352958610662
 31
0.0
 70
   160
  1
<>
 42
2.5
 73
     0
 74
     0
 75
     0
  3
STANDARD-DIN - Methode 2b
100
AcDbAlignedDimension
 13
235.7788145252583
 23
209.2117767324861
 33
0.0
 14
238.2788145252583
 24
209.2117767324861
 34
0.0
 50
180.0
100
AcDbRotatedDimension
1001
ACAD
1000
DSTYLE
1002
{
1070
   172
1070
     1
1070
   289
1070
     1
1070
    74
1070
     0
1070
   271
1070
     2
1070
   272
1070
     2
1070
    48
1040
0.0
1070
    47
1040
0.0
1002
}
  0
DIMENSION
  5
106A
330
70
100
AcDbEntity
  8
Bemaßungen(DIN)
  6
Continuous
 62
     7
370
    25
100
AcDbDimension
280
     0
  2
*D33
 10
256.7788145252583
 20
164.6900136564247
 30
0.0
 11
246.2788145252583
 21
164.6900136564247
 31
0.0
 70
   160
  1
<>
 42
21.0
 73
     0
 74
     0
 75
     0
  3
STANDARD-DIN - Methode 2b
100
AcDbAlignedDimension
 13
235.7788145252583
 23
189.2117767324929
 33
0.0
 14
256.7788145252583
 24
189.2117767324882
 34
0.0
100
AcDbRotatedDimension
1001
ACAD
1000
DSTYLE
1002
{
1070
   172
1070
     0
1070
   289
1070
     1
1070
    74
1070
     0
1070
   271
1070
     2
1070
   272
1070
     2
1070
    48
1040
0.0
1070
    47
1040
0.0
1002
}
  0
DIMENSION
  5
114C
330
70
100
AcDbEntity
  8
Bemaßungen(DIN)
  6
Continuous
 62
     7
370
    25
100
AcDbDimension
280
     0
  2
*D34
 10
276.7788145252584
 20
194.2117767324861
 30
0.0
 11
276.7788145252583
 21
208.1180523257194
 31
0.0
 70
   160
  1
<>
 42
7.999999999996049
 73
     0
 74
     0
 75
     0
  3
STANDARD-DIN - Methode 2b
100
AcDbAlignedDimension
 13
252.2788145252583
 23
186.21177673249
 33
0.0
 14
256.7788145252583
 24
194.2117767324861
 34
0.0
 50
90.0
100
AcDbRotatedDimension
1001
ACAD
1000
DSTYLE
1002
{
1070
   172
1070
     1
1070
   289
1070
     1
1070
    74
1070
     0
1070
   271
1070
     2
1070
   272
1070
     2
1070
    48
1040
0.0
1070
    47
1040
0.0
1002
}
  0
MTEXT
  5
125B
330
70
100
AcDbEntity
  8
Symbole(DIN)
 62
     7
100
AcDbMText
 10
125.6601691419158
 20
146.0297322222285
 30
0.0
 40
6.99999988079071
 41
33.7088418006897
 46
0.0
 71
     1
 72
     1
  1
{B22610}
  7
Aktuell-DIN
 73
     1
 44
1.0
  0
DIMENSION
  5
125C
330
70
100
AcDbEntity
  8
Bemaßungen(DIN)
  6
Continuous
 62
     7
370
    25
100
AcDbDimension
280
     0
  2
*D35
 10
253.4788145253114
 20
364.168986976691
 30
0.0
 11
217.7946082998178
 21
364.168986976691
 31
0.0
 70
   160
  1
<>
 42
14.59999999999999
 73
     0
 74
     0
 75
     0
  3
STANDARD-DIN - Methode 2b
100
AcDbAlignedDimension
 13
238.8788145253114
 23
362.8311915451261
 33
0.0
 14
253.4788145253114
 24
362.8311915451261
 34
0.0
100
AcDbRotatedDimension
1001
ACAD
1000
DSTYLE
1002
{
1070
   172
1070
     1
1070
   289
1070
     1
1070
    74
1070
     0
1070
   271
1070
     2
1070
    76
1070
     1
1070
    75
1070
     1
1070
   272
1070
     2
1070
    48
1040
0.0
1070
    47
1040
0.0
1002
}
  0
DIMENSION
  5
1345
330
70
100
AcDbEntity
  8
Bemaßungen(DIN)
  6
Continuous
 62
     7
370
    25
100
AcDbDimension
280
     0
  2
*D36
 10
256.7788145253114
 20
388.9214140860259
 30
0.0
 11
274.7485280685272
 21
388.9214140860259
 31
0.0
 70
   160
  1
<>
 42
3.700000000000045
 73
     0
 74
     0
 75
     0
  3
STANDARD-DIN - Methode 2b
100
AcDbAlignedDimension
 13
253.0788145253114
 23
378.0563073637701
 33
0.0
 14
256.7788145253114
 24
387.5203333062523
 34
0.0
100
AcDbRotatedDimension
1001
ACAD
1000
DSTYLE
1002
{
1070
   172
1070
     1
1070
   289
1070
     1
1070
    74
1070
     0
1070
   271
1070
     2
1070
    76
1070
     1
1070
   272
1070
     2
1070
    48
1040
0.0
1070
    47
1040
0.0
1002
}
  0
ENDSEC
  0
SECTION
  2
OBJECTS
  0
DICTIONARY
  5
C
330
0
100
AcDbDictionary
281
     1
  3
ACAD_CIP_PREVIOUS_PRODUCT_INFO
350
143F
  3
ACAD_COLOR
350
63
  3
ACAD_DETAILVIEWSTYLE
350
6A
  3
ACAD_GROUP
350
D
  3
ACAD_LAYOUT
350
62
  3
ACAD_MATERIAL
350
10
  3
ACAD_MLEADERSTYLE
350
66
  3
ACAD_MLINESTYLE
350
5F
  3
ACAD_PLOTSETTINGS
350
61
  3
ACAD_PLOTSTYLENAME
350
E
  3
ACAD_SCALELIST
350
42
  3
ACAD_SECTIONVIEWSTYLE
350
68
  3
ACAD_TABLESTYLE
350
64
  3
ACAD_VISUALSTYLE
350
29
  3
ACDB_RECOMPOSE_DATA
350
145C
  3
AcDbVariableDictionary
350
1440
  0
DICTIONARY
  5
144D
330
1CA
100
AcDbDictionary
280
     1
281
     1
  3
ACAD_MLATT
360
144F
  3
ACAD_XREC_ROUNDTRIP
360
144E
  0
DICTIONARY
  5
1450
330
1CD
100
AcDbDictionary
280
     1
281
     1
  3
ACAD_MLATT
360
1452
  3
ACAD_XREC_ROUNDTRIP
360
1451
  0
DICTIONARY
  5
1453
330
1CE
100
AcDbDictionary
280
     1
281
     1
  3
ACAD_MLATT
360
1455
  3
ACAD_XREC_ROUNDTRIP
360
1454
  0
DICTIONARY
  5
1456
330
1CF
100
AcDbDictionary
280
     1
281
     1
  3
ACAD_MLATT
360
1458
  3
ACAD_XREC_ROUNDTRIP
360
1457
  0
DICTIONARY
  5
1459
330
1D3
100
AcDbDictionary
280
     1
281
     1
  3
ACAD_MLATT
360
145B
  3
ACAD_XREC_ROUNDTRIP
360
145A
  0
XRECORD
  5
143F
102
{ACAD_REACTORS
330
C
102
}
330
C
100
AcDbXrecord
280
     1
300
INVPROSA
300
2014
300
PDSU_F_S
  0
DICTIONARY
  5
63
102
{ACAD_REACTORS
330
C
102
}
330
C
100
AcDbDictionary
281
     1
  0
DICTIONARY
  5
6A
102
{ACAD_REACTORS
330
C
102
}
330
C
100
AcDbDictionary
281
     1
  3
Imperial24
350
6B
  0
DICTIONARY
  5
D
102
{ACAD_REACTORS
330
C
102
}
330
C
100
AcDbDictionary
281
     1
  0
DICTIONARY
  5
62
102
{ACAD_REACTORS
330
C
102
}
330
C
100
AcDbDictionary
281
     1
  3
Layout1
350
6F
  3
Layout2
350
77
  3
Model
350
73
  0
DICTIONARY
  5
10
102
{ACAD_REACTORS
330
C
102
}
330
C
100
AcDbDictionary
281
     1
  3
ByBlock
350
19
  3
ByLayer
350
11
  3
Global
350
21
  0
DICTIONARY
  5
66
102
{ACAD_REACTORS
330
C
102
}
330
C
100
AcDbDictionary
281
     1
  3
Standard
350
67
  0
DICTIONARY
  5
5F
102
{ACAD_REACTORS
330
C
102
}
330
C
100
AcDbDictionary
281
     1
  3
Standard
350
60
  0
DICTIONARY
  5
61
102
{ACAD_REACTORS
330
C
102
}
330
C
100
AcDbDictionary
281
     1
  0
ACDBDICTIONARYWDFLT
  5
E
102
{ACAD_REACTORS
330
C
102
}
330
C
100
AcDbDictionary
281
     1
  3
Normal
350
F
100
AcDbDictionaryWithDefault
340
F
  0
DICTIONARY
  5
42
102
{ACAD_REACTORS
330
C
102
}
330
C
100
AcDbDictionary
281
     1
  3
A0
350
43
  3
A1
350
44
  3
A2
350
45
  3
A3
350
46
  3
A4
350
47
  3
A5
350
48
  3
A6
350
49
  3
A7
350
4A
  3
A8
350
4B
  3
A9
350
4C
  3
B0
350
4D
  3
B1
350
4E
  3
B2
350
4F
  3
B3
350
50
  3
B4
350
51
  3
B5
350
52
  3
B6
350
53
  0
DICTIONARY
  5
68
102
{ACAD_REACTORS
330
C
102
}
330
C
100
AcDbDictionary
281
     1
  3
Imperial24
350
69
  0
DICTIONARY
  5
64
102
{ACAD_REACTORS
330
C
102
}
330
C
100
AcDbDictionary
281
     1
  3
Standard
350
65
  0
DICTIONARY
  5
29
102
{ACAD_REACTORS
330
C
102
}
330
C
100
AcDbDictionary
281
     1
  3
2dWireframe
350
2F
  3
Basic
350
2E
  3
Brighten
350
35
  3
ColorChange
350
39
  3
Conceptual
350
32
  3
Dim
350
34
  3
EdgeColorOff
350
41
  3
Facepattern
350
38
  3
Flat
350
2A
  3
FlatWithEdges
350
2B
  3
Gouraud
350
2C
  3
GouraudWithEdges
350
2D
  3
Hidden
350
31
  3
JitterOff
350
3F
  3
Linepattern
350
37
  3
OverhangOff
350
40
  3
Realistic
350
33
  3
Shaded
350
3E
  3
Shaded with edges
350
3D
  3
Shades of Gray
350
3A
  3
Sketchy
350
3B
  3
Thicken
350
36
  3
Wireframe
350
30
  3
X-Ray
350
3C
  0
XRECORD
  5
145C
102
{ACAD_REACTORS
330
C
102
}
330
C
100
AcDbXrecord
280
     1
 90
        1
330
65
330
69
330
6B
330
1CA
330
1CD
330
1CE
330
1CF
330
1D3
  0
DICTIONARY
  5
1440
102
{ACAD_REACTORS
330
C
102
}
330
C
100
AcDbDictionary
281
     1
  3
CANNOSCALE
350
1445
  3
CMLEADERSTYLE
350
1442
  3
CTABLESTYLE
350
1441
  3
CVIEWDETAILSTYLE
350
1443
  3
CVIEWSECTIONSTYLE
350
1444
  0
XRECORD
  5
144F
102
{ACAD_REACTORS
330
144D
102
}
330
144D
100
AcDbXrecord
280
     1
 70
     4
 70
     0
 70
     0
 40
1.0
  2
Innenkante_obere_Grenze
  1
Embedded Object
 10
28.19096644559973
 20
16.62519294726898
 30
0.0
 40
3.499999940395355
 41
0.0
 46
0.0
 71
     1
 72
     5
  1
\W0.9000;-1
  7
Textstil122
 73
     1
 44
1.0
  0
XRECORD
  5
144E
102
{ACAD_REACTORS
330
144D
102
}
330
144D
100
AcDbXrecord
280
     1
102
ACAD_MATT_HEIGHT
140
3.499999940395355
  0
XRECORD
  5
1452
102
{ACAD_REACTORS
330
1450
102
}
330
1450
100
AcDbXrecord
280
     1
 70
     4
 70
     0
 70
     0
 40
1.0
  2
Innenkante_untere_Grenze
  1
Embedded Object
 10
28.19096644559973
 20
11.62519294726898
 30
0.0
 40
3.499999940395355
 41
0.0
 46
0.0
 71
     1
 72
     5
  1
\W0.9000;-0.25
  7
Textstil122
 73
     1
 44
1.0
  0
XRECORD
  5
1451
102
{ACAD_REACTORS
330
1450
102
}
330
1450
100
AcDbXrecord
280
     1
102
ACAD_MATT_HEIGHT
140
3.499999940395355
  0
XRECORD
  5
1455
102
{ACAD_REACTORS
330
1453
102
}
330
1453
100
AcDbXrecord
280
     1
 70
     4
 70
     0
 70
     0
 40
1.0
  2
Aussenkante_obere_Grenze
  1
Embedded Object
 10
6.72133928938317
 20
16.62519294726898
 30
0.0
 40
3.499999940395355
 41
7.696662545204162
 46
0.0
 71
     1
 72
     5
  1
\W0.9000;+0.3
  7
Textstil122
 73
     1
 44
1.0
  0
XRECORD
  5
1454
102
{ACAD_REACTORS
330
1453
102
}
330
1453
100
AcDbXrecord
280
     1
102
ACAD_MATT_HEIGHT
140
3.499999940395355
  0
XRECORD
  5
1458
102
{ACAD_REACTORS
330
1456
102
}
330
1456
100
AcDbXrecord
280
     1
 70
     4
 70
     0
 70
     0
 40
1.0
  2
Aussenkante_untere_Grenze
  1
Embedded Object
 10
6.72133928938317
 20
11.62519294726898
 30
0.0
 40
3.499999940395355
 41
0.0
 46
0.0
 71
     1
 72
     5
  1
\W0.9000;+0.1
  7
Textstil122
 73
     1
 44
1.0
  0
XRECORD
  5
1457
102
{ACAD_REACTORS
330
1456
102
}
330
1456
100
AcDbXrecord
280
     1
102
ACAD_MATT_HEIGHT
140
3.499999940395355
  0
XRECORD
  5
145B
102
{ACAD_REACTORS
330
1459
102
}
330
1459
100
AcDbXrecord
280
     1
 70
     4
 70
     0
 70
     0
 40
1.0
  2
<Eingabeaufforderung_für_Feld_eingeben>
  1
Embedded Object
 10
-13.89877024175858
 20
2.257164039476613
 30
0.0
 40
3.499999940395355
 41
122.48979265855
 46
0.0
 71
     1
 72
     5
  1
2
  7
Aktuell-DIN
 73
     1
 44
1.0
  0
XRECORD
  5
145A
102
{ACAD_REACTORS
330
1459
102
}
330
1459
100
AcDbXrecord
280
     1
102
ACAD_MATT_HEIGHT
140
3.499999940395355
  0
ACDBDETAILVIEWSTYLE
  5
6B
102
{ACAD_XDICTIONARY
360
144A
102
}
102
{ACAD_REACTORS
330
6A
102
}
330
6A
100
AcDbModelDocViewStyle
 70
     0
  3
Imperial24
290
     0
100
AcDbDetailViewStyle
 70
     0
 71
     0
 90
        3
 71
     1
340
55
 62
   256
 40
0.24
340
0
 62
   256
 40
0.24
300

 40
0.36
280
     3
 71
     2
340
5D
 90
       25
 62
   256
 71
     3
340
55
 62
   256
 40
0.24
 90
        1
 40
0.75
 90
        1
300
%<\AcVar ViewType \f "%tc1">% %<\AcVar ViewDetailId>%\PVARIA %<\AcVar ViewScale \f "%sn">%
 71
     4
340
5D
 90
       25
 62
   256
340
5D
 90
       25
 62
   256
280
     0
  0
LAYOUT
  5
6F
102
{ACAD_REACTORS
330
62
102
}
330
62
100
AcDbPlotSettings
  1

  2

  4

  6

 40
0.0
 41
0.0
 42
0.0
 43
0.0
 44
0.0
 45
0.0
 46
0.0
 47
0.0
 48
0.0
 49
0.0
140
0.0
141
0.0
142
1.0
143
1.0
 70
   688
 72
     0
 73
     0
 74
     5
  7

 75
    16
147
1.0
 76
     0
 77
     2
 78
   300
148
0.0
149
0.0
100
AcDbLayout
  1
Layout1
 70
     1
 71
     1
 10
0.0
 20
0.0
 11
12.0
 21
9.0
 12
0.0
 22
0.0
 32
0.0
 14
0.0
 24
0.0
 34
0.0
 15
0.0
 25
0.0
 35
0.0
146
0.0
 13
0.0
 23
0.0
 33
0.0
 16
1.0
 26
0.0
 36
0.0
 17
0.0
 27
1.0
 37
0.0
 76
     0
330
6C
  0
LAYOUT
  5
77
102
{ACAD_REACTORS
330
62
102
}
330
62
100
AcDbPlotSettings
  1

  2

  4

  6

 40
0.0
 41
0.0
 42
0.0
 43
0.0
 44
0.0
 45
0.0
 46
0.0
 47
0.0
 48
0.0
 49
0.0
140
0.0
141
0.0
142
1.0
143
1.0
 70
   688
 72
     0
 73
     0
 74
     5
  7

 75
    16
147
1.0
 76
     0
 77
     2
 78
   300
148
0.0
149
0.0
100
AcDbLayout
  1
Layout2
 70
     1
 71
     2
 10
0.0
 20
0.0
 11
12.0
 21
9.0
 12
0.0
 22
0.0
 32
0.0
 14
0.0
 24
0.0
 34
0.0
 15
0.0
 25
0.0
 35
0.0
146
0.0
 13
0.0
 23
0.0
 33
0.0
 16
1.0
 26
0.0
 36
0.0
 17
0.0
 27
1.0
 37
0.0
 76
     0
330
74
  0
LAYOUT
  5
73
102
{ACAD_REACTORS
330
62
102
}
330
62
100
AcDbPlotSettings
  1

  2

  4

  6

 40
0.0
 41
0.0
 42
0.0
 43
0.0
 44
0.0
 45
0.0
 46
0.0
 47
0.0
 48
0.0
 49
0.0
140
0.0
141
0.0
142
1.0
143
1.0
 70
  1712
 72
     0
 73
     0
 74
     0
  7

 75
     0
147
1.0
 76
     0
 77
     2
 78
   300
148
0.0
149
0.0
100
AcDbLayout
  1
Model
 70
     1
 71
     0
 10
0.0
 20
0.0
 11
12.0
 21
9.0
 12
0.0
 22
0.0
 32
0.0
 14
0.0
 24
0.0
 34
0.0
 15
0.0
 25
0.0
 35
0.0
146
0.0
 13
0.0
 23
0.0
 33
0.0
 16
1.0
 26
0.0
 36
0.0
 17
0.0
 27
1.0
 37
0.0
 76
     0
330
70
  0
MATERIAL
  5
19
102
{ACAD_XDICTIONARY
360
1A
102
}
102
{ACAD_REACTORS
330
10
102
}
330
10
100
AcDbMaterial
  1
ByBlock
 72
     0
 43
0.0208333333333333
 43
0.0
 43
0.0
 43
0.0
 43
0.0
 43
0.0208333333333333
 43
0.0
 43
0.0
 43
0.0
 43
0.0
 43
1.0
 43
0.0
 43
0.0
 43
0.0
 43
0.0
 43
1.0
 77
     0
 47
0.0208333333333333
 47
0.0
 47
0.0
 47
0.0
 47
0.0
 47
0.0208333333333333
 47
0.0
 47
0.0
 47
0.0
 47
0.0
 47
1.0
 47
0.0
 47
0.0
 47
0.0
 47
0.0
 47
1.0
171
     0
 49
0.0208333333333333
 49
0.0
 49
0.0
 49
0.0
 49
0.0
 49
0.0208333333333333
 49
0.0
 49
0.0
 49
0.0
 49
0.0
 49
1.0
 49
0.0
 49
0.0
 49
0.0
 49
0.0
 49
1.0
175
     0
142
0.0208333333333333
142
0.0
142
0.0
142
0.0
142
0.0
142
0.0208333333333333
142
0.0
142
0.0
142
0.0
142
0.0
142
1.0
142
0.0
142
0.0
142
0.0
142
0.0
142
1.0
179
     0
144
0.0208333333333333
144
0.0
144
0.0
144
0.0
144
0.0
144
0.0208333333333333
144
0.0
144
0.0
144
0.0
144
0.0
144
1.0
144
0.0
144
0.0
144
0.0
144
0.0
144
1.0
147
0.0208333333333333
147
0.0
147
0.0
147
0.0
147
0.0
147
0.0208333333333333
147
0.0
147
0.0
147
0.0
147
0.0
147
1.0
147
0.0
147
0.0
147
0.0
147
0.0
147
1.0
  0
MATERIAL
  5
11
102
{ACAD_XDICTIONARY
360
12
102
}
102
{ACAD_REACTORS
330
10
102
}
330
10
100
AcDbMaterial
  1
ByLayer
 72
     0
 43
0.0208333333333333
 43
0.0
 43
0.0
 43
0.0
 43
0.0
 43
0.0208333333333333
 43
0.0
 43
0.0
 43
0.0
 43
0.0
 43
1.0
 43
0.0
 43
0.0
 43
0.0
 43
0.0
 43
1.0
 77
     0
 47
0.0208333333333333
 47
0.0
 47
0.0
 47
0.0
 47
0.0
 47
0.0208333333333333
 47
0.0
 47
0.0
 47
0.0
 47
0.0
 47
1.0
 47
0.0
 47
0.0
 47
0.0
 47
0.0
 47
1.0
171
     0
 49
0.0208333333333333
 49
0.0
 49
0.0
 49
0.0
 49
0.0
 49
0.0208333333333333
 49
0.0
 49
0.0
 49
0.0
 49
0.0
 49
1.0
 49
0.0
 49
0.0
 49
0.0
 49
0.0
 49
1.0
175
     0
142
0.0208333333333333
142
0.0
142
0.0
142
0.0
142
0.0
142
0.0208333333333333
142
0.0
142
0.0
142
0.0
142
0.0
142
1.0
142
0.0
142
0.0
142
0.0
142
0.0
142
1.0
179
     0
144
0.0208333333333333
144
0.0
144
0.0
144
0.0
144
0.0
144
0.0208333333333333
144
0.0
144
0.0
144
0.0
144
0.0
144
1.0
144
0.0
144
0.0
144
0.0
144
0.0
144
1.0
147
0.0208333333333333
147
0.0
147
0.0
147
0.0
147
0.0
147
0.0208333333333333
147
0.0
147
0.0
147
0.0
147
0.0
147
1.0
147
0.0
147
0.0
147
0.0
147
0.0
147
1.0
  0
MATERIAL
  5
21
102
{ACAD_XDICTIONARY
360
22
102
}
102
{ACAD_REACTORS
330
10
102
}
330
10
100
AcDbMaterial
  1
Global
 72
     0
 43
0.0208333333333333
 43
0.0
 43
0.0
 43
0.0
 43
0.0
 43
0.0208333333333333
 43
0.0
 43
0.0
 43
0.0
 43
0.0
 43
1.0
 43
0.0
 43
0.0
 43
0.0
 43
0.0
 43
1.0
 77
     0
 47
0.0208333333333333
 47
0.0
 47
0.0
 47
0.0
 47
0.0
 47
0.0208333333333333
 47
0.0
 47
0.0
 47
0.0
 47
0.0
 47
1.0
 47
0.0
 47
0.0
 47
0.0
 47
0.0
 47
1.0
171
     0
 49
0.0208333333333333
 49
0.0
 49
0.0
 49
0.0
 49
0.0
 49
0.0208333333333333
 49
0.0
 49
0.0
 49
0.0
 49
0.0
 49
1.0
 49
0.0
 49
0.0
 49
0.0
 49
0.0
 49
1.0
175
     0
142
0.0208333333333333
142
0.0
142
0.0
142
0.0
142
0.0
142
0.0208333333333333
142
0.0
142
0.0
142
0.0
142
0.0
142
1.0
142
0.0
142
0.0
142
0.0
142
0.0
142
1.0
179
     0
144
0.0208333333333333
144
0.0
144
0.0
144
0.0
144
0.0
144
0.0208333333333333
144
0.0
144
0.0
144
0.0
144
0.0
144
1.0
144
0.0
144
0.0
144
0.0
144
0.0
144
1.0
147
0.0208333333333333
147
0.0
147
0.0
147
0.0
147
0.0
147
0.0208333333333333
147
0.0
147
0.0
147
0.0
147
0.0
147
1.0
147
0.0
147
0.0
147
0.0
147
0.0
147
1.0
  0
MLEADERSTYLE
  5
67
102
{ACAD_REACTORS
330
66
102
}
330
66
100
AcDbMLeaderStyle
179
     2
170
     2
171
     1
172
     0
 90
        2
 40
0.0
 41
0.0
173
     1
 91
-1056964608
340
5B
 92
       -2
290
     1
 42
0.09
291
     1
 43
0.36
  3
Standard
 44
0.18
300

342
55
174
     1
178
     6
175
     1
176
     0
 93
-1056964608
 45
0.18
292
     0
297
     0
 46
0.18
 94
-1056964608
 47
1.0
 49
1.0
140
1.0
293
     1
141
0.0
294
     1
177
     0
142
1.0
295
     1
296
     0
143
0.125
271
     0
272
     9
273
     9
298
     1
  0
MLINESTYLE
  5
60
102
{ACAD_REACTORS
330
5F
102
}
330
5F
100
AcDbMlineStyle
  2
STANDARD
 70
     0
  3

 62
   256
 51
90.0
 52
90.0
 71
     2
 49
0.5
 62
   256
  6
BYLAYER
 49
-0.5
 62
   256
  6
BYLAYER
  0
ACDBPLACEHOLDER
  5
F
102
{ACAD_REACTORS
330
E
102
}
330
E
  0
SCALE
  5
43
102
{ACAD_REACTORS
330
42
102
}
330
42
100
AcDbScale
 70
     0
300
1:1
140
1.0
141
1.0
290
     1
  0
SCALE
  5
44
102
{ACAD_REACTORS
330
42
102
}
330
42
100
AcDbScale
 70
     0
300
1/128" = 1'-0"
140
0.0078125
141
12.0
290
     0
  0
SCALE
  5
45
102
{ACAD_REACTORS
330
42
102
}
330
42
100
AcDbScale
 70
     0
300
1/64" = 1'-0"
140
0.015625
141
12.0
290
     0
  0
SCALE
  5
46
102
{ACAD_REACTORS
330
42
102
}
330
42
100
AcDbScale
 70
     0
300
1/32" = 1'-0"
140
0.03125
141
12.0
290
     0
  0
SCALE
  5
47
102
{ACAD_REACTORS
330
42
102
}
330
42
100
AcDbScale
 70
     0
300
1/16" = 1'-0"
140
0.0625
141
12.0
290
     0
  0
SCALE
  5
48
102
{ACAD_REACTORS
330
42
102
}
330
42
100
AcDbScale
 70
     0
300
3/32" = 1'-0"
140
0.09375
141
12.0
290
     0
  0
SCALE
  5
49
102
{ACAD_REACTORS
330
42
102
}
330
42
100
AcDbScale
 70
     0
300
1/8" = 1'-0"
140
0.125
141
12.0
290
     0
  0
SCALE
  5
4A
102
{ACAD_REACTORS
330
42
102
}
330
42
100
AcDbScale
 70
     0
300
3/16" = 1'-0"
140
0.1875
141
12.0
290
     0
  0
SCALE
  5
4B
102
{ACAD_REACTORS
330
42
102
}
330
42
100
AcDbScale
 70
     0
300
1/4" = 1'-0"
140
0.25
141
12.0
290
     0
  0
SCALE
  5
4C
102
{ACAD_REACTORS
330
42
102
}
330
42
100
AcDbScale
 70
     0
300
3/8" = 1'-0"
140
0.375
141
12.0
290
     0
  0
SCALE
  5
4D
102
{ACAD_REACTORS
330
42
102
}
330
42
100
AcDbScale
 70
     0
300
1/2" = 1'-0"
140
0.5
141
12.0
290
     0
  0
SCALE
  5
4E
102
{ACAD_REACTORS
330
42
102
}
330
42
100
AcDbScale
 70
     0
300
3/4" = 1'-0"
140
0.75
141
12.0
290
     0
  0
SCALE
  5
4F
102
{ACAD_REACTORS
330
42
102
}
330
42
100
AcDbScale
 70
     0
300
1" = 1'-0"
140
1.0
141
12.0
290
     0
  0
SCALE
  5
50
102
{ACAD_REACTORS
330
42
102
}
330
42
100
AcDbScale
 70
     0
300
1-1/2" = 1'-0"
140
1.5
141
12.0
290
     0
  0
SCALE
  5
51
102
{ACAD_REACTORS
330
42
102
}
330
42
100
AcDbScale
 70
     0
300
3" = 1'-0"
140
3.0
141
12.0
290
     0
  0
SCALE
  5
52
102
{ACAD_REACTORS
330
42
102
}
330
42
100
AcDbScale
 70
     0
300
6" = 1'-0"
140
6.0
141
12.0
290
     0
  0
SCALE
  5
53
102
{ACAD_REACTORS
330
42
102
}
330
42
100
AcDbScale
 70
     0
300
1'-0" = 1'-0"
140
12.0
141
12.0
290
     0
  0
ACDBSECTIONVIEWSTYLE
  5
69
102
{ACAD_XDICTIONARY
360
1448
102
}
102
{ACAD_REACTORS
330
68
102
}
330
68
100
AcDbModelDocViewStyle
 70
     0
  3
Imperial24
290
     0
100
AcDbSectionViewStyle
 70
     0
 71
     0
 90
       78
 71
     1
340
55
 62
   256
 40
0.24
340
0
340
0
 62
   256
 40
0.24
300
I, O, Q, S, X, Z
 40
0.48
 90
        3
 40
0.18
 90
        1
 71
     2
340
5D
 90
       25
 62
   256
340
5D
 90
       50
 62
   256
 40
0.24
 40
0.0
 40
0.24
 71
     3
340
55
 62
   256
 40
0.24
 90
        1
 40
0.75
 90
        1
300
%<\AcVar ViewType \f "%tc1">% %<\AcVar ViewSectionStartId>%-%<\AcVar ViewSectionEndId>%\PVARIA %<\AcVar ViewScale \f "%sn">%
 71
     4
 62
   256
 62
   257
300
ANSI31
 40
1.0
 90
        0
290
     0
290
     0
 90
        6
 40
0.0
 40
1.570796326794896
 40
0.2617993877991494
 40
1.308996938995747
 40
-0.2617993877991494
 40
1.832595714594046
  0
TABLESTYLE
  5
65
102
{ACAD_XDICTIONARY
360
1446
102
}
102
{ACAD_REACTORS
330
64
102
}
330
64
100
AcDbTableStyle
280
     0
  3
Standard
 70
     0
 71
     0
 40
0.06
 41
0.06
280
     0
281
     0
  7
Standard
140
0.18
170
     2
 62
     0
 63
     7
283
     0
 90
      512
 91
        0
  1

274
    -2
284
     1
 64
     0
275
    -2
285
     1
 65
     0
276
    -2
286
     1
 66
     0
277
    -2
287
     1
 67
     0
278
    -2
288
     1
 68
     0
279
    -2
289
     1
 69
     0
  7
Standard
140
0.25
170
     5
 62
     0
 63
     7
283
     0
 90
      512
 91
        0
  1

274
    -2
284
     1
 64
     0
275
    -2
285
     1
 65
     0
276
    -2
286
     1
 66
     0
277
    -2
287
     1
 67
     0
278
    -2
288
     1
 68
     0
279
    -2
289
     1
 69
     0
  7
Standard
140
0.18
170
     5
 62
     0
 63
     7
283
     0
 90
      512
 91
        0
  1

274
    -2
284
     1
 64
     0
275
    -2
285
     1
 65
     0
276
    -2
286
     1
 66
     0
277
    -2
287
     1
 67
     0
278
    -2
288
     1
 68
     0
279
    -2
289
     1
 69
     0
  0
VISUALSTYLE
  5
2F
102
{ACAD_REACTORS
330
29
102
}
330
29
100
AcDbVisualStyle
  2
2dWireframe
 70
     4
177
     3
291
     0
 70
    58
 90
        0
176
     1
 90
        2
176
     1
 90
        0
176
     1
 90
        0
176
     1
 40
0.6
176
     1
 40
30.0
176
     1
 62
     7
420
 16777215
176
     1
 90
        1
176
     1
 90
        4
176
     1
 62
     7
176
     1
 62
   257
176
     1
 90
        1
176
     1
 90
        1
176
     1
 40
1.0
176
     1
 90
        0
176
     1
 62
   257
176
     1
 40
1.0
176
     1
 90
        1
176
     1
 90
        6
176
     1
 90
        2
176
     1
 62
     7
176
     1
 90
        5
176
     1
 90
        0
176
     1
 90
        0
176
     1
290
     0
176
     1
 90
        1
176
     1
 40
0.0
176
     1
 90
        0
176
     1
290
     1
176
     1
290
     1
176
     1
290
     0
176
     1
290
     0
176
     1
290
     0
176
     1
290
     0
176
     1
290
     0
176
     1
290
     0
176
     1
290
     0
176
     1
 90
       50
176
     1
 40
0.0
176
     1
 40
1.0
176
     1
 90
        0
176
     1
 62
    18
420
        0
176
     1
 90
       50
176
     1
 90
        3
176
     1
 62
     5
420
      255
176
     1
290
     0
176
     1
 90
       50
176
     1
 90
       50
176
     1
 90
       50
176
     1
290
     0
176
     1
 90
       50
176
     1
 62
   256
176
     0
 40
1.0
176
     0
 90
        2
176
     1
  1
strokes_ogs.tif
176
     1
290
     0
176
     1
 40
1.0
176
     1
 40
1.0
176
     1
  0
VISUALSTYLE
  5
2E
102
{ACAD_REACTORS
330
29
102
}
330
29
100
AcDbVisualStyle
  2
Basic
 70
     7
177
     3
291
     1
 70
    58
 90
        1
176
     1
 90
        0
176
     1
 90
        1
176
     1
 90
        0
176
     1
 40
0.6
176
     1
 40
30.0
176
     1
 62
     7
420
 16777215
176
     1
 90
        0
176
     1
 90
        4
176
     1
 62
     7
176
     1
 62
   257
176
     1
 90
        1
176
     1
 90
        1
176
     1
 40
1.0
176
     1
 90
        8
176
     1
 62
     7
176
     1
 40
1.0
176
     1
 90
        1
176
     1
 90
        6
176
     1
 90
        2
176
     1
 62
     7
176
     1
 90
        5
176
     1
 90
        0
176
     1
 90
        0
176
     1
290
     0
176
     1
 90
        1
176
     1
 40
0.0
176
     1
 90
        0
176
     1
290
     0
176
     1
290
     1
176
     1
290
     1
176
     1
290
     0
176
     1
290
     0
176
     1
290
     0
176
     1
290
     0
176
     1
290
     0
176
     1
290
     0
176
     1
 90
       50
176
     1
 40
0.0
176
     1
 40
1.0
176
     1
 90
        0
176
     1
 62
    18
420
        0
176
     1
 90
       50
176
     1
 90
        3
176
     1
 62
     5
420
      255
176
     1
290
     0
176
     1
 90
       50
176
     1
 90
       50
176
     1
 90
       50
176
     1
290
     0
176
     1
 90
       50
176
     1
 62
   256
176
     0
 40
1.0
176
     0
 90
        2
176
     1
  1
strokes_ogs.tif
176
     1
290
     0
176
     1
 40
1.0
176
     1
 40
1.0
176
     1
  0
VISUALSTYLE
  5
35
102
{ACAD_REACTORS
330
29
102
}
330
29
100
AcDbVisualStyle
  2
Brighten
 70
    12
177
     3
291
     1
 70
    58
 90
        2
176
     1
 90
        2
176
     1
 90
        0
176
     1
 90
        0
176
     1
 40
0.6
176
     1
 40
30.0
176
     1
 62
     7
420
 16777215
176
     1
 90
        1
176
     1
 90
        4
176
     1
 62
     7
176
     1
 62
   257
176
     1
 90
        1
176
     1
 90
        1
176
     1
 40
1.0
176
     1
 90
        8
176
     1
 62
     7
176
     1
 40
1.0
176
     1
 90
        1
176
     1
 90
        6
176
     1
 90
        2
176
     1
 62
     7
176
     1
 90
        5
176
     1
 90
        0
176
     1
 90
        0
176
     1
290
     0
176
     1
 90
        1
176
     1
 40
50.0
176
     1
 90
        0
176
     1
290
     0
176
     1
290
     1
176
     1
290
     1
176
     1
290
     0
176
     1
290
     0
176
     1
290
     0
176
     1
290
     0
176
     1
290
     0
176
     1
290
     0
176
     1
 90
       50
176
     1
 40
0.0
176
     1
 40
1.0
176
     1
 90
        0
176
     1
 62
    18
420
        0
176
     1
 90
       50
176
     1
 90
        3
176
     1
 62
     5
420
      255
176
     1
290
     0
176
     1
 90
       50
176
     1
 90
       50
176
     1
 90
       50
176
     1
290
     0
176
     1
 90
       50
176
     1
 62
   256
176
     0
 40
1.0
176
     0
 90
        2
176
     1
  1
strokes_ogs.tif
176
     1
290
     0
176
     1
 40
1.0
176
     1
 40
1.0
176
     1
  0
VISUALSTYLE
  5
39
102
{ACAD_REACTORS
330
29
102
}
330
29
100
AcDbVisualStyle
  2
ColorChange
 70
    16
177
     3
291
     1
 70
    58
 90
        2
176
     1
 90
        2
176
     1
 90
        3
176
     1
 90
        0
176
     1
 40
0.6
176
     1
 40
30.0
176
     1
 62
     8
420
  8421504
176
     1
 90
        1
176
     1
 90
        4
176
     1
 62
     7
176
     1
 62
   257
176
     1
 90
        1
176
     1
 90
        1
176
     1
 40
1.0
176
     1
 90
        8
176
     1
 62
     8
420
  8421504
176
     1
 40
1.0
176
     1
 90
        1
176
     1
 90
        6
176
     1
 90
        2
176
     1
 62
     7
176
     1
 90
        5
176
     1
 90
        0
176
     1
 90
        0
176
     1
290
     0
176
     1
 90
        1
176
     1
 40
0.0
176
     1
 90
        0
176
     1
290
     0
176
     1
290
     1
176
     1
290
     1
176
     1
290
     0
176
     1
290
     0
176
     1
290
     0
176
     1
290
     0
176
     1
290
     0
176
     1
290
     0
176
     1
 90
       50
176
     1
 40
0.0
176
     1
 40
1.0
176
     1
 90
        0
176
     1
 62
    18
420
        0
176
     1
 90
       50
176
     1
 90
        3
176
     1
 62
     5
420
      255
176
     1
290
     0
176
     1
 90
       50
176
     1
 90
       50
176
     1
 90
       50
176
     1
290
     0
176
     1
 90
       50
176
     1
 62
   256
176
     0
 40
1.0
176
     0
 90
        2
176
     1
  1
strokes_ogs.tif
176
     1
290
     0
176
     1
 40
1.0
176
     1
 40
1.0
176
     1
  0
VISUALSTYLE
  5
32
102
{ACAD_REACTORS
330
29
102
}
330
29
100
AcDbVisualStyle
  2
Conceptual
 70
     9
177
     3
291
     0
 70
    58
 90
        3
176
     1
 90
        2
176
     1
 90
        0
176
     1
 90
        0
176
     1
 40
0.6
176
     1
 40
30.0
176
     1
 62
     7
420
 16777215
176
     1
 90
        2
176
     1
 90
        2
176
     1
 62
     7
176
     1
 62
   257
176
     1
 90
        1
176
     1
 90
        1
176
     1
 40
179.0
176
     1
 90
        8
176
     1
 62
     7
176
     1
 40
1.0
176
     1
 90
        1
176
     1
 90
        6
176
     1
 90
        2
176
     1
 62
     7
176
     1
 90
        3
176
     1
 90
        0
176
     1
 90
        0
176
     1
290
     0
176
     1
 90
        1
176
     1
 40
0.0
176
     1
 90
        0
176
     1
290
     0
176
     1
290
     1
176
     1
290
     1
176
     1
290
     0
176
     1
290
     0
176
     1
290
     0
176
     1
290
     0
176
     1
290
     0
176
     1
290
     0
176
     1
 90
       50
176
     1
 40
0.0
176
     1
 40
1.0
176
     1
 90
        0
176
     1
 62
    18
420
        0
176
     1
 90
       50
176
     1
 90
        3
176
     1
 62
     5
420
      255
176
     1
290
     0
176
     1
 90
       50
176
     1
 90
       50
176
     1
 90
       50
176
     1
290
     0
176
     1
 90
       50
176
     1
 62
   256
176
     0
 40
1.0
176
     0
 90
        2
176
     1
  1
strokes_ogs.tif
176
     1
290
     0
176
     1
 40
1.0
176
     1
 40
1.0
176
     1
  0
VISUALSTYLE
  5
34
102
{ACAD_REACTORS
330
29
102
}
330
29
100
AcDbVisualStyle
  2
Dim
 70
    11
177
     3
291
     1
 70
    58
 90
        2
176
     1
 90
        2
176
     1
 90
        0
176
     1
 90
        0
176
     1
 40
0.6
176
     1
 40
30.0
176
     1
 62
     7
420
 16777215
176
     1
 90
        1
176
     1
 90
        4
176
     1
 62
     7
176
     1
 62
   257
176
     1
 90
        1
176
     1
 90
        1
176
     1
 40
1.0
176
     1
 90
        8
176
     1
 62
     7
176
     1
 40
1.0
176
     1
 90
        1
176
     1
 90
        6
176
     1
 90
        2
176
     1
 62
     7
176
     1
 90
        5
176
     1
 90
        0
176
     1
 90
        0
176
     1
290
     0
176
     1
 90
        1
176
     1
 40
-50.0
176
     1
 90
        0
176
     1
290
     0
176
     1
290
     1
176
     1
290
     1
176
     1
290
     0
176
     1
290
     0
176
     1
290
     0
176
     1
290
     0
176
     1
290
     0
176
     1
290
     0
176
     1
 90
       50
176
     1
 40
0.0
176
     1
 40
1.0
176
     1
 90
        0
176
     1
 62
    18
420
        0
176
     1
 90
       50
176
     1
 90
        3
176
     1
 62
     5
420
      255
176
     1
290
     0
176
     1
 90
       50
176
     1
 90
       50
176
     1
 90
       50
176
     1
290
     0
176
     1
 90
       50
176
     1
 62
   256
176
     0
 40
1.0
176
     0
 90
        2
176
     1
  1
strokes_ogs.tif
176
     1
290
     0
176
     1
 40
1.0
176
     1
 40
1.0
176
     1
  0
VISUALSTYLE
  5
41
102
{ACAD_REACTORS
330
29
102
}
330
29
100
AcDbVisualStyle
  2
EdgeColorOff
 70
    22
177
     3
291
     1
 70
    58
 90
        2
176
     0
 90
        2
176
     0
 90
        0
176
     0
 90
        0
176
     0
 40
0.6
176
     0
 40
30.0
176
     0
 62
     7
420
 16777215
176
     0
 90
        1
176
     0
 90
        4
176
     0
 62
     7
176
     0
 62
   257
176
     0
 90
        1
176
     0
 90
        1
176
     0
 40
1.0
176
     0
 90
        8
176
     2
 62
     7
176
     0
 40
1.0
176
     0
 90
        1
176
     0
 90
        6
176
     0
 90
        2
176
     0
 62
     7
176
     0
 90
        5
176
     0
 90
        0
176
     0
 90
        0
176
     0
290
     0
176
     0
 90
        1
176
     0
 40
0.0
176
     0
 90
        0
176
     0
290
     0
176
     0
290
     1
176
     0
290
     1
176
     0
290
     0
176
     0
290
     0
176
     0
290
     0
176
     0
290
     0
176
     0
290
     0
176
     0
290
     0
176
     0
 90
       50
176
     0
 40
0.0
176
     0
 40
1.0
176
     0
 90
        0
176
     0
 62
    18
420
        0
176
     0
 90
       50
176
     0
 90
        3
176
     0
 62
     5
420
      255
176
     0
290
     0
176
     0
 90
       50
176
     0
 90
       50
176
     0
 90
       50
176
     0
290
     0
176
     0
 90
       50
176
     0
 62
   256
176
     0
 40
1.0
176
     0
 90
        2
176
     0
  1
strokes_ogs.tif
176
     0
290
     0
176
     0
 40
1.0
176
     0
 40
1.0
176
     0
  0
VISUALSTYLE
  5
38
102
{ACAD_REACTORS
330
29
102
}
330
29
100
AcDbVisualStyle
  2
Facepattern
 70
    15
177
     3
291
     1
 70
    58
 90
        2
176
     1
 90
        2
176
     1
 90
        0
176
     1
 90
        0
176
     1
 40
0.6
176
     1
 40
30.0
176
     1
 62
     7
420
 16777215
176
     1
 90
        1
176
     1
 90
        4
176
     1
 62
     7
176
     1
 62
   257
176
     1
 90
        1
176
     1
 90
        1
176
     1
 40
1.0
176
     1
 90
        8
176
     1
 62
     7
176
     1
 40
1.0
176
     1
 90
        1
176
     1
 90
        6
176
     1
 90
        2
176
     1
 62
     7
176
     1
 90
        5
176
     1
 90
        0
176
     1
 90
        0
176
     1
290
     0
176
     1
 90
        1
176
     1
 40
0.0
176
     1
 90
        0
176
     1
290
     0
176
     1
290
     1
176
     1
290
     1
176
     1
290
     0
176
     1
290
     0
176
     1
290
     0
176
     1
290
     0
176
     1
290
     0
176
     1
290
     0
176
     1
 90
       50
176
     1
 40
0.0
176
     1
 40
1.0
176
     1
 90
        0
176
     1
 62
    18
420
        0
176
     1
 90
       50
176
     1
 90
        3
176
     1
 62
     5
420
      255
176
     1
290
     0
176
     1
 90
       50
176
     1
 90
       50
176
     1
 90
       50
176
     1
290
     0
176
     1
 90
       50
176
     1
 62
   256
176
     0
 40
1.0
176
     0
 90
        2
176
     1
  1
strokes_ogs.tif
176
     1
290
     0
176
     1
 40
1.0
176
     1
 40
1.0
176
     1
  0
VISUALSTYLE
  5
2A
102
{ACAD_REACTORS
330
29
102
}
330
29
100
AcDbVisualStyle
  2
Flat
 70
     0
177
     3
291
     1
 70
    58
 90
        2
176
     1
 90
        1
176
     1
 90
        1
176
     1
 90
        2
176
     1
 40
0.6
176
     1
 40
30.0
176
     1
 62
     7
420
 16777215
176
     1
 90
        0
176
     1
 90
        0
176
     1
 62
     7
176
     1
 62
   257
176
     1
 90
        1
176
     1
 90
        1
176
     1
 40
1.0
176
     1
 90
        8
176
     1
 62
     7
176
     1
 40
1.0
176
     1
 90
        1
176
     1
 90
        6
176
     1
 90
        2
176
     1
 62
     7
176
     1
 90
        5
176
     1
 90
        0
176
     1
 90
        0
176
     1
290
     0
176
     1
 90
       13
176
     1
 40
0.0
176
     1
 90
        0
176
     1
290
     0
176
     1
290
     1
176
     1
290
     1
176
     1
290
     0
176
     1
290
     0
176
     1
290
     0
176
     1
290
     0
176
     1
290
     0
176
     1
290
     0
176
     1
 90
       50
176
     1
 40
0.0
176
     1
 40
1.0
176
     1
 90
        0
176
     1
 62
    18
420
        0
176
     1
 90
       50
176
     1
 90
        3
176
     1
 62
     5
420
      255
176
     1
290
     0
176
     1
 90
       50
176
     1
 90
       50
176
     1
 90
       50
176
     1
290
     0
176
     1
 90
       50
176
     1
 62
   256
176
     0
 40
1.0
176
     0
 90
        2
176
     1
  1
strokes_ogs.tif
176
     1
290
     0
176
     1
 40
1.0
176
     1
 40
1.0
176
     1
  0
VISUALSTYLE
  5
2B
102
{ACAD_REACTORS
330
29
102
}
330
29
100
AcDbVisualStyle
  2
FlatWithEdges
 70
     1
177
     3
291
     1
 70
    58
 90
        2
176
     1
 90
        1
176
     1
 90
        1
176
     1
 90
        2
176
     1
 40
0.6
176
     1
 40
30.0
176
     1
 62
     7
420
 16777215
176
     1
 90
        1
176
     1
 90
        0
176
     1
 62
     7
176
     1
 62
   257
176
     1
 90
        1
176
     1
 90
        1
176
     1
 40
1.0
176
     1
 90
        0
176
     1
 62
   257
176
     1
 40
1.0
176
     1
 90
        1
176
     1
 90
        6
176
     1
 90
        2
176
     1
 62
     7
176
     1
 90
        5
176
     1
 90
        0
176
     1
 90
        0
176
     1
290
     0
176
     1
 90
       13
176
     1
 40
0.0
176
     1
 90
        0
176
     1
290
     0
176
     1
290
     1
176
     1
290
     1
176
     1
290
     0
176
     1
290
     0
176
     1
290
     0
176
     1
290
     0
176
     1
290
     0
176
     1
290
     0
176
     1
 90
       50
176
     1
 40
0.0
176
     1
 40
1.0
176
     1
 90
        0
176
     1
 62
    18
420
        0
176
     1
 90
       50
176
     1
 90
        3
176
     1
 62
     5
420
      255
176
     1
290
     0
176
     1
 90
       50
176
     1
 90
       50
176
     1
 90
       50
176
     1
290
     0
176
     1
 90
       50
176
     1
 62
   256
176
     0
 40
1.0
176
     0
 90
        2
176
     1
  1
strokes_ogs.tif
176
     1
290
     0
176
     1
 40
1.0
176
     1
 40
1.0
176
     1
  0
VISUALSTYLE
  5
2C
102
{ACAD_REACTORS
330
29
102
}
330
29
100
AcDbVisualStyle
  2
Gouraud
 70
     2
177
     3
291
     1
 70
    58
 90
        2
176
     1
 90
        2
176
     1
 90
        1
176
     1
 90
        2
176
     1
 40
0.6
176
     1
 40
30.0
176
     1
 62
     7
420
 16777215
176
     1
 90
        0
176
     1
 90
        0
176
     1
 62
     7
176
     1
 62
   257
176
     1
 90
        1
176
     1
 90
        1
176
     1
 40
1.0
176
     1
 90
        0
176
     1
 62
     7
176
     1
 40
1.0
176
     1
 90
        1
176
     1
 90
        6
176
     1
 90
        2
176
     1
 62
     7
176
     1
 90
        5
176
     1
 90
        0
176
     1
 90
        0
176
     1
290
     0
176
     1
 90
       13
176
     1
 40
0.0
176
     1
 90
        0
176
     1
290
     0
176
     1
290
     1
176
     1
290
     1
176
     1
290
     0
176
     1
290
     0
176
     1
290
     0
176
     1
290
     0
176
     1
290
     0
176
     1
290
     0
176
     1
 90
       50
176
     1
 40
0.0
176
     1
 40
1.0
176
     1
 90
        0
176
     1
 62
    18
420
        0
176
     1
 90
       50
176
     1
 90
        3
176
     1
 62
     5
420
      255
176
     1
290
     0
176
     1
 90
       50
176
     1
 90
       50
176
     1
 90
       50
176
     1
290
     0
176
     1
 90
       50
176
     1
 62
   256
176
     0
 40
1.0
176
     0
 90
        2
176
     1
  1
strokes_ogs.tif
176
     1
290
     0
176
     1
 40
1.0
176
     1
 40
1.0
176
     1
  0
VISUALSTYLE
  5
2D
102
{ACAD_REACTORS
330
29
102
}
330
29
100
AcDbVisualStyle
  2
GouraudWithEdges
 70
     3
177
     3
291
     1
 70
    58
 90
        2
176
     1
 90
        2
176
     1
 90
        1
176
     1
 90
        2
176
     1
 40
0.6
176
     1
 40
30.0
176
     1
 62
     7
420
 16777215
176
     1
 90
        1
176
     1
 90
        0
176
     1
 62
     7
176
     1
 62
   257
176
     1
 90
        1
176
     1
 90
        1
176
     1
 40
1.0
176
     1
 90
        0
176
     1
 62
   257
176
     1
 40
1.0
176
     1
 90
        1
176
     1
 90
        6
176
     1
 90
        2
176
     1
 62
     7
176
     1
 90
        5
176
     1
 90
        0
176
     1
 90
        0
176
     1
290
     0
176
     1
 90
       13
176
     1
 40
0.0
176
     1
 90
        0
176
     1
290
     0
176
     1
290
     1
176
     1
290
     1
176
     1
290
     0
176
     1
290
     0
176
     1
290
     0
176
     1
290
     0
176
     1
290
     0
176
     1
290
     0
176
     1
 90
       50
176
     1
 40
0.0
176
     1
 40
1.0
176
     1
 90
        0
176
     1
 62
    18
420
        0
176
     1
 90
       50
176
     1
 90
        3
176
     1
 62
     5
420
      255
176
     1
290
     0
176
     1
 90
       50
176
     1
 90
       50
176
     1
 90
       50
176
     1
290
     0
176
     1
 90
       50
176
     1
 62
   256
176
     0
 40
1.0
176
     0
 90
        2
176
     1
  1
strokes_ogs.tif
176
     1
290
     0
176
     1
 40
1.0
176
     1
 40
1.0
176
     1
  0
VISUALSTYLE
  5
31
102
{ACAD_REACTORS
330
29
102
}
330
29
100
AcDbVisualStyle
  2
Hidden
 70
     6
177
     3
291
     0
 70
    58
 90
        1
176
     1
 90
        2
176
     1
 90
        2
176
     1
 90
        0
176
     1
 40
0.6
176
     1
 40
30.0
176
     1
 62
     7
420
 16777215
176
     1
 90
        2
176
     1
 90
        2
176
     1
 62
     7
176
     1
 62
   257
176
     1
 90
        2
176
     1
 90
        1
176
     1
 40
40.0
176
     1
 90
        0
176
     1
 62
   257
176
     1
 40
1.0
176
     1
 90
        1
176
     1
 90
        6
176
     1
 90
        2
176
     1
 62
     7
176
     1
 90
        3
176
     1
 90
        0
176
     1
 90
        0
176
     1
290
     0
176
     1
 90
        1
176
     1
 40
0.0
176
     1
 90
        0
176
     1
290
     0
176
     1
290
     1
176
     1
290
     1
176
     1
290
     0
176
     1
290
     0
176
     1
290
     0
176
     1
290
     0
176
     1
290
     0
176
     1
290
     0
176
     1
 90
       50
176
     1
 40
0.0
176
     1
 40
1.0
176
     1
 90
        0
176
     1
 62
    18
420
        0
176
     1
 90
       50
176
     1
 90
        3
176
     1
 62
     5
420
      255
176
     1
290
     0
176
     1
 90
       50
176
     1
 90
       50
176
     1
 90
       50
176
     1
290
     0
176
     1
 90
       50
176
     1
 62
   256
176
     0
 40
1.0
176
     0
 90
        2
176
     1
  1
strokes_ogs.tif
176
     1
290
     0
176
     1
 40
1.0
176
     1
 40
1.0
176
     1
  0
VISUALSTYLE
  5
3F
102
{ACAD_REACTORS
330
29
102
}
330
29
100
AcDbVisualStyle
  2
JitterOff
 70
    20
177
     3
291
     1
 70
    58
 90
        2
176
     0
 90
        2
176
     0
 90
        0
176
     0
 90
        0
176
     0
 40
0.6
176
     0
 40
30.0
176
     0
 62
     7
420
 16777215
176
     0
 90
        1
176
     0
 90
        4
176
     0
 62
     7
176
     0
 62
   257
176
     0
 90
        1
176
     0
 90
        1
176
     0
 40
1.0
176
     0
 90
       10
176
     2
 62
     7
176
     0
 40
1.0
176
     0
 90
        1
176
     0
 90
        6
176
     0
 90
        2
176
     0
 62
     7
176
     0
 90
        5
176
     0
 90
        0
176
     0
 90
        0
176
     0
290
     0
176
     0
 90
        1
176
     0
 40
0.0
176
     0
 90
        0
176
     0
290
     0
176
     0
290
     1
176
     0
290
     1
176
     0
290
     0
176
     0
290
     0
176
     0
290
     0
176
     0
290
     0
176
     0
290
     0
176
     0
290
     0
176
     0
 90
       50
176
     0
 40
0.0
176
     0
 40
1.0
176
     0
 90
        0
176
     0
 62
    18
420
        0
176
     0
 90
       50
176
     0
 90
        3
176
     0
 62
     5
420
      255
176
     0
290
     0
176
     0
 90
       50
176
     0
 90
       50
176
     0
 90
       50
176
     0
290
     0
176
     0
 90
       50
176
     0
 62
   256
176
     0
 40
1.0
176
     0
 90
        2
176
     0
  1
strokes_ogs.tif
176
     0
290
     0
176
     0
 40
1.0
176
     0
 40
1.0
176
     0
  0
VISUALSTYLE
  5
37
102
{ACAD_REACTORS
330
29
102
}
330
29
100
AcDbVisualStyle
  2
Linepattern
 70
    14
177
     3
291
     1
 70
    58
 90
        2
176
     1
 90
        2
176
     1
 90
        0
176
     1
 90
        0
176
     1
 40
0.6
176
     1
 40
30.0
176
     1
 62
     7
420
 16777215
176
     1
 90
        1
176
     1
 90
        4
176
     1
 62
     7
176
     1
 62
   257
176
     1
 90
        7
176
     1
 90
        7
176
     1
 40
1.0
176
     1
 90
        8
176
     1
 62
     7
176
     1
 40
1.0
176
     1
 90
        1
176
     1
 90
        6
176
     1
 90
        2
176
     1
 62
     7
176
     1
 90
        5
176
     1
 90
        0
176
     1
 90
        0
176
     1
290
     0
176
     1
 90
        1
176
     1
 40
0.0
176
     1
 90
        0
176
     1
290
     0
176
     1
290
     1
176
     1
290
     1
176
     1
290
     0
176
     1
290
     0
176
     1
290
     0
176
     1
290
     0
176
     1
290
     0
176
     1
290
     0
176
     1
 90
       50
176
     1
 40
0.0
176
     1
 40
1.0
176
     1
 90
        0
176
     1
 62
    18
420
        0
176
     1
 90
       50
176
     1
 90
        3
176
     1
 62
     5
420
      255
176
     1
290
     0
176
     1
 90
       50
176
     1
 90
       50
176
     1
 90
       50
176
     1
290
     0
176
     1
 90
       50
176
     1
 62
   256
176
     0
 40
1.0
176
     0
 90
        2
176
     1
  1
strokes_ogs.tif
176
     1
290
     0
176
     1
 40
1.0
176
     1
 40
1.0
176
     1
  0
VISUALSTYLE
  5
40
102
{ACAD_REACTORS
330
29
102
}
330
29
100
AcDbVisualStyle
  2
OverhangOff
 70
    21
177
     3
291
     1
 70
    58
 90
        2
176
     0
 90
        2
176
     0
 90
        0
176
     0
 90
        0
176
     0
 40
0.6
176
     0
 40
30.0
176
     0
 62
     7
420
 16777215
176
     0
 90
        1
176
     0
 90
        4
176
     0
 62
     7
176
     0
 62
   257
176
     0
 90
        1
176
     0
 90
        1
176
     0
 40
1.0
176
     0
 90
        9
176
     2
 62
     7
176
     0
 40
1.0
176
     0
 90
        1
176
     0
 90
        6
176
     0
 90
        2
176
     0
 62
     7
176
     0
 90
        5
176
     0
 90
        0
176
     0
 90
        0
176
     0
290
     0
176
     0
 90
        1
176
     0
 40
0.0
176
     0
 90
        0
176
     0
290
     0
176
     0
290
     1
176
     0
290
     1
176
     0
290
     0
176
     0
290
     0
176
     0
290
     0
176
     0
290
     0
176
     0
290
     0
176
     0
290
     0
176
     0
 90
       50
176
     0
 40
0.0
176
     0
 40
1.0
176
     0
 90
        0
176
     0
 62
    18
420
        0
176
     0
 90
       50
176
     0
 90
        3
176
     0
 62
     5
420
      255
176
     0
290
     0
176
     0
 90
       50
176
     0
 90
       50
176
     0
 90
       50
176
     0
290
     0
176
     0
 90
       50
176
     0
 62
   256
176
     0
 40
1.0
176
     0
 90
        2
176
     0
  1
strokes_ogs.tif
176
     0
290
     0
176
     0
 40
1.0
176
     0
 40
1.0
176
     0
  0
VISUALSTYLE
  5
33
102
{ACAD_REACTORS
330
29
102
}
330
29
100
AcDbVisualStyle
  2
Realistic
 70
     8
177
     3
291
     0
 70
    58
 90
        2
176
     1
 90
        3
176
     1
 90
        0
176
     1
 90
        2
176
     1
 40
0.6
176
     1
 40
30.0
176
     1
 62
     7
420
 16777215
176
     1
 90
        0
176
     1
 90
        0
176
     1
 62
     7
176
     1
 62
   257
176
     1
 90
        1
176
     1
 90
        1
176
     1
 40
1.0
176
     1
 90
        8
176
     1
 62
   257
176
     1
 40
1.0
176
     1
 90
        1
176
     1
 90
        6
176
     1
 90
        2
176
     1
 62
     7
176
     1
 90
        3
176
     1
 90
        0
176
     1
 90
        0
176
     1
290
     0
176
     1
 90
       13
176
     1
 40
0.0
176
     1
 90
        0
176
     1
290
     0
176
     1
290
     1
176
     1
290
     1
176
     1
290
     0
176
     1
290
     0
176
     1
290
     0
176
     1
290
     0
176
     1
290
     0
176
     1
290
     0
176
     1
 90
       50
176
     1
 40
0.0
176
     1
 40
1.0
176
     1
 90
        0
176
     1
 62
    18
420
        0
176
     1
 90
       50
176
     1
 90
        3
176
     1
 62
     5
420
      255
176
     1
290
     0
176
     1
 90
       50
176
     1
 90
       50
176
     1
 90
       50
176
     1
290
     0
176
     1
 90
       50
176
     1
 62
   256
176
     0
 40
1.0
176
     0
 90
        2
176
     1
  1
strokes_ogs.tif
176
     1
290
     0
176
     1
 40
1.0
176
     1
 40
1.0
176
     1
  0
VISUALSTYLE
  5
3E
102
{ACAD_REACTORS
330
29
102
}
330
29
100
AcDbVisualStyle
  2
Shaded
 70
    27
177
     3
291
     0
 70
    58
 90
        2
176
     1
 90
        2
176
     1
 90
        1
176
     1
 90
        2
176
     1
 40
0.6
176
     1
 40
30.0
176
     1
 62
     7
420
 16777215
176
     1
 90
        0
176
     1
 90
        4
176
     1
 62
     7
176
     1
 62
   257
176
     1
 90
        1
176
     1
 90
        1
176
     1
 40
1.0
176
     1
 90
        8
176
     1
 62
   257
176
     1
 40
1.0
176
     1
 90
        1
176
     1
 90
        6
176
     1
 90
        2
176
     1
 62
     8
420
  7895160
176
     1
 90
        3
176
     1
 90
        0
176
     1
 90
        0
176
     1
290
     0
176
     1
 90
        5
176
     1
 40
0.0
176
     1
 90
        0
176
     1
290
     0
176
     1
290
     1
176
     1
290
     1
176
     1
290
     0
176
     1
290
     0
176
     1
290
     0
176
     1
290
     0
176
     1
290
     0
176
     1
290
     0
176
     1
 90
       50
176
     1
 40
0.0
176
     1
 40
1.0
176
     1
 90
        0
176
     1
 62
    18
420
        0
176
     1
 90
       50
176
     1
 90
        3
176
     1
 62
     5
420
      255
176
     1
290
     0
176
     1
 90
       50
176
     1
 90
       50
176
     1
 90
       50
176
     1
290
     0
176
     1
 90
       50
176
     1
 62
   256
176
     0
 40
1.0
176
     0
 90
        2
176
     1
  1
strokes_ogs.tif
176
     1
290
     0
176
     1
 40
1.0
176
     1
 40
1.0
176
     1
  0
VISUALSTYLE
  5
3D
102
{ACAD_REACTORS
330
29
102
}
330
29
100
AcDbVisualStyle
  2
Shaded with edges
 70
    26
177
     3
291
     0
 70
    58
 90
        2
176
     1
 90
        2
176
     1
 90
        1
176
     1
 90
        2
176
     1
 40
0.6
176
     1
 40
30.0
176
     1
 62
     7
420
 16777215
176
     1
 90
        1
176
     1
 90
       10
176
     1
 62
     7
176
     1
 62
   257
176
     1
 90
        2
176
     1
 90
        1
176
     1
 40
1.0
176
     1
 90
        8
176
     1
 62
   257
176
     1
 40
1.0
176
     1
 90
        1
176
     1
 90
        6
176
     1
 90
        2
176
     1
 62
     7
176
     1
 90
        3
176
     1
 90
        0
176
     1
 90
        0
176
     1
290
     0
176
     1
 90
        5
176
     1
 40
0.0
176
     1
 90
        0
176
     1
290
     0
176
     1
290
     1
176
     1
290
     1
176
     1
290
     0
176
     1
290
     0
176
     1
290
     0
176
     1
290
     0
176
     1
290
     0
176
     1
290
     0
176
     1
 90
       50
176
     1
 40
0.0
176
     1
 40
1.0
176
     1
 90
        0
176
     1
 62
    18
420
        0
176
     1
 90
       50
176
     1
 90
        3
176
     1
 62
     5
420
      255
176
     1
290
     0
176
     1
 90
       50
176
     1
 90
       50
176
     1
 90
       50
176
     1
290
     0
176
     1
 90
       50
176
     1
 62
   256
176
     0
 40
1.0
176
     0
 90
        2
176
     1
  1
strokes_ogs.tif
176
     1
290
     0
176
     1
 40
1.0
176
     1
 40
1.0
176
     1
  0
VISUALSTYLE
  5
3A
102
{ACAD_REACTORS
330
29
102
}
330
29
100
AcDbVisualStyle
  2
Shades of Gray
 70
    23
177
     3
291
     0
 70
    58
 90
        2
176
     1
 90
        2
176
     1
 90
        3
176
     1
 90
        0
176
     1
 40
0.6
176
     1
 40
30.0
176
     1
 62
     7
420
 16777215
176
     1
 90
        2
176
     1
 90
        2
176
     1
 62
     7
176
     1
 62
     7
176
     1
 90
        1
176
     1
 90
        1
176
     1
 40
40.0
176
     1
 90
        8
176
     1
 62
     7
176
     1
 40
1.0
176
     1
 90
        1
176
     1
 90
        6
176
     1
 90
        2
176
     1
 62
     7
176
     1
 90
        3
176
     1
 90
        0
176
     1
 90
        0
176
     1
290
     0
176
     1
 90
        1
176
     1
 40
0.0
176
     1
 90
        0
176
     1
290
     0
176
     1
290
     1
176
     1
290
     1
176
     1
290
     0
176
     1
290
     0
176
     1
290
     0
176
     1
290
     0
176
     1
290
     0
176
     1
290
     0
176
     1
 90
       50
176
     1
 40
0.0
176
     1
 40
1.0
176
     1
 90
        0
176
     1
 62
    18
420
        0
176
     1
 90
       50
176
     1
 90
        3
176
     1
 62
     5
420
      255
176
     1
290
     0
176
     1
 90
       50
176
     1
 90
       50
176
     1
 90
       50
176
     1
290
     0
176
     1
 90
       50
176
     1
 62
   256
176
     0
 40
1.0
176
     0
 90
        2
176
     1
  1
strokes_ogs.tif
176
     1
290
     0
176
     1
 40
1.0
176
     1
 40
1.0
176
     1
  0
VISUALSTYLE
  5
3B
102
{ACAD_REACTORS
330
29
102
}
330
29
100
AcDbVisualStyle
  2
Sketchy
 70
    24
177
     3
291
     0
 70
    58
 90
        1
176
     1
 90
        2
176
     1
 90
        2
176
     1
 90
        0
176
     1
 40
0.6
176
     1
 40
30.0
176
     1
 62
     7
420
 16777215
176
     1
 90
        2
176
     1
 90
        2
176
     1
 62
     7
176
     1
 62
     7
176
     1
 90
        1
176
     1
 90
        1
176
     1
 40
40.0
176
     1
 90
       11
176
     1
 62
     7
176
     1
 40
1.0
176
     1
 90
        1
176
     1
 90
        6
176
     1
 90
        2
176
     1
 62
     7
176
     1
 90
        6
176
     1
 90
        0
176
     1
 90
        0
176
     1
290
     0
176
     1
 90
        1
176
     1
 40
0.0
176
     1
 90
        0
176
     1
290
     0
176
     1
290
     1
176
     1
290
     1
176
     1
290
     0
176
     1
290
     0
176
     1
290
     0
176
     1
290
     0
176
     1
290
     0
176
     1
290
     0
176
     1
 90
       50
176
     1
 40
0.0
176
     1
 40
1.0
176
     1
 90
        0
176
     1
 62
    18
420
        0
176
     1
 90
       50
176
     1
 90
        3
176
     1
 62
     5
420
      255
176
     1
290
     0
176
     1
 90
       50
176
     1
 90
       50
176
     1
 90
       50
176
     1
290
     0
176
     1
 90
       50
176
     1
 62
   256
176
     0
 40
1.0
176
     0
 90
        2
176
     1
  1
strokes_ogs.tif
176
     1
290
     0
176
     1
 40
1.0
176
     1
 40
1.0
176
     1
  0
VISUALSTYLE
  5
36
102
{ACAD_REACTORS
330
29
102
}
330
29
100
AcDbVisualStyle
  2
Thicken
 70
    13
177
     3
291
     1
 70
    58
 90
        2
176
     1
 90
        2
176
     1
 90
        0
176
     1
 90
        0
176
     1
 40
0.6
176
     1
 40
30.0
176
     1
 62
     7
420
 16777215
176
     1
 90
        1
176
     1
 90
        4
176
     1
 62
     7
176
     1
 62
   257
176
     1
 90
        1
176
     1
 90
        1
176
     1
 40
1.0
176
     1
 90
       12
176
     1
 62
     7
176
     1
 40
1.0
176
     1
 90
        1
176
     1
 90
        6
176
     1
 90
        2
176
     1
 62
     7
176
     1
 90
        5
176
     1
 90
        0
176
     1
 90
        0
176
     1
290
     0
176
     1
 90
        1
176
     1
 40
0.0
176
     1
 90
        0
176
     1
290
     0
176
     1
290
     1
176
     1
290
     1
176
     1
290
     0
176
     1
290
     0
176
     1
290
     0
176
     1
290
     0
176
     1
290
     0
176
     1
290
     0
176
     1
 90
       50
176
     1
 40
0.0
176
     1
 40
1.0
176
     1
 90
        0
176
     1
 62
    18
420
        0
176
     1
 90
       50
176
     1
 90
        3
176
     1
 62
     5
420
      255
176
     1
290
     0
176
     1
 90
       50
176
     1
 90
       50
176
     1
 90
       50
176
     1
290
     0
176
     1
 90
       50
176
     1
 62
   256
176
     0
 40
1.0
176
     0
 90
        2
176
     1
  1
strokes_ogs.tif
176
     1
290
     0
176
     1
 40
1.0
176
     1
 40
1.0
176
     1
  0
VISUALSTYLE
  5
30
102
{ACAD_REACTORS
330
29
102
}
330
29
100
AcDbVisualStyle
  2
Wireframe
 70
     5
177
     3
291
     0
 70
    58
 90
        0
176
     1
 90
        2
176
     1
 90
        0
176
     1
 90
        0
176
     1
 40
0.6
176
     1
 40
30.0
176
     1
 62
     7
420
 16777215
176
     1
 90
        1
176
     1
 90
        4
176
     1
 62
     7
176
     1
 62
   257
176
     1
 90
        1
176
     1
 90
        1
176
     1
 40
1.0
176
     1
 90
        0
176
     1
 62
   257
176
     1
 40
1.0
176
     1
 90
        1
176
     1
 90
        6
176
     1
 90
        2
176
     1
 62
     7
176
     1
 90
        3
176
     1
 90
        0
176
     1
 90
        0
176
     1
290
     0
176
     1
 90
        1
176
     1
 40
0.0
176
     1
 90
        0
176
     1
290
     0
176
     1
290
     1
176
     1
290
     1
176
     1
290
     0
176
     1
290
     0
176
     1
290
     0
176
     1
290
     0
176
     1
290
     0
176
     1
290
     0
176
     1
 90
       50
176
     1
 40
0.0
176
     1
 40
1.0
176
     1
 90
        0
176
     1
 62
    18
420
        0
176
     1
 90
       50
176
     1
 90
        3
176
     1
 62
     5
420
      255
176
     1
290
     0
176
     1
 90
       50
176
     1
 90
       50
176
     1
 90
       50
176
     1
290
     0
176
     1
 90
       50
176
     1
 62
   256
176
     0
 40
1.0
176
     0
 90
        2
176
     1
  1
strokes_ogs.tif
176
     1
290
     0
176
     1
 40
1.0
176
     1
 40
1.0
176
     1
  0
VISUALSTYLE
  5
3C
102
{ACAD_REACTORS
330
29
102
}
330
29
100
AcDbVisualStyle
  2
X-Ray
 70
    25
177
     3
291
     0
 70
    58
 90
        2
176
     1
 90
        2
176
     1
 90
        1
176
     1
 90
        1
176
     1
 40
0.5
176
     1
 40
30.0
176
     1
 62
     7
420
 16777215
176
     1
 90
        1
176
     1
 90
        0
176
     1
 62
     7
176
     1
 62
   257
176
     1
 90
        1
176
     1
 90
        1
176
     1
 40
1.0
176
     1
 90
        8
176
     1
 62
     7
176
     1
 40
1.0
176
     1
 90
        1
176
     1
 90
        6
176
     1
 90
        2
176
     1
 62
     7
176
     1
 90
        3
176
     1
 90
        0
176
     1
 90
        0
176
     1
290
     0
176
     1
 90
       13
176
     1
 40
0.0
176
     1
 90
        0
176
     1
290
     0
176
     1
290
     1
176
     1
290
     1
176
     1
290
     0
176
     1
290
     0
176
     1
290
     0
176
     1
290
     0
176
     1
290
     0
176
     1
290
     0
176
     1
 90
       50
176
     1
 40
0.0
176
     1
 40
1.0
176
     1
 90
        0
176
     1
 62
    18
420
        0
176
     1
 90
       50
176
     1
 90
        3
176
     1
 62
     5
420
      255
176
     1
290
     0
176
     1
 90
       50
176
     1
 90
       50
176
     1
 90
       50
176
     1
290
     0
176
     1
 90
       50
176
     1
 62
   256
176
     0
 40
1.0
176
     0
 90
        2
176
     1
  1
strokes_ogs.tif
176
     1
290
     0
176
     1
 40
1.0
176
     1
 40
1.0
176
     1
  0
DICTIONARYVAR
  5
1445
102
{ACAD_REACTORS
330
1440
102
}
330
1440
100
DictionaryVariables
280
     0
  1
1:1
  0
DICTIONARYVAR
  5
1442
102
{ACAD_REACTORS
330
1440
102
}
330
1440
100
DictionaryVariables
280
     0
  1
STANDARD
  0
DICTIONARYVAR
  5
1441
102
{ACAD_REACTORS
330
1440
102
}
330
1440
100
DictionaryVariables
280
     0
  1
STANDARD
  0
DICTIONARYVAR
  5
1443
102
{ACAD_REACTORS
330
1440
102
}
330
1440
100
DictionaryVariables
280
     0
  1
Imperial24
  0
DICTIONARYVAR
  5
1444
102
{ACAD_REACTORS
330
1440
102
}
330
1440
100
DictionaryVariables
280
     0
  1
Imperial24
  0
DICTIONARY
  5
144A
330
6B
100
AcDbDictionary
280
     1
281
     1
  3
ACAD_XREC_ROUNDTRIP
360
144B
  0
DICTIONARY
  5
1A
330
19
100
AcDbDictionary
280
     1
281
     1
  3
BUMPTILE
360
1C
  3
DIFFUSETILE
360
1B
  3
OPACITYTILE
360
1F
  3
REFLECTIONTILE
360
1E
  3
REFRACTIONTILE
360
20
  3
SPECULARTILE
360
1D
  0
DICTIONARY
  5
12
330
11
100
AcDbDictionary
280
     1
281
     1
  3
BUMPTILE
360
14
  3
DIFFUSETILE
360
13
  3
FBXASSET
360
110
  3
OPACITYTILE
360
17
  3
REFLECTIONTILE
360
16
  3
REFRACTIONTILE
360
18
  3
SPECULARTILE
360
15
  0
DICTIONARY
  5
22
330
21
100
AcDbDictionary
280
     1
281
     1
  3
BUMPTILE
360
24
  3
DIFFUSETILE
360
23
  3
OPACITYTILE
360
27
  3
REFLECTIONTILE
360
26
  3
REFRACTIONTILE
360
28
  3
SPECULARTILE
360
25
  0
DICTIONARY
  5
1448
330
69
100
AcDbDictionary
280
     1
281
     1
  3
ACAD_XREC_ROUNDTRIP
360
1449
  0
DICTIONARY
  5
1446
330
65
100
AcDbDictionary
280
     1
281
     1
  3
ACAD_ROUNDTRIP_2008_TABLESTYLE_CELLSTYLEMAP
360
1447
  0
XRECORD
  5
144B
102
{ACAD_REACTORS
330
144A
102
}
330
144A
100
AcDbXrecord
280
     1
102
DISPLAYNAME
  1
Imperial24
102
FLAGS
 90
        0
  0
XRECORD
  5
1C
102
{ACAD_REACTORS
330
1A
102
}
330
1A
100
AcDbXrecord
280
     1
270
     1
271
     1
  0
XRECORD
  5
1B
102
{ACAD_REACTORS
330
1A
102
}
330
1A
100
AcDbXrecord
280
     1
270
     1
271
     1
  0
XRECORD
  5
1F
102
{ACAD_REACTORS
330
1A
102
}
330
1A
100
AcDbXrecord
280
     1
270
     1
271
     1
  0
XRECORD
  5
1E
102
{ACAD_REACTORS
330
1A
102
}
330
1A
100
AcDbXrecord
280
     1
270
     1
271
     1
  0
XRECORD
  5
20
102
{ACAD_REACTORS
330
1A
102
}
330
1A
100
AcDbXrecord
280
     1
270
     1
271
     1
  0
XRECORD
  5
1D
102
{ACAD_REACTORS
330
1A
102
}
330
1A
100
AcDbXrecord
280
     1
270
     1
271
     1
  0
XRECORD
  5
14
102
{ACAD_REACTORS
330
12
102
}
330
12
100
AcDbXrecord
280
     1
270
     1
271
     1
  0
XRECORD
  5
13
102
{ACAD_REACTORS
330
12
102
}
330
12
100
AcDbXrecord
280
     1
270
     1
271
     1
  0
XRECORD
  5
110
102
{ACAD_REACTORS
330
12
102
}
330
12
100
AcDbXrecord
280
     1
 70
     1
 90
1959938040
 71
     1
  1
D95BB43C-E407-45E5-BEEE-A7E508A602A5
311
504B0304140006080800815831447FD29B64DB000000200100004F00000032463437443234372D373438392D343743392D394537462D3431374433394331323335442F4173736574446174612F446566696E6974696F6E4974657261746F7250726F706572746965732E62696E454E3D4FC33010352CA80303FF803F609C3A
311
36AEAB2294C46E1758E8D60599706D233969153B826E8CFC6B38AB419CF4EEDE7DBF6F42C8CF6848C905E20BFD35C61574D037F5BADE43EBC81556CAD3933B419FE8D8BC449A52035B37F898D69E9B5083F7AE83C3106EFE476F5B17F19EF377696982F82B84746177FE96047C9C357D2225EEFD387F7421407C607C2994E1
311
425125669A0A5569AAAD5A52315526D7D594E7D2B0170887A1AF2130A365598ABCA256648A0A69252DADB5B4505666B3E23EE38564713FB46F9D6B3CCBD828E1F5D8EDF866C162D3C22F504B0304140006080800815831447C6FC79A32010000300200004500000032463437443234372D373438392D343743392D39453746
311
2D3431374433394331323335442F4173736574446174612F496E7374616E636550726F706572746965732E62696E75503B4EC340105D3E120DA01C21B25240B1C49F5D1B4BC6FF8503A4A531F68A58F24F8B11A44B49C77968390307E00869A861163B0904F2A4997933F36676354F08A1CF1E40D10ED81CFC11C42B5E7191
311
A79374CACB640485D8A661488C0833A25A98504671C818C381C5A87A1E98AA1ED083F5A01C313412339DDA9812626062EA1A0E2FC3186B96A1466614D901B3E59BE8F4FAF9F5E3E4CDEBE32E94E660CBDC030E5878DF3F0436F0D140563A8CFC25DB1261B0C38A6C11CA277E28F780CFBBFCBD6F1C76E98697375C77564B36
311
5408652FFE9FDAAFC2FFA372BDBCA7C4C2DB072FAF760C367948DA748A43915419CFE47F4B7EA1E455CB45DD0CD31A48D52AAEE68C6FEABA709D7B910FAB446AA457DC2C173C6D6B313B7B2C0B670C6DD7B96B455EDDF6B276D6802C699A224F932F504B03041400060808008158314488E57597CD3F0000904100006B0000
311
0032463437443234372D373438392D343743392D394537462D3431374433394331323335442F5265736F75726365732F44393542423433432D453430372D343545352D424545452D4137453530384136303241352F7468756D626E61696C2F302F67656E657269635F706E67355B773CD4FF1FBF73E71C0E67EF7576C9DEF3
311
EC995D46C6A1EC5046649CBDF79E192942562825CE965D8A868C2842C8DE9FDFD1F7E7F138F7078FCF6B3F5FCFD7EBFDFEC41B196891913091804020321D6D7513FC77D8C5070EC3FFEE51B21F068154CC75D455CC028A3EA68992803810109FDDE5D5CEC5521B28A1B422BF80741695D5B529DA1C2D058AD2388BDA9F476F
311
7C2CADC939304173DBF48A452BF8A700C0C70C3D121C1AA15A5270C22E2B9E28763651F7DA0D12CE11077B2ECD0D560B5E3DE2368B1E65C5E1C87384A4CC5F2D9FB8BE39E9B77C753783A37998F5CEF1B4FEE553463245C9712270880DF339E0B882A6BA713D865F6F384C842D440934EF264F4A304F8DE4EEFA1E2BF5E2D9
311
1F5ADD9613D6E31DDB33ED31DB1D7916CAF091286EA3D31B9CFECB78BB0060245B943C4C040119FF780A74DD308BA9D028678674EB5504ECF284EE814DAED07440BAF649BE4B55DA2890F4D73E2D489A59EE54FDB0A85B59F2F52C4858A02705C4815A792B0C4A996A2023ECB195073E115E3E3647F64243A8338F2000BCB5
311
8DA5692C7E7C3D413F963FEDF3CF00FBB0F831A9D51360FECA43819F527B89FA260EB63C5DA676830AA3626A3693B23F1A17A0DFFCE3EE164E31B5365EDF0C89EF64D8E38AB0BA9A1117D7C3A0EC44F44F4023095E80BA610DE336D0F99593A88BFC5306E72DF98F7FD132ED95878DF2964EA7E43071359FD83B2BDF9C6B5B
311
DF768F0F3C0FC351199526F53D9460A34511F75D1B63E488178569472C91A94497807A3FD4A390C6558F26D416365C3656DE6E769DA9D8FC73774E1709812842DD8EF96AED1960F79D21B395CDDFE6F92CB4EB962A4668C76990E2EF29798C8941D67DA50F4A5F947872460F1F6FDB794E8A29FD7AC0C0D6E0714339CE258F
311
B17AE8535221E3464A10F29A0BE5EEECEFC5675926A89F49EB14E5711894F6586DB5754EB4D5DA9C6437EBA57DB97A24F8B8A8DB295FFD73266CF57E82694DF5166DDF93573AFE9C9C5EB05F8FEF8E89E0A8917B0B3724DB7BEBB53252581EFC3E38166BA131A3A5B42FE2AD00A769BBFA4458D2DE7822F8C4F63D0B8E21B2
311
85AE13325F3410A435C648C9D91FDEB109E73CEDA7BC796961AF79175E1A3CE4C5E8B0D009B0C9E29EFD98BC8E97554E3D8D838424E270F7685226E5AC268E021EDE3522D583E8F20C0BDE2959EF5BBFEEDAB32FE9A3ED0E39F211A86AA9DEBFC68182EDED132AB8BB794442D2D7EA9F4D8BFF52BC4D55BB165124EE90A42D
311
101E67BBBB292FFB4F66DE5BF2300E44546757DA7CEF8932BFC9F92A0707953491A55C5A5ACEDABD9FA1AEA01BAC3DC5A24E22E7C47213493996EFBC369D086ED9397C9BA6C7F9855C7BD5E15BFC8C53DB3D2A4C5901A57ACD2FBDF4D1676E95338B2C2BCE65FDA4C64F5FEFDC7D9CA5AA1FCF11E193F2FDABF0F4916BF13F
311
B916A224380E6462A9815F2300DC49CC4DF8D055CEF76462F4B7A7ACA7365C2707891370BC1D0AA6203C44CCAB47084FEC057F27FFCD57F89B8B9852459798A675C66BD7CE572CAF71FF7E6D7ECF7BF62CAB7B3F1107DCD04DC55A3F9961700286141C94A4F771FEB2BCDA2DDEE0CB0BAE402FF1DB0100F8E475DFFFC074DD
311
B4498AB7D186A7654DDB1CB680D703D47CEB4E72F8CB13D86A4AA68116E26387B93FD6738779B34FEDB8E517EDF2BAF28D9BE93A1D3A164320E07D42E514725C29515FF361754213EDE06B079A2E99EB1CA82A02019EADEEB87B9AF005BD04BBCECB14AACD6B24EFBE482194A97DD32400685FF1FEF1544D1B14EFB1E7F08E
311
6D2CD2AF52DE757F35F5E62332EE88EA26417AD5C3E0E319D68F25414E6D672BD4522B278C57D18F0113921C71D96527E091F00CEB15AE23D24667369BD3CEFA10C7549D930890BA4366F4EBC55F01F746109F98ABCDD5A3EE06619C6AD78AB33E48E4C9BD21BF7478B385EC05C4F8987E2C1BFA0A60EBEDAA0AE0B015C272
311
0ECE180FB6F2DEFBEB822D96338C9B63822183BBF52FB664A7AE57003AABCE512BF77E7E31BDA2E739AC4C131657DDFE5225E900FB56CC01CDE808FA4A9C9DA16AC679656BB64796283D89812B8F91136AE18EE5EBBAF47A73BE3C153EB5D4CD491B4BFB4FE690A4CF9ABA08C0D8AA64220C438C96EA6CA80B58FE5761E697
311
B3A292EB9FBDA502FA863E49FE694ADDFFF9D62C520BDD1A22014147A0903A05B9B729F54272EF83931FEEC057BFF8C8055C279EAC5C0011804828734024F6CFA319C9CC6867C727184465CD9BB7ED386AFFD96B294A85E3802FAE47244602D8273615952B98C4F23F7EAE4463D9D638EEE374A20959E0FE519C4CFB0FBFE5
311
DD80C2AA3F9DB961D1BDE57E67C9BB47B77FDD74EE3094F5DBBE3EBC1FBDB7393F5116263009E2EFE1AF9A221B2AE234C902BF70E9F280ED23E73908361565964333A3F01D0B006AF32FB21AA1316744B489D5A198E85299241735BE559675130955C902A8ED761FC0DBE337A9F91919AF5CE32AF902ADF9AB2615E00E8A94
311
586BA1A90839B61832FF1BFB76D2EFADE6DB1BA04CCAD3DA649E7E2A0219F592E22F2AD54847EEA8E42271011E9074F8F3DD9FBA6CDF88FFC9FC7E811AD1CA8F4557CE4AFC7BBEDCF0114A48689F20A584520C74DA8127124B767E2FB91A6B186246727BE63C9445BAE02088D58B8EFDC0F1072407CD9B89A13F6303B4A928
311
F593AD489B58E6869325790ADC406036C591729FE14021F94B7796BB11848D463536A092A26F077F94639F7CEEE2A724C66EC885F4A24F8B8A0AC321F8FD149BA529460FAA34E4663C02D41FDF80BCA222D42F0ABFF8490F4FA74C673807C2051D8E467B47B616072860069A9A303ABA9B319D58404461401B0A0F9BE5E1E1
311
51C14BC33B32ABE03DDE91708DFAEB15E7C0D593C86BB7D7EC17BE56E57975F077BFD5525F3A1A361D584A75E08CF29FC7B44B2B3085014F3A5A14517377C3F6B8F37E59514C3B12F8AACDEDDA4DFC49BE5710101534CD6FB6DE15B50F11A09472AABA727F0C49D9CB906B158030065F48EB3625E010CEC1D511D0053474B1
311
1E6A4F01C0D6EF1BED3A944FDEC70E0DDCDC756C86545910E0DAE3BE3AA9A404574C2995CD5CAF9549226BC94B4F4F0F5F9086F418F6B32346464610D8BC7391D3C3A3CCF04CFC1FB2A3A3170E369511868F14EEA4E5E438CC73DB1F3248AA94B6B2FF33B222FF3D1E7BF146CAD229770158063BCE4F5391964DF62F7E52A7
311
BE0EEA829C9E13C4C147D6F93FE59E111DAB5E4594D6F3CD1AD375EE039930EFE5AF2BB2D41C83C7DABD8C659BAFBE8FAB392CA634F3D15C1D945DB4588D2B0824A4EC928AAC565557CA2F0DAA588CA5BE30B3A8004F7BF005E96CBF891D7F18112A3619FDF530DC8AA64954258E1811789B5189B49B4EB53F5F89F7D37523
311
894F3EB57B373763C91E502F52CC99EB7BDDF933FC324C4FFC2561DFFA7339FAFDD0A4BFBE6D3A8FF9ED1FC49898139864602458968913181918F719CCF5A68B2EE9C1FF050E34E63107003B8120FA982C21B30A874E4F5E4B38D5A8290C4B8D9BE48A0BE31EA995BDC37AC6DE90BA17D259DEF53605D55922FEB1855D915B
311
659FBEB350EE0DFB2F9F766E1C84CC8964B75D08667445EAB966015F63A18A9E0A325C1B3DC628C0D3CB60F767FA93CC65F25458BD23C3B312716E5F40E5858AC06EBA9AB14F95DB99147B832069201541D09A0D856E12C629CF32683760EE855537D1901988D5EBC156676C7DD51D7207CF3267AF1D76C2AD867315E44618
311
015313A98B19941C696FED3461CAA9B5415F918556D7802EDACEFD6B2E45853A9735DFC9DBF7E440F9319F8B6805A973BCCDC76C069A9144E51F187EDCC12FC31B5DEAAF0A76137199B106EC84ADA6B6EE697D4E6A96E007417F4E880E8B1E89B4BCE9D81EF611E2ED8F0C1A6C25F620FAFAAB656A7C42D464880E8AFAB0E0
311
FC8EA38CA9A8AEEAEE3E4648BA4680270A89743CDD3E6C6CBF34B7B640EFA285ABC7EA0A1E28F3CC963D114A80123EE66D0AF7D5380EB41909B605AB4765B709B808590458157E69BA1378FEC4B48CAF6A730E3BE3C5EF2DD1A5EAF94B1DDE50CEB55DDFD7EE9A16747FA4B223359FB1FCC69E1194892BABB93A1D5C4E807A
311
C0EA2E30180811E77A2291F6E7F7FAA5E0F60215BC6024E48DE436C511F0628B8CA189982D4D83CCA17D305A7E923C37941CFDFDCD93ACAF735EF5F0E61BBD3E6C41A59B242790D3A3BAC7064DCD89AA2E37214EC839820949D5CAA31E240D2948E48F690298974A96BA9A8432BC90F5071D6537C9666EA4564796B7AFFFA5
311
48077BEEA75F63083435074BA182F3699557397F71548383FDA8CA34D99B981E72835ECDA5DDDC151315173D05A21F651AAF8524E88209E2E7A737ED1045800CE3390050BCFB8BE588DF111617874C62575039CA588EEFDEFEFE319B739DE2EDC147092A262611E159650E787917885EF08F1F51B8F2D8A71D60B58B190FEF
311
9541A1BE94BC19FEA50784DA1419FE4B0FB51B8D36B5FF8E1286FD8AF42B91E59A5F1CC4D60174E764045FD8C57B18209B217F89A62252BD20BE0E63E12B8E8F029FE19E0E8D0870F58721A557082250D5424F7909369376E41666C0EE77CD87CB283F661D5FB6D0DA023CB67320A20DC7BE661E9E1BFE5463085C557DA1FF
311
9BE835733766C3D139F2CF9E2208873AD0EB4814DE9E6BF2CAF81614D4D43906ED1C05A3265CABBFE192770FC2F64F940CB6B17B5F166F133C9AEEAD2641807C3E69515171DD74C4A85311513D6EC9530B3B601B6BA3EBFF3B5C3D2F7D69765141E345F75433953D013ADDF8F6AA7DC3F4A7563FE5C7D367937E2900D7EAD0
311
F9FC9A4A1A9B5BDF1FEF08532660C01C5D6DE22199AA774383E306DAB87E301ABB7D213887F9869D4942D0D71E94B27EDF216A318BD488D45DF84529EF575AF3C3938C0AAA0215B01994153E2054A0B894DA5C784980633AAD48576957CF4AEAEAFADC7C587368551C73DBE1E57C58AC713303A8BFC258BD04B51724459FF9
311
E24C03A81E0E0679CEB9B348C0DC998FEB9C6D6EFA77D247CC8F92D3848599ED89A23218D0636465AD1CEEB7DC140D7426F83491C4E8E8281C2FB35240918FFECE880CA2A42D70E8B20B34DF5221C7DB0CF90ECCB9C745B37A47E9B716FF7A97B7A252C1F3814DC7B1E1A7F72B8751D524EF7CAE45B0C73B3BE7D08ED39781
311
B380DDFC9AA4A4749C9493DB5BAD07A6EA6C092FBD0E85DB004DF06B8C9D3089C5320187E4CE1846158C7EA7DDAE8AD9AFFF21AA3A1026BB06A259845E8232DEE62811A4DA9CEAB3A4887320B76E2AE5615EAB7BDF738CBDD01F1E64064BC13D9EC53576751CA8CACD58B3CEB0E6CA585BD089B2A59B9FC101403387AADBDB
311
E70586B93D64BF3AD4453EF9C3B6A93817E8346991798601344F79A83C51F3D50F7BF2683A3605F51A72449489E0EE6169C749C60B1035651103AEE24D24E51A759C840DD3FC6504DA6FE107510E447B43461C79D22970B75DE5E1BD3007D1AFC619A4A4A69B5626AF5E9B8374E20677F77E2F8E73DF868E8BEC7EBA7B6A75
311
EEF7205E1AB9486CB642741D6E03FF13FCCEDB1C4AC129886268B01CDF4B124AF797CF784F3C6DEC97A17D4B558070A0F1C04DA4FF9BDBF34159AEFE958479824B3F58EBD1E19088A2AFDE501B6F2052368A3FD0E650A179EFAB1561E1D27527077136E652676C3670F42DCB3352F48F6BC86D2C3B0051727E41A0A4DC6CE2
311
BE9D47F5CAA2935A3C0539AF080665997194ABECD723B08129CC5B6B21D2E7D54CD4D12610E7E9FB8306771A89576C7A982002775ED44F3F744CF21EEBB27A631671D921938AAEE3EB0D19CD1E083727F607823E817BF599DCED5394E37EEBC2E88782E638920CA641EF74D4CDFCDEF06F4278ECB18E31E7E9876F2D783C8B
311
F429C75395F57E98C2B495A3DA077EB3AC3C158608B6B57FE3EA48484D9A480096FCEE0DE880950E7E5A5714131C5C41AAA29FD19AE81AC145FA1B9E85C7169A5AB837B213493DF7E9AA4B5FBF9CDEB36EBD21EF1181B7CF7366AB2A951D01E37AF4EB835D1BE8C117CFBE7625D2EBCDB0B20C5A4B45CED0BCDE3EE8DA9DA7
311
8C2E21DEAAFFD1197E463C33CC6A80FB785669B856EFF7A8CCCA2841B5A5369173320B1170C368B2748D81062EA0296E5E2D95D7667A4A46D98A6FF475C76AAB0A8C8D45E226FAFC9FE0133EA9F60111F99CA81ACE03A1D14C89E8B0D69079C91464FA1D99E651D0EAF606F345C42A8A1AA9BA391031582B96D5B4176A77AA
311
DB01F12FD298A75DEEBB2C82F0B8650E880722F8DDD90C56A7A058E5FDEF1AC93545BA27367C76F5D8F9690CB6F8DAE141EDD7971F0FB548A2AE435F224D6E5954CA155512F7332029D5A1230854B79F258EC5FFDB09F5F6343A8EB193229B7F7E79B3E48F8E183860B38C8269D1B53738FF1E0BACF6AADA6D4869E9DE708E
311
79B5DADCC09B1BC76F649731CFAF59A83FD8BAE4C749D66FA87A3810D4D62FFE826FA400C0F325D2BC0F3CA35F5847B82A2ACC7961745C823E4D863D54460AF792CE6F79B5C7A33B25C3AEA6CDE15A919B6367D781E9D44F61BF828672594A3E1D9EDD6DF179A81F27EAC05B936575D73E05C209DDD2115CFB705DF9BBF3C9
311
11589B3640735E9E618FC9C36A7326C82B2205E244C55D56FDB9D5DC93CE958D4BF8174D2B3DA54CB3C09F2C2A6DFF73D23B2197355761AD421EC581284A7EF8DE2CE3497C0C804D49B41DFD6A7360844E5BEFFB495CFCDB97A4595911CDBA623274CE852B5E278AF0BEB1770E9D37CD977B2766A7DED0E94B840E1E95E8C7
311
7DE5CB6354AF7871427C28ADBEEF7BA0A28E19DE9ACD75F379FE373EAE6DDDAE3834692F9C2B03B4FCA8FCA9ABE8EEEBEBB725B88A7C90941E850682CA04061A7DF0CE82ED49BFAFFD42C309818FAE14755CAAE78B0F73243ECCCAD7DF58FCB9CDFAE7A4D3E6671A613639130D056C8383C8F4FCF4808C331E544DD26E4755
311
D09EA05253B3049A1E32587CC25D72E073E2CD96D04A71BBCB0038FEC3F53D254199C3CDC67CD66640269431860225392B2CB3ECD0B4498AAE78BA1994246AE1EE78F2EDFB79F6C6CB6B5E279C4D373FBC21CB2698C9ACBBEB6A4BB6B39E16AB0E421CCBFC7654D81ED86022F9BB522146F9F4772E2D0E4FA70120C95A85A4
311
17BF5078B232F4754363EB1750B2AC2148EB46B1EA72AD9B4D23ADCBC589D70106C3EC2ABEEED84DFE28E718C6C83502C28E9FDD3B09DA0A6F6F7B72B706A31C9E2A331EE70DA56A083D2177BFD63C55B11D8D949FAFCF90B23A1E24B9B5018B9A17E99F2890EC302F330FE7936E2C23F0D237EC8916F5166AB84B62A21BB0
311
B950146962D754F92CC2C8877BED8FC7B7B25726DD19545392570B3A2C66B58F027BEF412E552D12A588C4A3CC5C3193FCB3485EFFF700D0B9EEC077754A33DC1FB9E25AF814628F91DDFECB667D3F7690803F38D13F8AE39353523BB08FC6760144AFA2CE28236F65EDBB3D5F59A57D612B99E3D7E5F8A851666BF9B5A665
311
8EFC96EEB37A378ABB0EB3FDDF1303AF32C41BD1C8560745D7BD81066B0D6313359CF488563D3BA3F8E2185D1FAA3EBA1397C9D0E3DD232180A4DCADB6AF25DB3AC3CC26589C8239E66E81547BC7E2F328F9884764CA37EB5DBE390DFC03A5246B456A7C3684C4377D0EEF9A350680FA9A077E8B2957B489E09AB1AD413169
311
44C2254B5984830F691C93CAA767EECF976FA5647538830B5E63236A6F0365C1E0F3E327F24FE35EDDBD7360B0F7374837409F7A6311BECC12B7026D4FA1AE204FA3F5FE904B1F420C7A9044AE58E403E7C4848E7DA25DC9EDAC79DD756FAA26B9EA83ACE8A214A2612A22AFA19DAE7DBAC5F8CDE1292A485F98DAC731A29F
311
E01A3966E96BCB9FB5A4C8830E1B9AF0C54B87FBE221A097036E5D28D1F869F810C06A9BB0AC0612F69AEBAF893C6E7AD59460208BAB3A6B09CA4F6BDDAB8CF0D1F84B72487498395A70DCD754796E271099A567A55CF242BBED64696378BB6CF25EF0FCDB589F3A82F1116D010A9AB9FA4358809EE0C973A2B4229BAA876A
311
70B03AB49CBA7FBE71DB1832FFD32F9BF2C8E98075CACAFB36921235D0F552B6A67E94E094097A5D7DF681B40623DA535ADA7A9AD8E9A62407D7C9A5AE51D62A17A83A23728DE86BB56115804D3F2675F2C6B87541A0FC497BF0CA86420F558C9859EBE9FAD62747E323E3AADC03FDCDDFE7407B09DA90B44E3185723C5381
311
EAEF589765E2F7A099BA46695BAD60CEF3491B8A171F5F56444F7CE9455312C3498C74173AEA0214EC029833B34B650CBB5A5508D5091665309642791708ECF27CF11DB3D797D6CFE474453BD4BFADB768094B2147814D81C7CBAF8228DCAF5564B5891F5EF6A860EB2E323CB82AB868D8EA048880D63B0DE5341F1B3D5329
311
7B928A11E15F25E5148990F710747C3509ED14909C552EBE3973246FCE55D00564D8310BC3EBC5085D08D806799B77D6C57FDF5E55837F9E934F09C03C729271B64F12D0A9F9E938107CAF7BF1EC8CF1BB9B42363D33070F4CACB425E605DDB0A34A12BB936DE286B9887A4E2E558F0886498BFF49C311D96C277CF6A9FC0D
311
75AD0ECC5226D7E0E3572012E56D7FDE4410CEC7A6D0F997F225A2055B8B92E3956E875AE4993CB3D4C9063AF98FD45E1BAB165640A43439A2C9181A7C355B297C0A0CCFFAE19B6FA3C2BA238A885FBC98B8F6DAF4B94B97304878DF4D8BFF6A4AEDF79E90ED4E68F00CD7299F4E0D83E35601AF0CBEF18C1E870E74758FA9
311
1F5131075004DB3CFCF09AE1DABC11957FD9808C92E8A678CE9DBE40DDA0E0D1D505AAFBCBA208232BFB6FB3704E8985E61ADE53DE74152F5C7DE74B1DEDCD37DC3E8FB30D7EBA8B9EFFC3606BF90B8D438279CB7709FC7C00D327F41817EEA71CD9E49FE9C8C9A81C70915D9F0F15958EC5AA4C3BBFAF46986B90F188BDB2
311
4B89DE3C6F29EC3E6F66D84856EE96A35E657CA41B41EFD8DBFA16AD6E91439EA92B40B21C053249F51AE50EB0B24C770FFAF40DF12C8436366819C48E36547D4E7B72FE2BBF10828583057814A668BDF183F6B2E58DFB151103E56303E63D00F39C27C4661605DB644D19175D02E3F0241E8FC3458D17AAAADB117CE9EEA6
311
90D0DB01E634878C04C2C9310B69FCAB831151E3AD293BEF6E46B0ABCECB50F5939B39C613D41E81FAE8D34CAE3C4566B761D37185FE864AC32FCB71AEF39DAA5BAB88609BB980CD2F07A8F941653B529567726E2B2A58D079DD57E1E5E31426CF184A04D7B03B985F276D47406AF276FE32E3328BA866EB1FD39BEF57863A
311
317634AA5FE467409B3873F5069EF0D71AF00AD189D17BA1974ECDB2D623E9E14086386A6AAB5807825C37B015BFE892AFD154920EC437EB945D958E18622E1E0FE2FA06557CE4BB9BBD05A2D40E774DA2B65473791E314B7D6C886820B2FCFE4AA272B3B8B15E7344A145E8AF919B5454D89D36D413E87211186BF6F645E5
311
EC94DCCE8E1C799022E4EC9BC86D7A0F2AFB1FC4B2CE48F84B3F49ECE65BAD24CADCC07EFF39AB06BE9E6B27A059938EA7208838455383DDBCFCD967DDE4650EF92A14FF933C975DB20BD7FEEBC4487576485963D757D16340D9599FEB362F775F38CA4185A86F74B629C81B133644A3B18FD056E997E0734F9BE26D11C0AA
311
FC669E2AC9FC41D281F8B2E1C35AE27BCE05F3DA295488096688719D974DF1B5D182DB7792288697F8763CFB43562C1CDEE11C4AABD5C22B6E33F6F389CFC3477C5919DC0D533F8A7A1846B7ADB60ABDC26C43D0CFC8910B7C15EE22675BD02702ED39DB77A87A192CA7A543E6205B979B9F5A6B512A3CA799E198B2D5797C
311
0AF8D1D872CA455D4D431A7879D4DD76110B5FF7F4176B54477A9EB5E4A5D11214FDA585F0382751D8E2582BA5D2075053298FEB8F1537304E32CB22C2E2B693DC0A760B1DFCA751BDC445AFDCBB12820ED85F6D5298933C7EF1211E9E057684056CDA3FEF3BB6052355E162DF27C59E965A8DDB7F9437EB72CDDA3A090DE6
311
5A5B2F50326247B7EC67B73ACC7047FC9B353D6EE990F772207C6EC52B39DC2F3C0754821DAB559F7C1809C7D0DD5B0499D0442E0A6E391B3D5DB46D11E731E6794EC77523FBDAA242ED67F9FA1FB684255671F63C9BCFE6E7E896D51001A6113EF2298BA494E0B0980D1FA5B9D60796554C02256B1E0345FB7C6186B6A19D
311
2DCA270416262845FA4F42DB5D9B0A0B6F07FCA2E56C242522E001E0CEB734AF310FC8BFB57E38E03AACE93B3326A2197891E68452B26A6307FDABFEE0223D3C03C3C73D2D5BC054C8311F12004CAE488E5C29287F8156A2CAA4AD0D7BE6B97264E4139F437CE73ADF52E5134C52B819777C18B323A5924E4F67AFD13B1CDC
311
3A61793A79FAF5C0CEB718E441071E797C6DCCB9EFCF7E4A1E9F3DF3C2F9C9E8294E9586868788C972857FB0556D7A26941A7EEB9B580AD78EC40B85DC906B4120A563CA3B87797ED612D3B035962BB75F6515A393F4CB057F564CDF54F2E5A024514E6A1F901DB80C7E70B1FC05E356A7E72FABF4775B3E3FB8F70A2A8E7B
311
6A94542BB304157978CCC999E707A29CC795E67A59CC546A5D47B368954CA7B6E75EC9E1F6FC73CE3B4F71F8CB1A6B15923D61EAAEB14626AAA9D04A26EB9C66CD1BE86CA31A5D8703DE04CD1EBCE4F5CCB62F93909AD11E55799A781A956ED27D3E738F4538CB04ADABC7DAEF20BC35BA6A90BCC1DC61BA05F20D8832FFB9
311
BC9B15E2DB838A0AFBB7E0C82A562127E0446894F427794C3037186F622BF24DE1B00AA10A23BFA47B2A180D6DA5AD6F7326FEB8C100C2D7142EB2A0B2A9D1008A09BA343D70E054AB69E2A7EDB783CBD92537FAF4A44D1296AC2792729104B3276C276C951D0CF3CF3F1E6B017720A7B8505A5FF9589365979678C36F1BAF
311
759EAF57C60F1FF5FE9DCF5F8E764FF25A2D06CF25117A8FED51884C13B2B750DB0E4F5E3D64124FCF11F0AD8F1CC3B3DA4B38ED22BF1CB2585EE6BFEBBA63FBFD44F9537B9B37BDD6B358720F98A8125AED4349CCFEB0E135F19E208A04CA7E2B10711185D72E381F448036EF57C9F874E54A971CA37A639E986AC0226DC5
311
AA00D5B14FEA9192234B3DE617814FC221C92F33F1D392F297731B567FD98FD91D989379AF567A65B8ADF177591DB90FBEA99BF4ED11B16E50A0AB1DBF1156D034BBE04D69D08F939D8E92BF525A1DDAFF80ECBC95D8F45D3FDD289FD23F7D8B452F8EBB34EC082DEEE68E18EDDF072060FAD2AB1504DD4879BF67099FC58F
311
6E9DEFBF645D16334A3E9A127C6F1AF6132CF287E433B43A0EE93812B4AA0B194E03EE3FF91EF9C6ED0074A2F6EB18A96A7C9890B1FCDA1F2095E944DB911ED54C60DF16FB74C8CE9BDC7C54C4F14078CF73C2FFF1F1BBCCD7CF64F71407EA1683DBC410D226627F66E509060D5C0AFD611DE681D509DB8DD12FB1265B03C6
311
F5C55FF4C30BD94187FF692B4F152982502F193098A789526A038AB529A52BC0DC4FB6285CBAC10A8B8DB75DCD9BDABBB221E27D1F8DA9F5EE5926A1C8AA9BA9BC09239C6A7F12914EA3B59EFF7AAEC3FFCCE56F1C5C2980AD072793527565E774F4631DB178CEEC691B1F367BEA0CF2907E1D6B854D527065979DDEF002D8
311
B2ACEA7CE21AE297737EDE1D45B31233B73FEA35BCFDD0B09721FDBAF6432681F2FD10C3E9EFB246FD6E854B344ACC9D8A0EEF876A7314B49B6A499FC650B099D650DBFEC7638ADFD245E2B7839DA5AC5F7D5623FC0ECEEC8653FC9B2BDD1AD4D00A566FBA7186DD3C9CD26512551637498CADB950FEC71ADB9A5524285DE3
311
28B8EC7EC75D2345AEC6A27C42AF6D9B92155315C80DBFCABBB7DA0FAE425C4FB896B15C9BFAC4FE67DF5A23D30C93DA4D8F36FB15D100050DA6062E22AEC5F4DAC4F6FEEF97AE05DE63C6D38F9E068A20BC5E3B6BCD75320C5090924E7F93640A7735B1A43451C2D91EE62C6238B797349E59890AF3A520DF4A87095F3ABE
311
C2E61F0593416CE46CDCBE0E00E2523FCCD04408588B5B6C9DB6459C786CE378770B54F51DA3A5E1DF2A3349BEAAC234A6CF8993B598B3B25B4B113E353A4D750FA7534749430F3EBF2512E7EA3FD43C6AB9A1F765A58463B306721A15D224FAFE8C6F5E3432D57EE697DA0DD5A9D4866A8BCCAAA9DFF1F06047851408FEC0
311
60471D0E3EB86BFAF46E4B5E60311DC3E3CEA147C75CF971BE74689507154FF2D2E92F15CDB2B9182B11459FD8ACAC5A85F174BC94A7F4EE4C4F5CAFA7C02E37BF0BC77B7DCD0C047BC316F562A01A441AFA7931CC84A28CB9F4AA367EB515778F29BFE61195FA671F4352E5E46E3A64773F1F76EE5EB36D7BCE9BCEAD837A
311
4D77F8DB8C92AEEF6711920D7C7D0F76B0FD0EB7AB83724CD35BCA7D36DDDF5FBB7FF6F04A91F3E2BB3B8F1A43CD659639507FF6331C5F697BCC782AE57D757A27D97F1AB9E0AEDB43F92F1B2AACDF5FEC8ADBAF9F814E2027003BA2F9E144B1938A7A04050AE5D953B82C45619165C813A10E76DD6906B3C16438064D14CD
311
A713AEC420034613E1AC7241904A49FBF87409AFB1FCB9B72FE7933A87D8FBEDACECE4EDCF6A4FE9FB94D5DEB74FAB7CFEAE17EE965DF980DCCA2D04134994F9A2E94D2265DA4FE6AA7B7AC15FACAC2B5ABBCD7DFF542C5314FDAB2E1B9D8B65220B8E2B638BE008E8DCA22678C820C5053664D15E89F2D735B51A84955E81
311
A443545E9FF787BE0FA700A76D136C27DA179A7C6E8939E01BE756E19CB292798063D8B97F44E8A27BCF3A614FEB8BE974A718E86F7EC99B53CA35FA24F61F2B07266684623A3D4CF073E511F3A10A8FDAFAF0078C577F4DF9D339FE7862E5FA47CF4344209E5BF76D783B1B48E152AD281B15FCB934DCDA49CEC5706B1EE8
311
B460F435324A5CAD154725E21AB8044B75A557A79F6C807B9340AA3D92503E866F4274412926C8C504E4D5EF8C0E68DD0B028781A6B4054F11CF18941F101C57CCC796773ABC8DED9CD91FE5788806C05E548895354AEAC96546D55B0E94A59F148D061F42AA398D822CDECA4CDE79E13469BDCC44FDC990F366BA5978C15F
311
97ED80CBFD73B0CD9B8B83A4F6845BDFBFAF034019473FB9A63BD55D3A4A7284757071574029A4D016DCCBE95DD679EF3C4880BF169422F8C89B68A988D2B13793CAED4F74DE7486C72DC94DF46B8E93D8E02EFCB1FF9B3BA10C8AE7F653DF94F4AF466CDDCEF5776687F7C4C14B63E4EED1719DC2EC482D7DBCC7AE518CDE
311
3D5FF86D39000EC3673C0044E1D308BF05F74D1B5F033A7D1BE7F74BC55BBE3E4A20F920946CA0271EB17BD2B80E5660ACB8A29A79F5E4BBA49D4D945B6EEF4A7EFEAA65E5555BBB57A7E15D2F83C69F30BBB978D2B39F1F26FC097424D39BB33CA3D87ABF64E307938B685BAD44F71556A30B7E712CA4FE600613C3E554B6
311
9ADE949A7CFE214DF1FFF05CB82151EC6FC31950239F94CF7AD39DC473F6EA356E5EC2C4EFA04383CEFE985A127484366FBEE3C0EC4FEA363E4F6632AE781392FD45D67B63FB8DF70E82734F431FD3443172A0E30A83D60982D55FA6A2CF86DBA8382502ACC6CDEF3B907982EED1160E14863FA242F9757347E1544275CCDC
311
F71ECD5F8621CBEA326B8BA884AD7F825781923E66971F04010D574C541D8427A438A37EEF8AF88240EED7362C953F5A81DE2D56109CDE2524EA0F5D2F87308C0C47BD97AD605878AB8589E17CA83930CB5E0DCCD75853D68B1AB136594926DE426C367428E9334AFAFF90ECE221BB5DC9E5BB53D2CDEF954EAA9CD814F0E5
311
725F1965DD458E5F8487683AD86B9D0076BE3EE91EB1CECC5331A67A3F79D8B27587C12EC2A6A70474749F27B4C0BBAFB94B34189E88DC18964BE4121B9137FD516C7755356E50D6714E31ACD222621EBBCD1CFF81D87479056A9DA0E0B8EA19D24CF937DA89F78E8650CCBDC110AAB6C4E46DCBFD0446BA9E2060E81F314A
311
C2031E88135E5476AC0160EF5C0DD2EEF1B8B5CB2D198BE9A554A9093B5F7D7E4B5407DDFCA1D9C152FD97F55BFFFDFE802954DFEC8995B983E28AC92F1971E28F531DC407A1280EB125F64A72E617EFB27DFBCEDCDA2D6F2BDADA36873EE46B9BE1782998C63DA7182BC383FB6FD15DA472B175D7E8B4FC88F38D6E07FEAA
311
3FA3CBB8F6B449ECF14D2175E5C5CCA3A42ABF24CA6C9395AF74535F4DDB38CB84F56614B0FD32D7E19CA5CF988DB4449C40E23DF2B16772594554579094450F56F253CD25EA7F77366FB1CFE79696C428BB64D5A41E986189427E5E4D7E2DAE3D5BB4972B3DC44EAABDDDD63A2264ECFA5C786EB0EE1FDC5BE34FA0F08376
311
869FD1E61EA06CAE15191135445EE8F0394161C3266A596AA035572BB0C8876180D8B9C77D307DF9DCDF7365ABDA6F3A2366436457A4DFC1F259666569A9E4A79C817BDD5610E5200FCE894A358EC72858D50EF67545DA81C6FACE3D457BAF70367E1E6BDD9A952FB4F56247F58F523B97E640246051A72F79BE42FFA0B318
311
7F63097F91C48B868586F714B0EBD5A00A8412C1236E1298F60C72BE6C96B82B404CADAA304AE9F303176B14BA53FBC2D5E86377E35542019E24D97B96A49B2C0E5006E7795954DEAF5DA58958839043C6C70BD3B1B33B6DC5C31316D8A6923F142E26F6711A2258AF977DDF1F970ECC4F1F2B434B96D81BEB6E89BF3BBB3C
311
7C8CC80505070723D6D7D7D3C8CA27CA164A26024FED94B12A86031867241DA53D929636DA600F050BC40CE48B8BA03D69224720DEE2ED2127390BDF5E6EA64527BBD4C4C63FA76BB801FEEC0E61218EC98A8A86CD8313781617877E66692839B9468CF4DB8E50A73986E558E309C0D6F676F921BE02F1185454DC75B11157
311
2FF9D27D85EA14C05AD7271225B391C4275659CA4A43759D0BA44639BE4C30A84DB7F67A41399FB95CBF923B1B1672ABC807C1590557FB18D811983FA97F5E609516D62281D38B1281F68FC75528C35E4CD7DF0F7DBB5E5DD69C414EBEA2F4A5B241B996BA77AE6C772E367408C633EA3E438B68563EA8BE7667F3A4C4FDEE
311
A52ABD78A2820F443B7914A15F180018D231E64519C56A12F6CA7C8DAE18F06F6B769DBF92329EF6A5D18FBCE600F36BD8E8198DE5CDAA96181F3A756EBA5501CEE58F497EA4F418A2B82565B9BCC611713C0B708CCA1F398B78C5F7D03B3437CC18F13061F55C7BEDADD5ACB1DB0E36D3CE47FF6EA1A563A57E9649EA5D14
311
D1A50EAA457463381C073777EF1600607BAF6428A7DDC079D47A204EF1E1F1F0589FB054D45E02CE623B3823C317C601E589E22B1E88B448524B86A82828E32345EC18AE17214B42F8C41C6D428016D9BA31DDCB47572561E5A402E5BA4FCE55F78AF7268524AA04130F3A20BA5D1E9F9948EA48FC8F5314FDB35E21898198
311
060034ACE5E3E2BBCA34092518F275190AF65F45867FF0900AA4B81F25427414C372BF51DC29AA855C5428EE1EEDD6B849AD60F6E73475C2D2523F8A2772C840A478DED18A8C5C91B085F255DC4F54EA7AA8947354FD17ECF8FB3B4A0DE7B483CAF3A1165EE05BBA413E5C1FEF3DE1D6B8F2F3F3251C17D9FCAB48A9AAF63A
311
C773A0E413BBC46A9ADF84A566FC920E4D8C52C9769EE3301CADEEEDD92B312E02E2A7E35B7F1E7D203FE5A7D75578B06E99D0E46FFADB8FDA17ED8880390DA29094202D6F645F76F6F96409CDA05495A96E84B04A00D1A6C6C81D7F3DE9376E828CCF144EE50E364ACCE7237EA0BFB5607ED1AC3CFE73794E5B61739D14DF
311
1743441B1AC98F00ECEDE9E7301FA29755FBEFA68C91EF2B314CF510537EF1ABFC9A762496280B546F5EDAAF8A5B387D469FC9A878A92828C88608453ACEC6094DCA54111E7AD5B2663DFE2DD151B7F123B9F4FEF8EE36AB125FD7AD52A59B1B765B3E3F73E3F73DEA93875004D2AFFE3CDE9493B87A9904DD052028949041
311
A91DC0E1BA47BA714343FD5B25E0A6A09503AFC17C790058A836A324FE31D7893512E28230332F153181C1E018E1124EBE1BA262AA428A518237D1EA7275E48C5C561BD19ED6912EDD8367DA0F31E40EEAE9683DA9257525AEA7B632B97119E17145A90231768A4F3B9120FF32E8319B015E3CBE26F1A754177D8185345817
311
C096B0CE443A955D13AC15E1FB5DEEA0239EC32A3C92241A237B0B02FFCB4F93CF2B02570C8D192E2F2A68CEEB42F12E6F8CEEFF46C251E22B4341C56FB08CCE550E7A9D6F4D6564B9EA52A83D5BF2C6E03FA19D2775E15A8A7ACF30A13C259EE7F5EF2AC3BA354F1500E1A07FC63FB4686E2F12EC69719F9ECF5FE3F35598
311
DF2CE944008CE78F0911BA5BE5D0A34E0098FF038669C26030BA9B300303039852A8F6F496341737CA7E0D2E3AAA36DE0A70AA7D9CA0D54D9AD84B18A44C9E625475E1C97B93BEBB38DCE7D227E67A2D00F531436136355F243D1FC0D712C5765754FA22FCFFAE97919161F46D6E61ACB37D83777B385889770B50765B1277
311
68443A5C4D3A4E35A3151111F146B7CA116F918A049F1C272F2CD7976C69A0068773451659A97E0F4A08FE604C3FF6CE7385DB19F4D3ABC8A0D80DA8A42096AC377DB49382B36E270B6FA7570188B4B7D1DDDDA82ACA487CCA5D38BD3BD039ADBAFA4ACFF27809239B722081E2EB9F145320553D183F28471C388BC8814E50
311
45676767AB58A8E72D1CED2CA731379515D2E533E4CF0B39DFC625F97AC4836831A4DE330E87A8126FA17EBE583D614E71E22A8DBF2825599743E0640037303E8E1B1E8EA4E1ABFA4F62907B5E4E0E5DCFDAB417C36C6848A2B8D15F1E505434C0707E16B1CFC2A1C36A42BBF55734F8F4301DDC2A5110CEE8C0747F695192
311
65012A2174BF4E955ECD4FDE095A3ABC70536B7AD0B9D7892F81287D667C108703C9B66A221E9A0929D030008F77FF6F5D2108EF5706FC87A3069B976F7C9FC3239D13D283CDEA83597461079FEEE049B0F392889898B7D87D31F8D60ED7B56B91823A8E4EDDB36C6172ECEE42BD42B12CD67994FA0F0DFAE9389356F4CD44
311
25A4B8AA55CBF7ECD585C6A2C2316791E43D5C06841ADBB226A87FD61515FFBB0167B74E56BD7F3E90A57A97FEDCBDF483A0D6699A8C0849CAEB4947FAA90D8E332D9DEBD9F4738C37DA0CAF9CF3DAA68BCB67C420459C7A64498D6E848E5CADE92BB6901F607AA331104A67F7CD650EE169B1DAE94D2C31C2F993632259B6
311
957E246EFE4C5481107B07118607700040E5812A2A2A38DA0076875258C753F60E0F2662C748EDD5F3F3686B8FC3BD6FE631ECCAA1E8B1C1E565AD117E54893E79F4672E32F9E46B2A183DFDCF3EECB4D4D077DBEA0DA254D256045109670050129E9B9B1A9E4A11344D61497A992778095151510C4BB7EF2009B63AA43606
311
35312E4CF668B7E0D3D85A8688E2BD83B569439892ADB63461930D428E0DE42E4AC57CE48DA5CC1449530D8BD3D6A0F08DF20C8E8F570F2CFFFCEA286E30969B4654D498A58D9DA782E19FE3F002181838925592C4A1EF0B332D88B61A92C644547BED490D3A42CFFAB70E36D961F694F6307F72FF15A1C79D5B1B5CEFD353
311
D9E2B52566DEC8F8F09CB3E8359C0F68EBBB7898243E34E12A015B2685AB303C04D3A9E00671FF3DFF0A184E4A2ABEB2B666AF5B3A209C73D8EF29DCDB069C9F391EEE9DD0F74C7BCDE16F8F02E3B8816122BBEB50665775B600549D8BB33A54A6BF940C028118BC6878C79958D6784F9DEAA6E26748386FFAF8D0D0101E28
311
47B6563F5D8DC1D78F787BE00E2C941AE12148D4A81599FE8F68D4DA5CDED75530ADE138240300EE13B0FC13A1687FED6774662C05A2B7DFB186732F0D7A93545D8B0A6390AE5054D9CB582DA846D7A061B3358B45E2B52DDE63E114397EDB7E09233A579155D795BE76102CF277F4DF8B188C4F2879BEAE3C08347124BF9E
311
D23B128259FE107D31E34A652F090B30B39E0D9AF917B76A2806135621A8A60681F16AF216514BBD02711585B5B1AE823F4B2D0369EA5B6BCB863072727FFC871CA6C9AB79A814D989057E9470A3D238BC87CBB4A0EA49AFE2B86F22E499793CAA9047080450166BDC357524561E258C77CB697F1ABB32562CF87C3B7AA12F
311
911EF19FB3E5C02222E887D08202A60A17151F5E053A86B437771088B4FEE14D652C43E8D939995D34545E12E2FF93D4E366EAD25F10CB7DED141563C3D0C447AF06078A91135FD4B9611583CB4BF3BD167F2399CEAB0E0100F8FFC305F00F1711717173138B4B48C83022295DE657EFEDD97F238ECA80F528AFB4F8D67AD4
311
E2594B9A3AA86D7487EFC313BA95745C186F0CDD84CC12DC9CB0424B42203D351FD9C0A3AF10CC7F388E0329279087386421F194F4A29464C1DEF7EF8BE515E4A199DCD5B909342598D8FE6A231F71336248D5CEC5454455C7BE383B3BC7B260FED27F703FDC39A170F3827239102F59D4DEE7FEF82EAA1A5E4BA94DCC4CC4
311
4E7E2EDE20F24244E4454369D2E87C3F823F193FD4FD27E1C23984B01898D15ABC20711A8A558054951A6AE280096BA36CBA439603B7B0B4C45F248C14B2383B4B5CD8ECECE4FF859AD4A6CA2326D020EF090F4041D28DB66E5256B56232CC52829DE8060BAE6BBF37D4B7469B822454FE93210A3E8D15E69FFCF011232226
311
11C51C4FD0A041A0CFA2471CF6BE38D2B20FA4C3525B5B8B586759475CF80ADFE67A284AC24651E52B8E683D24C2622642F27E7C3C22783BCF63648BC398BD6CD0D9C97E7E7E3EACB6126DB7A6C1FD9F1031302EE67ED96F22B77C7CA0239BB324207559B105E4693EB26EC46182A92C9C0DBD24F29B31C5C5AC1F84300E0E
311
17CEEAC15F5736FA4A98971E2F1423BFCD68D4BBD5F86E74B40A369F39507C88FCDB35D2DD8DEBEA4AF999E23CF2816D204200DF6E611781B9884C1AC8888B4DE397320472959434323A5A36B22A8E1F721A270DF3BD65E4A31C11FF048AFB0D8B7B6881423793963A23CFCE935FC189ED36FAE35C46DA3574C979E4394BE5
311
2084F3081837BE033396D2EBD80F1F691B273F660D2B32FA27A33B1DE4ADA5F0FA4651511102DFA410DDA86E065272CA314D5249DF91B06BB92807B28EFD54F08F7B525252782CD276DD02E6B0319B13DF87B1F6361AD6B28FC0D711CF445429B9E5A433CD493051C49A9E03DDB1B147D880253514A5DED88009018620EE22
311
9101C041950E2D8AA8E1F5F5438E0C0C0C60EEDEE9E3E0C051948C69F84BB7B2A48A1F3C8EB9E6864687F4F4F6F6E2FA87608ADAF9C5E117B7C1A737E710769DA1D15ECE6A84502AA855398712D5FB51BE92E4EF824969CE18278798AC303C2C7980DD2500ADF8FB1E6D6C2FAAFF9987178923334A244758BAA01A9A1B70FA
311
5097D01E1CC2A58DAD0EC94CE6430AA9B0C10D75E3C6BAC670EFBADEE1607739CE0FC18A2587E3EC3058562014C64219C69BC269082D5C2F4A659278D585755912176D78A1B641719C2A394CED495A1AC5D583FD2F5EDD93308EA7EAE8A6DD396598BDBD3D4CFED62D18A5BDFDE0DD5C80D1A89BA62697B131AE7CE9A65941
311
38582F1B37D68F1749AC7CB67A70695D48A4A056AC1FBD4E82358CEAE38F54B95A9016F9000F9879C0D9D131768635CA798895F27D6F1614F11F2838A83611AA51C9A3DDB539D42979C29F10465655C17BEC3E2760B80DCBF609198C7B171A531905F3EC218D696025975E986C6B4C666666787271F202805577DD5A3EF0CA
311
FAF91B62DC4B2DB4217A7606282F31D8DDBC290593BAA93EA6353AFA9939B877978481E15CFC9F2755CDC00C538F63A4BA3E80AE009B73CA0185687D339A507D165B74290D6EE46D5C58148F020C3668ABE9EF2F7549170DC80DB41FFC1D678FF19AEB10C7133832B104B80F691B3138F97A92D26E551F1F110400D45AC71A
311
9B9AC41A1A1B1DAEED0B0810638EFFB511D46B121C6FEA0F38CD00E03CFFEB9713FE1F9C263E4DDEC160D0497FA9A132BA608584057FB15380825DE6C7FC3C667EE947D488A09898D8E939C4953BF4EC9836344D2CC6B2971B2A21A572B06096F4982D2CC7232D46E8EA69DC83722E267754D777F97F96D5DA74E1E7517808
311
4D0E70F12AD33E5F71EF2AFA599B2BEBF60A5BE475F444F240CBFE8143C334E7ED9150FEEFEF7EB020C4DBED388DD1D6A167A76F3CBF119B578AE8CFA7736ACAFA4440A1C47185638A0D2F3EB5BDDEFDA958FB13CE4AA4923D5BF840392D45544329525749734866684BF7F8D9D54D892E19BCA9F829A0F8BFCBEEA6CFDFC6
311
1D74EA1A645ED7A1FF241739F15694BD835B66FEC5677E40FE69BD3F91AE402F036537218A401CB0828604AD189E575015C6F3F6BBC8AC79CF6C70653847254B31551EFCBEB5978B9DB85D58D0FA41A9DFE9C624834AA04949D24B5AE6D299E072D152D12097920F14AA92C31C3B97E28B6C2E6E9C23D63043ECBBC0A60FDF
311
5BD0C33C127EA8A3308B8B6AFFEB28B4455BF6E7AF4FC6222728357EB8E46E85053E6A8843AB23295BF838ABDA94658FEF3F832F147046B4ACD6F7D48E8FCC9618582961C898D1C7A253C91BFECBDA6BA18A1FCF70755DCCEE2222F41B76D23CA98D0CB3D95F0CF66D57FFF65E2A90F5DF40FC3187621E981BD0BC1D992787
311
212688976B94A8F0C6EF646624B570B78E068826F87CE27041A95C9A4871FF65CC17FCB1639629AD6A9517000D63AC231F3D741CB8430777E7ECF80CE7A3F73C0F162F7E56AA71F4DA80A33CD6ACEE78E2C11FAC03DAFCE929B106F8F6B3ED2DC71FF994BD9CEF4E9A94896EF1B6E2B7B4978168BCF0847A3D2A4F1B0500B9
311
26E634B174548E9FBAD27153FB5FC36799B1E6C7C38A94E1F9E996796D7B485E635D5287A2AE76FBD11A341DB3F8F810385BB7296391973DC6C37C452A9305AEBBE0CDB6C566DB59FE60C8E94B1FD090354BF51439FFD1B48D725228FFA88C84F686F547107A7A235665A4593B7C34D748C1AC8D56DD5DA861EEFBADDECBBD
311
65117E65851F90351AEB65F0EFCFF4BCFEF24CB7A5879699FAC437A7AF9099186CF006BB923A59E37D7A36A29FD8D2CBB914A5E9D0A8FD212FBF796AE9A67958FF1D5D8B85F78F96219D4714EB919929241B6C018AAE0C02069F8D919961EC5DDFBFB7573E3AC8E08BFB7C8534BE6DE045B3CD63DBD71F7638BA2309CAE398
311
EA3A7D8F98BBBC7AEB367EFA5CFA27A9F8F2F52FE878058E6209C026453F8E7E8A237DFC389E9590F6059B397CFD65183BBF936E86896612A5B5FEE49DAC8455D026218AFEBEC12B3523A45B57B82C9C97E02ACFA1184DB18E48CF615DBF39C3CC6F0B4AE6BBEEA2E39D944E290302FA3DE33FA7E40296E2EF7BF1CD855BBE
311
CFAD0FD622BEE9746FC4FDFDE545AE6E3BC234CADF83A0FB76DFB145BF3828AE3436368AC24989454F8FF70A177672C711CAA1A76107218CF948CA01F873520E7A2B118EBB161ABAD432932029628B6761590C98AB590C8C8C79798CE9F715BA696E839E9131A4BB68BE923F1747FBFF165331FFDD4D05997ACD168F12CA75
311
348DAC04C7F509FE83898A8B421181AF492861CE81E4A2DD0A30850CFA95E05F097FF70F9E777310D584A75BA7018922E271DAB1D785671157685B7D383D3E074DDB4F1E44EF04B07BAAC75A062077C54B9752C738C9D804D402E02851F3F89605AF189738C18C021D2139EAF72513824E10DDD3047BACC8521ED7E98B257D
311
1166903B1B08FA6F918FD7E162913FEC7D0EF4787E29C35FBA8C6E2C9C20E9AB30AE42CA2A01A090E7D010C1B5BF9CEE2A304BF3A987FB40D836979B79E18D70F257DA61E808472DD85B82761825779D6B90CAEB0F23360C6F80A7D7D77545E95B3DFF0CF96A827F9B5BCECD2C9698718417EF80FEEDEE938AFF55859D0D54
311
0B7FE09435583A6F04874A0C7E8CF234DF4879722000167F5872CEC6BF3EF7E5A8CC8121E6A359227C8A29C95212F9F735BC72A887D56B8F309FC525BFB4FD767AAEC4AEFF249CFBBD2DE1AB9969A6155C7D8DABC307E47324C1F916C7BCFF40ABA5644E9FFB9238D19ADADA49D9610F01ABBA57E4DFCBDCCBB2B93C895320
311
6C91DE01B0E2651A6D6C31721915B31F7B7CBCE55466F6D70402788FA91D73BE4ADCBA99A35F17D6B83383704917D6833F0FA3CD45C926ADB8BC17999A4A0AFBCE2541F7B8CF4C2F5FBA611B3E626D64407CB32C122DFF4EF8674D6EDBB86C8F7C6A16D50FA685E2CCA34F8F7D1D8265BB0042E9D7F1F666F7BE5FAA5184DF
311
58E12122A42EF02F461B3F369AC746F96528AD208512AB56844CF75B97F352DF7995024FB02855385854F3798670D01CAC771AC3E1889EC25F61A20C1F8CAB46898817F9C47E2CDA1F286BF2F358298709FE567C91133E2638C8B53975E753EA8BFD3578B5F7186B7BF084EBA3F77BAC3132A5779902EC22AF2D2E79F42D32
311
4E083386DAEE9810D1B44A5DAA54513C7A71E52A4AB9257D975B621308FE4D2141CC3DCFE946C154A3C1DFCCA7629EC69ACFA831634ADDA93C0388D2A9A2DDAFCF957C6995BCE7FBB6DC4EBAE79E63EB08E9A25F52F67076F7093CA545CA3053B5BF576DEAD4E0017143C5F759F32B2D6F145B52B67B48909B7C7FCA6586EE
311
385A2189C16932CB6DDFD9152AE317C430492A578ED27B72D85D40C7C93C097939E1B50F4D67F05334FE9DC362C30B7FF561B95259138ECFD9274C8D695C31B14D4EAA9F3D7FA8DDF652F8C5DEFA23284C799B7D94416DEE81E05A866302DC70192A5368EA65E1CED8BF107A1E2D3119A71E85DC1A7B0C1E93274CE04DD0F2
311
ABC8AC7C987FDB002B6F81757B43502EF7A0D92E416494FAEEA4C9C090CD9557AA4D532F4996A272B94355C5A0E4974EEA9627476F30809B94D8D8D860062E02204643BEC7D0438AF800FC7E2B26955D595421E83C69E1A07E0E3122285835F014AD538188CF9737CE76D464A353FA55A001AB2526B84E985083693BC76FE2
311
11CA1D000679C889E3C009832C87E1AC2EDD05C302557422DF0800E316FCAC86978A371F025A6C7DAA9F333E7BD160403A1A06EA75AA9888FF01504B0304140006080800815831447D09B9F3790100005E0600003D00000032463437443234372D373438392D343743392D394537462D3431374433394331323335442F5363
311
68656D61732F436F6D6D6F6E536368656D612E786D6CC595D16A83301486EFFB14E20B94B15B2DB42B6C42D9458BBB3F9AD32E2C2692448B6FBF18ADCBA22D0E847927497EBFF39FFFC468AB14EA53FE89056C56817DA234D90735B0387C11452178B71A6E56D1DAACFCEC3A1E024AE2704B6AE03912B38667CAA9A6828741
311
59658CE6717806A6300C2402119C3571A86565DEAD7C27793C0C92272D29BF74AA2DD78166C9FEB6396090A181B2C4DD4A8BD49D9992D881C29EDDC7210369A2518216720F1AC6709EF84E0886C02DE01B2504C785CE50EE2C69D97BBD013EE11A2F28AD7E47FE8152CDF6F3D91ADA8B0CA269DFA765FB9326EF5098467A7D
311
7E5C3E13791B2B3F029ECB694589B5A02FFED590FFF1434EBC8CD86085932F68F3A59B725CC2FDA87A9C8E5A0EA6714236234C604C5C8B8A695A32345415AA5BFD4B58E5201054B9A4E5E4F42DFCA92F6CAE42927F2CD606894F05D0EFDEBCC8393EDA03B382314FDA9D6989359D1C679BD7A787E3AB3FAB22E340D972B63B
311
53E25CC22E707DE7FAB9C71BAD7FFD4FBE01504B030414000608080081583144317D3058AB040000AB1500003E00000032463437443234372D373438392D343743392D394537462D3431374433394331323335442F536368656D61732F47656E65726963536368656D612E786D6CDD586D4FE33810FECEAFB0F27D4BE18ED5
311
AD4491DA4570FD807A82E5B3E53A6EEB3B3B891CA7D0FBF537633B6ED27437A170D26A2B21F232F1BC3DCFCCD8D7D3B214F6896F84663767C4FDAE9FE7B764CBD424B917993092FBD7C9CDD9F539BC8A6233560A2FF728B254980766419AA986388A4479BB2B82BC0E92AC2804332CE3C22D8E0251BA9244A693649A6EF17D
311
0A8AC54A66D2CA3C4B48512D95E49364C554291262044BF34CED26893515DC3BE3C19CF23C7850FFDFAF367AD5CA29AD64542975A184169965A8C5A99FB71E3DE03BF5C8762758E0BF9D6BB61651775BE1703B16F74F2758005FBD5BF35F466CA57839417BF8F26BAE72D36746C8FDC7E4FC791ED535723DCB7325984F3247
311
9BE87247F3E5DF82DB809F802DC59602A8E0EC26B31D59781924435823E6ADB9E6DA5387B29CA6C232A9CAB0AC476858F51918E457BE33B9260BBB1186D43C2A1D3E0F95DCA99C5987CDA60A595A47230FFDDF1312143CB057725BBF449BDDE77D1623C51C87DA3198EAA504069005E7AA2A9188C7A230CFAC58831BC8DE86
311
8925432AD551B8F81C4D7C0A2F6ECE42FD21E47A9657595A9242188E945B8B48759971E3385ACA7FE1E945423454055DE9497219AF65096268E216447CC0357B0D5257A03ADC75E5BC43A83CC6E83C38141F1C4BF392F17F568C0BCA2BA58E066F1624C857943816B86E6697952E28D3100C0025532A7FE17996014445CAB0
311
6E9793043C5DABBAE48D47975F0E7E31CC53BFCCBBA3FCE9623C1E0F8A7410F4811F16EA363A3D339A387201D1AC18108DC7490266028AEFEB8B597D3175B8090C99418C5D3A9CB698E46E327865F3CAD2BC605C5AE80003F201E8ACCB87FBD833BACFC954AE5615B6B55E0DE8E3E8B78BABE867BC415FE34DCB5FE7E62087
311
831D5462CFA22B96D630DBBBE5DA19B9C3573DC0F22CFC017B0762EA8DDC6DC7BA9BD4B5CA4BA09028A130F5861B630AB10E29BDDF7F3AACB0CA926A6805C7CBC39F72BD51F0678F57FD6345D5889582E652D84D283810C260DB23BC823281530C76806F064A13B975A23D790A15FFDD89BAC47CBE85FA8755F67B1E7BB7A8
311
4BDC8E1E74156801DD08B844EDC887F5998148BDFCE39D11E8A215338EFE6FA1005166E93815EB61B8EDC405977055A08F21873ABF7CBCD2EFA4DAB4C0FD695F75165B618C4C05019803B21DCC3F08DCA8250C14DD8E55031A468DFF09DDC19B21E8AE1DFFA5D05DFB2F613FF91AAADAC5E8AA45EB20D3D7700614B2D17858
311
B6A1E6BFA9940DA054EDA885DD6FA92A9872F98EBE086C006F2434D4F6B8425F4C7E8A267C6C7C3638EFF3DCC07143495D1FA6387D0803D33FAD4F0BEABD437B53325370F8405EA4DD9CB87D6AE9362C95D5C059605F53D17AD8C739F30715D552A815954A559A72B7F9B442C36687D9CAD443D6E72B1CB3EBF11185C8B786
311
5077E4E84ECB0D2D2BA9E0700642590C80178C95400C3F3AFB0B1827FD456B94BC738BFA0DAC73BB6F846E1804AECBACB165DDFBFA04B121738C0D08B8E39EAEAFDDD6E8885430000C1F369BEF153A06D59FF68C473F05837EECFD2F34AF3F5903DB5B7792A072CE54C634D0A3E7F0CF49D6DB7E00713CC67410F54BC66DDE
311
A1063C823C41C3B47D9079A0A439DFE83C6EA31AA734F81051DE1A82AFCF5B87B3FF01504B03041400060808008158314479B77F2750010000C20300004500000032463437443234372D373438392D343743392D394537462D3431374433394331323335442F536368656D61732F52656E6465724D6174657269616C536368
311
656D612E786D6CAD93516BC23010C7DFFD14211F602A636FADA00E445036DAB95739D39B0DA489A451F1DBAFB9A4B5E2C660D8B7CBFDEF77C9DDBFC9B4AED1E5A2C40A2603465FB259BEB213A89467A80BB46B706825A8A0E29341326C149D7A063506F9DC5495D13D994F75BA4DB662B248F9B23A28AC503B70D2E805EA06
311
2E383B1C774A8A947F81AA91338B5018AD2E2977F6D8C4749FD03B5BFDC15C7BB8CAE0F250EADB227F28EFDDE249E2F99FCC7969A4401AA8A0B16FF3122C165B5A689C57CCD494E14CC10E9BAD7AA1D4FB669871E18C2501F709EA78C36C2B69FAA31B0216B48D5E61BB95DF71B2B1D3C17B4ABB78C371C75CF672DE623F80
311
DBC3B6513237CAD8FE0C3EA4765BE14F899FA57CF4F43C7EA160D10F66FD609AF2EB3D3C821138BCCFC3BA8633631482BE6BE9CC7EAF5A974607C7697B1E91626DC7CA9DDF02A1EA333851DE39E1EAF9A00DA5C9F0E69FFD06504B030414000608080081583144642304555100000057000000470000003246343744323437
311
2D373438392D343743392D394537462D3431374433394331323335442F4173736574446174612F41737365745461626C654F66436F6E74656E74732E62696E5361606070B1347572323176D675353130D735317535D575727575D57534773535B07034333072341502AACB4D2C492DCA4CCC492C28484D2C4ACC4B4E050A82
311
012F90744FCD03CA26072767A4E6260200504B030414000608080081583144F865834058000000680000004500000032463437443234372D373438392D343743392D394537462D3431374433394331323335442F4173736574446174612F53747265616D56657273696F6E5461626C652E696E66558CBD0A80300C06F73E4B
311
117FB66E451741D041DC5BF98480A492E4FDD18EAEC7DD4555D89EF28DF51A0B1BD8340C4DE7DD848B988C0ACF0649566493F2408C508DDEBB99D5129FF8F1AF8CF5B9503E20FAE5A16B5AF702504B030414000608080081583144B8BDDBFB340100009A0400003600000032463437443234372D373438392D343743392D39
311
4537462D3431374433394331323335442F4173736574446174612F636E782E786D6CCD94316FC3201085FF8AC56E3051A4561126AADA25532B35EAD0ED82CF090A060BCE55FBEF0B898756A93A65C87ABC3B1E9F78A7D69F83AB3E30261B7CCB246F5885DE84CEFA7DCB26EAEB7B56ADB58A21D00F19AB3C0CD8B252665AED
311
6398C6B9D4610F932B5567FD712E3EA484B4859DC3E7FE3178424F8955C6414A2D4BE6800370982874988EBC03022E79C414A668304F223BE03CC94404C28EE945239775236B79B79572D52C57CDE25D89A2D46A17829BF5365F16C35899F3AD4C374A9463ADA668674D790BD37F79E43BEB95C84AAD12C5CC64EEA0AF3177
311
C0383A6B80323A110C21D55984302871166B250A835F249EB0B7DE96964D360614E24BB687912CDE1C91FFBC5E9FCCC627026FF076795C3ABC3E85D7D30F7A3B07F294985BCBC9A5436E7D7F859488D31AC9A1295B457F03504B030414000608080081583144CE88E879E30000005E0100006700000032463437443234372D
311
373438392D343743392D394537462D3431374433394331323335442F5265736F75726365732F44393542423433432D453430372D343545352D424545452D4137453530384136303241352F7468756D626E61696C2F302F636E782E786D6C4D90CD6E03210C845F05715F7EA248AD2296BC444EBD549475B6282C4660AAF6ED
311
0B2D879C6CCD7CB23C63AEDF47645F506AC0B4722D1467903C6E21ED2B6F745F5E39BB5A5310E909E32CB903563E646ECD5EB0E5296D70772D0E3586F498E20E094AF0EF39ED9CF9E86A5D79F59F7038E11AE106F52136474E6851A0622B1EFA010A07CC03BE8023D8B83D297D5E945EF4CB4DEB8B3A5FD4E9CDC8415AF381
311
18271F1241C1CC3CF625F56F9491C3B6A69530991181DBA7D78CECA635954A4F3F21FAC91D7239C7E01DF592247A025A3A04EE30F21FB6468EB47DFC55D1E768C6FE02504B030414000608080081583144A233C2345D000000800000006500000032463437443234372D373438392D343743392D394537462D343137443339
311
4331323335442F5265736F75726365732F44393542423433432D453430372D343545352D424545452D4137453530384136303241352F7468756D626E61696C2F636E782E786D6C4D8B490E80201004BF42E6EE76F3C0F216234B883063108CCF170C074F95AE5473F5C4C06E932E4F28601967600677D21E9D8092EDB00253
311
9227A2FCCB80E1168D80A6417297A89C5D6963B7129A0D1E8F2EE73AA7B62BBEB8B27DE50B504B030414000608080081583144BE89762363000000880000005B00000032463437443234372D373438392D343743392D394537462D3431374433394331323335442F5265736F75726365732F44393542423433432D45343037
311
2D343545352D424545452D4137453530384136303241352F636E782E786D6C4DCC3B0E80201004D0AB90EDFD75167CCE820A4A845D83603CBE602CAC26799919AEEEE0D965E2E908050C6D0FCCE04C8BC355404EB6198129C92351FAD580A10E464065907C8D948F8F166375F655BDC3FDC3B4E530A176BE7057BDC43B2A59
311
3FE403504B030414000608080081583144EB1E31B87E000000A30000003600000032463437443234372D373438392D343743392D394537462D3431374433394331323335442F5265736F75726365732F636E782E786D6C4D8C410EC2201405AF42FE1E45055B13A001FD07692C6D1A29182CC6E30BA60B572F99BC19D97D16
311
4FDE2EBDE618141C760C880BF738CC615290D791B6403A2D538CEBDF0D48E817A7A062D0724A313F3734B8B1CFBE523F87C7066F17612D3F5D2972D6502E50508B88D43428586BCEEC684431F65529F3EB95AD79FD05504B030414000608080081583144653531D1080100004F0300003400000032463437443234372D3734
311
38392D343743392D394537462D3431374433394331323335442F536368656D61732F636E782E786D6CCD93BB6E032114447F6545BF3C2C4B892C16172E52A54952A523ECB5830CDC158F28F9FBC086C296D225853B188ED0CC7091FB4FEF860F88C9629888A09C0C100CCE369C2652F271BC27C35EC988982F303204ED6122
311
4D264A9E2296A54B331C75714D75369CBB7840EF313C9B77F09A0CC6E9942692D62DD525E30CE94C679D35153442C2120DD41BB2F5D06F3011748699A80D17DB918B51DCBD08B1E3DB1DDFBC4AD64825DF105DE76DC81071190CD645A876B864ED58C9126D675A06A22EBDD1DA8664955032E5583BE864FE5A2AA997C559A3
311
73AD8AADE00FA3246B51AF023F408068CD6D26BE32F76F919F20CC101FEB2B45ABDD6D26FFCDE3DF0A60EBECD711685F417D03504B030414000608080081583144E3603EBE7A000000C20000002C00000032463437443234372D373438392D343743392D394537462D3431374433394331323335442F636E782E786D6C6DCD
311
410EC2201085E1AB90D9DBEACE05D09878023D01A1D34A8419C380F1F82DA68B9AB8FDFEC93C3D7C52546FCC12980C9CBA232824CF63A0D9402DD3E10C6AB03A3397DD192872090D3406ABE7CCF5B5D18893ABB1690CF4DCF02282E5EA8A5BB96FFE536F285CB347F95BEFFE81C9ED5AFF9D5B1FB575BB00504B0304140006
311
08080081583144606A99757E000000A300000007000000636E782E786D6C4D8C410EC2201405AF42FE1E158AF92501BA28F61E8DA50D9182C1D6787CC174E1EA259337A3BACF1AC8DBE5974F51033B5D80B8784F938F8B867D9B690BA4332AA7B4FDDD80C471751A2A06A3969CF6E78126378F7BA834F8F838201F045A2E90
311
A2682515D84B2A6F3850C1D036B267BCB9DA629CAB52E6D72B5BF3E60B504B030414000608080081583144CA1DF9C9A900000073010000130000005B436F6E74656E745F54797065735D2E786D6CA590410EC2300C04BF12E5DEBA70400835E500FC800F84E0B411AD13252E2ABF27A55740421CEDDDD9B55CEFA7A117778C
311
C979527255565220197F75D42A39B22DB652EC9BFAFC089844F65252B2630E3B80643A1C742A7D40CA8AF571D09CC7D842D0E6A65B8475556DC07862242E78CE904D7D44ABC79EC569CAEBA537E3521C16DF5CA5A40EA17746733E0B6615DE7217475F386F18B9481C510F1F021CD9FF027EA0E1F5C4E609504B0304140006
311
080800815831443DEE336E64000000790000001B0000006175746F6465736B2D64657369676E2D7061636B6167652E786D6C35CBC10E83200C00D05F21DCA56CA76D41FC96062B120735B69A7DBE268BB7777961F8D5AF396893C2ADB70FE7ADA196782C2DF776D7A97B5933C430F15651E5469C55D70F80A4992A3ADC9547
311
92C525AE70A1E4D6AD9816CC044FEFDF01FE3FDE907802504B03041400060808008158314428608FD1F8000000960100003700000032463437443234372D373438392D343743392D394537462D3431374433394331323335442F4173736574446174612F636F72652E786D6C8550CB6EC32010FC156BEFD8E0B875126122AC
311
C45FD0536F08888B1283C5A3EAE71712576A4F3DED6A76667677E8E96BB9579FDA07E3EC00A4C650692B9D32761E20C52BDA437562D43B177FD1A0B262D1031418189DBD4BEB064967A3B605B54EE90D1421E80895BCE76680203FF4226A916266845BBD0A7913B3AE49FDE4319A92519BD4A8EC66AE467B60D338E2CBB9C7
311
E8954F3BD4F5E3880E1DE688F7FC30BD5CDA69CF316D8A98D168969FEDD26B11B502D662D2214C10E9DF0839E2EE88DB77DA1426A321FAFCF3B6B47C078C97ABCF220ADA3CA77F5CD3AAFE774DC6C65DBBB93E150118C9473E068C3625A55C1E11E65A1265DF504B030414000608080081583144DA06ED28F30000008E0100
311
006800000032463437443234372D373438392D343743392D394537462D3431374433394331323335442F5265736F75726365732F44393542423433432D453430372D343545352D424545452D4137453530384136303241352F7468756D626E61696C2F302F636F72652E786D6C8550CB6E833010FC15B477834D484922E308
311
94F0053DF566D90EB1126CE447D5CFAF1DA8D49E7ADAD5ECCCECEED0F3D7FC2C3E95F3DA9A0E4889A1504658A9CDD4410C377480E2CCA8B336FCA24161F8AC3AC830303A391B970D12D60465326AAC541BC8BD57010AF14C4D075EDCD5CC4B1E4362F847B970F1E0932A49B9F2188D51CB4DAA6572D337AD1CB07118F0F5D2
311
62F4D68F3BD4B4C3808E0DEE51DFF6C7717FADC7438F6995C58C063DFF6C174EF1A024B01A9306618248FB4EC80937275C7FD02A3319F5C1A59FB7A5F93B60C96B45FFB8C545FEEF16B509BB7A735B151E1849C7BD068C56399D545ED1A59A9364DF504B03041400060808008158314448AEBED3FA00000096010000660000
311
0032463437443234372D373438392D343743392D394537462D3431374433394331323335442F5265736F75726365732F44393542423433432D453430372D343545352D424545452D4137453530384136303241352F7468756D626E61696C2F636F72652E786D6C8550CB6E833010FC15B477834D684922E308D4F0053DF5E6
311
DA0EB10236F223EAE7D74EA8D49E7ADAD5ECCCECEED0D3D7321777E5BCB6A6035262289411566A337510C305EDA13831EAAC0DBF685018BEA80E320C8C4ECEC67583843541998C1A2BD50672EF558042CCA9E9C08BAB5A78C963480C7F2B572E6E7C5225299F3C4663D472936A99DCF4452B076C1C067C7E6B317AEDC71D6A
311
DA61408706F7A86FFBC3F872AEC77D8F6995C58C06BDFC6C174EF1A024B01A9306618248FB4EC81137475C7FD02A3319F5C1A59FB7A5F93B60E11A974FC3F54CABE7F48F6B5CE5FFAE519BB0AB37D7A7C20323E9C8C780D12AA794CA23C25473A2EC1B504B0304140006080800815831441AB8FE770D010000B10100005C00
311
000032463437443234372D373438392D343743392D394537462D3431374433394331323335442F5265736F75726365732F44393542423433432D453430372D343545352D424545452D4137453530384136303241352F636F72652E786D6C8590416EC3201444AF62B1C70607C7498489A0C127E8AA3B6493042506CB40D5E3
311
1762576A575D7D34CCF0F843CF5FD3B3F8D48B37CE7600970814DA0E6E34F6D68118AEF0008A33A38B73E1970D14564DBA0359068CDE1617E74D1A9C0DDA66D5BA516FA2F25E07500CCF74E8801FEE7A52A58A2139FCA39CD5F050375DE272F5311AA319B7A819D36BE66AF402582F04929716C13DEF7790B442C023411CF2
311
961FFB46D6FD81235AE530A3C14C3FF461D12AE811B01A61021186B87DC7F884C809D51FB4CA4E467D58D2CE1B346F07D8E5D80841766F5012D442D2C8060A2965C2C9061DF81ED5BCA1D51AFC038CF3F83F301A1B76F5065C131E309CFEFFBA60B4CA05A6F16A37CD5C36FB06504B030414000608080081583144BC3CE88C
311
FA000000960100003700000032463437443234372D373438392D343743392D394537462D3431374433394331323335442F5265736F75726365732F636F72652E786D6C8550CB6E833010FC15B477834D684922E308D4F001554FBD596643AD041BF951F5F36B27546A4F3DED6A76667677F8E96BB9159FE8BCB6A603565228
311
D0283B69337710C385ECA13809EEAC0DBF685018B960071906C16767E3BA41CA9A8026A3C64EB881D27B0C50A85B6A3AF0EA031759CA1812C35FCB55AAAB9CB164E58327788C7ADAA47A4A6EFAA2D1811887819E5F5A4A9EFB71479A7618C8A1A13DE9DBFE303E9DEB71DF535E65B1E0412F3FDB95431970025153D610CA08
311
6BDF183BD2E648EB775E65A6E03EB8F4F3B6347F07E215BD8D4EA1E7D563FAC735AED3FFAE519BB0AB37D787C28360E9C8FB40F02AA794CA3DC25473A2E21B504B0304140006080800815831445FF541B6F7000000940100003500000032463437443234372D373438392D343743392D394537462D34313744333943313233
311
35442F536368656D61732F636F72652E786D6C8550CB6E833010FC15B477834D684922E308D4F003EDA937CB76A89560233FAA7E7E6DA0527BEA6957B333B3BB432F5FF3A3F854CE6B6B3A202586421961A536530731DCD0118A0BA3CEDAF08B0685E1B3EA20C3C0E8E46C5C7648581394C9A8B152ED20F75E0528C423351D
311
78F1A1665EF21812C3DFCB858B3B9F5449CA8DC7688C5AEE522D939BBE69E5808DC380AF2F2D46CFFD78404D3B0CE8D4E01EF56D7F1A9FAEF578EC31ADB298D1A0E79FEDC2291E94045663D2204C1069DF0839E3E68CEB775A6526A33EB8F4F3BE347F07EC75BDD3D36A9BFDF18C8BFCDF336A130EF5EEB9293C30924E5C07
311
8C5639A354D60053CD79B26F504B0304140006080800815831441A9D9242FF000000D70100002D00000032463437443234372D373438392D343743392D394537462D3431374433394331323335442F636F72652E786D6C95514B6EC32014BC8AC51EDBD844C411268BA4394157DD5178715062B0F8543D7EA176D576D7AE40
311
C3CC3C661E3FBECF8FEA0D7C30CE8E88D42DAAC02AA78D9D4694E215EF517514DC3B177FD05065E50C232A30127CF22E2D1BA49C8D600B6A9D860D94214044957AE4CB8882BAC12C6B996266847BBD48759713D4A45E798247337F499507194123D1B584E29660C29E0939B4F4D0762FBC294CC193B1B1EFB66130BF82AEDC
311
1273242476BC595F332B19BD718CCE7F3457033E1B5F283B77946146F703A6EC34E0E1895D3025ECDC0F27D2F5BB7336C962C143F4B999CDA474F057F92AFC952C2DFA9FC9564540827C876A4ACD82379F3BC8675989F800504B030414000608080081583144F2A0D27806010000B201000008000000636F72652E786D6C8D
311
504B6EC32010BD0A9A3D36386E9D4498C856E31374D51D35C445B1C1E213B5B72F24AED4EEBA1AF4E6FD1876FA5C667453CE6B6B5AA00501A4CC68A536530B315CF01ED08933676DF8450364C4A25AC8307036391BD70D1AAD09CA64D458A9365078AF02A0714E8F16FCF8A11651881812C35F8B558C5731A982160F1E6741
311
2F3FD2D1291194045E115A6342316D5E293D92FA48AA3756662667316AB9456999D2F5452B077CE87B727E69087EEE861DAE9BBEC7879A74B86BBAC3F074AE867D475899C59CF9E0D29F3793D433202F6E3997958F1567EFD6CE1B219592C89AF90B7872C88B3FA5E32AFF515A9BB0AB36C387C203A7A9D07D9182F305D3B8
311
9F37CD7C6DFE0D504B01021400140006080800815831447FD29B64DB000000200100004F000000000000000000000000000000000032463437443234372D373438392D343743392D394537462D3431374433394331323335442F4173736574446174612F446566696E6974696F6E4974657261746F7250726F706572746965
311
732E62696E504B01021400140006080800815831447C6FC79A320100003002000045000000000000000000000000004801000032463437443234372D373438392D343743392D394537462D3431374433394331323335442F4173736574446174612F496E7374616E636550726F706572746965732E62696E504B0102140014
311
00060808008158314488E57597CD3F0000904100006B00000000000000000000000000DD02000032463437443234372D373438392D343743392D394537462D3431374433394331323335442F5265736F75726365732F44393542423433432D453430372D343545352D424545452D4137453530384136303241352F7468756D
311
626E61696C2F302F67656E657269635F706E67504B01021400140006080800815831447D09B9F3790100005E0600003D000000000000000000000000003343000032463437443234372D373438392D343743392D394537462D3431374433394331323335442F536368656D61732F436F6D6D6F6E536368656D612E786D6C50
311
4B0102140014000608080081583144317D3058AB040000AB1500003E000000000000000000000000000745000032463437443234372D373438392D343743392D394537462D3431374433394331323335442F536368656D61732F47656E65726963536368656D612E786D6C504B010214001400060808008158314479B77F27
311
50010000C203000045000000000000000000000000000E4A000032463437443234372D373438392D343743392D394537462D3431374433394331323335442F536368656D61732F52656E6465724D6174657269616C536368656D612E786D6C504B010214001400060808008158314464230455510000005700000047000000
311
00000000000000000000C14B000032463437443234372D373438392D343743392D394537462D3431374433394331323335442F4173736574446174612F41737365745461626C654F66436F6E74656E74732E62696E504B0102140014000608080081583144F865834058000000680000004500000000000000000000000000
311
774C000032463437443234372D373438392D343743392D394537462D3431374433394331323335442F4173736574446174612F53747265616D56657273696F6E5461626C652E696E66504B0102140014000608080081583144B8BDDBFB340100009A0400003600000000000000000000000000324D00003246343744323437
311
2D373438392D343743392D394537462D3431374433394331323335442F4173736574446174612F636E782E786D6C504B0102140014000608080081583144CE88E879E30000005E0100006700000000000000000000000000BA4E000032463437443234372D373438392D343743392D394537462D3431374433394331323335
311
442F5265736F75726365732F44393542423433432D453430372D343545352D424545452D4137453530384136303241352F7468756D626E61696C2F302F636E782E786D6C504B0102140014000608080081583144A233C2345D0000008000000065000000000000000000000000002250000032463437443234372D37343839
311
2D343743392D394537462D3431374433394331323335442F5265736F75726365732F44393542423433432D453430372D343545352D424545452D4137453530384136303241352F7468756D626E61696C2F636E782E786D6C504B0102140014000608080081583144BE89762363000000880000005B00000000000000000000
311
0000000251000032463437443234372D373438392D343743392D394537462D3431374433394331323335442F5265736F75726365732F44393542423433432D453430372D343545352D424545452D4137453530384136303241352F636E782E786D6C504B0102140014000608080081583144EB1E31B87E000000A300000036
311
00000000000000000000000000DE51000032463437443234372D373438392D343743392D394537462D3431374433394331323335442F5265736F75726365732F636E782E786D6C504B0102140014000608080081583144653531D1080100004F0300003400000000000000000000000000B052000032463437443234372D37
311
3438392D343743392D394537462D3431374433394331323335442F536368656D61732F636E782E786D6C504B0102140014000608080081583144E3603EBE7A000000C20000002C000000000000000000000000000A54000032463437443234372D373438392D343743392D394537462D3431374433394331323335442F636E
311
782E786D6C504B0102140014000608080081583144606A99757E000000A30000000700000000000000000000000000CE540000636E782E786D6C504B0102140014000608080081583144CA1DF9C9A9000000730100001300000000000000000000000000715500005B436F6E74656E745F54797065735D2E786D6C504B0102
311
1400140006080800815831443DEE336E64000000790000001B000000000000000000000000004B5600006175746F6465736B2D64657369676E2D7061636B6167652E786D6C504B010214001400060808008158314428608FD1F8000000960100003700000000000000000000000000E856000032463437443234372D373438
311
392D343743392D394537462D3431374433394331323335442F4173736574446174612F636F72652E786D6C504B0102140014000608080081583144DA06ED28F30000008E01000068000000000000000000000000003558000032463437443234372D373438392D343743392D394537462D3431374433394331323335442F52
311
65736F75726365732F44393542423433432D453430372D343545352D424545452D4137453530384136303241352F7468756D626E61696C2F302F636F72652E786D6C504B010214001400060808008158314448AEBED3FA000000960100006600000000000000000000000000AE59000032463437443234372D373438392D34
311
3743392D394537462D3431374433394331323335442F5265736F75726365732F44393542423433432D453430372D343545352D424545452D4137453530384136303241352F7468756D626E61696C2F636F72652E786D6C504B01021400140006080800815831441AB8FE770D010000B10100005C0000000000000000000000
311
00002C5B000032463437443234372D373438392D343743392D394537462D3431374433394331323335442F5265736F75726365732F44393542423433432D453430372D343545352D424545452D4137453530384136303241352F636F72652E786D6C504B0102140014000608080081583144BC3CE88CFA0000009601000037
311
00000000000000000000000000B35C000032463437443234372D373438392D343743392D394537462D3431374433394331323335442F5265736F75726365732F636F72652E786D6C504B01021400140006080800815831445FF541B6F7000000940100003500000000000000000000000000025E000032463437443234372D
311
373438392D343743392D394537462D3431374433394331323335442F536368656D61732F636F72652E786D6C504B01021400140006080800815831441A9D9242FF000000D70100002D000000000000000000000000004C5F000032463437443234372D373438392D343743392D394537462D3431374433394331323335442F
311
636F72652E786D6C504B0102140014000608080081583144F2A0D27806010000B2010000080000000000000000000000000096600000636F72652E786D6C504B0506000000001A001A00210B0000C26100000000
310
504B030414000608080081583144000000000000000000000000370000006662782F43433235394643392D384338432D344441392D423936432D4342384646303145353342412F617474726962757465732E62696E504B030414000608080081583144000000000000000000000000350000006662782F4343323539464339
310
2D384338432D344441392D423936432D4342384646303145353342412F76657274696365732E62696E504B030414000608080081583144F270F1330600000004000000360000006662782F43433235394643392D384338432D344441392D423936432D4342384646303145353342412F747269616E676C65732E62696E6366
310
60600000504B03041400060808008158314488E57597CD3F000090410000420000006662782F43433235394643392D384338432D344441392D423936432D4342384646303145353342412F7265736F75726365732F322F305F67656E657269632E706E67355B773CD4FF1FBF73E71C0E67EF7576C9DEF3EC995D46C6A1EC50
310
46649CBDF79E192942562825CE965D8A868C2842C8DE9FDFD1F7E7F138F7078FCF6B3F5FCFD7EBFDFEC41B196891913091804020321D6D7513FC77D8C5070EC3FFEE51B21F068154CC75D455CC028A3EA68992803810109FDDE5D5CEC5521B28A1B422BF80741695D5B529DA1C2D058AD2388BDA9F476F7C2CADC939304173
310
DBF48A452BF8A700C0C70C3D121C1AA15A5270C22E2B9E28763651F7DA0D12CE11077B2ECD0D560B5E3DE2368B1E65C5E1C87384A4CC5F2D9FB8BE39E9B77C753783A37998F5CEF1B4FEE553463245C9712270880DF339E0B882A6BA713D865F6F384C842D440934EF264F4A304F8DE4EEFA1E2BF5E2D91F5ADD9613D6E31D
310
DB33ED31DB1D7916CAF091286EA3D31B9CFECB78BB0060245B943C4C040119FF780A74DD308BA9D028678674EB5504ECF284EE814DAED07440BAF649BE4B55DA2890F4D73E2D489A59EE54FDB0A85B59F2F52C4858A02705C4815A792B0C4A996A2023ECB195073E115E3E3647F64243A8338F2000BCB58DA5692C7E7C3D41
310
3F963FEDF3CF00FBB0F831A9D51360FECA43819F527B89FA260EB63C5DA676830AA3626A3693B23F1A17A0DFFCE3EE164E31B5365EDF0C89EF64D8E38AB0BA9A1117D7C3A0EC44F44F4023095E80BA610DE336D0F99593A88BFC5306E72DF98F7FD132ED95878DF2964EA7E43071359FD83B2BDF9C6B5BDF768F0F3C0FC351
310
199526F53D9460A34511F75D1B63E488178569472C91A94497807A3FD4A390C6558F26D416365C3656DE6E769DA9D8FC73774E1709812842DD8EF96AED1960F79D21B395CDDFE6F92CB4EB962A4668C76990E2EF29798C8941D67DA50F4A5F947872460F1F6FDB794E8A29FD7AC0C0D6E0714339CE258FB17AE8535221E346
310
4A10F29A0BE5EEECEFC5675926A89F49EB14E5711894F6586DB5754EB4D5DA9C6437EBA57DB97A24F8B8A8DB295FFD73266CF57E82694DF5166DDF93573AFE9C9C5EB05F8FEF8E89E0A8917B0B3724DB7BEBB53252581EFC3E38166BA131A3A5B42FE2AD00A769BBFA4458D2DE7822F8C4F63D0B8E21B285AE13325F3410A4
310
35C648C9D91FDEB109E73CEDA7BC796961AF79175E1A3CE4C5E8B0D009B0C9E29EFD98BC8E97554E3D8D838424E270F7685226E5AC268E021EDE3522D583E8F20C0BDE2959EF5BBFEEDAB32FE9A3ED0E39F211A86AA9DEBFC68182EDED132AB8BB794442D2D7EA9F4D8BFF52BC4D55BB165124EE90A42D101E67BBBB292FFB
310
4F66DE5BF2300E44546757DA7CEF8932BFC9F92A0707953491A55C5A5ACEDABD9FA1AEA01BAC3DC5A24E22E7C47213493996EFBC369D086ED9397C9BA6C7F9855C7BD5E15BFC8C53DB3D2A4C5901A57ACD2FBDF4D1676E95338B2C2BCE65FDA4C64F5FEFDC7D9CA5AA1FCF11E193F2FDABF0F4916BF13FB916A224380E6462
310
A9815F2300DC49CC4DF8D055CEF76462F4B7A7ACA7365C2707891370BC1D0AA6203C44CCAB47084FEC057F27FFCD57F89B8B9852459798A675C66BD7CE572CAF71FF7E6D7ECF7BF62CAB7B3F1107DCD04DC55A3F9961700286141C94A4F771FEB2BCDA2DDEE0CB0BAE402FF1DB0100F8E475DFFFC074DDB4498AB7D186A765
310
4DDB1CB680D703D47CEB4E72F8CB13D86A4AA68116E26387B93FD6738779B34FEDB8E517EDF2BAF28D9BE93A1D3A164320E07D42E514725C29515FF361754213EDE06B079A2E99EB1CA82A02019EADEEB87B9AF005BD04BBCECB14AACD6B24EFBE482194A97DD32400685FF1FEF1544D1B14EFB1E7F08E6D2CD2AF52DE757F
310
35F5E62332EE88EA26417AD5C3E0E319D68F25414E6D672BD4522B278C57D18F0113921C71D96527E091F00CEB15AE23D24667369BD3CEFA10C7549D930890BA4366F4EBC55F01F746109F98ABCDD5A3EE06619C6AD78AB33E48E4C9BD21BF7478B385EC05C4F8987E2C1BFA0A60EBEDAA0AE0B015C2720ECE180FB6F2DEFB
310
EB822D96338C9B63822183BBF52FB664A7AE57003AABCE512BF77E7E31BDA2E739AC4C131657DDFE5225E900FB56CC01CDE808FA4A9C9DA16AC679656BB64796283D89812B8F91136AE18EE5EBBAF47A73BE3C153EB5D4CD491B4BFB4FE690A4CF9ABA08C0D8AA64220C438C96EA6CA80B58FE5761E697B3A292EB9FBDA502
310
FA863E49FE694ADDFFF9D62C520BDD1A22014147A0903A05B9B729F54272EF83931FEEC057BFF8C8055C279EAC5C0011804828734024F6CFA319C9CC6867C727184465CD9BB7ED386AFFD96B294A85E3802FAE47244602D8273615952B98C4F23F7EAE4463D9D638EEE374A20959E0FE519C4CFB0FBFE5DD80C2AA3F9DB961
310
D1BDE57E67C9BB47B77FDD74EE3094F5DBBE3EBC1FBDB7393F5116263009E2EFE1AF9A221B2AE234C902BF70E9F280ED23E73908361565964333A3F01D0B006AF32FB21AA1316744B489D5A198E85299241735BE559675130955C902A8ED761FC0DBE337A9F91919AF5CE32AF902ADF9AB2615E00E8A94586BA1A90839B618
310
32FF1BFB76D2EFADE6DB1BA04CCAD3DA649E7E2A0219F592E22F2AD54847EEA8E42271011E9074F8F3DD9FBA6CDF88FFC9FC7E811AD1CA8F4557CE4AFC7BBEDCF0114A48689F20A584520C74DA8127124B767E2FB91A6B186246727BE63C9445BAE02088D58B8EFDC0F1072407CD9B89A13F6303B4A928F593AD489B58E686
310
9325790ADC406036C591729FE14021F94B7796BB11848D463536A092A26F077F94639F7CEEE2A724C66EC885F4A24F8B8A0AC321F8FD149BA529460FAA34E4663C02D41FDF80BCA222D42F0ABFF8490F4FA74C673807C2051D8E467B47B616072860069A9A303ABA9B319D58404461401B0A0F9BE5E1E151C14BC33B32ABE0
310
3DDE91708DFAEB15E7C0D593C86BB7D7EC17BE56E57975F077BFD5525F3A1A361D584A75E08CF29FC7B44B2B3085014F3A5A14517377C3F6B8F37E59514C3B12F8AACDEDDA4DFC49BE5710101534CD6FB6DE15B50F11A09472AABA727F0C49D9CB906B158030065F48EB3625E010CEC1D511D0053474B11E6A4F01C0D6EF1B
310
ED3A944FDEC70E0DDCDC756C86545910E0DAE3BE3AA9A404574C2995CD5CAF9549226BC94B4F4F0F5F9086F418F6B32346464610D8BC7391D3C3A3CCF04CFC1FB2A3A3170E369511868F14EEA4E5E438CC73DB1F3248AA94B6B2FF33B222FF3D1E7BF146CAD229770158063BCE4F5391964DF62F7E52A7BE0EEA829C9E13C4
310
C147D6F93FE59E111DAB5E4594D6F3CD1AD375EE039930EFE5AF2BB2D41C83C7DABD8C659BAFBE8FAB392CA634F3D15C1D945DB4588D2B0824A4EC928AAC565557CA2F0DAA588CA5BE30B3A8004F7BF005E96CBF891D7F18112A3619FDF530DC8AA64954258E1811789B5189B49B4EB53F5F89F7D37523894F3EB57B373763
310
C91E502F52CC99EB7BDDF933FC324C4FFC2561DFFA7339FAFDD0A4BFBE6D3A8FF9ED1FC49898139864602458968913181918F719CCF5A68B2EE9C1FF050E34E63107003B8120FA982C21B30A874E4F5E4B38D5A8290C4B8D9BE48A0BE31EA995BDC37AC6DE90BA17D259DEF53605D55922FEB1855D915B659FBEB350EE0DFB
310
2F9F766E1C84CC8964B75D08667445EAB966015F63A18A9E0A325C1B3DC628C0D3CB60F767FA93CC65F25458BD23C3B312716E5F40E5858AC06EBA9AB14F95DB99147B832069201541D09A0D856E12C629CF32683760EE855537D1901988D5EBC156676C7DD51D7207CF3267AF1D76C2AD867315E44618015313A98B19941C
310
696FED3461CAA9B5415F918556D7802EDACEFD6B2E45853A9735DFC9DBF7E440F9319F8B6805A973BCCDC76C069A9144E51F187EDCC12FC31B5DEAAF0A76137199B106EC84ADA6B6EE697D4E6A96E007417F4E880E8B1E89B4BCE9D81EF611E2ED8F0C1A6C25F620FAFAAB656A7C42D464880E8AFAB0E0FC8EA38CA9A8AEEA
310
EE3E4648BA4680270A89743CDD3E6C6CBF34B7B640EFA285ABC7EA0A1E28F3CC963D114A80123EE66D0AF7D5380EB41909B605AB4765B709B808590458157E69BA1378FEC4B48CAF6A730E3BE3C5EF2DD1A5EAF94B1DDE50CEB55DDFD7EE9A16747FA4B223359FB1FCC69E1194892BABB93A1D5C4E807AC0EA2E30180811E7
310
7A2291F6E7F7FAA5E0F60215BC6024E48DE436C511F0628B8CA189982D4D83CCA17D305A7E923C37941CFDFDCD93ACAF735EF5F0E61BBD3E6C41A59B242790D3A3BAC7064DCD89AA2E37214EC839820949D5CAA31E240D2948E48F690298974A96BA9A8432BC90F5071D6537C9666EA4564796B7AFFFA548077BEEA75F6308
310
3435074BA182F3699557397F71548383FDA8CA34D99B981E72835ECDA5DDDC151315173D05A21F651AAF8524E88209E2E7A737ED1045800CE3390050BCFB8BE588DF111617874C62575039CA588EEFDEFEFE319B739DE2EDC147092A262611E159650E787917885EF08F1F51B8F2D8A71D60B58B190FEF9541A1BE94BC19FE
310
A50784DA1419FE4B0FB51B8D36B5FF8E1286FD8AF42B91E59A5F1CC4D60174E764045FD8C57B18209B217F89A62252BD20BE0E63E12B8E8F029FE19E0E8D0870F58721A557082250D5424F7909369376E41666C0EE77CD87CB283F661D5FB6D0DA023CB67320A20DC7BE661E9E1BFE5463085C557DA1FF9BE835733766C3D1
310
39F2CF9E2208873AD0EB4814DE9E6BF2CAF81614D4D43906ED1C05A3265CABBFE192770FC2F64F940CB6B17B5F166F133C9AEEAD2641807C3E69515171DD74C4A85311513D6EC9530B3B601B6BA3EBFF3B5C3D2F7D69765141E345F75433953D013ADDF8F6AA7DC3F4A7563FE5C7D367937E2900D7EAD0F9FC9A4A1A9B5BDF
310
1FEF08532660C01C5D6DE22199AA774383E306DAB87E301ABB7D213887F9869D4942D0D71E94B27EDF216A318BD488D45DF84529EF575AF3C3938C0AAA0215B01994153E2054A0B894DA5C784980633AAD48576957CF4AEAEAFADC7C587368551C73DBE1E57C58AC713303A8BFC258BD04B51724459FF9E24C03A81E0E0679
310
CEB9B348C0DC998FEB9C6D6EFA77D247CC8F92D3848599ED89A23218D0636465AD1CEEB7DC140D7426F83491C4E8E8281C2FB35240918FFECE880CA2A42D70E8B20B34DF5221C7DB0CF90ECCB9C745B37A47E9B716FF7A97B7A252C1F3814DC7B1E1A7F72B8751D524EF7CAE45B0C73B3BE7D08ED39781B380DDFC9AA4A474
310
9C9493DB5BAD07A6EA6C092FBD0E85DB004DF06B8C9D3089C5320187E4CE1846158C7EA7DDAE8AD9AFFF21AA3A1026BB06A259845E8232DEE62811A4DA9CEAB3A4887320B76E2AE5615EAB7BDF738CBDD01F1E64064BC13D9EC53576751CA8CACD58B3CEB0E6CA585BD089B2A59B9FC101403387AADBDBE70586B93D64BF3A
310
D4453EF9C3B6A93817E8346991798601344F79A83C51F3D50F7BF2683A3605F51A72449489E0EE6169C749C60B1035651103AEE24D24E51A759C840DD3FC6504DA6FE107510E447B43461C79D22970B75DE5E1BD3007D1AFC619A4A4A69B5626AF5E9B8374E20677F77E2F8E73DF868E8BEC7EBA7B6A75EEF7205E1AB9486C
310
B642741D6E03FF13FCCEDB1C4AC129886268B01CDF4B124AF797CF784F3C6DEC97A17D4B558070A0F1C04DA4FF9BDBF34159AEFE958479824B3F58EBD1E19088A2AFDE501B6F2052368A3FD0E650A179EFAB1561E1D27527077136E652676C3670F42DCB3352F48F6BC86D2C3B0051727E41A0A4DC6CE2BE9D47F5CAA2935A
310
3C0539AF080665997194ABECD723B08129CC5B6B21D2E7D54CD4D12610E7E9FB8306771A89576C7A982002775ED44F3F744CF21EEBB27A631671D921938AAEE3EB0D19CD1E083727F607823E817BF599DCED5394E37EEBC2E88782E638920CA641EF74D4CDFCDEF06F4278ECB18E31E7E9876F2D783C8BF429C75395F57E98
310
C2B495A3DA077EB3AC3C158608B6B57FE3EA48484D9A480096FCEE0DE880950E7E5A5714131C5C41AAA29FD19AE81AC145FA1B9E85C7169A5AB837B213493DF7E9AA4B5FBF9CDEB36EBD21EF1181B7CF7366AB2A951D01E37AF4EB835D1BE8C117CFBE7625D2EBCDB0B20C5A4B45CED0BCDE3EE8DA9DA78C2E21DEAAFFD119
310
7E463C33CC6A80FB785669B856EFF7A8CCCA2841B5A5369173320B1170C368B2748D81062EA0296E5E2D95D7667A4A46D98A6FF475C76AAB0A8C8D45E226FAFC9FE0133EA9F60111F99CA81ACE03A1D14C89E8B0D69079C91464FA1D99E651D0EAF606F345C42A8A1AA9BA391031582B96D5B4176A77AADB01F12FD298A75D
310
EEBB2C82F0B8650E880722F8DDD90C56A7A058E5FDEF1AC93545BA27367C76F5D8F9690CB6F8DAE141EDD7971F0FB548A2AE435F224D6E5954CA155512F7332029D5A1230854B79F258EC5FFDB09F5F6343A8EB193229B7F7E79B3E48F8E183860B38C8269D1B53738FF1E0BACF6AADA6D4869E9DE708E79B5DADCC09B1BC7
310
6F649731CFAF59A83FD8BAE4C749D66FA87A3810D4D62FFE826FA400C0F325D2BC0F3CA35F5847B82A2ACC7961745C823E4D863D54460AF792CE6F79B5C7A33B25C3AEA6CDE15A919B6367D781E9D44F61BF828672594A3E1D9EDD6DF179A81F27EAC05B936575D73E05C209DDD2115CFB705DF9BBF3C911589B3640735E9E
310
618FC9C36A7326C82B2205E244C55D56FDB9D5DC93CE958D4BF8174D2B3DA54CB3C09F2C2A6DFF73D23B2197355761AD421EC581284A7EF8DE2CE3497C0C804D49B41DFD6A7360844E5BEFFB495CFCDB97A4595911CDBA623274CE852B5E278AF0BEB1770E9D37CD977B2766A7DED0E94B840E1E95E8C77DE5CB6354AF7871
310
427C28ADBEEF7BA0A28E19DE9ACD75F379FE373EAE6DDDAE3834692F9C2B03B4FCA8FCA9ABE8EEEBEBB725B88A7C90941E850682CA04061A7DF0CE82ED49BFAFFD42C309818FAE14755CAAE78B0F73243ECCCAD7DF58FCB9CDFAE7A4D3E6671A613639130D056C8383C8F4FCF4808C331E544DD26E4755D09EA05253B3049A
310
1E32587CC25D72E073E2CD96D04A71BBCB0038FEC3F53D254199C3CDC67CD66640269431860225392B2CB3ECD0B4498AAE78BA1994246AE1EE78F2EDFB79F6C6CB6B5E279C4D373FBC21CB2698C9ACBBEB6A4BB6B39E16AB0E421CCBFC7654D81ED86022F9BB522146F9F4772E2D0E4FA70120C95A85A417BF5078B232F475
310
4363EB1750B2AC2148EB46B1EA72AD9B4D23ADCBC589D70106C3EC2ABEEED84DFE28E718C6C83502C28E9FDD3B09DA0A6F6F7B72B706A31C9E2A331EE70DA56A083D2177BFD63C55B11D8D949FAFCF90B23A1E24B9B5018B9A17E99F2890EC302F330FE7936E2C23F0D237EC8916F5166AB84B62A21BB0B950146962D754F9
310
2CC2C8877BED8FC7B7B25726DD19545392570B3A2C66B58F027BEF412E552D12A588C4A3CC5C3193FCB3485EFFF700D0B9EEC077754A33DC1FB9E25AF814628F91DDFECB667D3F7690803F38D13F8AE39353523BB08FC6760144AFA2CE28236F65EDBB3D5F59A57D612B99E3D7E5F8A851666BF9B5A6658EFC96EEB37A378A
310
BB0EB3FDDF1303AF32C41BD1C8560745D7BD81066B0D6313359CF488563D3BA3F8E2185D1FAA3EBA1397C9D0E3DD232180A4DCADB6AF25DB3AC3CC26589C8239E66E81547BC7E2F328F9884764CA37EB5DBE390DFC03A5246B456A7C3684C4377D0EEF9A350680FA9A077E8B2957B489E09AB1AD41316944C2254B5984830F
310
691C93CAA767EECF976FA5647538830B5E63236A6F0365C1E0F3E327F24FE35EDDBD7360B0F7374837409F7A6311BECC12B7026D4FA1AE204FA3F5FE904B1F420C7A9044AE58E403E7C4848E7DA25DC9EDAC79DD756FAA26B9EA83ACE8A214A2612A22AFA19DAE7DBAC5F8CDE1292A485F98DAC731A29FE01A3966E96BCB9F
310
B5A4C8830E1B9AF0C54B87FBE221A097036E5D28D1F869F810C06A9BB0AC0612F69AEBAF893C6E7AD59460208BAB3A6B09CA4F6BDDAB8CF0D1F84B72487498395A70DCD754796E271099A567A55CF242BBED64696378BB6CF25EF0FCDB589F3A82F1116D010A9AB9FA4358809EE0C973A2B4229BAA876A70B03AB49CBA7FBE
310
71DB1832FFD32F9BF2C8E98075CACAFB36921235D0F552B6A67E94E094097A5D7DF681B40623DA535ADA7A9AD8E9A62407D7C9A5AE51D62A17A83A23728DE86BB56115804D3F2675F2C6B87541A0FC497BF0CA86420F558C9859EBE9FAD62747E323E3AADC03FDCDDFE7407B09DA90B44E3185723C5381EAEF589765E2F7A0
310
99BA46695BAD60CEF3491B8A171F5F56444F7CE9455312C3498C74173AEA0214EC029833B34B650CBB5A5508D5091665309642791708ECF27CF11DB3D797D6CFE474453BD4BFADB768094B2147814D81C7CBAF8228DCAF5564B5891F5EF6A860EB2E323CB82AB868D8EA048880D63B0DE5341F1B3D53297B928A11E15F25E5
310
148990F710747C3509ED14909C552EBE3973246FCE55D00564D8310BC3EBC5085D08D806799B77D6C57FDF5E55837F9E934F09C03C729271B64F12D0A9F9E938107CAF7BF1EC8CF1BB9B42363D33070F4CACB425E605DDB0A34A12BB936DE286B9887A4E2E558F0886498BFF49C311D96C277CF6A9FC0D75AD0ECC5226D7E0
310
E3572012E56D7FDE4410CEC7A6D0F997F225A2055B8B92E3956E875AE4993CB3D4C9063AF98FD45E1BAB165640A43439A2C9181A7C355B297C0A0CCFFAE19B6FA3C2BA238A885FBC98B8F6DAF4B94B97304878DF4D8BFF6A4AEDF79E90ED4E68F00CD7299F4E0D83E35601AF0CBEF18C1E870E74758FA91F5131075004DB3C
310
FCF09AE1DABC11957FD9808C92E8A678CE9DBE40DDA0E0D1D505AAFBCBA208232BFB6FB3704E8985E61ADE53DE74152F5C7DE74B1DEDCD37DC3E8FB30D7EBA8B9EFFC3606BF90B8D438279CB7709FC7C00D327F41817EEA71CD9E49FE9C8C9A81C70915D9F0F15958EC5AA4C3BBFAF46986B90F188BDB24B89DE3C6F29EC3E
310
6F66D84856EE96A35E657CA41B41EFD8DBFA16AD6E91439EA92B40B21C053249F51AE50EB0B24C770FFAF40DF12C8436366819C48E36547D4E7B72FE2BBF10828583057814A668BDF183F6B2E58DFB151103E56303E63D00F39C27C4661605DB644D19175D02E3F0241E8FC3458D17AAAADB117CE9EEA690D0DB01E634878C
310
04C2C9310B69FCAB831151E3AD293BEF6E46B0ABCECB50F5939B39C613D41E81FAE8D34CAE3C4566B761D37185FE864AC32FCB71AEF39DAA5BAB88609BB980CD2F07A8F941653B529567726E2B2A58D079DD57E1E5E31426CF184A04D7B03B985F276D47406AF276FE32E3328BA866EB1FD39BEF57863A317634AA5FE46740
310
9B3873F5069EF0D71AF00AD189D17BA1974ECDB2D623E9E14086386A6AAB5807825C37B015BFE892AFD154920EC437EB945D958E18622E1E0FE2FA06557CE4BB9BBD05A2D40E774DA2B65473791E314B7D6C886820B2FCFE4AA272B3B8B15E7344A145E8AF919B5454D89D36D413E87211186BF6F645E5EC94DCCE8E1C7990
310
22E4EC9BC86D7A0F2AFB1FC4B2CE48F84B3F49ECE65BAD24CADCC07EFF39AB06BE9E6B27A059938EA7208838455383DDBCFCD967DDE4650EF92A14FF933C975DB20BD7FEEBC4487576485963D757D16340D9599FEB362F775F38CA4185A86F74B629C81B133644A3B18FD056E997E0734F9BE26D11C0AAFC669E2AC9FC41D2
310
81F8B2E1C35AE27BCE05F3DA295488096688719D974DF1B5D182DB7792288697F8763CFB43562C1CDEE11C4AABD5C22B6E33F6F389CFC3477C5919DC0D533F8A7A1846B7ADB60ABDC26C43D0CFC8910B7C15EE22675BD02702ED39DB77A87A192CA7A543E6205B979B9F5A6B512A3CA799E198B2D5797C0AF8D1D872CA455D
310
4D431A7879D4DD76110B5FF7F4176B54477A9EB5E4A5D11214FDA585F0382751D8E2582BA5D2075053298FEB8F1537304E32CB22C2E2B693DC0A760B1DFCA751BDC445AFDCBB12820ED85F6D5298933C7EF1211E9E057684056CDA3FEF3BB6052355E162DF27C59E965A8DDB7F9437EB72CDDA3A090DE65A5B2F50326247B7
310
EC67B73ACC7047FC9B353D6EE990F772207C6EC52B39DC2F3C0754821DAB559F7C1809C7D0DD5B0499D0442E0A6E391B3D5DB46D11E731E6794EC77523FBDAA242ED67F9FA1FB684255671F63C9BCFE6E7E896D51001A6113EF2298BA494E0B0980D1FA5B9D60796554C02256B1E0345FB7C6186B6A19D2DCA270416262845
310
FA4F42DB5D9B0A0B6F07FCA2E56C242522E001E0CEB734AF310FC8BFB57E38E03AACE93B3326A2197891E68452B26A6307FDABFEE0223D3C03C3C73D2D5BC054C8311F12004CAE488E5C29287F8156A2CAA4AD0D7BE6B97264E4139F437CE73ADF52E5134C52B819777C18B323A5924E4F67AFD13B1CDC3A61793A79FAF5C0
310
CEB718E441071E797C6DCCB9EFCF7E4A1E9F3DF3C2F9C9E8294E9586868788C972857FB0556D7A26941A7EEB9B580AD78EC40B85DC906B4120A563CA3B87797ED612D3B035962BB75F6515A393F4CB057F564CDF54F2E5A024514E6A1F901DB80C7E70B1FC05E356A7E72FABF4775B3E3FB8F70A2A8E7B6A94542BB3041579
310
78CCC999E707A29CC795E67A59CC546A5D47B368954CA7B6E75EC9E1F6FC73CE3B4F71F8CB1A6B15923D61EAAEB14626AAA9D04A26EB9C66CD1BE86CA31A5D8703DE04CD1EBCE4F5CCB62F93909AD11E55799A781A956ED27D3E738F4538CB04ADABC7DAEF20BC35BA6A90BCC1DC61BA05F20D8832FFB9BC9B15E2DB838A0A
310
FBB7E0C82A562127E0446894F427794C3037186F622BF24DE1B00AA10A23BFA47B2A180D6DA5AD6F7326FEB8C100C2D7142EB2A0B2A9D1008A09BA343D70E054AB69E2A7EDB783CBD92537FAF4A44D1296AC2792729104B3276C276C951D0CF3CF3F1E6B017720A7B8505A5FF9589365979678C36F1BAF759EAF57C60F1FF5
310
FE9DCF5F8E764FF25A2D06CF25117A8FED51884C13B2B750DB0E4F5E3D64124FCF11F0AD8F1CC3B3DA4B38ED22BF1CB2585EE6BFEBBA63FBFD44F9537B9B37BDD6B358720F98A8125AED4349CCFEB0E135F19E208A04CA7E2B10711185D72E381F448036EF57C9F874E54A971CA37A639E986AC0226DC5AA00D5B14FEA9192
310
234B3DE617814FC221C92F33F1D392F297731B567FD98FD91D989379AF567A65B8ADF177591DB90FBEA99BF4ED11B16E50A0AB1DBF1156D034BBE04D69D08F939D8E92BF525A1DDAFF80ECBC95D8F45D3FDD289FD23F7D8B452F8EBB34EC082DEEE68E18EDDF072060FAD2AB1504DD4879BF67099FC58F6E9DEFBF645D1633
310
4A3E9A127C6F1AF6132CF287E433B43A0EE93812B4AA0B194E03EE3FF91EF9C6ED0074A2F6EB18A96A7C9890B1FCDA1F2095E944DB911ED54C60DF16FB74C8CE9BDC7C54C4F14078CF73C2FFF1F1BBCCD7CF64F71407EA1683DBC410D226627F66E509060D5C0AFD611DE681D509DB8DD12FB1265B03C6F5C55FF4C30BD941
310
87FF692B4F152982502F193098A789526A038AB529A52BC0DC4FB6285CBAC10A8B8DB75DCD9BDABBB221E27D1F8DA9F5EE5926A1C8AA9BA9BC09239C6A7F12914EA3B59EFF7AAEC3FFCCE56F1C5C2980AD072793527565E774F4631DB178CEEC691B1F367BEA0CF2907E1D6B854D527065979DDEF002D8B2ACEA7CE21AE297
310
737EDE1D45B31233B73FEA35BCFDD0B09721FDBAF6432681F2FD10C3E9EFB246FD6E854B344ACC9D8A0EEF876A7314B49B6A499FC650B099D650DBFEC7638ADFD245E2B7839DA5AC5F7D5623FC0ECEEC8653FC9B2BDD1AD4D00A566FBA7186DD3C9CD26512551637498CADB950FEC71ADB9A5524285DE328B8EC7EC75D2345
310
AEC6A27C42AF6D9B92155315C80DBFCABBB7DA0FAE425C4FB896B15C9BFAC4FE67DF5A23D30C93DA4D8F36FB15D100050DA6062E22AEC5F4DAC4F6FEEF97AE05DE63C6D38F9E068A20BC5E3B6BCD75320C5090924E7F93640A7735B1A43451C2D91EE62C6238B797349E59890AF3A520DF4A87095F3ABEC2E61F0593416CE4
310
6CDCBE0E00E2523FCCD04408588B5B6C9DB6459C786CE378770B54F51DA3A5E1DF2A3349BEAAC234A6CF8993B598B3B25B4B113E353A4D750FA7534749430F3EBF2512E7EA3FD43C6AB9A1F765A58463B306721A15D224FAFE8C6F5E3432D57EE697DA0DD5A9D4866A8BCCAAA9DFF1F06047851408FEC060471D0E3EB86BFA
310
F46E4B5E60311DC3E3CEA147C75CF971BE74689507154FF2D2E92F15CDB2B9182B11459FD8ACAC5A85F174BC94A7F4EE4C4F5CAFA7C02E37BF0BC77B7DCD0C047BC316F562A01A441AFA7931CC84A28CB9F4AA367EB515778F29BFE61195FA671F4352E5E46E3A64773F1F76EE5EB36D7BCE9BCEAD837A4D77F8DB8C92AEEF
310
6711920D7C7D0F76B0FD0EB7AB83724CD35BCA7D36DDDF5FBB7FF6F04A91F3E2BB3B8F1A43CD659639507FF6331C5F697BCC782AE57D757A27D97F1AB9E0AEDB43F92F1B2AACDF5FEC8ADBAF9F814E2027003BA2F9E144B1938A7A04050AE5D953B82C45619165C813A10E76DD6906B3C16438064D14CDA713AEC420034613
310
E1AC7241904A49FBF87409AFB1FCB9B72FE7933A87D8FBEDACECE4EDCF6A4FE9FB94D5DEB74FAB7CFEAE17EE965DF980DCCA2D04134994F9A2E94D2265DA4FE6AA7B7AC15FACAC2B5ABBCD7DFF542C5314FDAB2E1B9D8B65220B8E2B638BE008E8DCA22678C820C5053664D15E89F2D735B51A84955E81A443545E9FF787BE
310
0FA700A76D136C27DA179A7C6E8939E01BE756E19CB292798063D8B97F44E8A27BCF3A614FEB8BE974A718E86F7EC99B53CA35FA24F61F2B07266684623A3D4CF073E511F3A10A8FDAFAF0078C577F4DF9D339FE7862E5FA47CF4344209E5BF76D783B1B48E152AD281B15FCB934DCDA49CEC5706B1EE8B460F435324A5CAD
310
154725E21AB8044B75A557A79F6C807B9340AA3D92503E866F4274412926C8C504E4D5EF8C0E68DD0B028781A6B4054F11CF18941F101C57CCC796773ABC8DED9CD91FE5788806C05E548895354AEAC96546D55B0E94A59F148D061F42AA398D822CDECA4CDE79E13469BDCC44FDC990F366BA5978C15F97ED80CBFD73B0CD
310
9B8B83A4F6845BDFBFAF034019473FB9A63BD55D3A4A7284757071574029A4D016DCCBE95DD679EF3C4880BF169422F8C89B68A988D2B13793CAED4F74DE7486C72DC94DF46B8E93D8E02EFCB1FF9B3BA10C8AE7F653DF94F4AF466CDDCEF5776687F7C4C14B63E4EED1719DC2EC482D7DBCC7AE518CDE3D5FF86D39000EC3
310
673C0044E1D308BF05F74D1B5F033A7D1BE7F74BC55BBE3E4A20F920946CA0271EB17BD2B80E5660ACB8A29A79F5E4BBA49D4D945B6EEF4A7EFEAA65E5555BBB57A7E15D2F83C69F30BBB978D2B39F1F26FC097424D39BB33CA3D87ABF64E307938B685BAD44F71556A30B7E712CA4FE600613C3E554B69ADE949A7CFE214D
310
F1FFF05CB82151EC6FC31950239F94CF7AD39DC473F6EA356E5EC2C4EFA04383CEFE985A127484366FBEE3C0EC4FEA363E4F6632AE781392FD45D67B63FB8DF70E82734F431FD3443172A0E30A83D60982D55FA6A2CF86DBA8382502ACC6CDEF3B907982EED1160E14863FA242F9757347E1544275CCDCF71ECD5F8621CBEA
310
326B8BA884AD7F825781923E66971F04010D574C541D8427A438A37EEF8AF88240EED7362C953F5A81DE2D56109CDE2524EA0F5D2F87308C0C47BD97AD605878AB8589E17CA83930CB5E0DCCD75853D68B1AB136594926DE426C367428E9334AFAFF90ECE221BB5DC9E5BB53D2CDEF954EAA9CD814F0E5725F1965DD458E5F
310
8487683AD86B9D0076BE3EE91EB1CECC5331A67A3F79D8B27587C12EC2A6A70474749F27B4C0BBAFB94B34189E88DC18964BE4121B9137FD516C7755356E50D6714E31ACD222621EBBCD1CFF81D87479056A9DA0E0B8EA19D24CF937DA89F78E8650CCBDC110AAB6C4E46DCBFD0446BA9E2060E81F314AC2031E88135E5476
310
AC0160EF5C0DD2EEF1B8B5CB2D198BE9A554A9093B5F7D7E4B5407DDFCA1D9C152FD97F55BFFFDFE802954DFEC8995B983E28AC92F1971E28F531DC407A1280EB125F64A72E617EFB27DFBCEDCDA2D6F2BDADA36873EE46B9BE1782998C63DA7182BC383FB6FD15DA472B175D7E8B4FC88F38D6E07FEAA3FA3CBB8F6B449EC
310
F14D2175E5C5CCA3A42ABF24CA6C9395AF74535F4DDB38CB84F56614B0FD32D7E19CA5CF988DB4449C40E23DF2B16772594554579094450F56F253CD25EA7F77366FB1CFE79696C428BB64D5A41E986189427E5E4D7E2DAE3D5BB4972B3DC44EAABDDDD63A2264ECFA5C786EB0EE1FDC5BE34FA0F08376869FD1E61EA06CAE
310
15191135445EE8F0394161C3266A596AA035572BB0C8876180D8B9C77D307DF9DCDF7365ABDA6F3A2366436457A4DFC1F259666569A9E4A79C817BDD5610E5200FCE894A358EC72858D50EF67545DA81C6FACE3D457BAF70367E1E6BDD9A952FB4F56247F58F523B97E640246051A72F79BE42FFA0B3187F63097F91C48B86
310
8586F714B0EBD5A00A8412C1236E1298F60C72BE6C96B82B404CADAA304AE9F303176B14BA53FBC2D5E86377E35542019E24D97B96A49B2C0E5006E7795954DEAF5DA58958839043C6C70BD3B1B33B6DC5C31316D8A6923F142E26F6711A2258AF977DDF1F970ECC4F1F2B434B96D81BEB6E89BF3BBB3C7C8CC80505070723
310
D6D7D7D3C8CA27CA164A26024FED94B12A86031867241DA53D929636DA600F050BC40CE48B8BA03D69224720DEE2ED2127390BDF5E6EA64527BBD4C4C63FA76BB801FEEC0E61218EC98A8A86CD8313781617877E66692839B9468CF4DB8E50A73986E558E309C0D6F676F921BE02F1185454DC75B111572FF9D27D85EA14C0
310
5AD7271225B391C4275659CA4A43759D0BA44639BE4C30A84DB7F67A41399FB95CBF923B1B1672ABC807C1590557FB18D811983FA97F5E609516D62281D38B1281F68FC75528C35E4CD7DF0F7DBB5E5DD69C414EBEA2F4A5B241B996BA77AE6C772E367408C633EA3E438B68563EA8BE7667F3A4C4FDEEA52ABD78A2820F44
310
3B7914A15F180018D231E64519C56A12F6CA7C8DAE18F06F6B769DBF92329EF6A5D18FBCE600F36BD8E8198DE5CDAA96181F3A756EBA5501CEE58F497EA4F418A2B82565B9BCC611713C0B708CCA1F398B78C5F7D03B3437CC18F13061F55C7BEDADD5ACB1DB0E36D3CE47FF6EA1A563A57E9649EA5D14D1A50EAA45746338
310
1C073777EF1600607BAF6428A7DDC079D47A204EF1E1F1F0589FB054D45E02CE623B3823C317C601E589E22B1E88B448524B86A82828E32345EC18AE17214B42F8C41C6D428016D9BA31DDCB47572561E5A402E5BA4FCE55F78AF7268524AA04130F3A20BA5D1E9F9948EA48FC8F5314FDB35E21898198060034ACE5E3E2BB
310
CA34092518F275190AF65F45867FF0900AA4B81F25427414C372BF51DC29AA855C5428EE1EEDD6B849AD60F6E73475C2D2523F8A2772C840A478DED18A8C5C91B085F255DC4F54EA7AA8947354FD17ECF8FB3B4A0DE7B483CAF3A1165EE05BBA413E5C1FEF3DE1D6B8F2F3F3251C17D9FCAB48A9AAF63AC773A0E413BBC46A
310
9ADF84A566FC920E4D8C52C9769EE3301CADEEEDD92B312E02E2A7E35B7F1E7D203FE5A7D75578B06E99D0E46FFADB8FDA17ED8880390DA29094202D6F645F76F6F96409CDA05495A96E84B04A00D1A6C6C81D7F3DE9376E828CCF144EE50E364ACCE7237EA0BFB5607ED1AC3CFE73794E5B61739D14DF1743441B1AC98F00
310
ECEDE9E7301FA29755FBEFA68C91EF2B314CF510537EF1ABFC9A762496280B546F5EDAAF8A5B387D469FC9A878A92828C88608453ACEC6094DCA54111E7AD5B2663DFE2DD151B7F123B9F4FEF8EE36AB125FD7AD52A59B1B765B3E3F73E3F73DEA93875004D2AFFE3CDE9493B87A9904DD052028949041A91DC0E1BA47BA71
310
4343FD5B25E0A6A09503AFC17C790058A836A324FE31D7893512E28230332F153181C1E018E1124EBE1BA262AA428A518237D1EA7275E48C5C561BD19ED6912EDD8367DA0F31E40EEAE9683DA9257525AEA7B632B97119E17145A90231768A4F3B9120FF32E8319B015E3CBE26F1A754177D8185345817C096B0CE443A955D
310
13AC15E1FB5DEEA0239EC32A3C92241A237B0B02FFCB4F93CF2B02570C8D192E2F2A68CEEB42F12E6F8CEEFF46C251E22B4341C56FB08CCE550E7A9D6F4D6564B9EA52A83D5BF2C6E03FA19D2775E15A8A7ACF30A13C259EE7F5EF2AC3BA354F1500E1A07FC63FB4686E2F12EC69719F9ECF5FE3F35598DF2CE944008CE78F
310
0911BA5BE5D0A34E0098FF038669C26030BA9B300303039852A8F6F496341737CA7E0D2E3AAA36DE0A70AA7D9CA0D54D9AD84B18A44C9E625475E1C97B93BEBB38DCE7D227E67A2D00F531436136355F243D1FC0D712C5765754FA22FCFFAE97919161F46D6E61ACB37D83777B385889770B50765B127768443A5C4D3A4E35
310
A3151111F146B7CA116F918A049F1C272F2CD7976C69A0068773451659A97E0F4A08FE604C3FF6CE7385DB19F4D3ABC8A0D80DA8A42096AC377DB49382B36E270B6FA7570188B4B7D1DDDDA82ACA487CCA5D38BD3BD039ADBAFA4ACFF27809239B722081E2EB9F145320553D183F28471C388BC8814E5045676767AB58A8E7
310
2D1CED2CA731379515D2E533E4CF0B39DFC625F97AC4836831A4DE330E87A8126FA17EBE583D614E71E22A8DBF2825599743E0640037303E8E1B1E8EA4E1ABFA4F62907B5E4E0E5DCFDAB417C36C6848A2B8D15F1E505434C0707E16B1CFC2A1C36A42BBF55734F8F4301DDC2A5110CEE8C0747F69519265012A2174BF4E95
310
5ECD4FDE095A3ABC70536B7AD0B9D7892F81287D667C108703C9B66A221E9A0929D030008F77FF6F5D2108EF5706FC87A3069B976F7C9FC3239D13D283CDEA83597461079FEEE049B0F392889898B7D87D31F8D60ED7B56B91823A8E4EDDB36C6172ECEE42BD42B12CD67994FA0F0DFAE9389356F4CD4425A4B8AA55CBF7EC
310
D585C6A2C2316791E43D5C06841ADBB226A87FD61515FFBB0167B74E56BD7F3E90A57A97FEDCBDF483A0D6699A8C0849CAEB4947FAA90D8E332D9DEBD9F4738C37DA0CAF9CF3DAA68BCB67C420459C7A64498D6E848E5CADE92BB6901F607AA331104A67F7CD650EE169B1DAE94D2C31C2F993632259B6957E246EFE4C5481
310
107B07118607700040E5812A2A2A38DA0076875258C753F60E0F2662C748EDD5F3F3686B8FC3BD6FE631ECCAA1E8B1C1E565AD117E54893E79F4672E32F9E46B2A183DFDCF3EECB4D4D077DBEA0DA254D256045109670050129E9B9B1A9E4A11344D61497A992778095151510C4BB7EF2009B63AA4360635312E4CF668B7E0
310
D3D85A8688E2BD83B569439892ADB63461930D428E0DE42E4AC57CE48DA5CC1449530D8BD3D6A0F08DF20C8E8F570F2CFFFCEA286E30969B4654D498A58D9DA782E19FE3F002181838925592C4A1EF0B332D88B61A92C644547BED490D3A42CFFAB70E36D961F694F6307F72FF15A1C79D5B1B5CEFD353D9E2B52566DEC8F8
310
F09CB3E8359C0F68EBBB7898243E34E12A015B2685AB303C04D3A9E00671FF3DFF0A184E4A2ABEB2B666AF5B3A209C73D8EF29DCDB069C9F391EEE9DD0F74C7BCDE16F8F02E3B8816122BBEB50665775B600549D8BB33A54A6BF940C028118BC6878C79958D6784F9DEAA6E26748386FFAF8D0D0101E2847B6563F5D8DC1D7
310
8F787BE00E2C941AE12148D4A81599FE8F68D4DA5CDED75530ADE138240300EE13B0FC13A1687FED6774662C05A2B7DFB186732F0D7A93545D8B0A6390AE5054D9CB582DA846D7A061B3358B45E2B52DDE63E114397EDB7E09233A579155D795BE76102CF277F4DF8B188C4F2879BEAE3C08347124BF9ED23B128259FE107D
310
31E34A652F090B30B39E0D9AF917B76A2806135621A8A60681F16AF216514BBD02711585B5B1AE823F4B2D0369EA5B6BCB863072727FFC871CA6C9AB79A814D989057E9470A3D238BC87CBB4A0EA49AFE2B86F22E499793CAA9047080450166BDC357524561E258C77CB697F1ABB32562CF87C3B7AA12F911EF19FB3E5C022
310
22E887D08202A60A17151F5E053A86B437771088B4FEE14D652C43E8D939995D34545E12E2FF93D4E366EAD25F10CB7DED141563C3D0C447AF06078A91135FD4B9611583CB4BF3BD167F2399CEAB0E0100F8FFC305F00F1711717173138B4B48C83022295DE657EFEDD97F238ECA80F528AFB4F8D67AD4E2594B9A3AA86D74
310
87EFC313BA95745C186F0CDD84CC12DC9CB0424B42203D351FD9C0A3AF10CC7F388E0329279087386421F194F4A29464C1DEF7EF8BE515E4A199DCD5B909342598D8FE6A231F71336248D5CEC5454455C7BE383B3BC7B260FED27F703FDC39A170F3827239102F59D4DEE7FEF82EAA1A5E4BA94DCC4CC44E7E2EDE20F24244
310
E4454369D2E87C3F823F193FD4FD27E1C23984B01898D15ABC20711A8A558054951A6AE280096BA36CBA439603B7B0B4C45F248C14B2383B4B5CD8ECECE4FF859AD4A6CA2326D020EF090F4041D28DB66E5256B56232CC52829DE8060BAE6BBF37D4B7469B822454FE93210A3E8D15E69FFCF01123222611C51C4FD0A041A0
310
CFA2471CF6BE38D2B20FA4C3525B5B8B586759475CF80ADFE67A284AC24651E52B8E683D24C2622642F27E7C3C22783BCF63648BC398BD6CD0D9C97E7E7E3EACB6126DB7A6C1FD9F1031302EE67ED96F22B77C7CA0239BB324207559B105E4693EB26EC46182A92C9C0DBD24F29B31C5C5AC1F84300E0E17CEEAC15F5736FA
310
4A98971E2F1423BFCD68D4BBD5F86E74B40A369F39507C88FCDB35D2DD8DEBEA4AF999E23CF2816D204200DF6E611781B9884C1AC8888B4DE397320472959434323A5A36B22A8E1F721A270DF3BD65E4A31C11FF048AFB0D8B7B6881423793963A23CFCE935FC189ED36FAE35C46DA3574C979E4394BE52084F3081837BE03
310
3396D2EBD80F1F691B273F660D2B32FA27A33B1DE4ADA5F0FA4651511102DFA410DDA86E065272CA314D5249DF91B06BB92807B28EFD54F08F7B525252782CD276DD02E6B0319B13DF87B1F6361AD6B28FC0D711CF445429B9E5A433CD493051C49A9E03DDB1B147D880253514A5DED88009018620EE229101C041950E2D8A
310
A8E1F5F5438E0C0C0C60EEDEE9E3E0C051948C69F84BB7B2A48A1F3C8EB9E6864687F4F4F6F6E2FA87608ADAF9C5E117B7C1A737E710769DA1D15ECE6A84502AA855398712D5FB51BE92E4EF824969CE18278798AC303C2C7980DD2500ADF8FB1E6D6C2FAAFF9987178923334A244758BAA01A9A1B70FA5097D01E1CC2A58D
310
AD0EC94CE6430AA9B0C10D75E3C6BAC670EFBADEE1607739CE0FC18A2587E3EC3058562014C64219C69BC269082D5C2F4A659278D585755912176D78A1B641719C2A394CED495A1AC5D583FD2F5EDD93308EA7EAE8A6DD396598BDBD3D4CFED62D18A5BDFDE0DD5C80D1A89BA62697B131AE7CE9A6594138582F1B37D68F17
310
49AC7CB67A70695D48A4A056AC1FBD4E82358CEAE38F54B95A9016F9000F9879C0D9D131768635CA798895F27D6F1614F11F2838A83611AA51C9A3DDB539D42979C29F10465655C17BEC3E2760B80DCBF609198C7B171A531905F3EC218D696025975E986C6B4C666666787271F202805577DD5A3EF0CAFAF91B62DC4B2DB4
310
217A7606282F31D8DDBC290593BAA93EA6353AFA9939B877978481E15CFC9F2755CDC00C538F63A4BA3E80AE009B73CA0185687D339A507D165B74290D6EE46D5C58148F020C3668ABE9EF2F7549170DC80DB41FFC1D678FF19AEB10C7133832B104B80F691B3138F97A92D26E551F1F110400D45AC71A9B9AC41A1A1B1DAE
310
ED0B0810638EFFB511D46B121C6FEA0F38CD00E03CFFEB9713FE1F9C263E4DDEC160D0497FA9A132BA608584057FB15380825DE6C7FC3C667EE947D488A09898D8E939C4953BF4EC9836344D2CC6B2971B2A21A572B06096F4982D2CC7232D46E8EA69DC83722E267754D777F97F96D5DA74E1E75178084D0E70F12AD33E5F
310
71EF2AFA599B2BEBF60A5BE475F444F240CBFE8143C334E7ED9150FEEFEF7EB020C4DBED388DD1D6A167A76F3CBF119B578AE8CFA7736ACAFA4440A1C47185638A0D2F3EB5BDDEFDA958FB13CE4AA4923D5BF840392D45544329525749734866684BF7F8D9D54D892E19BCA9F829A0F8BFCBEEA6CFDFC61D74EA1A645ED7A1
310
FF241739F15694BD835B66FEC5677E40FE69BD3F91AE402F036537218A401CB0828604AD189E575015C6F3F6BBC8AC79CF6C70653847254B31551EFCBEB5978B9DB85D58D0FA41A9DFE9C624834AA04949D24B5AE6D299E072D152D12097920F14AA92C31C3B97E28B6C2E6E9C23D63043ECBBC0A60FDF5BD0C33C127EA8A3
310
308B8B6AFFEB28B4455BF6E7AF4FC6222728357EB8E46E85053E6A8843AB23295BF838ABDA94658FEF3F832F147046B4ACD6F7D48E8FCC9618582961C898D1C7A253C91BFECBDA6BA18A1FCF70755DCCEE2222F41B76D23CA98D0CB3D95F0CF66D57FFF65E2A90F5DF40FC3187621E981BD0BC1D992787212688976B94A8F0
310
C6EF646624B570B78E068826F87CE27041A95C9A4871FF65CC17FCB1639629AD6A9517000D63AC231F3D741CB8430777E7ECF80CE7A3F73C0F162F7E56AA71F4DA80A33CD6ACEE78E2C11FAC03DAFCE929B106F8F6B3ED2DC71FF994BD9CEF4E9A94896EF1B6E2B7B4978168BCF0847A3D2A4F1B0500B926E634B174548E9F
310
BAD27153FB5FC36799B1E6C7C38A94E1F9E996796D7B485E635D5287A2AE76FBD11A341DB3F8F810385BB7296391973DC6C37C452A9305AEBBE0CDB6C566DB59FE60C8E94B1FD090354BF51439FFD1B48D725228FFA88C84F686F547107A7A235665A4593B7C34D748C1AC8D56DD5DA861EEFBADDECBBD65117E65851F9035
310
1AEB65F0EFCFF4BCFEF24CB7A5879699FAC437A7AF9099186CF006BB923A59E37D7A36A29FD8D2CBB914A5E9D0A8FD212FBF796AE9A67958FF1D5D8B85F78F96219D4714EB919929241B6C018AAE0C02069F8D919961EC5DDFBFB7573E3AC8E08BFB7C8534BE6DE045B3CD63DBD71F7638BA2309CAE398EA3A7D8F98BBBC7A
310
EB367EFA5CFA27A9F8F2F52FE878058E6209C026453F8E7E8A237DFC389E9590F6059B397CFD65183BBF936E86896612A5B5FEE49DAC8455D026218AFEBEC12B3523A45B57B82C9C97E02ACFA1184DB18E48CF615DBF39C3CC6F0B4AE6BBEEA2E39D944E290302FA3DE33FA7E40296E2EF7BF1CD855BBECFAD0FD622BEE974
310
6FC4FDFDE545AE6E3BC234CADF83A0FB76DFB145BF3828AE3436368AC24989454F8FF70A177672C711CAA1A76107218CF948CA01F873520E7A2B118EBB161ABAD432932029628B6761590C98AB590C8C8C79798CE9F715BA696E839E9131A4BB68BE923F1747FBFF165331FFDD4D05997ACD168F12CA75348DAC04C7F509FE
310
83898A8B421181AF492861CE81E4A2DD0A30850CFA95E05F097FF70F9E777310D584A75BA7018922E271DAB1D785671157685B7D383D3E074DDB4F1E44EF04B07BAAC75A062077C54B9752C738C9D804D402E02851F3F89605AF189738C18C021D2139EAF72513824E10DDD3047BACC8521ED7E98B257D1166903B1B08FA6F
310
918FD7E162913FEC7D0EF4787E29C35FBA8C6E2C9C20E9AB30AE42CA2A01A090E7D010C1B5BF9CEE2A304BF3A987FB40D836979B79E18D70F257DA61E808472DD85B82761825779D6B90CAEB0F23360C6F80A7D7D77545E95B3DFF0CF96A827F9B5BCECD2C9698718417EF80FEEDEE938AFF55859D0D540B7FE09435583A6F
310
04874A0C7E8CF234DF4879722000167F5872CEC6BF3EF7E5A8CC8121E6A359227C8A29C95212F9F735BC72A887D56B8F309FC525BFB4FD767AAEC4AEFF249CFBBD2DE1AB9969A6155C7D8DABC307E47324C1F916C7BCFF40ABA5644E9FFB9238D19ADADA49D9610F01ABBA57E4DFCBDCCBB2B93C8953206C91DE01B0E2651A
310
6D6C31721915B31F7B7CBCE55466F6D70402788FA91D73BE4ADCBA99A35F17D6B83383704917D6833F0FA3CD45C926ADB8BC17999A4A0AFBCE2541F7B8CF4C2F5FBA611B3E626D64407CB32C122DFF4EF8674D6EDBB86C8F7C6A16D50FA685E2CCA34F8F7D1D8265BB0042E9D7F1F666F7BE5FAA5184DF58E12122A42EF02F
310
461B3F369AC746F96528AD208512AB56844CF75B97F352DF7995024FB02855385854F3798670D01CAC771AC3E1889EC25F61A20C1F8CAB46898817F9C47E2CDA1F286BF2F358298709FE567C91133E2638C8B53975E753EA8BFD3578B5F7186B7BF084EBA3F77BAC3132A5779902EC22AF2D2E79F42D324E083386DAEE9810
310
D1B44A5DAA54513C7A71E52A4AB9257D975B621308FE4D2141CC3DCFE946C154A3C1DFCCA7629EC69ACFA831634ADDA93C0388D2A9A2DDAFCF957C6995BCE7FBB6DC4EBAE79E63EB08E9A25F52F67076F7093CA545CA3053B5BF576DEAD4E0017143C5F759F32B2D6F145B52B67B48909B7C7FCA6586EE385A2189C16932CB
310
6DDFD9152AE317C430492A578ED27B72D85D40C7C93C097939E1B50F4D67F05334FE9DC362C30B7FF561B95259138ECFD9274C8D695C31B14D4EAA9F3D7FA8DDF652F8C5DEFA23284C799B7D94416DEE81E05A866302DC70192A5368EA65E1CED8BF107A1E2D3119A71E85DC1A7B0C1E93274CE04DD0F2ABC8AC7C987FDB00
310
2B6F81757B43502EF7A0D92E416494FAEEA4C9C090CD9557AA4D532F4996A272B94355C5A0E4974EEA9627476F30809B94D8D8D860062E02204643BEC7D0438AF800FC7E2B26955D595421E83C69E1A07E0E3122285835F014AD538188CF9737CE76D464A353FA55A001AB2526B84E985083693BC76FE211CA1D000679C889
310
E3C009832C87E1AC2EDD05C302557422DF0800E316FCAC86978A371F025A6C7DAA9F333E7BD160403A1A06EA75AA9888FF01504B03041400060808008158314451464CB48900000043010000360000006662782F43433235394643392D384338432D344441392D423936432D4342384646303145353342412F646972656374
310
6F72792E786D6C9D8F310EC2300C45AF127987122606C71DD918B841D4B851A43646695A717C52A85029031293A5A76FBF6FACEF7DA7264E43906840EF0FA03836E242F406C6DCEE4EA06AC22492573150D1F66C60C640E8938CB705396EEDD86DE9B5042FE27813D640EA63BB001C722AF6E55CB61E4863F58284D5D3F53D
310
D715CE1C3985E63FD7F1B7EBDD617E9F1E504B030414000608080081583144DE2BAFAE42070000211C0000340000006662782F43433235394643392D384338432D344441392D423936432D4342384646303145353342412F6F626A656374732E786D6CDD595B6FE23814FE2B56F665F721372E2D8C2823087484663B331A34
310
AB7D8B4C30D4DBDCE4242DECAFDF63C70E711A207393464B25481DE7F89CEFDC4F266F0F51889E09CB6812DF19AEE51888C441B2A5F1FECE28F29D3932D0DB299AB024C96BFB0C14E388DC197CD9984EF62C2952B9B4253B5C84CDD5FBF9DF280B484C0C148438CBEE8C2C782411B67091275B923D595B9C636BBF3B58AE55
310
6ED4C9EE194E1F1B47A59891380756613D062A920357FF1744B2A7139B6FD0B6F5BB6DEB5DD8660BC17546699CE5380E5E71D538AE7786ABC6717D77B058F68663733818F4CDC14DCF35E7F7F385E9DEF61DEFC6F3C6B3E5D840D3C92649C24A012989B7A0C5A331752736BF53892F5168E33B48E2980412CDB60D5B22E952
310
923531D180758568358594B2D616FA1D853FB3AD13281A4B1ADA4A38F55BB7DE64F30F809075B15296116EE559CE40D712FBD21F9C895DAE6A7AA1198A704E18C5210AE98661060A82ADA5823432DC5B3829C431135A54F4EABC82615FF7A5362E77451872FF35A6C2D37CF04792678233FA2F6127EEEBA7014F206D41E37C
310
2485CD8F2990184F6CB158DEEBF7E4CD1248B40BF11EAC05C4E49BFABD065E1E8F05AB85317D7FBF39AC797C683F3C65494A58CE2D4F38B3F43BA5C19A6981F17500A5C455D7DD0995CF00FD0740BEE2054D40738C1E068781929DE138DB252C02ED2007990E7C39885FBEBA9AD8D5C35384B458790E5370DB1F84A9268676
310
760DD2E9E4198C3E617D29DC3AC021D8F4038DB99F83A1A030812588F7BBCDC198AE2098C2223C8543901EFE2636BF44F053D28178D3D0505BF8EDA028E5304D3F3BE9EA1DD80CA341A52A4DC673F80E7F08BEB3C5FAFDBA603B1C9007E9D80BB2A331CD2199B633A481AEB9FC97D507E191F3E39FF858F7416D5700E7EC13
310
1E385AF4B2967A414231C00ACFC3A56AC4CA0305770F431C93A4C8E47A5BA00A923061FEE6E8973EDC7AD65FCA08CAC3A405B40633C8EE01A32907C5984A755591D03AE194818961264D705FAAD5DF1451EAE32829621E6B5FDB62930F0834DC1481AAA0A62C5BB9AD22BBA5BB5D9141F46A25E969404A8756844B131F4020
310
6BE397911DC3904593D8A79084C15B5A4FD00EA8C0BBCC7346C29D4FC3B088FC1D0D2191F8114ECFD0EF28413D753D91E34BC2B6AD0475CB524EA96C88032E815520A97455067DA953469E29AF33454253E940DB210B5163DA3F932F78AA680154196369F8E3E17C3EE87BE672E0DC9A83E17268CE97CBA539BB5D0E9DD1EC
310
C6E9CDC0FFA59508044EE1AA9EF04095BCCED1FC2F7F2CA24D8C6908373805BC4DDFBC15E9F3CE86D8687B1ED46AF7DED81C7923CF1C2C6663733EBEF14C6F3EBABF77DCE5B03F9FD98C6449C10292D93DDBF19549A6F1FE1C575530E5690BE4876F0929D435D7B39DD2575398FF6F107DD74C0A9A127FD5205AC5AE968AB0
310
6B10E58F3643280E9E788EF20328FB5ADDA711449B7CB4C5B9AF8CCB8ED577C4C775C73D67DC1B8D6F2A63BF18A8C539DF1DE7DA2408A0F12C723F497140F3F684DAC0A5639CFEAADC62F5DD210274AAEFEA90CB79461EE2D308EF89BFC3BC4D68098CD72468CD61FB30C9321A934CB479AFCABF064DC73A4553A9CA1623A4
310
991F911C7F8BFD89BEA161D3109B431F1AD29C8F04AE56059541CB16E41C45DEFE42E216F21FFD0C476958B6BAD730707BCA9A5593D366719C697EC433D89B8F73DFD91231B9B846BD625FD507AD5A6B521F7F33F933F0A8BAE627C2A38EE85E3A594377CC3F23082A3743B77FAB14710D2B7554CE1BB9B080D63338FA2F84
310
EE1F3B159ADD74522BD9CAA23A2711F4B1382F58277FBD193AAF0E9271A1E110B593BEB238140D9C6AE1003DD1C19D2B6F6BC7401D4A6318747512E49514AD262C7421867A7C76F5157E7D51D975AADF1D2F7F7AC55C77BE080ABD2E380C94D1CBE8A3D5D4AD55B7560F652F380F2090AEC5AF39078FD892EDA931D3C8B595
310
E8AA3EBD563DAF78408D60648B799C7DE017E1670CAA86F639B365D16697EB2B9ED82C984E9FF8D098D6697D7CB76E508195CE4F7FE21891970605B9EAF16EF802A92FAB53D3DFA02025FAB2BAF0F82FD1512805D63A0B1807674948612A4FB6684F12C8DE3076E8D06DB08864222B9FBA14F54AA0C3D3CFE55035C79B50F5
310
38C12386C974287BB12280A92864CC3B43AEA3DF600ECA4791623A653D411B266398810A46EF0CB0D89C42B7656D609E25A687827A635E098E8DE33DCFF7E553D5FFA7C75E755FD59E2EB848C9346782C236152F0AA0EA2B6F4C27DF2EBA6207E11C2E37455E09735A38492341506F044AE160ECF724E13D404171592ED712
310
7BB486B4D368FEA21D9454CD1CB3BD98AFD76C72B6F864F3D1F8EA234AC362CFD579A9FBD52899BCEB0E8B720A3501C39062A698D790DE1BFB134BE01D5384EE291801FAFD30BAF9C3F692284AE272C99EC9375568FD08EF9DB6B69AF9411BEFB8035B4C01E45CDFDFE08C58789B3DC102A896513E1C2D21D60CA08AA63503
310
501AE1BA80C7B4FDAB0592B511C47C6531F5B0CBE111437D048EC45FE670B7A96FA84D20C117802B71F374A11626368329F8F43F504B0304140006080800815831447B912B6BDD000000530100003C0000006662782F43433235394643392D384338432D344441392D423936432D4342384646303145353342412F7265736F
310
75726365732F322F636E782E786D6C4D90CD6A432110855F45DC5F7F42A02578CD4B64D54DB03AB112AF73F1A7246F5F4D2D7435C3391FC339A3CE8F2D926FC825605AA964821248165D487EA5ADDE96774ACE5A65C4FA0FA324990D563A64AA95CFD8F62939B89916871A43BA4F515C3D24C8C15EF7E429B1D194B2D262BF
310
6033CCB48A0ECA9D39530D932C43C1962DF413356C304FD80CA682A3FA20E4711172916F17294FE27812870FC507A9D527629C7C481532EEC4625F52CF23141FB6562D87C98C12DDF80BC77A38C5BBAD55A9B97F6062F5B9772C6CC6037F21BFAE567C54ECE3D5BFCFF10EFD03504B030414000608080081583144FF15A4A4
310
5D000000800000003A0000006662782F43433235394643392D384338432D344441392D423936432D4342384646303145353342412F7265736F75726365732F636E782E786D6C4D8B3B0E80201005AF42B6F75B59F0390B113044D83508C6E30BC6C26AF226F3B8BA6360974DA7271430F523308B2B198F9B80925DB7005392
310
27A2FCCB80A18E5640D320F996A81C9F32D6E9129A0D1EF74FCE750E6D57BC7165FBCA07504B03041400060808008158314483E021C83D01000046050000300000006662782F43433235394643392D384338432D344441392D423936432D4342384646303145353342412F636E782E786D6CCD94CF4A033110C65F25E4BE7F
310
520A4AC9A6D0834FE041BC65B3D3357637B324B362DFDEA4A655918A87427B0B936FE0FBCD7C8C5CBF8F037B031F2CBA868BB2E60C9CC1CEBABEE1336D8B7BCED64A7A44FA26E3CCE9111A9ECA5CC9DEE33CE552075B3D0FA93A58B7CB454DE46D3B1304CECCA0436878302F30EA52CF841D845DD969D2A5283D049CBD81D8
310
4F7684DC6F3C68828EAB452D96452D0A71F728C4AA5EAEEAC5B3AC9252C91671C87AEB083C4ECC607CB868A69655FA5672F6366B1201575FCECAD63A59C57F254374EBFAACA3FD9474D33458A3298EA94243404514811E65F52956B24ABC3FA81F364F4707ACB31E0CA1DF5F6900E2DC004EC6CA9884FFF11F847F6363FB1A
310
71AFB5EDB3B0D9D6C5508F690D31AEBFF71F53A45D3FDC5EE84FC62E9FF9784AC89ADB433EFABA107175387971E9E902AA0F504B030414000608080081583144D107CE197E000000A30000000B0000006662782F636E782E786D6C4D8CD10E822018465F85FDF7945636D800277FF11E2ED131119A49EBF183E64557DF76F6
310
9D23DACFE2C9DBAE2F178384FA5001B1E11107172609691B2903D22AB1C6B8FDDD80847EB1120A0625A635A6E78E063BF6C917EA5D987788786AB8414E1932A4975BC7A9E657A4A89931557D6FCEBACBC6B128797EBDBC25AFBE504B030414000608080081583144A6D797065F0000008200000007000000636E782E786D6C
310
4DCB3B0E80201045D1AD90E9FD7516806B51190811670C8A61F982B1B0BAC9C97B72CA7B1037C6D3332918DA1E04D2CAC69353902EDB8C20262D23F3F59B81A079470595414B17391D1F19B4730A5583A7ED43BBE4025D9592775E5ADFFA01504B030414000608080081583144ECFD112DA800000026010000130000005B43
310
6F6E74656E745F54797065735D2E786D6C7D4F4B0EC22010BD0A61DF525D18634ABB506FE00510A79458060253536F2FD89D5197F3FED3F68B9BD80362B21E25DFD40D6780DADF2C1AC9671AAA3D677DD75E9E0112CB5A4C928F44E12044D22338956A1F003333F8E814E5331A1194BE2B0362DB343BA13D122055543278D7
310
9E6050F344ECBC6478EDCD76CE8EABAE5449AE4298AC56946789C28AAFBEABC53F3EAF09A84A1441B91F0101CD4780756578C173A578FFDDBD00504B0304140006080800815831443DEE336E64000000790000001B0000006175746F6465736B2D64657369676E2D7061636B6167652E786D6C35CBC10E83200C00D05F21DC
310
A56CA76D41FC96062B120735B69A7DBE268BB7777961F8D5AF396893C2ADB70FE7ADA196782C2DF776D7A97B5933C430F15651E5469C55D70F80A4992A3ADC954792C525AE70A1E4D6AD9816CC044FEFDF01FE3FDE907802504B030414000608080081583144A9D57240F20000008E0100003D0000006662782F4343323539
310
4643392D384338432D344441392D423936432D4342384646303145353342412F7265736F75726365732F322F636F72652E786D6C8550CB6EC32010FC156BEFD8605B318E3091DAA45FD0536F0888831283C5A3EAE71762576A4F3DED6A76667677D8E96B79549FDA07E3EC04A4C650692B9D32769E20C52BA2509D38F3CEC5
310
5F34A8AC58F4040506CE66EFD2BA43D2D9A86D41AD537A0745083A42251FB99920C89B5E442D52CC8C70AF5721EF62D635A9371E672919B54B8DCA6EE66AB4078E0F940E0453345EFA11F5A43FA371185FD1B9232F87374AC70BED5853C49C45B3FC6C975E8BA815F016931E6182C8F04EC811F747DC7EB0A630390BD1E79F
310
F7A5E5BB4C67CD86FE714BABFADF2D191BBB7677DB140138C9C73D079C35259D5C9ED1E55A92E4DF504B030414000608080081583144CC29B55AF8000000960100003B0000006662782F43433235394643392D384338432D344441392D423936432D4342384646303145353342412F7265736F75726365732F636F72652E78
310
6D6C8550CB6EC32010FC156BEFD8E058098E3091DAA45FD0536F08360E4A0C118FAA9F5F485CA93DF5B4ABD999D9DD1187AFE5D67C6288D6BB09584BA141A7BDB16E9E20A733E1D01CA408DEA75F34689C5A70820A831473F0F9BE42DABB84AEA2CE1B5C4115232668F4AD3413447DC145B52AA7C288D7F6AEF455CDD8B2F6
310
C99322676B56A935C5CD9E2D069074CBF98E514EC6D33092810D4732EEC65772DCB097ED1BE7E3896F4457C55224BBFC6CD701554203B2A76C209411B67B676C4F873DED3F44579952C414CACFEBD2FA1DC880D1E7A0318AEE39FDE39AEFE67FD76C5DDAF4ABEB531141B272E463204557532AE51161A93551F90D504B0304
310
14000608080081583144608AE901F3000000B1010000310000006662782F43433235394643392D384338432D344441392D423936432D4342384646303145353342412F636F72652E786D6C8D50CB6EC32010FC156BEFD8E038AD1D61A298365FD0536F08130725068B47D5CF2FC4AED4DE725A343BC3CC0E3D7ECFF7E24B39
310
AFADE98194180A65A41DB5997A88E1825A288E8C3A6BC31F1A1446CCAA870C03A393B371D920694D5026A3C68E6A0385F72A4021EFE9D1839757358B52C49018FE562E42DEC4A44A52AE3C46839E7FA5D22911D408ACC6A4419820F2FA41C80137075C7FD22A33198D518F9B951E93BBBE68E580715EEFBB33EF50CB5B8E9A
310
B7538786EE85233EB4E73326EFFBDD70A2551633EA834B376F9FE4EB9E95AFC27F99E3323E91599BB0AB37C355E1819194E7B160B4CA05A6F16837CD5C36FB01504B0304140006080800815831446131028C53010000DD0200000C0000006662782F636F72652E786D6C8D525D6F832014FD2B867714AC69B5419A6CED7EC1
310
9EF646915A52058360FAF3077EC4F9B06E314172EEBDE7DC7302393DDB261A84E9A55625C0310291505C5752D52570F60673109D28315ADB1F6D2052AC15250830A0A436DA7533C4B5B2420554E94ACC20EB7B6141C41B7F2941CFEFA2653173D677F48FB863FCC16A11E378EAA3C43959CDA3B2F26CF226850114EDF3FC80
310
510E8B4B56C00C6767581C8A7778DEE1B7FD479E17977C4792304C8995EDA2CE8D60565480A608671061880F9F181F517644E91749422725BD35DEF32C1ADC017ABB3E4932E11B3ED7557FF339A9EC2E9DF9A6891E50ECD71B0B9424211FFF1BC3DB66E8857D7E965D9BC5C2C34383E0569BCC572AEDD6D2C01A273C358AC6
310
8F2453D5338F04BFF1A42F785E73F8A098AAFD6ACCFAEBD5D9A0BEDDA913060EF619296D5AD6ACCB4D2BAEE72AB4B1B48C73DD68F39FE9C5EA1266121E26FD06504B0304140006080800815831448E0B43FF06010000B201000008000000636F72652E786D6C8D504B6EC32014BC0A628F0DB615E30813A94D7A82AEBAA386
310
B82836587CA2F6F685984AEDAEAB8766E6BD19869D3ED705DC95F3DA9A11920A43A0CC64A536F30863B8220AC18933676DF82583C088558D30C390B3D9D9B81568B22628935163A52AA0F05E0508A6253D46E8A70FB58A4AC49014FE566D62BA895955A4DA759C05BDFEAC4E4E89A024E40D261DC20491FE959023EE8EB879
310
6375567216A396C54ACBE4AEAF5A39C8F181D29E608A864B37A08E746734F4C3333AB7E4E9F042E970A12DABF332673EB8F4E77224E50CC08B7BF665F54E71F66EED5204299404D62C5FC984D599F8133A6EF21FA1B5096D530EEE1B1E7292023D88649C1B4CE3516F9AB96DFE0D504B010214001400060808008158314400
310
00000000000000000000003700000000000000000000000000000000006662782F43433235394643392D384338432D344441392D423936432D4342384646303145353342412F617474726962757465732E62696E504B0102140014000608080081583144000000000000000000000000350000000000000000000000000055
310
0000006662782F43433235394643392D384338432D344441392D423936432D4342384646303145353342412F76657274696365732E62696E504B0102140014000608080081583144F270F13306000000040000003600000000000000000000000000A80000006662782F43433235394643392D384338432D344441392D4239
310
36432D4342384646303145353342412F747269616E676C65732E62696E504B010214001400060808008158314488E57597CD3F0000904100004200000000000000000000000000020100006662782F43433235394643392D384338432D344441392D423936432D4342384646303145353342412F7265736F75726365732F32
310
2F305F67656E657269632E706E67504B010214001400060808008158314451464CB4890000004301000036000000000000000000000000002F4100006662782F43433235394643392D384338432D344441392D423936432D4342384646303145353342412F6469726563746F72792E786D6C504B0102140014000608080081
310
583144DE2BAFAE42070000211C000034000000000000000000000000000C4200006662782F43433235394643392D384338432D344441392D423936432D4342384646303145353342412F6F626A656374732E786D6C504B01021400140006080800815831447B912B6BDD000000530100003C00000000000000000000000000
310
A04900006662782F43433235394643392D384338432D344441392D423936432D4342384646303145353342412F7265736F75726365732F322F636E782E786D6C504B0102140014000608080081583144FF15A4A45D000000800000003A00000000000000000000000000D74A00006662782F43433235394643392D38433843
310
2D344441392D423936432D4342384646303145353342412F7265736F75726365732F636E782E786D6C504B010214001400060808008158314483E021C83D0100004605000030000000000000000000000000008C4B00006662782F43433235394643392D384338432D344441392D423936432D434238464630314535334241
310
2F636E782E786D6C504B0102140014000608080081583144D107CE197E000000A30000000B00000000000000000000000000174D00006662782F636E782E786D6C504B0102140014000608080081583144A6D797065F000000820000000700000000000000000000000000BE4D0000636E782E786D6C504B01021400140006
310
08080081583144ECFD112DA8000000260100001300000000000000000000000000424E00005B436F6E74656E745F54797065735D2E786D6C504B01021400140006080800815831443DEE336E64000000790000001B000000000000000000000000001B4F00006175746F6465736B2D64657369676E2D7061636B6167652E78
310
6D6C504B0102140014000608080081583144A9D57240F20000008E0100003D00000000000000000000000000B84F00006662782F43433235394643392D384338432D344441392D423936432D4342384646303145353342412F7265736F75726365732F322F636F72652E786D6C504B0102140014000608080081583144CC29
310
B55AF8000000960100003B00000000000000000000000000055100006662782F43433235394643392D384338432D344441392D423936432D4342384646303145353342412F7265736F75726365732F636F72652E786D6C504B0102140014000608080081583144608AE901F3000000B1010000310000000000000000000000
310
0000565200006662782F43433235394643392D384338432D344441392D423936432D4342384646303145353342412F636F72652E786D6C504B01021400140006080800815831446131028C53010000DD0200000C00000000000000000000000000985300006662782F636F72652E786D6C504B010214001400060808008158
310
31448E0B43FF06010000B2010000080000000000000000000000000015550000636F72652E786D6C504B050600000000120012002D060000415600000000
  0
XRECORD
  5
17
102
{ACAD_REACTORS
330
12
102
}
330
12
100
AcDbXrecord
280
     1
270
     1
271
     1
  0
XRECORD
  5
16
102
{ACAD_REACTORS
330
12
102
}
330
12
100
AcDbXrecord
280
     1
270
     1
271
     1
  0
XRECORD
  5
18
102
{ACAD_REACTORS
330
12
102
}
330
12
100
AcDbXrecord
280
     1
270
     1
271
     1
  0
XRECORD
  5
15
102
{ACAD_REACTORS
330
12
102
}
330
12
100
AcDbXrecord
280
     1
270
     1
271
     1
  0
XRECORD
  5
24
102
{ACAD_REACTORS
330
22
102
}
330
22
100
AcDbXrecord
280
     1
270
     1
271
     1
  0
XRECORD
  5
23
102
{ACAD_REACTORS
330
22
102
}
330
22
100
AcDbXrecord
280
     1
270
     1
271
     1
  0
XRECORD
  5
27
102
{ACAD_REACTORS
330
22
102
}
330
22
100
AcDbXrecord
280
     1
270
     1
271
     1
  0
XRECORD
  5
26
102
{ACAD_REACTORS
330
22
102
}
330
22
100
AcDbXrecord
280
     1
270
     1
271
     1
  0
XRECORD
  5
28
102
{ACAD_REACTORS
330
22
102
}
330
22
100
AcDbXrecord
280
     1
270
     1
271
     1
  0
XRECORD
  5
25
102
{ACAD_REACTORS
330
22
102
}
330
22
100
AcDbXrecord
280
     1
270
     1
271
     1
  0
XRECORD
  5
1449
102
{ACAD_REACTORS
330
1448
102
}
330
1448
100
AcDbXrecord
280
     1
102
DISPLAYNAME
  1
Imperial24
102
FLAGS
 90
        0
  0
CELLSTYLEMAP
  5
1447
102
{ACAD_REACTORS
330
1446
102
}
330
1446
100
AcDbCellStyleMap
 90
        3
300
CELLSTYLE
  1
TABLEFORMAT_BEGIN
 90
        5
170
     1
 91
        0
 92
    32768
 62
   257
 93
        1
300
CONTENTFORMAT
  1
CONTENTFORMAT_BEGIN
 90
        0
 91
        0
 92
      512
 93
        0
300

 40
0.0
140
1.0
 94
        5
 62
     0
340
55
144
0.25
309
CONTENTFORMAT_END
171
     0
 94
        0
309
TABLEFORMAT_END
  1
CELLSTYLE_BEGIN
 90
        1
 91
        1
300
_TITLE
309
CELLSTYLE_END
300
CELLSTYLE
  1
TABLEFORMAT_BEGIN
 90
        5
170
     1
 91
        0
 92
        0
 62
   257
 93
        1
300
CONTENTFORMAT
  1
CONTENTFORMAT_BEGIN
 90
        0
 91
        0
 92
      512
 93
        0
300

 40
0.0
140
1.0
 94
        5
 62
     0
340
55
144
0.18
309
CONTENTFORMAT_END
171
     0
 94
        0
309
TABLEFORMAT_END
  1
CELLSTYLE_BEGIN
 90
        2
 91
        1
300
_HEADER
309
CELLSTYLE_END
300
CELLSTYLE
  1
TABLEFORMAT_BEGIN
 90
        5
170
     1
 91
        0
 92
        0
 62
   257
 93
        1
300
CONTENTFORMAT
  1
CONTENTFORMAT_BEGIN
 90
        0
 91
        0
 92
      512
 93
        0
300

 40
0.0
140
1.0
 94
        2
 62
     0
340
55
144
0.18
309
CONTENTFORMAT_END
171
     0
 94
        0
309
TABLEFORMAT_END
  1
CELLSTYLE_BEGIN
 90
        3
 91
        2
300
_DATA
309
CELLSTYLE_END
  0
ENDSEC
  0
EOF
